0
SECTION
2
HEADER
9
$ACADVER
1
AC1015
9
$DWGCODEPAGE
3
ANSI_1252
9
$HANDSEED
5
1e4
9
$ANGBASE
50
0
9
$ANGDIR
70
0
9
$ATTMODE
70
1
9
$AUNITS
70
0
9
$AUPREC
70
0
9
$CECOLOR
62
256
9
$CELTSCALE
40
1
9
$CELTYPE
6
ByLayer
9
$CELWEIGHT
370
18
9
$CLAYER
8
0
9
$CMLJUST
70
0
9
$CMLSCALE
40
1
9
$CMLSTYLE
2
Standard
9
$DIMSTYLE
2
Standard
9
$TEXTSIZE
40
0.2
9
$TEXTSTYLE
7
Standard
9
$LUNITS
70
2
9
$LUPREC
70
4
9
$EXTNAMES
290
1
9
$INSUNITS
70
4
9
$LTSCALE
40
1
9
$LWDISPLAY
290
1
9
$PDMODE
70
0
9
$PDSIZE
40
0
9
$PLINEGEN
70
0
0
ENDSEC
0
SECTION
2
CLASSES
0
CLASS
1
RASTERVARIABLES
2
AcDbRasterVariables
3
ISM
90
0
280
0
281
0
0
ENDSEC
0
SECTION
2
TABLES
0
TABLE
2
VPORT
5
1da
100
AcDbSymbolTable
0
VPORT
5
1
100
AcDbSymbolTableRecord
100
AcDbViewportTableRecord
2
*Active
70
0
10
0
20
0
11
1
21
1
12
-1
22
1
13
0
23
0
14
0.5
24
0.5
15
10
25
10
16
0
26
0
36
1
17
0
27
0
37
0
0
ENDTAB
0
TABLE
2
LTYPE
5
1db
100
AcDbSymbolTable
0
LTYPE
5
14
100
AcDbSymbolTableRecord
100
AcDbLinetypeTableRecord
70
0
2
ByBlock
3

72
65
73
0
40
0
0
LTYPE
5
15
100
AcDbSymbolTableRecord
100
AcDbLinetypeTableRecord
70
0
2
ByLayer
3

72
65
73
0
40
0
0
LTYPE
5
16
100
AcDbSymbolTableRecord
100
AcDbLinetypeTableRecord
70
0
2
Continuous
3
Solid line
72
65
73
0
40
0
0
LTYPE
5
6E
100
AcDbSymbolTableRecord
100
AcDbLinetypeTableRecord
70
0
2
CENTER
3
____ _ ____ _ ____ _ ____
72
65
73
4
40
47.5
49
22
74
0
49
-8.5
74
0
49
8.5
74
0
49
-8.5
74
0
0
LTYPE
5
6F
100
AcDbSymbolTableRecord
100
AcDbLinetypeTableRecord
70
0
2
DASHED
3
__ __ __ __ __ __ __ __ __
72
65
73
2
40
25.72
49
12.86
74
0
49
-12.86
74
0
0
ENDTAB
0
TABLE
2
LAYER
5
1dc
100
AcDbSymbolTable
0
LAYER
5
10
100
AcDbSymbolTableRecord
100
AcDbLayerTableRecord
2
0
70
0
62
7
6
Continuous
290
1
370
-3
390
0
0
LAYER
5
71
100
AcDbSymbolTableRecord
100
AcDbLayerTableRecord
2
80
70
0
62
-6
6
Continuous
290
1
370
-3
390
0
0
LAYER
5
73
100
AcDbSymbolTableRecord
100
AcDbLayerTableRecord
2
81
70
0
62
-3
6
Continuous
290
1
370
-3
390
0
0
LAYER
5
75
100
AcDbSymbolTableRecord
100
AcDbLayerTableRecord
2
1
70
0
62
4
6
Continuous
290
1
370
-3
390
0
0
LAYER
5
94
100
AcDbSymbolTableRecord
100
AcDbLayerTableRecord
2
4
70
0
62
-2
6
CENTER
290
1
370
-3
390
0
0
LAYER
5
A4
100
AcDbSymbolTableRecord
100
AcDbLayerTableRecord
2
2
70
0
62
7
6
Continuous
290
1
370
-3
390
0
0
LAYER
5
EE
100
AcDbSymbolTableRecord
100
AcDbLayerTableRecord
2
Defpoints
70
0
62
7
6
Continuous
290
0
370
-3
390
0
0
LAYER
5
1c6
100
AcDbSymbolTableRecord
100
AcDbLayerTableRecord
2
SK1
70
0
62
4
6
Continuous
290
1
370
-3
390
0
0
LAYER
5
1c7
100
AcDbSymbolTableRecord
100
AcDbLayerTableRecord
2
SK4
70
0
62
2
6
CENTER
290
1
370
-3
390
0
0
LAYER
5
1c8
100
AcDbSymbolTableRecord
100
AcDbLayerTableRecord
2
SK2
70
0
62
7
6
Continuous
290
1
370
-3
390
0
0
LAYER
5
1c9
100
AcDbSymbolTableRecord
100
AcDbLayerTableRecord
2
SK6
70
0
62
5
6
Continuous
290
1
370
-3
390
0
0
ENDTAB
0
TABLE
2
STYLE
5
1dd
100
AcDbSymbolTable
0
STYLE
5
11
100
AcDbSymbolTableRecord
100
AcDbTextStyleTableRecord
2
Standard
3
txt
70
0
71
0
40
0
41
1
42
0
50
0
0
STYLE
5
CA
100
AcDbSymbolTableRecord
100
AcDbTextStyleTableRecord
2
iso_b_vert
3
simplex.shx
70
0
71
0
40
0
41
1
42
0
50
0
0
STYLE
5
CB
100
AcDbSymbolTableRecord
100
AcDbTextStyleTableRecord
2
DWGDirectTextStyle
3
simplex
70
0
71
0
40
0
41
1
42
0
50
0
0
ENDTAB
0
TABLE
2
DIMSTYLE
5
1de
100
AcDbSymbolTable
100
AcDbDimStyleTable
0
DIMSTYLE
105
27
100
AcDbSymbolTableRecord
100
AcDbDimStyleTableRecord
2
Standard
70
0
3
<>
41
0.18
42
0.0625
44
0.18
140
0.18
147
0.09
73
0
74
0
77
1
271
2
275
0
278
52
280
0
340
11
0
ENDTAB
0
TABLE
2
VIEW
5
1df
100
AcDbSymbolTable
0
ENDTAB
0
TABLE
2
UCS
5
1e0
100
AcDbSymbolTable
0
ENDTAB
0
TABLE
2
APPID
5
1e1
100
AcDbSymbolTable
0
APPID
5
12
100
AcDbSymbolTableRecord
100
AcDbRegAppTableRecord
2
ACAD
70
0
0
APPID
5
EA
100
AcDbSymbolTableRecord
100
AcDbRegAppTableRecord
2
ACAD_DSTYLE_DIMBREAK
70
0
0
APPID
5
185
100
AcDbSymbolTableRecord
100
AcDbRegAppTableRecord
2
ACAD_DSTYLE_DIM_LINETYPE
70
0
0
APPID
5
186
100
AcDbSymbolTableRecord
100
AcDbRegAppTableRecord
2
ACAD_DSTYLE_DIM_EXT1_LINETYPE
70
0
0
APPID
5
187
100
AcDbSymbolTableRecord
100
AcDbRegAppTableRecord
2
ACAD_DSTYLE_DIM_EXT2_LINETYPE
70
0
0
APPID
5
1C2
100
AcDbSymbolTableRecord
100
AcDbRegAppTableRecord
2
ACAD_MLEADERVER
70
0
0
ENDTAB
0
TABLE
2
BLOCK_RECORD
5
1e2
100
AcDbSymbolTable
0
BLOCK_RECORD
5
1F
100
AcDbSymbolTableRecord
100
AcDbBlockTableRecord
2
*Model_Space
340
0
70
0
0
BLOCK_RECORD
5
1B
100
AcDbSymbolTableRecord
100
AcDbBlockTableRecord
2
*Paper_Space
340
0
70
0
0
BLOCK_RECORD
5
23
100
AcDbSymbolTableRecord
100
AcDbBlockTableRecord
2
*Paper_Space0
340
0
70
0
0
BLOCK_RECORD
5
EF
100
AcDbSymbolTableRecord
100
AcDbBlockTableRecord
2
*D1
340
0
70
0
0
BLOCK_RECORD
5
FB
100
AcDbSymbolTableRecord
100
AcDbBlockTableRecord
2
_U0
340
0
70
0
0
BLOCK_RECORD
5
107
100
AcDbSymbolTableRecord
100
AcDbBlockTableRecord
2
*D3
340
0
70
0
0
BLOCK_RECORD
5
115
100
AcDbSymbolTableRecord
100
AcDbBlockTableRecord
2
_U1
340
0
70
0
0
BLOCK_RECORD
5
121
100
AcDbSymbolTableRecord
100
AcDbBlockTableRecord
2
*D5
340
0
70
0
0
BLOCK_RECORD
5
12E
100
AcDbSymbolTableRecord
100
AcDbBlockTableRecord
2
_U2
340
0
70
0
0
BLOCK_RECORD
5
13A
100
AcDbSymbolTableRecord
100
AcDbBlockTableRecord
2
*D7
340
0
70
0
0
BLOCK_RECORD
5
146
100
AcDbSymbolTableRecord
100
AcDbBlockTableRecord
2
_U3
340
0
70
0
0
BLOCK_RECORD
5
152
100
AcDbSymbolTableRecord
100
AcDbBlockTableRecord
2
*D9
340
0
70
0
0
BLOCK_RECORD
5
15E
100
AcDbSymbolTableRecord
100
AcDbBlockTableRecord
2
_U4
340
0
70
0
0
ENDTAB
0
ENDSEC
0
SECTION
2
BLOCKS
0
BLOCK
5
20
100
AcDbEntity
8
0
100
AcDbBlockBegin
2
*Model_Space
70
0
10
0
20
0
30
0
3
*Model_Space
0
ENDBLK
5
21
100
AcDbEntity
8
0
100
AcDbBlockEnd
0
BLOCK
5
1C
100
AcDbEntity
8
0
100
AcDbBlockBegin
2
*Paper_Space
70
0
10
0
20
0
30
0
3
*Paper_Space
0
ENDBLK
5
1D
100
AcDbEntity
8
0
100
AcDbBlockEnd
0
BLOCK
5
24
100
AcDbEntity
8
0
100
AcDbBlockBegin
2
*Paper_Space0
70
0
10
0
20
0
30
0
3
*Paper_Space0
0
ENDBLK
5
25
100
AcDbEntity
8
0
100
AcDbBlockEnd
0
BLOCK
5
F0
100
AcDbEntity
8
0
100
AcDbBlockBegin
2
*D1
70
1
10
0
20
0
30
0
3
*D1
0
LINE
5
F2
100
AcDbEntity
8
0
62
256
6
ByLayer
370
-2
48
1
60
0
100
AcDbLine
10
-20.5641
20
-0.0875
30
0
11
-20.5641
21
-40.85
31
0
39
0
210
0
220
0
230
1
0
LINE
5
F3
100
AcDbEntity
8
0
62
256
6
ByLayer
370
-2
48
1
60
0
100
AcDbLine
10
17.4359
20
-0.1875
30
0
11
17.4359
21
-40.85
31
0
39
0
210
0
220
0
230
1
0
LINE
5
F4
100
AcDbEntity
8
0
62
256
6
ByLayer
370
-2
48
1
60
0
100
AcDbLine
10
-17.0641
20
-38.85
30
0
11
13.9359
21
-38.85
31
0
39
0
210
0
220
0
230
1
0
SOLID
5
F5
100
AcDbEntity
8
0
62
256
6
ByLayer
370
-1
48
1
60
0
100
AcDbTrace
10
-17.0641
20
-38.266667
30
0
11
-17.0641
21
-39.433333
31
0
12
-20.5641
22
-38.85
32
0
13
-20.5641
23
-38.85
33
0
39
0
210
0
220
0
230
1
0
SOLID
5
F6
100
AcDbEntity
8
0
62
256
6
ByLayer
370
-1
48
1
60
0
100
AcDbTrace
10
13.9359
20
-39.433333
30
0
11
13.9359
21
-38.266667
31
0
12
17.4359
22
-38.85
32
0
13
17.4359
23
-38.85
33
0
39
0
210
0
220
0
230
1
0
MTEXT
5
F7
100
AcDbEntity
8
0
62
256
6
ByLayer
370
18
48
1
60
0
100
AcDbMText
10
-1.5641
20
-32.85
30
0
210
0
220
0
230
1
1
\A1;38
40
3
41
0
44
1
50
0
71
5
72
5
7
iso_b_vert
0
POINT
5
F8
100
AcDbEntity
8
Defpoints
62
0
6
ByLayer
370
-1
48
1
60
0
100
AcDbPoint
10
-20.5641
20
1.5
30
0
39
0
210
0
220
0
230
1
50
360
0
POINT
5
F9
100
AcDbEntity
8
Defpoints
62
0
6
ByLayer
370
-1
48
1
60
0
100
AcDbPoint
10
17.4359
20
1.4
30
0
39
0
210
0
220
0
230
1
50
360
0
POINT
5
FA
100
AcDbEntity
8
Defpoints
62
0
6
ByLayer
370
-1
48
1
60
0
100
AcDbPoint
10
17.4359
20
-38.85
30
0
39
0
210
0
220
0
230
1
50
360
0
ENDBLK
5
F1
100
AcDbEntity
8
0
100
AcDbBlockEnd
0
BLOCK
5
102
100
AcDbEntity
8
0
100
AcDbBlockBegin
2
_U0
70
0
10
0
20
0
30
0
3
_U0
0
MTEXT
5
FC
100
AcDbEntity
8
SK2
62
256
6
ByLayer
370
18
48
1
60
0
100
AcDbMText
10
-6.04647
20
-37.964886
30
0
210
0
220
0
230
1
1
\W0.7468;38.00
40
3
41
0
44
1.084337
50
0
71
7
72
5
7
iso_b_vert
0
LINE
5
FD
100
AcDbEntity
8
SK2
62
256
6
ByLayer
370
13
48
1
60
0
100
AcDbLine
10
-20.5641
20
-0.0875
30
0
11
-20.5641
21
-40.85
31
0
39
0
210
0
220
0
230
1
0
LINE
5
FE
100
AcDbEntity
8
SK2
62
256
6
ByLayer
370
13
48
1
60
0
100
AcDbLine
10
17.4359
20
-0.1875
30
0
11
17.4359
21
-40.85
31
0
39
0
210
0
220
0
230
1
0
LINE
5
FF
100
AcDbEntity
8
SK2
62
256
6
ByLayer
370
13
48
1
60
0
100
AcDbLine
10
-20.5641
20
-38.85
30
0
11
17.4359
21
-38.85
31
0
39
0
210
0
220
0
230
1
0
SOLID
5
100
100
AcDbEntity
8
SK2
62
256
6
ByLayer
370
18
48
1
60
0
100
AcDbTrace
10
-20.5641
20
-38.85
30
0
11
-17.064102
21
-38.389216
31
0
12
-17.064098
22
-39.310784
32
0
13
-17.064098
23
-39.310784
33
0
39
0
210
0
220
0
230
1
0
SOLID
5
101
100
AcDbEntity
8
SK2
62
256
6
ByLayer
370
18
48
1
60
0
100
AcDbTrace
10
17.4359
20
-38.85
30
0
11
13.935902
21
-39.310784
31
0
12
13.935898
22
-38.389216
32
0
13
13.935898
23
-38.389216
33
0
39
0
210
0
220
0
230
1
0
ENDBLK
5
103
100
AcDbEntity
8
0
100
AcDbBlockEnd
0
BLOCK
5
108
100
AcDbEntity
8
0
100
AcDbBlockBegin
2
*D3
70
1
10
0
20
0
30
0
3
*D3
0
LINE
5
10A
100
AcDbEntity
8
0
62
256
6
ByLayer
370
-2
48
1
60
0
100
AcDbLine
10
17.4359
20
-0.1875
30
0
11
17.4359
21
-24.9
31
0
39
0
210
0
220
0
230
1
0
LINE
5
10B
100
AcDbEntity
8
0
62
256
6
ByLayer
370
-2
48
1
60
0
100
AcDbLine
10
7.6359
20
-1.5875
30
0
11
7.6359
21
-24.9
31
0
39
0
210
0
220
0
230
1
0
LINE
5
10C
100
AcDbEntity
8
0
62
256
6
ByLayer
370
-2
48
1
60
0
100
AcDbLine
10
17.4359
20
-22.9
30
0
11
39.721614
21
-22.9
31
0
39
0
210
0
220
0
230
1
0
LINE
5
10D
100
AcDbEntity
8
0
62
256
6
ByLayer
370
-2
48
1
60
0
100
AcDbLine
10
20.9359
20
-22.9
30
0
11
24.4359
21
-22.9
31
0
39
0
210
0
220
0
230
1
0
LINE
5
10E
100
AcDbEntity
8
0
62
256
6
ByLayer
370
-2
48
1
60
0
100
AcDbLine
10
4.1359
20
-22.9
30
0
11
0.6359
21
-22.9
31
0
39
0
210
0
220
0
230
1
0
SOLID
5
10F
100
AcDbEntity
8
0
62
256
6
ByLayer
370
-1
48
1
60
0
100
AcDbTrace
10
20.9359
20
-22.316667
30
0
11
20.9359
21
-23.483333
31
0
12
17.4359
22
-22.9
32
0
13
17.4359
23
-22.9
33
0
39
0
210
0
220
0
230
1
0
SOLID
5
110
100
AcDbEntity
8
0
62
256
6
ByLayer
370
-1
48
1
60
0
100
AcDbTrace
10
4.1359
20
-23.483333
30
0
11
4.1359
21
-22.316667
31
0
12
7.6359
22
-22.9
32
0
13
7.6359
23
-22.9
33
0
39
0
210
0
220
0
230
1
0
MTEXT
5
111
100
AcDbEntity
8
0
62
256
6
ByLayer
370
18
48
1
60
0
100
AcDbMText
10
32.078757
20
-16.9
30
0
210
0
220
0
230
1
1
\A1;9.8
40
3
41
0
44
1
50
0
71
5
72
5
7
iso_b_vert
0
POINT
5
112
100
AcDbEntity
8
Defpoints
62
0
6
ByLayer
370
-1
48
1
60
0
100
AcDbPoint
10
17.4359
20
1.4
30
0
39
0
210
0
220
0
230
1
50
360
0
POINT
5
113
100
AcDbEntity
8
Defpoints
62
0
6
ByLayer
370
-1
48
1
60
0
100
AcDbPoint
10
7.6359
20
0
30
0
39
0
210
0
220
0
230
1
50
360
0
POINT
5
114
100
AcDbEntity
8
Defpoints
62
0
6
ByLayer
370
-1
48
1
60
0
100
AcDbPoint
10
7.6359
20
-22.9
30
0
39
0
210
0
220
0
230
1
50
360
0
ENDBLK
5
109
100
AcDbEntity
8
0
100
AcDbBlockEnd
0
BLOCK
5
11C
100
AcDbEntity
8
0
100
AcDbBlockBegin
2
_U1
70
0
10
0
20
0
30
0
3
_U1
0
MTEXT
5
116
100
AcDbEntity
8
SK2
62
256
6
ByLayer
370
18
48
1
60
0
100
AcDbMText
10
21.5949
20
-22.014886
30
0
210
0
220
0
230
1
1
\W0.7051;(9.80)
40
3
41
0
44
1.084337
50
0
71
7
72
5
7
iso_b_vert
0
LINE
5
117
100
AcDbEntity
8
SK2
62
256
6
ByLayer
370
13
48
1
60
0
100
AcDbLine
10
17.4359
20
-0.1875
30
0
11
17.4359
21
-24.9
31
0
39
0
210
0
220
0
230
1
0
LINE
5
118
100
AcDbEntity
8
SK2
62
256
6
ByLayer
370
13
48
1
60
0
100
AcDbLine
10
7.6359
20
-1.5875
30
0
11
7.6359
21
-24.9
31
0
39
0
210
0
220
0
230
1
0
LINE
5
119
100
AcDbEntity
8
SK2
62
256
6
ByLayer
370
13
48
1
60
0
100
AcDbLine
10
7.6359
20
-22.9
30
0
11
30.907669
21
-22.9
31
0
39
0
210
0
220
0
230
1
0
SOLID
5
11A
100
AcDbEntity
8
SK2
62
256
6
ByLayer
370
18
48
1
60
0
100
AcDbTrace
10
17.4359
20
-22.9
30
0
11
13.935902
21
-23.360784
31
0
12
13.935898
22
-22.439216
32
0
13
13.935898
23
-22.439216
33
0
39
0
210
0
220
0
230
1
0
SOLID
5
11B
100
AcDbEntity
8
SK2
62
256
6
ByLayer
370
18
48
1
60
0
100
AcDbTrace
10
7.6359
20
-22.9
30
0
11
11.135898
21
-22.439216
31
0
12
11.135902
22
-23.360784
32
0
13
11.135902
23
-23.360784
33
0
39
0
210
0
220
0
230
1
0
ENDBLK
5
11D
100
AcDbEntity
8
0
100
AcDbBlockEnd
0
BLOCK
5
122
100
AcDbEntity
8
0
100
AcDbBlockBegin
2
*D5
70
1
10
0
20
0
30
0
3
*D5
0
LINE
5
124
100
AcDbEntity
8
0
62
256
6
ByLayer
370
-2
48
1
60
0
100
AcDbLine
10
17.4359
20
-0.1875
30
0
11
17.4359
21
-32.35
31
0
39
0
210
0
220
0
230
1
0
LINE
5
125
100
AcDbEntity
8
0
62
256
6
ByLayer
370
-2
48
1
60
0
100
AcDbLine
10
3.4359
20
-1.5875
30
0
11
3.4359
21
-32.35
31
0
39
0
210
0
220
0
230
1
0
LINE
5
126
100
AcDbEntity
8
0
62
256
6
ByLayer
370
-2
48
1
60
0
100
AcDbLine
10
20.9359
20
-30.35
30
0
11
24.4359
21
-30.35
31
0
39
0
210
0
220
0
230
1
0
LINE
5
127
100
AcDbEntity
8
0
62
256
6
ByLayer
370
-2
48
1
60
0
100
AcDbLine
10
-0.0641
20
-30.35
30
0
11
-3.5641
21
-30.35
31
0
39
0
210
0
220
0
230
1
0
SOLID
5
128
100
AcDbEntity
8
0
62
256
6
ByLayer
370
-1
48
1
60
0
100
AcDbTrace
10
20.9359
20
-29.766667
30
0
11
20.9359
21
-30.933333
31
0
12
17.4359
22
-30.35
32
0
13
17.4359
23
-30.35
33
0
39
0
210
0
220
0
230
1
0
SOLID
5
129
100
AcDbEntity
8
0
62
256
6
ByLayer
370
-1
48
1
60
0
100
AcDbTrace
10
-0.0641
20
-30.933333
30
0
11
-0.0641
21
-29.766667
31
0
12
3.4359
22
-30.35
32
0
13
3.4359
23
-30.35
33
0
39
0
210
0
220
0
230
1
0
MTEXT
5
12A
100
AcDbEntity
8
0
62
256
6
ByLayer
370
18
48
1
60
0
100
AcDbMText
10
10.4359
20
-24.35
30
0
210
0
220
0
230
1
1
\A1;14
40
3
41
0
44
1
50
0
71
5
72
5
7
iso_b_vert
0
POINT
5
12B
100
AcDbEntity
8
Defpoints
62
0
6
ByLayer
370
-1
48
1
60
0
100
AcDbPoint
10
17.4359
20
1.4
30
0
39
0
210
0
220
0
230
1
50
360
0
POINT
5
12C
100
AcDbEntity
8
Defpoints
62
0
6
ByLayer
370
-1
48
1
60
0
100
AcDbPoint
10
3.4359
20
0
30
0
39
0
210
0
220
0
230
1
50
360
0
POINT
5
12D
100
AcDbEntity
8
Defpoints
62
0
6
ByLayer
370
-1
48
1
60
0
100
AcDbPoint
10
3.4359
20
-30.35
30
0
39
0
210
0
220
0
230
1
50
360
0
ENDBLK
5
123
100
AcDbEntity
8
0
100
AcDbBlockEnd
0
BLOCK
5
135
100
AcDbEntity
8
0
100
AcDbBlockBegin
2
_U2
70
0
10
0
20
0
30
0
3
_U2
0
MTEXT
5
12F
100
AcDbEntity
8
SK2
62
256
6
ByLayer
370
18
48
1
60
0
100
AcDbMText
10
6.170529
20
-29.464886
30
0
210
0
220
0
230
1
1
\W0.7091;14.00
40
3
41
0
44
1.084337
50
0
71
7
72
5
7
iso_b_vert
0
LINE
5
130
100
AcDbEntity
8
SK2
62
256
6
ByLayer
370
13
48
1
60
0
100
AcDbLine
10
17.4359
20
-0.1875
30
0
11
17.4359
21
-32.35
31
0
39
0
210
0
220
0
230
1
0
LINE
5
131
100
AcDbEntity
8
SK2
62
256
6
ByLayer
370
13
48
1
60
0
100
AcDbLine
10
3.4359
20
-1.5875
30
0
11
3.4359
21
-32.35
31
0
39
0
210
0
220
0
230
1
0
LINE
5
132
100
AcDbEntity
8
SK2
62
256
6
ByLayer
370
13
48
1
60
0
100
AcDbLine
10
17.4359
20
-30.35
30
0
11
3.4359
21
-30.35
31
0
39
0
210
0
220
0
230
1
0
SOLID
5
133
100
AcDbEntity
8
SK2
62
256
6
ByLayer
370
18
48
1
60
0
100
AcDbTrace
10
17.4359
20
-30.35
30
0
11
13.935902
21
-30.810784
31
0
12
13.935898
22
-29.889216
32
0
13
13.935898
23
-29.889216
33
0
39
0
210
0
220
0
230
1
0
SOLID
5
134
100
AcDbEntity
8
SK2
62
256
6
ByLayer
370
18
48
1
60
0
100
AcDbTrace
10
3.4359
20
-30.35
30
0
11
6.935898
21
-29.889216
31
0
12
6.935902
22
-30.810784
32
0
13
6.935902
23
-30.810784
33
0
39
0
210
0
220
0
230
1
0
ENDBLK
5
136
100
AcDbEntity
8
0
100
AcDbBlockEnd
0
BLOCK
5
13B
100
AcDbEntity
8
0
100
AcDbBlockBegin
2
*D7
70
1
10
0
20
0
30
0
3
*D7
0
LINE
5
13D
100
AcDbEntity
8
0
62
256
6
ByLayer
370
-2
48
1
60
0
100
AcDbLine
10
-20.5641
20
1.5875
30
0
11
-20.5641
21
13.35
31
0
39
0
210
0
220
0
230
1
0
LINE
5
13E
100
AcDbEntity
8
0
62
256
6
ByLayer
370
-2
48
1
60
0
100
AcDbLine
10
0
20
1.5875
30
0
11
0
21
13.35
31
0
39
0
210
0
220
0
230
1
0
LINE
5
13F
100
AcDbEntity
8
0
62
256
6
ByLayer
370
-2
48
1
60
0
100
AcDbLine
10
-17.0641
20
11.35
30
0
11
-3.5
21
11.35
31
0
39
0
210
0
220
0
230
1
0
SOLID
5
140
100
AcDbEntity
8
0
62
256
6
ByLayer
370
-1
48
1
60
0
100
AcDbTrace
10
-17.0641
20
11.933333
30
0
11
-17.0641
21
10.766667
31
0
12
-20.5641
22
11.35
32
0
13
-20.5641
23
11.35
33
0
39
0
210
0
220
0
230
1
0
SOLID
5
141
100
AcDbEntity
8
0
62
256
6
ByLayer
370
-1
48
1
60
0
100
AcDbTrace
10
-3.5
20
10.766667
30
0
11
-3.5
21
11.933333
31
0
12
0
22
11.35
32
0
13
0
23
11.35
33
0
39
0
210
0
220
0
230
1
0
MTEXT
5
142
100
AcDbEntity
8
0
62
256
6
ByLayer
370
18
48
1
60
0
100
AcDbMText
10
-10.28205
20
17.35
30
0
210
0
220
0
230
1
1
\A1;20.56
40
3
41
0
44
1
50
0
71
5
72
5
7
iso_b_vert
0
POINT
5
143
100
AcDbEntity
8
Defpoints
62
0
6
ByLayer
370
-1
48
1
60
0
100
AcDbPoint
10
-20.5641
20
0
30
0
39
0
210
0
220
0
230
1
50
360
0
POINT
5
144
100
AcDbEntity
8
Defpoints
62
0
6
ByLayer
370
-1
48
1
60
0
100
AcDbPoint
10
0
20
0
30
0
39
0
210
0
220
0
230
1
50
360
0
POINT
5
145
100
AcDbEntity
8
Defpoints
62
0
6
ByLayer
370
-1
48
1
60
0
100
AcDbPoint
10
0
20
11.35
30
0
39
0
210
0
220
0
230
1
50
360
0
ENDBLK
5
13C
100
AcDbEntity
8
0
100
AcDbBlockEnd
0
BLOCK
5
14D
100
AcDbEntity
8
0
100
AcDbBlockBegin
2
_U3
70
0
10
0
20
0
30
0
3
_U3
0
MTEXT
5
147
100
AcDbEntity
8
SK2
62
256
6
ByLayer
370
18
48
1
60
0
100
AcDbMText
10
-14.76442
20
12.235114
30
0
210
0
220
0
230
1
1
\W0.7468;20.56
40
3
41
0
44
1.084337
50
0
71
7
72
5
7
iso_b_vert
0
LINE
5
148
100
AcDbEntity
8
SK2
62
256
6
ByLayer
370
13
48
1
60
0
100
AcDbLine
10
-20.5641
20
1.5875
30
0
11
-20.5641
21
13.35
31
0
39
0
210
0
220
0
230
1
0
LINE
5
149
100
AcDbEntity
8
SK2
62
256
6
ByLayer
370
13
48
1
60
0
100
AcDbLine
10
0
20
1.5875
30
0
11
0
21
13.35
31
0
39
0
210
0
220
0
230
1
0
LINE
5
14A
100
AcDbEntity
8
SK2
62
256
6
ByLayer
370
13
48
1
60
0
100
AcDbLine
10
-20.5641
20
11.35
30
0
11
0
21
11.35
31
0
39
0
210
0
220
0
230
1
0
SOLID
5
14B
100
AcDbEntity
8
SK2
62
256
6
ByLayer
370
18
48
1
60
0
100
AcDbTrace
10
-20.5641
20
11.35
30
0
11
-17.064102
21
11.810784
31
0
12
-17.064098
22
10.889216
32
0
13
-17.064098
23
10.889216
33
0
39
0
210
0
220
0
230
1
0
SOLID
5
14C
100
AcDbEntity
8
SK2
62
256
6
ByLayer
370
18
48
1
60
0
100
AcDbTrace
10
0
20
11.35
30
0
11
-3.499998
21
10.889216
31
0
12
-3.500002
22
11.810784
32
0
13
-3.500002
23
11.810784
33
0
39
0
210
0
220
0
230
1
0
ENDBLK
5
14E
100
AcDbEntity
8
0
100
AcDbBlockEnd
0
BLOCK
5
153
100
AcDbEntity
8
0
100
AcDbBlockBegin
2
*D9
70
1
10
0
20
0
30
0
3
*D9
0
LINE
5
155
100
AcDbEntity
8
0
62
256
6
ByLayer
370
-2
48
1
60
0
100
AcDbLine
10
17.4359
20
2.9875
30
0
11
17.4359
21
13.35
31
0
39
0
210
0
220
0
230
1
0
LINE
5
156
100
AcDbEntity
8
0
62
256
6
ByLayer
370
-2
48
1
60
0
100
AcDbLine
10
0
20
1.5875
30
0
11
0
21
13.35
31
0
39
0
210
0
220
0
230
1
0
LINE
5
157
100
AcDbEntity
8
0
62
256
6
ByLayer
370
-2
48
1
60
0
100
AcDbLine
10
13.9359
20
11.35
30
0
11
3.5
21
11.35
31
0
39
0
210
0
220
0
230
1
0
SOLID
5
158
100
AcDbEntity
8
0
62
256
6
ByLayer
370
-1
48
1
60
0
100
AcDbTrace
10
13.9359
20
10.766667
30
0
11
13.9359
21
11.933333
31
0
12
17.4359
22
11.35
32
0
13
17.4359
23
11.35
33
0
39
0
210
0
220
0
230
1
0
SOLID
5
159
100
AcDbEntity
8
0
62
256
6
ByLayer
370
-1
48
1
60
0
100
AcDbTrace
10
3.5
20
11.933333
30
0
11
3.5
21
10.766667
31
0
12
0
22
11.35
32
0
13
0
23
11.35
33
0
39
0
210
0
220
0
230
1
0
MTEXT
5
15A
100
AcDbEntity
8
0
62
256
6
ByLayer
370
18
48
1
60
0
100
AcDbMText
10
8.71795
20
17.35
30
0
210
0
220
0
230
1
1
\A1;17.44
40
3
41
0
44
1
50
0
71
5
72
5
7
iso_b_vert
0
POINT
5
15B
100
AcDbEntity
8
Defpoints
62
0
6
ByLayer
370
-1
48
1
60
0
100
AcDbPoint
10
17.4359
20
1.4
30
0
39
0
210
0
220
0
230
1
50
360
0
POINT
5
15C
100
AcDbEntity
8
Defpoints
62
0
6
ByLayer
370
-1
48
1
60
0
100
AcDbPoint
10
0
20
0
30
0
39
0
210
0
220
0
230
1
50
360
0
POINT
5
15D
100
AcDbEntity
8
Defpoints
62
0
6
ByLayer
370
-1
48
1
60
0
100
AcDbPoint
10
0
20
11.35
30
0
39
0
210
0
220
0
230
1
50
360
0
ENDBLK
5
154
100
AcDbEntity
8
0
100
AcDbBlockEnd
0
BLOCK
5
165
100
AcDbEntity
8
0
100
AcDbBlockBegin
2
_U4
70
0
10
0
20
0
30
0
3
_U4
0
MTEXT
5
15F
100
AcDbEntity
8
2
62
256
6
ByLayer
370
18
48
1
60
0
100
AcDbMText
10
4.294637
20
12.235114
30
0
210
0
220
0
230
1
1
\W0.7271;17.44
40
3
41
0
44
1.084337
50
0
71
7
72
5
7
iso_b_vert
0
LINE
5
160
100
AcDbEntity
8
2
62
256
6
ByLayer
370
13
48
1
60
0
100
AcDbLine
10
17.4359
20
2.9875
30
0
11
17.4359
21
13.35
31
0
39
0
210
0
220
0
230
1
0
LINE
5
161
100
AcDbEntity
8
2
62
256
6
ByLayer
370
13
48
1
60
0
100
AcDbLine
10
0
20
1.5875
30
0
11
0
21
13.35
31
0
39
0
210
0
220
0
230
1
0
LINE
5
162
100
AcDbEntity
8
2
62
256
6
ByLayer
370
13
48
1
60
0
100
AcDbLine
10
17.4359
20
11.35
30
0
11
0
21
11.35
31
0
39
0
210
0
220
0
230
1
0
SOLID
5
163
100
AcDbEntity
8
2
62
256
6
ByLayer
370
18
48
1
60
0
100
AcDbTrace
10
17.4359
20
11.35
30
0
11
13.935902
21
10.889216
31
0
12
13.935898
22
11.810784
32
0
13
13.935898
23
11.810784
33
0
39
0
210
0
220
0
230
1
0
SOLID
5
164
100
AcDbEntity
8
2
62
256
6
ByLayer
370
18
48
1
60
0
100
AcDbTrace
10
0
20
11.35
30
0
11
3.499998
21
11.810784
31
0
12
3.500002
22
10.889216
32
0
13
3.500002
23
10.889216
33
0
39
0
210
0
220
0
230
1
0
ENDBLK
5
166
100
AcDbEntity
8
0
100
AcDbBlockEnd
0
ENDSEC
0
SECTION
2
ENTITIES
0
ARC
5
B5
100
AcDbEntity
8
1
62
256
6
ByLayer
370
18
48
1
60
0
100
AcDbCircle
39
0
10
0.43068
20
-2.4
30
0
40
1
210
0
220
0
230
1
100
AcDbArc
50
90
51
115.510698
0
ARC
5
B6
100
AcDbEntity
8
1
62
256
6
ByLayer
370
18
48
1
60
0
100
AcDbCircle
39
0
10
0.43068
20
2.4
30
0
40
1
210
0
220
0
230
1
100
AcDbArc
50
244.489302
51
270
0
ARC
5
B7
100
AcDbEntity
8
SK1
62
256
6
ByLayer
370
18
48
1
60
0
100
AcDbCircle
39
0
10
0.43068
20
-2.4
30
0
40
1
210
0
220
0
230
1
100
AcDbArc
50
115.510698
51
115.841933
0
ARC
5
B8
100
AcDbEntity
8
SK1
62
256
6
ByLayer
370
18
48
1
60
0
100
AcDbCircle
39
0
10
0.43068
20
2.4
30
0
40
1
210
0
220
0
230
1
100
AcDbArc
50
244.158067
51
244.489302
0
ARC
5
B9
100
AcDbEntity
8
SK2
62
256
6
ByLayer
370
13
48
1
60
0
100
AcDbCircle
39
0
10
17.4359
20
0
30
0
40
16.35
210
0
220
0
230
1
100
AcDbArc
50
10.57289
51
65
0
ARC
5
BA
100
AcDbEntity
8
SK2
62
256
6
ByLayer
370
13
48
1
60
0
100
AcDbCircle
39
0
10
17.4359
20
0
30
0
40
16.35
210
0
220
0
230
1
100
AcDbArc
50
295
51
349.42711
0
ELLIPSE
5
BB
100
AcDbEntity
8
1
62
256
6
ByLayer
370
18
48
1
60
0
100
AcDbEllipse
10
4.99662
20
-0.657733
30
0
11
-2.10642897369078
21
1.25115703206414
31
0
210
0
220
0
230
1
40
0.203434
41
-1.45054526639001
42
-0.651857846292371
0
POINT
5
70
100
AcDbEntity
8
80
62
256
6
ByLayer
370
18
48
1
60
0
100
AcDbPoint
10
0
20
0
30
0
39
0
210
0
220
0
230
1
50
360
0
POINT
5
72
100
AcDbEntity
8
81
62
256
6
ByLayer
370
18
48
1
60
0
100
AcDbPoint
10
17.4359
20
0
30
0
39
0
210
0
220
0
230
1
50
360
0
POINT
5
74
100
AcDbEntity
8
1
62
256
6
ByLayer
370
18
48
1
60
1
100
AcDbPoint
10
-20.5641
20
1.5
30
0
39
0
210
0
220
0
230
1
50
360
0
POINT
5
76
100
AcDbEntity
8
1
62
256
6
ByLayer
370
18
48
1
60
1
100
AcDbPoint
10
17.4359
20
1.4
30
0
39
0
210
0
220
0
230
1
50
360
0
POINT
5
77
100
AcDbEntity
8
1
62
256
6
ByLayer
370
18
48
1
60
1
100
AcDbPoint
10
17.4359
20
1.4
30
0
39
0
210
0
220
0
230
1
50
360
0
POINT
5
78
100
AcDbEntity
8
1
62
256
6
ByLayer
370
18
48
1
60
1
100
AcDbPoint
10
7.6359
20
0
30
0
39
0
210
0
220
0
230
1
50
360
0
POINT
5
79
100
AcDbEntity
8
1
62
256
6
ByLayer
370
18
48
1
60
1
100
AcDbPoint
10
17.4359
20
1.4
30
0
39
0
210
0
220
0
230
1
50
360
0
POINT
5
7A
100
AcDbEntity
8
1
62
256
6
ByLayer
370
18
48
1
60
1
100
AcDbPoint
10
3.4359
20
0
30
0
39
0
210
0
220
0
230
1
50
360
0
POINT
5
7B
100
AcDbEntity
8
1
62
256
6
ByLayer
370
18
48
1
60
1
100
AcDbPoint
10
-20.5641
20
0
30
0
39
0
210
0
220
0
230
1
50
360
0
POINT
5
7C
100
AcDbEntity
8
1
62
256
6
ByLayer
370
18
48
1
60
1
100
AcDbPoint
10
0
20
0
30
0
39
0
210
0
220
0
230
1
50
360
0
POINT
5
7D
100
AcDbEntity
8
1
62
256
6
ByLayer
370
18
48
1
60
1
100
AcDbPoint
10
17.4359
20
1.4
30
0
39
0
210
0
220
0
230
1
50
360
0
POINT
5
7E
100
AcDbEntity
8
1
62
256
6
ByLayer
370
18
48
1
60
1
100
AcDbPoint
10
0
20
0
30
0
39
0
210
0
220
0
230
1
50
360
0
SPLINE
5
BC
100
AcDbEntity
8
1
62
256
6
ByLayer
370
18
48
1
60
0
100
AcDbSpline
70
4
71
3
72
27
73
23
40
0
40
0
40
0
40
0
40
0.0625000000000031
40
0.0625000000000031
40
0.125000000000006
40
0.187500000000009
40
0.187500000000009
40
0.250000000000012
40
0.250000000000012
40
0.375000000000011
40
0.375000000000011
40
0.50000000000001
40
0.50000000000001
40
0.625000000000009
40
0.625000000000009
40
0.750000000000008
40
0.750000000000008
40
0.875000000000007
40
0.875000000000007
40
0.937500000000003
40
0.937500000000003
40
1
40
1
40
1
40
1
41
1
10
16.783069278583
20
0.713738559680621
30
0
41
1
10
16.7940577911222
20
0.697587371884907
30
0
41
1
10
16.805026456035
20
0.682599762685754
30
0
41
1
10
16.8269468836165
20
0.654866712793904
30
0
41
1
10
16.8488517981734
20
0.629191025606417
30
0
41
1
10
16.870745835227
20
0.606021143063657
30
0
41
1
10
16.892637080905
20
0.583446012826784
30
0
41
1
10
16.9035813625061
20
0.57242252007299
30
0
41
1
10
16.9364104011001
20
0.539740566265692
30
0
41
1
10
16.9582923694707
20
0.518712073842181
30
0
41
1
10
17.002003787341
20
0.479543635522589
30
0
41
1
10
17.0238834682239
20
0.4614452455601
30
0
41
1
10
17.0670380387014
20
0.428454248684233
30
0
41
1
10
17.0883618796137
20
0.413467777884307
30
0
41
1
10
17.1302437316691
20
0.386276539989638
30
0
41
1
10
17.1508094820293
20
0.37411460213275
30
0
41
1
10
17.1904665049239
20
0.352783329505684
30
0
41
1
10
17.2095967150424
20
0.343603325478824
30
0
41
1
10
17.235878997175
20
0.332052110710663
30
0
41
1
10
17.2442261125063
20
0.328572062768984
30
0
41
1
10
17.2596194323139
20
0.322358962069075
30
0
41
1
10
17.2666686053971
20
0.319625955429899
30
0
41
1
10
17.2726923458436
20
0.317272115191543
30
0
0
SPLINE
5
BD
100
AcDbEntity
8
1
62
256
6
ByLayer
370
18
48
1
60
0
100
AcDbSpline
70
4
71
3
72
28
73
24
40
0
40
0
40
0
40
0
40
0.114409934921077
40
0.114409934921077
40
0.171614902381616
40
0.171614902381616
40
0.228819869842154
40
0.228819869842154
40
0.343229804763232
40
0.343229804763232
40
0.400434772223772
40
0.400434772223772
40
0.457639739684311
40
0.457639739684311
40
0.572049674605393
40
0.572049674605393
40
0.686459609526476
40
0.686459609526476
40
0.915279479368642
40
0.915279479368642
40
0.972484446829184
40
0.972484446829184
40
1
40
1
40
1
40
1
41
1
10
4.99662000000004
20
-1.08908142193485
30
0
41
1
10
5.11958485241388
20
-1.13377714607148
30
0
41
1
10
5.24235107494863
20
-1.17407003585299
30
0
41
1
10
5.42661741987536
20
-1.22757238503098
30
0
41
1
10
5.48805825271552
20
-1.24424986175922
30
0
41
1
10
5.61105028818855
20
-1.27522009762043
30
0
41
1
10
5.67251950609224
20
-1.28949605580675
30
0
41
1
10
5.85659576678864
20
-1.32851395113437
30
0
41
1
10
5.979141616546
20
-1.34942018342858
30
0
41
1
10
6.16314146260467
20
-1.37296158460219
30
0
41
1
10
6.22450267677795
20
-1.37950579450759
30
0
41
1
10
6.34734830781298
20
-1.38994956686483
30
0
41
1
10
6.40888787189917
20
-1.39385016991255
30
0
41
1
10
6.59311978606047
20
-1.40148883777019
30
0
41
1
10
6.71569981451836
20
-1.40117538141209
30
0
41
1
10
6.96095569516169
20
-1.38986613261079
30
0
41
1
10
7.08366145182654
20
-1.37886213811458
30
0
41
1
10
7.45251726643144
20
-1.32983638192505
30
0
41
1
10
7.69719865480303
20
-1.2764760600397
30
0
41
1
10
8.00436702585938
20
-1.18586252953051
30
0
41
1
10
8.06589100323913
20
-1.16655928192614
30
0
41
1
10
8.15683471036959
20
-1.13642129087137
30
0
41
1
10
8.18635797006613
20
-1.12638542783841
30
0
41
1
10
8.21587165296165
20
-1.11610665931204
30
0
0
SPLINE
5
BE
100
AcDbEntity
8
1
62
256
6
ByLayer
370
18
48
1
60
0
100
AcDbSpline
70
4
71
3
72
34
73
30
40
0
40
0
40
0
40
0
40
0.0490123811396369
40
0.0490123811396369
40
0.122165274898128
40
0.122165274898128
40
0.26847106241511
40
0.26847106241511
40
0.341623956173597
40
0.341623956173597
40
0.414776849932085
40
0.414776849932085
40
0.561082637449054
40
0.561082637449054
40
0.634235531207542
40
0.634235531207542
40
0.707388424966031
40
0.707388424966031
40
0.853694212483006
40
0.853694212483006
40
0.890270659362253
40
0.890270659362253
40
0.9268471062415
40
0.9268471062415
40
0.963423553120747
40
0.963423553120747
40
0.981711776560373
40
0.981711776560373
40
1
40
1
40
1
40
1
41
1
10
14.2634562051298
20
1.39999993899704
30
0
41
1
10
14.3045702615777
20
1.39999083962312
30
0
41
1
10
14.3457043428257
20
1.39937888522169
30
0
41
1
10
14.4483108321011
20
1.39634459142079
30
0
41
1
10
14.5098426726759
20
1.39317252989775
30
0
41
1
10
14.6940168324123
20
1.37964823746114
30
0
41
1
10
14.8165719284028
20
1.36531289420702
30
0
41
1
10
15.0005286747511
20
1.33607754454826
30
0
41
1
10
15.0618648667473
20
1.32504156211613
30
0
41
1
10
15.1846419851067
20
1.30041295095154
30
0
41
1
10
15.2461295192674
20
1.28680457469528
30
0
41
1
10
15.4305074172361
20
1.24227296075216
30
0
41
1
10
15.5531639499137
20
1.20779807592791
30
0
41
1
10
15.7372101704073
20
1.14937480875463
30
0
41
1
10
15.7985655057561
20
1.12877778394113
30
0
41
1
10
15.921360745573
20
1.08540102726502
30
0
41
1
10
15.9828358212468
20
1.06259925950783
30
0
41
1
10
16.1672249411681
20
0.991117378169207
30
0
41
1
10
16.2898827874368
20
0.939660120439896
30
0
41
1
10
16.4432313077948
20
0.871103508712594
30
0
41
1
10
16.4738964067203
20
0.857172031683064
30
0
41
1
10
16.5352455573158
20
0.828907127018226
30
0
41
1
10
16.5659625053966
20
0.814621074647732
30
0
41
1
10
16.6273504900425
20
0.785554679246246
30
0
41
1
10
16.657915335164
20
0.770615432400149
30
0
41
1
10
16.7040030401119
20
0.748234968457865
30
0
41
1
10
16.7193613210606
20
0.740712626993314
30
0
41
1
10
16.7505709469436
20
0.726311963611977
30
0
41
1
10
16.7664357115023
20
0.719452848917797
30
0
41
1
10
16.783069278583
20
0.713738559680621
30
0
0
SPLINE
5
BF
100
AcDbEntity
8
1
62
256
6
ByLayer
370
18
48
1
60
0
100
AcDbSpline
70
4
71
3
72
22
73
18
40
0
40
0
40
0
40
0
40
0.0499002137736973
40
0.0499002137736973
40
0.0998004275473946
40
0.0998004275473946
40
0.199600855094789
40
0.199600855094789
40
0.299401282642184
40
0.299401282642184
40
0.399201710189578
40
0.399201710189578
40
0.598802565284351
40
0.598802565284351
40
0.798403420379123
40
0.798403420379123
40
1
40
1
40
1
40
1
41
1
10
16.783069278583
20
1.34829998075455
30
0
41
1
10
16.7664319572687
20
1.346511268771
30
0
41
1
10
16.7505646020359
20
1.34430670151647
30
0
41
1
10
16.7193471974322
20
1.33948478127257
30
0
41
1
10
16.7039836328087
20
1.33687584672265
30
0
41
1
10
16.6578731296591
20
1.32881624069216
30
0
41
1
10
16.6272847798202
20
1.32304145539661
30
0
41
1
10
16.5658345993925
20
1.31101690496291
30
0
41
1
10
16.5350791854928
20
1.30471075710798
30
0
41
1
10
16.473637132532
20
1.29142905291465
30
0
41
1
10
16.4429177126563
20
1.284473548671
30
0
41
1
10
16.3507224489102
20
1.26269203578701
30
0
41
1
10
16.2891814445641
20
1.24692134660026
30
0
41
1
10
16.1662501467886
20
1.21302870772297
30
0
41
1
10
16.1048835747858
20
1.19490856724809
30
0
41
1
10
15.9816432263175
20
1.15621520280848
30
0
41
1
10
15.9197382708653
20
1.13565116576947
30
0
41
1
10
15.8578189578675
20
1.11400690674421
30
0
0
SPLINE
5
C0
100
AcDbEntity
8
1
62
256
6
ByLayer
370
18
48
1
60
0
100
AcDbSpline
70
4
71
3
72
42
73
38
40
0
40
0
40
0
40
0
40
0.0069512434950167
40
0.0069512434950167
40
0.083339609380012
40
0.083339609380012
40
0.159727975265007
40
0.159727975265007
40
0.197922158207506
40
0.197922158207506
40
0.236116341150004
40
0.236116341150004
40
0.312504707035001
40
0.312504707035001
40
0.350698889977501
40
0.350698889977501
40
0.38889307292
40
0.38889307292
40
0.465281438804997
40
0.465281438804997
40
0.503475621747496
40
0.503475621747496
40
0.541669804689995
40
0.541669804689995
40
0.618058170574995
40
0.618058170574995
40
0.656252353517495
40
0.656252353517495
40
0.694446536459994
40
0.694446536459994
40
0.770834902344994
40
0.770834902344994
40
0.809029085287494
40
0.809029085287494
40
0.847223268229994
40
0.847223268229994
40
1
40
1
40
1
40
1
41
1
10
9.81727258598164
20
-1.39999986096734
30
0
41
1
10
9.80608016559816
20
-1.40000020671963
30
0
41
1
10
9.79488737613056
20
-1.39995590227039
30
0
41
1
10
9.66070027208448
20
-1.39888880386081
30
0
41
1
10
9.5380693119738
20
-1.39252852599407
30
0
41
1
10
9.29295523622963
20
-1.369165412093
30
0
41
1
10
9.17033577809306
20
-1.35220172670219
30
0
41
1
10
8.98587851683914
20
-1.31898749388901
30
0
41
1
10
8.92436107251808
20
-1.3066271750383
30
0
41
1
10
8.80157930149397
20
-1.27945708419028
30
0
41
1
10
8.74026898875951
20
-1.26463012929074
30
0
41
1
10
8.55641932813504
20
-1.21653974675314
30
0
41
1
10
8.43385452791659
20
-1.17975702879932
30
0
41
1
10
8.24957397526617
20
-1.11789744227693
30
0
41
1
10
8.18801464682093
20
-1.0961367043885
30
0
41
1
10
8.0651188320937
20
-1.05059914974947
30
0
41
1
10
8.00376481158068
20
-1.02680958766263
30
0
41
1
10
7.81983578313177
20
-0.952558211308713
30
0
41
1
10
7.6972965304378
20
-0.899335844427782
30
0
41
1
10
7.51315746298081
20
-0.814525552357907
30
0
41
1
10
7.45172093011365
20
-0.785418005377238
30
0
41
1
10
7.32869251762654
20
-0.725633606702644
30
0
41
1
10
7.26728967920161
20
-0.695036968653653
30
0
41
1
10
7.0832775409678
20
-0.601346777076458
30
0
41
1
10
6.96074540854781
20
-0.536538421635555
30
0
41
1
10
6.77671858198951
20
-0.436529255694836
30
0
41
1
10
6.71534000178835
20
-0.402723486743753
30
0
41
1
10
6.59244102651917
20
-0.334281173604154
30
0
41
1
10
6.53090874551211
20
-0.299631309635941
30
0
41
1
10
6.34674184108991
20
-0.195059392985939
30
0
41
1
10
6.2241542027667
20
-0.1246031737669
30
0
41
1
10
6.04013069946464
20
-0.0185521928436572
30
0
41
1
10
5.97876761572118
20
0.0168623865339441
30
0
41
1
10
5.85592605487489
20
0.0876963213303839
30
0
41
1
10
5.79439597574958
20
0.123171557093997
30
0
41
1
10
5.48725856206818
20
0.299590361141298
30
0
41
1
10
5.24255639566204
20
0.437085748200332
30
0
41
1
10
4.99662000000001
20
0.567152600820577
30
0
0
SPLINE
5
C1
100
AcDbEntity
8
1
62
256
6
ByLayer
370
18
48
1
60
0
100
AcDbSpline
70
4
71
3
72
23
73
19
40
0
40
0
40
0
40
0
40
0.13368011111517
40
0.183810152783359
40
0.233940194451548
40
0.300780250009133
40
0.367620305566718
40
0.434460361124303
40
0.501300416681888
40
0.568140472239473
40
0.601560500018265
40
0.66840055557585
40
0.735240611133435
40
0.80208066669102
40
0.868920722248605
40
0.93576077780619
40
0.985890819474379
40
1
40
1
40
1
40
1
41
1
10
4.99662000000001
20
-0.0822170260646544
30
0
41
1
10
5.06140662967067
20
-0.0913239136378365
30
0
41
1
10
5.15048728732933
20
-0.103706592962396
30
0
41
1
10
5.26386324744749
20
-0.119170615960115
30
0
41
1
10
5.34484648968942
20
-0.130093565348972
30
0
41
1
10
5.43392950590521
20
-0.141941359997475
30
0
41
1
10
5.53111191451689
20
-0.154641807438537
30
0
41
0.999999999999999
10
5.62829411818547
20
-0.167099780184088
30
0
41
1
10
5.72547637985695
20
-0.179303808117993
30
0
41
1
10
5.80646158022728
20
-0.189238944787519
30
0
41
1
10
5.88744678736395
20
-0.198967119070858
30
0
41
1
10
5.96843199283609
20
-0.208490675373412
30
0
41
1
10
6.06561423981438
20
-0.219580723482693
30
0
41
1
10
6.16279648670974
20
-0.230317347272887
30
0
41
1
10
6.25997873362678
20
-0.240687756518952
30
0
41
1
10
6.34906245996066
20
-0.249846104307977
30
0
41
1
10
6.41259012875796
20
-0.256152238971026
30
0
41
1
10
6.44372371525088
20
-0.259181130569203
30
0
41
1
10
6.45056174001576
20
-0.259843328066438
30
0
0
SPLINE
5
C2
100
AcDbEntity
8
1
62
256
6
ByLayer
370
18
48
1
60
0
100
AcDbSpline
70
4
71
3
72
28
73
24
40
0
40
0
40
0
40
0
40
0.0624999999999967
40
0.0624999999999967
40
0.124999999999993
40
0.124999999999993
40
0.249999999999992
40
0.249999999999992
40
0.374999999999991
40
0.374999999999991
40
0.49999999999999
40
0.49999999999999
40
0.624999999999989
40
0.624999999999989
40
0.749999999999988
40
0.749999999999988
40
0.812499999999991
40
0.812499999999991
40
0.874999999999994
40
0.874999999999994
40
0.937499999999997
40
0.937499999999997
40
1
40
1
40
1
40
1
41
1
10
17.2726923458436
20
0.317272115191543
30
0
41
1
10
17.2667350252292
20
0.338285754875784
30
0
41
1
10
17.2597644237594
20
0.359160413548807
30
0
41
1
10
17.2445190081778
20
0.400802659222507
30
0
41
1
10
17.2362416035662
20
0.421569989233006
30
0
41
1
10
17.2101376322428
20
0.483881347567092
30
0
41
1
10
17.1910838790181
20
0.52544671012916
30
0
41
1
10
17.1515079544961
20
0.609076435136444
30
0
41
1
10
17.1309497085637
20
0.651127819001715
30
0
41
1
10
17.0891410753989
20
0.73570519755549
30
0
41
1
10
17.0678568974405
20
0.778282221305147
30
0
41
1
10
17.0248787694968
20
0.864042279022101
30
0
41
1
10
17.0031852822507
20
0.907203119169196
30
0
41
1
10
16.9595616695474
20
0.994028648344766
30
0
41
1
10
16.9376295556166
20
1.03770508033503
30
0
41
1
10
16.9045919835466
20
1.10397346467673
30
0
41
1
10
16.8935509646796
20
1.12621673970781
30
0
41
1
10
16.8714337253332
20
1.17091722701284
30
0
41
1
10
16.8603596599629
20
1.1933592895879
30
0
41
1
10
16.8382197979806
20
1.2381531297894
30
0
41
1
10
16.8271541082526
20
1.26050458191574
30
0
41
1
10
16.8050707479247
20
1.30478362689854
30
0
41
1
10
16.7940576634555
20
1.32667346175194
30
0
41
1
10
16.783069278583
20
1.34829998075458
30
0
0
SPLINE
5
C3
100
AcDbEntity
8
1
62
256
6
ByLayer
370
18
48
1
60
0
100
AcDbSpline
70
4
71
3
72
80
73
76
40
0
40
0
40
0
40
0
40
0.0053746101807056
40
0.0053746101807056
40
0.0107492203614111
40
0.0107492203614111
40
0.0214984407228223
40
0.0214984407228223
40
0.0322476610842335
40
0.0322476610842335
40
0.0429968814456446
40
0.0429968814456446
40
0.064495322168467
40
0.064495322168467
40
0.0859937628912893
40
0.0859937628912893
40
0.128990644336934
40
0.128990644336934
40
0.150489085059756
40
0.150489085059756
40
0.171987525782579
40
0.171987525782579
40
0.214984407228223
40
0.214984407228223
40
0.236482847951046
40
0.236482847951046
40
0.257981288673868
40
0.257981288673868
40
0.300978170119513
40
0.300978170119513
40
0.322476610842334
40
0.322476610842334
40
0.343975051565155
40
0.343975051565155
40
0.429968814456436
40
0.429968814456436
40
0.451467255179255
40
0.451467255179255
40
0.472965695902075
40
0.472965695902075
40
0.515962577347714
40
0.515962577347714
40
0.537461018070534
40
0.537461018070534
40
0.558959458793353
40
0.558959458793353
40
0.601956340238992
40
0.601956340238992
40
0.623454780961811
40
0.623454780961811
40
0.64495322168463
40
0.64495322168463
40
0.687950103130267
40
0.687950103130267
40
0.709448543853085
40
0.709448543853085
40
0.730946984575903
40
0.730946984575903
40
0.773943866021537
40
0.773943866021537
40
0.795442306744355
40
0.795442306744355
40
0.816940747467173
40
0.816940747467173
40
0.859937628912808
40
0.859937628912808
40
0.902934510358444
40
0.902934510358444
40
0.924432951081262
40
0.924432951081262
40
0.945931391804079
40
0.945931391804079
40
0.988928273249715
40
0.988928273249715
40
1
40
1
40
1
40
1
41
1
10
16.783069278583
20
-1.34829998075455
30
0
41
1
10
16.7664319572687
20
-1.346511268771
30
0
41
1
10
16.7505646020359
20
-1.34430670151647
30
0
41
1
10
16.7193471974322
20
-1.33948478127257
30
0
41
1
10
16.7039836328087
20
-1.33687584672265
30
0
41
1
10
16.6578731296591
20
-1.32881624069213
30
0
41
1
10
16.6272847798201
20
-1.32304145539661
30
0
41
1
10
16.5658345993925
20
-1.31101690496291
30
0
41
1
10
16.5350791854928
20
-1.30471075710798
30
0
41
1
10
16.473637132532
20
-1.29142905291465
30
0
41
1
10
16.4429177126563
20
-1.284473548671
30
0
41
1
10
16.3507224489102
20
-1.26269203578701
30
0
41
1
10
16.2891814445641
20
-1.24692134660023
30
0
41
1
10
16.1662501467885
20
-1.213028707723
30
0
41
1
10
16.1048835747858
20
-1.19490856724809
30
0
41
1
10
15.9209426259568
20
-1.13715723615508
30
0
41
1
10
15.7984005868789
20
-1.09426023286483
30
0
41
1
10
15.6142949459602
20
-1.02379685548249
30
0
41
1
10
15.5528791005865
20
-0.999286814559468
30
0
41
1
10
15.4298829169224
20
-0.9482889976602
30
0
41
1
10
15.3684231408964
20
-0.921837260109669
30
0
41
1
10
15.1843538870098
20
-0.839983188502202
30
0
41
1
10
15.0618107871713
20
-0.782155967782046
30
0
41
1
10
14.8778067123308
20
-0.691192194679019
30
0
41
1
10
14.8164434018178
20
-0.660162194683267
30
0
41
1
10
14.6935849121524
20
-0.596788881100792
30
0
41
1
10
14.632049764827
20
-0.564403472030165
30
0
41
1
10
14.4478356051595
20
-0.465863288743407
30
0
41
1
10
14.3252652039747
20
-0.398378628407585
30
0
41
1
10
14.1413104907854
20
-0.295246941674265
30
0
41
1
10
14.0799786377943
20
-0.260547187972975
30
0
41
1
10
13.9572180255355
20
-0.190618397411612
30
0
41
1
10
13.8957581548779
20
-0.155360717127735
30
0
41
1
10
13.5883943168847
20
0.0216710102070294
30
0
41
1
10
13.3436923041025
20
0.163806042343452
30
0
41
1
10
13.0364977173353
20
0.337245745428334
30
0
41
1
10
12.9749842795869
20
0.3716516597988
30
0
41
1
10
12.852184999695
20
0.439494091070969
30
0
41
1
10
12.7908423659893
20
0.472976768349326
30
0
41
1
10
12.6068756371815
20
0.571936535984747
30
0
41
1
10
12.4843245463593
20
0.635945793346139
30
0
41
1
10
12.3001852850819
20
0.728271235395596
30
0
41
1
10
12.2386590908326
20
0.75841644927101
30
0
41
1
10
12.1157456181939
20
0.817066677293525
30
0
41
1
10
12.0543605714832
20
0.845579449434439
30
0
41
1
10
11.8703153964578
20
0.928553212663019
30
0
41
1
10
11.7477744389588
20
0.980464701078489
30
0
41
1
10
11.5637615057391
20
1.05263557645648
30
0
41
1
10
11.5023600781896
20
1.07570645068461
30
0
41
1
10
11.3793426821988
20
1.11977102011554
30
0
41
1
10
11.3178866938451
20
1.14071310169183
30
0
41
1
10
11.1337389931623
20
1.20012832901997
30
0
41
1
10
11.0112039997801
20
1.23522878052742
30
0
41
1
10
10.8272998105965
20
1.2807051317273
30
0
41
1
10
10.7659536556137
20
1.29464629480404
30
0
41
1
10
10.6430768507328
20
1.32002454732518
30
0
41
1
10
10.5815169630807
20
1.33146836180376
30
0
41
1
10
10.3972255259361
20
1.36185526410324
30
0
41
1
10
10.2746548212198
20
1.3769148127939
30
0
41
1
10
10.0907999113704
20
1.39154875792232
30
0
41
1
10
10.0294850901962
20
1.39509218224711
30
0
41
1
10
9.90670260097156
20
1.39949545406037
30
0
41
1
10
9.84519238232787
20
1.4003559436342
30
0
41
1
10
9.66070027208451
20
1.39888880386081
30
0
41
1
10
9.5380693119738
20
1.39252852599407
30
0
41
1
10
9.29295523622963
20
1.369165412093
30
0
41
1
10
9.17033577809306
20
1.35220172670216
30
0
41
1
10
8.98587851683914
20
1.31898749388901
30
0
41
1
10
8.92436107251808
20
1.3066271750383
30
0
41
1
10
8.80157930149397
20
1.27945708419026
30
0
41
1
10
8.74026898875951
20
1.26463012929074
30
0
41
1
10
8.55641932813498
20
1.21653974675314
30
0
41
1
10
8.43385452791659
20
1.17975702879932
30
0
41
1
10
8.27936591286078
20
1.12789804687029
30
0
41
1
10
8.24769586302159
20
1.11697619890052
30
0
41
1
10
8.21602399122997
20
1.10576990491231
30
0
0
SPLINE
5
C4
100
AcDbEntity
8
1
62
256
6
ByLayer
370
18
48
1
60
0
100
AcDbSpline
70
4
71
3
72
24
73
20
40
0
40
0
40
0
40
0
40
0.0242120222380692
40
0.0242120222380692
40
0.186843351865055
40
0.186843351865055
40
0.34947468149204
40
0.34947468149204
40
0.512106011119026
40
0.512106011119026
40
0.674737340746011
40
0.674737340746011
40
0.756053005559508
40
0.756053005559508
40
0.837368670373006
40
0.837368670373006
40
0.918684335186503
40
0.918684335186503
40
1
40
1
40
1
40
1
41
1
10
17.1800819735388
20
-0.548601638724136
30
0
41
1
10
17.1771715781799
20
-0.554816581762566
30
0
41
1
10
17.1742418840773
20
-0.561036312203925
30
0
41
1
10
17.1515079544962
20
-0.609076435136444
30
0
41
1
10
17.1309497085637
20
-0.651127819001715
30
0
41
1
10
17.0891410753989
20
-0.735705197555518
30
0
41
1
10
17.0678568974405
20
-0.778282221305176
30
0
41
1
10
17.0248787694968
20
-0.864042279022129
30
0
41
1
10
17.0031852822507
20
-0.907203119169225
30
0
41
1
10
16.9595616695474
20
-0.994028648344795
30
0
41
1
10
16.9376295556166
20
-1.03770508033506
30
0
41
1
10
16.9045919835466
20
-1.10397346467676
30
0
41
1
10
16.8935509646796
20
-1.12621673970784
30
0
41
1
10
16.8714337253332
20
-1.17091722701286
30
0
41
1
10
16.8603596599629
20
-1.19335928958796
30
0
41
1
10
16.8382197979806
20
-1.23815312978942
30
0
41
1
10
16.8271541082526
20
-1.26050458191577
30
0
41
1
10
16.8050707479247
20
-1.30478362689857
30
0
41
1
10
16.7940576634555
20
-1.32667346175197
30
0
41
1
10
16.783069278583
20
-1.3482999807546
30
0
0
SPLINE
5
C5
100
AcDbEntity
8
1
62
256
6
ByLayer
370
18
48
1
60
0
100
AcDbSpline
70
4
71
3
72
76
73
72
40
0
40
0
40
0
40
0
40
0.0211592799858588
40
0.0211592799858588
40
0.0611201177669603
40
0.0611201177669603
40
0.141041793329162
40
0.141041793329162
40
0.161022212219713
40
0.161022212219713
40
0.181002631110263
40
0.181002631110263
40
0.220963468891365
40
0.220963468891365
40
0.240943887781916
40
0.240943887781916
40
0.260924306672468
40
0.260924306672468
40
0.30088514445357
40
0.30088514445357
40
0.320865563344121
40
0.320865563344121
40
0.340845982234672
40
0.340845982234672
40
0.380806820015775
40
0.380806820015775
40
0.400787238906327
40
0.400787238906327
40
0.420767657796878
40
0.420767657796878
40
0.460728495577981
40
0.460728495577981
40
0.480708914468532
40
0.480708914468532
40
0.500689333359083
40
0.500689333359083
40
0.540650171140186
40
0.540650171140186
40
0.580611008921289
40
0.580611008921289
40
0.60059142781184
40
0.60059142781184
40
0.620571846702391
40
0.620571846702391
40
0.660532684483493
40
0.660532684483493
40
0.680513103374042
40
0.680513103374042
40
0.700493522264592
40
0.700493522264592
40
0.740454360045691
40
0.740454360045691
40
0.76043477893624
40
0.76043477893624
40
0.780415197826789
40
0.780415197826789
40
0.820376035607887
40
0.820376035607887
40
0.840356454498436
40
0.840356454498436
40
0.860336873388984
40
0.860336873388984
40
0.900297711170084
40
0.900297711170084
40
0.920278130060634
40
0.920278130060634
40
0.940258548951183
40
0.940258548951183
40
0.980219386732283
40
0.980219386732283
40
1
40
1
40
1
40
1
41
1
10
6.64353049250391
20
1.40000100390179
30
0
41
1
10
6.708478098586
20
1.40001150194959
30
0
41
1
10
6.77339621017202
20
1.39851488294951
30
0
41
1
10
6.96095569516172
20
1.38986613261079
30
0
41
1
10
7.08366145182657
20
1.37886213811456
30
0
41
1
10
7.45251726643147
20
1.32983638192505
30
0
41
1
10
7.69719865480303
20
1.2764760600397
30
0
41
1
10
8.00436702585938
20
1.18586252953051
30
0
41
1
10
8.06589100323913
20
1.16655928192614
30
0
41
1
10
8.18870497483343
20
1.12585974928007
30
0
41
1
10
8.25005377592291
20
1.10443962558301
30
0
41
1
10
8.43403035248815
20
1.03709576942237
30
0
41
1
10
8.55658077482832
20
0.988082998430627
30
0
41
1
10
8.74069254865222
20
0.908855255587213
30
0
41
1
10
8.80220102185837
20
0.881498946990661
30
0
41
1
10
8.92512714711859
20
0.8252475813008
30
0
41
1
10
8.98651460532383
20
0.796350618193969
30
0
41
1
10
9.17055790948368
20
0.70751422673726
30
0
41
1
10
9.29309044269513
20
0.645425042874308
30
0
41
1
10
9.47707846269486
20
0.548631805504726
30
0
41
1
10
9.53847020876108
20
0.515805846303664
30
0
41
1
10
9.66146650343705
20
0.449169988591166
30
0
41
1
10
9.72294701257806
20
0.415419493352601
30
0
41
1
10
9.90711823704726
20
0.313222110092852
30
0
41
1
10
10.0296661916345
20
0.243746203622436
30
0
41
1
10
10.2135643521655
20
0.138237295298438
30
0
41
1
10
10.2749075827778
20
0.102905402811672
30
0
41
1
10
10.397771240999
20
0.0320723470091764
30
0
41
1
10
10.4593323460019
20
-0.0034651013691018
30
0
41
1
10
10.6436415552869
20
-0.109749764063992
30
0
41
1
10
10.7662077834405
20
-0.180304151259861
30
0
41
1
10
10.9500458097611
20
-0.284905822758901
30
0
41
1
10
11.0113515624899
20
-0.319519409544682
30
0
41
1
10
11.1341077737815
20
-0.38808307148085
30
0
41
1
10
11.1955935429722
20
-0.42206127415264
30
0
41
1
10
11.3800980041658
20
-0.522698200348231
30
0
41
1
10
11.502734249017
20
-0.587840239224789
30
0
41
1
10
11.7478506798783
20
-0.713321098811406
30
0
41
1
10
11.8704633714518
20
-0.773455627698382
30
0
41
1
10
12.0548997828373
20
-0.859093859916442
30
0
41
1
10
12.1164322007361
20
-0.886865658622611
30
0
41
1
10
12.2392252257698
20
-0.940566437760168
30
0
41
1
10
12.300543989867
20
-0.966528684456307
30
0
41
1
10
12.4843975499599
20
-1.04158423245124
30
0
41
1
10
12.6069478209193
20
-1.08770426229469
30
0
41
1
10
12.791196201437
20
-1.15050136985511
30
0
41
1
10
12.8527444867957
20
-1.17039099184223
30
0
41
1
10
12.9756494196853
20
-1.20783506396367
30
0
41
1
10
13.0370067203328
20
-1.22540019053582
30
0
41
1
10
13.2209272554309
20
-1.27451507984557
30
0
41
1
10
13.3434653637043
20
-1.30238796338929
30
0
41
1
10
13.527590520149
20
-1.33663029330296
30
0
41
1
10
13.5890168811335
20
-1.34678333243966
30
0
41
1
10
13.7120406819515
20
-1.3645117702896
30
0
41
1
10
13.7734651806578
20
-1.37206435767939
30
0
41
1
10
13.9575043504051
20
-1.390729730781
30
0
41
1
10
14.080040584721
20
-1.39783122574073
30
0
41
1
10
14.2640575869264
20
-1.40044679660858
30
0
41
1
10
14.3254287509998
20
-1.39997847792796
30
0
41
1
10
14.4483108321011
20
-1.39634459142079
30
0
41
1
10
14.5098426726759
20
-1.39317252989778
30
0
41
1
10
14.6940168324123
20
-1.37964823746114
30
0
41
1
10
14.8165719284028
20
-1.36531289420702
30
0
41
1
10
15.0005286747511
20
-1.33607754454826
30
0
41
1
10
15.0618648667474
20
-1.32504156211613
30
0
41
1
10
15.1846419851067
20
-1.30041295095151
30
0
41
1
10
15.2461295192674
20
-1.28680457469528
30
0
41
1
10
15.4305074172361
20
-1.24227296075216
30
0
41
1
10
15.5531639499137
20
-1.20779807592794
30
0
41
1
10
15.7365966786028
20
-1.14956955437617
30
0
41
1
10
15.7973383909021
20
-1.12918961513191
30
0
41
1
10
15.8581211964982
20
-1.10773973418068
30
0
0
SPLINE
5
C6
100
AcDbEntity
8
1
62
256
6
ByLayer
370
18
48
1
60
0
100
AcDbSpline
70
4
71
3
72
53
73
49
40
0
40
0
40
0
40
0
40
0.0232128829176973
40
0.0470203849819609
40
0.0708278870462243
40
0.0886835135944219
40
0.106539140142619
40
0.130346642206883
40
0.154154144271146
40
0.17796164633541
40
0.201769148399673
40
0.225576650463937
40
0.237480401496068
40
0.261287903560332
40
0.285095405624595
40
0.308902907688858
40
0.332710409753122
40
0.356517911817386
40
0.368421662849517
40
0.392229164913781
40
0.416036666978044
40
0.439844169042308
40
0.463651671106571
40
0.487459173170834
40
0.505314799719032
40
0.52317042626723
40
0.546977928331493
40
0.570785430395756
40
0.59459293246002
40
0.618400434524283
40
0.642207936588547
40
0.654111687620678
40
0.677919189684942
40
0.701726691749205
40
0.725534193813469
40
0.749341695877732
40
0.773149197941996
40
0.785052948974127
40
0.808860451038391
40
0.832667953102654
40
0.856475455166917
40
0.880282957231181
40
0.904090459295445
40
0.921946085843642
40
0.939801712391839
40
0.963609214456103
40
0.987416716520366
40
1
40
1
40
1
40
1
41
1
10
10.0039117034951
20
0.260537212722028
30
0
41
1
10
10.0354966797042
20
0.257493643023452
30
0
41
1
10
10.0994757100668
20
0.251191440621881
30
0
41
1
10
10.195848794583
20
0.241287246081754
30
0
41
1
10
10.2849324435053
20
0.231788029860723
30
0
41
1
10
10.3659175788895
20
0.222888956084688
30
0
41
1
10
10.4469027142726
20
0.213769162547265
30
0
41
1
10
10.5359863631977
20
0.20346371081601
30
0
41
1
10
10.6331685256507
20
0.191894175123821
30
0
41
1
10
10.730350688137
20
0.180011448163015
30
0
41
1
10
10.8275328504898
20
0.167830841083656
30
0
41
1
10
10.9085179863626
20
0.157439816218812
30
0
41
1
10
10.9895031192856
20
0.146900734067202
30
0
41
1
10
11.0704882660042
20
0.136221177228435
30
0
41
1
10
11.167670238547
20
0.12319645529729
30
0
41
1
10
11.2648520499098
20
0.10997922673269
30
0
41
1
10
11.3620337134204
20
0.096586113537711
30
0
41
1
10
11.4430183265081
20
0.0852921661888502
30
0
41
1
10
11.5240028709471
20
0.073909917705123
30
0
41
1
10
11.6049873526806
20
0.0624408609828891
30
0
41
1
10
11.702168648928
20
0.0485653039081342
30
0
41
1
10
11.7993498818971
20
0.0346380745674537
30
0
41
1
10
11.8965310701329
20
0.0206603525434161
30
0
41
0.999999999999999
10
11.9856138020119
20
0.0078227117317056
30
0
41
1
10
12.0665980981493
20
-0.0038565534009365
30
0
41
1
10
12.1475823982057
20
-0.0155346679650847
30
0
41
1
10
12.2366651444538
20
-0.0283684827276716
30
0
41
1
10
12.333846360906
20
-0.0423377021436124
30
0
41
1
10
12.4310276346303
20
-0.0562546397454468
30
0
41
1
10
12.5282089841797
20
-0.0700578018988551
30
0
41
1
10
12.609193520756
20
-0.0814606240957119
30
0
41
1
10
12.6901781280101
20
-0.0927751877006528
30
0
41
1
10
12.7711628111716
20
-0.103997229899136
30
0
41
1
10
12.8683445732131
20
-0.117299203995316
30
0
41
1
10
12.9655264901695
20
-0.130417510920893
30
0
41
1
10
13.0627086013097
20
-0.143339514854972
30
0
41
1
10
13.143693791533
20
-0.153928437393574
30
0
41
1
10
13.2246789469643
20
-0.164346076660052
30
0
41
1
10
13.3056641106353
20
-0.174592248287183
30
0
41
1
10
13.4028463050761
20
-0.186600674086748
30
0
41
1
10
13.5000284998989
20
-0.198306470767704
30
0
41
1
10
13.5972106946254
20
-0.209695565375597
30
0
41
1
10
13.6862943731535
20
-0.219832438232913
30
0
41
1
10
13.7672795354419
20
-0.228795431622615
30
0
41
1
10
13.8482646977334
20
-0.237540151708629
30
0
41
1
10
13.9373483762533
20
-0.246848879525942
30
0
41
1
10
14.0192581554216
20
-0.25506435171684
30
0
41
1
10
14.0687738696735
20
-0.259868365476848
30
0
41
1
10
14.085895519009
20
-0.261509811705679
30
0
0
SPLINE
5
C7
100
AcDbEntity
8
1
62
256
6
ByLayer
370
18
48
1
60
0
100
AcDbSpline
70
4
71
3
72
48
73
44
40
0
40
0
40
0
40
0
40
0.124999999999994
40
0.124999999999994
40
0.187499999999991
40
0.187499999999991
40
0.249999999999988
40
0.249999999999988
40
0.312499999999985
40
0.312499999999985
40
0.374999999999982
40
0.374999999999982
40
0.437499999999979
40
0.437499999999979
40
0.499999999999977
40
0.499999999999977
40
0.531249999999974
40
0.546874999999973
40
0.546874999999973
40
0.562499999999973
40
0.562499999999973
40
0.624999999999975
40
0.624999999999975
40
0.687499999999977
40
0.687499999999977
40
0.703124999999977
40
0.703124999999977
40
0.718749999999978
40
0.74999999999998
40
0.74999999999998
40
0.812499999999985
40
0.812499999999985
40
0.828124999999986
40
0.828124999999986
40
0.843749999999987
40
0.843749999999987
40
0.87499999999999
40
0.87499999999999
40
0.937499999999995
40
0.937499999999995
40
0.968749999999997
40
0.968749999999997
40
1
40
1
40
1
40
1
41
1
10
4.99662000000001
20
-1.08908142193369
30
0
41
1
10
4.88994014172894
20
-1.06955205261573
30
0
41
1
10
4.78540872049402
20
-1.04555116532464
30
0
41
1
10
4.63183128821953
20
-1.00127072993891
30
0
41
1
10
4.58120028520847
20
-0.985123872244003
30
0
41
1
10
4.48159783967279
20
-0.949912557616699
30
0
41
1
10
4.43255533269192
20
-0.930829477768526
30
0
41
1
10
4.33601525144323
20
-0.889341764085117
30
0
41
1
10
4.28839048984736
20
-0.866864856395523
30
0
41
1
10
4.19571176068399
20
-0.818653775467311
30
0
41
1
10
4.15058575525902
20
-0.792901266656628
30
0
41
1
10
4.06282620835154
20
-0.737765270386689
30
0
41
1
10
4.02019191620929
20
-0.708383475529672
30
0
41
1
10
3.93754033512033
20
-0.645541913548414
30
0
41
1
10
3.89752161184322
20
-0.612085287465277
30
0
41
1
10
3.83961772521988
20
-0.558370961057989
30
0
41
1
10
3.8111980769911
20
-0.5306289301314
30
0
41
1
10
3.78362251989094
20
-0.501439628165969
30
0
41
1
10
3.76543285814441
20
-0.481642246658936
30
0
41
1
10
3.75642636339555
20
-0.471563894289119
30
0
41
1
10
3.71219526877735
20
-0.420637199426494
30
0
41
1
10
3.67914171624162
20
-0.377957184112176
30
0
41
1
10
3.61801704523972
20
-0.288313072705904
30
0
41
1
10
3.58993994585302
20
-0.241354608095094
30
0
41
1
10
3.55834869797144
20
-0.179554523467686
30
0
41
1
10
3.55220741447715
20
-0.167036391157524
30
0
41
1
10
3.54040065904263
20
-0.141916809522854
30
0
41
1
10
3.52335922797354
20
-0.104025841592175
30
0
41
1
10
3.50832890208548
20
-0.0654984593742824
30
0
41
1
10
3.48100153303525
20
0.0124213629693202
30
0
41
1
10
3.46640763131904
20
0.065514985492058
30
0
41
1
10
3.45312140185422
20
0.133450889318652
30
0
41
1
10
3.45071353731734
20
0.147117011705404
30
0
41
1
10
3.44641429984574
20
0.174612756927701
30
0
41
1
10
3.44452440869898
20
0.188448724393766
30
0
41
1
10
3.43971166233547
20
0.229667492813149
30
0
41
1
10
3.43761381318561
20
0.256939731494299
30
0
41
1
10
3.43458051307084
20
0.338144374026228
30
0
41
1
10
3.43688520951804
20
0.391466903451288
30
0
41
1
10
3.44691607806735
20
0.470224251262295
30
0
41
1
10
3.45138481259892
20
0.496350607663345
30
0
41
1
10
3.46239700150343
20
0.547379164386257
30
0
41
1
10
3.46894455221957
20
0.572368499727617
30
0
41
1
10
3.47651054568658
20
0.596852066052605
30
0
0
SPLINE
5
C8
100
AcDbEntity
8
1
62
256
6
ByLayer
370
18
48
1
60
0
100
AcDbSpline
70
4
71
3
72
18
73
14
40
0
40
0
40
0
40
0
40
0.250000000000007
40
0.250000000000007
40
0.500000000000013
40
0.500000000000013
40
0.625000000000017
40
0.625000000000017
40
0.687500000000015
40
0.687500000000015
40
0.750000000000013
40
0.750000000000013
40
1
40
1
40
1
40
1
41
1
10
3.47651054568661
20
0.59685206605252
30
0
41
1
10
3.6018639669154
20
0.624767951472535
30
0
41
1
10
3.72784191104671
20
0.644515069050271
30
0
41
1
10
3.98100595288733
20
0.669262160077068
30
0
41
1
10
4.10819218124874
20
0.674257808989836
30
0
41
1
10
4.29988868047576
20
0.670759213557915
30
0
41
1
10
4.36394079014855
20
0.667749845141628
30
0
41
1
10
4.46025417977697
20
0.660375243626618
30
0
41
1
10
4.49238224908055
20
0.657439008018002
30
0
41
1
10
4.55634586534194
20
0.65063433270808
30
0
41
1
10
4.58822720024648
20
0.646762712428711
30
0
41
1
10
4.74713521294476
20
0.625043201349371
30
0
41
1
10
4.87267146872057
20
0.600167199916427
30
0
41
1
10
4.99662000003971
20
0.567152600809891
30
0
0
LINE
5
7F
100
AcDbEntity
8
1
62
256
6
ByLayer
370
18
48
1
60
0
100
AcDbLine
10
0
20
1.497495
30
0
11
0
21
-1.497495
31
0
39
0
210
0
220
0
230
1
0
LINE
5
80
100
AcDbEntity
8
1
62
256
6
ByLayer
370
18
48
1
60
0
100
AcDbLine
10
16.783069
20
0.713739
30
0
11
16.783069
21
-1.3483
31
0
39
0
210
0
220
0
230
1
0
LINE
5
81
100
AcDbEntity
8
1
62
256
6
ByLayer
370
13
48
1
60
0
100
AcDbLine
10
0.43068
20
1.4
30
0
11
0.43068
21
-1.4
31
0
39
0
210
0
220
0
230
1
0
LINE
5
82
100
AcDbEntity
8
1
62
256
6
ByLayer
370
18
48
1
60
0
100
AcDbLine
10
4.99662
20
-0.082217
30
0
11
4.99662
21
-1.089081
31
0
39
0
210
0
220
0
230
1
0
LINE
5
83
100
AcDbEntity
8
1
62
256
6
ByLayer
370
18
48
1
60
0
100
AcDbLine
10
4.99662
20
0.567153
30
0
11
4.99662
21
-0.082217
31
0
39
0
210
0
220
0
230
1
0
LINE
5
84
100
AcDbEntity
8
SK1
62
256
6
ByLayer
370
18
48
1
60
0
100
AcDbLine
10
-20.5641
20
1.326795
30
0
11
-20.5641
21
-1.326795
31
0
39
0
210
0
220
0
230
1
0
LINE
5
86
100
AcDbEntity
8
SK1
62
256
6
ByLayer
370
18
48
1
60
0
100
AcDbLine
10
0
20
1.497495
30
0
11
0
21
-1.497495
31
0
39
0
210
0
220
0
230
1
0
LINE
5
87
100
AcDbEntity
8
SK1
62
256
6
ByLayer
370
18
48
1
60
0
100
AcDbLine
10
-0.00521
20
1.5
30
0
11
-0.00521
21
-1.5
31
0
39
0
210
0
220
0
230
1
0
LINE
5
88
100
AcDbEntity
8
SK1
62
256
6
ByLayer
370
18
48
1
60
0
100
AcDbLine
10
-20.2641
20
1.5
30
0
11
-20.2641
21
-1.5
31
0
39
0
210
0
220
0
230
1
0
LINE
5
89
100
AcDbEntity
8
1
62
256
6
ByLayer
370
18
48
1
60
0
100
AcDbLine
10
17.4359
20
0
30
0
11
17.179391
21
0.550084
31
0
39
0
210
0
220
0
230
1
0
LINE
5
8A
100
AcDbEntity
8
1
62
256
6
ByLayer
370
18
48
1
60
0
100
AcDbLine
10
17.179391
20
-0.550084
30
0
11
17.4359
21
0
31
0
39
0
210
0
220
0
230
1
0
LINE
5
8B
100
AcDbEntity
8
1
62
256
6
ByLayer
370
18
48
1
60
0
100
AcDbLine
10
0.43068
20
-1.4
30
0
11
6.643777
21
-1.4
31
0
39
0
210
0
220
0
230
1
0
LINE
5
8C
100
AcDbEntity
8
1
62
256
6
ByLayer
370
18
48
1
60
0
100
AcDbLine
10
9.817157
20
-1.4
30
0
11
14.263267
21
-1.4
31
0
39
0
210
0
220
0
230
1
0
LINE
5
8D
100
AcDbEntity
8
1
62
256
6
ByLayer
370
18
48
1
60
0
100
AcDbLine
10
14.263267
20
1.4
30
0
11
9.817157
21
1.4
31
0
39
0
210
0
220
0
230
1
0
LINE
5
8E
100
AcDbEntity
8
1
62
256
6
ByLayer
370
18
48
1
60
0
100
AcDbLine
10
6.643777
20
1.4
30
0
11
0.43068
21
1.4
31
0
39
0
210
0
220
0
230
1
0
LINE
5
8F
100
AcDbEntity
8
SK1
62
256
6
ByLayer
370
18
48
1
60
0
100
AcDbLine
10
-20.5641
20
-1.326795
30
0
11
-20.2641
21
-1.5
31
0
39
0
210
0
220
0
230
1
0
LINE
5
90
100
AcDbEntity
8
SK1
62
256
6
ByLayer
370
18
48
1
60
0
100
AcDbLine
10
-20.2641
20
1.5
30
0
11
-20.5641
21
1.326795
31
0
39
0
210
0
220
0
230
1
0
LINE
5
91
100
AcDbEntity
8
SK1
62
256
6
ByLayer
370
18
48
1
60
0
100
AcDbLine
10
-20.2641
20
-1.5
30
0
11
-0.00521
21
-1.5
31
0
39
0
210
0
220
0
230
1
0
LINE
5
92
100
AcDbEntity
8
SK1
62
256
6
ByLayer
370
18
48
1
60
0
100
AcDbLine
10
-0.00521
20
1.5
30
0
11
-20.2641
21
1.5
31
0
39
0
210
0
220
0
230
1
0
LINE
5
93
100
AcDbEntity
8
4
62
256
6
ByLayer
370
18
48
0.05
60
0
100
AcDbLine
10
0
20
0
30
0
11
17.4359
21
0
31
0
39
0
210
0
220
0
230
1
0
LINE
5
95
100
AcDbEntity
8
81
62
256
6
ByLayer
370
18
48
1
60
0
100
AcDbLine
10
17.4359
20
0
30
0
11
20.4359
21
0
31
0
39
0
210
0
220
0
230
1
0
LINE
5
96
100
AcDbEntity
8
80
62
256
6
ByLayer
370
18
48
1
60
0
100
AcDbLine
10
0
20
0
30
0
11
-3
21
0
31
0
39
0
210
0
220
0
230
1
0
LINE
5
97
100
AcDbEntity
8
SK4
62
256
6
ByLayer
370
18
48
0.05
60
0
100
AcDbLine
10
-23.5641
20
0
30
0
11
20.4359
21
0
31
0
39
0
210
0
220
0
230
1
0
LINE
5
99
100
AcDbEntity
8
SK2
62
256
6
ByLayer
370
13
48
1
60
0
100
AcDbLine
10
-25.0641
20
-9
30
0
11
-25.0641
21
21.782741
31
0
39
0
210
0
220
0
230
1
0
LINE
5
9B
100
AcDbEntity
8
SK2
62
256
6
ByLayer
370
13
48
1
60
0
100
AcDbLine
10
-22.1516
20
-1.5
30
0
11
-27.0641
21
-1.5
31
0
39
0
210
0
220
0
230
1
0
LINE
5
9C
100
AcDbEntity
8
SK2
62
256
6
ByLayer
370
13
48
1
60
0
100
AcDbLine
10
-22.1516
20
1.5
30
0
11
-27.0641
21
1.5
31
0
39
0
210
0
220
0
230
1
0
LINE
5
9D
100
AcDbEntity
8
1
62
256
6
ByLayer
370
18
48
1
60
1
100
AcDbLine
10
-25.0641
20
-1.5
30
0
11
-24.603316
21
-4.999998
31
0
39
0
210
0
220
0
230
1
0
LINE
5
9E
100
AcDbEntity
8
1
62
256
6
ByLayer
370
18
48
1
60
1
100
AcDbLine
10
-24.603316
20
-4.999998
30
0
11
-25.524884
21
-5.000002
31
0
39
0
210
0
220
0
230
1
0
LINE
5
9F
100
AcDbEntity
8
1
62
256
6
ByLayer
370
18
48
1
60
1
100
AcDbLine
10
-25.524884
20
-5.000002
30
0
11
-25.0641
21
-1.5
31
0
39
0
210
0
220
0
230
1
0
LINE
5
A0
100
AcDbEntity
8
1
62
256
6
ByLayer
370
18
48
1
60
1
100
AcDbLine
10
-25.0641
20
1.5
30
0
11
-25.524884
21
4.999998
31
0
39
0
210
0
220
0
230
1
0
LINE
5
A1
100
AcDbEntity
8
1
62
256
6
ByLayer
370
18
48
1
60
1
100
AcDbLine
10
-25.524884
20
4.999998
30
0
11
-24.603316
21
5.000002
31
0
39
0
210
0
220
0
230
1
0
LINE
5
A2
100
AcDbEntity
8
1
62
256
6
ByLayer
370
18
48
1
60
1
100
AcDbLine
10
-24.603316
20
5.000002
30
0
11
-25.0641
21
1.5
31
0
39
0
210
0
220
0
230
1
0
LINE
5
A3
100
AcDbEntity
8
2
62
256
6
ByLayer
370
13
48
1
60
0
100
AcDbLine
10
22.9359
20
-8.9
30
0
11
22.9359
21
29.382741
31
0
39
0
210
0
220
0
230
1
0
LINE
5
A5
100
AcDbEntity
8
2
62
256
6
ByLayer
370
13
48
1
60
0
100
AcDbLine
10
19.0234
20
-1.4
30
0
11
24.9359
21
-1.4
31
0
39
0
210
0
220
0
230
1
0
LINE
5
A6
100
AcDbEntity
8
2
62
256
6
ByLayer
370
13
48
1
60
0
100
AcDbLine
10
19.0234
20
1.4
30
0
11
24.9359
21
1.4
31
0
39
0
210
0
220
0
230
1
0
LINE
5
A7
100
AcDbEntity
8
1
62
256
6
ByLayer
370
18
48
1
60
1
100
AcDbLine
10
22.9359
20
-1.4
30
0
11
23.396684
21
-4.899998
31
0
39
0
210
0
220
0
230
1
0
LINE
5
A8
100
AcDbEntity
8
1
62
256
6
ByLayer
370
18
48
1
60
1
100
AcDbLine
10
23.396684
20
-4.899998
30
0
11
22.475116
21
-4.900002
31
0
39
0
210
0
220
0
230
1
0
LINE
5
A9
100
AcDbEntity
8
1
62
256
6
ByLayer
370
18
48
1
60
1
100
AcDbLine
10
22.475116
20
-4.900002
30
0
11
22.9359
21
-1.4
31
0
39
0
210
0
220
0
230
1
0
LINE
5
AA
100
AcDbEntity
8
1
62
256
6
ByLayer
370
18
48
1
60
1
100
AcDbLine
10
22.9359
20
1.4
30
0
11
22.475116
21
4.899998
31
0
39
0
210
0
220
0
230
1
0
LINE
5
AB
100
AcDbEntity
8
1
62
256
6
ByLayer
370
18
48
1
60
1
100
AcDbLine
10
22.475116
20
4.899998
30
0
11
23.396684
21
4.900002
31
0
39
0
210
0
220
0
230
1
0
LINE
5
AC
100
AcDbEntity
8
1
62
256
6
ByLayer
370
18
48
1
60
1
100
AcDbLine
10
23.396684
20
4.900002
30
0
11
22.9359
21
1.4
31
0
39
0
210
0
220
0
230
1
0
LINE
5
AD
100
AcDbEntity
8
SK2
62
256
6
ByLayer
370
13
48
1
60
0
100
AcDbLine
10
18.106806
20
-1.438764
30
0
11
25.190945
21
-16.630748
31
0
39
0
210
0
220
0
230
1
0
LINE
5
AE
100
AcDbEntity
8
SK2
62
256
6
ByLayer
370
13
48
1
60
0
100
AcDbLine
10
18.106806
20
1.438764
30
0
11
25.190945
21
16.630748
31
0
39
0
210
0
220
0
230
1
0
LINE
5
AF
100
AcDbEntity
8
1
62
256
6
ByLayer
370
18
48
1
60
1
100
AcDbLine
10
24.345709
20
-14.818132
30
0
11
27.217742
21
-12.765394
31
0
39
0
210
0
220
0
230
1
0
LINE
5
B0
100
AcDbEntity
8
1
62
256
6
ByLayer
370
18
48
1
60
1
100
AcDbLine
10
27.217742
20
-12.765394
30
0
11
27.651171
21
-13.578675
31
0
39
0
210
0
220
0
230
1
0
LINE
5
B1
100
AcDbEntity
8
1
62
256
6
ByLayer
370
18
48
1
60
1
100
AcDbLine
10
27.651171
20
-13.578675
30
0
11
24.345709
21
-14.818132
31
0
39
0
210
0
220
0
230
1
0
LINE
5
B2
100
AcDbEntity
8
1
62
256
6
ByLayer
370
18
48
1
60
1
100
AcDbLine
10
24.345709
20
14.818132
30
0
11
27.651168
21
13.578677
31
0
39
0
210
0
220
0
230
1
0
LINE
5
B3
100
AcDbEntity
8
1
62
256
6
ByLayer
370
18
48
1
60
1
100
AcDbLine
10
27.651168
20
13.578677
30
0
11
27.217745
21
12.765392
31
0
39
0
210
0
220
0
230
1
0
LINE
5
B4
100
AcDbEntity
8
1
62
256
6
ByLayer
370
18
48
1
60
1
100
AcDbLine
10
27.217745
20
12.765392
30
0
11
24.345709
21
14.818132
31
0
39
0
210
0
220
0
230
1
0
LINE
5
CD
100
AcDbEntity
8
1
62
256
6
ByLayer
370
18
48
1
60
1
100
AcDbLine
10
-25.0641
20
-1.5
30
0
11
-24.603316
21
-4.999998
31
0
39
0
210
0
220
0
230
1
0
LINE
5
CE
100
AcDbEntity
8
1
62
256
6
ByLayer
370
18
48
1
60
1
100
AcDbLine
10
-24.603316
20
-4.999998
30
0
11
-25.524884
21
-5.000002
31
0
39
0
210
0
220
0
230
1
0
LINE
5
CF
100
AcDbEntity
8
1
62
256
6
ByLayer
370
18
48
1
60
1
100
AcDbLine
10
-25.524884
20
-5.000002
30
0
11
-25.0641
21
-1.5
31
0
39
0
210
0
220
0
230
1
0
LINE
5
D1
100
AcDbEntity
8
1
62
256
6
ByLayer
370
18
48
1
60
1
100
AcDbLine
10
-25.0641
20
1.5
30
0
11
-25.524884
21
4.999998
31
0
39
0
210
0
220
0
230
1
0
LINE
5
D2
100
AcDbEntity
8
1
62
256
6
ByLayer
370
18
48
1
60
1
100
AcDbLine
10
-25.524884
20
4.999998
30
0
11
-24.603316
21
5.000002
31
0
39
0
210
0
220
0
230
1
0
LINE
5
D3
100
AcDbEntity
8
1
62
256
6
ByLayer
370
18
48
1
60
1
100
AcDbLine
10
-24.603316
20
5.000002
30
0
11
-25.0641
21
1.5
31
0
39
0
210
0
220
0
230
1
0
LINE
5
D7
100
AcDbEntity
8
1
62
256
6
ByLayer
370
18
48
1
60
1
100
AcDbLine
10
22.9359
20
-1.4
30
0
11
23.396684
21
-4.899998
31
0
39
0
210
0
220
0
230
1
0
LINE
5
D8
100
AcDbEntity
8
1
62
256
6
ByLayer
370
18
48
1
60
1
100
AcDbLine
10
23.396684
20
-4.899998
30
0
11
22.475116
21
-4.900002
31
0
39
0
210
0
220
0
230
1
0
LINE
5
D9
100
AcDbEntity
8
1
62
256
6
ByLayer
370
18
48
1
60
1
100
AcDbLine
10
22.475116
20
-4.900002
30
0
11
22.9359
21
-1.4
31
0
39
0
210
0
220
0
230
1
0
LINE
5
DB
100
AcDbEntity
8
1
62
256
6
ByLayer
370
18
48
1
60
1
100
AcDbLine
10
22.9359
20
1.4
30
0
11
22.475116
21
4.899998
31
0
39
0
210
0
220
0
230
1
0
LINE
5
DC
100
AcDbEntity
8
1
62
256
6
ByLayer
370
18
48
1
60
1
100
AcDbLine
10
22.475116
20
4.899998
30
0
11
23.396684
21
4.900002
31
0
39
0
210
0
220
0
230
1
0
LINE
5
DD
100
AcDbEntity
8
1
62
256
6
ByLayer
370
18
48
1
60
1
100
AcDbLine
10
23.396684
20
4.900002
30
0
11
22.9359
21
1.4
31
0
39
0
210
0
220
0
230
1
0
LINE
5
E0
100
AcDbEntity
8
1
62
256
6
ByLayer
370
18
48
1
60
1
100
AcDbLine
10
24.345709
20
-14.818132
30
0
11
27.217742
21
-12.765394
31
0
39
0
210
0
220
0
230
1
0
LINE
5
E1
100
AcDbEntity
8
1
62
256
6
ByLayer
370
18
48
1
60
1
100
AcDbLine
10
27.217742
20
-12.765394
30
0
11
27.651171
21
-13.578675
31
0
39
0
210
0
220
0
230
1
0
LINE
5
E2
100
AcDbEntity
8
1
62
256
6
ByLayer
370
18
48
1
60
1
100
AcDbLine
10
27.651171
20
-13.578675
30
0
11
24.345709
21
-14.818132
31
0
39
0
210
0
220
0
230
1
0
LINE
5
E4
100
AcDbEntity
8
1
62
256
6
ByLayer
370
18
48
1
60
1
100
AcDbLine
10
24.345709
20
14.818132
30
0
11
27.651168
21
13.578677
31
0
39
0
210
0
220
0
230
1
0
LINE
5
E5
100
AcDbEntity
8
1
62
256
6
ByLayer
370
18
48
1
60
1
100
AcDbLine
10
27.651168
20
13.578677
30
0
11
27.217745
21
12.765392
31
0
39
0
210
0
220
0
230
1
0
LINE
5
E6
100
AcDbEntity
8
1
62
256
6
ByLayer
370
18
48
1
60
1
100
AcDbLine
10
27.217745
20
12.765392
30
0
11
24.345709
21
14.818132
31
0
39
0
210
0
220
0
230
1
0
MTEXT
5
C9
100
AcDbEntity
8
SK2
62
256
6
ByLayer
370
18
48
1
60
0
100
AcDbMText
10
-26.405214
20
6.658437
30
0
210
0
220
0
230
1
1
%%c
40
3
41
0
44
1.084337
50
90
71
7
72
5
7
iso_b_vert
0
MTEXT
5
CC
100
AcDbEntity
8
SK2
62
256
6
ByLayer
370
18
48
1
60
0
100
AcDbMText
10
-26.405214
20
12.635
30
0
210
0
220
0
230
1
1
\W0.7468;3.000
40
3
41
0
44
1.084337
50
90
71
7
72
5
7
iso_b_vert
0
MTEXT
5
D5
100
AcDbEntity
8
2
62
256
6
ByLayer
370
18
48
1
60
0
100
AcDbMText
10
21.594786
20
14.258437
30
0
210
0
220
0
230
1
1
%%c
40
3
41
0
44
1.084337
50
90
71
7
72
5
7
iso_b_vert
0
MTEXT
5
D6
100
AcDbEntity
8
2
62
256
6
ByLayer
370
18
48
1
60
0
100
AcDbMText
10
21.594786
20
20.235
30
0
210
0
220
0
230
1
1
\W0.7468;2.800
40
3
41
0
44
1.084337
50
90
71
7
72
5
7
iso_b_vert
0
MTEXT
5
DF
100
AcDbEntity
8
SK2
62
256
6
ByLayer
370
18
48
1
60
0
100
AcDbMText
10
30.503186
20
-2.114886
30
0
210
0
220
0
230
1
1
\W0.6747;130%%d
40
3
41
0
44
1.084337
50
0
71
7
72
5
7
iso_b_vert
0
MTEXT
5
E8
100
AcDbEntity
8
SK6
62
256
6
ByLayer
370
18
48
1
60
0
100
AcDbMText
10
-29.56801
20
-48.114886
30
0
210
0
220
0
230
1
1
\W0.7754;462.1-0280-009A0-XM X0BU
40
3
41
0
44
1.084337
50
0
71
7
72
5
7
iso_b_vert
0
HATCH
5
D0
100
AcDbEntity
8
SK2
62
256
6
ByLayer
370
13
48
1
60
0
100
AcDbHatch
10
0
20
0
30
0
210
0
220
0
230
1
2
ANSI31
70
0
71
0
91
1
92
5
93
3
72
1
10
-25.0641
20
-1.5
11
-24.6033162584472
21
-4.99999830744682
72
1
10
-24.6033162584472
20
-4.99999830744682
11
-25.5248837415528
21
-5.00000169255318
72
1
10
-25.5248837415528
20
-5.00000169255318
11
-25.0641
21
-1.5
97
0
75
0
76
1
52
0
41
0.0062
77
0
78
1
53
45
43
0
44
0
45
-0.0139193969876572
46
0.0139193969876572
79
0
47
0
98
1
10
0
20
0
0
HATCH
5
D4
100
AcDbEntity
8
SK2
62
256
6
ByLayer
370
13
48
1
60
0
100
AcDbHatch
10
0
20
0
30
0
210
0
220
0
230
1
2
ANSI31
70
0
71
0
91
1
92
5
93
3
72
1
10
-25.0641
20
1.5
11
-25.5248837415528
21
4.99999830744682
72
1
10
-25.5248837415528
20
4.99999830744682
11
-24.6033162584472
21
5.00000169255318
72
1
10
-24.6033162584472
20
5.00000169255318
11
-25.0641
21
1.5
97
0
75
0
76
1
52
0
41
0.0062
77
0
78
1
53
45
43
0
44
0
45
-0.0139193969876572
46
0.0139193969876572
79
0
47
0
98
1
10
0
20
0
0
HATCH
5
DA
100
AcDbEntity
8
2
62
256
6
ByLayer
370
13
48
1
60
0
100
AcDbHatch
10
0
20
0
30
0
210
0
220
0
230
1
2
ANSI31
70
0
71
0
91
1
92
5
93
3
72
1
10
22.9359
20
-1.40000000000001
11
23.3966837415528
21
-4.89999830744682
72
1
10
23.3966837415528
20
-4.89999830744682
11
22.4751162584472
21
-4.90000169255319
72
1
10
22.4751162584472
20
-4.90000169255319
11
22.9359
21
-1.40000000000001
97
0
75
0
76
1
52
0
41
0.0062
77
0
78
1
53
45
43
0
44
0
45
-0.0139193969876572
46
0.0139193969876572
79
0
47
0
98
1
10
0
20
0
0
HATCH
5
DE
100
AcDbEntity
8
2
62
256
6
ByLayer
370
13
48
1
60
0
100
AcDbHatch
10
0
20
0
30
0
210
0
220
0
230
1
2
ANSI31
70
0
71
0
91
1
92
5
93
3
72
1
10
22.9359
20
1.40000000000001
11
22.4751162584472
21
4.89999830744682
72
1
10
22.4751162584472
20
4.89999830744682
11
23.3966837415528
21
4.90000169255319
72
1
10
23.3966837415528
20
4.90000169255319
11
22.9359
21
1.40000000000001
97
0
75
0
76
1
52
0
41
0.0062
77
0
78
1
53
45
43
0
44
0
45
-0.0139193969876572
46
0.0139193969876572
79
0
47
0
98
1
10
0
20
0
0
HATCH
5
E3
100
AcDbEntity
8
SK2
62
256
6
ByLayer
370
13
48
1
60
0
100
AcDbHatch
10
0
20
0
30
0
210
0
220
0
230
1
2
ANSI31
70
0
71
0
91
1
92
5
93
3
72
1
10
24.3457085794605
20
-14.8181323180492
11
27.2177418553693
21
-12.765393983365
72
1
10
27.2177418553693
20
-12.765393983365
11
27.6511706127348
21
-13.5786750775861
72
1
10
27.6511706127348
20
-13.5786750775861
11
24.3457085794605
21
-14.8181323180492
97
0
75
0
76
1
52
0
41
0.0062
77
0
78
1
53
45
43
0
44
0
45
-0.0139193969876572
46
0.0139193969876572
79
0
47
0
98
1
10
0
20
0
0
HATCH
5
E7
100
AcDbEntity
8
SK2
62
256
6
ByLayer
370
13
48
1
60
0
100
AcDbHatch
10
0
20
0
30
0
210
0
220
0
230
1
2
ANSI31
70
0
71
0
91
1
92
5
93
3
72
1
10
24.3457085794605
20
14.8181323180492
11
27.6511676253807
21
13.5786766696479
72
1
10
27.6511676253807
20
13.5786766696479
11
27.2177448427234
21
12.7653923913032
72
1
10
27.2177448427234
20
12.7653923913032
11
24.3457085794605
21
14.8181323180492
97
0
75
0
76
1
52
0
41
0.0062
77
0
78
1
53
45
43
0
44
0
45
-0.0139193969876572
46
0.0139193969876572
79
0
47
0
98
1
10
0
20
0
0
DIMENSION
5
EB
100
AcDbEntity
8
SK2
62
256
6
ByLayer
370
18
48
1
60
0
100
AcDbDimension
2
_U0
10
17.4359
20
-38.85
30
0
11
-1.5641
21
-38.85
31
0
70
32
71
1
72
1
41
1
210
0
220
0
230
1
3
Standard
100
AcDbAlignedDimension
13
-20.5641
23
1.5
33
0
14
17.4359
24
1.4
34
0
50
0
100
AcDbRotatedDimension
1001
ACAD
1000
DSTYLE
1002
{
1070
   371
1070
    13
1070
   372
1070
    13
1070
     3
1000

1070
   170
1070
     0
1070
   144
1040
1.0
1070
   277
1070
     2
1070
   284
1070
     8
1070
   278
1070
    46
1070
   146
1040
1.166667
1070
   345
1005
16
1070
   347
1005
16
1070
   346
1005
16
1070
   344
1005
0
1070
   343
1005
0
1070
   172
1070
     1
1070
    76
1070
     0
1070
    75
1070
     0
1070
   282
1070
     0
1070
   281
1070
     0
1070
    71
1070
     0
1070
    74
1070
     0
1070
   279
1070
     0
1070
   173
1070
     1
1070
   340
1005
CA
1070
   271
1070
     2
1070
   272
1070
     2
1070
    77
1070
     1
1070
    73
1070
     1
1070
   171
1070
     3
1070
   274
1070
     4
1070
   177
1070
     2
1070
   176
1070
     2
1070
   178
1070
     2
1070
    78
1070
     8
1070
    48
1040
-0.1
1070
    41
1040
3.5
1070
   147
1040
1.5
1070
    42
1040
1.5875
1070
    44
1040
2.0
1070
   140
1040
3.0
1002
}
1001
ACAD_DSTYLE_DIM_LINETYPE
1070
   380
1005
16
1001
ACAD_DSTYLE_DIM_EXT1_LINETYPE
1070
   381
1005
16
1001
ACAD_DSTYLE_DIM_EXT2_LINETYPE
1070
   382
1005
16
0
DIMENSION
5
104
100
AcDbEntity
8
SK2
62
256
6
ByLayer
370
18
48
1
60
0
100
AcDbDimension
2
_U1
10
7.6359
20
-22.9
30
0
11
32.078757
21
-22.9
31
0
70
32
71
1
72
1
41
1
210
0
220
0
230
1
3
Standard
100
AcDbAlignedDimension
13
17.4359
23
1.4
33
0
14
7.6359
24
0
34
0
50
0
100
AcDbRotatedDimension
1001
ACAD
1000
DSTYLE
1002
{
1070
   371
1070
    13
1070
   372
1070
    13
1070
     3
1000

1070
   170
1070
     0
1070
   144
1040
1.0
1070
   277
1070
     2
1070
   284
1070
     8
1070
   278
1070
    46
1070
   146
1040
1.166667
1070
   345
1005
16
1070
   347
1005
16
1070
   346
1005
16
1070
   344
1005
0
1070
   343
1005
0
1070
   172
1070
     1
1070
    76
1070
     0
1070
    75
1070
     0
1070
   282
1070
     0
1070
   281
1070
     0
1070
    71
1070
     0
1070
    74
1070
     0
1070
   279
1070
     0
1070
   173
1070
     1
1070
   340
1005
CA
1070
   271
1070
     2
1070
   272
1070
     2
1070
    77
1070
     1
1070
    73
1070
     1
1070
   171
1070
     3
1070
   274
1070
     4
1070
   177
1070
     2
1070
   176
1070
     2
1070
   178
1070
     2
1070
    78
1070
     8
1070
    48
1040
-0.1
1070
    41
1040
3.5
1070
   147
1040
1.5
1070
    42
1040
1.5875
1070
    44
1040
2.0
1070
   140
1040
3.0
1002
}
1001
ACAD_DSTYLE_DIM_LINETYPE
1070
   380
1005
16
1001
ACAD_DSTYLE_DIM_EXT1_LINETYPE
1070
   381
1005
16
1001
ACAD_DSTYLE_DIM_EXT2_LINETYPE
1070
   382
1005
16
0
DIMENSION
5
11E
100
AcDbEntity
8
SK2
62
256
6
ByLayer
370
18
48
1
60
0
100
AcDbDimension
2
_U2
10
3.4359
20
-30.35
30
0
11
10.4359
21
-30.35
31
0
70
32
71
1
72
1
41
1
210
0
220
0
230
1
3
Standard
100
AcDbAlignedDimension
13
17.4359
23
1.4
33
0
14
3.4359
24
0
34
0
50
0
100
AcDbRotatedDimension
1001
ACAD
1000
DSTYLE
1002
{
1070
   371
1070
    13
1070
   372
1070
    13
1070
     3
1000

1070
   170
1070
     0
1070
   144
1040
1.0
1070
   277
1070
     2
1070
   284
1070
     8
1070
   278
1070
    46
1070
   146
1040
1.166667
1070
   345
1005
16
1070
   347
1005
16
1070
   346
1005
16
1070
   344
1005
0
1070
   343
1005
0
1070
   172
1070
     1
1070
    76
1070
     0
1070
    75
1070
     0
1070
   282
1070
     0
1070
   281
1070
     0
1070
    71
1070
     0
1070
    74
1070
     0
1070
   279
1070
     0
1070
   173
1070
     1
1070
   340
1005
CA
1070
   271
1070
     2
1070
   272
1070
     2
1070
    77
1070
     1
1070
    73
1070
     1
1070
   171
1070
     3
1070
   274
1070
     4
1070
   177
1070
     2
1070
   176
1070
     2
1070
   178
1070
     2
1070
    78
1070
     8
1070
    48
1040
-0.1
1070
    41
1040
3.5
1070
   147
1040
1.5
1070
    42
1040
1.5875
1070
    44
1040
2.0
1070
   140
1040
3.0
1002
}
1001
ACAD_DSTYLE_DIM_LINETYPE
1070
   380
1005
16
1001
ACAD_DSTYLE_DIM_EXT1_LINETYPE
1070
   381
1005
16
1001
ACAD_DSTYLE_DIM_EXT2_LINETYPE
1070
   382
1005
16
0
DIMENSION
5
137
100
AcDbEntity
8
SK2
62
256
6
ByLayer
370
18
48
1
60
0
100
AcDbDimension
2
_U3
10
0
20
11.35
30
0
11
-10.28205
21
11.35
31
0
70
32
71
1
72
1
41
1
210
0
220
0
230
1
3
Standard
100
AcDbAlignedDimension
13
-20.5641
23
0
33
0
14
0
24
0
34
0
50
0
100
AcDbRotatedDimension
1001
ACAD
1000
DSTYLE
1002
{
1070
   371
1070
    13
1070
   372
1070
    13
1070
     3
1000

1070
   170
1070
     0
1070
   144
1040
1.0
1070
   277
1070
     2
1070
   284
1070
     8
1070
   278
1070
    46
1070
   146
1040
1.166667
1070
   345
1005
16
1070
   347
1005
16
1070
   346
1005
16
1070
   344
1005
0
1070
   343
1005
0
1070
   172
1070
     1
1070
    76
1070
     0
1070
    75
1070
     0
1070
   282
1070
     0
1070
   281
1070
     0
1070
    71
1070
     0
1070
    74
1070
     0
1070
   279
1070
     0
1070
   173
1070
     1
1070
   340
1005
CA
1070
   271
1070
     2
1070
   272
1070
     2
1070
    77
1070
     1
1070
    73
1070
     1
1070
   171
1070
     3
1070
   274
1070
     4
1070
   177
1070
     2
1070
   176
1070
     2
1070
   178
1070
     2
1070
    78
1070
     8
1070
    48
1040
-0.1
1070
    41
1040
3.5
1070
   147
1040
1.5
1070
    42
1040
1.5875
1070
    44
1040
2.0
1070
   140
1040
3.0
1002
}
1001
ACAD_DSTYLE_DIM_LINETYPE
1070
   380
1005
16
1001
ACAD_DSTYLE_DIM_EXT1_LINETYPE
1070
   381
1005
16
1001
ACAD_DSTYLE_DIM_EXT2_LINETYPE
1070
   382
1005
16
0
DIMENSION
5
14F
100
AcDbEntity
8
2
62
256
6
ByLayer
370
18
48
1
60
0
100
AcDbDimension
2
_U4
10
0
20
11.35
30
0
11
8.71795
21
11.35
31
0
70
32
71
1
72
1
41
1
210
0
220
0
230
1
3
Standard
100
AcDbAlignedDimension
13
17.4359
23
1.4
33
0
14
0
24
0
34
0
50
0
100
AcDbRotatedDimension
1001
ACAD
1000
DSTYLE
1002
{
1070
   371
1070
    13
1070
   372
1070
    13
1070
     3
1000

1070
   170
1070
     0
1070
   144
1040
1.0
1070
   277
1070
     2
1070
   284
1070
     8
1070
   278
1070
    46
1070
   146
1040
1.166667
1070
   345
1005
16
1070
   347
1005
16
1070
   346
1005
16
1070
   344
1005
0
1070
   343
1005
0
1070
   172
1070
     1
1070
    76
1070
     0
1070
    75
1070
     0
1070
   282
1070
     0
1070
   281
1070
     0
1070
    71
1070
     0
1070
    74
1070
     0
1070
   279
1070
     0
1070
   173
1070
     1
1070
   340
1005
CA
1070
   271
1070
     2
1070
   272
1070
     2
1070
    77
1070
     1
1070
    73
1070
     1
1070
   171
1070
     3
1070
   274
1070
     4
1070
   177
1070
     2
1070
   176
1070
     2
1070
   178
1070
     2
1070
    78
1070
     8
1070
    48
1040
-0.1
1070
    41
1040
3.5
1070
   147
1040
1.5
1070
    42
1040
1.5875
1070
    44
1040
2.0
1070
   140
1040
3.0
1002
}
1001
ACAD_DSTYLE_DIM_LINETYPE
1070
   380
1005
16
1001
ACAD_DSTYLE_DIM_EXT1_LINETYPE
1070
   381
1005
16
1001
ACAD_DSTYLE_DIM_EXT2_LINETYPE
1070
   382
1005
16
0
ENDSEC
0
SECTION
2
OBJECTS
0
DICTIONARY
5
1d7
330
0
100
AcDbDictionary
280
0
281
1
3
ACAD_GROUP
350
1d8
3
ACAD_MLINESTYLE
350
1d9
0
DICTIONARY
5
1d8
330
0
100
AcDbDictionary
280
0
281
1
0
DICTIONARY
5
1d9
330
0
100
AcDbDictionary
280
0
281
1
3
Standard
350
18
0
MLINESTYLE
5
18
330
1d9
100
AcDbMlineStyle
2
Standard
70
0
3

62
256
51
90
52
90
71
2
49
-0.5
62
256
6
ByLayer
49
0.5
62
256
6
ByLayer
0
RASTERVARIABLES
5
1c5
330

100
AcDbRasterVariables
90
0
70
1
71
1
72
1
0
ENDSEC
0
EOF
