0
SECTION
2
HEADER
9
$ACADVER
1
AC1015
9
$DWGCODEPAGE
3
ANSI_1252
9
$HANDSEED
5
1e4
9
$ANGBASE
50
0
9
$ANGDIR
70
0
9
$ATTMODE
70
1
9
$AUNITS
70
0
9
$AUPREC
70
0
9
$CECOLOR
62
256
9
$CELTSCALE
40
1
9
$CELTYPE
6
ByLayer
9
$CELWEIGHT
370
18
9
$CLAYER
8
0
9
$CMLJUST
70
0
9
$CMLSCALE
40
1
9
$CMLSTYLE
2
Standard
9
$DIMSTYLE
2
Standard
9
$TEXTSIZE
40
0.2
9
$TEXTSTYLE
7
Standard
9
$LUNITS
70
2
9
$LUPREC
70
4
9
$EXTNAMES
290
1
9
$INSUNITS
70
4
9
$LTSCALE
40
1
9
$LWDISPLAY
290
1
9
$PDMODE
70
0
9
$PDSIZE
40
0
9
$PLINEGEN
70
0
0
ENDSEC
0
SECTION
2
CLASSES
0
CLASS
1
RASTERVARIABLES
2
AcDbRasterVariables
3
ISM
90
0
280
0
281
0
0
ENDSEC
0
SECTION
2
TABLES
0
TABLE
2
VPORT
5
1da
100
AcDbSymbolTable
0
VPORT
5
1
100
AcDbSymbolTableRecord
100
AcDbViewportTableRecord
2
*Active
70
0
10
0
20
0
11
1
21
1
12
-1
22
1
13
0
23
0
14
0.5
24
0.5
15
10
25
10
16
0
26
0
36
1
17
0
27
0
37
0
0
ENDTAB
0
TABLE
2
LTYPE
5
1db
100
AcDbSymbolTable
0
LTYPE
5
14
100
AcDbSymbolTableRecord
100
AcDbLinetypeTableRecord
70
0
2
ByBlock
3

72
65
73
0
40
0
0
LTYPE
5
15
100
AcDbSymbolTableRecord
100
AcDbLinetypeTableRecord
70
0
2
ByLayer
3

72
65
73
0
40
0
0
LTYPE
5
16
100
AcDbSymbolTableRecord
100
AcDbLinetypeTableRecord
70
0
2
Continuous
3
Solid line
72
65
73
0
40
0
0
LTYPE
5
6E
100
AcDbSymbolTableRecord
100
AcDbLinetypeTableRecord
70
0
2
CENTER
3
____ _ ____ _ ____ _ ____
72
65
73
4
40
47.5
49
22
74
0
49
-8.5
74
0
49
8.5
74
0
49
-8.5
74
0
0
LTYPE
5
6F
100
AcDbSymbolTableRecord
100
AcDbLinetypeTableRecord
70
0
2
DASHED
3
__ __ __ __ __ __ __ __ __
72
65
73
2
40
25.72
49
12.86
74
0
49
-12.86
74
0
0
ENDTAB
0
TABLE
2
LAYER
5
1dc
100
AcDbSymbolTable
0
LAYER
5
10
100
AcDbSymbolTableRecord
100
AcDbLayerTableRecord
2
0
70
0
62
7
6
Continuous
290
1
370
-3
390
0
0
LAYER
5
71
100
AcDbSymbolTableRecord
100
AcDbLayerTableRecord
2
80
70
0
62
-6
6
Continuous
290
1
370
-3
390
0
0
LAYER
5
73
100
AcDbSymbolTableRecord
100
AcDbLayerTableRecord
2
81
70
0
62
-3
6
Continuous
290
1
370
-3
390
0
0
LAYER
5
75
100
AcDbSymbolTableRecord
100
AcDbLayerTableRecord
2
1
70
0
62
4
6
Continuous
290
1
370
-3
390
0
0
LAYER
5
94
100
AcDbSymbolTableRecord
100
AcDbLayerTableRecord
2
4
70
0
62
-2
6
CENTER
290
1
370
-3
390
0
0
LAYER
5
A4
100
AcDbSymbolTableRecord
100
AcDbLayerTableRecord
2
2
70
0
62
7
6
Continuous
290
1
370
-3
390
0
0
LAYER
5
EE
100
AcDbSymbolTableRecord
100
AcDbLayerTableRecord
2
Defpoints
70
0
62
7
6
Continuous
290
0
370
-3
390
0
0
LAYER
5
1c6
100
AcDbSymbolTableRecord
100
AcDbLayerTableRecord
2
SK1
70
0
62
4
6
Continuous
290
1
370
-3
390
0
0
LAYER
5
1c7
100
AcDbSymbolTableRecord
100
AcDbLayerTableRecord
2
SK4
70
0
62
2
6
CENTER
290
1
370
-3
390
0
0
LAYER
5
1c8
100
AcDbSymbolTableRecord
100
AcDbLayerTableRecord
2
SK2
70
0
62
7
6
Continuous
290
1
370
-3
390
0
0
LAYER
5
1c9
100
AcDbSymbolTableRecord
100
AcDbLayerTableRecord
2
SK6
70
0
62
5
6
Continuous
290
1
370
-3
390
0
0
ENDTAB
0
TABLE
2
STYLE
5
1dd
100
AcDbSymbolTable
0
STYLE
5
11
100
AcDbSymbolTableRecord
100
AcDbTextStyleTableRecord
2
Standard
3
txt
70
0
71
0
40
0
41
1
42
0
50
0
0
STYLE
5
CA
100
AcDbSymbolTableRecord
100
AcDbTextStyleTableRecord
2
iso_b_vert
3
simplex.shx
70
0
71
0
40
0
41
1
42
0
50
0
0
STYLE
5
CB
100
AcDbSymbolTableRecord
100
AcDbTextStyleTableRecord
2
DWGDirectTextStyle
3
simplex
70
0
71
0
40
0
41
1
42
0
50
0
0
ENDTAB
0
TABLE
2
DIMSTYLE
5
1de
100
AcDbSymbolTable
100
AcDbDimStyleTable
0
DIMSTYLE
105
27
100
AcDbSymbolTableRecord
100
AcDbDimStyleTableRecord
2
Standard
70
0
3
<>
41
0.18
42
0.0625
44
0.18
140
0.18
147
0.09
73
0
74
0
77
1
271
2
275
0
278
52
280
0
340
11
0
ENDTAB
0
TABLE
2
VIEW
5
1df
100
AcDbSymbolTable
0
ENDTAB
0
TABLE
2
UCS
5
1e0
100
AcDbSymbolTable
0
ENDTAB
0
TABLE
2
APPID
5
1e1
100
AcDbSymbolTable
0
APPID
5
12
100
AcDbSymbolTableRecord
100
AcDbRegAppTableRecord
2
ACAD
70
0
0
APPID
5
EA
100
AcDbSymbolTableRecord
100
AcDbRegAppTableRecord
2
ACAD_DSTYLE_DIMBREAK
70
0
0
APPID
5
185
100
AcDbSymbolTableRecord
100
AcDbRegAppTableRecord
2
ACAD_DSTYLE_DIM_LINETYPE
70
0
0
APPID
5
186
100
AcDbSymbolTableRecord
100
AcDbRegAppTableRecord
2
ACAD_DSTYLE_DIM_EXT1_LINETYPE
70
0
0
APPID
5
187
100
AcDbSymbolTableRecord
100
AcDbRegAppTableRecord
2
ACAD_DSTYLE_DIM_EXT2_LINETYPE
70
0
0
APPID
5
1C2
100
AcDbSymbolTableRecord
100
AcDbRegAppTableRecord
2
ACAD_MLEADERVER
70
0
0
ENDTAB
0
TABLE
2
BLOCK_RECORD
5
1e2
100
AcDbSymbolTable
0
BLOCK_RECORD
5
1F
100
AcDbSymbolTableRecord
100
AcDbBlockTableRecord
2
*Model_Space
340
0
70
0
0
BLOCK_RECORD
5
1B
100
AcDbSymbolTableRecord
100
AcDbBlockTableRecord
2
*Paper_Space
340
0
70
0
0
BLOCK_RECORD
5
23
100
AcDbSymbolTableRecord
100
AcDbBlockTableRecord
2
*Paper_Space0
340
0
70
0
0
BLOCK_RECORD
5
EF
100
AcDbSymbolTableRecord
100
AcDbBlockTableRecord
2
*D1
340
0
70
0
0
BLOCK_RECORD
5
FB
100
AcDbSymbolTableRecord
100
AcDbBlockTableRecord
2
_U0
340
0
70
0
0
BLOCK_RECORD
5
107
100
AcDbSymbolTableRecord
100
AcDbBlockTableRecord
2
*D3
340
0
70
0
0
BLOCK_RECORD
5
115
100
AcDbSymbolTableRecord
100
AcDbBlockTableRecord
2
_U1
340
0
70
0
0
BLOCK_RECORD
5
121
100
AcDbSymbolTableRecord
100
AcDbBlockTableRecord
2
*D5
340
0
70
0
0
BLOCK_RECORD
5
12E
100
AcDbSymbolTableRecord
100
AcDbBlockTableRecord
2
_U2
340
0
70
0
0
BLOCK_RECORD
5
13A
100
AcDbSymbolTableRecord
100
AcDbBlockTableRecord
2
*D7
340
0
70
0
0
BLOCK_RECORD
5
146
100
AcDbSymbolTableRecord
100
AcDbBlockTableRecord
2
_U3
340
0
70
0
0
BLOCK_RECORD
5
152
100
AcDbSymbolTableRecord
100
AcDbBlockTableRecord
2
*D9
340
0
70
0
0
BLOCK_RECORD
5
15E
100
AcDbSymbolTableRecord
100
AcDbBlockTableRecord
2
_U4
340
0
70
0
0
ENDTAB
0
ENDSEC
0
SECTION
2
BLOCKS
0
BLOCK
5
20
100
AcDbEntity
8
0
100
AcDbBlockBegin
2
*Model_Space
70
0
10
0
20
0
30
0
3
*Model_Space
0
ENDBLK
5
21
100
AcDbEntity
8
0
100
AcDbBlockEnd
0
BLOCK
5
1C
100
AcDbEntity
8
0
100
AcDbBlockBegin
2
*Paper_Space
70
0
10
0
20
0
30
0
3
*Paper_Space
0
ENDBLK
5
1D
100
AcDbEntity
8
0
100
AcDbBlockEnd
0
BLOCK
5
24
100
AcDbEntity
8
0
100
AcDbBlockBegin
2
*Paper_Space0
70
0
10
0
20
0
30
0
3
*Paper_Space0
0
ENDBLK
5
25
100
AcDbEntity
8
0
100
AcDbBlockEnd
0
BLOCK
5
F0
100
AcDbEntity
8
0
100
AcDbBlockBegin
2
*D1
70
1
10
0
20
0
30
0
3
*D1
0
LINE
5
F2
100
AcDbEntity
8
0
62
256
6
ByLayer
370
-2
48
1
60
0
100
AcDbLine
10
-20.6729
20
-0.0875
30
0
11
-20.6729
21
-40.8525
31
0
39
0
210
0
220
0
230
1
0
LINE
5
F3
100
AcDbEntity
8
0
62
256
6
ByLayer
370
-2
48
1
60
0
100
AcDbLine
10
17.3271
20
-0.1425
30
0
11
17.3271
21
-40.8525
31
0
39
0
210
0
220
0
230
1
0
LINE
5
F4
100
AcDbEntity
8
0
62
256
6
ByLayer
370
-2
48
1
60
0
100
AcDbLine
10
-17.1729
20
-38.8525
30
0
11
13.8271
21
-38.8525
31
0
39
0
210
0
220
0
230
1
0
SOLID
5
F5
100
AcDbEntity
8
0
62
256
6
ByLayer
370
-1
48
1
60
0
100
AcDbTrace
10
-17.1729
20
-38.269167
30
0
11
-17.1729
21
-39.435833
31
0
12
-20.6729
22
-38.8525
32
0
13
-20.6729
23
-38.8525
33
0
39
0
210
0
220
0
230
1
0
SOLID
5
F6
100
AcDbEntity
8
0
62
256
6
ByLayer
370
-1
48
1
60
0
100
AcDbTrace
10
13.8271
20
-39.435833
30
0
11
13.8271
21
-38.269167
31
0
12
17.3271
22
-38.8525
32
0
13
17.3271
23
-38.8525
33
0
39
0
210
0
220
0
230
1
0
MTEXT
5
F7
100
AcDbEntity
8
0
62
256
6
ByLayer
370
18
48
1
60
0
100
AcDbMText
10
-1.6729
20
-32.8525
30
0
210
0
220
0
230
1
1
\A1;38
40
3
41
0
44
1
50
0
71
5
72
5
7
iso_b_vert
0
POINT
5
F8
100
AcDbEntity
8
Defpoints
62
0
6
ByLayer
370
-1
48
1
60
0
100
AcDbPoint
10
-20.6729
20
1.5
30
0
39
0
210
0
220
0
230
1
50
360
0
POINT
5
F9
100
AcDbEntity
8
Defpoints
62
0
6
ByLayer
370
-1
48
1
60
0
100
AcDbPoint
10
17.3271
20
1.445
30
0
39
0
210
0
220
0
230
1
50
360
0
POINT
5
FA
100
AcDbEntity
8
Defpoints
62
0
6
ByLayer
370
-1
48
1
60
0
100
AcDbPoint
10
17.3271
20
-38.8525
30
0
39
0
210
0
220
0
230
1
50
360
0
ENDBLK
5
F1
100
AcDbEntity
8
0
100
AcDbBlockEnd
0
BLOCK
5
102
100
AcDbEntity
8
0
100
AcDbBlockBegin
2
_U0
70
0
10
0
20
0
30
0
3
_U0
0
MTEXT
5
FC
100
AcDbEntity
8
SK2
62
256
6
ByLayer
370
18
48
1
60
0
100
AcDbMText
10
-6.15527
20
-37.967386
30
0
210
0
220
0
230
1
1
\W0.7468;38.00
40
3
41
0
44
1.084337
50
0
71
7
72
5
7
iso_b_vert
0
LINE
5
FD
100
AcDbEntity
8
SK2
62
256
6
ByLayer
370
13
48
1
60
0
100
AcDbLine
10
-20.6729
20
-0.0875
30
0
11
-20.6729
21
-40.8525
31
0
39
0
210
0
220
0
230
1
0
LINE
5
FE
100
AcDbEntity
8
SK2
62
256
6
ByLayer
370
13
48
1
60
0
100
AcDbLine
10
17.3271
20
-0.1425
30
0
11
17.3271
21
-40.8525
31
0
39
0
210
0
220
0
230
1
0
LINE
5
FF
100
AcDbEntity
8
SK2
62
256
6
ByLayer
370
13
48
1
60
0
100
AcDbLine
10
-20.6729
20
-38.8525
30
0
11
17.3271
21
-38.8525
31
0
39
0
210
0
220
0
230
1
0
SOLID
5
100
100
AcDbEntity
8
SK2
62
256
6
ByLayer
370
18
48
1
60
0
100
AcDbTrace
10
-20.6729
20
-38.8525
30
0
11
-17.172902
21
-38.391716
31
0
12
-17.172898
22
-39.313284
32
0
13
-17.172898
23
-39.313284
33
0
39
0
210
0
220
0
230
1
0
SOLID
5
101
100
AcDbEntity
8
SK2
62
256
6
ByLayer
370
18
48
1
60
0
100
AcDbTrace
10
17.3271
20
-38.8525
30
0
11
13.827102
21
-39.313284
31
0
12
13.827098
22
-38.391716
32
0
13
13.827098
23
-38.391716
33
0
39
0
210
0
220
0
230
1
0
ENDBLK
5
103
100
AcDbEntity
8
0
100
AcDbBlockEnd
0
BLOCK
5
108
100
AcDbEntity
8
0
100
AcDbBlockBegin
2
*D3
70
1
10
0
20
0
30
0
3
*D3
0
LINE
5
10A
100
AcDbEntity
8
0
62
256
6
ByLayer
370
-2
48
1
60
0
100
AcDbLine
10
17.3271
20
-0.1425
30
0
11
17.3271
21
-24.945
31
0
39
0
210
0
220
0
230
1
0
LINE
5
10B
100
AcDbEntity
8
0
62
256
6
ByLayer
370
-2
48
1
60
0
100
AcDbLine
10
7.6621
20
-1.5875
30
0
11
7.6621
21
-24.945
31
0
39
0
210
0
220
0
230
1
0
LINE
5
10C
100
AcDbEntity
8
0
62
256
6
ByLayer
370
-2
48
1
60
0
100
AcDbLine
10
17.3271
20
-22.945
30
0
11
42.469957
21
-22.945
31
0
39
0
210
0
220
0
230
1
0
LINE
5
10D
100
AcDbEntity
8
0
62
256
6
ByLayer
370
-2
48
1
60
0
100
AcDbLine
10
20.8271
20
-22.945
30
0
11
24.3271
21
-22.945
31
0
39
0
210
0
220
0
230
1
0
LINE
5
10E
100
AcDbEntity
8
0
62
256
6
ByLayer
370
-2
48
1
60
0
100
AcDbLine
10
4.1621
20
-22.945
30
0
11
0.6621
21
-22.945
31
0
39
0
210
0
220
0
230
1
0
SOLID
5
10F
100
AcDbEntity
8
0
62
256
6
ByLayer
370
-1
48
1
60
0
100
AcDbTrace
10
20.8271
20
-22.361667
30
0
11
20.8271
21
-23.528333
31
0
12
17.3271
22
-22.945
32
0
13
17.3271
23
-22.945
33
0
39
0
210
0
220
0
230
1
0
SOLID
5
110
100
AcDbEntity
8
0
62
256
6
ByLayer
370
-1
48
1
60
0
100
AcDbTrace
10
4.1621
20
-23.528333
30
0
11
4.1621
21
-22.361667
31
0
12
7.6621
22
-22.945
32
0
13
7.6621
23
-22.945
33
0
39
0
210
0
220
0
230
1
0
MTEXT
5
111
100
AcDbEntity
8
0
62
256
6
ByLayer
370
18
48
1
60
0
100
AcDbMText
10
33.398529
20
-16.945
30
0
210
0
220
0
230
1
1
\A1;9.67
40
3
41
0
44
1
50
0
71
5
72
5
7
iso_b_vert
0
POINT
5
112
100
AcDbEntity
8
Defpoints
62
0
6
ByLayer
370
-1
48
1
60
0
100
AcDbPoint
10
17.3271
20
1.445
30
0
39
0
210
0
220
0
230
1
50
360
0
POINT
5
113
100
AcDbEntity
8
Defpoints
62
0
6
ByLayer
370
-1
48
1
60
0
100
AcDbPoint
10
7.6621
20
0
30
0
39
0
210
0
220
0
230
1
50
360
0
POINT
5
114
100
AcDbEntity
8
Defpoints
62
0
6
ByLayer
370
-1
48
1
60
0
100
AcDbPoint
10
7.6621
20
-22.945
30
0
39
0
210
0
220
0
230
1
50
360
0
ENDBLK
5
109
100
AcDbEntity
8
0
100
AcDbBlockEnd
0
BLOCK
5
11C
100
AcDbEntity
8
0
100
AcDbBlockBegin
2
_U1
70
0
10
0
20
0
30
0
3
_U1
0
MTEXT
5
116
100
AcDbEntity
8
SK2
62
256
6
ByLayer
370
18
48
1
60
0
100
AcDbMText
10
21.4861
20
-22.059886
30
0
210
0
220
0
230
1
1
\W0.7051;(9.66)
40
3
41
0
44
1.084337
50
0
71
7
72
5
7
iso_b_vert
0
LINE
5
117
100
AcDbEntity
8
SK2
62
256
6
ByLayer
370
13
48
1
60
0
100
AcDbLine
10
17.3271
20
-0.1425
30
0
11
17.3271
21
-24.945
31
0
39
0
210
0
220
0
230
1
0
LINE
5
118
100
AcDbEntity
8
SK2
62
256
6
ByLayer
370
13
48
1
60
0
100
AcDbLine
10
7.6621
20
-1.5875
30
0
11
7.6621
21
-24.945
31
0
39
0
210
0
220
0
230
1
0
LINE
5
119
100
AcDbEntity
8
SK2
62
256
6
ByLayer
370
13
48
1
60
0
100
AcDbLine
10
7.6621
20
-22.945
30
0
11
30.798869
21
-22.945
31
0
39
0
210
0
220
0
230
1
0
SOLID
5
11A
100
AcDbEntity
8
SK2
62
256
6
ByLayer
370
18
48
1
60
0
100
AcDbTrace
10
17.3271
20
-22.945
30
0
11
13.827102
21
-23.405784
31
0
12
13.827098
22
-22.484216
32
0
13
13.827098
23
-22.484216
33
0
39
0
210
0
220
0
230
1
0
SOLID
5
11B
100
AcDbEntity
8
SK2
62
256
6
ByLayer
370
18
48
1
60
0
100
AcDbTrace
10
7.6621
20
-22.945
30
0
11
11.162098
21
-22.484216
31
0
12
11.162102
22
-23.405784
32
0
13
11.162102
23
-23.405784
33
0
39
0
210
0
220
0
230
1
0
ENDBLK
5
11D
100
AcDbEntity
8
0
100
AcDbBlockEnd
0
BLOCK
5
122
100
AcDbEntity
8
0
100
AcDbBlockBegin
2
*D5
70
1
10
0
20
0
30
0
3
*D5
0
LINE
5
124
100
AcDbEntity
8
0
62
256
6
ByLayer
370
-2
48
1
60
0
100
AcDbLine
10
17.3271
20
-0.1425
30
0
11
17.3271
21
-32.3525
31
0
39
0
210
0
220
0
230
1
0
LINE
5
125
100
AcDbEntity
8
0
62
256
6
ByLayer
370
-2
48
1
60
0
100
AcDbLine
10
3.3271
20
-1.5875
30
0
11
3.3271
21
-32.3525
31
0
39
0
210
0
220
0
230
1
0
LINE
5
126
100
AcDbEntity
8
0
62
256
6
ByLayer
370
-2
48
1
60
0
100
AcDbLine
10
20.8271
20
-30.3525
30
0
11
24.3271
21
-30.3525
31
0
39
0
210
0
220
0
230
1
0
LINE
5
127
100
AcDbEntity
8
0
62
256
6
ByLayer
370
-2
48
1
60
0
100
AcDbLine
10
-0.1729
20
-30.3525
30
0
11
-3.6729
21
-30.3525
31
0
39
0
210
0
220
0
230
1
0
SOLID
5
128
100
AcDbEntity
8
0
62
256
6
ByLayer
370
-1
48
1
60
0
100
AcDbTrace
10
20.8271
20
-29.769167
30
0
11
20.8271
21
-30.935833
31
0
12
17.3271
22
-30.3525
32
0
13
17.3271
23
-30.3525
33
0
39
0
210
0
220
0
230
1
0
SOLID
5
129
100
AcDbEntity
8
0
62
256
6
ByLayer
370
-1
48
1
60
0
100
AcDbTrace
10
-0.1729
20
-30.935833
30
0
11
-0.1729
21
-29.769167
31
0
12
3.3271
22
-30.3525
32
0
13
3.3271
23
-30.3525
33
0
39
0
210
0
220
0
230
1
0
MTEXT
5
12A
100
AcDbEntity
8
0
62
256
6
ByLayer
370
18
48
1
60
0
100
AcDbMText
10
10.3271
20
-24.3525
30
0
210
0
220
0
230
1
1
\A1;14
40
3
41
0
44
1
50
0
71
5
72
5
7
iso_b_vert
0
POINT
5
12B
100
AcDbEntity
8
Defpoints
62
0
6
ByLayer
370
-1
48
1
60
0
100
AcDbPoint
10
17.3271
20
1.445
30
0
39
0
210
0
220
0
230
1
50
360
0
POINT
5
12C
100
AcDbEntity
8
Defpoints
62
0
6
ByLayer
370
-1
48
1
60
0
100
AcDbPoint
10
3.3271
20
0
30
0
39
0
210
0
220
0
230
1
50
360
0
POINT
5
12D
100
AcDbEntity
8
Defpoints
62
0
6
ByLayer
370
-1
48
1
60
0
100
AcDbPoint
10
3.3271
20
-30.3525
30
0
39
0
210
0
220
0
230
1
50
360
0
ENDBLK
5
123
100
AcDbEntity
8
0
100
AcDbBlockEnd
0
BLOCK
5
135
100
AcDbEntity
8
0
100
AcDbBlockBegin
2
_U2
70
0
10
0
20
0
30
0
3
_U2
0
MTEXT
5
12F
100
AcDbEntity
8
SK2
62
256
6
ByLayer
370
18
48
1
60
0
100
AcDbMText
10
6.061729
20
-29.467386
30
0
210
0
220
0
230
1
1
\W0.7091;14.00
40
3
41
0
44
1.084337
50
0
71
7
72
5
7
iso_b_vert
0
LINE
5
130
100
AcDbEntity
8
SK2
62
256
6
ByLayer
370
13
48
1
60
0
100
AcDbLine
10
17.3271
20
-0.1425
30
0
11
17.3271
21
-32.3525
31
0
39
0
210
0
220
0
230
1
0
LINE
5
131
100
AcDbEntity
8
SK2
62
256
6
ByLayer
370
13
48
1
60
0
100
AcDbLine
10
3.3271
20
-1.5875
30
0
11
3.3271
21
-32.3525
31
0
39
0
210
0
220
0
230
1
0
LINE
5
132
100
AcDbEntity
8
SK2
62
256
6
ByLayer
370
13
48
1
60
0
100
AcDbLine
10
17.3271
20
-30.3525
30
0
11
3.3271
21
-30.3525
31
0
39
0
210
0
220
0
230
1
0
SOLID
5
133
100
AcDbEntity
8
SK2
62
256
6
ByLayer
370
18
48
1
60
0
100
AcDbTrace
10
17.3271
20
-30.3525
30
0
11
13.827102
21
-30.813284
31
0
12
13.827098
22
-29.891716
32
0
13
13.827098
23
-29.891716
33
0
39
0
210
0
220
0
230
1
0
SOLID
5
134
100
AcDbEntity
8
SK2
62
256
6
ByLayer
370
18
48
1
60
0
100
AcDbTrace
10
3.3271
20
-30.3525
30
0
11
6.827098
21
-29.891716
31
0
12
6.827102
22
-30.813284
32
0
13
6.827102
23
-30.813284
33
0
39
0
210
0
220
0
230
1
0
ENDBLK
5
136
100
AcDbEntity
8
0
100
AcDbBlockEnd
0
BLOCK
5
13B
100
AcDbEntity
8
0
100
AcDbBlockBegin
2
*D7
70
1
10
0
20
0
30
0
3
*D7
0
LINE
5
13D
100
AcDbEntity
8
0
62
256
6
ByLayer
370
-2
48
1
60
0
100
AcDbLine
10
-20.6729
20
1.5875
30
0
11
-20.6729
21
13.3525
31
0
39
0
210
0
220
0
230
1
0
LINE
5
13E
100
AcDbEntity
8
0
62
256
6
ByLayer
370
-2
48
1
60
0
100
AcDbLine
10
0
20
1.5875
30
0
11
0
21
13.3525
31
0
39
0
210
0
220
0
230
1
0
LINE
5
13F
100
AcDbEntity
8
0
62
256
6
ByLayer
370
-2
48
1
60
0
100
AcDbLine
10
-17.1729
20
11.3525
30
0
11
-3.5
21
11.3525
31
0
39
0
210
0
220
0
230
1
0
SOLID
5
140
100
AcDbEntity
8
0
62
256
6
ByLayer
370
-1
48
1
60
0
100
AcDbTrace
10
-17.1729
20
11.935833
30
0
11
-17.1729
21
10.769167
31
0
12
-20.6729
22
11.3525
32
0
13
-20.6729
23
11.3525
33
0
39
0
210
0
220
0
230
1
0
SOLID
5
141
100
AcDbEntity
8
0
62
256
6
ByLayer
370
-1
48
1
60
0
100
AcDbTrace
10
-3.5
20
10.769167
30
0
11
-3.5
21
11.935833
31
0
12
0
22
11.3525
32
0
13
0
23
11.3525
33
0
39
0
210
0
220
0
230
1
0
MTEXT
5
142
100
AcDbEntity
8
0
62
256
6
ByLayer
370
18
48
1
60
0
100
AcDbMText
10
-10.33645
20
17.3525
30
0
210
0
220
0
230
1
1
\A1;20.67
40
3
41
0
44
1
50
0
71
5
72
5
7
iso_b_vert
0
POINT
5
143
100
AcDbEntity
8
Defpoints
62
0
6
ByLayer
370
-1
48
1
60
0
100
AcDbPoint
10
-20.6729
20
0
30
0
39
0
210
0
220
0
230
1
50
360
0
POINT
5
144
100
AcDbEntity
8
Defpoints
62
0
6
ByLayer
370
-1
48
1
60
0
100
AcDbPoint
10
0
20
0
30
0
39
0
210
0
220
0
230
1
50
360
0
POINT
5
145
100
AcDbEntity
8
Defpoints
62
0
6
ByLayer
370
-1
48
1
60
0
100
AcDbPoint
10
0
20
11.3525
30
0
39
0
210
0
220
0
230
1
50
360
0
ENDBLK
5
13C
100
AcDbEntity
8
0
100
AcDbBlockEnd
0
BLOCK
5
14D
100
AcDbEntity
8
0
100
AcDbBlockBegin
2
_U3
70
0
10
0
20
0
30
0
3
_U3
0
MTEXT
5
147
100
AcDbEntity
8
SK2
62
256
6
ByLayer
370
18
48
1
60
0
100
AcDbMText
10
-14.81882
20
12.237614
30
0
210
0
220
0
230
1
1
\W0.7468;20.67
40
3
41
0
44
1.084337
50
0
71
7
72
5
7
iso_b_vert
0
LINE
5
148
100
AcDbEntity
8
SK2
62
256
6
ByLayer
370
13
48
1
60
0
100
AcDbLine
10
-20.6729
20
1.5875
30
0
11
-20.6729
21
13.3525
31
0
39
0
210
0
220
0
230
1
0
LINE
5
149
100
AcDbEntity
8
SK2
62
256
6
ByLayer
370
13
48
1
60
0
100
AcDbLine
10
0
20
1.5875
30
0
11
0
21
13.3525
31
0
39
0
210
0
220
0
230
1
0
LINE
5
14A
100
AcDbEntity
8
SK2
62
256
6
ByLayer
370
13
48
1
60
0
100
AcDbLine
10
-20.6729
20
11.3525
30
0
11
0
21
11.3525
31
0
39
0
210
0
220
0
230
1
0
SOLID
5
14B
100
AcDbEntity
8
SK2
62
256
6
ByLayer
370
18
48
1
60
0
100
AcDbTrace
10
-20.6729
20
11.3525
30
0
11
-17.172902
21
11.813284
31
0
12
-17.172898
22
10.891716
32
0
13
-17.172898
23
10.891716
33
0
39
0
210
0
220
0
230
1
0
SOLID
5
14C
100
AcDbEntity
8
SK2
62
256
6
ByLayer
370
18
48
1
60
0
100
AcDbTrace
10
0
20
11.3525
30
0
11
-3.499998
21
10.891716
31
0
12
-3.500002
22
11.813284
32
0
13
-3.500002
23
11.813284
33
0
39
0
210
0
220
0
230
1
0
ENDBLK
5
14E
100
AcDbEntity
8
0
100
AcDbBlockEnd
0
BLOCK
5
153
100
AcDbEntity
8
0
100
AcDbBlockBegin
2
*D9
70
1
10
0
20
0
30
0
3
*D9
0
LINE
5
155
100
AcDbEntity
8
0
62
256
6
ByLayer
370
-2
48
1
60
0
100
AcDbLine
10
17.3271
20
3.0325
30
0
11
17.3271
21
13.3525
31
0
39
0
210
0
220
0
230
1
0
LINE
5
156
100
AcDbEntity
8
0
62
256
6
ByLayer
370
-2
48
1
60
0
100
AcDbLine
10
0
20
1.5875
30
0
11
0
21
13.3525
31
0
39
0
210
0
220
0
230
1
0
LINE
5
157
100
AcDbEntity
8
0
62
256
6
ByLayer
370
-2
48
1
60
0
100
AcDbLine
10
13.8271
20
11.3525
30
0
11
3.5
21
11.3525
31
0
39
0
210
0
220
0
230
1
0
SOLID
5
158
100
AcDbEntity
8
0
62
256
6
ByLayer
370
-1
48
1
60
0
100
AcDbTrace
10
13.8271
20
10.769167
30
0
11
13.8271
21
11.935833
31
0
12
17.3271
22
11.3525
32
0
13
17.3271
23
11.3525
33
0
39
0
210
0
220
0
230
1
0
SOLID
5
159
100
AcDbEntity
8
0
62
256
6
ByLayer
370
-1
48
1
60
0
100
AcDbTrace
10
3.5
20
11.935833
30
0
11
3.5
21
10.769167
31
0
12
0
22
11.3525
32
0
13
0
23
11.3525
33
0
39
0
210
0
220
0
230
1
0
MTEXT
5
15A
100
AcDbEntity
8
0
62
256
6
ByLayer
370
18
48
1
60
0
100
AcDbMText
10
8.66355
20
17.3525
30
0
210
0
220
0
230
1
1
\A1;17.33
40
3
41
0
44
1
50
0
71
5
72
5
7
iso_b_vert
0
POINT
5
15B
100
AcDbEntity
8
Defpoints
62
0
6
ByLayer
370
-1
48
1
60
0
100
AcDbPoint
10
17.3271
20
1.445
30
0
39
0
210
0
220
0
230
1
50
360
0
POINT
5
15C
100
AcDbEntity
8
Defpoints
62
0
6
ByLayer
370
-1
48
1
60
0
100
AcDbPoint
10
0
20
0
30
0
39
0
210
0
220
0
230
1
50
360
0
POINT
5
15D
100
AcDbEntity
8
Defpoints
62
0
6
ByLayer
370
-1
48
1
60
0
100
AcDbPoint
10
0
20
11.3525
30
0
39
0
210
0
220
0
230
1
50
360
0
ENDBLK
5
154
100
AcDbEntity
8
0
100
AcDbBlockEnd
0
BLOCK
5
165
100
AcDbEntity
8
0
100
AcDbBlockBegin
2
_U4
70
0
10
0
20
0
30
0
3
_U4
0
MTEXT
5
15F
100
AcDbEntity
8
2
62
256
6
ByLayer
370
18
48
1
60
0
100
AcDbMText
10
4.556122
20
12.237614
30
0
210
0
220
0
230
1
1
\W0.6864;17.33
40
3
41
0
44
1.084337
50
0
71
7
72
5
7
iso_b_vert
0
LINE
5
160
100
AcDbEntity
8
2
62
256
6
ByLayer
370
13
48
1
60
0
100
AcDbLine
10
17.3271
20
3.0325
30
0
11
17.3271
21
13.3525
31
0
39
0
210
0
220
0
230
1
0
LINE
5
161
100
AcDbEntity
8
2
62
256
6
ByLayer
370
13
48
1
60
0
100
AcDbLine
10
0
20
1.5875
30
0
11
0
21
13.3525
31
0
39
0
210
0
220
0
230
1
0
LINE
5
162
100
AcDbEntity
8
2
62
256
6
ByLayer
370
13
48
1
60
0
100
AcDbLine
10
17.3271
20
11.3525
30
0
11
0
21
11.3525
31
0
39
0
210
0
220
0
230
1
0
SOLID
5
163
100
AcDbEntity
8
2
62
256
6
ByLayer
370
18
48
1
60
0
100
AcDbTrace
10
17.3271
20
11.3525
30
0
11
13.827102
21
10.891716
31
0
12
13.827098
22
11.813284
32
0
13
13.827098
23
11.813284
33
0
39
0
210
0
220
0
230
1
0
SOLID
5
164
100
AcDbEntity
8
2
62
256
6
ByLayer
370
18
48
1
60
0
100
AcDbTrace
10
0
20
11.3525
30
0
11
3.499998
21
11.813284
31
0
12
3.500002
22
10.891716
32
0
13
3.500002
23
10.891716
33
0
39
0
210
0
220
0
230
1
0
ENDBLK
5
166
100
AcDbEntity
8
0
100
AcDbBlockEnd
0
ENDSEC
0
SECTION
2
ENTITIES
0
ARC
5
B5
100
AcDbEntity
8
1
62
256
6
ByLayer
370
18
48
1
60
0
100
AcDbCircle
39
0
10
0.291002
20
-2.445
30
0
40
1
210
0
220
0
230
1
100
AcDbArc
50
90
51
106.917974
0
ARC
5
B6
100
AcDbEntity
8
1
62
256
6
ByLayer
370
18
48
1
60
0
100
AcDbCircle
39
0
10
0.291002
20
2.445
30
0
40
1
210
0
220
0
230
1
100
AcDbArc
50
253.082026
51
270
0
ARC
5
B7
100
AcDbEntity
8
SK1
62
256
6
ByLayer
370
18
48
1
60
0
100
AcDbCircle
39
0
10
0.291002
20
-2.445
30
0
40
1
210
0
220
0
230
1
100
AcDbArc
50
106.917974
51
109.091053
0
ARC
5
B8
100
AcDbEntity
8
SK1
62
256
6
ByLayer
370
18
48
1
60
0
100
AcDbCircle
39
0
10
0.291002
20
2.445
30
0
40
1
210
0
220
0
230
1
100
AcDbArc
50
250.908947
51
253.082026
0
ARC
5
B9
100
AcDbEntity
8
SK2
62
256
6
ByLayer
370
13
48
1
60
0
100
AcDbCircle
39
0
10
17.3271
20
0
30
0
40
16.35
210
0
220
0
230
1
100
AcDbArc
50
10.57289
51
65
0
ARC
5
BA
100
AcDbEntity
8
SK2
62
256
6
ByLayer
370
13
48
1
60
0
100
AcDbCircle
39
0
10
17.3271
20
0
30
0
40
16.35
210
0
220
0
230
1
100
AcDbArc
50
295
51
349.42711
0
ELLIPSE
5
BB
100
AcDbEntity
8
1
62
256
6
ByLayer
370
18
48
1
60
0
100
AcDbEllipse
10
4.937986
20
-1.170995
30
0
11
-2.13808172827758
21
1.35022809435704
31
0
210
0
220
0
230
1
40
0.350905
41
-1.35271891685428
42
-0.554031496756537
0
POINT
5
70
100
AcDbEntity
8
80
62
256
6
ByLayer
370
18
48
1
60
0
100
AcDbPoint
10
0
20
0
30
0
39
0
210
0
220
0
230
1
50
360
0
POINT
5
72
100
AcDbEntity
8
81
62
256
6
ByLayer
370
18
48
1
60
0
100
AcDbPoint
10
17.3271
20
0
30
0
39
0
210
0
220
0
230
1
50
360
0
POINT
5
74
100
AcDbEntity
8
1
62
256
6
ByLayer
370
18
48
1
60
1
100
AcDbPoint
10
-20.6729
20
1.5
30
0
39
0
210
0
220
0
230
1
50
360
0
POINT
5
76
100
AcDbEntity
8
1
62
256
6
ByLayer
370
18
48
1
60
1
100
AcDbPoint
10
17.3271
20
1.445
30
0
39
0
210
0
220
0
230
1
50
360
0
POINT
5
77
100
AcDbEntity
8
1
62
256
6
ByLayer
370
18
48
1
60
1
100
AcDbPoint
10
17.3271
20
1.445
30
0
39
0
210
0
220
0
230
1
50
360
0
POINT
5
78
100
AcDbEntity
8
1
62
256
6
ByLayer
370
18
48
1
60
1
100
AcDbPoint
10
7.6621
20
0
30
0
39
0
210
0
220
0
230
1
50
360
0
POINT
5
79
100
AcDbEntity
8
1
62
256
6
ByLayer
370
18
48
1
60
1
100
AcDbPoint
10
17.3271
20
1.445
30
0
39
0
210
0
220
0
230
1
50
360
0
POINT
5
7A
100
AcDbEntity
8
1
62
256
6
ByLayer
370
18
48
1
60
1
100
AcDbPoint
10
3.3271
20
0
30
0
39
0
210
0
220
0
230
1
50
360
0
POINT
5
7B
100
AcDbEntity
8
1
62
256
6
ByLayer
370
18
48
1
60
1
100
AcDbPoint
10
-20.6729
20
0
30
0
39
0
210
0
220
0
230
1
50
360
0
POINT
5
7C
100
AcDbEntity
8
1
62
256
6
ByLayer
370
18
48
1
60
1
100
AcDbPoint
10
0
20
0
30
0
39
0
210
0
220
0
230
1
50
360
0
POINT
5
7D
100
AcDbEntity
8
1
62
256
6
ByLayer
370
18
48
1
60
1
100
AcDbPoint
10
17.3271
20
1.445
30
0
39
0
210
0
220
0
230
1
50
360
0
POINT
5
7E
100
AcDbEntity
8
1
62
256
6
ByLayer
370
18
48
1
60
1
100
AcDbPoint
10
0
20
0
30
0
39
0
210
0
220
0
230
1
50
360
0
SPLINE
5
BC
100
AcDbEntity
8
1
62
256
6
ByLayer
370
18
48
1
60
0
100
AcDbSpline
70
4
71
3
72
28
73
24
40
0
40
0
40
0
40
0
40
0.0624999999999935
40
0.0624999999999935
40
0.124999999999987
40
0.124999999999987
40
0.249999999999981
40
0.249999999999981
40
0.374999999999975
40
0.374999999999975
40
0.437499999999975
40
0.437499999999975
40
0.499999999999976
40
0.499999999999976
40
0.624999999999983
40
0.624999999999983
40
0.74999999999999
40
0.74999999999999
40
0.874999999999998
40
0.874999999999998
40
0.937499999999999
40
0.937499999999999
40
1
40
1
40
1
40
1
41
1
10
16.653285433966
20
0.737854379020945
30
0
41
1
10
16.6646125010921
20
0.721672689399327
30
0
41
1
10
16.6759301630272
20
0.706422863007646
30
0
41
1
10
16.6985624523582
20
0.677556682850678
30
0
41
1
10
16.7098770769405
20
0.663960176511438
30
0
41
1
10
16.7438258525678
20
0.625065473702705
30
0
41
1
10
16.7664654898278
20
0.601582972094064
30
0
41
1
10
16.8117470308851
20
0.556628360781275
30
0
41
1
10
16.8343896657882
20
0.535110513986382
30
0
41
1
10
16.8683280584931
20
0.504870556157329
30
0
41
1
10
16.8796290829384
20
0.495137642881843
30
0
41
1
10
16.9020878934053
20
0.476521747541028
30
0
41
1
10
16.9132594980426
20
0.467625600903631
30
0
41
1
10
16.9465784189908
20
0.442109285567341
30
0
41
1
10
16.9685385953264
20
0.426655070015471
30
0
41
1
10
17.0116770487587
20
0.398672925008526
30
0
41
1
10
17.0328673837107
20
0.386158454368058
30
0
41
1
10
17.0737534766026
20
0.364168356269971
30
0
41
1
10
17.0934883492615
20
0.354690984478822
30
0
41
1
10
17.1206173980679
20
0.342760406202331
30
0
41
1
10
17.1292363941743
20
0.339164780600782
30
0
41
1
10
17.1451363463018
20
0.332743206134097
30
0
41
1
10
17.1524205038939
20
0.329917243320836
30
0
41
1
10
17.158646365817
20
0.327482462017912
30
0
0
SPLINE
5
BD
100
AcDbEntity
8
1
62
256
6
ByLayer
370
18
48
1
60
0
100
AcDbSpline
70
4
71
3
72
26
73
22
40
0
40
0
40
0
40
0
40
0.12690354286552
40
0.12690354286552
40
0.19035531429828
40
0.19035531429828
40
0.253807085731039
40
0.253807085731039
40
0.380710628596559
40
0.380710628596559
40
0.444162400029319
40
0.444162400029319
40
0.507614171462079
40
0.507614171462079
40
0.761421257193126
40
0.761421257193126
40
0.824873028625888
40
0.824873028625888
40
0.88832480005865
40
0.88832480005865
40
1
40
1
40
1
40
1
41
1
10
4.937986
20
-1.26852959970773
30
0
41
1
10
5.06033871797155
20
-1.30229470024858
30
0
41
1
10
5.18241659441381
20
-1.33146255137407
30
0
41
1
10
5.3656032442004
20
-1.36799749071457
30
0
41
1
10
5.42668582632979
20
-1.37896760363134
30
0
41
1
10
5.54897680363834
20
-1.39844182745856
30
0
41
1
10
5.61016066185945
20
-1.40694385995752
30
0
41
1
10
5.79335665351971
20
-1.42863150419549
30
0
41
1
10
5.91523681329011
20
-1.43803398354387
30
0
41
1
10
6.09804952906734
20
-1.44446224959768
30
0
41
1
10
6.15899209237063
20
-1.44532347679203
30
0
41
1
10
6.28096841323287
20
-1.44446030079925
30
0
41
1
10
6.34204674390654
20
-1.44273338335751
30
0
41
1
10
6.64742216991473
20
-1.42761381153514
30
0
41
1
10
6.89069309178311
20
-1.39503187138831
30
0
41
1
10
7.19606563584597
20
-1.32993133292138
30
0
41
1
10
7.25725307561274
20
-1.31569453015183
30
0
41
1
10
7.3793890935556
20
-1.28497279378257
30
0
41
1
10
7.44039579503578
20
-1.26847598510284
30
0
41
1
10
7.60869204856078
20
-1.21989693150536
30
0
41
1
10
7.71591208473777
20
-1.18549421595864
30
0
41
1
10
7.82321677224365
20
-1.14782002076967
30
0
0
SPLINE
5
BE
100
AcDbEntity
8
1
62
256
6
ByLayer
370
18
48
1
60
0
100
AcDbSpline
70
4
71
3
72
37
73
33
40
0
40
0
40
0
40
0
40
0.0151941110206766
40
0.155880666589164
40
0.155880666589164
40
0.226223944373405
40
0.226223944373405
40
0.296567222157646
40
0.296567222157646
40
0.437253777726121
40
0.437253777726121
40
0.507597055510356
40
0.507597055510356
40
0.577940333294591
40
0.577940333294591
40
0.71862688886306
40
0.71862688886306
40
0.85931344443153
40
0.85931344443153
40
0.894485083323647
40
0.894485083323647
40
0.912070902769706
40
0.912070902769706
40
0.929656722215765
40
0.929656722215765
40
0.947242541661823
40
0.947242541661823
40
0.964828361107882
40
0.964828361107882
40
0.982414180553941
40
0.982414180553941
40
1
40
1
40
1
40
1
41
1
10
14.0507779507624
20
1.44499960359389
30
0
41
1
10
14.0639553159239
20
1.44500378855358
30
0
41
1
10
14.1991176079409
20
1.44443035929268
30
0
41
1
10
14.3340279143829
20
1.43754040872824
30
0
41
1
10
14.5167945726764
20
1.4205170524215
30
0
41
1
10
14.5777683042532
20
1.41356747842502
30
0
41
1
10
14.6999119116718
20
1.39714905085378
30
0
41
1
10
14.761088502331
20
1.38767255649111
30
0
41
1
10
14.9442563320578
20
1.35562834964046
30
0
41
1
10
15.0661176557256
20
1.32941303439563
30
0
41
1
10
15.2489551314731
20
1.28311522826252
30
0
41
1
10
15.3099267675785
20
1.26653306772761
30
0
41
1
10
15.432012459612
20
1.23114612951787
30
0
41
1
10
15.493148667591
20
1.21232671120072
30
0
41
1
10
15.676658807337
20
1.15264386236717
30
0
41
1
10
15.7985151492443
20
1.10874968042481
30
0
41
1
10
16.0417503176911
20
1.01334757826447
30
0
41
1
10
16.1631785420495
20
0.961888504217569
30
0
41
1
10
16.3152534342627
20
0.89355095995748
30
0
41
1
10
16.3456673293214
20
0.879661963323628
30
0
41
1
10
16.3912695938959
20
0.85846767336588
30
0
41
1
10
16.4064768593043
20
0.851356115966524
30
0
41
1
10
16.4369740014348
20
0.837141584996886
30
0
41
1
10
16.4522802216685
20
0.830062609416672
30
0
41
1
10
16.4829711798868
20
0.815913352670322
30
0
41
1
10
16.4982835086476
20
0.808738502527802
30
0
41
1
10
16.5283934563975
20
0.793505030251879
30
0
41
1
10
16.543276920388
20
0.785569768800059
30
0
41
1
10
16.5733690754391
20
0.770063257461914
30
0
41
1
10
16.5885680101634
20
0.762477020177641
30
0
41
1
10
16.6200805549409
20
0.748918924587286
30
0
41
1
10
16.6363842417943
20
0.742934917555829
30
0
41
1
10
16.653285433966
20
0.737854379020945
30
0
0
SPLINE
5
BF
100
AcDbEntity
8
1
62
256
6
ByLayer
370
18
48
1
60
0
100
AcDbSpline
70
4
71
3
72
26
73
22
40
0
40
0
40
0
40
0
40
0.0477554712060042
40
0.0477554712060042
40
0.0955109424120085
40
0.0955109424120085
40
0.143266413618013
40
0.143266413618013
40
0.191021884824017
40
0.191021884824017
40
0.238777356030021
40
0.238777356030021
40
0.286532827236025
40
0.286532827236025
40
0.382043769648034
40
0.382043769648034
40
0.573065654472067
40
0.573065654472067
40
0.7640875392961
40
0.7640875392961
40
1
40
1
40
1
40
1
41
1
10
16.653285433966
20
1.3912695673512
30
0
41
1
10
16.6363592217207
20
1.38967084126222
30
0
41
1
10
16.620037864747
20
1.38774796860236
30
0
41
1
10
16.5884971444024
20
1.38322449764664
30
0
41
1
10
16.5732872453909
20
1.3806150274408
30
0
41
1
10
16.54316707102
20
1.37506458297207
30
0
41
1
10
16.5282668980674
20
1.37211848885303
30
0
41
1
10
16.4981094874857
20
1.36625966146559
30
0
41
1
10
16.4827658805891
20
1.3634018304559
30
0
41
1
10
16.4520086856058
20
1.35758948570296
30
0
41
1
10
16.4366675407818
20
1.35458957808979
30
0
41
1
10
16.4060928956447
20
1.34837444485692
30
0
41
1
10
16.3908434359048
20
1.34516869231177
30
0
41
1
10
16.3451026398492
20
1.33531958284902
30
0
41
1
10
16.3145805335945
20
1.32847129173015
30
0
41
1
10
16.2229692172188
20
1.30706308668584
30
0
41
1
10
16.1619022025344
20
1.29158904142355
30
0
41
1
10
16.0396411735234
20
1.2583323074798
30
0
41
1
10
15.9785160703677
20
1.2405576978874
30
0
41
1
10
15.8420127679
20
1.19844153903031
30
0
41
1
10
15.7665931387054
20
1.17355049216138
30
0
41
1
10
15.6911239963319
20
1.14710571487743
30
0
0
SPLINE
5
C0
100
AcDbEntity
8
1
62
256
6
ByLayer
370
18
48
1
60
0
100
AcDbSpline
70
4
71
3
72
38
73
34
40
0
40
0
40
0
40
0
40
0.0305771349686075
40
0.0305771349686075
40
0.111362373721224
40
0.111362373721224
40
0.151754993097532
40
0.151754993097532
40
0.19214761247384
40
0.19214761247384
40
0.272932851226458
40
0.272932851226458
40
0.313325470602767
40
0.313325470602767
40
0.353718089979075
40
0.353718089979075
40
0.434503328731693
40
0.434503328731693
40
0.474895948108002
40
0.474895948108002
40
0.515288567484311
40
0.515288567484311
40
0.676859044989544
40
0.676859044989544
40
0.717251664365851
40
0.717251664365851
40
0.757644283742159
40
0.757644283742159
40
0.838429522494773
40
0.838429522494773
40
0.919214761247386
40
0.919214761247386
40
1
40
1
40
1
40
1
41
1
10
9.46444809653423
20
-1.44499982837485
30
0
41
1
10
9.41824906004277
20
-1.44501275262948
30
0
41
1
10
9.37208174601304
20
-1.4442891785061
30
0
41
1
10
9.20399091284924
20
-1.43897553315642
30
0
41
1
10
9.08207452383513
20
-1.43000091711602
30
0
41
1
10
8.8988529420327
20
-1.40891378746801
30
0
41
1
10
8.8376609413836
20
-1.40060150758876
30
0
41
1
10
8.71546474087003
20
-1.38149128975988
30
0
41
1
10
8.6544690958238
20
-1.37069223630795
30
0
41
1
10
8.47163983704587
20
-1.33464413977674
30
0
41
1
10
8.3498462170819
20
-1.30581912532131
30
0
41
1
10
8.16687725008242
20
-1.2557238351236
30
0
41
1
10
8.10584136108716
20
-1.23788164527562
30
0
41
1
10
7.98360908015519
20
-1.19995486976552
30
0
41
1
10
7.92246916998971
20
-1.17987805503523
30
0
41
1
10
7.73940678526395
20
-1.1166377147614
30
0
41
1
10
7.61753223012178
20
-1.07049854620104
30
0
41
1
10
7.434575355867
20
-0.995831758475589
30
0
41
1
10
7.37356720787616
20
-0.97003046469024
30
0
41
1
10
7.25144304344357
20
-0.916674452768405
30
0
41
1
10
7.19027202575717
20
-0.889091293714017
30
0
41
1
10
6.88467874299502
20
-0.747326619810821
30
0
41
1
10
6.64134455499459
20
-0.622520888291348
30
0
41
1
10
6.33602760930159
20
-0.456151641525054
30
0
41
1
10
6.27488647077226
20
-0.422408782242655
30
0
41
1
10
6.15300194080095
20
-0.354495810614253
30
0
41
1
10
6.09217389799875
20
-0.320284400299954
30
0
41
1
10
5.90990922066513
20
-0.217102183312306
30
0
41
1
10
5.78866828360268
20
-0.147625078830174
30
0
41
1
10
5.54624261097513
20
-0.0081410057285893
30
0
41
1
10
5.42504218510621
20
0.0618385533826995
30
0
41
1
10
5.18212843935223
20
0.201330275324949
30
0
41
1
10
5.06036890382043
20
0.270761035704936
30
0
41
1
10
4.937986
20
0.339313538424761
30
0
0
SPLINE
5
C1
100
AcDbEntity
8
1
62
256
6
ByLayer
370
18
48
1
60
0
100
AcDbSpline
70
4
71
3
72
18
73
14
40
0
40
0
40
0
40
0
40
0.186186400157988
40
0.256006300217233
40
0.325826200276479
40
0.418919400355472
40
0.512012600434466
40
0.60510580051346
40
0.698199000592454
40
0.791292200671448
40
0.837838800710945
40
0.930932000789939
40
1
40
1
40
1
40
1
41
1
10
4.93798600000002
20
-0.146375095665206
30
0
41
1
10
5.00251247297467
20
-0.154873869096576
30
0
41
1
10
5.09123689476505
20
-0.166363164546738
30
0
41
1
10
5.20415873076715
20
-0.180574320315174
30
0
41
1
10
5.28481720604029
20
-0.190560705956131
30
0
41
1
10
5.37354152403432
20
-0.201320462028633
30
0
41
1
10
5.47033169012778
20
-0.212750182960974
30
0
41
0.999999999999999
10
5.56712185600043
20
-0.223858595897724
30
0
41
1
10
5.66391202193551
20
-0.234636304203406
30
0
41
1
10
5.7445704935291
20
-0.243327043374507
30
0
41
1
10
5.82522896512992
20
-0.251790579852667
30
0
41
1
10
5.89756100265953
20
-0.259173666445434
30
0
41
1
10
5.9537613458694
20
-0.264718652579091
30
0
41
1
10
5.97769830043958
20
-0.267044723469439
30
0
0
SPLINE
5
C2
100
AcDbEntity
8
1
62
256
6
ByLayer
370
18
48
1
60
0
100
AcDbSpline
70
4
71
3
72
26
73
22
40
0
40
0
40
0
40
0
40
0.0624999999999999
40
0.0624999999999999
40
0.125
40
0.125
40
0.25
40
0.25
40
0.375
40
0.375
40
0.5
40
0.5
40
0.625
40
0.625
40
0.75
40
0.75
40
0.875
40
0.875
40
0.9375
40
0.9375
40
1
40
1
40
1
40
1
41
1
10
17.158646365817
20
0.327482462017912
30
0
41
1
10
17.1524977264118
20
0.349169566454975
30
0
41
1
10
17.145303296842
20
0.370713296756293
30
0
41
1
10
17.1295684259752
20
0.41369027782352
30
0
41
1
10
17.1210253282322
20
0.435123238455901
30
0
41
1
10
17.0940836417098
20
0.499431528758009
30
0
41
1
10
17.0744187451976
20
0.54232813069487
30
0
41
1
10
17.0335704666715
20
0.628643584820452
30
0
41
1
10
17.0123484456791
20
0.672053546406175
30
0
41
1
10
16.9691940243104
20
0.759355801471372
30
0
41
1
10
16.9472300821018
20
0.803288353413137
30
0
41
1
10
16.9028809159244
20
0.891764580653586
30
0
41
1
10
16.8804964485702
20
0.936281972953537
30
0
41
1
10
16.8354496618583
20
1.02598917949237
30
0
41
1
10
16.8127923149084
20
1.07117519872159
30
0
41
1
10
16.7673057167736
20
1.16245672647438
30
0
41
1
10
16.7444723652914
20
1.20856062330222
30
0
41
1
10
16.7102369966362
20
1.27750955932021
30
0
41
1
10
16.6988281474088
20
1.30044927707394
30
0
41
1
10
16.6760369600139
20
1.34606704338168
30
0
41
1
10
16.6646535112913
20
1.36875322029786
30
0
41
1
10
16.653285433966
20
1.3912695673512
30
0
0
SPLINE
5
C3
100
AcDbEntity
8
1
62
256
6
ByLayer
370
18
48
1
60
0
100
AcDbSpline
70
4
71
3
72
90
73
86
40
0
40
0
40
0
40
0
40
0.0051857537501166
40
0.0051857537501166
40
0.0103715075002332
40
0.0103715075002332
40
0.0155572612503499
40
0.0155572612503499
40
0.0207430150004665
40
0.0207430150004665
40
0.0259287687505831
40
0.0259287687505831
40
0.0311145225006997
40
0.0311145225006997
40
0.0414860300009329
40
0.0414860300009329
40
0.0622290450014012
40
0.0622290450014012
40
0.0829720600018694
40
0.0829720600018694
40
0.124458090002804
40
0.124458090002804
40
0.145201105003271
40
0.145201105003271
40
0.165944120003739
40
0.165944120003739
40
0.207430150004675
40
0.207430150004675
40
0.228173165005144
40
0.228173165005144
40
0.248916180005613
40
0.248916180005613
40
0.290402210006551
40
0.290402210006551
40
0.311145225007021
40
0.311145225007021
40
0.33188824000749
40
0.33188824000749
40
0.373374270008426
40
0.373374270008426
40
0.394117285008893
40
0.394117285008893
40
0.414860300009361
40
0.414860300009361
40
0.49783236001123
40
0.49783236001123
40
0.518575375011697
40
0.518575375011697
40
0.539318390012165
40
0.539318390012165
40
0.560061405012632
40
0.560061405012632
40
0.5808044200131
40
0.5808044200131
40
0.601547435013567
40
0.601547435013567
40
0.622290450014034
40
0.622290450014034
40
0.663776480014967
40
0.663776480014967
40
0.684519495015435
40
0.684519495015435
40
0.705262510015902
40
0.705262510015902
40
0.746748540016836
40
0.746748540016836
40
0.78823457001777
40
0.78823457001777
40
0.808977585018237
40
0.808977585018237
40
0.829720600018703
40
0.829720600018703
40
0.871206630019637
40
0.871206630019637
40
0.891949645020104
40
0.891949645020104
40
0.912692660020571
40
0.912692660020571
40
0.954178690021505
40
0.954178690021505
40
0.974921705021972
40
0.974921705021972
40
0.99566472002244
40
0.99566472002244
40
1
40
1
40
1
40
1
41
1
10
16.653285433966
20
-1.3912695673512
30
0
41
1
10
16.6363592217207
20
-1.38967084126222
30
0
41
1
10
16.620037864747
20
-1.38774796860236
30
0
41
1
10
16.5884971444024
20
-1.38322449764664
30
0
41
1
10
16.5732872453909
20
-1.3806150274408
30
0
41
1
10
16.54316707102
20
-1.37506458297207
30
0
41
1
10
16.5282668980674
20
-1.37211848885303
30
0
41
1
10
16.4981094874857
20
-1.36625966146559
30
0
41
1
10
16.4827658805891
20
-1.3634018304559
30
0
41
1
10
16.4520086856058
20
-1.35758948570296
30
0
41
1
10
16.4366675407818
20
-1.35458957808979
30
0
41
1
10
16.4060928956447
20
-1.34837444485692
30
0
41
1
10
16.3908434359048
20
-1.34516869231177
30
0
41
1
10
16.3451026398492
20
-1.33531958284902
30
0
41
1
10
16.3145805335945
20
-1.32847129173015
30
0
41
1
10
16.2229692172188
20
-1.30706308668584
30
0
41
1
10
16.1619022025345
20
-1.29158904142355
30
0
41
1
10
16.0396411735234
20
-1.2583323074798
30
0
41
1
10
15.9785160703677
20
-1.2405576978874
30
0
41
1
10
15.795290346821
20
-1.18402599836003
30
0
41
1
10
15.6731619780724
20
-1.14209283969493
30
0
41
1
10
15.4896334512396
20
-1.07323951590141
30
0
41
1
10
15.4284337682198
20
-1.04930090784083
30
0
41
1
10
15.3062758439158
20
-0.999663034158203
30
0
41
1
10
15.2452763073975
20
-0.973936209615488
30
0
41
1
10
15.0623742106155
20
-0.894212889790708
30
0
41
1
10
14.9404974381948
20
-0.837769811411164
30
0
41
1
10
14.7573528841627
20
-0.7487307873227
30
0
41
1
10
14.6962029887141
20
-0.718292061656285
30
0
41
1
10
14.5739655107791
20
-0.656156034152104
30
0
41
1
10
14.5129533555139
20
-0.624482955482819
30
0
41
1
10
14.3300913751415
20
-0.527878037984351
30
0
41
1
10
14.20829494698
20
-0.46155476828568
30
0
41
1
10
14.0253417082792
20
-0.35990484530646
30
0
41
1
10
13.9643135425127
20
-0.32566161514049
30
0
41
1
10
13.84210389415
20
-0.256562853223869
30
0
41
1
10
13.7809131925118
20
-0.221695158304186
30
0
41
1
10
13.5977390560401
20
-0.11678462842778
30
0
41
1
10
13.475800964807
20
-0.0464840388331709
30
0
41
1
10
13.2927851482776
20
0.0588518736650485
30
0
41
1
10
13.2317663020954
20
0.0939526056554314
30
0
41
1
10
13.1096411621274
20
0.16402657677898
30
0
41
1
10
13.048515964134
20
0.199028654655024
30
0
41
1
10
12.7427718797128
20
0.373234885703027
30
0
41
1
10
12.4996222676794
20
0.508458725575423
30
0
41
1
10
12.194359473604
20
0.667108290046599
30
0
41
1
10
12.1331869368229
20
0.69831619269479
30
0
41
1
10
12.0110795523492
20
0.759287795260292
30
0
41
1
10
11.9501101462381
20
0.789104973969671
30
0
41
1
10
11.828202705599
20
0.847207680254229
30
0
41
1
10
11.7671987897628
20
0.875401341658375
30
0
41
1
10
11.645169629335
20
0.930204006495131
30
0
41
1
10
11.5841817811673
20
0.956861279467205
30
0
41
1
10
11.4621392101394
20
1.0085113145561
30
0
41
1
10
11.4010633573469
20
1.03347716055646
30
0
41
1
10
11.2786956059227
20
1.0815512420657
30
0
41
1
10
11.2175891092665
20
1.10460797713463
30
0
41
1
10
11.0344636133597
20
1.17072576665592
30
0
41
1
10
10.9126173332339
20
1.21075115294241
30
0
41
1
10
10.7297860562009
20
1.26426356148028
30
0
41
1
10
10.6688014445735
20
1.28098572310949
30
0
41
1
10
10.5466714917199
20
1.31213094865097
30
0
41
1
10
10.485472519712
20
1.32656731773662
30
0
41
1
10
10.3021957857837
20
1.36620621572734
30
0
41
1
10
10.1803202045748
20
1.38778714625292
30
0
41
1
10
9.93662730131763
20
1.42098064196671
30
0
41
1
10
9.81466804034491
20
1.43253627072553
30
0
41
1
10
9.63116323001009
20
1.44218843645948
30
0
41
1
10
9.57000774954159
20
1.44411781729201
30
0
41
1
10
9.44789060098515
20
1.44540151687295
30
0
41
1
10
9.38689727927502
20
1.4447575234357
30
0
41
1
10
9.20399091284921
20
1.43897553315642
30
0
41
1
10
9.08207452383513
20
1.43000091711602
30
0
41
1
10
8.89885294203268
20
1.40891378746801
30
0
41
1
10
8.83766094138358
20
1.40060150758876
30
0
41
1
10
8.71546474087003
20
1.38149128975988
30
0
41
1
10
8.6544690958238
20
1.37069223630792
30
0
41
1
10
8.47163983704587
20
1.33464413977674
30
0
41
1
10
8.3498462170819
20
1.30581912532128
30
0
41
1
10
8.16687725008239
20
1.2557238351236
30
0
41
1
10
8.10584136108713
20
1.23788164527562
30
0
41
1
10
7.98360908015516
20
1.19995486976552
30
0
41
1
10
7.92246916998971
20
1.17987805503523
30
0
41
1
10
7.84869505882619
20
1.15439220822751
30
0
41
1
10
7.83594356662312
20
1.14994302400976
30
0
41
1
10
7.82319359751537
20
1.14545077723852
30
0
0
SPLINE
5
C4
100
AcDbEntity
8
1
62
256
6
ByLayer
370
18
48
1
60
0
100
AcDbSpline
70
4
71
3
72
22
73
18
40
0
40
0
40
0
40
0
40
0.024251269242899
40
0.024251269242899
40
0.186876057702416
40
0.186876057702416
40
0.349500846161933
40
0.349500846161933
40
0.51212563462145
40
0.51212563462145
40
0.674750423080967
40
0.674750423080967
40
0.837375211540484
40
0.837375211540484
40
0.918687605770242
40
0.918687605770242
40
1
40
1
40
1
40
1
41
1
10
17.0630780134856
20
-0.566194926581261
30
0
41
1
10
17.060069183176
20
-0.572619953412726
30
0
41
1
10
17.0570403365702
20
-0.579050002136682
30
0
41
1
10
17.0335704666715
20
-0.628643584820452
30
0
41
1
10
17.0123484456791
20
-0.672053546406175
30
0
41
1
10
16.9691940243104
20
-0.759355801471372
30
0
41
1
10
16.9472300821018
20
-0.803288353413137
30
0
41
1
10
16.9028809159244
20
-0.891764580653586
30
0
41
1
10
16.8804964485702
20
-0.936281972953537
30
0
41
1
10
16.8354496618583
20
-1.02598917949237
30
0
41
1
10
16.8127923149084
20
-1.07117519872159
30
0
41
1
10
16.7673057167736
20
-1.16245672647438
30
0
41
1
10
16.7444723652914
20
-1.20856062330222
30
0
41
1
10
16.7102369966362
20
-1.27750955932024
30
0
41
1
10
16.6988281474087
20
-1.30044927707394
30
0
41
1
10
16.6760369600139
20
-1.34606704338168
30
0
41
1
10
16.6646535112913
20
-1.36875322029786
30
0
41
1
10
16.653285433966
20
-1.3912695673512
30
0
0
SPLINE
5
C5
100
AcDbEntity
8
1
62
256
6
ByLayer
370
18
48
1
60
0
100
AcDbSpline
70
4
71
3
72
79
73
75
40
0
40
0
40
0
40
0
40
0.0031208687399911
40
0.0031208687399911
40
0.0223853501908195
40
0.0223853501908195
40
0.0994432759941337
40
0.0994432759941337
40
0.118707757444962
40
0.118707757444962
40
0.137972238895791
40
0.137972238895791
40
0.176501201797448
40
0.176501201797448
40
0.195765683248277
40
0.195765683248277
40
0.215030164699106
40
0.215030164699106
40
0.253559127600765
40
0.253559127600765
40
0.272823609051594
40
0.272823609051594
40
0.292088090502424
40
0.292088090502424
40
0.330617053404082
40
0.330617053404082
40
0.369146016305741
40
0.369146016305741
40
0.4076749792074
40
0.4076749792074
40
0.446203942109058
40
0.446203942109058
40
0.465468423559888
40
0.465468423559888
40
0.484732905010717
40
0.484732905010717
40
0.523261867912374
40
0.523261867912374
40
0.542526349363202
40
0.542526349363202
40
0.56179083081403
40
0.56179083081403
40
0.581055312264858
40
0.581055312264858
40
0.600319793715686
40
0.600319793715686
40
0.619584275166514
40
0.619584275166514
40
0.638848756617342
40
0.638848756617342
40
0.715906682420656
40
0.715906682420656
40
0.735171163871486
40
0.735171163871486
40
0.754435645322315
40
0.754435645322315
40
0.792964608223973
40
0.792964608223973
40
0.812229089674803
40
0.812229089674803
40
0.831493571125634
40
0.870022534027294
40
0.870022534027294
40
0.889287015478125
40
0.889287015478125
40
0.908551496928956
40
0.908551496928956
40
0.947080459830618
40
0.947080459830618
40
0.966344941281448
40
0.966344941281448
40
0.985609422732278
40
0.985609422732278
40
1
40
1
40
1
40
1
41
1
10
6.19034320817704
20
1.44499990266951
30
0
41
1
10
6.20022114147696
20
1.44499779518918
30
0
41
1
10
6.2101000988051
20
1.4449618065606
30
0
41
1
10
6.28096841323287
20
1.44446030079925
30
0
41
1
10
6.34204674390654
20
1.44273338335751
30
0
41
1
10
6.64742216991465
20
1.42761381153511
30
0
41
1
10
6.89069309178311
20
1.39503187138831
30
0
41
1
10
7.19606563584594
20
1.32993133292138
30
0
41
1
10
7.25725307561274
20
1.31569453015183
30
0
41
1
10
7.3793890935556
20
1.28497279378257
30
0
41
1
10
7.44039579503578
20
1.26847598510287
30
0
41
1
10
7.62332641950559
20
1.21567269076556
30
0
41
1
10
7.74515188612219
20
1.17604803196482
30
0
41
1
10
7.92810265271316
20
1.11031473738058
30
0
41
1
10
7.98915913738307
20
1.08737305118481
30
0
41
1
10
8.11142017193325
20
1.03955187785158
30
0
41
1
10
8.17246289641713
20
1.01472861300056
30
0
41
1
10
8.35543032638955
20
0.937664091580558
30
0
41
1
10
8.47719201469499
20
0.882826736024612
30
0
41
1
10
8.6599329211742
20
0.795933733397476
30
0
41
1
10
8.72089490912063
20
0.766241563896187
30
0
41
1
10
8.84300497396899
20
0.705533794204598
30
0
41
1
10
8.9041952099098
20
0.674483187092079
30
0
41
1
10
9.0874414540672
20
0.579827695438809
30
0
41
1
10
9.20934299342264
20
0.514625261786591
30
0
41
1
10
9.45313303778551
20
0.380867548124371
30
0
41
1
10
9.57511339228867
20
0.312464449812183
30
0
41
1
10
9.81975666590486
20
0.173455091765675
30
0
41
1
10
9.94175956519345
20
0.103197032914096
30
0
41
1
10
10.1853984347472
20
-0.0377307027232234
30
0
41
1
10
10.3072214297638
20
-0.10817741829527
30
0
41
1
10
10.4903698000597
20
-0.213111190831484
30
0
41
1
10
10.5515472530795
20
-0.248002857563677
30
0
41
1
10
10.6736960304623
20
-0.3172007877765
30
0
41
1
10
10.7346815192258
20
-0.35152401065838
30
0
41
1
10
10.9174981921291
20
-0.453453336151029
30
0
41
1
10
11.0393081114657
20
-0.519821434466365
30
0
41
1
10
11.222330256265
20
-0.616342840855737
30
0
41
1
10
11.2833883553276
20
-0.648012082296816
30
0
41
1
10
11.4056691573004
20
-0.710236733802532
30
0
41
1
10
11.4668002267222
20
-0.740773118690612
30
0
41
1
10
11.5888503132519
20
-0.800370758087752
30
0
41
1
10
11.6498361990326
20
-0.829425008510412
30
0
41
1
10
11.7718448161907
20
-0.885897577161273
30
0
41
1
10
11.8328236117489
20
-0.913379694837658
30
0
41
1
10
11.9546745180985
20
-0.966891378053987
30
0
41
1
10
12.0156114608062
20
-0.992832790453178
30
0
41
1
10
12.1376351040292
20
-1.04291741757322
30
0
41
1
10
12.1987663326589
20
-1.06710384534301
30
0
41
1
10
12.5040884169964
20
-1.18305182090376
30
0
41
1
10
12.7471672611686
20
-1.259539429482
30
0
41
1
10
13.0526677737502
20
-1.33198614391918
30
0
41
1
10
13.1138402052472
20
-1.34529585291531
30
0
41
1
10
13.2359768492154
20
-1.36942612552968
30
0
41
1
10
13.296993616323
20
-1.38026602174122
30
0
41
1
10
13.479979562636
20
-1.40908318579528
30
0
41
1
10
13.6018647085418
20
-1.42337116461448
30
0
41
1
10
13.7849172203097
20
-1.4371984334507
30
0
41
1
10
13.8460479278731
20
-1.44053389718297
30
0
41
1
10
13.9682853880783
20
-1.44461891020191
30
0
41
1
10
14.1513875644987
20
-1.44686796134423
30
0
41
1
10
14.3340279143829
20
-1.43754040872824
30
0
41
1
10
14.5167945726764
20
-1.4205170524215
30
0
41
1
10
14.5777683042532
20
-1.41356747842502
30
0
41
1
10
14.6999119116718
20
-1.39714905085378
30
0
41
1
10
14.761088502331
20
-1.38767255649111
30
0
41
1
10
14.9442563320578
20
-1.35562834964046
30
0
41
1
10
15.0661176557256
20
-1.32941303439563
30
0
41
1
10
15.2489551314731
20
-1.28311522826252
30
0
41
1
10
15.3099267675785
20
-1.26653306772761
30
0
41
1
10
15.432012459612
20
-1.23114612951787
30
0
41
1
10
15.4931486675909
20
-1.21232671120072
30
0
41
1
10
15.6000127695284
20
-1.17757138895809
30
0
41
1
10
15.6456393404049
20
-1.16213760621682
30
0
41
1
10
15.6912111919952
20
-1.14614664599992
30
0
0
SPLINE
5
C6
100
AcDbEntity
8
1
62
256
6
ByLayer
370
18
48
1
60
0
100
AcDbSpline
70
4
71
3
72
56
73
52
40
0
40
0
40
0
40
0
40
0.0013608294259972
40
0.0129649737838349
40
0.0361732624995099
40
0.059381551215185
40
0.08258983993086
40
0.105798128646535
40
0.12900641736221
40
0.146412633898967
40
0.163818850435723
40
0.187027139151398
40
0.210235427867073
40
0.233443716582748
40
0.256652005298423
40
0.279860294014099
40
0.291464438371936
40
0.314672727087611
40
0.337881015803286
40
0.361089304518961
40
0.384297593234636
40
0.407505881950312
40
0.419110026308149
40
0.442318315023824
40
0.465526603739499
40
0.488734892455174
40
0.511943181170849
40
0.535151469886524
40
0.552557686423281
40
0.569963902960037
40
0.593172191675712
40
0.616380480391387
40
0.639588769107063
40
0.662797057822737
40
0.686005346538413
40
0.69760949089625
40
0.720817779611925
40
0.7440260683276
40
0.767234357043275
40
0.790442645758951
40
0.813650934474626
40
0.825255078832463
40
0.848463367548138
40
0.871671656263813
40
0.894879944979488
40
0.918088233695164
40
0.941296522410839
40
0.958702738947595
40
0.976108955484351
40
0.999317244200026
40
1
40
1
40
1
40
1
41
1
10
9.67502240132003
20
0.267089230938495
30
0
41
1
10
9.67691418426855
20
0.266905688103065
30
0
41
1
10
9.69493768953958
20
0.265154839138745
30
0
41
1
10
9.7452246394557
20
0.260211736590605
30
0
41
1
10
9.82588325106778
20
0.252035657139288
30
0
41
1
10
9.92267358500371
20
0.241840855092107
30
0
41
1
10
10.019463918936
20
0.231271059162026
30
0
41
1
10
10.1162542528805
20
0.220336130556887
30
0
41
1
10
10.2049787256142
20
0.210023324491431
30
0
41
1
10
10.2856373374094
20
0.200425943498658
30
0
41
1
10
10.3662959482069
20
0.190643850535622
30
0
41
1
10
10.4550204236211
20
0.179656099490074
30
0
41
1
10
10.5518107501015
20
0.167399978876063
30
0
41
1
10
10.648601108692
20
0.154888499368638
30
0
41
1
10
10.7453913348633
20
0.142136900439851
30
0
41
1
10
10.8260496877524
20
0.131318761544748
30
0
41
1
10
10.9067079476607
20
0.120393174493557
30
0
41
1
10
10.9873661100865
20
0.109362433100557
30
0
41
1
10
11.0841557700245
20
0.0959742942958144
30
0
41
1
10
11.1809453116295
20
0.0824507095140916
30
0
41
1
10
11.2777347523023
20
0.0688080908146844
30
0
41
1
10
11.3583925497731
20
0.0573547524003289
30
0
41
1
10
11.4390503057254
20
0.0458452496174857
30
0
41
1
10
11.5197080255503
20
0.0342756718326882
30
0
41
1
10
11.6164972488011
20
0.0203488415374977
30
0
41
1
10
11.7132864487757
20
0.0064267682716661
30
0
41
1
10
11.8100756427373
20
-0.0074778806801419
30
0
41
0.999999999999999
10
11.8987990808481
20
-0.0202902435347028
30
0
41
1
10
11.9794567726493
20
-0.0319300851540731
30
0
41
1
10
12.0601144903616
20
-0.0435295617040481
30
0
41
1
10
12.148838023492
20
-0.0562383512697977
30
0
41
1
10
12.2456274040127
20
-0.0700247208521887
30
0
41
1
10
12.3424168735328
20
-0.0837105847326995
30
0
41
1
10
12.4392064489906
20
-0.0972571527388481
30
0
41
1
10
12.5198645325698
20
-0.108421816299227
30
0
41
1
10
12.6005226981923
20
-0.119481427409852
30
0
41
1
10
12.6811809827243
20
-0.130431830315445
30
0
41
1
10
12.777971006837
20
-0.143367458314941
30
0
41
1
10
12.8747609973487
20
-0.156083261460907
30
0
41
1
10
12.9715509824873
20
-0.16856748321598
30
0
41
1
10
13.0522092942352
20
-0.178760990645856
30
0
41
1
10
13.1328676021771
20
-0.188771440288519
30
0
41
1
10
13.2135259061622
20
-0.198598927608742
30
0
41
1
10
13.3103158668491
20
-0.210090024290992
30
0
41
1
10
13.4071058253649
20
-0.221265486794664
30
0
41
1
10
13.5038957836841
20
-0.232116996221805
30
0
41
1
10
13.5926199137633
20
-0.241755284993587
30
0
41
1
10
13.6732782165579
20
-0.250261842250922
30
0
41
1
10
13.7539365226075
20
-0.258546409220742
30
0
41
1
10
13.8113464826957
20
-0.264240308020703
30
0
41
1
10
13.8445589510347
20
-0.267463165362102
30
0
41
1
10
13.8455080935222
20
-0.267555209699992
30
0
0
SPLINE
5
C7
100
AcDbEntity
8
1
62
256
6
ByLayer
370
18
48
1
60
0
100
AcDbSpline
70
4
71
3
72
48
73
44
40
0
40
0
40
0
40
0
40
0.124999999999992
40
0.124999999999992
40
0.187499999999988
40
0.187499999999988
40
0.249999999999984
40
0.249999999999984
40
0.31249999999998
40
0.31249999999998
40
0.374999999999976
40
0.374999999999976
40
0.437499999999973
40
0.437499999999973
40
0.499999999999969
40
0.499999999999969
40
0.531249999999965
40
0.546874999999965
40
0.546874999999965
40
0.562499999999965
40
0.562499999999965
40
0.624999999999969
40
0.624999999999969
40
0.687499999999972
40
0.687499999999972
40
0.703124999999973
40
0.703124999999973
40
0.718749999999974
40
0.749999999999976
40
0.749999999999976
40
0.812499999999983
40
0.812499999999983
40
0.828124999999984
40
0.828124999999984
40
0.843749999999985
40
0.843749999999985
40
0.874999999999988
40
0.874999999999988
40
0.937499999999994
40
0.937499999999994
40
0.968749999999997
40
0.968749999999997
40
1
40
1
40
1
40
1
41
1
10
4.937986
20
-1.26852959970773
30
0
41
1
10
4.82787714628447
20
-1.25316757188435
30
0
41
1
10
4.71998578651042
20
-1.2339951274588
30
0
41
1
10
4.56147193676989
20
-1.19766490069679
30
0
41
1
10
4.50921350866199
20
-1.18428478175557
30
0
41
1
10
4.40640955594833
20
-1.15475273398693
30
0
41
1
10
4.35579068267165
20
-1.13858583499766
30
0
41
1
10
4.25614752738275
20
-1.10301760364075
30
0
41
1
10
4.20699196987843
20
-1.08355250391719
30
0
41
1
10
4.11133428156336
20
-1.04131460760146
30
0
41
1
10
4.06475779739253
20
-1.01852749454034
30
0
41
1
10
3.97417740790584
20
-0.969193196545604
30
0
41
1
10
3.93017272780185
20
-0.942647949913294
30
0
41
1
10
3.8448644887493
20
-0.885252255800879
30
0
41
1
10
3.80355944936682
20
-0.854405386684817
30
0
41
1
10
3.74379436638768
20
-0.804345533078418
30
0
41
1
10
3.71446122946278
20
-0.778365389472157
30
0
41
1
10
3.68599931517315
20
-0.750819126987153
30
0
41
1
10
3.66722498572761
20
-0.732088008504746
30
0
41
1
10
3.65792899650467
20
-0.722528709912552
30
0
41
1
10
3.61227618813086
20
-0.674100891579542
30
0
41
1
10
3.57816019997787
20
-0.633126367884501
30
0
41
1
10
3.51507080740802
20
-0.546156483173121
30
0
41
1
10
3.48609122982671
20
-0.500168017311097
30
0
41
1
10
3.45348454897748
20
-0.43899372394452
30
0
41
1
10
3.44714586708517
20
-0.42657103041816
30
0
41
1
10
3.43495960879739
20
-0.401578722403713
30
0
41
1
10
3.41737041744395
20
-0.363784240611409
30
0
41
1
10
3.40185697393801
20
-0.325063025789063
30
0
41
1
10
3.37365122516829
20
-0.246345750793211
30
0
41
1
10
3.35858823375403
20
-0.192176577468331
30
0
41
1
10
3.34487494691354
20
-0.122111576647995
30
0
41
1
10
3.34238968673083
20
-0.107980208790252
30
0
41
1
10
3.33795225948336
20
-0.0794716104181248
30
0
41
1
10
3.33600162183546
20
-0.0650874504331966
30
0
41
1
10
3.33103418005314
20
-0.0221195993645722
30
0
41
1
10
3.32886890003769
20
0.0064641285872824
30
0
41
1
10
3.32573810099066
20
0.0920335796913889
30
0
41
1
10
3.3281168769665
20
0.148838285946965
30
0
41
1
10
3.33847016629065
20
0.233680888925136
30
0
41
1
10
3.34308253871785
20
0.261987816714566
30
0
41
1
10
3.35444869083716
20
0.317594250997701
30
0
41
1
10
3.3612066985406
20
0.344986631081866
30
0
41
1
10
3.36901588465477
20
0.371981598552708
30
0
0
SPLINE
5
C8
100
AcDbEntity
8
1
62
256
6
ByLayer
370
18
48
1
60
0
100
AcDbSpline
70
4
71
3
72
18
73
14
40
0
40
0
40
0
40
0
40
0.250000000000007
40
0.250000000000007
40
0.500000000000013
40
0.500000000000013
40
0.625000000000013
40
0.625000000000013
40
0.687500000000013
40
0.687500000000013
40
0.750000000000013
40
0.750000000000013
40
1
40
1
40
1
40
1
41
1
10
3.36901588465477
20
0.371981598552708
30
0
41
1
10
3.49839852299448
20
0.402760955155969
30
0
41
1
10
3.62842575818715
20
0.42472541193024
30
0
41
1
10
3.88972721565838
20
0.452285523010317
30
0
41
1
10
4.02100157278858
20
0.457877638692111
30
0
41
1
10
4.21885974520509
20
0.453971169503092
30
0
41
1
10
4.28497067268881
20
0.450610323944005
30
0
41
1
10
4.38437984984105
20
0.442389008202383
30
0
41
1
10
4.41754060708652
20
0.439117346350969
30
0
41
1
10
4.48356019672778
20
0.431542892507508
30
0
41
1
10
4.51646628882568
20
0.427236554166427
30
0
41
1
10
4.68048205907508
20
0.403107873001176
30
0
41
1
10
4.81005340878809
20
0.375542498372994
30
0
41
1
10
4.93798600004251
20
0.339313538412711
30
0
0
LINE
5
7F
100
AcDbEntity
8
1
62
256
6
ByLayer
370
18
48
1
60
0
100
AcDbLine
10
0
20
1.488278
30
0
11
0
21
-1.488278
31
0
39
0
210
0
220
0
230
1
0
LINE
5
80
100
AcDbEntity
8
1
62
256
6
ByLayer
370
18
48
1
60
0
100
AcDbLine
10
16.653285
20
0.737854
30
0
11
16.653285
21
-1.39127
31
0
39
0
210
0
220
0
230
1
0
LINE
5
81
100
AcDbEntity
8
1
62
256
6
ByLayer
370
13
48
1
60
0
100
AcDbLine
10
0.291002
20
1.445
30
0
11
0.291002
21
-1.445
31
0
39
0
210
0
220
0
230
1
0
LINE
5
82
100
AcDbEntity
8
1
62
256
6
ByLayer
370
18
48
1
60
0
100
AcDbLine
10
4.937986
20
-0.146375
30
0
11
4.937986
21
-1.26853
31
0
39
0
210
0
220
0
230
1
0
LINE
5
83
100
AcDbEntity
8
1
62
256
6
ByLayer
370
18
48
1
60
0
100
AcDbLine
10
4.937986
20
0.339314
30
0
11
4.937986
21
-0.146375
31
0
39
0
210
0
220
0
230
1
0
LINE
5
84
100
AcDbEntity
8
SK1
62
256
6
ByLayer
370
18
48
1
60
0
100
AcDbLine
10
-20.6729
20
1.326795
30
0
11
-20.6729
21
-1.326795
31
0
39
0
210
0
220
0
230
1
0
LINE
5
86
100
AcDbEntity
8
SK1
62
256
6
ByLayer
370
18
48
1
60
0
100
AcDbLine
10
0
20
1.488278
30
0
11
0
21
-1.488278
31
0
39
0
210
0
220
0
230
1
0
LINE
5
87
100
AcDbEntity
8
SK1
62
256
6
ByLayer
370
18
48
1
60
0
100
AcDbLine
10
-0.036068
20
1.5
30
0
11
-0.036068
21
-1.5
31
0
39
0
210
0
220
0
230
1
0
LINE
5
88
100
AcDbEntity
8
SK1
62
256
6
ByLayer
370
18
48
1
60
0
100
AcDbLine
10
-20.3729
20
1.5
30
0
11
-20.3729
21
-1.5
31
0
39
0
210
0
220
0
230
1
0
LINE
5
89
100
AcDbEntity
8
1
62
256
6
ByLayer
370
18
48
1
60
0
100
AcDbLine
10
17.3271
20
0
30
0
11
17.062369
21
0.567719
31
0
39
0
210
0
220
0
230
1
0
LINE
5
8A
100
AcDbEntity
8
1
62
256
6
ByLayer
370
18
48
1
60
0
100
AcDbLine
10
17.062369
20
-0.567719
30
0
11
17.3271
21
0
31
0
39
0
210
0
220
0
230
1
0
LINE
5
8B
100
AcDbEntity
8
1
62
256
6
ByLayer
370
18
48
1
60
0
100
AcDbLine
10
0.291002
20
-1.445
30
0
11
6.189694
21
-1.445
31
0
39
0
210
0
220
0
230
1
0
LINE
5
8C
100
AcDbEntity
8
1
62
256
6
ByLayer
370
18
48
1
60
0
100
AcDbLine
10
9.464072
20
-1.445
30
0
11
14.051196
21
-1.445
31
0
39
0
210
0
220
0
230
1
0
LINE
5
8D
100
AcDbEntity
8
1
62
256
6
ByLayer
370
18
48
1
60
0
100
AcDbLine
10
14.051196
20
1.445
30
0
11
9.464072
21
1.445
31
0
39
0
210
0
220
0
230
1
0
LINE
5
8E
100
AcDbEntity
8
1
62
256
6
ByLayer
370
18
48
1
60
0
100
AcDbLine
10
6.189694
20
1.445
30
0
11
0.291002
21
1.445
31
0
39
0
210
0
220
0
230
1
0
LINE
5
8F
100
AcDbEntity
8
SK1
62
256
6
ByLayer
370
18
48
1
60
0
100
AcDbLine
10
-20.6729
20
-1.326795
30
0
11
-20.3729
21
-1.5
31
0
39
0
210
0
220
0
230
1
0
LINE
5
90
100
AcDbEntity
8
SK1
62
256
6
ByLayer
370
18
48
1
60
0
100
AcDbLine
10
-20.3729
20
1.5
30
0
11
-20.6729
21
1.326795
31
0
39
0
210
0
220
0
230
1
0
LINE
5
91
100
AcDbEntity
8
SK1
62
256
6
ByLayer
370
18
48
1
60
0
100
AcDbLine
10
-20.3729
20
-1.5
30
0
11
-0.036068
21
-1.5
31
0
39
0
210
0
220
0
230
1
0
LINE
5
92
100
AcDbEntity
8
SK1
62
256
6
ByLayer
370
18
48
1
60
0
100
AcDbLine
10
-0.036068
20
1.5
30
0
11
-20.3729
21
1.5
31
0
39
0
210
0
220
0
230
1
0
LINE
5
93
100
AcDbEntity
8
4
62
256
6
ByLayer
370
18
48
0.05
60
0
100
AcDbLine
10
0
20
0
30
0
11
17.3271
21
0
31
0
39
0
210
0
220
0
230
1
0
LINE
5
95
100
AcDbEntity
8
81
62
256
6
ByLayer
370
18
48
1
60
0
100
AcDbLine
10
17.3271
20
0
30
0
11
20.3271
21
0
31
0
39
0
210
0
220
0
230
1
0
LINE
5
96
100
AcDbEntity
8
80
62
256
6
ByLayer
370
18
48
1
60
0
100
AcDbLine
10
0
20
0
30
0
11
-3
21
0
31
0
39
0
210
0
220
0
230
1
0
LINE
5
97
100
AcDbEntity
8
SK4
62
256
6
ByLayer
370
18
48
0.05
60
0
100
AcDbLine
10
-23.6729
20
0
30
0
11
20.3271
21
0
31
0
39
0
210
0
220
0
230
1
0
LINE
5
99
100
AcDbEntity
8
SK2
62
256
6
ByLayer
370
13
48
1
60
0
100
AcDbLine
10
-25.1729
20
-9
30
0
11
-25.1729
21
21.782741
31
0
39
0
210
0
220
0
230
1
0
LINE
5
9B
100
AcDbEntity
8
SK2
62
256
6
ByLayer
370
13
48
1
60
0
100
AcDbLine
10
-22.2604
20
-1.5
30
0
11
-27.1729
21
-1.5
31
0
39
0
210
0
220
0
230
1
0
LINE
5
9C
100
AcDbEntity
8
SK2
62
256
6
ByLayer
370
13
48
1
60
0
100
AcDbLine
10
-22.2604
20
1.5
30
0
11
-27.1729
21
1.5
31
0
39
0
210
0
220
0
230
1
0
LINE
5
9D
100
AcDbEntity
8
1
62
256
6
ByLayer
370
18
48
1
60
1
100
AcDbLine
10
-25.1729
20
-1.5
30
0
11
-24.712116
21
-4.999998
31
0
39
0
210
0
220
0
230
1
0
LINE
5
9E
100
AcDbEntity
8
1
62
256
6
ByLayer
370
18
48
1
60
1
100
AcDbLine
10
-24.712116
20
-4.999998
30
0
11
-25.633684
21
-5.000002
31
0
39
0
210
0
220
0
230
1
0
LINE
5
9F
100
AcDbEntity
8
1
62
256
6
ByLayer
370
18
48
1
60
1
100
AcDbLine
10
-25.633684
20
-5.000002
30
0
11
-25.1729
21
-1.5
31
0
39
0
210
0
220
0
230
1
0
LINE
5
A0
100
AcDbEntity
8
1
62
256
6
ByLayer
370
18
48
1
60
1
100
AcDbLine
10
-25.1729
20
1.5
30
0
11
-25.633684
21
4.999998
31
0
39
0
210
0
220
0
230
1
0
LINE
5
A1
100
AcDbEntity
8
1
62
256
6
ByLayer
370
18
48
1
60
1
100
AcDbLine
10
-25.633684
20
4.999998
30
0
11
-24.712116
21
5.000002
31
0
39
0
210
0
220
0
230
1
0
LINE
5
A2
100
AcDbEntity
8
1
62
256
6
ByLayer
370
18
48
1
60
1
100
AcDbLine
10
-24.712116
20
5.000002
30
0
11
-25.1729
21
1.5
31
0
39
0
210
0
220
0
230
1
0
LINE
5
A3
100
AcDbEntity
8
2
62
256
6
ByLayer
370
13
48
1
60
0
100
AcDbLine
10
22.8271
20
-8.945
30
0
11
22.8271
21
29.337741
31
0
39
0
210
0
220
0
230
1
0
LINE
5
A5
100
AcDbEntity
8
2
62
256
6
ByLayer
370
13
48
1
60
0
100
AcDbLine
10
18.9146
20
-1.445
30
0
11
24.8271
21
-1.445
31
0
39
0
210
0
220
0
230
1
0
LINE
5
A6
100
AcDbEntity
8
2
62
256
6
ByLayer
370
13
48
1
60
0
100
AcDbLine
10
18.9146
20
1.445
30
0
11
24.8271
21
1.445
31
0
39
0
210
0
220
0
230
1
0
LINE
5
A7
100
AcDbEntity
8
1
62
256
6
ByLayer
370
18
48
1
60
1
100
AcDbLine
10
22.8271
20
-1.445
30
0
11
23.287884
21
-4.944998
31
0
39
0
210
0
220
0
230
1
0
LINE
5
A8
100
AcDbEntity
8
1
62
256
6
ByLayer
370
18
48
1
60
1
100
AcDbLine
10
23.287884
20
-4.944998
30
0
11
22.366316
21
-4.945002
31
0
39
0
210
0
220
0
230
1
0
LINE
5
A9
100
AcDbEntity
8
1
62
256
6
ByLayer
370
18
48
1
60
1
100
AcDbLine
10
22.366316
20
-4.945002
30
0
11
22.8271
21
-1.445
31
0
39
0
210
0
220
0
230
1
0
LINE
5
AA
100
AcDbEntity
8
1
62
256
6
ByLayer
370
18
48
1
60
1
100
AcDbLine
10
22.8271
20
1.445
30
0
11
22.366316
21
4.944998
31
0
39
0
210
0
220
0
230
1
0
LINE
5
AB
100
AcDbEntity
8
1
62
256
6
ByLayer
370
18
48
1
60
1
100
AcDbLine
10
22.366316
20
4.944998
30
0
11
23.287884
21
4.945002
31
0
39
0
210
0
220
0
230
1
0
LINE
5
AC
100
AcDbEntity
8
1
62
256
6
ByLayer
370
18
48
1
60
1
100
AcDbLine
10
23.287884
20
4.945002
30
0
11
22.8271
21
1.445
31
0
39
0
210
0
220
0
230
1
0
LINE
5
AD
100
AcDbEntity
8
SK2
62
256
6
ByLayer
370
13
48
1
60
0
100
AcDbLine
10
17.998006
20
-1.438764
30
0
11
25.082145
21
-16.630748
31
0
39
0
210
0
220
0
230
1
0
LINE
5
AE
100
AcDbEntity
8
SK2
62
256
6
ByLayer
370
13
48
1
60
0
100
AcDbLine
10
17.998006
20
1.438764
30
0
11
25.082145
21
16.630748
31
0
39
0
210
0
220
0
230
1
0
LINE
5
AF
100
AcDbEntity
8
1
62
256
6
ByLayer
370
18
48
1
60
1
100
AcDbLine
10
24.236909
20
-14.818132
30
0
11
27.108942
21
-12.765394
31
0
39
0
210
0
220
0
230
1
0
LINE
5
B0
100
AcDbEntity
8
1
62
256
6
ByLayer
370
18
48
1
60
1
100
AcDbLine
10
27.108942
20
-12.765394
30
0
11
27.542371
21
-13.578675
31
0
39
0
210
0
220
0
230
1
0
LINE
5
B1
100
AcDbEntity
8
1
62
256
6
ByLayer
370
18
48
1
60
1
100
AcDbLine
10
27.542371
20
-13.578675
30
0
11
24.236909
21
-14.818132
31
0
39
0
210
0
220
0
230
1
0
LINE
5
B2
100
AcDbEntity
8
1
62
256
6
ByLayer
370
18
48
1
60
1
100
AcDbLine
10
24.236909
20
14.818132
30
0
11
27.542368
21
13.578677
31
0
39
0
210
0
220
0
230
1
0
LINE
5
B3
100
AcDbEntity
8
1
62
256
6
ByLayer
370
18
48
1
60
1
100
AcDbLine
10
27.542368
20
13.578677
30
0
11
27.108945
21
12.765392
31
0
39
0
210
0
220
0
230
1
0
LINE
5
B4
100
AcDbEntity
8
1
62
256
6
ByLayer
370
18
48
1
60
1
100
AcDbLine
10
27.108945
20
12.765392
30
0
11
24.236909
21
14.818132
31
0
39
0
210
0
220
0
230
1
0
LINE
5
CD
100
AcDbEntity
8
1
62
256
6
ByLayer
370
18
48
1
60
1
100
AcDbLine
10
-25.1729
20
-1.5
30
0
11
-24.712116
21
-4.999998
31
0
39
0
210
0
220
0
230
1
0
LINE
5
CE
100
AcDbEntity
8
1
62
256
6
ByLayer
370
18
48
1
60
1
100
AcDbLine
10
-24.712116
20
-4.999998
30
0
11
-25.633684
21
-5.000002
31
0
39
0
210
0
220
0
230
1
0
LINE
5
CF
100
AcDbEntity
8
1
62
256
6
ByLayer
370
18
48
1
60
1
100
AcDbLine
10
-25.633684
20
-5.000002
30
0
11
-25.1729
21
-1.5
31
0
39
0
210
0
220
0
230
1
0
LINE
5
D1
100
AcDbEntity
8
1
62
256
6
ByLayer
370
18
48
1
60
1
100
AcDbLine
10
-25.1729
20
1.5
30
0
11
-25.633684
21
4.999998
31
0
39
0
210
0
220
0
230
1
0
LINE
5
D2
100
AcDbEntity
8
1
62
256
6
ByLayer
370
18
48
1
60
1
100
AcDbLine
10
-25.633684
20
4.999998
30
0
11
-24.712116
21
5.000002
31
0
39
0
210
0
220
0
230
1
0
LINE
5
D3
100
AcDbEntity
8
1
62
256
6
ByLayer
370
18
48
1
60
1
100
AcDbLine
10
-24.712116
20
5.000002
30
0
11
-25.1729
21
1.5
31
0
39
0
210
0
220
0
230
1
0
LINE
5
D7
100
AcDbEntity
8
1
62
256
6
ByLayer
370
18
48
1
60
1
100
AcDbLine
10
22.8271
20
-1.445
30
0
11
23.287884
21
-4.944998
31
0
39
0
210
0
220
0
230
1
0
LINE
5
D8
100
AcDbEntity
8
1
62
256
6
ByLayer
370
18
48
1
60
1
100
AcDbLine
10
23.287884
20
-4.944998
30
0
11
22.366316
21
-4.945002
31
0
39
0
210
0
220
0
230
1
0
LINE
5
D9
100
AcDbEntity
8
1
62
256
6
ByLayer
370
18
48
1
60
1
100
AcDbLine
10
22.366316
20
-4.945002
30
0
11
22.8271
21
-1.445
31
0
39
0
210
0
220
0
230
1
0
LINE
5
DB
100
AcDbEntity
8
1
62
256
6
ByLayer
370
18
48
1
60
1
100
AcDbLine
10
22.8271
20
1.445
30
0
11
22.366316
21
4.944998
31
0
39
0
210
0
220
0
230
1
0
LINE
5
DC
100
AcDbEntity
8
1
62
256
6
ByLayer
370
18
48
1
60
1
100
AcDbLine
10
22.366316
20
4.944998
30
0
11
23.287884
21
4.945002
31
0
39
0
210
0
220
0
230
1
0
LINE
5
DD
100
AcDbEntity
8
1
62
256
6
ByLayer
370
18
48
1
60
1
100
AcDbLine
10
23.287884
20
4.945002
30
0
11
22.8271
21
1.445
31
0
39
0
210
0
220
0
230
1
0
LINE
5
E0
100
AcDbEntity
8
1
62
256
6
ByLayer
370
18
48
1
60
1
100
AcDbLine
10
24.236909
20
-14.818132
30
0
11
27.108942
21
-12.765394
31
0
39
0
210
0
220
0
230
1
0
LINE
5
E1
100
AcDbEntity
8
1
62
256
6
ByLayer
370
18
48
1
60
1
100
AcDbLine
10
27.108942
20
-12.765394
30
0
11
27.542371
21
-13.578675
31
0
39
0
210
0
220
0
230
1
0
LINE
5
E2
100
AcDbEntity
8
1
62
256
6
ByLayer
370
18
48
1
60
1
100
AcDbLine
10
27.542371
20
-13.578675
30
0
11
24.236909
21
-14.818132
31
0
39
0
210
0
220
0
230
1
0
LINE
5
E4
100
AcDbEntity
8
1
62
256
6
ByLayer
370
18
48
1
60
1
100
AcDbLine
10
24.236909
20
14.818132
30
0
11
27.542368
21
13.578677
31
0
39
0
210
0
220
0
230
1
0
LINE
5
E5
100
AcDbEntity
8
1
62
256
6
ByLayer
370
18
48
1
60
1
100
AcDbLine
10
27.542368
20
13.578677
30
0
11
27.108945
21
12.765392
31
0
39
0
210
0
220
0
230
1
0
LINE
5
E6
100
AcDbEntity
8
1
62
256
6
ByLayer
370
18
48
1
60
1
100
AcDbLine
10
27.108945
20
12.765392
30
0
11
24.236909
21
14.818132
31
0
39
0
210
0
220
0
230
1
0
MTEXT
5
C9
100
AcDbEntity
8
SK2
62
256
6
ByLayer
370
18
48
1
60
0
100
AcDbMText
10
-26.514014
20
6.658437
30
0
210
0
220
0
230
1
1
%%c
40
3
41
0
44
1.084337
50
90
71
7
72
5
7
iso_b_vert
0
MTEXT
5
CC
100
AcDbEntity
8
SK2
62
256
6
ByLayer
370
18
48
1
60
0
100
AcDbMText
10
-26.514014
20
12.635
30
0
210
0
220
0
230
1
1
\W0.7468;3.000
40
3
41
0
44
1.084337
50
90
71
7
72
5
7
iso_b_vert
0
MTEXT
5
D5
100
AcDbEntity
8
2
62
256
6
ByLayer
370
18
48
1
60
0
100
AcDbMText
10
21.485986
20
14.213438
30
0
210
0
220
0
230
1
1
%%c
40
3
41
0
44
1.084337
50
90
71
7
72
5
7
iso_b_vert
0
MTEXT
5
D6
100
AcDbEntity
8
2
62
256
6
ByLayer
370
18
48
1
60
0
100
AcDbMText
10
21.485986
20
20.19
30
0
210
0
220
0
230
1
1
\W0.7468;2.890
40
3
41
0
44
1.084337
50
90
71
7
72
5
7
iso_b_vert
0
MTEXT
5
DF
100
AcDbEntity
8
SK2
62
256
6
ByLayer
370
18
48
1
60
0
100
AcDbMText
10
30.394386
20
-2.114886
30
0
210
0
220
0
230
1
1
\W0.6747;130%%d
40
3
41
0
44
1.084337
50
0
71
7
72
5
7
iso_b_vert
0
MTEXT
5
E8
100
AcDbEntity
8
SK6
62
256
6
ByLayer
370
18
48
1
60
0
100
AcDbMText
10
-29.67681
20
-48.114886
30
0
210
0
220
0
230
1
1
\W0.7754;462.1-0289-009A0-XM X0BU
40
3
41
0
44
1.084337
50
0
71
7
72
5
7
iso_b_vert
0
HATCH
5
D0
100
AcDbEntity
8
SK2
62
256
6
ByLayer
370
13
48
1
60
0
100
AcDbHatch
10
0
20
0
30
0
210
0
220
0
230
1
2
ANSI31
70
0
71
0
91
1
92
5
93
3
72
1
10
-25.1729
20
-1.5
11
-24.7121162584472
21
-4.99999830744682
72
1
10
-24.7121162584472
20
-4.99999830744682
11
-25.6336837415528
21
-5.00000169255318
72
1
10
-25.6336837415528
20
-5.00000169255318
11
-25.1729
21
-1.5
97
0
75
0
76
1
52
0
41
0.0062
77
0
78
1
53
45
43
0
44
0
45
-0.0139193969876572
46
0.0139193969876572
79
0
47
0
98
1
10
0
20
0
0
HATCH
5
D4
100
AcDbEntity
8
SK2
62
256
6
ByLayer
370
13
48
1
60
0
100
AcDbHatch
10
0
20
0
30
0
210
0
220
0
230
1
2
ANSI31
70
0
71
0
91
1
92
5
93
3
72
1
10
-25.1729
20
1.5
11
-25.6336837415528
21
4.99999830744682
72
1
10
-25.6336837415528
20
4.99999830744682
11
-24.7121162584472
21
5.00000169255318
72
1
10
-24.7121162584472
20
5.00000169255318
11
-25.1729
21
1.5
97
0
75
0
76
1
52
0
41
0.0062
77
0
78
1
53
45
43
0
44
0
45
-0.0139193969876572
46
0.0139193969876572
79
0
47
0
98
1
10
0
20
0
0
HATCH
5
DA
100
AcDbEntity
8
2
62
256
6
ByLayer
370
13
48
1
60
0
100
AcDbHatch
10
0
20
0
30
0
210
0
220
0
230
1
2
ANSI31
70
0
71
0
91
1
92
5
93
3
72
1
10
22.8271
20
-1.44499999999999
11
23.2878837415528
21
-4.94499830744681
72
1
10
23.2878837415528
20
-4.94499830744681
11
22.3663162584472
21
-4.94500169255318
72
1
10
22.3663162584472
20
-4.94500169255318
11
22.8271
21
-1.44499999999999
97
0
75
0
76
1
52
0
41
0.0062
77
0
78
1
53
45
43
0
44
0
45
-0.0139193969876572
46
0.0139193969876572
79
0
47
0
98
1
10
0
20
0
0
HATCH
5
DE
100
AcDbEntity
8
2
62
256
6
ByLayer
370
13
48
1
60
0
100
AcDbHatch
10
0
20
0
30
0
210
0
220
0
230
1
2
ANSI31
70
0
71
0
91
1
92
5
93
3
72
1
10
22.8271
20
1.44499999999999
11
22.3663162584472
21
4.94499830744681
72
1
10
22.3663162584472
20
4.94499830744681
11
23.2878837415528
21
4.94500169255318
72
1
10
23.2878837415528
20
4.94500169255318
11
22.8271
21
1.44499999999999
97
0
75
0
76
1
52
0
41
0.0062
77
0
78
1
53
45
43
0
44
0
45
-0.0139193969876572
46
0.0139193969876572
79
0
47
0
98
1
10
0
20
0
0
HATCH
5
E3
100
AcDbEntity
8
SK2
62
256
6
ByLayer
370
13
48
1
60
0
100
AcDbHatch
10
0
20
0
30
0
210
0
220
0
230
1
2
ANSI31
70
0
71
0
91
1
92
5
93
3
72
1
10
24.2369085794605
20
-14.8181323180492
11
27.1089418553693
21
-12.765393983365
72
1
10
27.1089418553693
20
-12.765393983365
11
27.5423706127348
21
-13.5786750775861
72
1
10
27.5423706127348
20
-13.5786750775861
11
24.2369085794605
21
-14.8181323180492
97
0
75
0
76
1
52
0
41
0.0062
77
0
78
1
53
45
43
0
44
0
45
-0.0139193969876572
46
0.0139193969876572
79
0
47
0
98
1
10
0
20
0
0
HATCH
5
E7
100
AcDbEntity
8
SK2
62
256
6
ByLayer
370
13
48
1
60
0
100
AcDbHatch
10
0
20
0
30
0
210
0
220
0
230
1
2
ANSI31
70
0
71
0
91
1
92
5
93
3
72
1
10
24.2369085794605
20
14.8181323180492
11
27.5423676253807
21
13.5786766696479
72
1
10
27.5423676253807
20
13.5786766696479
11
27.1089448427234
21
12.7653923913032
72
1
10
27.1089448427234
20
12.7653923913032
11
24.2369085794605
21
14.8181323180492
97
0
75
0
76
1
52
0
41
0.0062
77
0
78
1
53
45
43
0
44
0
45
-0.0139193969876572
46
0.0139193969876572
79
0
47
0
98
1
10
0
20
0
0
DIMENSION
5
EB
100
AcDbEntity
8
SK2
62
256
6
ByLayer
370
18
48
1
60
0
100
AcDbDimension
2
_U0
10
17.3271
20
-38.8525
30
0
11
-1.6729
21
-38.8525
31
0
70
32
71
1
72
1
41
1
210
0
220
0
230
1
3
Standard
100
AcDbAlignedDimension
13
-20.6729
23
1.5
33
0
14
17.3271
24
1.445
34
0
50
0
100
AcDbRotatedDimension
1001
ACAD
1000
DSTYLE
1002
{
1070
   371
1070
    13
1070
   372
1070
    13
1070
     3
1000

1070
   170
1070
     0
1070
   144
1040
1.0
1070
   277
1070
     2
1070
   284
1070
     8
1070
   278
1070
    46
1070
   146
1040
1.166667
1070
   345
1005
16
1070
   347
1005
16
1070
   346
1005
16
1070
   344
1005
0
1070
   343
1005
0
1070
   172
1070
     1
1070
    76
1070
     0
1070
    75
1070
     0
1070
   282
1070
     0
1070
   281
1070
     0
1070
    71
1070
     0
1070
    74
1070
     0
1070
   279
1070
     0
1070
   173
1070
     1
1070
   340
1005
CA
1070
   271
1070
     2
1070
   272
1070
     2
1070
    77
1070
     1
1070
    73
1070
     1
1070
   171
1070
     3
1070
   274
1070
     4
1070
   177
1070
     2
1070
   176
1070
     2
1070
   178
1070
     2
1070
    78
1070
     8
1070
    48
1040
-0.1
1070
    41
1040
3.5
1070
   147
1040
1.5
1070
    42
1040
1.5875
1070
    44
1040
2.0
1070
   140
1040
3.0
1002
}
1001
ACAD_DSTYLE_DIM_LINETYPE
1070
   380
1005
16
1001
ACAD_DSTYLE_DIM_EXT1_LINETYPE
1070
   381
1005
16
1001
ACAD_DSTYLE_DIM_EXT2_LINETYPE
1070
   382
1005
16
0
DIMENSION
5
104
100
AcDbEntity
8
SK2
62
256
6
ByLayer
370
18
48
1
60
0
100
AcDbDimension
2
_U1
10
7.6621
20
-22.945
30
0
11
33.398529
21
-22.945
31
0
70
32
71
1
72
1
41
1
210
0
220
0
230
1
3
Standard
100
AcDbAlignedDimension
13
17.3271
23
1.445
33
0
14
7.6621
24
0
34
0
50
0
100
AcDbRotatedDimension
1001
ACAD
1000
DSTYLE
1002
{
1070
   371
1070
    13
1070
   372
1070
    13
1070
     3
1000

1070
   170
1070
     0
1070
   144
1040
1.0
1070
   277
1070
     2
1070
   284
1070
     8
1070
   278
1070
    46
1070
   146
1040
1.166667
1070
   345
1005
16
1070
   347
1005
16
1070
   346
1005
16
1070
   344
1005
0
1070
   343
1005
0
1070
   172
1070
     1
1070
    76
1070
     0
1070
    75
1070
     0
1070
   282
1070
     0
1070
   281
1070
     0
1070
    71
1070
     0
1070
    74
1070
     0
1070
   279
1070
     0
1070
   173
1070
     1
1070
   340
1005
CA
1070
   271
1070
     2
1070
   272
1070
     2
1070
    77
1070
     1
1070
    73
1070
     1
1070
   171
1070
     3
1070
   274
1070
     4
1070
   177
1070
     2
1070
   176
1070
     2
1070
   178
1070
     2
1070
    78
1070
     8
1070
    48
1040
-0.1
1070
    41
1040
3.5
1070
   147
1040
1.5
1070
    42
1040
1.5875
1070
    44
1040
2.0
1070
   140
1040
3.0
1002
}
1001
ACAD_DSTYLE_DIM_LINETYPE
1070
   380
1005
16
1001
ACAD_DSTYLE_DIM_EXT1_LINETYPE
1070
   381
1005
16
1001
ACAD_DSTYLE_DIM_EXT2_LINETYPE
1070
   382
1005
16
0
DIMENSION
5
11E
100
AcDbEntity
8
SK2
62
256
6
ByLayer
370
18
48
1
60
0
100
AcDbDimension
2
_U2
10
3.3271
20
-30.3525
30
0
11
10.3271
21
-30.3525
31
0
70
32
71
1
72
1
41
1
210
0
220
0
230
1
3
Standard
100
AcDbAlignedDimension
13
17.3271
23
1.445
33
0
14
3.3271
24
0
34
0
50
0
100
AcDbRotatedDimension
1001
ACAD
1000
DSTYLE
1002
{
1070
   371
1070
    13
1070
   372
1070
    13
1070
     3
1000

1070
   170
1070
     0
1070
   144
1040
1.0
1070
   277
1070
     2
1070
   284
1070
     8
1070
   278
1070
    46
1070
   146
1040
1.166667
1070
   345
1005
16
1070
   347
1005
16
1070
   346
1005
16
1070
   344
1005
0
1070
   343
1005
0
1070
   172
1070
     1
1070
    76
1070
     0
1070
    75
1070
     0
1070
   282
1070
     0
1070
   281
1070
     0
1070
    71
1070
     0
1070
    74
1070
     0
1070
   279
1070
     0
1070
   173
1070
     1
1070
   340
1005
CA
1070
   271
1070
     2
1070
   272
1070
     2
1070
    77
1070
     1
1070
    73
1070
     1
1070
   171
1070
     3
1070
   274
1070
     4
1070
   177
1070
     2
1070
   176
1070
     2
1070
   178
1070
     2
1070
    78
1070
     8
1070
    48
1040
-0.1
1070
    41
1040
3.5
1070
   147
1040
1.5
1070
    42
1040
1.5875
1070
    44
1040
2.0
1070
   140
1040
3.0
1002
}
1001
ACAD_DSTYLE_DIM_LINETYPE
1070
   380
1005
16
1001
ACAD_DSTYLE_DIM_EXT1_LINETYPE
1070
   381
1005
16
1001
ACAD_DSTYLE_DIM_EXT2_LINETYPE
1070
   382
1005
16
0
DIMENSION
5
137
100
AcDbEntity
8
SK2
62
256
6
ByLayer
370
18
48
1
60
0
100
AcDbDimension
2
_U3
10
0
20
11.3525
30
0
11
-10.33645
21
11.3525
31
0
70
32
71
1
72
1
41
1
210
0
220
0
230
1
3
Standard
100
AcDbAlignedDimension
13
-20.6729
23
0
33
0
14
0
24
0
34
0
50
0
100
AcDbRotatedDimension
1001
ACAD
1000
DSTYLE
1002
{
1070
   371
1070
    13
1070
   372
1070
    13
1070
     3
1000

1070
   170
1070
     0
1070
   144
1040
1.0
1070
   277
1070
     2
1070
   284
1070
     8
1070
   278
1070
    46
1070
   146
1040
1.166667
1070
   345
1005
16
1070
   347
1005
16
1070
   346
1005
16
1070
   344
1005
0
1070
   343
1005
0
1070
   172
1070
     1
1070
    76
1070
     0
1070
    75
1070
     0
1070
   282
1070
     0
1070
   281
1070
     0
1070
    71
1070
     0
1070
    74
1070
     0
1070
   279
1070
     0
1070
   173
1070
     1
1070
   340
1005
CA
1070
   271
1070
     2
1070
   272
1070
     2
1070
    77
1070
     1
1070
    73
1070
     1
1070
   171
1070
     3
1070
   274
1070
     4
1070
   177
1070
     2
1070
   176
1070
     2
1070
   178
1070
     2
1070
    78
1070
     8
1070
    48
1040
-0.1
1070
    41
1040
3.5
1070
   147
1040
1.5
1070
    42
1040
1.5875
1070
    44
1040
2.0
1070
   140
1040
3.0
1002
}
1001
ACAD_DSTYLE_DIM_LINETYPE
1070
   380
1005
16
1001
ACAD_DSTYLE_DIM_EXT1_LINETYPE
1070
   381
1005
16
1001
ACAD_DSTYLE_DIM_EXT2_LINETYPE
1070
   382
1005
16
0
DIMENSION
5
14F
100
AcDbEntity
8
2
62
256
6
ByLayer
370
18
48
1
60
0
100
AcDbDimension
2
_U4
10
0
20
11.3525
30
0
11
8.66355
21
11.3525
31
0
70
32
71
1
72
1
41
1
210
0
220
0
230
1
3
Standard
100
AcDbAlignedDimension
13
17.3271
23
1.445
33
0
14
0
24
0
34
0
50
0
100
AcDbRotatedDimension
1001
ACAD
1000
DSTYLE
1002
{
1070
   371
1070
    13
1070
   372
1070
    13
1070
     3
1000

1070
   170
1070
     0
1070
   144
1040
1.0
1070
   277
1070
     2
1070
   284
1070
     8
1070
   278
1070
    46
1070
   146
1040
1.166667
1070
   345
1005
16
1070
   347
1005
16
1070
   346
1005
16
1070
   344
1005
0
1070
   343
1005
0
1070
   172
1070
     1
1070
    76
1070
     0
1070
    75
1070
     0
1070
   282
1070
     0
1070
   281
1070
     0
1070
    71
1070
     0
1070
    74
1070
     0
1070
   279
1070
     0
1070
   173
1070
     1
1070
   340
1005
CA
1070
   271
1070
     2
1070
   272
1070
     2
1070
    77
1070
     1
1070
    73
1070
     1
1070
   171
1070
     3
1070
   274
1070
     4
1070
   177
1070
     2
1070
   176
1070
     2
1070
   178
1070
     2
1070
    78
1070
     8
1070
    48
1040
-0.1
1070
    41
1040
3.5
1070
   147
1040
1.5
1070
    42
1040
1.5875
1070
    44
1040
2.0
1070
   140
1040
3.0
1002
}
1001
ACAD_DSTYLE_DIM_LINETYPE
1070
   380
1005
16
1001
ACAD_DSTYLE_DIM_EXT1_LINETYPE
1070
   381
1005
16
1001
ACAD_DSTYLE_DIM_EXT2_LINETYPE
1070
   382
1005
16
0
ENDSEC
0
SECTION
2
OBJECTS
0
DICTIONARY
5
1d7
330
0
100
AcDbDictionary
280
0
281
1
3
ACAD_GROUP
350
1d8
3
ACAD_MLINESTYLE
350
1d9
0
DICTIONARY
5
1d8
330
0
100
AcDbDictionary
280
0
281
1
0
DICTIONARY
5
1d9
330
0
100
AcDbDictionary
280
0
281
1
3
Standard
350
18
0
MLINESTYLE
5
18
330
1d9
100
AcDbMlineStyle
2
Standard
70
0
3

62
256
51
90
52
90
71
2
49
-0.5
62
256
6
ByLayer
49
0.5
62
256
6
ByLayer
0
RASTERVARIABLES
5
1c5
330

100
AcDbRasterVariables
90
0
70
1
71
1
72
1
0
ENDSEC
0
EOF
