0
SECTION
2
HEADER
9
$ACADVER
1
AC1015
9
$DWGCODEPAGE
3
ANSI_1252
9
$HANDSEED
5
1ec
9
$ANGBASE
50
0
9
$ANGDIR
70
0
9
$ATTMODE
70
1
9
$AUNITS
70
0
9
$AUPREC
70
0
9
$CECOLOR
62
256
9
$CELTSCALE
40
1
9
$CELTYPE
6
ByLayer
9
$CELWEIGHT
370
18
9
$CLAYER
8
0
9
$CMLJUST
70
0
9
$CMLSCALE
40
1
9
$CMLSTYLE
2
Standard
9
$DIMSTYLE
2
Standard
9
$TEXTSIZE
40
0.2
9
$TEXTSTYLE
7
Standard
9
$LUNITS
70
2
9
$LUPREC
70
4
9
$EXTNAMES
290
1
9
$INSUNITS
70
4
9
$LTSCALE
40
1
9
$LWDISPLAY
290
1
9
$PDMODE
70
0
9
$PDSIZE
40
0
9
$PLINEGEN
70
0
0
ENDSEC
0
SECTION
2
CLASSES
0
CLASS
1
RASTERVARIABLES
2
AcDbRasterVariables
3
ISM
90
0
280
0
281
0
0
ENDSEC
0
SECTION
2
TABLES
0
TABLE
2
VPORT
5
1e2
100
AcDbSymbolTable
0
VPORT
5
1
100
AcDbSymbolTableRecord
100
AcDbViewportTableRecord
2
*Active
70
0
10
0
20
0
11
1
21
1
12
-1
22
1
13
0
23
0
14
0.5
24
0.5
15
10
25
10
16
0
26
0
36
1
17
0
27
0
37
0
0
ENDTAB
0
TABLE
2
LTYPE
5
1e3
100
AcDbSymbolTable
0
LTYPE
5
14
100
AcDbSymbolTableRecord
100
AcDbLinetypeTableRecord
70
0
2
ByBlock
3

72
65
73
0
40
0
0
LTYPE
5
15
100
AcDbSymbolTableRecord
100
AcDbLinetypeTableRecord
70
0
2
ByLayer
3

72
65
73
0
40
0
0
LTYPE
5
16
100
AcDbSymbolTableRecord
100
AcDbLinetypeTableRecord
70
0
2
Continuous
3
Solid line
72
65
73
0
40
0
0
LTYPE
5
6E
100
AcDbSymbolTableRecord
100
AcDbLinetypeTableRecord
70
0
2
CENTER
3
____ _ ____ _ ____ _ ____
72
65
73
4
40
47.5
49
22
74
0
49
-8.5
74
0
49
8.5
74
0
49
-8.5
74
0
0
LTYPE
5
6F
100
AcDbSymbolTableRecord
100
AcDbLinetypeTableRecord
70
0
2
DASHED
3
__ __ __ __ __ __ __ __ __
72
65
73
2
40
25.72
49
12.86
74
0
49
-12.86
74
0
0
ENDTAB
0
TABLE
2
LAYER
5
1e4
100
AcDbSymbolTable
0
LAYER
5
10
100
AcDbSymbolTableRecord
100
AcDbLayerTableRecord
2
0
70
0
62
7
6
Continuous
290
1
370
-3
390
0
0
LAYER
5
71
100
AcDbSymbolTableRecord
100
AcDbLayerTableRecord
2
80
70
0
62
-6
6
Continuous
290
1
370
-3
390
0
0
LAYER
5
73
100
AcDbSymbolTableRecord
100
AcDbLayerTableRecord
2
81
70
0
62
-3
6
Continuous
290
1
370
-3
390
0
0
LAYER
5
75
100
AcDbSymbolTableRecord
100
AcDbLayerTableRecord
2
1
70
0
62
4
6
Continuous
290
1
370
-3
390
0
0
LAYER
5
99
100
AcDbSymbolTableRecord
100
AcDbLayerTableRecord
2
4
70
0
62
-2
6
CENTER
290
1
370
-3
390
0
0
LAYER
5
A9
100
AcDbSymbolTableRecord
100
AcDbLayerTableRecord
2
2
70
0
62
7
6
Continuous
290
1
370
-3
390
0
0
LAYER
5
F3
100
AcDbSymbolTableRecord
100
AcDbLayerTableRecord
2
Defpoints
70
0
62
7
6
Continuous
290
0
370
-3
390
0
0
LAYER
5
1ce
100
AcDbSymbolTableRecord
100
AcDbLayerTableRecord
2
SK1
70
0
62
4
6
Continuous
290
1
370
-3
390
0
0
LAYER
5
1cf
100
AcDbSymbolTableRecord
100
AcDbLayerTableRecord
2
SK4
70
0
62
2
6
CENTER
290
1
370
-3
390
0
0
LAYER
5
1d0
100
AcDbSymbolTableRecord
100
AcDbLayerTableRecord
2
SK2
70
0
62
7
6
Continuous
290
1
370
-3
390
0
0
LAYER
5
1d1
100
AcDbSymbolTableRecord
100
AcDbLayerTableRecord
2
SK6
70
0
62
5
6
Continuous
290
1
370
-3
390
0
0
ENDTAB
0
TABLE
2
STYLE
5
1e5
100
AcDbSymbolTable
0
STYLE
5
11
100
AcDbSymbolTableRecord
100
AcDbTextStyleTableRecord
2
Standard
3
txt
70
0
71
0
40
0
41
1
42
0
50
0
0
STYLE
5
CF
100
AcDbSymbolTableRecord
100
AcDbTextStyleTableRecord
2
iso_b_vert
3
simplex.shx
70
0
71
0
40
0
41
1
42
0
50
0
0
STYLE
5
D0
100
AcDbSymbolTableRecord
100
AcDbTextStyleTableRecord
2
DWGDirectTextStyle
3
simplex
70
0
71
0
40
0
41
1
42
0
50
0
0
ENDTAB
0
TABLE
2
DIMSTYLE
5
1e6
100
AcDbSymbolTable
100
AcDbDimStyleTable
0
DIMSTYLE
105
27
100
AcDbSymbolTableRecord
100
AcDbDimStyleTableRecord
2
Standard
70
0
3
<>
41
0.18
42
0.0625
44
0.18
140
0.18
147
0.09
73
0
74
0
77
1
271
2
275
0
278
52
280
0
340
11
0
ENDTAB
0
TABLE
2
VIEW
5
1e7
100
AcDbSymbolTable
0
ENDTAB
0
TABLE
2
UCS
5
1e8
100
AcDbSymbolTable
0
ENDTAB
0
TABLE
2
APPID
5
1e9
100
AcDbSymbolTable
0
APPID
5
12
100
AcDbSymbolTableRecord
100
AcDbRegAppTableRecord
2
ACAD
70
0
0
APPID
5
EF
100
AcDbSymbolTableRecord
100
AcDbRegAppTableRecord
2
ACAD_DSTYLE_DIMBREAK
70
0
0
APPID
5
18D
100
AcDbSymbolTableRecord
100
AcDbRegAppTableRecord
2
ACAD_DSTYLE_DIM_LINETYPE
70
0
0
APPID
5
18E
100
AcDbSymbolTableRecord
100
AcDbRegAppTableRecord
2
ACAD_DSTYLE_DIM_EXT1_LINETYPE
70
0
0
APPID
5
18F
100
AcDbSymbolTableRecord
100
AcDbRegAppTableRecord
2
ACAD_DSTYLE_DIM_EXT2_LINETYPE
70
0
0
APPID
5
1CA
100
AcDbSymbolTableRecord
100
AcDbRegAppTableRecord
2
ACAD_MLEADERVER
70
0
0
ENDTAB
0
TABLE
2
BLOCK_RECORD
5
1ea
100
AcDbSymbolTable
0
BLOCK_RECORD
5
1F
100
AcDbSymbolTableRecord
100
AcDbBlockTableRecord
2
*Model_Space
340
0
70
0
0
BLOCK_RECORD
5
1B
100
AcDbSymbolTableRecord
100
AcDbBlockTableRecord
2
*Paper_Space
340
0
70
0
0
BLOCK_RECORD
5
23
100
AcDbSymbolTableRecord
100
AcDbBlockTableRecord
2
*Paper_Space0
340
0
70
0
0
BLOCK_RECORD
5
F4
100
AcDbSymbolTableRecord
100
AcDbBlockTableRecord
2
*D1
340
0
70
0
0
BLOCK_RECORD
5
100
100
AcDbSymbolTableRecord
100
AcDbBlockTableRecord
2
_U0
340
0
70
0
0
BLOCK_RECORD
5
10C
100
AcDbSymbolTableRecord
100
AcDbBlockTableRecord
2
*D3
340
0
70
0
0
BLOCK_RECORD
5
11A
100
AcDbSymbolTableRecord
100
AcDbBlockTableRecord
2
_U1
340
0
70
0
0
BLOCK_RECORD
5
126
100
AcDbSymbolTableRecord
100
AcDbBlockTableRecord
2
*D5
340
0
70
0
0
BLOCK_RECORD
5
134
100
AcDbSymbolTableRecord
100
AcDbBlockTableRecord
2
_U2
340
0
70
0
0
BLOCK_RECORD
5
140
100
AcDbSymbolTableRecord
100
AcDbBlockTableRecord
2
*D7
340
0
70
0
0
BLOCK_RECORD
5
14C
100
AcDbSymbolTableRecord
100
AcDbBlockTableRecord
2
_U3
340
0
70
0
0
BLOCK_RECORD
5
158
100
AcDbSymbolTableRecord
100
AcDbBlockTableRecord
2
*D9
340
0
70
0
0
BLOCK_RECORD
5
166
100
AcDbSymbolTableRecord
100
AcDbBlockTableRecord
2
_U4
340
0
70
0
0
ENDTAB
0
ENDSEC
0
SECTION
2
BLOCKS
0
BLOCK
5
20
100
AcDbEntity
8
0
100
AcDbBlockBegin
2
*Model_Space
70
0
10
0
20
0
30
0
3
*Model_Space
0
ENDBLK
5
21
100
AcDbEntity
8
0
100
AcDbBlockEnd
0
BLOCK
5
1C
100
AcDbEntity
8
0
100
AcDbBlockBegin
2
*Paper_Space
70
0
10
0
20
0
30
0
3
*Paper_Space
0
ENDBLK
5
1D
100
AcDbEntity
8
0
100
AcDbBlockEnd
0
BLOCK
5
24
100
AcDbEntity
8
0
100
AcDbBlockBegin
2
*Paper_Space0
70
0
10
0
20
0
30
0
3
*Paper_Space0
0
ENDBLK
5
25
100
AcDbEntity
8
0
100
AcDbBlockEnd
0
BLOCK
5
F5
100
AcDbEntity
8
0
100
AcDbBlockBegin
2
*D1
70
1
10
0
20
0
30
0
3
*D1
0
LINE
5
F7
100
AcDbEntity
8
0
62
256
6
ByLayer
370
-2
48
1
60
0
100
AcDbLine
10
-31.5757
20
-0.0875
30
0
11
-31.5757
21
-37.85
31
0
39
0
210
0
220
0
230
1
0
LINE
5
F8
100
AcDbEntity
8
0
62
256
6
ByLayer
370
-2
48
1
60
0
100
AcDbLine
10
6.4243
20
-1.3325
30
0
11
6.4243
21
-37.85
31
0
39
0
210
0
220
0
230
1
0
LINE
5
F9
100
AcDbEntity
8
0
62
256
6
ByLayer
370
-2
48
1
60
0
100
AcDbLine
10
-28.0757
20
-35.85
30
0
11
2.9243
21
-35.85
31
0
39
0
210
0
220
0
230
1
0
SOLID
5
FA
100
AcDbEntity
8
0
62
256
6
ByLayer
370
-1
48
1
60
0
100
AcDbTrace
10
-28.0757
20
-35.266667
30
0
11
-28.0757
21
-36.433333
31
0
12
-31.5757
22
-35.85
32
0
13
-31.5757
23
-35.85
33
0
39
0
210
0
220
0
230
1
0
SOLID
5
FB
100
AcDbEntity
8
0
62
256
6
ByLayer
370
-1
48
1
60
0
100
AcDbTrace
10
2.9243
20
-36.433333
30
0
11
2.9243
21
-35.266667
31
0
12
6.4243
22
-35.85
32
0
13
6.4243
23
-35.85
33
0
39
0
210
0
220
0
230
1
0
MTEXT
5
FC
100
AcDbEntity
8
0
62
256
6
ByLayer
370
18
48
1
60
0
100
AcDbMText
10
-12.5757
20
-29.85
30
0
210
0
220
0
230
1
1
\A1;38
40
3
41
0
44
1
50
0
71
5
72
5
7
iso_b_vert
0
POINT
5
FD
100
AcDbEntity
8
Defpoints
62
0
6
ByLayer
370
-1
48
1
60
0
100
AcDbPoint
10
-31.5757
20
1.5
30
0
39
0
210
0
220
0
230
1
50
360
0
POINT
5
FE
100
AcDbEntity
8
Defpoints
62
0
6
ByLayer
370
-1
48
1
60
0
100
AcDbPoint
10
6.4243
20
0.255
30
0
39
0
210
0
220
0
230
1
50
360
0
POINT
5
FF
100
AcDbEntity
8
Defpoints
62
0
6
ByLayer
370
-1
48
1
60
0
100
AcDbPoint
10
6.4243
20
-35.85
30
0
39
0
210
0
220
0
230
1
50
360
0
ENDBLK
5
F6
100
AcDbEntity
8
0
100
AcDbBlockEnd
0
BLOCK
5
107
100
AcDbEntity
8
0
100
AcDbBlockBegin
2
_U0
70
0
10
0
20
0
30
0
3
_U0
0
MTEXT
5
101
100
AcDbEntity
8
SK2
62
256
6
ByLayer
370
18
48
1
60
0
100
AcDbMText
10
-17.05807
20
-34.964886
30
0
210
0
220
0
230
1
1
\W0.7468;38.00
40
3
41
0
44
1.084337
50
0
71
7
72
5
7
iso_b_vert
0
LINE
5
102
100
AcDbEntity
8
SK2
62
256
6
ByLayer
370
13
48
1
60
0
100
AcDbLine
10
-31.5757
20
-0.0875
30
0
11
-31.5757
21
-37.85
31
0
39
0
210
0
220
0
230
1
0
LINE
5
103
100
AcDbEntity
8
SK2
62
256
6
ByLayer
370
13
48
1
60
0
100
AcDbLine
10
6.4243
20
-1.3325
30
0
11
6.4243
21
-37.85
31
0
39
0
210
0
220
0
230
1
0
LINE
5
104
100
AcDbEntity
8
SK2
62
256
6
ByLayer
370
13
48
1
60
0
100
AcDbLine
10
-31.5757
20
-35.85
30
0
11
6.4243
21
-35.85
31
0
39
0
210
0
220
0
230
1
0
SOLID
5
105
100
AcDbEntity
8
SK2
62
256
6
ByLayer
370
18
48
1
60
0
100
AcDbTrace
10
-31.5757
20
-35.85
30
0
11
-28.075702
21
-35.389216
31
0
12
-28.075698
22
-36.310784
32
0
13
-28.075698
23
-36.310784
33
0
39
0
210
0
220
0
230
1
0
SOLID
5
106
100
AcDbEntity
8
SK2
62
256
6
ByLayer
370
18
48
1
60
0
100
AcDbTrace
10
6.4243
20
-35.85
30
0
11
2.924302
21
-36.310784
31
0
12
2.924298
22
-35.389216
32
0
13
2.924298
23
-35.389216
33
0
39
0
210
0
220
0
230
1
0
ENDBLK
5
108
100
AcDbEntity
8
0
100
AcDbBlockEnd
0
BLOCK
5
10D
100
AcDbEntity
8
0
100
AcDbBlockBegin
2
*D3
70
1
10
0
20
0
30
0
3
*D3
0
LINE
5
10F
100
AcDbEntity
8
0
62
256
6
ByLayer
370
-2
48
1
60
0
100
AcDbLine
10
6.4243
20
-1.3325
30
0
11
6.4243
21
-23.755
31
0
39
0
210
0
220
0
230
1
0
LINE
5
110
100
AcDbEntity
8
0
62
256
6
ByLayer
370
-2
48
1
60
0
100
AcDbLine
10
3.9893
20
-1.5875
30
0
11
3.9893
21
-23.755
31
0
39
0
210
0
220
0
230
1
0
LINE
5
111
100
AcDbEntity
8
0
62
256
6
ByLayer
370
-2
48
1
60
0
100
AcDbLine
10
6.4243
20
-21.755
30
0
11
31.710014
21
-21.755
31
0
39
0
210
0
220
0
230
1
0
LINE
5
112
100
AcDbEntity
8
0
62
256
6
ByLayer
370
-2
48
1
60
0
100
AcDbLine
10
9.9243
20
-21.755
30
0
11
13.4243
21
-21.755
31
0
39
0
210
0
220
0
230
1
0
LINE
5
113
100
AcDbEntity
8
0
62
256
6
ByLayer
370
-2
48
1
60
0
100
AcDbLine
10
0.4893
20
-21.755
30
0
11
-3.0107
21
-21.755
31
0
39
0
210
0
220
0
230
1
0
SOLID
5
114
100
AcDbEntity
8
0
62
256
6
ByLayer
370
-1
48
1
60
0
100
AcDbTrace
10
9.9243
20
-21.171667
30
0
11
9.9243
21
-22.338333
31
0
12
6.4243
22
-21.755
32
0
13
6.4243
23
-21.755
33
0
39
0
210
0
220
0
230
1
0
SOLID
5
115
100
AcDbEntity
8
0
62
256
6
ByLayer
370
-1
48
1
60
0
100
AcDbTrace
10
0.4893
20
-22.338333
30
0
11
0.4893
21
-21.171667
31
0
12
3.9893
22
-21.755
32
0
13
3.9893
23
-21.755
33
0
39
0
210
0
220
0
230
1
0
MTEXT
5
116
100
AcDbEntity
8
0
62
256
6
ByLayer
370
18
48
1
60
0
100
AcDbMText
10
22.567157
20
-15.755
30
0
210
0
220
0
230
1
1
\A1;2.44
40
3
41
0
44
1
50
0
71
5
72
5
7
iso_b_vert
0
POINT
5
117
100
AcDbEntity
8
Defpoints
62
0
6
ByLayer
370
-1
48
1
60
0
100
AcDbPoint
10
6.4243
20
0.255
30
0
39
0
210
0
220
0
230
1
50
360
0
POINT
5
118
100
AcDbEntity
8
Defpoints
62
0
6
ByLayer
370
-1
48
1
60
0
100
AcDbPoint
10
3.9893
20
0
30
0
39
0
210
0
220
0
230
1
50
360
0
POINT
5
119
100
AcDbEntity
8
Defpoints
62
0
6
ByLayer
370
-1
48
1
60
0
100
AcDbPoint
10
3.9893
20
-21.755
30
0
39
0
210
0
220
0
230
1
50
360
0
ENDBLK
5
10E
100
AcDbEntity
8
0
100
AcDbBlockEnd
0
BLOCK
5
121
100
AcDbEntity
8
0
100
AcDbBlockBegin
2
_U1
70
0
10
0
20
0
30
0
3
_U1
0
MTEXT
5
11B
100
AcDbEntity
8
SK2
62
256
6
ByLayer
370
18
48
1
60
0
100
AcDbMText
10
10.5833
20
-20.869886
30
0
210
0
220
0
230
1
1
\W0.7505;(2.44)
40
3
41
0
44
1.084337
50
0
71
7
72
5
7
iso_b_vert
0
LINE
5
11C
100
AcDbEntity
8
SK2
62
256
6
ByLayer
370
13
48
1
60
0
100
AcDbLine
10
6.4243
20
-1.3325
30
0
11
6.4243
21
-23.755
31
0
39
0
210
0
220
0
230
1
0
LINE
5
11D
100
AcDbEntity
8
SK2
62
256
6
ByLayer
370
13
48
1
60
0
100
AcDbLine
10
3.9893
20
-1.5875
30
0
11
3.9893
21
-23.755
31
0
39
0
210
0
220
0
230
1
0
LINE
5
11E
100
AcDbEntity
8
SK2
62
256
6
ByLayer
370
13
48
1
60
0
100
AcDbLine
10
-3.5107
20
-21.755
30
0
11
20.52784
21
-21.755
31
0
39
0
210
0
220
0
230
1
0
SOLID
5
11F
100
AcDbEntity
8
SK2
62
256
6
ByLayer
370
18
48
1
60
0
100
AcDbTrace
10
6.4243
20
-21.755
30
0
11
9.924298
21
-21.294216
31
0
12
9.924302
22
-22.215784
32
0
13
9.924302
23
-22.215784
33
0
39
0
210
0
220
0
230
1
0
SOLID
5
120
100
AcDbEntity
8
SK2
62
256
6
ByLayer
370
18
48
1
60
0
100
AcDbTrace
10
3.9893
20
-21.755
30
0
11
0.489302
21
-22.215784
31
0
12
0.489298
22
-21.294216
32
0
13
0.489298
23
-21.294216
33
0
39
0
210
0
220
0
230
1
0
ENDBLK
5
122
100
AcDbEntity
8
0
100
AcDbBlockEnd
0
BLOCK
5
127
100
AcDbEntity
8
0
100
AcDbBlockBegin
2
*D5
70
1
10
0
20
0
30
0
3
*D5
0
LINE
5
129
100
AcDbEntity
8
0
62
256
6
ByLayer
370
-2
48
1
60
0
100
AcDbLine
10
6.4243
20
-1.3325
30
0
11
6.4243
21
-31.755
31
0
39
0
210
0
220
0
230
1
0
LINE
5
12A
100
AcDbEntity
8
0
62
256
6
ByLayer
370
-2
48
1
60
0
100
AcDbLine
10
3.2243
20
-1.5875
30
0
11
3.2243
21
-31.755
31
0
39
0
210
0
220
0
230
1
0
LINE
5
12B
100
AcDbEntity
8
0
62
256
6
ByLayer
370
-2
48
1
60
0
100
AcDbLine
10
6.4243
20
-29.755
30
0
11
28.710014
21
-29.755
31
0
39
0
210
0
220
0
230
1
0
LINE
5
12C
100
AcDbEntity
8
0
62
256
6
ByLayer
370
-2
48
1
60
0
100
AcDbLine
10
9.9243
20
-29.755
30
0
11
13.4243
21
-29.755
31
0
39
0
210
0
220
0
230
1
0
LINE
5
12D
100
AcDbEntity
8
0
62
256
6
ByLayer
370
-2
48
1
60
0
100
AcDbLine
10
-0.2757
20
-29.755
30
0
11
-3.7757
21
-29.755
31
0
39
0
210
0
220
0
230
1
0
SOLID
5
12E
100
AcDbEntity
8
0
62
256
6
ByLayer
370
-1
48
1
60
0
100
AcDbTrace
10
9.9243
20
-29.171667
30
0
11
9.9243
21
-30.338333
31
0
12
6.4243
22
-29.755
32
0
13
6.4243
23
-29.755
33
0
39
0
210
0
220
0
230
1
0
SOLID
5
12F
100
AcDbEntity
8
0
62
256
6
ByLayer
370
-1
48
1
60
0
100
AcDbTrace
10
-0.2757
20
-30.338333
30
0
11
-0.2757
21
-29.171667
31
0
12
3.2243
22
-29.755
32
0
13
3.2243
23
-29.755
33
0
39
0
210
0
220
0
230
1
0
MTEXT
5
130
100
AcDbEntity
8
0
62
256
6
ByLayer
370
18
48
1
60
0
100
AcDbMText
10
21.067157
20
-23.755
30
0
210
0
220
0
230
1
1
\A1;3.2
40
3
41
0
44
1
50
0
71
5
72
5
7
iso_b_vert
0
POINT
5
131
100
AcDbEntity
8
Defpoints
62
0
6
ByLayer
370
-1
48
1
60
0
100
AcDbPoint
10
6.4243
20
0.255
30
0
39
0
210
0
220
0
230
1
50
360
0
POINT
5
132
100
AcDbEntity
8
Defpoints
62
0
6
ByLayer
370
-1
48
1
60
0
100
AcDbPoint
10
3.2243
20
0
30
0
39
0
210
0
220
0
230
1
50
360
0
POINT
5
133
100
AcDbEntity
8
Defpoints
62
0
6
ByLayer
370
-1
48
1
60
0
100
AcDbPoint
10
3.2243
20
-29.755
30
0
39
0
210
0
220
0
230
1
50
360
0
ENDBLK
5
128
100
AcDbEntity
8
0
100
AcDbBlockEnd
0
BLOCK
5
13B
100
AcDbEntity
8
0
100
AcDbBlockBegin
2
_U2
70
0
10
0
20
0
30
0
3
_U2
0
MTEXT
5
135
100
AcDbEntity
8
SK2
62
256
6
ByLayer
370
18
48
1
60
0
100
AcDbMText
10
9.5833
20
-28.869886
30
0
210
0
220
0
230
1
1
\W0.7346;3.20
40
3
41
0
44
1.084337
50
0
71
7
72
5
7
iso_b_vert
0
LINE
5
136
100
AcDbEntity
8
SK2
62
256
6
ByLayer
370
13
48
1
60
0
100
AcDbLine
10
6.4243
20
-1.3325
30
0
11
6.4243
21
-31.755
31
0
39
0
210
0
220
0
230
1
0
LINE
5
137
100
AcDbEntity
8
SK2
62
256
6
ByLayer
370
13
48
1
60
0
100
AcDbLine
10
3.2243
20
-1.5875
30
0
11
3.2243
21
-31.755
31
0
39
0
210
0
220
0
230
1
0
LINE
5
138
100
AcDbEntity
8
SK2
62
256
6
ByLayer
370
13
48
1
60
0
100
AcDbLine
10
-4.2757
20
-29.755
30
0
11
16.465213
21
-29.755
31
0
39
0
210
0
220
0
230
1
0
SOLID
5
139
100
AcDbEntity
8
SK2
62
256
6
ByLayer
370
18
48
1
60
0
100
AcDbTrace
10
6.4243
20
-29.755
30
0
11
9.924298
21
-29.294216
31
0
12
9.924302
22
-30.215784
32
0
13
9.924302
23
-30.215784
33
0
39
0
210
0
220
0
230
1
0
SOLID
5
13A
100
AcDbEntity
8
SK2
62
256
6
ByLayer
370
18
48
1
60
0
100
AcDbTrace
10
3.2243
20
-29.755
30
0
11
-0.275698
21
-30.215784
31
0
12
-0.275702
22
-29.294216
32
0
13
-0.275702
23
-29.294216
33
0
39
0
210
0
220
0
230
1
0
ENDBLK
5
13C
100
AcDbEntity
8
0
100
AcDbBlockEnd
0
BLOCK
5
141
100
AcDbEntity
8
0
100
AcDbBlockBegin
2
*D7
70
1
10
0
20
0
30
0
3
*D7
0
LINE
5
143
100
AcDbEntity
8
0
62
256
6
ByLayer
370
-2
48
1
60
0
100
AcDbLine
10
-31.5757
20
1.5875
30
0
11
-31.5757
21
13.35
31
0
39
0
210
0
220
0
230
1
0
LINE
5
144
100
AcDbEntity
8
0
62
256
6
ByLayer
370
-2
48
1
60
0
100
AcDbLine
10
0
20
1.5875
30
0
11
0
21
13.35
31
0
39
0
210
0
220
0
230
1
0
LINE
5
145
100
AcDbEntity
8
0
62
256
6
ByLayer
370
-2
48
1
60
0
100
AcDbLine
10
-28.0757
20
11.35
30
0
11
-3.5
21
11.35
31
0
39
0
210
0
220
0
230
1
0
SOLID
5
146
100
AcDbEntity
8
0
62
256
6
ByLayer
370
-1
48
1
60
0
100
AcDbTrace
10
-28.0757
20
11.933333
30
0
11
-28.0757
21
10.766667
31
0
12
-31.5757
22
11.35
32
0
13
-31.5757
23
11.35
33
0
39
0
210
0
220
0
230
1
0
SOLID
5
147
100
AcDbEntity
8
0
62
256
6
ByLayer
370
-1
48
1
60
0
100
AcDbTrace
10
-3.5
20
10.766667
30
0
11
-3.5
21
11.933333
31
0
12
0
22
11.35
32
0
13
0
23
11.35
33
0
39
0
210
0
220
0
230
1
0
MTEXT
5
148
100
AcDbEntity
8
0
62
256
6
ByLayer
370
18
48
1
60
0
100
AcDbMText
10
-15.78785
20
17.35
30
0
210
0
220
0
230
1
1
\A1;31.58
40
3
41
0
44
1
50
0
71
5
72
5
7
iso_b_vert
0
POINT
5
149
100
AcDbEntity
8
Defpoints
62
0
6
ByLayer
370
-1
48
1
60
0
100
AcDbPoint
10
-31.5757
20
0
30
0
39
0
210
0
220
0
230
1
50
360
0
POINT
5
14A
100
AcDbEntity
8
Defpoints
62
0
6
ByLayer
370
-1
48
1
60
0
100
AcDbPoint
10
0
20
0
30
0
39
0
210
0
220
0
230
1
50
360
0
POINT
5
14B
100
AcDbEntity
8
Defpoints
62
0
6
ByLayer
370
-1
48
1
60
0
100
AcDbPoint
10
0
20
11.35
30
0
39
0
210
0
220
0
230
1
50
360
0
ENDBLK
5
142
100
AcDbEntity
8
0
100
AcDbBlockEnd
0
BLOCK
5
153
100
AcDbEntity
8
0
100
AcDbBlockBegin
2
_U3
70
0
10
0
20
0
30
0
3
_U3
0
MTEXT
5
14D
100
AcDbEntity
8
SK2
62
256
6
ByLayer
370
18
48
1
60
0
100
AcDbMText
10
-19.895278
20
12.235114
30
0
210
0
220
0
230
1
1
\W0.6864;31.58
40
3
41
0
44
1.084337
50
0
71
7
72
5
7
iso_b_vert
0
LINE
5
14E
100
AcDbEntity
8
SK2
62
256
6
ByLayer
370
13
48
1
60
0
100
AcDbLine
10
-31.5757
20
1.5875
30
0
11
-31.5757
21
13.35
31
0
39
0
210
0
220
0
230
1
0
LINE
5
14F
100
AcDbEntity
8
SK2
62
256
6
ByLayer
370
13
48
1
60
0
100
AcDbLine
10
0
20
1.5875
30
0
11
0
21
13.35
31
0
39
0
210
0
220
0
230
1
0
LINE
5
150
100
AcDbEntity
8
SK2
62
256
6
ByLayer
370
13
48
1
60
0
100
AcDbLine
10
-31.5757
20
11.35
30
0
11
0
21
11.35
31
0
39
0
210
0
220
0
230
1
0
SOLID
5
151
100
AcDbEntity
8
SK2
62
256
6
ByLayer
370
18
48
1
60
0
100
AcDbTrace
10
-31.5757
20
11.35
30
0
11
-28.075702
21
11.810784
31
0
12
-28.075698
22
10.889216
32
0
13
-28.075698
23
10.889216
33
0
39
0
210
0
220
0
230
1
0
SOLID
5
152
100
AcDbEntity
8
SK2
62
256
6
ByLayer
370
18
48
1
60
0
100
AcDbTrace
10
0
20
11.35
30
0
11
-3.499998
21
10.889216
31
0
12
-3.500002
22
11.810784
32
0
13
-3.500002
23
11.810784
33
0
39
0
210
0
220
0
230
1
0
ENDBLK
5
154
100
AcDbEntity
8
0
100
AcDbBlockEnd
0
BLOCK
5
159
100
AcDbEntity
8
0
100
AcDbBlockBegin
2
*D9
70
1
10
0
20
0
30
0
3
*D9
0
LINE
5
15B
100
AcDbEntity
8
0
62
256
6
ByLayer
370
-2
48
1
60
0
100
AcDbLine
10
6.4243
20
1.8425
30
0
11
6.4243
21
7
31
0
39
0
210
0
220
0
230
1
0
LINE
5
15C
100
AcDbEntity
8
0
62
256
6
ByLayer
370
-2
48
1
60
0
100
AcDbLine
10
0
20
1.5875
30
0
11
0
21
7
31
0
39
0
210
0
220
0
230
1
0
LINE
5
15D
100
AcDbEntity
8
0
62
256
6
ByLayer
370
-2
48
1
60
0
100
AcDbLine
10
0
20
5
30
0
11
-25
21
5
31
0
39
0
210
0
220
0
230
1
0
LINE
5
15E
100
AcDbEntity
8
0
62
256
6
ByLayer
370
-2
48
1
60
0
100
AcDbLine
10
9.9243
20
5
30
0
11
13.4243
21
5
31
0
39
0
210
0
220
0
230
1
0
LINE
5
15F
100
AcDbEntity
8
0
62
256
6
ByLayer
370
-2
48
1
60
0
100
AcDbLine
10
-3.5
20
5
30
0
11
-7
21
5
31
0
39
0
210
0
220
0
230
1
0
SOLID
5
160
100
AcDbEntity
8
0
62
256
6
ByLayer
370
-1
48
1
60
0
100
AcDbTrace
10
9.9243
20
5.583333
30
0
11
9.9243
21
4.416667
31
0
12
6.4243
22
5
32
0
13
6.4243
23
5
33
0
39
0
210
0
220
0
230
1
0
SOLID
5
161
100
AcDbEntity
8
0
62
256
6
ByLayer
370
-1
48
1
60
0
100
AcDbTrace
10
-3.5
20
4.416667
30
0
11
-3.5
21
5.583333
31
0
12
0
22
5
32
0
13
0
23
5
33
0
39
0
210
0
220
0
230
1
0
MTEXT
5
162
100
AcDbEntity
8
0
62
256
6
ByLayer
370
18
48
1
60
0
100
AcDbMText
10
-16
20
11
30
0
210
0
220
0
230
1
1
\A1;6.42
40
3
41
0
44
1
50
0
71
5
72
5
7
iso_b_vert
0
POINT
5
163
100
AcDbEntity
8
Defpoints
62
0
6
ByLayer
370
-1
48
1
60
0
100
AcDbPoint
10
6.4243
20
0.255
30
0
39
0
210
0
220
0
230
1
50
360
0
POINT
5
164
100
AcDbEntity
8
Defpoints
62
0
6
ByLayer
370
-1
48
1
60
0
100
AcDbPoint
10
0
20
0
30
0
39
0
210
0
220
0
230
1
50
360
0
POINT
5
165
100
AcDbEntity
8
Defpoints
62
0
6
ByLayer
370
-1
48
1
60
0
100
AcDbPoint
10
0
20
5
30
0
39
0
210
0
220
0
230
1
50
360
0
ENDBLK
5
15A
100
AcDbEntity
8
0
100
AcDbBlockEnd
0
BLOCK
5
16D
100
AcDbEntity
8
0
100
AcDbBlockBegin
2
_U4
70
0
10
0
20
0
30
0
3
_U4
0
MTEXT
5
167
100
AcDbEntity
8
2
62
256
6
ByLayer
370
18
48
1
60
0
100
AcDbMText
10
-9.841
20
5.885114
30
0
210
0
220
0
230
1
1
\W0.7640;6.42
40
3
41
0
44
1.084337
50
0
71
7
72
5
7
iso_b_vert
0
LINE
5
168
100
AcDbEntity
8
2
62
256
6
ByLayer
370
13
48
1
60
0
100
AcDbLine
10
6.4243
20
1.8425
30
0
11
6.4243
21
7
31
0
39
0
210
0
220
0
230
1
0
LINE
5
169
100
AcDbEntity
8
2
62
256
6
ByLayer
370
13
48
1
60
0
100
AcDbLine
10
0
20
1.5875
30
0
11
0
21
7
31
0
39
0
210
0
220
0
230
1
0
LINE
5
16A
100
AcDbEntity
8
2
62
256
6
ByLayer
370
13
48
1
60
0
100
AcDbLine
10
-10
20
5
30
0
11
13.9243
21
5
31
0
39
0
210
0
220
0
230
1
0
SOLID
5
16B
100
AcDbEntity
8
2
62
256
6
ByLayer
370
18
48
1
60
0
100
AcDbTrace
10
6.4243
20
5
30
0
11
9.924298
21
5.460784
31
0
12
9.924302
22
4.539216
32
0
13
9.924302
23
4.539216
33
0
39
0
210
0
220
0
230
1
0
SOLID
5
16C
100
AcDbEntity
8
2
62
256
6
ByLayer
370
18
48
1
60
0
100
AcDbTrace
10
0
20
5
30
0
11
-3.499998
21
4.539216
31
0
12
-3.500002
22
5.460784
32
0
13
-3.500002
23
5.460784
33
0
39
0
210
0
220
0
230
1
0
ENDBLK
5
16E
100
AcDbEntity
8
0
100
AcDbBlockEnd
0
ENDSEC
0
SECTION
2
ENTITIES
0
ARC
5
BA
100
AcDbEntity
8
1
62
256
6
ByLayer
370
18
48
1
60
0
100
AcDbCircle
39
0
10
2.424344
20
-1.255
30
0
40
0.999999999999997
210
0
220
0
230
1
100
AcDbArc
50
90
51
120
0
ARC
5
BB
100
AcDbEntity
8
1
62
256
6
ByLayer
370
18
48
1
60
0
100
AcDbCircle
39
0
10
2.424344
20
1.255
30
0
40
0.999999999999997
210
0
220
0
230
1
100
AcDbArc
50
240
51
270
0
ARC
5
BC
100
AcDbEntity
8
SK2
62
256
6
ByLayer
370
13
48
1
60
0
100
AcDbCircle
39
0
10
6.4243
20
0
30
0
40
16.35
210
0
220
0
230
1
100
AcDbArc
50
10.57289
51
65
0
ARC
5
BD
100
AcDbEntity
8
SK2
62
256
6
ByLayer
370
13
48
1
60
0
100
AcDbCircle
39
0
10
6.4243
20
0
30
0
40
16.35
210
0
220
0
230
1
100
AcDbArc
50
295
51
349.42711
0
POINT
5
70
100
AcDbEntity
8
80
62
256
6
ByLayer
370
18
48
1
60
0
100
AcDbPoint
10
0
20
0
30
0
39
0
210
0
220
0
230
1
50
360
0
POINT
5
72
100
AcDbEntity
8
81
62
256
6
ByLayer
370
18
48
1
60
0
100
AcDbPoint
10
6.4243
20
0
30
0
39
0
210
0
220
0
230
1
50
360
0
POINT
5
74
100
AcDbEntity
8
1
62
256
6
ByLayer
370
18
48
1
60
1
100
AcDbPoint
10
-31.5757
20
1.5
30
0
39
0
210
0
220
0
230
1
50
360
0
POINT
5
76
100
AcDbEntity
8
1
62
256
6
ByLayer
370
18
48
1
60
1
100
AcDbPoint
10
6.4243
20
0.255
30
0
39
0
210
0
220
0
230
1
50
360
0
POINT
5
77
100
AcDbEntity
8
1
62
256
6
ByLayer
370
18
48
1
60
1
100
AcDbPoint
10
6.4243
20
0.255
30
0
39
0
210
0
220
0
230
1
50
360
0
POINT
5
78
100
AcDbEntity
8
1
62
256
6
ByLayer
370
18
48
1
60
1
100
AcDbPoint
10
3.9893
20
0
30
0
39
0
210
0
220
0
230
1
50
360
0
POINT
5
79
100
AcDbEntity
8
1
62
256
6
ByLayer
370
18
48
1
60
1
100
AcDbPoint
10
6.4243
20
0.255
30
0
39
0
210
0
220
0
230
1
50
360
0
POINT
5
7A
100
AcDbEntity
8
1
62
256
6
ByLayer
370
18
48
1
60
1
100
AcDbPoint
10
3.2243
20
0
30
0
39
0
210
0
220
0
230
1
50
360
0
POINT
5
7B
100
AcDbEntity
8
1
62
256
6
ByLayer
370
18
48
1
60
1
100
AcDbPoint
10
-31.5757
20
0
30
0
39
0
210
0
220
0
230
1
50
360
0
POINT
5
7C
100
AcDbEntity
8
1
62
256
6
ByLayer
370
18
48
1
60
1
100
AcDbPoint
10
0
20
0
30
0
39
0
210
0
220
0
230
1
50
360
0
POINT
5
7D
100
AcDbEntity
8
1
62
256
6
ByLayer
370
18
48
1
60
1
100
AcDbPoint
10
6.4243
20
0.255
30
0
39
0
210
0
220
0
230
1
50
360
0
POINT
5
7E
100
AcDbEntity
8
1
62
256
6
ByLayer
370
18
48
1
60
1
100
AcDbPoint
10
0
20
0
30
0
39
0
210
0
220
0
230
1
50
360
0
SPLINE
5
BE
100
AcDbEntity
8
1
62
256
6
ByLayer
370
18
48
1
60
0
100
AcDbSpline
70
4
71
3
72
18
73
14
40
0
40
0
40
0
40
0
40
0.186207071874584
40
0.186207071874584
40
0.389655303905938
40
0.389655303905938
40
0.491379419921615
40
0.491379419921615
40
0.593103535937292
40
0.593103535937292
40
0.796551767968646
40
0.796551767968646
40
1
40
1
40
1
40
1
41
1
10
3.24659672854347
20
-0.248416276476234
30
0
41
1
10
3.24247776523714
20
-0.250302067824947
30
0
41
1
10
3.23887035852573
20
-0.251827233658133
30
0
41
1
10
3.2325149220886
20
-0.254132973882292
30
0
41
1
10
3.22985674713314
20
-0.25484164180844
30
0
41
1
10
3.22695275697865
20
-0.255043940001229
30
0
41
1
10
3.22616307689938
20
-0.254965296537733
30
0
41
1
10
3.22499426706821
20
-0.25450383933304
30
0
41
1
10
3.22461215882961
20
-0.25412364041847
30
0
41
1
10
3.22405966488006
20
-0.252540768711896
30
0
41
1
10
3.22447944887639
20
-0.250897348296462
30
0
41
1
10
3.22691551695263
20
-0.246429295251858
30
0
41
1
10
3.22894073748361
20
-0.243605026868977
30
0
41
1
10
3.231696920818
20
-0.240306384325152
30
0
0
SPLINE
5
BF
100
AcDbEntity
8
1
62
256
6
ByLayer
370
18
48
1
60
0
100
AcDbSpline
70
4
71
3
72
14
73
10
40
0
40
0
40
0
40
0
40
0.25
40
0.25
40
0.5
40
0.5
40
0.75
40
0.75
40
1
40
1
40
1
40
1
41
1
10
3.23169692082175
20
-0.240306384317279
30
0
41
1
10
3.25452915111694
20
-0.238425846856558
30
0
41
1
10
3.27747513379828
20
-0.236907554769971
30
0
41
1
10
3.32358715570481
20
-0.23497124864241
30
0
41
1
10
3.34675321872774
20
-0.234552320398166
30
0
41
1
10
3.3933080828256
20
-0.234930627791499
30
0
41
1
10
3.41682179294298
20
-0.235739312162934
30
0
41
1
10
3.46313212807215
20
-0.238364717673136
30
0
41
1
10
3.48599766036796
20
-0.240175507265434
30
0
41
1
10
3.50857400000112
20
-0.242230762497911
30
0
0
SPLINE
5
C0
100
AcDbEntity
8
1
62
256
6
ByLayer
370
18
48
1
60
0
100
AcDbSpline
70
4
71
3
72
28
73
24
40
0
40
0
40
0
40
0
40
0.152531682909587
40
0.152531682909587
40
0.305063365819174
40
0.305063365819174
40
0.381329207273967
40
0.381329207273967
40
0.457595048728761
40
0.457595048728761
40
0.610126731638348
40
0.610126731638348
40
0.686392573093159
40
0.686392573093159
40
0.762658414547972
40
0.762658414547972
40
0.838924256002783
40
0.838924256002783
40
0.915190097457595
40
0.915190097457595
40
0.991455938912407
40
0.991455938912407
40
1
40
1
40
1
40
1
41
1
10
3.50857400000001
20
0.139779992427151
30
0
41
1
10
3.48914302581494
20
0.14451463116626
30
0
41
1
10
3.47010337409011
20
0.150045977420461
30
0
41
1
10
3.43280599768062
20
0.162400263125761
30
0
41
1
10
3.41462569299688
20
0.16920072041907
30
0
41
1
10
3.38824956365576
20
0.179973489622739
30
0
41
1
10
3.37957505350809
20
0.183673018779046
30
0
41
1
10
3.36269428498193
20
0.191130803317804
30
0
41
1
10
3.35447490542236
20
0.194893608344358
30
0
41
1
10
3.33049774349945
20
0.206173037634812
30
0
41
1
10
3.31541226553304
20
0.213688776568262
30
0
41
1
10
3.29431870683453
20
0.224422890514092
30
0
41
1
10
3.2875154143876
20
0.227924807892464
30
0
41
1
10
3.27462520967029
20
0.234551080712947
30
0
41
1
10
3.26860474117274
20
0.237640716698508
30
0
41
1
10
3.25747131895454
20
0.243239875454947
30
0
41
1
10
3.25235727585192
20
0.245750450232123
30
0
41
1
10
3.24315068361213
20
0.250016004487492
30
0
41
1
10
3.23915156885801
20
0.251725211085642
30
0
41
1
10
3.2325149220886
20
0.254132973882292
30
0
41
1
10
3.22985674713314
20
0.25484164180844
30
0
41
1
10
3.22770386438086
20
0.254991616246002
30
0
41
1
10
3.22749592707197
20
0.25499939177746
30
0
41
1
10
3.22729724501193
20
0.254999766273329
30
0
0
SPLINE
5
C1
100
AcDbEntity
8
1
62
256
6
ByLayer
370
18
48
1
60
0
100
AcDbSpline
70
4
71
3
72
14
73
10
40
0
40
0
40
0
40
0
40
0.25
40
0.25
40
0.5
40
0.5
40
0.75
40
0.75
40
1
40
1
40
1
40
1
41
1
10
3.23169692082175
20
0.240306384317279
30
0
41
1
10
3.25452915111694
20
0.238425846856558
30
0
41
1
10
3.27747513379828
20
0.236907554769971
30
0
41
1
10
3.32358715570481
20
0.23497124864241
30
0
41
1
10
3.34675321872774
20
0.234552320398166
30
0
41
1
10
3.39330808282563
20
0.234930627791499
30
0
41
1
10
3.41682179294298
20
0.235739312162934
30
0
41
1
10
3.46313212807212
20
0.238364717673136
30
0
41
1
10
3.48599766036796
20
0.240175507265434
30
0
41
1
10
3.50857400000112
20
0.242230762497911
30
0
0
SPLINE
5
C2
100
AcDbEntity
8
1
62
256
6
ByLayer
370
18
48
1
60
0
100
AcDbSpline
70
4
71
3
72
20
73
16
40
0
40
0
40
0
40
0
40
0.0647331379390565
40
0.0647331379390565
40
0.129466275878113
40
0.129466275878113
40
0.194199413817169
40
0.194199413817169
40
0.258932551756226
40
0.258932551756226
40
0.388398827634246
40
0.388398827634246
40
0.517865103512266
40
0.517865103512266
40
1
40
1
40
1
40
1
41
1
10
6.3053915471705
20
0.245483281364642
30
0
41
1
10
6.301287812379
20
0.245133257305781
30
0
41
1
10
6.29740781161164
20
0.244665485162301
30
0
41
1
10
6.28996431405196
20
0.243523000965098
30
0
41
1
10
6.28637204190207
20
0.242861859526329
30
0
41
1
10
6.27921437046157
20
0.241467109921388
30
0
41
1
10
6.27564013459428
20
0.240739182415581
30
0
41
1
10
6.26838268467887
20
0.239297500166202
30
0
41
1
10
6.26471815756489
20
0.238573746360657
30
0
41
1
10
6.25371119751307
20
0.236342674712944
30
0
41
1
10
6.24641075924606
20
0.234738040845002
30
0
41
1
10
6.2318676433151
20
0.231289389353009
30
0
41
1
10
6.22456989089685
20
0.229486069361769
30
0
41
1
10
6.19006760242016
20
0.220534554503189
30
0
41
1
10
6.16297529860239
20
0.212174810868817
30
0
41
1
10
6.13590195595756
20
0.202662875055068
30
0
0
SPLINE
5
C3
100
AcDbEntity
8
1
62
256
6
ByLayer
370
18
48
1
60
0
100
AcDbSpline
70
4
71
3
72
46
73
42
40
0
40
0
40
0
40
0
40
0.0277659367821416
40
0.0277659367821416
40
0.0849561757949746
40
0.0849561757949746
40
0.142146414807808
40
0.142146414807808
40
0.199336653820641
40
0.199336653820641
40
0.256526892833475
40
0.256526892833475
40
0.313717131846308
40
0.313717131846308
40
0.370907370859141
40
0.370907370859141
40
0.399502490365553
40
0.399502490365553
40
0.428097609871964
40
0.428097609871964
40
0.485287848884777
40
0.485287848884777
40
0.54247808789759
40
0.54247808789759
40
0.599668326910402
40
0.599668326910402
40
0.656858565923215
40
0.656858565923215
40
0.685453685429616
40
0.685453685429616
40
0.714048804936018
40
0.714048804936018
40
0.77123904394881
40
0.77123904394881
40
0.828429282961603
40
0.828429282961603
40
0.857024402467999
40
0.857024402467999
40
0.885619521974395
40
0.885619521974395
40
1
40
1
40
1
40
1
41
1
10
5.03614392396295
20
-0.254998019638322
30
0
41
1
10
5.02198285533328
20
-0.254997478894325
30
0
41
1
10
5.00781895915443
20
-0.254604996867187
30
0
41
1
10
4.96455755497087
20
-0.25220919223878
30
0
41
1
10
4.93549012017448
20
-0.248949232256223
30
0
41
1
10
4.87723203199167
20
-0.239165990394525
30
0
41
1
10
4.84806120841463
20
-0.232676815688194
30
0
41
1
10
4.78986067697858
20
-0.216806391523249
30
0
41
1
10
4.76072217297886
20
-0.207391607695797
30
0
41
1
10
4.70243126481742
20
-0.185889592929811
30
0
41
1
10
4.67335926786788
20
-0.173918558249596
30
0
41
1
10
4.61513905810099
20
-0.147845384605517
30
0
41
1
10
4.58592067558087
20
-0.133699913840303
30
0
41
1
10
4.52773575451968
20
-0.10386148998586
30
0
41
1
10
4.49867735607913
20
-0.0882289339100168
30
0
41
1
10
4.4549535997692
20
-0.0640173112515185
30
0
41
1
10
4.44034051023826
20
-0.0558150205485504
30
0
41
1
10
4.41120167953775
20
-0.039272298100542
30
0
41
1
10
4.39665750904433
20
-0.0309270678878022
30
0
41
1
10
4.3530472240214
20
-0.0057620215660847
30
0
41
1
10
4.32392182265116
20
0.0111230550493531
30
0
41
1
10
4.26554684377444
20
0.0445875914134604
30
0
41
1
10
4.23647088754066
20
0.0610821017486955
30
0
41
1
10
4.17829967369207
20
0.0931817803326567
30
0
41
1
10
4.14907579239147
20
0.10873760428052
30
0
41
1
10
4.09080172028754
20
0.138129431940172
30
0
41
1
10
4.06172800058022
20
0.151993537784875
30
0
41
1
10
4.01803380755135
20
0.171273209583063
30
0
41
1
10
4.00342712294881
20
0.177439783167159
30
0
41
1
10
3.97426267908835
20
0.189127023158988
30
0
41
1
10
3.95969909252708
20
0.194659244756281
30
0
41
1
10
3.91602139481191
20
0.210279750132855
30
0
41
1
10
3.8869052654143
20
0.219400522964975
30
0
41
1
10
3.82854806425715
20
0.234751957288609
30
0
41
1
10
3.79945748726706
20
0.240888621260012
30
0
41
1
10
3.75577636199512
20
0.247713373592887
30
0
41
1
10
3.74120936377196
20
0.24959154401219
30
0
41
1
10
3.71203271627732
20
0.252535875251141
30
0
41
1
10
3.69743465238469
20
0.253600476034478
30
0
41
1
10
3.62472493237351
20
0.256830850037545
30
0
41
1
10
3.56692194783551
20
0.252792663549968
30
0
41
1
10
3.50857399999998
20
0.242230762497769
30
0
0
SPLINE
5
C4
100
AcDbEntity
8
1
62
256
6
ByLayer
370
18
48
1
60
0
100
AcDbSpline
70
4
71
3
72
18
73
14
40
0
40
0
40
0
40
0
40
0.124999999999982
40
0.124999999999982
40
0.249999999999965
40
0.249999999999965
40
0.499999999999964
40
0.499999999999964
40
0.749999999999963
40
0.749999999999963
40
0.874999999999981
40
0.874999999999981
40
1
40
1
40
1
40
1
41
1
10
6.39457288001219
20
0.057982518789288
30
0
41
1
10
6.39240271748977
20
0.0655921413596445
30
0
41
1
10
6.38951800636679
20
0.0731115795227595
30
0
41
1
10
6.3831767671501
20
0.0881777859037811
30
0
41
1
10
6.37970506927658
20
0.0957215062393004
30
0
41
1
10
6.36888631890005
20
0.118512318901565
30
0
41
1
10
6.36116721898279
20
0.133883972180513
30
0
41
1
10
6.34552026527038
20
0.165072721436474
30
0
41
1
10
6.33753293555756
20
0.180968891936743
30
0
41
1
10
6.32550099284592
20
0.205109849278728
30
0
41
1
10
6.3214794624491
20
0.213204563693466
30
0
41
1
10
6.31343184035083
20
0.229400065339746
30
0
41
1
10
6.30940663997225
20
0.23749510323907
30
0
41
1
10
6.3053915471705
20
0.245483281364642
30
0
0
SPLINE
5
C5
100
AcDbEntity
8
1
62
256
6
ByLayer
370
18
48
1
60
0
100
AcDbSpline
70
4
71
3
72
56
73
52
40
0
40
0
40
0
40
0
40
0.0061258265699018
40
0.0061258265699018
40
0.0321932892438724
40
0.0321932892438724
40
0.0582607519178432
40
0.0582607519178432
40
0.162530602613726
40
0.162530602613726
40
0.188598065287701
40
0.188598065287701
40
0.214665527961677
40
0.214665527961677
40
0.266800453309627
40
0.266800453309627
40
0.318935378657578
40
0.318935378657578
40
0.371070304005529
40
0.371070304005529
40
0.397137766679505
40
0.397137766679505
40
0.42320522935348
40
0.42320522935348
40
0.475340154701431
40
0.475340154701431
40
0.527475080049381
40
0.527475080049381
40
0.579610005397332
40
0.579610005397332
40
0.631744930745283
40
0.631744930745283
40
0.657812393419258
40
0.657812393419258
40
0.683879856093234
40
0.683879856093234
40
0.736014781441194
40
0.736014781441194
40
0.788149706789154
40
0.788149706789154
40
0.840284632137114
40
0.840284632137114
40
0.892419557485074
40
0.892419557485074
40
0.944554482833034
40
0.944554482833034
40
0.970621945507014
40
0.970621945507014
40
0.996689408180994
40
0.996689408180994
40
1
40
1
40
1
40
1
41
1
10
4.4590272939823
20
0.255000070088698
30
0
41
1
10
4.46245295031704
20
0.25499907290714
30
0
41
1
10
4.46587929961819
20
0.25497508515113
30
0
41
1
10
4.48389055345862
20
0.254728201022601
30
0
41
1
10
4.49851642600422
20
0.254109332795139
30
0
41
1
10
4.52770223079082
20
0.252041103012687
30
0
41
1
10
4.54223054015839
20
0.250593646128351
30
0
41
1
10
4.61466965817564
20
0.241352697761584
30
0
41
1
10
4.6721194597408
20
0.227658248029911
30
0
41
1
10
4.7444117118354
20
0.203508507785784
30
0
41
1
10
4.75890283149053
20
0.198332786675877
30
0
41
1
10
4.7879974944029
20
0.187334616013061
30
0
41
1
10
4.80262642204522
20
0.181493916499733
30
0
41
1
10
4.84643453093057
20
0.163139650131342
30
0
41
1
10
4.8755440457887
20
0.149796686252415
30
0
41
1
10
4.9337971447994
20
0.121199625284305
30
0
41
1
10
4.96306320009498
20
0.105992912099765
30
0
41
1
10
5.02139262738476
20
0.0745258347761251
30
0
41
1
10
5.05050726941906
20
0.0582330709497967
30
0
41
1
10
5.09427415556368
20
0.0332317674945841
30
0
41
1
10
5.10889530480208
20
0.0248162753080123
30
0
41
1
10
5.13807772127697
20
0.0080059166519391
30
0
41
1
10
5.1526535912989
20
-0.0004083633773746
30
0
41
1
10
5.19637618859511
20
-0.0256073745739229
30
0
41
1
10
5.22556584041709
20
-0.0423749325700271
30
0
41
1
10
5.28395610257448
20
-0.0752609466917136
30
0
41
1
10
5.31307616502684
20
-0.0912117448870617
30
0
41
1
10
5.37142799889122
20
-0.121721006036609
30
0
41
1
10
5.40073869953457
20
-0.136297748625651
30
0
41
1
10
5.45916082078307
20
-0.163408816966069
30
0
41
1
10
5.48834134648635
20
-0.175940894857661
30
0
41
1
10
5.53209110306156
20
-0.193130044729202
30
0
41
1
10
5.54671275502753
20
-0.198559378187753
30
0
41
1
10
5.57589599443011
20
-0.208707150647086
30
0
41
1
10
5.59047120723156
20
-0.213435847741493
30
0
41
1
10
5.63418362749334
20
-0.226558099900899
30
0
41
1
10
5.66335619803667
20
-0.233882047086013
30
0
41
1
10
5.72179450893307
20
-0.245416364991797
30
0
41
1
10
5.75090730075576
20
-0.249589232964126
30
0
41
1
10
5.80914811679227
20
-0.254648642600898
30
0
41
1
10
5.83840390036434
20
-0.25551448534776
30
0
41
1
10
5.89673695215882
20
-0.25389735685269
30
0
41
1
10
5.92583850034859
20
-0.251426866178719
30
0
41
1
10
5.98414608507912
20
-0.243184444417892
30
0
41
1
10
6.01338354783152
20
-0.237431662373837
30
0
41
1
10
6.05713905479715
20
-0.22656969975759
30
0
41
1
10
6.07172501008174
20
-0.222573824455338
30
0
41
1
10
6.10092746321178
20
-0.213852003977564
30
0
41
1
10
6.11555218052158
20
-0.209116038812311
30
0
41
1
10
6.13197485800291
20
-0.20341390188355
30
0
41
1
10
6.13382504733673
20
-0.202766097796285
30
0
41
1
10
6.1356748126465
20
-0.202113122107448
30
0
0
SPLINE
5
C6
100
AcDbEntity
8
1
62
256
6
ByLayer
370
18
48
1
60
0
100
AcDbSpline
70
4
71
3
72
54
73
50
40
0
40
0
40
0
40
0
40
0.0069624299559732
40
0.0069624299559732
40
0.0139248599119463
40
0.0139248599119463
40
0.0208872898679195
40
0.0208872898679195
40
0.0278497198238926
40
0.0278497198238926
40
0.0417745797358289
40
0.0417745797358289
40
0.0556994396477652
40
0.0556994396477652
40
0.11139887929552
40
0.11139887929552
40
0.139248599119398
40
0.139248599119398
40
0.167098318943275
40
0.167098318943275
40
0.22279775859103
40
0.22279775859103
40
0.278497198238786
40
0.278497198238786
40
0.334196637886541
40
0.334196637886541
40
0.389896077534296
40
0.389896077534296
40
0.445595517182051
40
0.445595517182051
40
0.501294956829806
40
0.501294956829806
40
0.556994396477561
40
0.556994396477561
40
0.612693836125316
40
0.612693836125316
40
0.668393275773071
40
0.668393275773071
40
0.724092715420826
40
0.724092715420826
40
0.779792155068582
40
0.779792155068582
40
0.835491594716337
40
0.835491594716337
40
0.891191034364092
40
0.891191034364092
40
0.946890474011847
40
0.946890474011847
40
1
40
1
40
1
40
1
41
1
10
6.3053915471705
20
-0.24548328136467
30
0
41
1
10
6.301287812379
20
-0.24513325730581
30
0
41
1
10
6.29740781161175
20
-0.244665485162301
30
0
41
1
10
6.28996431405207
20
-0.243523000965098
30
0
41
1
10
6.28637204190218
20
-0.242861859526329
30
0
41
1
10
6.27921437046169
20
-0.241467109921388
30
0
41
1
10
6.2756401345944
20
-0.240739182415609
30
0
41
1
10
6.26838268467898
20
-0.239297500166231
30
0
41
1
10
6.26471815756494
20
-0.238573746360686
30
0
41
1
10
6.25371119751318
20
-0.236342674712972
30
0
41
1
10
6.24641075924617
20
-0.234738040845002
30
0
41
1
10
6.23186764331521
20
-0.231289389353037
30
0
41
1
10
6.22456989089696
20
-0.229486069361798
30
0
41
1
10
6.18805195240881
20
-0.220011600176918
30
0
41
1
10
6.15896035271632
20
-0.210928600956493
30
0
41
1
10
6.11534455311968
20
-0.195329517639067
30
0
41
1
10
6.100799045343
20
-0.189804851493903
30
0
41
1
10
6.07165196668021
20
-0.178155072953785
30
0
41
1
10
6.05703940181431
20
-0.172017226860049
30
0
41
1
10
6.01331093198732
20
-0.152833459409067
30
0
41
1
10
5.98424894397155
20
-0.13899493003538
30
0
41
1
10
5.92607110302706
20
-0.109538335509683
30
0
41
1
10
5.89685459805659
20
-0.0939827738714598
30
0
41
1
10
5.83863990392953
20
-0.0619798028825187
30
0
41
1
10
5.80957452819715
20
-0.045488244875088
30
0
41
1
10
5.7512866170853
20
-0.0119224521685339
30
0
41
1
10
5.72214978879899
20
0.0049826027450308
30
0
41
1
10
5.66396107414025
20
0.0384702191941244
30
0
41
1
10
5.63478069386971
20
0.0550918603671562
30
0
41
1
10
5.57646914410938
20
0.0874137991565931
30
0
41
1
10
5.54740306985505
20
0.103058414127617
30
0
41
1
10
5.48922186853051
20
0.13294067539772
30
0
41
1
10
5.45992903791139
20
0.147011042048206
30
0
41
1
10
5.40160689110118
20
0.173052589102781
30
0
41
1
10
5.37248999180142
20
0.185022485816319
30
0
41
1
10
5.31411280121281
20
0.206543226705719
30
0
41
1
10
5.28494800787789
20
0.216038471061211
30
0
41
1
10
5.22679042699812
20
0.232107580586757
30
0
41
1
10
5.19762752808671
20
0.238668389589833
30
0
41
1
10
5.13928507409903
20
0.248600914146124
30
0
41
1
10
5.11021336542521
20
0.251964418986631
30
0
41
1
10
5.05203055564598
20
0.255390752305885
30
0
41
1
10
5.02280240938288
20
0.255434776207096
30
0
41
1
10
4.96455755497092
20
0.25220919223878
30
0
41
1
10
4.93549012017453
20
0.248949232256251
30
0
41
1
10
4.87723203199167
20
0.239165990394525
30
0
41
1
10
4.84806120841469
20
0.232676815688194
30
0
41
1
10
4.79121378171644
20
0.217175363173482
30
0
41
1
10
4.76343185578961
20
0.208263946377912
30
0
41
1
10
4.73564228839476
20
0.198131620561185
30
0
0
SPLINE
5
C7
100
AcDbEntity
8
1
62
256
6
ByLayer
370
18
48
1
60
0
100
AcDbSpline
70
4
71
3
72
8
73
4
40
0
40
0
40
0
40
0
40
1
40
1
40
1
40
1
41
1
10
3.64937816713106
20
-0.255003444956884
30
0
41
1
10
3.60247936989487
20
-0.255037034619789
30
0
41
1
10
3.55570446768329
20
-0.250762122291576
30
0
41
1
10
3.50857399999998
20
-0.242230762497769
30
0
0
SPLINE
5
C8
100
AcDbEntity
8
1
62
256
6
ByLayer
370
18
48
1
60
0
100
AcDbSpline
70
4
71
3
72
43
73
39
40
0
40
0
40
0
40
0
40
0.0063321179418514
40
0.0375778810646319
40
0.0688236441874128
40
0.100069407310193
40
0.123503729652279
40
0.146938051994364
40
0.178183815117145
40
0.209429578239925
40
0.240675341362706
40
0.271921104485487
40
0.303166867608267
40
0.318789749169658
40
0.350035512292438
40
0.381281275415219
40
0.412527038537999
40
0.44377280166078
40
0.475018564783561
40
0.490641446344951
40
0.521887209467731
40
0.553132972590512
40
0.584378735713293
40
0.615624498836073
40
0.646870261958854
40
0.670304584300939
40
0.693738906643025
40
0.724984669765805
40
0.756230432888586
40
0.787476196011367
40
0.818721959134147
40
0.842156281476233
40
0.865590603818318
40
0.896836366941099
40
0.928082130063879
40
0.95932789318666
40
0.990573656309441
40
1
40
1
40
1
40
1
41
1
10
5.0757135907746
20
0.0469125317705448
30
0
41
1
10
5.07725234901361
20
0.0467617346115503
30
0
41
1
10
5.08638409229329
20
0.0458616683836226
30
0
41
1
10
5.10310882545772
20
0.044158049156664
30
0
41
1
10
5.12588779402088
20
0.0417261798630477
30
0
41
0.999999999999999
10
5.14676852402062
20
0.0393982041515244
30
0
41
1
10
5.16575101342491
20
0.0372062528732329
30
0
41
1
10
5.18473351005971
20
0.0349530291809117
30
0
41
1
10
5.20561426635783
20
0.0323987859104875
30
0
41
1
10
5.22839328699084
20
0.0295238624445347
30
0
41
1
10
5.25117232266703
20
0.0265655518251719
30
0
41
1
10
5.27395137467007
20
0.0235315210940996
30
0
41
1
10
5.2929339326808
20
0.0209598712614536
30
0
41
1
10
5.31191650249982
20
0.0183564257566786
30
0
41
1
10
5.33089908452732
20
0.0157250995744676
30
0
41
1
10
5.35367820377982
20
0.012528354693643
30
0
41
1
10
5.3764573451281
20
0.0093037749989264
30
0
41
1
10
5.39923650987956
20
0.0060590552652116
30
0
41
1
10
5.41821916765116
20
0.0033425219746732
30
0
41
1
10
5.43720184200773
20
0.0006212225533773
30
0
41
1
10
5.45618453186168
20
-0.0020985192658429
30
0
41
1
10
5.47896375648051
20
-0.0053561152649024
30
0
41
1
10
5.50174298172268
20
-0.0086131705314472
30
0
41
1
10
5.52452220680786
20
-0.0118732073452179
30
0
41
1
10
5.54540316318281
20
-0.0148275048218522
30
0
41
1
10
5.5643858507803
20
-0.017479012665973
30
0
41
1
10
5.58336853838281
20
-0.020100075432083
30
0
41
1
10
5.60424949474438
20
-0.0229386232816751
30
0
41
1
10
5.62702871986639
20
-0.0259768280763808
30
0
41
1
10
5.64980794498828
20
-0.0289424270353606
30
0
41
1
10
5.67068890135005
20
-0.0315913572209468
30
0
41
1
10
5.68967158895171
20
-0.0339387914447684
30
0
41
0.999999999999999
10
5.70865427655332
20
-0.0362318327706817
30
0
41
1
10
5.72953523291508
20
-0.038674750327317
30
0
41
1
10
5.75231445803701
20
-0.041241978388797
30
0
41
1
10
5.77509368315898
20
-0.0437013312545957
30
0
41
1
10
5.7925705417347
20
-0.0455017991477007
30
0
41
1
10
5.80245432526991
20
-0.0464833534728939
30
0
41
1
10
5.80474503376436
20
-0.0467088694008737
30
0
0
SPLINE
5
C9
100
AcDbEntity
8
1
62
256
6
ByLayer
370
18
48
1
60
0
100
AcDbSpline
70
4
71
3
72
16
73
12
40
0
40
0
40
0
40
0
40
0.0298701082441218
40
0.0298701082441218
40
0.353246738829398
40
0.353246738829398
40
0.676623369414675
40
0.676623369414675
40
0.838311684707337
40
0.838311684707337
40
1
40
1
40
1
40
1
41
1
10
6.37808263621488
20
-0.0991132760754851
30
0
41
1
10
6.37742665586475
20
-0.100513361485866
30
0
41
1
10
6.37676503353654
20
-0.101914994529551
30
0
41
1
10
6.36888631890005
20
-0.118512318901565
30
0
41
1
10
6.36116721898279
20
-0.133883972180513
30
0
41
1
10
6.34552026527038
20
-0.165072721436474
30
0
41
1
10
6.33753293555756
20
-0.180968891936743
30
0
41
1
10
6.32550099284592
20
-0.205109849278728
30
0
41
1
10
6.32147946244905
20
-0.213204563693466
30
0
41
1
10
6.31343184035083
20
-0.229400065339746
30
0
41
1
10
6.30940663997231
20
-0.23749510323907
30
0
41
1
10
6.3053915471705
20
-0.24548328136467
30
0
0
SPLINE
5
CA
100
AcDbEntity
8
1
62
256
6
ByLayer
370
18
48
1
60
0
100
AcDbSpline
70
4
71
3
72
40
73
36
40
0
40
0
40
0
40
0
40
0.0710656184358984
40
0.0710656184358984
40
0.142131236871797
40
0.142131236871797
40
0.213196855307695
40
0.213196855307695
40
0.284262473743594
40
0.284262473743594
40
0.355328092179492
40
0.355328092179492
40
0.426393710615391
40
0.426393710615391
40
0.461926519833333
40
0.461926519833333
40
0.497459329051276
40
0.497459329051276
40
0.568524947487175
40
0.568524947487175
40
0.639590565923074
40
0.639590565923074
40
0.675123375141023
40
0.675123375141023
40
0.710656184358972
40
0.710656184358972
40
0.781721802794871
40
0.781721802794871
40
0.817254612012826
40
0.817254612012826
40
0.852787421230782
40
0.852787421230782
40
0.994918658102617
40
0.994918658102617
40
1
40
1
40
1
40
1
41
1
10
3.50857400000001
20
0.139779992427151
30
0
41
1
10
3.53779004798093
20
0.125624727237238
30
0
41
1
10
3.56695250473427
20
0.110638870861464
30
0
41
1
10
3.62538884837133
20
0.0793617476857662
30
0
41
1
10
3.65460607636984
20
0.0631089428164557
30
0
41
1
10
3.71285836965083
20
0.0299824219292191
30
0
41
1
10
3.74204690923872
20
0.0131420171690024
30
0
41
1
10
3.80051580461449
20
-0.0205302413576192
30
0
41
1
10
3.82964211161109
20
-0.0372872355644631
30
0
41
1
10
3.88792026132839
20
-0.0702232143639776
30
0
41
1
10
3.91719828287901
20
-0.0863528074434043
30
0
41
1
10
3.97556549124917
20
-0.117172387767141
30
0
41
1
10
4.00468539943771
20
-0.131894414771864
30
0
41
1
10
4.04844676936565
20
-0.152662500676683
30
0
41
1
10
4.06308292128889
20
-0.159361023734306
30
0
41
1
10
4.09222663365742
20
-0.172133348653915
30
0
41
1
10
4.10674948796253
20
-0.178223611260023
30
0
41
1
10
4.15021491556027
20
-0.195568751037712
30
0
41
1
10
4.17905262724165
20
-0.205901597053384
30
0
41
1
10
4.23667937913828
20
-0.223864551320446
30
0
41
1
10
4.26551904765464
20
-0.231446434629703
30
0
41
1
10
4.30899208058855
20
-0.24056742425779
30
0
41
1
10
4.32351765566932
20
-0.243232772086969
30
0
41
1
10
4.35266748301589
20
-0.247781748922307
30
0
41
1
10
4.36729972810738
20
-0.24966612720462
30
0
41
1
10
4.4110342502735
20
-0.254062528165946
30
0
41
1
10
4.44013848292869
20
-0.255327920059386
30
0
41
1
10
4.48389055345868
20
-0.254728201022601
30
0
41
1
10
4.49851642600433
20
-0.25410933279511
30
0
41
1
10
4.52770223079088
20
-0.252041103012687
30
0
41
1
10
4.54223054015839
20
-0.250593646128323
30
0
41
1
10
4.6146696581757
20
-0.241352697761584
30
0
41
1
10
4.67211945974086
20
-0.227658248029883
30
0
41
1
10
4.73202088093498
20
-0.20764775284988
30
0
41
1
10
4.73408916854615
20
-0.20694997873386
30
0
41
1
10
4.73615819309944
20
-0.20624519902043
30
0
0
SPLINE
5
CB
100
AcDbEntity
8
1
62
256
6
ByLayer
370
18
48
1
60
0
100
AcDbSpline
70
4
71
3
72
30
73
26
40
0
40
0
40
0
40
0
40
0.0466193518919452
40
0.0466193518919452
40
0.237295481513542
40
0.237295481513542
40
0.427971611135139
40
0.427971611135139
40
0.523309675945955
40
0.523309675945955
40
0.618647740756771
40
0.618647740756771
40
0.809323870378368
40
0.809323870378368
40
0.856992902783776
40
0.856992902783776
40
0.904661935189183
40
0.904661935189183
40
0.928496451391888
40
0.928496451391888
40
0.952330967594592
40
0.952330967594592
40
0.976165483797296
40
0.976165483797296
40
1
40
1
40
1
40
1
41
1
10
5.84616449709679
20
0.25499886784209
30
0
41
1
10
5.85330295371304
20
0.255001208521549
30
0
41
1
10
5.86043935780029
20
0.254903610980222
30
0
41
1
10
5.89673695215888
20
0.25389735685269
30
0
41
1
10
5.92583850034859
20
0.25142686617869
30
0
41
1
10
5.98414608507917
20
0.243184444417892
30
0
41
1
10
6.01338354783158
20
0.237431662373837
30
0
41
1
10
6.0571390547972
20
0.22656969975759
30
0
41
1
10
6.07172501008179
20
0.22257382445531
30
0
41
1
10
6.10092746321178
20
0.213852003977564
30
0
41
1
10
6.11555218052152
20
0.209116038812311
30
0
41
1
10
6.15926823384504
20
0.193937337146963
30
0
41
1
10
6.18829561834852
20
0.182520092664902
30
0
41
1
10
6.22466030143246
20
0.166932372244077
30
0
41
1
10
6.23193221412256
20
0.163743012249711
30
0
41
1
10
6.24643512766366
20
0.157163231821471
30
0
41
1
10
6.25372080801324
20
0.153847614955936
30
0
41
1
10
6.26471289848044
20
0.148861624265095
30
0
41
1
10
6.26837379327972
20
0.147178131488658
30
0
41
1
10
6.27562714752824
20
0.143673984823494
30
0
41
1
10
6.27920104857188
20
0.141825128444765
30
0
41
1
10
6.28636048458352
20
0.138102846082205
30
0
41
1
10
6.28995488259849
20
0.136242161250379
30
0
41
1
10
6.29740341027863
20
0.132884479037131
30
0
41
1
10
6.30128616751912
20
0.131432377897085
30
0
41
1
10
6.30539154717044
20
0.130320177116033
30
0
0
SPLINE
5
CC
100
AcDbEntity
8
1
62
256
6
ByLayer
370
18
48
1
60
0
100
AcDbSpline
70
4
71
3
72
20
73
16
40
0
40
0
40
0
40
0
40
0.124999999999996
40
0.124999999999996
40
0.249999999999991
40
0.249999999999991
40
0.374999999999987
40
0.374999999999987
40
0.499999999999982
40
0.499999999999982
40
0.749999999999973
40
0.749999999999973
40
0.874999999999987
40
0.874999999999987
40
1
40
1
40
1
40
1
41
1
10
6.3053915471705
20
0.130320177116033
30
0
41
1
10
6.30939358890694
20
0.124718190358351
30
0
41
1
10
6.3133867402444
20
0.119750419891176
30
0
41
1
10
6.32137119138119
20
0.11057261752336
30
0
41
1
10
6.32536201631697
20
0.106350203843135
30
0
41
1
10
6.33334121456531
20
0.098420553309353
30
0
41
1
10
6.3373295680145
20
0.094722869643391
30
0
41
1
10
6.3452957441086
20
0.0877661940525627
30
0
41
1
10
6.34927763232812
20
0.0844984589108719
30
0
41
1
10
6.36106393075855
20
0.0754825814253195
30
0
41
1
10
6.36877678774781
20
0.070532691624976
30
0
41
1
10
6.3796028303606
20
0.0646657304607743
30
0
41
1
10
6.38308513166547
20
0.0629666015250905
30
0
41
1
10
6.38946468066482
20
0.0600845197241711
30
0
41
1
10
6.39237873644262
20
0.0589013824851179
30
0
41
1
10
6.39457288001213
20
0.057982518789288
30
0
0
SPLINE
5
CD
100
AcDbEntity
8
1
62
256
6
ByLayer
370
18
48
1
60
0
100
AcDbSpline
70
4
71
3
72
45
73
41
40
0
40
0
40
0
40
0
40
0.0142424052463996
40
0.0439134919198641
40
0.0735845785933286
40
0.0884201219300608
40
0.118091208603525
40
0.14776229527699
40
0.177433381950454
40
0.207104468623919
40
0.236775555297383
40
0.259028870302482
40
0.28128218530758
40
0.310953271981044
40
0.340624358654509
40
0.370295445327973
40
0.399966532001438
40
0.422219847006536
40
0.444473162011635
40
0.474144248685099
40
0.503815335358564
40
0.533486422032028
40
0.563157508705493
40
0.592828595378957
40
0.607664138715689
40
0.637335225389154
40
0.667006312062618
40
0.696677398736083
40
0.726348485409547
40
0.756019572083012
40
0.770855115419744
40
0.800526202093209
40
0.830197288766673
40
0.859868375440138
40
0.889539462113602
40
0.919210548787067
40
0.941463863792165
40
0.963717178797263
40
0.993388265470728
40
1
40
1
40
1
40
1
41
1
10
3.64570471287146
20
0.0508717102341336
30
0
41
1
10
3.64934946135523
20
0.0505546886100206
30
0
41
1
10
3.6605872846248
20
0.0495609044343439
30
0
41
1
10
3.67941818268016
20
0.0478133749491576
30
0
41
1
10
3.69840086964461
20
0.0459425513413407
30
0
41
1
10
3.71738355660906
20
0.0440006753087232
30
0
41
1
10
3.73636624357354
20
0.041987529898563
30
0
41
1
10
3.75914546793089
20
0.0394622597511329
30
0
41
1
10
3.78192469228824
20
0.036833505182642
30
0
41
1
10
3.80470391664562
20
0.0341066111368207
30
0
41
1
10
3.82558487230648
20
0.0315219731591867
30
0
41
1
10
3.84456755927101
20
0.029109121603625
30
0
41
1
10
3.86355024623541
20
0.0266426508385393
30
0
41
1
10
3.88443120189649
20
0.0238758073682845
30
0
41
1
10
3.90721042625333
20
0.0207992189739343
30
0
41
1
10
3.92998965061238
20
0.0176704833198187
30
0
41
1
10
3.95087060626653
20
0.0147608133364372
30
0
41
1
10
3.96985329326111
20
0.0120870366608017
30
0
41
1
10
3.98883598009474
20
0.0093927125397784
30
0
41
1
10
4.00971693617046
20
0.0064054839707808
30
0
41
1
10
4.03249615938063
20
0.0031204912770022
30
0
41
1
10
4.0552753874494
20
-0.000173637844
30
0
41
1
10
4.07805459611484
20
-0.003459087521378
30
0
41
1
10
4.09703724306493
20
-0.0061866339360961
30
0
41
1
10
4.11601987449259
20
-0.0089031927702763
30
0
41
1
10
4.13500248931217
20
-0.0116055527928722
30
0
41
1
10
4.15778160266277
20
-0.0148193619255039
30
0
41
1
10
4.18056069304575
20
-0.0179971510068242
30
0
41
1
10
4.20333976204102
20
-0.0211327314316065
30
0
41
1
10
4.22232230300904
20
-0.0237029641958486
30
0
41
1
10
4.24130483255712
20
-0.0262264568627018
30
0
41
1
10
4.26028735117225
20
-0.0287050029330658
30
0
41
1
10
4.28306635757744
20
-0.0316003018277229
30
0
41
1
10
4.30584534960937
20
-0.0344109467087037
30
0
41
1
10
4.32862432882766
20
-0.0371313183395614
30
0
41
1
10
4.34950504946173
20
-0.0395363159601914
30
0
41
1
10
4.36848751569656
20
-0.0416489143373724
30
0
41
1
10
4.38746997660351
20
-0.0436967471296725
30
0
41
1
10
4.40244967202915
20
-0.0452433651212516
30
0
41
1
10
4.41173462934728
20
-0.0461710004811096
30
0
41
1
10
4.41342660558371
20
-0.046338996619852
30
0
0
LINE
5
7F
100
AcDbEntity
8
1
62
256
6
ByLayer
370
18
48
1
60
0
100
AcDbLine
10
0
20
1.5
30
0
11
0
21
0
31
0
39
0
210
0
220
0
230
1
0
LINE
5
80
100
AcDbEntity
8
1
62
256
6
ByLayer
370
18
48
1
60
0
100
AcDbLine
10
0
20
0
30
0
11
0
21
-1.5
31
0
39
0
210
0
220
0
230
1
0
LINE
5
81
100
AcDbEntity
8
1
62
256
6
ByLayer
370
18
48
1
60
0
100
AcDbLine
10
6.305392
20
0.13032
30
0
11
6.305392
21
-0.245483
31
0
39
0
210
0
220
0
230
1
0
LINE
5
82
100
AcDbEntity
8
1
62
256
6
ByLayer
370
18
48
1
60
0
100
AcDbLine
10
3.508574
20
0.242231
30
0
11
3.508574
21
0.134913
31
0
39
0
210
0
220
0
230
1
0
LINE
5
83
100
AcDbEntity
8
1
62
256
6
ByLayer
370
13
48
1
60
0
100
AcDbLine
10
2.424344
20
0.255
30
0
11
2.424344
21
-0.255
31
0
39
0
210
0
220
0
230
1
0
LINE
5
84
100
AcDbEntity
8
1
62
256
6
ByLayer
370
13
48
1
60
0
100
AcDbLine
10
1.924344
20
0.388975
30
0
11
1.924344
21
-0.388975
31
0
39
0
210
0
220
0
230
1
0
LINE
5
85
100
AcDbEntity
8
SK1
62
256
6
ByLayer
370
18
48
1
60
0
100
AcDbLine
10
-31.5757
20
1.326795
30
0
11
-31.5757
21
-1.326795
31
0
39
0
210
0
220
0
230
1
0
LINE
5
87
100
AcDbEntity
8
SK1
62
256
6
ByLayer
370
18
48
1
60
0
100
AcDbLine
10
0
20
1.5
30
0
11
0
21
0
31
0
39
0
210
0
220
0
230
1
0
LINE
5
88
100
AcDbEntity
8
SK1
62
256
6
ByLayer
370
18
48
1
60
0
100
AcDbLine
10
0
20
0
30
0
11
0
21
-1.5
31
0
39
0
210
0
220
0
230
1
0
LINE
5
89
100
AcDbEntity
8
SK1
62
256
6
ByLayer
370
18
48
1
60
0
100
AcDbLine
10
-31.2757
20
1.5
30
0
11
-31.2757
21
-1.5
31
0
39
0
210
0
220
0
230
1
0
LINE
5
8A
100
AcDbEntity
8
1
62
256
6
ByLayer
370
18
48
1
60
0
100
AcDbLine
10
6.4243
20
0
30
0
11
6.377942
21
0.099415
31
0
39
0
210
0
220
0
230
1
0
LINE
5
8B
100
AcDbEntity
8
1
62
256
6
ByLayer
370
18
48
1
60
0
100
AcDbLine
10
6.377942
20
-0.099415
30
0
11
6.4243
21
0
31
0
39
0
210
0
220
0
230
1
0
LINE
5
8C
100
AcDbEntity
8
1
62
256
6
ByLayer
370
18
48
1
60
0
100
AcDbLine
10
2.424344
20
-0.255
30
0
11
3.22832
21
-0.255
31
0
39
0
210
0
220
0
230
1
0
LINE
5
8D
100
AcDbEntity
8
1
62
256
6
ByLayer
370
18
48
1
60
0
100
AcDbLine
10
3.64921
20
-0.255
30
0
11
4.45898
21
-0.255
31
0
39
0
210
0
220
0
230
1
0
LINE
5
8E
100
AcDbEntity
8
1
62
256
6
ByLayer
370
18
48
1
60
0
100
AcDbLine
10
5.03618
20
-0.255
30
0
11
5.84625
21
-0.255
31
0
39
0
210
0
220
0
230
1
0
LINE
5
8F
100
AcDbEntity
8
1
62
256
6
ByLayer
370
18
48
1
60
0
100
AcDbLine
10
5.84625
20
0.255
30
0
11
5.03618
21
0.255
31
0
39
0
210
0
220
0
230
1
0
LINE
5
90
100
AcDbEntity
8
1
62
256
6
ByLayer
370
18
48
1
60
0
100
AcDbLine
10
4.45898
20
0.255
30
0
11
3.64921
21
0.255
31
0
39
0
210
0
220
0
230
1
0
LINE
5
91
100
AcDbEntity
8
1
62
256
6
ByLayer
370
18
48
1
60
0
100
AcDbLine
10
3.22832
20
0.255
30
0
11
2.424344
21
0.255
31
0
39
0
210
0
220
0
230
1
0
LINE
5
92
100
AcDbEntity
8
1
62
256
6
ByLayer
370
18
48
1
60
0
100
AcDbLine
10
1.924344
20
0.388975
30
0
11
0
21
1.5
31
0
39
0
210
0
220
0
230
1
0
LINE
5
93
100
AcDbEntity
8
1
62
256
6
ByLayer
370
18
48
1
60
0
100
AcDbLine
10
0
20
-1.5
30
0
11
1.924344
21
-0.388975
31
0
39
0
210
0
220
0
230
1
0
LINE
5
94
100
AcDbEntity
8
SK1
62
256
6
ByLayer
370
18
48
1
60
0
100
AcDbLine
10
-31.5757
20
-1.326795
30
0
11
-31.2757
21
-1.5
31
0
39
0
210
0
220
0
230
1
0
LINE
5
95
100
AcDbEntity
8
SK1
62
256
6
ByLayer
370
18
48
1
60
0
100
AcDbLine
10
-31.2757
20
1.5
30
0
11
-31.5757
21
1.326795
31
0
39
0
210
0
220
0
230
1
0
LINE
5
96
100
AcDbEntity
8
SK1
62
256
6
ByLayer
370
18
48
1
60
0
100
AcDbLine
10
-31.2757
20
-1.5
30
0
11
0
21
-1.5
31
0
39
0
210
0
220
0
230
1
0
LINE
5
97
100
AcDbEntity
8
SK1
62
256
6
ByLayer
370
18
48
1
60
0
100
AcDbLine
10
0
20
1.5
30
0
11
-31.2757
21
1.5
31
0
39
0
210
0
220
0
230
1
0
LINE
5
98
100
AcDbEntity
8
4
62
256
6
ByLayer
370
18
48
0.05
60
0
100
AcDbLine
10
0
20
0
30
0
11
6.4243
21
0
31
0
39
0
210
0
220
0
230
1
0
LINE
5
9A
100
AcDbEntity
8
81
62
256
6
ByLayer
370
18
48
1
60
0
100
AcDbLine
10
6.4243
20
0
30
0
11
9.4243
21
0
31
0
39
0
210
0
220
0
230
1
0
LINE
5
9B
100
AcDbEntity
8
80
62
256
6
ByLayer
370
18
48
1
60
0
100
AcDbLine
10
0
20
0
30
0
11
-3
21
0
31
0
39
0
210
0
220
0
230
1
0
LINE
5
9C
100
AcDbEntity
8
SK4
62
256
6
ByLayer
370
18
48
0.05
60
0
100
AcDbLine
10
-34.5757
20
0
30
0
11
9.4243
21
0
31
0
39
0
210
0
220
0
230
1
0
LINE
5
9E
100
AcDbEntity
8
SK2
62
256
6
ByLayer
370
13
48
1
60
0
100
AcDbLine
10
-36.0757
20
-9
30
0
11
-36.0757
21
21.782741
31
0
39
0
210
0
220
0
230
1
0
LINE
5
A0
100
AcDbEntity
8
SK2
62
256
6
ByLayer
370
13
48
1
60
0
100
AcDbLine
10
-33.1632
20
-1.5
30
0
11
-38.0757
21
-1.5
31
0
39
0
210
0
220
0
230
1
0
LINE
5
A1
100
AcDbEntity
8
SK2
62
256
6
ByLayer
370
13
48
1
60
0
100
AcDbLine
10
-33.1632
20
1.5
30
0
11
-38.0757
21
1.5
31
0
39
0
210
0
220
0
230
1
0
LINE
5
A2
100
AcDbEntity
8
1
62
256
6
ByLayer
370
18
48
1
60
1
100
AcDbLine
10
-36.0757
20
-1.5
30
0
11
-35.614916
21
-4.999998
31
0
39
0
210
0
220
0
230
1
0
LINE
5
A3
100
AcDbEntity
8
1
62
256
6
ByLayer
370
18
48
1
60
1
100
AcDbLine
10
-35.614916
20
-4.999998
30
0
11
-36.536484
21
-5.000002
31
0
39
0
210
0
220
0
230
1
0
LINE
5
A4
100
AcDbEntity
8
1
62
256
6
ByLayer
370
18
48
1
60
1
100
AcDbLine
10
-36.536484
20
-5.000002
30
0
11
-36.0757
21
-1.5
31
0
39
0
210
0
220
0
230
1
0
LINE
5
A5
100
AcDbEntity
8
1
62
256
6
ByLayer
370
18
48
1
60
1
100
AcDbLine
10
-36.0757
20
1.5
30
0
11
-36.536484
21
4.999998
31
0
39
0
210
0
220
0
230
1
0
LINE
5
A6
100
AcDbEntity
8
1
62
256
6
ByLayer
370
18
48
1
60
1
100
AcDbLine
10
-36.536484
20
4.999998
30
0
11
-35.614916
21
5.000002
31
0
39
0
210
0
220
0
230
1
0
LINE
5
A7
100
AcDbEntity
8
1
62
256
6
ByLayer
370
18
48
1
60
1
100
AcDbLine
10
-35.614916
20
5.000002
30
0
11
-36.0757
21
1.5
31
0
39
0
210
0
220
0
230
1
0
LINE
5
A8
100
AcDbEntity
8
2
62
256
6
ByLayer
370
13
48
1
60
0
100
AcDbLine
10
11.9243
20
-7.755
30
0
11
11.9243
21
29.777855
31
0
39
0
210
0
220
0
230
1
0
LINE
5
AA
100
AcDbEntity
8
2
62
256
6
ByLayer
370
13
48
1
60
0
100
AcDbLine
10
8.0118
20
-0.255
30
0
11
13.9243
21
-0.255
31
0
39
0
210
0
220
0
230
1
0
LINE
5
AB
100
AcDbEntity
8
2
62
256
6
ByLayer
370
13
48
1
60
0
100
AcDbLine
10
8.0118
20
0.255
30
0
11
13.9243
21
0.255
31
0
39
0
210
0
220
0
230
1
0
LINE
5
AC
100
AcDbEntity
8
1
62
256
6
ByLayer
370
18
48
1
60
1
100
AcDbLine
10
11.9243
20
-0.255
30
0
11
12.385084
21
-3.754998
31
0
39
0
210
0
220
0
230
1
0
LINE
5
AD
100
AcDbEntity
8
1
62
256
6
ByLayer
370
18
48
1
60
1
100
AcDbLine
10
12.385084
20
-3.754998
30
0
11
11.463516
21
-3.755002
31
0
39
0
210
0
220
0
230
1
0
LINE
5
AE
100
AcDbEntity
8
1
62
256
6
ByLayer
370
18
48
1
60
1
100
AcDbLine
10
11.463516
20
-3.755002
30
0
11
11.9243
21
-0.255
31
0
39
0
210
0
220
0
230
1
0
LINE
5
AF
100
AcDbEntity
8
1
62
256
6
ByLayer
370
18
48
1
60
1
100
AcDbLine
10
11.9243
20
0.255
30
0
11
11.463516
21
3.754998
31
0
39
0
210
0
220
0
230
1
0
LINE
5
B0
100
AcDbEntity
8
1
62
256
6
ByLayer
370
18
48
1
60
1
100
AcDbLine
10
11.463516
20
3.754998
30
0
11
12.385084
21
3.755002
31
0
39
0
210
0
220
0
230
1
0
LINE
5
B1
100
AcDbEntity
8
1
62
256
6
ByLayer
370
18
48
1
60
1
100
AcDbLine
10
12.385084
20
3.755002
30
0
11
11.9243
21
0.255
31
0
39
0
210
0
220
0
230
1
0
LINE
5
B2
100
AcDbEntity
8
SK2
62
256
6
ByLayer
370
13
48
1
60
0
100
AcDbLine
10
7.095206
20
-1.438764
30
0
11
14.179345
21
-16.630748
31
0
39
0
210
0
220
0
230
1
0
LINE
5
B3
100
AcDbEntity
8
SK2
62
256
6
ByLayer
370
13
48
1
60
0
100
AcDbLine
10
7.095206
20
1.438764
30
0
11
14.179345
21
16.630748
31
0
39
0
210
0
220
0
230
1
0
LINE
5
B4
100
AcDbEntity
8
1
62
256
6
ByLayer
370
18
48
1
60
1
100
AcDbLine
10
13.334109
20
-14.818132
30
0
11
16.206142
21
-12.765394
31
0
39
0
210
0
220
0
230
1
0
LINE
5
B5
100
AcDbEntity
8
1
62
256
6
ByLayer
370
18
48
1
60
1
100
AcDbLine
10
16.206142
20
-12.765394
30
0
11
16.639571
21
-13.578675
31
0
39
0
210
0
220
0
230
1
0
LINE
5
B6
100
AcDbEntity
8
1
62
256
6
ByLayer
370
18
48
1
60
1
100
AcDbLine
10
16.639571
20
-13.578675
30
0
11
13.334109
21
-14.818132
31
0
39
0
210
0
220
0
230
1
0
LINE
5
B7
100
AcDbEntity
8
1
62
256
6
ByLayer
370
18
48
1
60
1
100
AcDbLine
10
13.334109
20
14.818132
30
0
11
16.639568
21
13.578677
31
0
39
0
210
0
220
0
230
1
0
LINE
5
B8
100
AcDbEntity
8
1
62
256
6
ByLayer
370
18
48
1
60
1
100
AcDbLine
10
16.639568
20
13.578677
30
0
11
16.206145
21
12.765392
31
0
39
0
210
0
220
0
230
1
0
LINE
5
B9
100
AcDbEntity
8
1
62
256
6
ByLayer
370
18
48
1
60
1
100
AcDbLine
10
16.206145
20
12.765392
30
0
11
13.334109
21
14.818132
31
0
39
0
210
0
220
0
230
1
0
LINE
5
D2
100
AcDbEntity
8
1
62
256
6
ByLayer
370
18
48
1
60
1
100
AcDbLine
10
-36.0757
20
-1.5
30
0
11
-35.614916
21
-4.999998
31
0
39
0
210
0
220
0
230
1
0
LINE
5
D3
100
AcDbEntity
8
1
62
256
6
ByLayer
370
18
48
1
60
1
100
AcDbLine
10
-35.614916
20
-4.999998
30
0
11
-36.536484
21
-5.000002
31
0
39
0
210
0
220
0
230
1
0
LINE
5
D4
100
AcDbEntity
8
1
62
256
6
ByLayer
370
18
48
1
60
1
100
AcDbLine
10
-36.536484
20
-5.000002
30
0
11
-36.0757
21
-1.5
31
0
39
0
210
0
220
0
230
1
0
LINE
5
D6
100
AcDbEntity
8
1
62
256
6
ByLayer
370
18
48
1
60
1
100
AcDbLine
10
-36.0757
20
1.5
30
0
11
-36.536484
21
4.999998
31
0
39
0
210
0
220
0
230
1
0
LINE
5
D7
100
AcDbEntity
8
1
62
256
6
ByLayer
370
18
48
1
60
1
100
AcDbLine
10
-36.536484
20
4.999998
30
0
11
-35.614916
21
5.000002
31
0
39
0
210
0
220
0
230
1
0
LINE
5
D8
100
AcDbEntity
8
1
62
256
6
ByLayer
370
18
48
1
60
1
100
AcDbLine
10
-35.614916
20
5.000002
30
0
11
-36.0757
21
1.5
31
0
39
0
210
0
220
0
230
1
0
LINE
5
DC
100
AcDbEntity
8
1
62
256
6
ByLayer
370
18
48
1
60
1
100
AcDbLine
10
11.9243
20
-0.255
30
0
11
12.385084
21
-3.754998
31
0
39
0
210
0
220
0
230
1
0
LINE
5
DD
100
AcDbEntity
8
1
62
256
6
ByLayer
370
18
48
1
60
1
100
AcDbLine
10
12.385084
20
-3.754998
30
0
11
11.463516
21
-3.755002
31
0
39
0
210
0
220
0
230
1
0
LINE
5
DE
100
AcDbEntity
8
1
62
256
6
ByLayer
370
18
48
1
60
1
100
AcDbLine
10
11.463516
20
-3.755002
30
0
11
11.9243
21
-0.255
31
0
39
0
210
0
220
0
230
1
0
LINE
5
E0
100
AcDbEntity
8
1
62
256
6
ByLayer
370
18
48
1
60
1
100
AcDbLine
10
11.9243
20
0.255
30
0
11
11.463516
21
3.754998
31
0
39
0
210
0
220
0
230
1
0
LINE
5
E1
100
AcDbEntity
8
1
62
256
6
ByLayer
370
18
48
1
60
1
100
AcDbLine
10
11.463516
20
3.754998
30
0
11
12.385084
21
3.755002
31
0
39
0
210
0
220
0
230
1
0
LINE
5
E2
100
AcDbEntity
8
1
62
256
6
ByLayer
370
18
48
1
60
1
100
AcDbLine
10
12.385084
20
3.755002
30
0
11
11.9243
21
0.255
31
0
39
0
210
0
220
0
230
1
0
LINE
5
E5
100
AcDbEntity
8
1
62
256
6
ByLayer
370
18
48
1
60
1
100
AcDbLine
10
13.334109
20
-14.818132
30
0
11
16.206142
21
-12.765394
31
0
39
0
210
0
220
0
230
1
0
LINE
5
E6
100
AcDbEntity
8
1
62
256
6
ByLayer
370
18
48
1
60
1
100
AcDbLine
10
16.206142
20
-12.765394
30
0
11
16.639571
21
-13.578675
31
0
39
0
210
0
220
0
230
1
0
LINE
5
E7
100
AcDbEntity
8
1
62
256
6
ByLayer
370
18
48
1
60
1
100
AcDbLine
10
16.639571
20
-13.578675
30
0
11
13.334109
21
-14.818132
31
0
39
0
210
0
220
0
230
1
0
LINE
5
E9
100
AcDbEntity
8
1
62
256
6
ByLayer
370
18
48
1
60
1
100
AcDbLine
10
13.334109
20
14.818132
30
0
11
16.639568
21
13.578677
31
0
39
0
210
0
220
0
230
1
0
LINE
5
EA
100
AcDbEntity
8
1
62
256
6
ByLayer
370
18
48
1
60
1
100
AcDbLine
10
16.639568
20
13.578677
30
0
11
16.206145
21
12.765392
31
0
39
0
210
0
220
0
230
1
0
LINE
5
EB
100
AcDbEntity
8
1
62
256
6
ByLayer
370
18
48
1
60
1
100
AcDbLine
10
16.206145
20
12.765392
30
0
11
13.334109
21
14.818132
31
0
39
0
210
0
220
0
230
1
0
MTEXT
5
CE
100
AcDbEntity
8
SK2
62
256
6
ByLayer
370
18
48
1
60
0
100
AcDbMText
10
-37.416814
20
6.658437
30
0
210
0
220
0
230
1
1
%%c
40
3
41
0
44
1.084337
50
90
71
7
72
5
7
iso_b_vert
0
MTEXT
5
D1
100
AcDbEntity
8
SK2
62
256
6
ByLayer
370
18
48
1
60
0
100
AcDbMText
10
-37.416814
20
12.635
30
0
210
0
220
0
230
1
1
\W0.7468;3.000
40
3
41
0
44
1.084337
50
90
71
7
72
5
7
iso_b_vert
0
MTEXT
5
DA
100
AcDbEntity
8
2
62
256
6
ByLayer
370
18
48
1
60
0
100
AcDbMText
10
10.583186
20
15.403438
30
0
210
0
220
0
230
1
1
%%c
40
3
41
0
44
1.084337
50
90
71
7
72
5
7
iso_b_vert
0
MTEXT
5
DB
100
AcDbEntity
8
2
62
256
6
ByLayer
370
18
48
1
60
0
100
AcDbMText
10
10.583186
20
21.38
30
0
210
0
220
0
230
1
1
\W0.6864;0.510
40
3
41
0
44
1.084337
50
90
71
7
72
5
7
iso_b_vert
0
MTEXT
5
E4
100
AcDbEntity
8
SK2
62
256
6
ByLayer
370
18
48
1
60
0
100
AcDbMText
10
19.491586
20
-2.114886
30
0
210
0
220
0
230
1
1
\W0.6747;130%%d
40
3
41
0
44
1.084337
50
0
71
7
72
5
7
iso_b_vert
0
MTEXT
5
ED
100
AcDbEntity
8
SK6
62
256
6
ByLayer
370
18
48
1
60
0
100
AcDbMText
10
-40.204667
20
-42.114886
30
0
210
0
220
0
230
1
1
\W0.7647;462.1-0051-002A0-XM X0BU
40
3
41
0
44
1.084337
50
0
71
7
72
5
7
iso_b_vert
0
HATCH
5
D5
100
AcDbEntity
8
SK2
62
256
6
ByLayer
370
13
48
1
60
0
100
AcDbHatch
10
0
20
0
30
0
210
0
220
0
230
1
2
ANSI31
70
0
71
0
91
1
92
5
93
3
72
1
10
-36.0757
20
-1.5
11
-35.6149162584472
21
-4.99999830744682
72
1
10
-35.6149162584472
20
-4.99999830744682
11
-36.5364837415528
21
-5.00000169255318
72
1
10
-36.5364837415528
20
-5.00000169255318
11
-36.0757
21
-1.5
97
0
75
0
76
1
52
0
41
0.0062
77
0
78
1
53
45
43
0
44
0
45
-0.0139193969876572
46
0.0139193969876572
79
0
47
0
98
1
10
0
20
0
0
HATCH
5
D9
100
AcDbEntity
8
SK2
62
256
6
ByLayer
370
13
48
1
60
0
100
AcDbHatch
10
0
20
0
30
0
210
0
220
0
230
1
2
ANSI31
70
0
71
0
91
1
92
5
93
3
72
1
10
-36.0757
20
1.5
11
-36.5364837415528
21
4.99999830744682
72
1
10
-36.5364837415528
20
4.99999830744682
11
-35.6149162584472
21
5.00000169255318
72
1
10
-35.6149162584472
20
5.00000169255318
11
-36.0757
21
1.5
97
0
75
0
76
1
52
0
41
0.0062
77
0
78
1
53
45
43
0
44
0
45
-0.0139193969876572
46
0.0139193969876572
79
0
47
0
98
1
10
0
20
0
0
HATCH
5
DF
100
AcDbEntity
8
2
62
256
6
ByLayer
370
13
48
1
60
0
100
AcDbHatch
10
0
20
0
30
0
210
0
220
0
230
1
2
ANSI31
70
0
71
0
91
1
92
5
93
3
72
1
10
11.9243
20
-0.254999999999996
11
12.3850837415528
21
-3.75499830744681
72
1
10
12.3850837415528
20
-3.75499830744681
11
11.4635162584472
21
-3.75500169255318
72
1
10
11.4635162584472
20
-3.75500169255318
11
11.9243
21
-0.254999999999996
97
0
75
0
76
1
52
0
41
0.0062
77
0
78
1
53
45
43
0
44
0
45
-0.0139193969876572
46
0.0139193969876572
79
0
47
0
98
1
10
0
20
0
0
HATCH
5
E3
100
AcDbEntity
8
2
62
256
6
ByLayer
370
13
48
1
60
0
100
AcDbHatch
10
0
20
0
30
0
210
0
220
0
230
1
2
ANSI31
70
0
71
0
91
1
92
5
93
3
72
1
10
11.9243
20
0.254999999999996
11
11.4635162584472
21
3.75499830744681
72
1
10
11.4635162584472
20
3.75499830744681
11
12.3850837415528
21
3.75500169255318
72
1
10
12.3850837415528
20
3.75500169255318
11
11.9243
21
0.254999999999996
97
0
75
0
76
1
52
0
41
0.0062
77
0
78
1
53
45
43
0
44
0
45
-0.0139193969876572
46
0.0139193969876572
79
0
47
0
98
1
10
0
20
0
0
HATCH
5
E8
100
AcDbEntity
8
SK2
62
256
6
ByLayer
370
13
48
1
60
0
100
AcDbHatch
10
0
20
0
30
0
210
0
220
0
230
1
2
ANSI31
70
0
71
0
91
1
92
5
93
3
72
1
10
13.3341085794603
20
-14.8181323180493
11
16.2061418553692
21
-12.7653939833652
72
1
10
16.2061418553692
20
-12.7653939833652
11
16.6395706127347
21
-13.5786750775863
72
1
10
16.6395706127347
20
-13.5786750775863
11
13.3341085794603
21
-14.8181323180493
97
0
75
0
76
1
52
0
41
0.0062
77
0
78
1
53
45
43
0
44
0
45
-0.0139193969876572
46
0.0139193969876572
79
0
47
0
98
1
10
0
20
0
0
HATCH
5
EC
100
AcDbEntity
8
SK2
62
256
6
ByLayer
370
13
48
1
60
0
100
AcDbHatch
10
0
20
0
30
0
210
0
220
0
230
1
2
ANSI31
70
0
71
0
91
1
92
5
93
3
72
1
10
13.3341085794603
20
14.8181323180493
11
16.6395676253805
21
13.5786766696481
72
1
10
16.6395676253805
20
13.5786766696481
11
16.2061448427233
21
12.7653923913034
72
1
10
16.2061448427233
20
12.7653923913034
11
13.3341085794603
21
14.8181323180493
97
0
75
0
76
1
52
0
41
0.0062
77
0
78
1
53
45
43
0
44
0
45
-0.0139193969876572
46
0.0139193969876572
79
0
47
0
98
1
10
0
20
0
0
DIMENSION
5
F0
100
AcDbEntity
8
SK2
62
256
6
ByLayer
370
18
48
1
60
0
100
AcDbDimension
2
_U0
10
6.4243
20
-35.85
30
0
11
-12.5757
21
-35.85
31
0
70
32
71
1
72
1
41
1
210
0
220
0
230
1
3
Standard
100
AcDbAlignedDimension
13
-31.5757
23
1.5
33
0
14
6.4243
24
0.255
34
0
50
0
100
AcDbRotatedDimension
1001
ACAD
1000
DSTYLE
1002
{
1070
   371
1070
    13
1070
   372
1070
    13
1070
     3
1000

1070
   170
1070
     0
1070
   144
1040
1.0
1070
   277
1070
     2
1070
   284
1070
     8
1070
   278
1070
    46
1070
   146
1040
1.166667
1070
   345
1005
16
1070
   347
1005
16
1070
   346
1005
16
1070
   344
1005
0
1070
   343
1005
0
1070
   172
1070
     1
1070
    76
1070
     0
1070
    75
1070
     0
1070
   282
1070
     0
1070
   281
1070
     0
1070
    71
1070
     0
1070
    74
1070
     0
1070
   279
1070
     0
1070
   173
1070
     1
1070
   340
1005
CF
1070
   271
1070
     2
1070
   272
1070
     2
1070
    77
1070
     1
1070
    73
1070
     1
1070
   171
1070
     3
1070
   274
1070
     4
1070
   177
1070
     2
1070
   176
1070
     2
1070
   178
1070
     2
1070
    78
1070
     8
1070
    48
1040
-0.1
1070
    41
1040
3.5
1070
   147
1040
1.5
1070
    42
1040
1.5875
1070
    44
1040
2.0
1070
   140
1040
3.0
1002
}
1001
ACAD_DSTYLE_DIM_LINETYPE
1070
   380
1005
16
1001
ACAD_DSTYLE_DIM_EXT1_LINETYPE
1070
   381
1005
16
1001
ACAD_DSTYLE_DIM_EXT2_LINETYPE
1070
   382
1005
16
0
DIMENSION
5
109
100
AcDbEntity
8
SK2
62
256
6
ByLayer
370
18
48
1
60
0
100
AcDbDimension
2
_U1
10
3.9893
20
-21.755
30
0
11
22.567157
21
-21.755
31
0
70
32
71
1
72
1
41
1
210
0
220
0
230
1
3
Standard
100
AcDbAlignedDimension
13
6.4243
23
0.255
33
0
14
3.9893
24
0
34
0
50
0
100
AcDbRotatedDimension
1001
ACAD
1000
DSTYLE
1002
{
1070
   371
1070
    13
1070
   372
1070
    13
1070
     3
1000

1070
   170
1070
     0
1070
   144
1040
1.0
1070
   277
1070
     2
1070
   284
1070
     8
1070
   278
1070
    46
1070
   146
1040
1.166667
1070
   345
1005
16
1070
   347
1005
16
1070
   346
1005
16
1070
   344
1005
0
1070
   343
1005
0
1070
   172
1070
     1
1070
    76
1070
     0
1070
    75
1070
     0
1070
   282
1070
     0
1070
   281
1070
     0
1070
    71
1070
     0
1070
    74
1070
     0
1070
   279
1070
     0
1070
   173
1070
     1
1070
   340
1005
CF
1070
   271
1070
     2
1070
   272
1070
     2
1070
    77
1070
     1
1070
    73
1070
     1
1070
   171
1070
     3
1070
   274
1070
     4
1070
   177
1070
     2
1070
   176
1070
     2
1070
   178
1070
     2
1070
    78
1070
     8
1070
    48
1040
-0.1
1070
    41
1040
3.5
1070
   147
1040
1.5
1070
    42
1040
1.5875
1070
    44
1040
2.0
1070
   140
1040
3.0
1002
}
1001
ACAD_DSTYLE_DIM_LINETYPE
1070
   380
1005
16
1001
ACAD_DSTYLE_DIM_EXT1_LINETYPE
1070
   381
1005
16
1001
ACAD_DSTYLE_DIM_EXT2_LINETYPE
1070
   382
1005
16
0
DIMENSION
5
123
100
AcDbEntity
8
SK2
62
256
6
ByLayer
370
18
48
1
60
0
100
AcDbDimension
2
_U2
10
3.2243
20
-29.755
30
0
11
21.067157
21
-29.755
31
0
70
32
71
1
72
1
41
1
210
0
220
0
230
1
3
Standard
100
AcDbAlignedDimension
13
6.4243
23
0.255
33
0
14
3.2243
24
0
34
0
50
0
100
AcDbRotatedDimension
1001
ACAD
1000
DSTYLE
1002
{
1070
   371
1070
    13
1070
   372
1070
    13
1070
     3
1000

1070
   170
1070
     0
1070
   144
1040
1.0
1070
   277
1070
     2
1070
   284
1070
     8
1070
   278
1070
    46
1070
   146
1040
1.166667
1070
   345
1005
16
1070
   347
1005
16
1070
   346
1005
16
1070
   344
1005
0
1070
   343
1005
0
1070
   172
1070
     1
1070
    76
1070
     0
1070
    75
1070
     0
1070
   282
1070
     0
1070
   281
1070
     0
1070
    71
1070
     0
1070
    74
1070
     0
1070
   279
1070
     0
1070
   173
1070
     1
1070
   340
1005
CF
1070
   271
1070
     2
1070
   272
1070
     2
1070
    77
1070
     1
1070
    73
1070
     1
1070
   171
1070
     3
1070
   274
1070
     4
1070
   177
1070
     2
1070
   176
1070
     2
1070
   178
1070
     2
1070
    78
1070
     8
1070
    48
1040
-0.1
1070
    41
1040
3.5
1070
   147
1040
1.5
1070
    42
1040
1.5875
1070
    44
1040
2.0
1070
   140
1040
3.0
1002
}
1001
ACAD_DSTYLE_DIM_LINETYPE
1070
   380
1005
16
1001
ACAD_DSTYLE_DIM_EXT1_LINETYPE
1070
   381
1005
16
1001
ACAD_DSTYLE_DIM_EXT2_LINETYPE
1070
   382
1005
16
0
DIMENSION
5
13D
100
AcDbEntity
8
SK2
62
256
6
ByLayer
370
18
48
1
60
0
100
AcDbDimension
2
_U3
10
0
20
11.35
30
0
11
-15.78785
21
11.35
31
0
70
32
71
1
72
1
41
1
210
0
220
0
230
1
3
Standard
100
AcDbAlignedDimension
13
-31.5757
23
0
33
0
14
0
24
0
34
0
50
0
100
AcDbRotatedDimension
1001
ACAD
1000
DSTYLE
1002
{
1070
   371
1070
    13
1070
   372
1070
    13
1070
     3
1000

1070
   170
1070
     0
1070
   144
1040
1.0
1070
   277
1070
     2
1070
   284
1070
     8
1070
   278
1070
    46
1070
   146
1040
1.166667
1070
   345
1005
16
1070
   347
1005
16
1070
   346
1005
16
1070
   344
1005
0
1070
   343
1005
0
1070
   172
1070
     1
1070
    76
1070
     0
1070
    75
1070
     0
1070
   282
1070
     0
1070
   281
1070
     0
1070
    71
1070
     0
1070
    74
1070
     0
1070
   279
1070
     0
1070
   173
1070
     1
1070
   340
1005
CF
1070
   271
1070
     2
1070
   272
1070
     2
1070
    77
1070
     1
1070
    73
1070
     1
1070
   171
1070
     3
1070
   274
1070
     4
1070
   177
1070
     2
1070
   176
1070
     2
1070
   178
1070
     2
1070
    78
1070
     8
1070
    48
1040
-0.1
1070
    41
1040
3.5
1070
   147
1040
1.5
1070
    42
1040
1.5875
1070
    44
1040
2.0
1070
   140
1040
3.0
1002
}
1001
ACAD_DSTYLE_DIM_LINETYPE
1070
   380
1005
16
1001
ACAD_DSTYLE_DIM_EXT1_LINETYPE
1070
   381
1005
16
1001
ACAD_DSTYLE_DIM_EXT2_LINETYPE
1070
   382
1005
16
0
DIMENSION
5
155
100
AcDbEntity
8
2
62
256
6
ByLayer
370
18
48
1
60
0
100
AcDbDimension
2
_U4
10
0
20
5
30
0
11
-16
21
5
31
0
70
32
71
1
72
1
41
1
210
0
220
0
230
1
3
Standard
100
AcDbAlignedDimension
13
6.4243
23
0.255
33
0
14
0
24
0
34
0
50
0
100
AcDbRotatedDimension
1001
ACAD
1000
DSTYLE
1002
{
1070
   371
1070
    13
1070
   372
1070
    13
1070
     3
1000

1070
   170
1070
     0
1070
   144
1040
1.0
1070
   277
1070
     2
1070
   284
1070
     8
1070
   278
1070
    46
1070
   146
1040
1.166667
1070
   345
1005
16
1070
   347
1005
16
1070
   346
1005
16
1070
   344
1005
0
1070
   343
1005
0
1070
   172
1070
     1
1070
    76
1070
     0
1070
    75
1070
     0
1070
   282
1070
     0
1070
   281
1070
     0
1070
    71
1070
     0
1070
    74
1070
     0
1070
   279
1070
     0
1070
   173
1070
     1
1070
   340
1005
CF
1070
   271
1070
     2
1070
   272
1070
     2
1070
    77
1070
     1
1070
    73
1070
     1
1070
   171
1070
     3
1070
   274
1070
     4
1070
   177
1070
     2
1070
   176
1070
     2
1070
   178
1070
     2
1070
    78
1070
     8
1070
    48
1040
-0.1
1070
    41
1040
3.5
1070
   147
1040
1.5
1070
    42
1040
1.5875
1070
    44
1040
2.0
1070
   140
1040
3.0
1002
}
1001
ACAD_DSTYLE_DIM_LINETYPE
1070
   380
1005
16
1001
ACAD_DSTYLE_DIM_EXT1_LINETYPE
1070
   381
1005
16
1001
ACAD_DSTYLE_DIM_EXT2_LINETYPE
1070
   382
1005
16
0
ENDSEC
0
SECTION
2
OBJECTS
0
DICTIONARY
5
1df
330
0
100
AcDbDictionary
280
0
281
1
3
ACAD_GROUP
350
1e0
3
ACAD_MLINESTYLE
350
1e1
0
DICTIONARY
5
1e0
330
0
100
AcDbDictionary
280
0
281
1
0
DICTIONARY
5
1e1
330
0
100
AcDbDictionary
280
0
281
1
3
Standard
350
18
0
MLINESTYLE
5
18
330
1e1
100
AcDbMlineStyle
2
Standard
70
0
3

62
256
51
90
52
90
71
2
49
-0.5
62
256
6
ByLayer
49
0.5
62
256
6
ByLayer
0
RASTERVARIABLES
5
1cd
330

100
AcDbRasterVariables
90
0
70
1
71
1
72
1
0
ENDSEC
0
EOF
