0
SECTION
2
HEADER
9
$ACADVER
1
AC1015
9
$DWGCODEPAGE
3
ANSI_1252
9
$HANDSEED
5
1ef
9
$ANGBASE
50
0
9
$ANGDIR
70
0
9
$ATTMODE
70
1
9
$AUNITS
70
0
9
$AUPREC
70
0
9
$CECOLOR
62
256
9
$CELTSCALE
40
1
9
$CELTYPE
6
ByLayer
9
$CELWEIGHT
370
18
9
$CLAYER
8
0
9
$CMLJUST
70
0
9
$CMLSCALE
40
1
9
$CMLSTYLE
2
Standard
9
$DIMSTYLE
2
Standard
9
$TEXTSIZE
40
0.2
9
$TEXTSTYLE
7
Standard
9
$LUNITS
70
2
9
$LUPREC
70
4
9
$EXTNAMES
290
1
9
$INSUNITS
70
4
9
$LTSCALE
40
1
9
$LWDISPLAY
290
1
9
$PDMODE
70
0
9
$PDSIZE
40
0
9
$PLINEGEN
70
0
0
ENDSEC
0
SECTION
2
CLASSES
0
CLASS
1
RASTERVARIABLES
2
AcDbRasterVariables
3
ISM
90
0
280
0
281
0
0
ENDSEC
0
SECTION
2
TABLES
0
TABLE
2
VPORT
5
1e5
100
AcDbSymbolTable
0
VPORT
5
1
100
AcDbSymbolTableRecord
100
AcDbViewportTableRecord
2
*Active
70
0
10
0
20
0
11
1
21
1
12
-1
22
1
13
0
23
0
14
0.5
24
0.5
15
10
25
10
16
0
26
0
36
1
17
0
27
0
37
0
0
ENDTAB
0
TABLE
2
LTYPE
5
1e6
100
AcDbSymbolTable
0
LTYPE
5
14
100
AcDbSymbolTableRecord
100
AcDbLinetypeTableRecord
70
0
2
ByBlock
3

72
65
73
0
40
0
0
LTYPE
5
15
100
AcDbSymbolTableRecord
100
AcDbLinetypeTableRecord
70
0
2
ByLayer
3

72
65
73
0
40
0
0
LTYPE
5
16
100
AcDbSymbolTableRecord
100
AcDbLinetypeTableRecord
70
0
2
Continuous
3
Solid line
72
65
73
0
40
0
0
LTYPE
5
6E
100
AcDbSymbolTableRecord
100
AcDbLinetypeTableRecord
70
0
2
CENTER
3
____ _ ____ _ ____ _ ____
72
65
73
4
40
47.5
49
22
74
0
49
-8.5
74
0
49
8.5
74
0
49
-8.5
74
0
0
LTYPE
5
6F
100
AcDbSymbolTableRecord
100
AcDbLinetypeTableRecord
70
0
2
DASHED
3
__ __ __ __ __ __ __ __ __
72
65
73
2
40
25.72
49
12.86
74
0
49
-12.86
74
0
0
ENDTAB
0
TABLE
2
LAYER
5
1e7
100
AcDbSymbolTable
0
LAYER
5
10
100
AcDbSymbolTableRecord
100
AcDbLayerTableRecord
2
0
70
0
62
7
6
Continuous
290
1
370
-3
390
0
0
LAYER
5
71
100
AcDbSymbolTableRecord
100
AcDbLayerTableRecord
2
80
70
0
62
-6
6
Continuous
290
1
370
-3
390
0
0
LAYER
5
73
100
AcDbSymbolTableRecord
100
AcDbLayerTableRecord
2
81
70
0
62
-3
6
Continuous
290
1
370
-3
390
0
0
LAYER
5
75
100
AcDbSymbolTableRecord
100
AcDbLayerTableRecord
2
1
70
0
62
4
6
Continuous
290
1
370
-3
390
0
0
LAYER
5
9C
100
AcDbSymbolTableRecord
100
AcDbLayerTableRecord
2
4
70
0
62
-2
6
CENTER
290
1
370
-3
390
0
0
LAYER
5
AC
100
AcDbSymbolTableRecord
100
AcDbLayerTableRecord
2
2
70
0
62
7
6
Continuous
290
1
370
-3
390
0
0
LAYER
5
F6
100
AcDbSymbolTableRecord
100
AcDbLayerTableRecord
2
Defpoints
70
0
62
7
6
Continuous
290
0
370
-3
390
0
0
LAYER
5
1d1
100
AcDbSymbolTableRecord
100
AcDbLayerTableRecord
2
SK1
70
0
62
4
6
Continuous
290
1
370
-3
390
0
0
LAYER
5
1d2
100
AcDbSymbolTableRecord
100
AcDbLayerTableRecord
2
SK4
70
0
62
2
6
CENTER
290
1
370
-3
390
0
0
LAYER
5
1d3
100
AcDbSymbolTableRecord
100
AcDbLayerTableRecord
2
SK2
70
0
62
7
6
Continuous
290
1
370
-3
390
0
0
LAYER
5
1d4
100
AcDbSymbolTableRecord
100
AcDbLayerTableRecord
2
SK6
70
0
62
5
6
Continuous
290
1
370
-3
390
0
0
ENDTAB
0
TABLE
2
STYLE
5
1e8
100
AcDbSymbolTable
0
STYLE
5
11
100
AcDbSymbolTableRecord
100
AcDbTextStyleTableRecord
2
Standard
3
txt
70
0
71
0
40
0
41
1
42
0
50
0
0
STYLE
5
D2
100
AcDbSymbolTableRecord
100
AcDbTextStyleTableRecord
2
iso_b_vert
3
simplex.shx
70
0
71
0
40
0
41
1
42
0
50
0
0
STYLE
5
D3
100
AcDbSymbolTableRecord
100
AcDbTextStyleTableRecord
2
DWGDirectTextStyle
3
simplex
70
0
71
0
40
0
41
1
42
0
50
0
0
ENDTAB
0
TABLE
2
DIMSTYLE
5
1e9
100
AcDbSymbolTable
100
AcDbDimStyleTable
0
DIMSTYLE
105
27
100
AcDbSymbolTableRecord
100
AcDbDimStyleTableRecord
2
Standard
70
0
3
<>
41
0.18
42
0.0625
44
0.18
140
0.18
147
0.09
73
0
74
0
77
1
271
2
275
0
278
52
280
0
340
11
0
ENDTAB
0
TABLE
2
VIEW
5
1ea
100
AcDbSymbolTable
0
ENDTAB
0
TABLE
2
UCS
5
1eb
100
AcDbSymbolTable
0
ENDTAB
0
TABLE
2
APPID
5
1ec
100
AcDbSymbolTable
0
APPID
5
12
100
AcDbSymbolTableRecord
100
AcDbRegAppTableRecord
2
ACAD
70
0
0
APPID
5
F2
100
AcDbSymbolTableRecord
100
AcDbRegAppTableRecord
2
ACAD_DSTYLE_DIMBREAK
70
0
0
APPID
5
190
100
AcDbSymbolTableRecord
100
AcDbRegAppTableRecord
2
ACAD_DSTYLE_DIM_LINETYPE
70
0
0
APPID
5
191
100
AcDbSymbolTableRecord
100
AcDbRegAppTableRecord
2
ACAD_DSTYLE_DIM_EXT1_LINETYPE
70
0
0
APPID
5
192
100
AcDbSymbolTableRecord
100
AcDbRegAppTableRecord
2
ACAD_DSTYLE_DIM_EXT2_LINETYPE
70
0
0
APPID
5
1CD
100
AcDbSymbolTableRecord
100
AcDbRegAppTableRecord
2
ACAD_MLEADERVER
70
0
0
ENDTAB
0
TABLE
2
BLOCK_RECORD
5
1ed
100
AcDbSymbolTable
0
BLOCK_RECORD
5
1F
100
AcDbSymbolTableRecord
100
AcDbBlockTableRecord
2
*Model_Space
340
0
70
0
0
BLOCK_RECORD
5
1B
100
AcDbSymbolTableRecord
100
AcDbBlockTableRecord
2
*Paper_Space
340
0
70
0
0
BLOCK_RECORD
5
23
100
AcDbSymbolTableRecord
100
AcDbBlockTableRecord
2
*Paper_Space0
340
0
70
0
0
BLOCK_RECORD
5
F7
100
AcDbSymbolTableRecord
100
AcDbBlockTableRecord
2
*D1
340
0
70
0
0
BLOCK_RECORD
5
103
100
AcDbSymbolTableRecord
100
AcDbBlockTableRecord
2
_U0
340
0
70
0
0
BLOCK_RECORD
5
10F
100
AcDbSymbolTableRecord
100
AcDbBlockTableRecord
2
*D3
340
0
70
0
0
BLOCK_RECORD
5
11D
100
AcDbSymbolTableRecord
100
AcDbBlockTableRecord
2
_U1
340
0
70
0
0
BLOCK_RECORD
5
129
100
AcDbSymbolTableRecord
100
AcDbBlockTableRecord
2
*D5
340
0
70
0
0
BLOCK_RECORD
5
137
100
AcDbSymbolTableRecord
100
AcDbBlockTableRecord
2
_U2
340
0
70
0
0
BLOCK_RECORD
5
143
100
AcDbSymbolTableRecord
100
AcDbBlockTableRecord
2
*D7
340
0
70
0
0
BLOCK_RECORD
5
14F
100
AcDbSymbolTableRecord
100
AcDbBlockTableRecord
2
_U3
340
0
70
0
0
BLOCK_RECORD
5
15B
100
AcDbSymbolTableRecord
100
AcDbBlockTableRecord
2
*D9
340
0
70
0
0
BLOCK_RECORD
5
169
100
AcDbSymbolTableRecord
100
AcDbBlockTableRecord
2
_U4
340
0
70
0
0
ENDTAB
0
ENDSEC
0
SECTION
2
BLOCKS
0
BLOCK
5
20
100
AcDbEntity
8
0
100
AcDbBlockBegin
2
*Model_Space
70
0
10
0
20
0
30
0
3
*Model_Space
0
ENDBLK
5
21
100
AcDbEntity
8
0
100
AcDbBlockEnd
0
BLOCK
5
1C
100
AcDbEntity
8
0
100
AcDbBlockBegin
2
*Paper_Space
70
0
10
0
20
0
30
0
3
*Paper_Space
0
ENDBLK
5
1D
100
AcDbEntity
8
0
100
AcDbBlockEnd
0
BLOCK
5
24
100
AcDbEntity
8
0
100
AcDbBlockBegin
2
*Paper_Space0
70
0
10
0
20
0
30
0
3
*Paper_Space0
0
ENDBLK
5
25
100
AcDbEntity
8
0
100
AcDbBlockEnd
0
BLOCK
5
F8
100
AcDbEntity
8
0
100
AcDbBlockBegin
2
*D1
70
1
10
0
20
0
30
0
3
*D1
0
LINE
5
FA
100
AcDbEntity
8
0
62
256
6
ByLayer
370
-2
48
1
60
0
100
AcDbLine
10
-30.1402
20
-0.0875
30
0
11
-30.1402
21
-37.85
31
0
39
0
210
0
220
0
230
1
0
LINE
5
FB
100
AcDbEntity
8
0
62
256
6
ByLayer
370
-2
48
1
60
0
100
AcDbLine
10
7.8598
20
-1.2375
30
0
11
7.8598
21
-37.85
31
0
39
0
210
0
220
0
230
1
0
LINE
5
FC
100
AcDbEntity
8
0
62
256
6
ByLayer
370
-2
48
1
60
0
100
AcDbLine
10
-26.6402
20
-35.85
30
0
11
4.3598
21
-35.85
31
0
39
0
210
0
220
0
230
1
0
SOLID
5
FD
100
AcDbEntity
8
0
62
256
6
ByLayer
370
-1
48
1
60
0
100
AcDbTrace
10
-26.6402
20
-35.266667
30
0
11
-26.6402
21
-36.433333
31
0
12
-30.1402
22
-35.85
32
0
13
-30.1402
23
-35.85
33
0
39
0
210
0
220
0
230
1
0
SOLID
5
FE
100
AcDbEntity
8
0
62
256
6
ByLayer
370
-1
48
1
60
0
100
AcDbTrace
10
4.3598
20
-36.433333
30
0
11
4.3598
21
-35.266667
31
0
12
7.8598
22
-35.85
32
0
13
7.8598
23
-35.85
33
0
39
0
210
0
220
0
230
1
0
MTEXT
5
FF
100
AcDbEntity
8
0
62
256
6
ByLayer
370
18
48
1
60
0
100
AcDbMText
10
-11.1402
20
-29.85
30
0
210
0
220
0
230
1
1
\A1;38
40
3
41
0
44
1
50
0
71
5
72
5
7
iso_b_vert
0
POINT
5
100
100
AcDbEntity
8
Defpoints
62
0
6
ByLayer
370
-1
48
1
60
0
100
AcDbPoint
10
-30.1402
20
1.5
30
0
39
0
210
0
220
0
230
1
50
360
0
POINT
5
101
100
AcDbEntity
8
Defpoints
62
0
6
ByLayer
370
-1
48
1
60
0
100
AcDbPoint
10
7.8598
20
0.35
30
0
39
0
210
0
220
0
230
1
50
360
0
POINT
5
102
100
AcDbEntity
8
Defpoints
62
0
6
ByLayer
370
-1
48
1
60
0
100
AcDbPoint
10
7.8598
20
-35.85
30
0
39
0
210
0
220
0
230
1
50
360
0
ENDBLK
5
F9
100
AcDbEntity
8
0
100
AcDbBlockEnd
0
BLOCK
5
10A
100
AcDbEntity
8
0
100
AcDbBlockBegin
2
_U0
70
0
10
0
20
0
30
0
3
_U0
0
MTEXT
5
104
100
AcDbEntity
8
SK2
62
256
6
ByLayer
370
18
48
1
60
0
100
AcDbMText
10
-15.62257
20
-34.964886
30
0
210
0
220
0
230
1
1
\W0.7468;38.00
40
3
41
0
44
1.084337
50
0
71
7
72
5
7
iso_b_vert
0
LINE
5
105
100
AcDbEntity
8
SK2
62
256
6
ByLayer
370
13
48
1
60
0
100
AcDbLine
10
-30.1402
20
-0.0875
30
0
11
-30.1402
21
-37.85
31
0
39
0
210
0
220
0
230
1
0
LINE
5
106
100
AcDbEntity
8
SK2
62
256
6
ByLayer
370
13
48
1
60
0
100
AcDbLine
10
7.8598
20
-1.2375
30
0
11
7.8598
21
-37.85
31
0
39
0
210
0
220
0
230
1
0
LINE
5
107
100
AcDbEntity
8
SK2
62
256
6
ByLayer
370
13
48
1
60
0
100
AcDbLine
10
-30.1402
20
-35.85
30
0
11
7.8598
21
-35.85
31
0
39
0
210
0
220
0
230
1
0
SOLID
5
108
100
AcDbEntity
8
SK2
62
256
6
ByLayer
370
18
48
1
60
0
100
AcDbTrace
10
-30.1402
20
-35.85
30
0
11
-26.640202
21
-35.389216
31
0
12
-26.640198
22
-36.310784
32
0
13
-26.640198
23
-36.310784
33
0
39
0
210
0
220
0
230
1
0
SOLID
5
109
100
AcDbEntity
8
SK2
62
256
6
ByLayer
370
18
48
1
60
0
100
AcDbTrace
10
7.8598
20
-35.85
30
0
11
4.359802
21
-36.310784
31
0
12
4.359798
22
-35.389216
32
0
13
4.359798
23
-35.389216
33
0
39
0
210
0
220
0
230
1
0
ENDBLK
5
10B
100
AcDbEntity
8
0
100
AcDbBlockEnd
0
BLOCK
5
110
100
AcDbEntity
8
0
100
AcDbBlockBegin
2
*D3
70
1
10
0
20
0
30
0
3
*D3
0
LINE
5
112
100
AcDbEntity
8
0
62
256
6
ByLayer
370
-2
48
1
60
0
100
AcDbLine
10
7.8598
20
-1.2375
30
0
11
7.8598
21
-23.85
31
0
39
0
210
0
220
0
230
1
0
LINE
5
113
100
AcDbEntity
8
0
62
256
6
ByLayer
370
-2
48
1
60
0
100
AcDbLine
10
4.4098
20
-1.5875
30
0
11
4.4098
21
-23.85
31
0
39
0
210
0
220
0
230
1
0
LINE
5
114
100
AcDbEntity
8
0
62
256
6
ByLayer
370
-2
48
1
60
0
100
AcDbLine
10
7.8598
20
-21.85
30
0
11
33.002657
21
-21.85
31
0
39
0
210
0
220
0
230
1
0
LINE
5
115
100
AcDbEntity
8
0
62
256
6
ByLayer
370
-2
48
1
60
0
100
AcDbLine
10
11.3598
20
-21.85
30
0
11
14.8598
21
-21.85
31
0
39
0
210
0
220
0
230
1
0
LINE
5
116
100
AcDbEntity
8
0
62
256
6
ByLayer
370
-2
48
1
60
0
100
AcDbLine
10
0.9098
20
-21.85
30
0
11
-2.5902
21
-21.85
31
0
39
0
210
0
220
0
230
1
0
SOLID
5
117
100
AcDbEntity
8
0
62
256
6
ByLayer
370
-1
48
1
60
0
100
AcDbTrace
10
11.3598
20
-21.266667
30
0
11
11.3598
21
-22.433333
31
0
12
7.8598
22
-21.85
32
0
13
7.8598
23
-21.85
33
0
39
0
210
0
220
0
230
1
0
SOLID
5
118
100
AcDbEntity
8
0
62
256
6
ByLayer
370
-1
48
1
60
0
100
AcDbTrace
10
0.9098
20
-22.433333
30
0
11
0.9098
21
-21.266667
31
0
12
4.4098
22
-21.85
32
0
13
4.4098
23
-21.85
33
0
39
0
210
0
220
0
230
1
0
MTEXT
5
119
100
AcDbEntity
8
0
62
256
6
ByLayer
370
18
48
1
60
0
100
AcDbMText
10
23.931229
20
-15.85
30
0
210
0
220
0
230
1
1
\A1;3.45
40
3
41
0
44
1
50
0
71
5
72
5
7
iso_b_vert
0
POINT
5
11A
100
AcDbEntity
8
Defpoints
62
0
6
ByLayer
370
-1
48
1
60
0
100
AcDbPoint
10
7.8598
20
0.35
30
0
39
0
210
0
220
0
230
1
50
360
0
POINT
5
11B
100
AcDbEntity
8
Defpoints
62
0
6
ByLayer
370
-1
48
1
60
0
100
AcDbPoint
10
4.4098
20
0
30
0
39
0
210
0
220
0
230
1
50
360
0
POINT
5
11C
100
AcDbEntity
8
Defpoints
62
0
6
ByLayer
370
-1
48
1
60
0
100
AcDbPoint
10
4.4098
20
-21.85
30
0
39
0
210
0
220
0
230
1
50
360
0
ENDBLK
5
111
100
AcDbEntity
8
0
100
AcDbBlockEnd
0
BLOCK
5
124
100
AcDbEntity
8
0
100
AcDbBlockBegin
2
_U1
70
0
10
0
20
0
30
0
3
_U1
0
MTEXT
5
11E
100
AcDbEntity
8
SK2
62
256
6
ByLayer
370
18
48
1
60
0
100
AcDbMText
10
12.0188
20
-20.964886
30
0
210
0
220
0
230
1
1
\W0.7261;(3.45)
40
3
41
0
44
1.084337
50
0
71
7
72
5
7
iso_b_vert
0
LINE
5
11F
100
AcDbEntity
8
SK2
62
256
6
ByLayer
370
13
48
1
60
0
100
AcDbLine
10
7.8598
20
-1.2375
30
0
11
7.8598
21
-23.85
31
0
39
0
210
0
220
0
230
1
0
LINE
5
120
100
AcDbEntity
8
SK2
62
256
6
ByLayer
370
13
48
1
60
0
100
AcDbLine
10
4.4098
20
-1.5875
30
0
11
4.4098
21
-23.85
31
0
39
0
210
0
220
0
230
1
0
LINE
5
121
100
AcDbEntity
8
SK2
62
256
6
ByLayer
370
13
48
1
60
0
100
AcDbLine
10
-3.0902
20
-21.85
30
0
11
21.647455
21
-21.85
31
0
39
0
210
0
220
0
230
1
0
SOLID
5
122
100
AcDbEntity
8
SK2
62
256
6
ByLayer
370
18
48
1
60
0
100
AcDbTrace
10
7.8598
20
-21.85
30
0
11
11.359798
21
-21.389216
31
0
12
11.359802
22
-22.310784
32
0
13
11.359802
23
-22.310784
33
0
39
0
210
0
220
0
230
1
0
SOLID
5
123
100
AcDbEntity
8
SK2
62
256
6
ByLayer
370
18
48
1
60
0
100
AcDbTrace
10
4.4098
20
-21.85
30
0
11
0.909802
21
-22.310784
31
0
12
0.909798
22
-21.389216
32
0
13
0.909798
23
-21.389216
33
0
39
0
210
0
220
0
230
1
0
ENDBLK
5
125
100
AcDbEntity
8
0
100
AcDbBlockEnd
0
BLOCK
5
12A
100
AcDbEntity
8
0
100
AcDbBlockBegin
2
*D5
70
1
10
0
20
0
30
0
3
*D5
0
LINE
5
12C
100
AcDbEntity
8
0
62
256
6
ByLayer
370
-2
48
1
60
0
100
AcDbLine
10
7.8598
20
-1.2375
30
0
11
7.8598
21
-31.85
31
0
39
0
210
0
220
0
230
1
0
LINE
5
12D
100
AcDbEntity
8
0
62
256
6
ByLayer
370
-2
48
1
60
0
100
AcDbLine
10
3.3598
20
-1.5875
30
0
11
3.3598
21
-31.85
31
0
39
0
210
0
220
0
230
1
0
LINE
5
12E
100
AcDbEntity
8
0
62
256
6
ByLayer
370
-2
48
1
60
0
100
AcDbLine
10
7.8598
20
-29.85
30
0
11
30.145514
21
-29.85
31
0
39
0
210
0
220
0
230
1
0
LINE
5
12F
100
AcDbEntity
8
0
62
256
6
ByLayer
370
-2
48
1
60
0
100
AcDbLine
10
11.3598
20
-29.85
30
0
11
14.8598
21
-29.85
31
0
39
0
210
0
220
0
230
1
0
LINE
5
130
100
AcDbEntity
8
0
62
256
6
ByLayer
370
-2
48
1
60
0
100
AcDbLine
10
-0.1402
20
-29.85
30
0
11
-3.6402
21
-29.85
31
0
39
0
210
0
220
0
230
1
0
SOLID
5
131
100
AcDbEntity
8
0
62
256
6
ByLayer
370
-1
48
1
60
0
100
AcDbTrace
10
11.3598
20
-29.266667
30
0
11
11.3598
21
-30.433333
31
0
12
7.8598
22
-29.85
32
0
13
7.8598
23
-29.85
33
0
39
0
210
0
220
0
230
1
0
SOLID
5
132
100
AcDbEntity
8
0
62
256
6
ByLayer
370
-1
48
1
60
0
100
AcDbTrace
10
-0.1402
20
-30.433333
30
0
11
-0.1402
21
-29.266667
31
0
12
3.3598
22
-29.85
32
0
13
3.3598
23
-29.85
33
0
39
0
210
0
220
0
230
1
0
MTEXT
5
133
100
AcDbEntity
8
0
62
256
6
ByLayer
370
18
48
1
60
0
100
AcDbMText
10
22.502657
20
-23.85
30
0
210
0
220
0
230
1
1
\A1;4.5
40
3
41
0
44
1
50
0
71
5
72
5
7
iso_b_vert
0
POINT
5
134
100
AcDbEntity
8
Defpoints
62
0
6
ByLayer
370
-1
48
1
60
0
100
AcDbPoint
10
7.8598
20
0.35
30
0
39
0
210
0
220
0
230
1
50
360
0
POINT
5
135
100
AcDbEntity
8
Defpoints
62
0
6
ByLayer
370
-1
48
1
60
0
100
AcDbPoint
10
3.3598
20
0
30
0
39
0
210
0
220
0
230
1
50
360
0
POINT
5
136
100
AcDbEntity
8
Defpoints
62
0
6
ByLayer
370
-1
48
1
60
0
100
AcDbPoint
10
3.3598
20
-29.85
30
0
39
0
210
0
220
0
230
1
50
360
0
ENDBLK
5
12B
100
AcDbEntity
8
0
100
AcDbBlockEnd
0
BLOCK
5
13E
100
AcDbEntity
8
0
100
AcDbBlockBegin
2
_U2
70
0
10
0
20
0
30
0
3
_U2
0
MTEXT
5
138
100
AcDbEntity
8
SK2
62
256
6
ByLayer
370
18
48
1
60
0
100
AcDbMText
10
11.0188
20
-28.964886
30
0
210
0
220
0
230
1
1
\W0.7640;4.50
40
3
41
0
44
1.084337
50
0
71
7
72
5
7
iso_b_vert
0
LINE
5
139
100
AcDbEntity
8
SK2
62
256
6
ByLayer
370
13
48
1
60
0
100
AcDbLine
10
7.8598
20
-1.2375
30
0
11
7.8598
21
-31.85
31
0
39
0
210
0
220
0
230
1
0
LINE
5
13A
100
AcDbEntity
8
SK2
62
256
6
ByLayer
370
13
48
1
60
0
100
AcDbLine
10
3.3598
20
-1.5875
30
0
11
3.3598
21
-31.85
31
0
39
0
210
0
220
0
230
1
0
LINE
5
13B
100
AcDbEntity
8
SK2
62
256
6
ByLayer
370
13
48
1
60
0
100
AcDbLine
10
-4.1402
20
-29.85
30
0
11
18.216598
21
-29.85
31
0
39
0
210
0
220
0
230
1
0
SOLID
5
13C
100
AcDbEntity
8
SK2
62
256
6
ByLayer
370
18
48
1
60
0
100
AcDbTrace
10
7.8598
20
-29.85
30
0
11
11.359798
21
-29.389216
31
0
12
11.359802
22
-30.310784
32
0
13
11.359802
23
-30.310784
33
0
39
0
210
0
220
0
230
1
0
SOLID
5
13D
100
AcDbEntity
8
SK2
62
256
6
ByLayer
370
18
48
1
60
0
100
AcDbTrace
10
3.3598
20
-29.85
30
0
11
-0.140198
21
-30.310784
31
0
12
-0.140202
22
-29.389216
32
0
13
-0.140202
23
-29.389216
33
0
39
0
210
0
220
0
230
1
0
ENDBLK
5
13F
100
AcDbEntity
8
0
100
AcDbBlockEnd
0
BLOCK
5
144
100
AcDbEntity
8
0
100
AcDbBlockBegin
2
*D7
70
1
10
0
20
0
30
0
3
*D7
0
LINE
5
146
100
AcDbEntity
8
0
62
256
6
ByLayer
370
-2
48
1
60
0
100
AcDbLine
10
-30.1402
20
1.5875
30
0
11
-30.1402
21
13.35
31
0
39
0
210
0
220
0
230
1
0
LINE
5
147
100
AcDbEntity
8
0
62
256
6
ByLayer
370
-2
48
1
60
0
100
AcDbLine
10
0
20
1.5875
30
0
11
0
21
13.35
31
0
39
0
210
0
220
0
230
1
0
LINE
5
148
100
AcDbEntity
8
0
62
256
6
ByLayer
370
-2
48
1
60
0
100
AcDbLine
10
-26.6402
20
11.35
30
0
11
-3.5
21
11.35
31
0
39
0
210
0
220
0
230
1
0
SOLID
5
149
100
AcDbEntity
8
0
62
256
6
ByLayer
370
-1
48
1
60
0
100
AcDbTrace
10
-26.6402
20
11.933333
30
0
11
-26.6402
21
10.766667
31
0
12
-30.1402
22
11.35
32
0
13
-30.1402
23
11.35
33
0
39
0
210
0
220
0
230
1
0
SOLID
5
14A
100
AcDbEntity
8
0
62
256
6
ByLayer
370
-1
48
1
60
0
100
AcDbTrace
10
-3.5
20
10.766667
30
0
11
-3.5
21
11.933333
31
0
12
0
22
11.35
32
0
13
0
23
11.35
33
0
39
0
210
0
220
0
230
1
0
MTEXT
5
14B
100
AcDbEntity
8
0
62
256
6
ByLayer
370
18
48
1
60
0
100
AcDbMText
10
-15.0701
20
17.35
30
0
210
0
220
0
230
1
1
\A1;30.14
40
3
41
0
44
1
50
0
71
5
72
5
7
iso_b_vert
0
POINT
5
14C
100
AcDbEntity
8
Defpoints
62
0
6
ByLayer
370
-1
48
1
60
0
100
AcDbPoint
10
-30.1402
20
0
30
0
39
0
210
0
220
0
230
1
50
360
0
POINT
5
14D
100
AcDbEntity
8
Defpoints
62
0
6
ByLayer
370
-1
48
1
60
0
100
AcDbPoint
10
0
20
0
30
0
39
0
210
0
220
0
230
1
50
360
0
POINT
5
14E
100
AcDbEntity
8
Defpoints
62
0
6
ByLayer
370
-1
48
1
60
0
100
AcDbPoint
10
0
20
11.35
30
0
39
0
210
0
220
0
230
1
50
360
0
ENDBLK
5
145
100
AcDbEntity
8
0
100
AcDbBlockEnd
0
BLOCK
5
156
100
AcDbEntity
8
0
100
AcDbBlockBegin
2
_U3
70
0
10
0
20
0
30
0
3
_U3
0
MTEXT
5
150
100
AcDbEntity
8
SK2
62
256
6
ByLayer
370
18
48
1
60
0
100
AcDbMText
10
-19.335471
20
12.235114
30
0
210
0
220
0
230
1
1
\W0.7010;30.14
40
3
41
0
44
1.084337
50
0
71
7
72
5
7
iso_b_vert
0
LINE
5
151
100
AcDbEntity
8
SK2
62
256
6
ByLayer
370
13
48
1
60
0
100
AcDbLine
10
-30.1402
20
1.5875
30
0
11
-30.1402
21
13.35
31
0
39
0
210
0
220
0
230
1
0
LINE
5
152
100
AcDbEntity
8
SK2
62
256
6
ByLayer
370
13
48
1
60
0
100
AcDbLine
10
0
20
1.5875
30
0
11
0
21
13.35
31
0
39
0
210
0
220
0
230
1
0
LINE
5
153
100
AcDbEntity
8
SK2
62
256
6
ByLayer
370
13
48
1
60
0
100
AcDbLine
10
-30.1402
20
11.35
30
0
11
0
21
11.35
31
0
39
0
210
0
220
0
230
1
0
SOLID
5
154
100
AcDbEntity
8
SK2
62
256
6
ByLayer
370
18
48
1
60
0
100
AcDbTrace
10
-30.1402
20
11.35
30
0
11
-26.640202
21
11.810784
31
0
12
-26.640198
22
10.889216
32
0
13
-26.640198
23
10.889216
33
0
39
0
210
0
220
0
230
1
0
SOLID
5
155
100
AcDbEntity
8
SK2
62
256
6
ByLayer
370
18
48
1
60
0
100
AcDbTrace
10
0
20
11.35
30
0
11
-3.499998
21
10.889216
31
0
12
-3.500002
22
11.810784
32
0
13
-3.500002
23
11.810784
33
0
39
0
210
0
220
0
230
1
0
ENDBLK
5
157
100
AcDbEntity
8
0
100
AcDbBlockEnd
0
BLOCK
5
15C
100
AcDbEntity
8
0
100
AcDbBlockBegin
2
*D9
70
1
10
0
20
0
30
0
3
*D9
0
LINE
5
15E
100
AcDbEntity
8
0
62
256
6
ByLayer
370
-2
48
1
60
0
100
AcDbLine
10
7.8598
20
1.9375
30
0
11
7.8598
21
7
31
0
39
0
210
0
220
0
230
1
0
LINE
5
15F
100
AcDbEntity
8
0
62
256
6
ByLayer
370
-2
48
1
60
0
100
AcDbLine
10
0
20
1.5875
30
0
11
0
21
7
31
0
39
0
210
0
220
0
230
1
0
LINE
5
160
100
AcDbEntity
8
0
62
256
6
ByLayer
370
-2
48
1
60
0
100
AcDbLine
10
0
20
5
30
0
11
-25.142857
21
5
31
0
39
0
210
0
220
0
230
1
0
LINE
5
161
100
AcDbEntity
8
0
62
256
6
ByLayer
370
-2
48
1
60
0
100
AcDbLine
10
11.3598
20
5
30
0
11
14.8598
21
5
31
0
39
0
210
0
220
0
230
1
0
LINE
5
162
100
AcDbEntity
8
0
62
256
6
ByLayer
370
-2
48
1
60
0
100
AcDbLine
10
-3.5
20
5
30
0
11
-7
21
5
31
0
39
0
210
0
220
0
230
1
0
SOLID
5
163
100
AcDbEntity
8
0
62
256
6
ByLayer
370
-1
48
1
60
0
100
AcDbTrace
10
11.3598
20
5.583333
30
0
11
11.3598
21
4.416667
31
0
12
7.8598
22
5
32
0
13
7.8598
23
5
33
0
39
0
210
0
220
0
230
1
0
SOLID
5
164
100
AcDbEntity
8
0
62
256
6
ByLayer
370
-1
48
1
60
0
100
AcDbTrace
10
-3.5
20
4.416667
30
0
11
-3.5
21
5.583333
31
0
12
0
22
5
32
0
13
0
23
5
33
0
39
0
210
0
220
0
230
1
0
MTEXT
5
165
100
AcDbEntity
8
0
62
256
6
ByLayer
370
18
48
1
60
0
100
AcDbMText
10
-16.071429
20
11
30
0
210
0
220
0
230
1
1
\A1;7.86
40
3
41
0
44
1
50
0
71
5
72
5
7
iso_b_vert
0
POINT
5
166
100
AcDbEntity
8
Defpoints
62
0
6
ByLayer
370
-1
48
1
60
0
100
AcDbPoint
10
7.8598
20
0.35
30
0
39
0
210
0
220
0
230
1
50
360
0
POINT
5
167
100
AcDbEntity
8
Defpoints
62
0
6
ByLayer
370
-1
48
1
60
0
100
AcDbPoint
10
0
20
0
30
0
39
0
210
0
220
0
230
1
50
360
0
POINT
5
168
100
AcDbEntity
8
Defpoints
62
0
6
ByLayer
370
-1
48
1
60
0
100
AcDbPoint
10
0
20
5
30
0
39
0
210
0
220
0
230
1
50
360
0
ENDBLK
5
15D
100
AcDbEntity
8
0
100
AcDbBlockEnd
0
BLOCK
5
170
100
AcDbEntity
8
0
100
AcDbBlockBegin
2
_U4
70
0
10
0
20
0
30
0
3
_U4
0
MTEXT
5
16A
100
AcDbEntity
8
2
62
256
6
ByLayer
370
18
48
1
60
0
100
AcDbMText
10
-9.841
20
5.885114
30
0
210
0
220
0
230
1
1
\W0.7346;7.86
40
3
41
0
44
1.084337
50
0
71
7
72
5
7
iso_b_vert
0
LINE
5
16B
100
AcDbEntity
8
2
62
256
6
ByLayer
370
13
48
1
60
0
100
AcDbLine
10
7.8598
20
1.9375
30
0
11
7.8598
21
7
31
0
39
0
210
0
220
0
230
1
0
LINE
5
16C
100
AcDbEntity
8
2
62
256
6
ByLayer
370
13
48
1
60
0
100
AcDbLine
10
0
20
1.5875
30
0
11
0
21
7
31
0
39
0
210
0
220
0
230
1
0
LINE
5
16D
100
AcDbEntity
8
2
62
256
6
ByLayer
370
13
48
1
60
0
100
AcDbLine
10
7.8598
20
5
30
0
11
-10
21
5
31
0
39
0
210
0
220
0
230
1
0
SOLID
5
16E
100
AcDbEntity
8
2
62
256
6
ByLayer
370
18
48
1
60
0
100
AcDbTrace
10
7.8598
20
5
30
0
11
4.359802
21
4.539216
31
0
12
4.359798
22
5.460784
32
0
13
4.359798
23
5.460784
33
0
39
0
210
0
220
0
230
1
0
SOLID
5
16F
100
AcDbEntity
8
2
62
256
6
ByLayer
370
18
48
1
60
0
100
AcDbTrace
10
0
20
5
30
0
11
3.499998
21
5.460784
31
0
12
3.500002
22
4.539216
32
0
13
3.500002
23
4.539216
33
0
39
0
210
0
220
0
230
1
0
ENDBLK
5
171
100
AcDbEntity
8
0
100
AcDbBlockEnd
0
ENDSEC
0
SECTION
2
ENTITIES
0
ARC
5
BD
100
AcDbEntity
8
1
62
256
6
ByLayer
370
18
48
1
60
0
100
AcDbCircle
39
0
10
2.259844
20
-1.35
30
0
40
0.999999999999999
210
0
220
0
230
1
100
AcDbArc
50
90
51
120
0
ARC
5
BE
100
AcDbEntity
8
1
62
256
6
ByLayer
370
18
48
1
60
0
100
AcDbCircle
39
0
10
2.259844
20
1.35
30
0
40
0.999999999999999
210
0
220
0
230
1
100
AcDbArc
50
240
51
270
0
ARC
5
BF
100
AcDbEntity
8
SK2
62
256
6
ByLayer
370
13
48
1
60
0
100
AcDbCircle
39
0
10
7.8598
20
0
30
0
40
16.35
210
0
220
0
230
1
100
AcDbArc
50
10.57289
51
65
0
ARC
5
C0
100
AcDbEntity
8
SK2
62
256
6
ByLayer
370
13
48
1
60
0
100
AcDbCircle
39
0
10
7.8598
20
0
30
0
40
16.35
210
0
220
0
230
1
100
AcDbArc
50
295
51
349.42711
0
POINT
5
70
100
AcDbEntity
8
80
62
256
6
ByLayer
370
18
48
1
60
0
100
AcDbPoint
10
0
20
0
30
0
39
0
210
0
220
0
230
1
50
360
0
POINT
5
72
100
AcDbEntity
8
81
62
256
6
ByLayer
370
18
48
1
60
0
100
AcDbPoint
10
7.8598
20
0
30
0
39
0
210
0
220
0
230
1
50
360
0
POINT
5
74
100
AcDbEntity
8
1
62
256
6
ByLayer
370
18
48
1
60
1
100
AcDbPoint
10
-30.1402
20
1.5
30
0
39
0
210
0
220
0
230
1
50
360
0
POINT
5
76
100
AcDbEntity
8
1
62
256
6
ByLayer
370
18
48
1
60
1
100
AcDbPoint
10
7.8598
20
0.35
30
0
39
0
210
0
220
0
230
1
50
360
0
POINT
5
77
100
AcDbEntity
8
1
62
256
6
ByLayer
370
18
48
1
60
1
100
AcDbPoint
10
7.8598
20
0.35
30
0
39
0
210
0
220
0
230
1
50
360
0
POINT
5
78
100
AcDbEntity
8
1
62
256
6
ByLayer
370
18
48
1
60
1
100
AcDbPoint
10
4.4098
20
0
30
0
39
0
210
0
220
0
230
1
50
360
0
POINT
5
79
100
AcDbEntity
8
1
62
256
6
ByLayer
370
18
48
1
60
1
100
AcDbPoint
10
7.8598
20
0.35
30
0
39
0
210
0
220
0
230
1
50
360
0
POINT
5
7A
100
AcDbEntity
8
1
62
256
6
ByLayer
370
18
48
1
60
1
100
AcDbPoint
10
3.3598
20
0
30
0
39
0
210
0
220
0
230
1
50
360
0
POINT
5
7B
100
AcDbEntity
8
1
62
256
6
ByLayer
370
18
48
1
60
1
100
AcDbPoint
10
-30.1402
20
0
30
0
39
0
210
0
220
0
230
1
50
360
0
POINT
5
7C
100
AcDbEntity
8
1
62
256
6
ByLayer
370
18
48
1
60
1
100
AcDbPoint
10
0
20
0
30
0
39
0
210
0
220
0
230
1
50
360
0
POINT
5
7D
100
AcDbEntity
8
1
62
256
6
ByLayer
370
18
48
1
60
1
100
AcDbPoint
10
7.8598
20
0.35
30
0
39
0
210
0
220
0
230
1
50
360
0
POINT
5
7E
100
AcDbEntity
8
1
62
256
6
ByLayer
370
18
48
1
60
1
100
AcDbPoint
10
0
20
0
30
0
39
0
210
0
220
0
230
1
50
360
0
SPLINE
5
C1
100
AcDbEntity
8
1
62
256
6
ByLayer
370
18
48
1
60
0
100
AcDbSpline
70
4
71
3
72
30
73
26
40
0
40
0
40
0
40
0
40
0.0764055354201855
40
0.0764055354201855
40
0.261124428336143
40
0.261124428336143
40
0.353483874794122
40
0.353483874794122
40
0.445843321252101
40
0.445843321252101
40
0.53820276771008
40
0.53820276771008
40
0.630562214168058
40
0.630562214168058
40
0.722921660626037
40
0.722921660626037
40
0.769101383855031
40
0.769101383855031
40
0.815281107084025
40
0.815281107084025
40
0.907640553542013
40
0.907640553542013
40
0.953820276771006
40
0.953820276771006
40
1
40
1
40
1
40
1
41
1
10
3.55536157831838
20
-0.29732200483835
30
0
41
1
10
3.54586476684668
20
-0.300666426383003
30
0
41
1
10
3.53657652164938
20
-0.30398567103714
30
0
41
1
10
3.50556160872475
20
-0.315130795631745
30
0
41
1
10
3.48485605073171
20
-0.322690298871464
30
0
41
1
10
3.45590410742003
20
-0.332665263761101
30
0
41
1
10
3.44656625504189
20
-0.335772594640758
30
0
41
1
10
3.42887381719461
20
-0.341254732275672
30
0
41
1
10
3.42061042906067
20
-0.343602127520484
30
0
41
1
10
3.40532926131016
20
-0.347308417334261
30
0
41
1
10
3.39830998646349
20
-0.348669009294383
30
0
41
1
10
3.38567348731081
20
-0.350130147270107
30
0
41
1
10
3.38018450627573
20
-0.35020868335468
30
0
41
1
10
3.37107538325896
20
-0.348891985739584
30
0
41
1
10
3.36742690782987
20
-0.347501602547027
30
0
41
1
10
3.36344103899037
20
-0.344148663255652
30
0
41
1
10
3.36235716437176
20
-0.342808031329611
30
0
41
1
10
3.36075291558387
20
-0.339725612027678
30
0
41
1
10
3.3602284532956
20
-0.337988090700975
30
0
41
1
10
3.35947012826682
20
-0.332194639345261
30
0
41
1
10
3.3600463023794
20
-0.327559824157873
30
0
41
1
10
3.36255401951669
20
-0.319444060025035
30
0
41
1
10
3.36367120314955
20
-0.316533526019839
30
0
41
1
10
3.3664242503757
20
-0.310418872639787
30
0
41
1
10
3.36806113805017
20
-0.307207114343669
30
0
41
1
10
3.36995263641691
20
-0.30384869772115
30
0
0
SPLINE
5
C2
100
AcDbEntity
8
1
62
256
6
ByLayer
370
18
48
1
60
0
100
AcDbSpline
70
4
71
3
72
16
73
12
40
0
40
0
40
0
40
0
40
0.249999999999986
40
0.249999999999986
40
0.499999999999973
40
0.499999999999973
40
0.624999999999993
40
0.624999999999993
40
0.750000000000013
40
0.750000000000013
40
1
40
1
40
1
40
1
41
1
10
3.36995263642203
20
-0.303848697710606
30
0
41
1
10
3.40129099172916
20
-0.300019469060715
30
0
41
1
10
3.43278547776237
20
-0.29705218951591
30
0
41
1
10
3.49607648822234
20
-0.293287417088664
30
0
41
1
10
3.52787304531262
20
-0.292488859750705
30
0
41
1
10
3.57579717011927
20
-0.293034833587058
30
0
41
1
10
3.59181019753743
20
-0.293505321900881
30
0
41
1
10
3.62391466074683
20
-0.295016353291658
30
0
41
1
10
3.63993639942692
20
-0.296054720907477
30
0
41
1
10
3.68760880323634
20
-0.29992315358038
30
0
41
1
10
3.71899286717456
20
-0.303521076426591
30
0
41
1
10
3.74998000000434
20
-0.307817651688822
30
0
0
SPLINE
5
C3
100
AcDbEntity
8
1
62
256
6
ByLayer
370
18
48
1
60
0
100
AcDbSpline
70
4
71
3
72
24
73
20
40
0
40
0
40
0
40
0
40
0.173694062111463
40
0.173694062111463
40
0.347388124222925
40
0.347388124222925
40
0.434235155278638
40
0.434235155278638
40
0.52108218633435
40
0.52108218633435
40
0.694776248445775
40
0.694776248445775
40
0.781623279501488
40
0.781623279501488
40
0.8684703105572
40
0.8684703105572
40
0.955317341612913
40
0.955317341612913
40
1
40
1
40
1
40
1
41
1
10
3.74998000000002
20
0.240712947606198
30
0
41
1
10
3.72331003543226
20
0.246353451867691
30
0
41
1
10
3.69717718012373
20
0.252890302547598
30
0
41
1
10
3.64598470269894
20
0.267248329570293
30
0
41
1
10
3.62103134332909
20
0.275043154750506
30
0
41
1
10
3.58482881286085
20
0.287084389911115
30
0
41
1
10
3.57292262246216
20
0.291170282043282
30
0
41
1
10
3.54975294017132
20
0.299277736291742
30
0
41
1
10
3.53847143881507
20
0.303304737708061
30
0
41
1
10
3.50556160872478
20
0.315130795631745
30
0
41
1
10
3.48485605073171
20
0.322690298871464
30
0
41
1
10
3.45590410742003
20
0.332665263761101
30
0
41
1
10
3.44656625504189
20
0.335772594640758
30
0
41
1
10
3.42887381719461
20
0.341254732275672
30
0
41
1
10
3.42061042906067
20
0.343602127520484
30
0
41
1
10
3.40532926131019
20
0.347308417334261
30
0
41
1
10
3.39830998646349
20
0.348669009294383
30
0
41
1
10
3.38874100759921
20
0.349775454856456
30
0
41
1
10
3.3857097928275
20
0.349978732712344
30
0
41
1
10
3.38291241331098
20
0.349997855675042
30
0
0
SPLINE
5
C4
100
AcDbEntity
8
1
62
256
6
ByLayer
370
18
48
1
60
0
100
AcDbSpline
70
4
71
3
72
14
73
10
40
0
40
0
40
0
40
0
40
0.0133494474931287
40
0.0133494474931287
40
0.260012085619873
40
0.260012085619873
40
0.506674723746617
40
0.506674723746617
40
1
40
1
40
1
40
1
41
1
10
3.55722913124498
20
0.292825846311843
30
0
41
1
10
3.55809346287253
20
0.292833994746303
30
0
41
1
10
3.55895790639573
20
0.292842992891906
30
0
41
1
10
3.5757971701193
20
0.293034833587058
30
0
41
1
10
3.59181019753743
20
0.293505321900881
30
0
41
1
10
3.62391466074683
20
0.295016353291658
30
0
41
1
10
3.63993639942689
20
0.296054720907477
30
0
41
1
10
3.68760880323629
20
0.29992315358038
30
0
41
1
10
3.71899286717456
20
0.303521076426591
30
0
41
1
10
3.74998000000434
20
0.307817651688822
30
0
0
SPLINE
5
C5
100
AcDbEntity
8
1
62
256
6
ByLayer
370
18
48
1
60
0
100
AcDbSpline
70
4
71
3
72
50
73
46
40
0
40
0
40
0
40
0
40
0.068280376737225
40
0.068280376737225
40
0.102420565105837
40
0.102420565105837
40
0.13656075347445
40
0.13656075347445
40
0.170700941843063
40
0.170700941843063
40
0.204841130211675
40
0.204841130211675
40
0.273121506948891
40
0.273121506948891
40
0.307261695317504
40
0.307261695317504
40
0.341401883686116
40
0.341401883686116
40
0.409682260423341
40
0.409682260423341
40
0.477962637160566
40
0.477962637160566
40
0.512102825529179
40
0.512102825529179
40
0.546243013897791
40
0.546243013897791
40
0.614523390635025
40
0.614523390635025
40
0.648663579003637
40
0.648663579003637
40
0.68280376737225
40
0.68280376737225
40
0.716943955740862
40
0.716943955740862
40
0.751084144109475
40
0.751084144109475
40
0.819364520846708
40
0.819364520846708
40
0.887644897583942
40
0.887644897583942
40
0.955925274321175
40
0.955925274321175
40
0.990065462689788
40
0.990065462689788
40
1
40
1
40
1
40
1
41
1
10
3.74998000000002
20
0.240712947606198
30
0
41
1
10
3.7911264593605
20
0.22339000564358
30
0
41
1
10
3.83217462943014
20
0.204510749622017
30
0
41
1
10
3.89385110638489
20
0.17423539337517
30
0
41
1
10
3.9144517036857
20
0.163805161517502
30
0
41
1
10
3.9555963171135
20
0.142427775619268
30
0
41
1
10
3.97613412890556
20
0.131477258709054
30
0
41
1
10
4.01719449602226
20
0.109137651339978
30
0
41
1
10
4.03773139506887
20
0.0977718667166698
30
0
41
1
10
4.0788785082652
20
0.0747494775657458
30
0
41
1
10
4.09948871917655
20
0.0630803127440913
30
0
41
1
10
4.16116157022307
20
0.027900011184812
30
0
41
1
10
4.2021649819734
20
0.0041470310594605
30
0
41
1
10
4.26376947972321
20
-0.0314688682953488
30
0
41
1
10
4.28436817643217
20
-0.0433233007161959
30
0
41
1
10
4.32551204606861
20
-0.0667728171502233
30
0
41
1
10
4.34605604500933
20
-0.0783717235958363
30
0
41
1
10
4.40766671904629
20
-0.112688951856597
30
0
41
1
10
4.44872755235076
20
-0.134945056929411
30
0
41
1
10
4.53105854141381
20
-0.177550132969202
30
0
41
1
10
4.57209849061042
20
-0.197617393920581
30
0
41
1
10
4.63373076243818
20
-0.225520918525376
30
0
41
1
10
4.65428592312026
20
-0.234456779801747
30
0
41
1
10
4.69545955598917
20
-0.251536798340169
30
0
41
1
10
4.71605354754573
20
-0.259672084693136
30
0
41
1
10
4.77766610382378
20
-0.282663405006673
30
0
41
1
10
4.81868817644099
20
-0.296071488718496
30
0
41
1
10
4.88040828059246
20
-0.313063246086045
30
0
41
1
10
4.90103299371151
20
-0.318211388857236
30
0
41
1
10
4.94216923388086
20
-0.327376114802064
30
0
41
1
10
4.96269676875647
20
-0.331403247976112
30
0
41
1
10
5.00373163663073
20
-0.338307957631344
30
0
41
1
10
5.02425292497421
20
-0.341178705390973
30
0
41
1
10
5.06535570814344
20
-0.345739191242757
30
0
41
1
10
5.08595979843383
20
-0.34743138501139
30
0
41
1
10
5.14772459308779
20
-0.350699789289905
30
0
41
1
10
5.18874126019713
20
-0.350473405611837
30
0
41
1
10
5.27082163705069
20
-0.345195972076652
30
0
41
1
10
5.31205081914197
20
-0.34013210106383
30
0
41
1
10
5.3942216368593
20
-0.325453993100354
30
0
41
1
10
5.43522988866692
20
-0.315841682799942
30
0
41
1
10
5.49688457346269
20
-0.298143866371703
30
0
41
1
10
5.51747634879757
20
-0.291710265571567
30
0
41
1
10
5.54400126505112
20
-0.282802987261562
30
0
41
1
10
5.5499782272189
20
-0.280754751782126
30
0
41
1
10
5.55595391591845
20
-0.278666639612624
30
0
0
SPLINE
5
C6
100
AcDbEntity
8
1
62
256
6
ByLayer
370
18
48
1
60
0
100
AcDbSpline
70
4
71
3
72
34
73
30
40
0
40
0
40
0
40
0
40
0.0196084852525848
40
0.0196084852525848
40
0.117647636727331
40
0.117647636727331
40
0.215686788202077
40
0.215686788202077
40
0.313725939676824
40
0.313725939676824
40
0.411765091151571
40
0.411765091151571
40
0.607843394101064
40
0.607843394101064
40
0.705882545575798
40
0.705882545575798
40
0.803921697050532
40
0.803921697050532
40
0.852941272787899
40
0.852941272787899
40
0.901960848525266
40
0.901960848525266
40
0.926470636393949
40
0.926470636393949
40
0.950980424262633
40
0.950980424262633
40
0.975490212131317
40
0.975490212131317
40
1
40
1
40
1
40
1
41
1
10
7.06678811416162
20
0.350000072556156
30
0
41
1
10
7.07089858903157
20
0.349999081346709
30
0
41
1
10
7.07501008567664
20
0.349973990542594
30
0
41
1
10
7.09968556884826
20
0.349678767296808
30
0
41
1
10
7.12029708318005
20
0.348826411730158
30
0
41
1
10
7.1613997054821
20
0.345920887612778
30
0
41
1
10
7.18191162034941
20
0.343867614245198
30
0
41
1
10
7.2229124593805
20
0.338572928747368
30
0
41
1
10
7.24341864249016
20
0.335338192389656
30
0
41
1
10
7.28449821199735
20
0.32772635323488
30
0
41
1
10
7.3050958642724
20
0.323341719028207
30
0
41
1
10
7.36683613032039
20
0.308551515385773
30
0
41
1
10
7.40786505666364
20
0.296533339457966
30
0
41
1
10
7.46946702317189
20
0.275486788074545
30
0
41
1
10
7.49004168982515
20
0.267969639494794
30
0
41
1
10
7.53120133945987
20
0.252050382116977
30
0
41
1
10
7.55173294191565
20
0.243639201992238
30
0
41
1
10
7.58254812973519
20
0.230465278928165
30
0
41
1
10
7.59279872284049
20
0.225949340317328
30
0
41
1
10
7.6132987166564
20
0.216720183408569
30
0
41
1
10
7.62361185656408
20
0.21209627930449
30
0
41
1
10
7.63908294137678
20
0.205022804678691
30
0
41
1
10
7.64422835680762
20
0.202625054018682
30
0
41
1
10
7.65443576972785
20
0.197657591660771
30
0
41
1
10
7.6594865452638
20
0.195070193601822
30
0
41
1
10
7.66967534486736
20
0.189972214030718
30
0
41
1
10
7.67481192791342
20
0.187459345748039
30
0
41
1
10
7.68541014054705
20
0.182885951961879
30
0
41
1
10
7.69089351742696
20
0.180859637484986
30
0
41
1
10
7.69659231964573
20
0.179155399890874
30
0
0
SPLINE
5
C7
100
AcDbEntity
8
1
62
256
6
ByLayer
370
18
48
1
60
0
100
AcDbSpline
70
4
71
3
72
20
73
16
40
0
40
0
40
0
40
0
40
0.124999999999993
40
0.124999999999993
40
0.249999999999986
40
0.249999999999986
40
0.374999999999979
40
0.374999999999979
40
0.499999999999972
40
0.499999999999972
40
0.749999999999986
40
0.749999999999986
40
0.874999999999993
40
0.874999999999993
40
1
40
1
40
1
40
1
41
1
10
7.69659231964573
20
0.179155399890874
30
0
41
1
10
7.70207972661336
20
0.171310268655219
30
0
41
1
10
7.7075558250213
20
0.164248792540406
30
0
41
1
10
7.71850737312201
20
0.15138948090231
30
0
41
1
10
7.72398253774162
20
0.145603531848337
30
0
41
1
10
7.73493184556821
20
0.134826527356608
30
0
41
1
10
7.74040566798595
20
0.129832527252262
30
0
41
1
10
7.75134097134969
20
0.120310169193857
30
0
41
1
10
7.75680728947901
20
0.115773591107967
30
0
41
1
10
7.77299268642867
20
0.103278170698559
30
0
41
1
10
7.78357780994992
20
0.0964915278284764
30
0
41
1
10
7.79843899869798
20
0.0884806060769847
30
0
41
1
10
7.80322039943866
20
0.0861659341404675
30
0
41
1
10
7.81198150415224
20
0.082259901996764
30
0
41
1
10
7.81598439077351
20
0.0806683714473309
30
0
41
1
10
7.81899811028006
20
0.0794487657553873
30
0
0
SPLINE
5
C8
100
AcDbEntity
8
1
62
256
6
ByLayer
370
18
48
1
60
0
100
AcDbSpline
70
4
71
3
72
22
73
18
40
0
40
0
40
0
40
0
40
0.0663658492386575
40
0.0663658492386575
40
0.132731698477315
40
0.132731698477315
40
0.199097547715973
40
0.199097547715973
40
0.26546339695463
40
0.26546339695463
40
0.398195095432013
40
0.398195095432013
40
0.530926793909395
40
0.530926793909395
40
0.79639019086416
40
0.79639019086416
40
1
40
1
40
1
40
1
41
1
10
7.69659231964573
20
0.336848115787887
30
0
41
1
10
7.69088467679961
20
0.336308553380945
30
0
41
1
10
7.6853930235481
20
0.335648077085295
30
0
41
1
10
7.67477854108614
20
0.334077317107671
30
0
41
1
10
7.66963387192163
20
0.33317682882361
30
0
41
1
10
7.65942799417149
20
0.331251909240848
30
0
41
1
10
7.6543681133777
20
0.330226922841774
30
0
41
1
10
7.6441407280891
20
0.328166974074094
30
0
41
1
10
7.63898486577068
20
0.327126781511083
30
0
41
1
10
7.62348169814078
20
0.323929097717382
30
0
41
1
10
7.61314696506366
20
0.321663322492839
30
0
41
1
10
7.59259988942421
20
0.316765642527883
30
0
41
1
10
7.58232329240945
20
0.314178461067996
30
0
41
1
10
7.55142758818209
20
0.306052687335182
30
0
41
1
10
7.53081300000662
20
0.300065924216113
30
0
41
1
10
7.49440505297599
20
0.28861383529545
30
0
41
1
10
7.47862212079121
20
0.2833440794345
30
0
41
1
10
7.46284502388272
20
0.277790713360503
30
0
0
SPLINE
5
C9
100
AcDbEntity
8
1
62
256
6
ByLayer
370
18
48
1
60
0
100
AcDbSpline
70
4
71
3
72
56
73
52
40
0
40
0
40
0
40
0
40
0.0212800895087869
40
0.0212800895087869
40
0.0492435155228208
40
0.0492435155228208
40
0.0772069415368547
40
0.0772069415368547
40
0.105170367550889
40
0.105170367550889
40
0.161097219578956
40
0.161097219578956
40
0.217024071607024
40
0.217024071607024
40
0.272950923635092
40
0.272950923635092
40
0.300914349649126
40
0.300914349649126
40
0.32887777566316
40
0.32887777566316
40
0.356841201677193
40
0.356841201677193
40
0.384804627691227
40
0.384804627691227
40
0.440731479719288
40
0.440731479719288
40
0.468694905733322
40
0.468694905733322
40
0.496658331747356
40
0.496658331747356
40
0.55258518377543
40
0.55258518377543
40
0.608512035803505
40
0.608512035803505
40
0.636475461817542
40
0.636475461817542
40
0.66443888783158
40
0.66443888783158
40
0.720365739859647
40
0.720365739859647
40
0.748329165873681
40
0.748329165873681
40
0.776292591887715
40
0.776292591887715
40
0.88814629594385
40
0.88814629594385
40
0.916109721957888
40
0.916109721957888
40
0.944073147971925
40
0.944073147971925
40
1
40
1
40
1
40
1
41
1
10
5.95500052383301
20
-0.349999718747142
30
0
41
1
10
5.9393092586235
20
-0.349995959863264
30
0
41
1
10
5.92360187395735
20
-0.349641961275978
30
0
41
1
10
5.88731946373031
20
-0.3480187803913
30
0
41
1
10
5.86674431466349
20
-0.34649814825832
30
0
41
1
10
5.82560802786898
20
-0.342271509905373
30
0
41
1
10
5.80504634613422
20
-0.339565691547847
30
0
41
1
10
5.76389384429328
20
-0.332974659558573
30
0
41
1
10
5.74327658268155
20
-0.329081425573406
30
0
41
1
10
5.68153964415509
20
-0.315691854891952
30
0
41
1
10
5.64048466607392
20
-0.304561732608477
30
0
41
1
10
5.55821938726362
20
-0.278254450820953
30
0
41
1
10
5.51693484973748
20
-0.263025172214697
30
0
41
1
10
5.43475073386551
20
-0.229161222655961
30
0
41
1
10
5.3936791869184
20
-0.210605825990342
30
0
41
1
10
5.33184519849678
20
-0.180696910454145
30
0
41
1
10
5.3112149981784
20
-0.170386839619255
30
0
41
1
10
5.27006437010917
20
-0.149249406627462
30
0
41
1
10
5.24952239108404
20
-0.13840067003656
30
0
41
1
10
5.20843897702159
20
-0.116246674701728
30
0
41
1
10
5.18788737373416
20
-0.104957948942058
30
0
41
1
10
5.14670374006749
20
-0.0820584598766914
30
0
41
1
10
5.12605381110984
20
-0.0704275187007397
30
0
41
1
10
5.06425387268482
20
-0.0353239142867778
30
0
41
1
10
5.02317459806483
20
-0.0115851496146604
30
0
41
1
10
4.96147474046307
20
0.024073521958428
30
0
41
1
10
4.94085169130491
20
0.0359536624828252
30
0
41
1
10
4.89961845788079
20
0.0594953734104706
30
0
41
1
10
4.87903436297464
20
0.0711544228150558
30
0
41
1
10
4.8173133417547
20
0.105686705776463
30
0
41
1
10
4.77621543309974
20
0.128128846970498
30
0
41
1
10
4.69375090341924
20
0.171224797693043
30
0
41
1
10
4.6526310679813
20
0.191587121675951
30
0
41
1
10
4.59091322906443
20
0.219975166414088
30
0
41
1
10
4.5703316544089
20
0.229080191842144
30
0
41
1
10
4.52910895746467
20
0.246512986294192
30
0
41
1
10
4.50848119799184
20
0.254845389090491
30
0
41
1
10
4.44677200683481
20
0.278426375539539
30
0
41
1
10
4.40569357645506
20
0.292248411766053
30
0
41
1
10
4.34390901017608
20
0.309891866602385
30
0
41
1
10
4.32324770039043
20
0.315265782972517
30
0
41
1
10
4.28213389755058
20
0.324867848292172
30
0
41
1
10
4.26166064426454
20
0.3291058324277
30
0
41
1
10
4.15957661176049
20
0.347424953964179
30
0
41
1
10
4.07852285059016
20
0.352813419625932
30
0
41
1
10
3.9763463952736
20
0.347590610653271
30
0
41
1
10
3.95585031645729
20
0.345945866875098
30
0
41
1
10
3.91468284988832
20
0.341452853806999
30
0
41
1
10
3.89404404923968
20
0.338604348511723
30
0
41
1
10
3.83229067028347
20
0.328338547908743
30
0
41
1
10
3.79118697547574
20
0.319191447406865
30
0
41
1
10
3.74997999999999
20
0.307817651688168
30
0
0
SPLINE
5
CA
100
AcDbEntity
8
1
62
256
6
ByLayer
370
18
48
1
60
0
100
AcDbSpline
70
4
71
3
72
41
73
37
40
0
40
0
40
0
40
0
40
0.0153792960623078
40
0.047990285268788
40
0.0806012744752682
40
0.105059516380128
40
0.129517758284988
40
0.162128747491469
40
0.194739736697949
40
0.227350725904429
40
0.259961715110909
40
0.28441995701577
40
0.30887819892063
40
0.34148918812711
40
0.37410017733359
40
0.40671116654007
40
0.439322155746551
40
0.471933144953031
40
0.488238639556271
40
0.520849628762751
40
0.553460617969231
40
0.586071607175712
40
0.618682596382192
40
0.651293585588672
40
0.667599080191912
40
0.700210069398392
40
0.732821058604873
40
0.765432047811353
40
0.798043037017833
40
0.830654026224313
40
0.855112268129173
40
0.879570510034034
40
0.912181499240514
40
0.944792488446994
40
0.977403477653474
40
1
40
1
40
1
40
1
41
1
10
4.12013170167933
20
0.0628499905678836
30
0
41
1
10
4.1251790383788
20
0.0623437163332312
30
0
41
1
10
4.14092898943386
20
0.0607435874206317
30
0
41
1
10
4.16738156611902
20
0.0579515485460717
30
0
41
1
10
4.19681378823702
20
0.0546932837060012
30
0
41
1
10
4.22357037315811
20
0.0516163157118399
30
0
41
1
10
4.25032697623178
20
0.0484412528007283
30
0
41
1
10
4.27975926514841
20
0.044843636493141
30
0
41
1
10
4.31186725135547
20
0.0408008735354031
30
0
41
1
10
4.34397527744985
20
0.0366486342632584
30
0
41
1
10
4.37340766771638
20
0.0327509135549633
30
0
41
1
10
4.40016437771314
20
0.0291412739663315
30
0
41
1
10
4.42692109023398
20
0.0254806598919402
30
0
41
1
10
4.45635347342096
20
0.0213927964286427
30
0
41
1
10
4.48846152793132
20
0.0168614297722911
30
0
41
1
10
4.52056958241405
20
0.0122824140374007
30
0
41
1
10
4.55267763690472
20
0.0076822903651248
30
0
41
1
10
4.5794343489778
20
0.0038358983962894
30
0
41
1
10
4.60619106105187
20
-1.54561704733E-05
30
0
41
1
10
4.63294777312566
20
-0.0038670732401727
30
0
41
1
10
4.66505582761431
20
-0.0084800749431793
30
0
41
1
10
4.69716388210293
20
-0.0130738144097222
30
0
41
1
10
4.72927193659154
20
-0.017638866114936
30
0
41
1
10
4.75602864866545
20
-0.021408608658021
30
0
41
1
10
4.78278536073924
20
-0.0251298310121797
30
0
41
1
10
4.8095420728132
20
-0.0288049603859406
30
0
41
1
10
4.84165012730165
20
-0.0331303265884628
30
0
41
1
10
4.87375818179069
20
-0.0373617890866171
30
0
41
1
10
4.90586623627789
20
-0.0414903963105928
30
0
41
1
10
4.93529861956489
20
-0.0451710669984493
30
0
41
1
10
4.96205533161288
20
-0.0484294990718013
30
0
41
1
10
4.98881204380052
20
-0.0516101478825703
30
0
41
1
10
5.01824442671713
20
-0.0549893139216238
30
0
41
1
10
5.05035248222458
20
-0.0585143506355905
30
0
41
1
10
5.07917385996075
20
-0.061529494289033
30
0
41
1
10
5.09729256222934
20
-0.0633419332534686
30
0
41
1
10
5.1047085709265
20
-0.0640694817093674
30
0
0
SPLINE
5
CB
100
AcDbEntity
8
1
62
256
6
ByLayer
370
18
48
1
60
0
100
AcDbSpline
70
4
71
3
72
20
73
16
40
0
40
0
40
0
40
0
40
0.125000000000007
40
0.125000000000007
40
0.250000000000014
40
0.250000000000014
40
0.500000000000028
40
0.500000000000028
40
0.625000000000021
40
0.625000000000021
40
0.750000000000014
40
0.750000000000014
40
0.875000000000007
40
0.875000000000007
40
1
40
1
40
1
40
1
41
1
10
7.81899811028012
20
0.0794487657553873
30
0
41
1
10
7.81602018927759
20
0.0899231453207676
30
0
41
1
10
7.81206242333292
20
0.100269182521942
30
0
41
1
10
7.8033622096782
20
0.120990152810208
30
0
41
1
10
7.79859892749715
20
0.131360941796316
30
0
41
1
10
7.7837535095743
20
0.162684740311363
30
0
41
1
10
7.77316110624446
20
0.18379944340694
30
0
41
1
10
7.75706419623896
20
0.215873550607711
30
0
41
1
10
7.75164422009163
20
0.226644638717261
30
0
41
1
10
7.7407152133697
20
0.248459660986129
30
0
41
1
10
7.7352117713246
20
0.259493239601255
30
0
41
1
10
7.72418572779253
20
0.28165077950689
30
0
41
1
10
7.71866036346353
20
0.292778575223878
30
0
41
1
10
7.70761827081947
20
0.314922573200363
30
0
41
1
10
7.70210072549344
20
0.325942639544081
30
0
41
1
10
7.69659231964619
20
0.336848115788882
30
0
0
SPLINE
5
CC
100
AcDbEntity
8
1
62
256
6
ByLayer
370
18
48
1
60
0
100
AcDbSpline
70
4
71
3
72
57
73
53
40
0
40
0
40
0
40
0
40
0.029443123845642
40
0.029443123845642
40
0.083025081066369
40
0.083025081066369
40
0.136607038287096
40
0.136607038287096
40
0.163398016897456
40
0.163398016897456
40
0.190188995507816
40
0.216979974118176
40
0.216979974118176
40
0.243770952728536
40
0.243770952728536
40
0.29735290994925
40
0.29735290994925
40
0.350934867169963
40
0.350934867169963
40
0.404516824390676
40
0.404516824390676
40
0.45809878161139
40
0.45809878161139
40
0.484889760221743
40
0.484889760221743
40
0.511680738832097
40
0.511680738832097
40
0.565262696052803
40
0.565262696052803
40
0.592053674663156
40
0.592053674663156
40
0.61884465327351
40
0.61884465327351
40
0.672426610494209
40
0.672426610494209
40
0.726008567714909
40
0.726008567714909
40
0.779590524935609
40
0.779590524935609
40
0.833172482156309
40
0.833172482156309
40
0.859963460766659
40
0.859963460766659
40
0.886754439377009
40
0.886754439377009
40
0.913545417987359
40
0.913545417987359
40
0.940336396597709
40
0.940336396597709
40
0.993918353818402
40
0.993918353818402
40
1
40
1
40
1
40
1
41
1
10
5.16211794913082
20
0.350000563436566
30
0
41
1
10
5.18468563135431
20
0.350006226069297
30
0
41
1
10
5.20722998889431
20
0.34928465574751
30
0
41
1
10
5.27082163705069
20
0.345195972076652
30
0
41
1
10
5.31205081914192
20
0.34013210106383
30
0
41
1
10
5.3942216368593
20
0.325453993100354
30
0
41
1
10
5.43522988866698
20
0.315841682799942
30
0
41
1
10
5.49688457346269
20
0.298143866371703
30
0
41
1
10
5.51747634879757
20
0.291710265571595
30
0
41
1
10
5.55856863574482
20
0.277911148065073
30
0
41
1
10
5.59961853201071
20
0.263155455648871
30
0
41
1
10
5.64066934604892
20
0.24658885690036
30
0
41
1
10
5.68176216443388
20
0.229160633884817
30
0
41
1
10
5.70235442433537
20
0.219998029038862
30
0
41
1
10
5.76397818230271
20
0.191436782595247
30
0
41
1
10
5.80498310251858
20
0.171069921666771
30
0
41
1
10
5.88719826140192
20
0.128268683670342
30
0
41
1
10
5.92846346748746
20
0.105791235465745
30
0
41
1
10
6.01062371996198
20
0.0597731687797136
30
0
41
1
10
6.0516565697838
20
0.0362361856849134
30
0
41
1
10
6.13391428478559
20
-0.0114170608568713
30
0
41
1
10
6.17493793802487
20
-0.0352802135309105
30
0
41
1
10
6.23646562991524
20
-0.0704190224503236
30
0
41
1
10
6.25699901437298
20
-0.0820033505444542
30
0
41
1
10
6.29816000895516
20
-0.104838228815311
30
0
41
1
10
6.31879708745265
20
-0.11609625097779
30
0
41
1
10
6.38054951164713
20
-0.149120175996956
30
0
41
1
10
6.42159017574971
20
-0.170242297184615
30
0
41
1
10
6.48320039722017
20
-0.20018052708977
30
0
41
1
10
6.50379057435498
20
-0.209857146682793
30
0
41
1
10
6.54491113582725
20
-0.228406536975683
30
0
41
1
10
6.56543948052234
20
-0.237282341001645
30
0
41
1
10
6.62699089157394
20
-0.262640123307534
30
0
41
1
10
6.66803620963094
20
-0.277815851357929
30
0
41
1
10
6.75038773170087
20
-0.304244812244207
30
0
41
1
10
6.79143651247813
20
-0.315354383571474
30
0
41
1
10
6.87362484387535
20
-0.333158732957259
30
0
41
1
10
6.91486648142541
20
-0.339866202106379
30
0
41
1
10
6.9969914559673
20
-0.348497574417849
30
0
41
1
10
7.03799720434711
20
-0.35041682130236
30
0
41
1
10
7.09968556884826
20
-0.349678767296808
30
0
41
1
10
7.12029708317999
20
-0.348826411730158
30
0
41
1
10
7.1613997054821
20
-0.345920887612778
30
0
41
1
10
7.18191162034941
20
-0.343867614245198
30
0
41
1
10
7.2229124593805
20
-0.338572928747368
30
0
41
1
10
7.24341864249016
20
-0.335338192389656
30
0
41
1
10
7.28449821199735
20
-0.32772635323488
30
0
41
1
10
7.3050958642724
20
-0.323341719028207
30
0
41
1
10
7.36683613032045
20
-0.308551515385773
30
0
41
1
10
7.40786505666364
20
-0.296533339457966
30
0
41
1
10
7.45359432187644
20
-0.280909758189693
30
0
41
1
10
7.45825770556917
20
-0.27929136181055
30
0
41
1
10
7.46292276991829
20
-0.277647807995209
30
0
0
SPLINE
5
CD
100
AcDbEntity
8
1
62
256
6
ByLayer
370
18
48
1
60
0
100
AcDbSpline
70
4
71
3
72
66
73
62
40
0
40
0
40
0
40
0
40
0.0072041972466798
40
0.0072041972466798
40
0.0144083944933596
40
0.0144083944933596
40
0.0216125917400394
40
0.0216125917400394
40
0.0288167889867192
40
0.0288167889867192
40
0.0432251834800788
40
0.0432251834800788
40
0.0576335779734384
40
0.0576335779734384
40
0.0864503669601503
40
0.0864503669601503
40
0.115267155946862
40
0.115267155946862
40
0.144083944933574
40
0.144083944933574
40
0.172900733920286
40
0.172900733920286
40
0.230534311893717
40
0.230534311893717
40
0.259351100880433
40
0.259351100880433
40
0.288167889867148
40
0.288167889867148
40
0.34580146784058
40
0.34580146784058
40
0.403435045814011
40
0.403435045814011
40
0.432251834800726
40
0.432251834800726
40
0.461068623787442
40
0.461068623787442
40
0.518702201760873
40
0.518702201760873
40
0.547518990747592
40
0.547518990747592
40
0.576335779734311
40
0.576335779734311
40
0.633969357707743
40
0.633969357707743
40
0.691602935681174
40
0.691602935681174
40
0.749236513654605
40
0.749236513654605
40
0.806870091628036
40
0.806870091628036
40
0.835686880614751
40
0.835686880614751
40
0.864503669601467
40
0.864503669601467
40
0.893320458588183
40
0.893320458588183
40
0.922137247574898
40
0.922137247574898
40
0.979770825548337
40
0.979770825548337
40
1
40
1
40
1
40
1
41
1
10
7.69659231964579
20
-0.336848115787802
30
0
41
1
10
7.69088467679961
20
-0.33630855338086
30
0
41
1
10
7.68539302355015
20
-0.335648077085551
30
0
41
1
10
7.67477854108802
20
-0.334077317107983
30
0
41
1
10
7.66963387192351
20
-0.333176828823952
30
0
41
1
10
7.65942799417331
20
-0.331251909241217
30
0
41
1
10
7.65436811337958
20
-0.330226922842144
30
0
41
1
10
7.64414072809097
20
-0.328166974074463
30
0
41
1
10
7.6389848657725
20
-0.327126781511481
30
0
41
1
10
7.6234816981426
20
-0.32392909771778
30
0
41
1
10
7.61314696506548
20
-0.321663322493265
30
0
41
1
10
7.59259988942603
20
-0.316765642528338
30
0
41
1
10
7.58232329241127
20
-0.314178461068451
30
0
41
1
10
7.55142758818391
20
-0.306052687335694
30
0
41
1
10
7.53081300000838
20
-0.300065924216625
30
0
41
1
10
7.4896041772941
20
-0.287103723913447
30
0
41
1
10
7.46903478888214
20
-0.280114762998465
30
0
41
1
10
7.42790059798261
20
-0.265188302368557
30
0
41
1
10
7.40732872838083
20
-0.257258684670262
30
0
41
1
10
7.36611843512219
20
-0.240534772927731
30
0
41
1
10
7.3454762520949
20
-0.231734663057267
30
0
41
1
10
7.28372046069762
20
-0.204233297421951
30
0
41
1
10
7.24267057458752
20
-0.184394068790993
30
0
41
1
10
7.18100361938099
20
-0.15274837140845
30
0
41
1
10
7.16036862892923
20
-0.141892229273651
30
0
41
1
10
7.11924216393317
20
-0.119841962229543
30
0
41
1
10
7.09874982045432
20
-0.108643821995372
30
0
41
1
10
7.03742106811774
20
-0.0746447784062525
30
0
41
1
10
6.99673625401283
20
-0.0514337271648344
30
0
41
1
10
6.91542735514292
20
-0.0045207601898483
30
0
41
1
10
6.87472284511921
20
0.0190394924603368
30
0
41
1
10
6.81334606269007
20
0.0541013436035769
30
0
41
1
10
6.79283487351194
20
0.0657441946199526
30
0
41
1
10
6.75166682327637
20
0.0888691274382722
30
0
41
1
10
6.73101364746634
20
0.100354493479102
30
0
41
1
10
6.66928648744153
20
0.134153216202378
30
0
41
1
10
6.62823014740468
20
0.155842808704762
30
0
41
1
10
6.56651796086857
20
0.186679604597742
30
0
41
1
10
6.54588848980217
20
0.196675510597544
30
0
41
1
10
6.50471455678223
20
0.215917068944378
30
0
41
1
10
6.48416556054593
20
0.22516962500714
30
0
41
1
10
6.42253638254618
20
0.251697950933305
30
0
41
1
10
6.38138059860268
20
0.267678464743398
30
0
41
1
10
6.29878986699697
20
0.295803946827931
30
0
41
1
10
6.25767000656236
20
0.307893209625121
30
0
41
1
10
6.17549796338517
20
0.327820197831699
30
0
41
1
10
6.13426535550372
20
0.335605790460534
30
0
41
1
10
6.05205927411703
20
0.346354699869039
30
0
41
1
10
6.01097918659815
20
0.349330508897822
30
0
41
1
10
5.94917833787309
20
0.350184046471696
30
0
41
1
10
5.92852612752114
20
0.349862259602531
30
0
41
1
10
5.88731946373122
20
0.348018780391357
30
0
41
1
10
5.8667443146644
20
0.346498148258377
30
0
41
1
10
5.82560802786989
20
0.342271509905459
30
0
41
1
10
5.80504634613516
20
0.339565691547989
30
0
41
1
10
5.7638938442941
20
0.332974659558715
30
0
41
1
10
5.74327658268226
20
0.32908142557352
30
0
41
1
10
5.68153964415595
20
0.315691854892179
30
0
41
1
10
5.64048466607477
20
0.304561732608732
30
0
41
1
10
5.58491462112499
20
0.286791212012702
30
0
41
1
10
5.57045850197122
20
0.281918617013673
30
0
41
1
10
5.55599856085641
20
0.276806433528691
30
0
0
SPLINE
5
CE
100
AcDbEntity
8
1
62
256
6
ByLayer
370
18
48
1
60
0
100
AcDbSpline
70
4
71
3
72
14
73
10
40
0
40
0
40
0
40
0
40
0.174407112243947
40
0.174407112243947
40
0.38080533418296
40
0.38080533418296
40
0.587203556121974
40
0.587203556121974
40
1
40
1
40
1
40
1
41
1
10
4.04850556569005
20
-0.350005175494999
30
0
41
1
10
4.03128677330432
20
-0.349973555584541
30
0
41
1
10
4.01404956814721
20
-0.349517830275147
30
0
41
1
10
3.97634639527379
20
-0.347590610653299
30
0
41
1
10
3.95585031645737
20
-0.345945866875098
30
0
41
1
10
3.9146828498881
20
-0.341452853806942
30
0
41
1
10
3.8940440492396
20
-0.338604348511694
30
0
41
1
10
3.83229067028347
20
-0.328338547908714
30
0
41
1
10
3.79118697547577
20
-0.319191447406865
30
0
41
1
10
3.74997999999999
20
-0.307817651688168
30
0
0
SPLINE
5
CF
100
AcDbEntity
8
1
62
256
6
ByLayer
370
18
48
1
60
0
100
AcDbSpline
70
4
71
3
72
42
73
38
40
0
40
0
40
0
40
0
40
0.0264591055815927
40
0.0582750109065106
40
0.0821369399001992
40
0.105998868893888
40
0.137814774218806
40
0.169630679543724
40
0.201446584868643
40
0.23326249019356
40
0.265078395518478
40
0.280986348180937
40
0.312802253505856
40
0.344618158830774
40
0.376434064155692
40
0.40824996948061
40
0.440065874805528
40
0.455973827467987
40
0.487789732792905
40
0.519605638117824
40
0.551421543442742
40
0.58323744876766
40
0.615053354092578
40
0.638915283086267
40
0.662777212079955
40
0.694593117404874
40
0.726409022729792
40
0.75822492805471
40
0.790040833379628
40
0.813902762373316
40
0.837764691367005
40
0.869580596691923
40
0.901396502016841
40
0.933212407341759
40
0.965028312666678
40
0.996844217991596
40
1
40
1
40
1
40
1
41
1
10
6.00293714136762
20
0.0650390559555376
30
0
41
1
10
6.01183790534281
20
0.0641807865642363
30
0
41
1
10
6.03144144469257
20
0.0622441187514368
30
0
41
0.999999999999999
10
6.05907206559195
20
0.0593736261765514
30
0
41
1
10
6.08582900404985
20
0.0564653338385881
30
0
41
1
10
6.11258594250955
20
0.0534510422742471
30
0
41
1
10
6.14201857481473
20
0.0500149846578211
30
0
41
1
10
6.17412690096597
20
0.0461256047035761
30
0
41
1
10
6.20623522711719
20
0.0421063483747446
30
0
41
1
10
6.2383435532684
20
0.0379692358793591
30
0
41
1
10
6.26510049172774
20
0.0344495644630456
30
0
41
1
10
6.29185743018712
20
0.0308771355284421
30
0
41
1
10
6.31861436864648
20
0.0272557627843924
30
0
41
1
10
6.35072269479769
20
0.0228412829092406
30
0
41
1
10
6.38283102094891
20
0.0183581112309241
30
0
41
1
10
6.41493934710007
20
0.0138167841357983
30
0
41
1
10
6.44169628555946
20
0.0099888801102281
30
0
41
1
10
6.46845322401873
20
0.006132682709449
30
0
41
1
10
6.49521016247831
20
0.0022648359299353
30
0
41
1
10
6.52731848862896
20
-0.0023832023373984
30
0
41
1
10
6.55942681478183
20
-0.0070181955224484
30
0
41
1
10
6.59153514092725
20
-0.0116392766697402
30
0
41
1
10
6.62096777325721
20
-0.0158406331718481
30
0
41
1
10
6.64772471160083
20
-0.0196235430846912
30
0
41
1
10
6.67448165059073
20
-0.023370910148202
30
0
41
1
10
6.70391428113845
20
-0.0274431872336436
30
0
41
1
10
6.73602261238097
20
-0.0318084129549732
30
0
41
1
10
6.76813087061765
20
-0.0360737790128098
30
0
41
1
10
6.79756338699733
20
-0.0398875194789525
30
0
41
1
10
6.82432017885963
20
-0.0432711697468164
30
0
41
0.999999999999999
10
6.85107693850424
20
-0.046579596253082
30
0
41
1
10
6.88050933554041
20
-0.0501177426574486
30
0
41
1
10
6.91261736207471
20
-0.0538414939889833
30
0
41
1
10
6.94472535071054
20
-0.0574225879305743
30
0
41
1
10
6.97683330652148
20
-0.0608510126050134
30
0
41
1
10
6.99930017435849
20
-0.0631239864298152
30
0
41
1
10
7.01106439494231
20
-0.0642774049086654
30
0
41
1
10
7.01212597695968
20
-0.064381186906644
30
0
0
SPLINE
5
D0
100
AcDbEntity
8
1
62
256
6
ByLayer
370
18
48
1
60
0
100
AcDbSpline
70
4
71
3
72
18
73
14
40
0
40
0
40
0
40
0
40
0.0269205840976067
40
0.0269205840976067
40
0.351280389398405
40
0.351280389398405
40
0.513460292048804
40
0.513460292048804
40
0.675640194699202
40
0.675640194699202
40
0.837820097349601
40
0.837820097349601
40
1
40
1
40
1
40
1
41
1
10
7.79609832649686
20
-0.136608255029557
30
0
41
1
10
7.79528816705425
20
-0.138337814265299
30
0
41
1
10
7.79447186226679
20
-0.140069040174296
30
0
41
1
10
7.78375350957424
20
-0.162684740311391
30
0
41
1
10
7.77316110624446
20
-0.183799443406997
30
0
41
1
10
7.75706419623896
20
-0.215873550607768
30
0
41
1
10
7.75164422009158
20
-0.226644638717317
30
0
41
1
10
7.74071521336964
20
-0.248459660986214
30
0
41
1
10
7.7352117713246
20
-0.259493239601369
30
0
41
1
10
7.72418572779247
20
-0.281650779507004
30
0
41
1
10
7.71866036346347
20
-0.292778575223991
30
0
41
1
10
7.70761827081947
20
-0.314922573200477
30
0
41
1
10
7.70210072549338
20
-0.325942639544195
30
0
41
1
10
7.69659231964613
20
-0.336848115789024
30
0
0
LINE
5
7F
100
AcDbEntity
8
1
62
256
6
ByLayer
370
18
48
1
60
0
100
AcDbLine
10
0
20
1.5
30
0
11
0
21
0
31
0
39
0
210
0
220
0
230
1
0
LINE
5
80
100
AcDbEntity
8
1
62
256
6
ByLayer
370
18
48
1
60
0
100
AcDbLine
10
0
20
0
30
0
11
0
21
-1.5
31
0
39
0
210
0
220
0
230
1
0
LINE
5
81
100
AcDbEntity
8
1
62
256
6
ByLayer
370
18
48
1
60
0
100
AcDbLine
10
7.696592
20
0.179155
30
0
11
7.696592
21
-0.336848
31
0
39
0
210
0
220
0
230
1
0
LINE
5
82
100
AcDbEntity
8
1
62
256
6
ByLayer
370
18
48
1
60
0
100
AcDbLine
10
3.74998
20
0.307818
30
0
11
3.74998
21
0.233443
31
0
39
0
210
0
220
0
230
1
0
LINE
5
83
100
AcDbEntity
8
1
62
256
6
ByLayer
370
13
48
1
60
0
100
AcDbLine
10
2.259844
20
0.35
30
0
11
2.259844
21
-0.35
31
0
39
0
210
0
220
0
230
1
0
LINE
5
84
100
AcDbEntity
8
1
62
256
6
ByLayer
370
18
48
1
60
0
100
AcDbLine
10
3.6E-05
20
1.5
30
0
11
3.6E-05
21
-1.5
31
0
39
0
210
0
220
0
230
1
0
LINE
5
85
100
AcDbEntity
8
1
62
256
6
ByLayer
370
13
48
1
60
0
100
AcDbLine
10
1.759844
20
0.483975
30
0
11
1.759844
21
-0.483975
31
0
39
0
210
0
220
0
230
1
0
LINE
5
86
100
AcDbEntity
8
SK1
62
256
6
ByLayer
370
18
48
1
60
0
100
AcDbLine
10
-30.1402
20
1.326795
30
0
11
-30.1402
21
-1.326795
31
0
39
0
210
0
220
0
230
1
0
LINE
5
88
100
AcDbEntity
8
SK1
62
256
6
ByLayer
370
18
48
1
60
0
100
AcDbLine
10
0
20
1.5
30
0
11
0
21
0
31
0
39
0
210
0
220
0
230
1
0
LINE
5
89
100
AcDbEntity
8
SK1
62
256
6
ByLayer
370
18
48
1
60
0
100
AcDbLine
10
0
20
0
30
0
11
0
21
-1.5
31
0
39
0
210
0
220
0
230
1
0
LINE
5
8A
100
AcDbEntity
8
SK1
62
256
6
ByLayer
370
18
48
1
60
0
100
AcDbLine
10
-29.8402
20
1.5
30
0
11
-29.8402
21
-1.5
31
0
39
0
210
0
220
0
230
1
0
LINE
5
8B
100
AcDbEntity
8
1
62
256
6
ByLayer
370
18
48
1
60
0
100
AcDbLine
10
0
20
-1.5
30
0
11
3.6E-05
21
-1.5
31
0
39
0
210
0
220
0
230
1
0
LINE
5
8C
100
AcDbEntity
8
1
62
256
6
ByLayer
370
18
48
1
60
0
100
AcDbLine
10
3.6E-05
20
1.5
30
0
11
0
21
1.5
31
0
39
0
210
0
220
0
230
1
0
LINE
5
8D
100
AcDbEntity
8
1
62
256
6
ByLayer
370
18
48
1
60
0
100
AcDbLine
10
7.8598
20
0
30
0
11
7.795915
21
0.137002
31
0
39
0
210
0
220
0
230
1
0
LINE
5
8E
100
AcDbEntity
8
1
62
256
6
ByLayer
370
18
48
1
60
0
100
AcDbLine
10
7.795915
20
-0.137002
30
0
11
7.8598
21
0
31
0
39
0
210
0
220
0
230
1
0
LINE
5
8F
100
AcDbEntity
8
1
62
256
6
ByLayer
370
18
48
1
60
0
100
AcDbLine
10
2.259844
20
-0.35
30
0
11
3.384967
21
-0.35
31
0
39
0
210
0
220
0
230
1
0
LINE
5
90
100
AcDbEntity
8
1
62
256
6
ByLayer
370
18
48
1
60
0
100
AcDbLine
10
4.049134
20
-0.35
30
0
11
5.162122
21
-0.35
31
0
39
0
210
0
220
0
230
1
0
LINE
5
91
100
AcDbEntity
8
1
62
256
6
ByLayer
370
18
48
1
60
0
100
AcDbLine
10
5.955093
20
-0.35
30
0
11
7.06676
21
-0.35
31
0
39
0
210
0
220
0
230
1
0
LINE
5
92
100
AcDbEntity
8
1
62
256
6
ByLayer
370
18
48
1
60
0
100
AcDbLine
10
7.06676
20
0.35
30
0
11
5.955093
21
0.35
31
0
39
0
210
0
220
0
230
1
0
LINE
5
93
100
AcDbEntity
8
1
62
256
6
ByLayer
370
18
48
1
60
0
100
AcDbLine
10
5.162122
20
0.35
30
0
11
4.049134
21
0.35
31
0
39
0
210
0
220
0
230
1
0
LINE
5
94
100
AcDbEntity
8
1
62
256
6
ByLayer
370
18
48
1
60
0
100
AcDbLine
10
3.384967
20
0.35
30
0
11
2.259844
21
0.35
31
0
39
0
210
0
220
0
230
1
0
LINE
5
95
100
AcDbEntity
8
1
62
256
6
ByLayer
370
18
48
1
60
0
100
AcDbLine
10
1.759844
20
0.483975
30
0
11
3.6E-05
21
1.5
31
0
39
0
210
0
220
0
230
1
0
LINE
5
96
100
AcDbEntity
8
1
62
256
6
ByLayer
370
18
48
1
60
0
100
AcDbLine
10
3.6E-05
20
-1.5
30
0
11
1.759844
21
-0.483975
31
0
39
0
210
0
220
0
230
1
0
LINE
5
97
100
AcDbEntity
8
SK1
62
256
6
ByLayer
370
18
48
1
60
0
100
AcDbLine
10
-30.1402
20
-1.326795
30
0
11
-29.8402
21
-1.5
31
0
39
0
210
0
220
0
230
1
0
LINE
5
98
100
AcDbEntity
8
SK1
62
256
6
ByLayer
370
18
48
1
60
0
100
AcDbLine
10
-29.8402
20
1.5
30
0
11
-30.1402
21
1.326795
31
0
39
0
210
0
220
0
230
1
0
LINE
5
99
100
AcDbEntity
8
SK1
62
256
6
ByLayer
370
18
48
1
60
0
100
AcDbLine
10
-29.8402
20
-1.5
30
0
11
0
21
-1.5
31
0
39
0
210
0
220
0
230
1
0
LINE
5
9A
100
AcDbEntity
8
SK1
62
256
6
ByLayer
370
18
48
1
60
0
100
AcDbLine
10
0
20
1.5
30
0
11
-29.8402
21
1.5
31
0
39
0
210
0
220
0
230
1
0
LINE
5
9B
100
AcDbEntity
8
4
62
256
6
ByLayer
370
18
48
0.05
60
0
100
AcDbLine
10
0
20
0
30
0
11
7.8598
21
0
31
0
39
0
210
0
220
0
230
1
0
LINE
5
9D
100
AcDbEntity
8
81
62
256
6
ByLayer
370
18
48
1
60
0
100
AcDbLine
10
7.8598
20
0
30
0
11
10.8598
21
0
31
0
39
0
210
0
220
0
230
1
0
LINE
5
9E
100
AcDbEntity
8
80
62
256
6
ByLayer
370
18
48
1
60
0
100
AcDbLine
10
0
20
0
30
0
11
-3
21
0
31
0
39
0
210
0
220
0
230
1
0
LINE
5
9F
100
AcDbEntity
8
SK4
62
256
6
ByLayer
370
18
48
0.05
60
0
100
AcDbLine
10
-33.1402
20
0
30
0
11
10.8598
21
0
31
0
39
0
210
0
220
0
230
1
0
LINE
5
A1
100
AcDbEntity
8
SK2
62
256
6
ByLayer
370
13
48
1
60
0
100
AcDbLine
10
-34.6402
20
-9
30
0
11
-34.6402
21
21.782741
31
0
39
0
210
0
220
0
230
1
0
LINE
5
A3
100
AcDbEntity
8
SK2
62
256
6
ByLayer
370
13
48
1
60
0
100
AcDbLine
10
-31.7277
20
-1.5
30
0
11
-36.6402
21
-1.5
31
0
39
0
210
0
220
0
230
1
0
LINE
5
A4
100
AcDbEntity
8
SK2
62
256
6
ByLayer
370
13
48
1
60
0
100
AcDbLine
10
-31.7277
20
1.5
30
0
11
-36.6402
21
1.5
31
0
39
0
210
0
220
0
230
1
0
LINE
5
A5
100
AcDbEntity
8
1
62
256
6
ByLayer
370
18
48
1
60
1
100
AcDbLine
10
-34.6402
20
-1.5
30
0
11
-34.179416
21
-4.999998
31
0
39
0
210
0
220
0
230
1
0
LINE
5
A6
100
AcDbEntity
8
1
62
256
6
ByLayer
370
18
48
1
60
1
100
AcDbLine
10
-34.179416
20
-4.999998
30
0
11
-35.100984
21
-5.000002
31
0
39
0
210
0
220
0
230
1
0
LINE
5
A7
100
AcDbEntity
8
1
62
256
6
ByLayer
370
18
48
1
60
1
100
AcDbLine
10
-35.100984
20
-5.000002
30
0
11
-34.6402
21
-1.5
31
0
39
0
210
0
220
0
230
1
0
LINE
5
A8
100
AcDbEntity
8
1
62
256
6
ByLayer
370
18
48
1
60
1
100
AcDbLine
10
-34.6402
20
1.5
30
0
11
-35.100984
21
4.999998
31
0
39
0
210
0
220
0
230
1
0
LINE
5
A9
100
AcDbEntity
8
1
62
256
6
ByLayer
370
18
48
1
60
1
100
AcDbLine
10
-35.100984
20
4.999998
30
0
11
-34.179416
21
5.000002
31
0
39
0
210
0
220
0
230
1
0
LINE
5
AA
100
AcDbEntity
8
1
62
256
6
ByLayer
370
18
48
1
60
1
100
AcDbLine
10
-34.179416
20
5.000002
30
0
11
-34.6402
21
1.5
31
0
39
0
210
0
220
0
230
1
0
LINE
5
AB
100
AcDbEntity
8
2
62
256
6
ByLayer
370
13
48
1
60
0
100
AcDbLine
10
13.3598
20
-7.85
30
0
11
13.3598
21
30.432741
31
0
39
0
210
0
220
0
230
1
0
LINE
5
AD
100
AcDbEntity
8
2
62
256
6
ByLayer
370
13
48
1
60
0
100
AcDbLine
10
9.4473
20
-0.35
30
0
11
15.3598
21
-0.35
31
0
39
0
210
0
220
0
230
1
0
LINE
5
AE
100
AcDbEntity
8
2
62
256
6
ByLayer
370
13
48
1
60
0
100
AcDbLine
10
9.4473
20
0.35
30
0
11
15.3598
21
0.35
31
0
39
0
210
0
220
0
230
1
0
LINE
5
AF
100
AcDbEntity
8
1
62
256
6
ByLayer
370
18
48
1
60
1
100
AcDbLine
10
13.3598
20
-0.35
30
0
11
13.820584
21
-3.849998
31
0
39
0
210
0
220
0
230
1
0
LINE
5
B0
100
AcDbEntity
8
1
62
256
6
ByLayer
370
18
48
1
60
1
100
AcDbLine
10
13.820584
20
-3.849998
30
0
11
12.899016
21
-3.850002
31
0
39
0
210
0
220
0
230
1
0
LINE
5
B1
100
AcDbEntity
8
1
62
256
6
ByLayer
370
18
48
1
60
1
100
AcDbLine
10
12.899016
20
-3.850002
30
0
11
13.3598
21
-0.35
31
0
39
0
210
0
220
0
230
1
0
LINE
5
B2
100
AcDbEntity
8
1
62
256
6
ByLayer
370
18
48
1
60
1
100
AcDbLine
10
13.3598
20
0.35
30
0
11
12.899016
21
3.849998
31
0
39
0
210
0
220
0
230
1
0
LINE
5
B3
100
AcDbEntity
8
1
62
256
6
ByLayer
370
18
48
1
60
1
100
AcDbLine
10
12.899016
20
3.849998
30
0
11
13.820584
21
3.850002
31
0
39
0
210
0
220
0
230
1
0
LINE
5
B4
100
AcDbEntity
8
1
62
256
6
ByLayer
370
18
48
1
60
1
100
AcDbLine
10
13.820584
20
3.850002
30
0
11
13.3598
21
0.35
31
0
39
0
210
0
220
0
230
1
0
LINE
5
B5
100
AcDbEntity
8
SK2
62
256
6
ByLayer
370
13
48
1
60
0
100
AcDbLine
10
8.530706
20
-1.438764
30
0
11
15.614845
21
-16.630748
31
0
39
0
210
0
220
0
230
1
0
LINE
5
B6
100
AcDbEntity
8
SK2
62
256
6
ByLayer
370
13
48
1
60
0
100
AcDbLine
10
8.530706
20
1.438764
30
0
11
15.614845
21
16.630748
31
0
39
0
210
0
220
0
230
1
0
LINE
5
B7
100
AcDbEntity
8
1
62
256
6
ByLayer
370
18
48
1
60
1
100
AcDbLine
10
14.769609
20
-14.818132
30
0
11
17.641642
21
-12.765394
31
0
39
0
210
0
220
0
230
1
0
LINE
5
B8
100
AcDbEntity
8
1
62
256
6
ByLayer
370
18
48
1
60
1
100
AcDbLine
10
17.641642
20
-12.765394
30
0
11
18.075071
21
-13.578675
31
0
39
0
210
0
220
0
230
1
0
LINE
5
B9
100
AcDbEntity
8
1
62
256
6
ByLayer
370
18
48
1
60
1
100
AcDbLine
10
18.075071
20
-13.578675
30
0
11
14.769609
21
-14.818132
31
0
39
0
210
0
220
0
230
1
0
LINE
5
BA
100
AcDbEntity
8
1
62
256
6
ByLayer
370
18
48
1
60
1
100
AcDbLine
10
14.769609
20
14.818132
30
0
11
18.075068
21
13.578677
31
0
39
0
210
0
220
0
230
1
0
LINE
5
BB
100
AcDbEntity
8
1
62
256
6
ByLayer
370
18
48
1
60
1
100
AcDbLine
10
18.075068
20
13.578677
30
0
11
17.641645
21
12.765392
31
0
39
0
210
0
220
0
230
1
0
LINE
5
BC
100
AcDbEntity
8
1
62
256
6
ByLayer
370
18
48
1
60
1
100
AcDbLine
10
17.641645
20
12.765392
30
0
11
14.769609
21
14.818132
31
0
39
0
210
0
220
0
230
1
0
LINE
5
D5
100
AcDbEntity
8
1
62
256
6
ByLayer
370
18
48
1
60
1
100
AcDbLine
10
-34.6402
20
-1.5
30
0
11
-34.179416
21
-4.999998
31
0
39
0
210
0
220
0
230
1
0
LINE
5
D6
100
AcDbEntity
8
1
62
256
6
ByLayer
370
18
48
1
60
1
100
AcDbLine
10
-34.179416
20
-4.999998
30
0
11
-35.100984
21
-5.000002
31
0
39
0
210
0
220
0
230
1
0
LINE
5
D7
100
AcDbEntity
8
1
62
256
6
ByLayer
370
18
48
1
60
1
100
AcDbLine
10
-35.100984
20
-5.000002
30
0
11
-34.6402
21
-1.5
31
0
39
0
210
0
220
0
230
1
0
LINE
5
D9
100
AcDbEntity
8
1
62
256
6
ByLayer
370
18
48
1
60
1
100
AcDbLine
10
-34.6402
20
1.5
30
0
11
-35.100984
21
4.999998
31
0
39
0
210
0
220
0
230
1
0
LINE
5
DA
100
AcDbEntity
8
1
62
256
6
ByLayer
370
18
48
1
60
1
100
AcDbLine
10
-35.100984
20
4.999998
30
0
11
-34.179416
21
5.000002
31
0
39
0
210
0
220
0
230
1
0
LINE
5
DB
100
AcDbEntity
8
1
62
256
6
ByLayer
370
18
48
1
60
1
100
AcDbLine
10
-34.179416
20
5.000002
30
0
11
-34.6402
21
1.5
31
0
39
0
210
0
220
0
230
1
0
LINE
5
DF
100
AcDbEntity
8
1
62
256
6
ByLayer
370
18
48
1
60
1
100
AcDbLine
10
13.3598
20
-0.35
30
0
11
13.820584
21
-3.849998
31
0
39
0
210
0
220
0
230
1
0
LINE
5
E0
100
AcDbEntity
8
1
62
256
6
ByLayer
370
18
48
1
60
1
100
AcDbLine
10
13.820584
20
-3.849998
30
0
11
12.899016
21
-3.850002
31
0
39
0
210
0
220
0
230
1
0
LINE
5
E1
100
AcDbEntity
8
1
62
256
6
ByLayer
370
18
48
1
60
1
100
AcDbLine
10
12.899016
20
-3.850002
30
0
11
13.3598
21
-0.35
31
0
39
0
210
0
220
0
230
1
0
LINE
5
E3
100
AcDbEntity
8
1
62
256
6
ByLayer
370
18
48
1
60
1
100
AcDbLine
10
13.3598
20
0.35
30
0
11
12.899016
21
3.849998
31
0
39
0
210
0
220
0
230
1
0
LINE
5
E4
100
AcDbEntity
8
1
62
256
6
ByLayer
370
18
48
1
60
1
100
AcDbLine
10
12.899016
20
3.849998
30
0
11
13.820584
21
3.850002
31
0
39
0
210
0
220
0
230
1
0
LINE
5
E5
100
AcDbEntity
8
1
62
256
6
ByLayer
370
18
48
1
60
1
100
AcDbLine
10
13.820584
20
3.850002
30
0
11
13.3598
21
0.35
31
0
39
0
210
0
220
0
230
1
0
LINE
5
E8
100
AcDbEntity
8
1
62
256
6
ByLayer
370
18
48
1
60
1
100
AcDbLine
10
14.769609
20
-14.818132
30
0
11
17.641642
21
-12.765394
31
0
39
0
210
0
220
0
230
1
0
LINE
5
E9
100
AcDbEntity
8
1
62
256
6
ByLayer
370
18
48
1
60
1
100
AcDbLine
10
17.641642
20
-12.765394
30
0
11
18.075071
21
-13.578675
31
0
39
0
210
0
220
0
230
1
0
LINE
5
EA
100
AcDbEntity
8
1
62
256
6
ByLayer
370
18
48
1
60
1
100
AcDbLine
10
18.075071
20
-13.578675
30
0
11
14.769609
21
-14.818132
31
0
39
0
210
0
220
0
230
1
0
LINE
5
EC
100
AcDbEntity
8
1
62
256
6
ByLayer
370
18
48
1
60
1
100
AcDbLine
10
14.769609
20
14.818132
30
0
11
18.075068
21
13.578677
31
0
39
0
210
0
220
0
230
1
0
LINE
5
ED
100
AcDbEntity
8
1
62
256
6
ByLayer
370
18
48
1
60
1
100
AcDbLine
10
18.075068
20
13.578677
30
0
11
17.641645
21
12.765392
31
0
39
0
210
0
220
0
230
1
0
LINE
5
EE
100
AcDbEntity
8
1
62
256
6
ByLayer
370
18
48
1
60
1
100
AcDbLine
10
17.641645
20
12.765392
30
0
11
14.769609
21
14.818132
31
0
39
0
210
0
220
0
230
1
0
MTEXT
5
D1
100
AcDbEntity
8
SK2
62
256
6
ByLayer
370
18
48
1
60
0
100
AcDbMText
10
-35.981314
20
6.658437
30
0
210
0
220
0
230
1
1
%%c
40
3
41
0
44
1.084337
50
90
71
7
72
5
7
iso_b_vert
0
MTEXT
5
D4
100
AcDbEntity
8
SK2
62
256
6
ByLayer
370
18
48
1
60
0
100
AcDbMText
10
-35.981314
20
12.635
30
0
210
0
220
0
230
1
1
\W0.7468;3.000
40
3
41
0
44
1.084337
50
90
71
7
72
5
7
iso_b_vert
0
MTEXT
5
DD
100
AcDbEntity
8
2
62
256
6
ByLayer
370
18
48
1
60
0
100
AcDbMText
10
12.018686
20
15.308438
30
0
210
0
220
0
230
1
1
%%c
40
3
41
0
44
1.084337
50
90
71
7
72
5
7
iso_b_vert
0
MTEXT
5
DE
100
AcDbEntity
8
2
62
256
6
ByLayer
370
18
48
1
60
0
100
AcDbMText
10
12.018686
20
21.285
30
0
210
0
220
0
230
1
1
\W0.7468;0.700
40
3
41
0
44
1.084337
50
90
71
7
72
5
7
iso_b_vert
0
MTEXT
5
E7
100
AcDbEntity
8
SK2
62
256
6
ByLayer
370
18
48
1
60
0
100
AcDbMText
10
20.927086
20
-2.114886
30
0
210
0
220
0
230
1
1
\W0.6747;130%%d
40
3
41
0
44
1.084337
50
0
71
7
72
5
7
iso_b_vert
0
MTEXT
5
F0
100
AcDbEntity
8
SK6
62
256
6
ByLayer
370
18
48
1
60
0
100
AcDbMText
10
-39.321739
20
-42.114886
30
0
210
0
220
0
230
1
1
\W0.7776;462.1-0070-003A0-XM X0BM
40
3
41
0
44
1.084337
50
0
71
7
72
5
7
iso_b_vert
0
HATCH
5
D8
100
AcDbEntity
8
SK2
62
256
6
ByLayer
370
13
48
1
60
0
100
AcDbHatch
10
0
20
0
30
0
210
0
220
0
230
1
2
ANSI31
70
0
71
0
91
1
92
5
93
3
72
1
10
-34.6402
20
-1.5
11
-34.1794162584472
21
-4.99999830744682
72
1
10
-34.1794162584472
20
-4.99999830744682
11
-35.1009837415528
21
-5.00000169255318
72
1
10
-35.1009837415528
20
-5.00000169255318
11
-34.6402
21
-1.5
97
0
75
0
76
1
52
0
41
0.0062
77
0
78
1
53
45
43
0
44
0
45
-0.0139193969876572
46
0.0139193969876572
79
0
47
0
98
1
10
0
20
0
0
HATCH
5
DC
100
AcDbEntity
8
SK2
62
256
6
ByLayer
370
13
48
1
60
0
100
AcDbHatch
10
0
20
0
30
0
210
0
220
0
230
1
2
ANSI31
70
0
71
0
91
1
92
5
93
3
72
1
10
-34.6402
20
1.5
11
-35.1009837415528
21
4.99999830744682
72
1
10
-35.1009837415528
20
4.99999830744682
11
-34.1794162584472
21
5.00000169255318
72
1
10
-34.1794162584472
20
5.00000169255318
11
-34.6402
21
1.5
97
0
75
0
76
1
52
0
41
0.0062
77
0
78
1
53
45
43
0
44
0
45
-0.0139193969876572
46
0.0139193969876572
79
0
47
0
98
1
10
0
20
0
0
HATCH
5
E2
100
AcDbEntity
8
2
62
256
6
ByLayer
370
13
48
1
60
0
100
AcDbHatch
10
0
20
0
30
0
210
0
220
0
230
1
2
ANSI31
70
0
71
0
91
1
92
5
93
3
72
1
10
13.3598
20
-0.349999999999994
11
13.8205837415528
21
-3.84999830744681
72
1
10
13.8205837415528
20
-3.84999830744681
11
12.8990162584472
21
-3.85000169255318
72
1
10
12.8990162584472
20
-3.85000169255318
11
13.3598
21
-0.349999999999994
97
0
75
0
76
1
52
0
41
0.0062
77
0
78
1
53
45
43
0
44
0
45
-0.0139193969876572
46
0.0139193969876572
79
0
47
0
98
1
10
0
20
0
0
HATCH
5
E6
100
AcDbEntity
8
2
62
256
6
ByLayer
370
13
48
1
60
0
100
AcDbHatch
10
0
20
0
30
0
210
0
220
0
230
1
2
ANSI31
70
0
71
0
91
1
92
5
93
3
72
1
10
13.3598
20
0.349999999999994
11
12.8990162584472
21
3.84999830744681
72
1
10
12.8990162584472
20
3.84999830744681
11
13.8205837415528
21
3.85000169255318
72
1
10
13.8205837415528
20
3.85000169255318
11
13.3598
21
0.349999999999994
97
0
75
0
76
1
52
0
41
0.0062
77
0
78
1
53
45
43
0
44
0
45
-0.0139193969876572
46
0.0139193969876572
79
0
47
0
98
1
10
0
20
0
0
HATCH
5
EB
100
AcDbEntity
8
SK2
62
256
6
ByLayer
370
13
48
1
60
0
100
AcDbHatch
10
0
20
0
30
0
210
0
220
0
230
1
2
ANSI31
70
0
71
0
91
1
92
5
93
3
72
1
10
14.7696085794604
20
-14.8181323180492
11
17.6416418553693
21
-12.765393983365
72
1
10
17.6416418553693
20
-12.765393983365
11
18.0750706127348
21
-13.5786750775861
72
1
10
18.0750706127348
20
-13.5786750775861
11
14.7696085794604
21
-14.8181323180492
97
0
75
0
76
1
52
0
41
0.0062
77
0
78
1
53
45
43
0
44
0
45
-0.0139193969876572
46
0.0139193969876572
79
0
47
0
98
1
10
0
20
0
0
HATCH
5
EF
100
AcDbEntity
8
SK2
62
256
6
ByLayer
370
13
48
1
60
0
100
AcDbHatch
10
0
20
0
30
0
210
0
220
0
230
1
2
ANSI31
70
0
71
0
91
1
92
5
93
3
72
1
10
14.7696085794604
20
14.8181323180492
11
18.0750676253807
21
13.5786766696479
72
1
10
18.0750676253807
20
13.5786766696479
11
17.6416448427234
21
12.7653923913032
72
1
10
17.6416448427234
20
12.7653923913032
11
14.7696085794604
21
14.8181323180492
97
0
75
0
76
1
52
0
41
0.0062
77
0
78
1
53
45
43
0
44
0
45
-0.0139193969876572
46
0.0139193969876572
79
0
47
0
98
1
10
0
20
0
0
DIMENSION
5
F3
100
AcDbEntity
8
SK2
62
256
6
ByLayer
370
18
48
1
60
0
100
AcDbDimension
2
_U0
10
7.8598
20
-35.85
30
0
11
-11.1402
21
-35.85
31
0
70
32
71
1
72
1
41
1
210
0
220
0
230
1
3
Standard
100
AcDbAlignedDimension
13
-30.1402
23
1.5
33
0
14
7.8598
24
0.35
34
0
50
0
100
AcDbRotatedDimension
1001
ACAD
1000
DSTYLE
1002
{
1070
   371
1070
    13
1070
   372
1070
    13
1070
     3
1000

1070
   170
1070
     0
1070
   144
1040
1.0
1070
   277
1070
     2
1070
   284
1070
     8
1070
   278
1070
    46
1070
   146
1040
1.166667
1070
   345
1005
16
1070
   347
1005
16
1070
   346
1005
16
1070
   344
1005
0
1070
   343
1005
0
1070
   172
1070
     1
1070
    76
1070
     0
1070
    75
1070
     0
1070
   282
1070
     0
1070
   281
1070
     0
1070
    71
1070
     0
1070
    74
1070
     0
1070
   279
1070
     0
1070
   173
1070
     1
1070
   340
1005
D2
1070
   271
1070
     2
1070
   272
1070
     2
1070
    77
1070
     1
1070
    73
1070
     1
1070
   171
1070
     3
1070
   274
1070
     4
1070
   177
1070
     2
1070
   176
1070
     2
1070
   178
1070
     2
1070
    78
1070
     8
1070
    48
1040
-0.1
1070
    41
1040
3.5
1070
   147
1040
1.5
1070
    42
1040
1.5875
1070
    44
1040
2.0
1070
   140
1040
3.0
1002
}
1001
ACAD_DSTYLE_DIM_LINETYPE
1070
   380
1005
16
1001
ACAD_DSTYLE_DIM_EXT1_LINETYPE
1070
   381
1005
16
1001
ACAD_DSTYLE_DIM_EXT2_LINETYPE
1070
   382
1005
16
0
DIMENSION
5
10C
100
AcDbEntity
8
SK2
62
256
6
ByLayer
370
18
48
1
60
0
100
AcDbDimension
2
_U1
10
4.4098
20
-21.85
30
0
11
23.931229
21
-21.85
31
0
70
32
71
1
72
1
41
1
210
0
220
0
230
1
3
Standard
100
AcDbAlignedDimension
13
7.8598
23
0.35
33
0
14
4.4098
24
0
34
0
50
0
100
AcDbRotatedDimension
1001
ACAD
1000
DSTYLE
1002
{
1070
   371
1070
    13
1070
   372
1070
    13
1070
     3
1000

1070
   170
1070
     0
1070
   144
1040
1.0
1070
   277
1070
     2
1070
   284
1070
     8
1070
   278
1070
    46
1070
   146
1040
1.166667
1070
   345
1005
16
1070
   347
1005
16
1070
   346
1005
16
1070
   344
1005
0
1070
   343
1005
0
1070
   172
1070
     1
1070
    76
1070
     0
1070
    75
1070
     0
1070
   282
1070
     0
1070
   281
1070
     0
1070
    71
1070
     0
1070
    74
1070
     0
1070
   279
1070
     0
1070
   173
1070
     1
1070
   340
1005
D2
1070
   271
1070
     2
1070
   272
1070
     2
1070
    77
1070
     1
1070
    73
1070
     1
1070
   171
1070
     3
1070
   274
1070
     4
1070
   177
1070
     2
1070
   176
1070
     2
1070
   178
1070
     2
1070
    78
1070
     8
1070
    48
1040
-0.1
1070
    41
1040
3.5
1070
   147
1040
1.5
1070
    42
1040
1.5875
1070
    44
1040
2.0
1070
   140
1040
3.0
1002
}
1001
ACAD_DSTYLE_DIM_LINETYPE
1070
   380
1005
16
1001
ACAD_DSTYLE_DIM_EXT1_LINETYPE
1070
   381
1005
16
1001
ACAD_DSTYLE_DIM_EXT2_LINETYPE
1070
   382
1005
16
0
DIMENSION
5
126
100
AcDbEntity
8
SK2
62
256
6
ByLayer
370
18
48
1
60
0
100
AcDbDimension
2
_U2
10
3.3598
20
-29.85
30
0
11
22.502657
21
-29.85
31
0
70
32
71
1
72
1
41
1
210
0
220
0
230
1
3
Standard
100
AcDbAlignedDimension
13
7.8598
23
0.35
33
0
14
3.3598
24
0
34
0
50
0
100
AcDbRotatedDimension
1001
ACAD
1000
DSTYLE
1002
{
1070
   371
1070
    13
1070
   372
1070
    13
1070
     3
1000

1070
   170
1070
     0
1070
   144
1040
1.0
1070
   277
1070
     2
1070
   284
1070
     8
1070
   278
1070
    46
1070
   146
1040
1.166667
1070
   345
1005
16
1070
   347
1005
16
1070
   346
1005
16
1070
   344
1005
0
1070
   343
1005
0
1070
   172
1070
     1
1070
    76
1070
     0
1070
    75
1070
     0
1070
   282
1070
     0
1070
   281
1070
     0
1070
    71
1070
     0
1070
    74
1070
     0
1070
   279
1070
     0
1070
   173
1070
     1
1070
   340
1005
D2
1070
   271
1070
     2
1070
   272
1070
     2
1070
    77
1070
     1
1070
    73
1070
     1
1070
   171
1070
     3
1070
   274
1070
     4
1070
   177
1070
     2
1070
   176
1070
     2
1070
   178
1070
     2
1070
    78
1070
     8
1070
    48
1040
-0.1
1070
    41
1040
3.5
1070
   147
1040
1.5
1070
    42
1040
1.5875
1070
    44
1040
2.0
1070
   140
1040
3.0
1002
}
1001
ACAD_DSTYLE_DIM_LINETYPE
1070
   380
1005
16
1001
ACAD_DSTYLE_DIM_EXT1_LINETYPE
1070
   381
1005
16
1001
ACAD_DSTYLE_DIM_EXT2_LINETYPE
1070
   382
1005
16
0
DIMENSION
5
140
100
AcDbEntity
8
SK2
62
256
6
ByLayer
370
18
48
1
60
0
100
AcDbDimension
2
_U3
10
0
20
11.35
30
0
11
-15.0701
21
11.35
31
0
70
32
71
1
72
1
41
1
210
0
220
0
230
1
3
Standard
100
AcDbAlignedDimension
13
-30.1402
23
0
33
0
14
0
24
0
34
0
50
0
100
AcDbRotatedDimension
1001
ACAD
1000
DSTYLE
1002
{
1070
   371
1070
    13
1070
   372
1070
    13
1070
     3
1000

1070
   170
1070
     0
1070
   144
1040
1.0
1070
   277
1070
     2
1070
   284
1070
     8
1070
   278
1070
    46
1070
   146
1040
1.166667
1070
   345
1005
16
1070
   347
1005
16
1070
   346
1005
16
1070
   344
1005
0
1070
   343
1005
0
1070
   172
1070
     1
1070
    76
1070
     0
1070
    75
1070
     0
1070
   282
1070
     0
1070
   281
1070
     0
1070
    71
1070
     0
1070
    74
1070
     0
1070
   279
1070
     0
1070
   173
1070
     1
1070
   340
1005
D2
1070
   271
1070
     2
1070
   272
1070
     2
1070
    77
1070
     1
1070
    73
1070
     1
1070
   171
1070
     3
1070
   274
1070
     4
1070
   177
1070
     2
1070
   176
1070
     2
1070
   178
1070
     2
1070
    78
1070
     8
1070
    48
1040
-0.1
1070
    41
1040
3.5
1070
   147
1040
1.5
1070
    42
1040
1.5875
1070
    44
1040
2.0
1070
   140
1040
3.0
1002
}
1001
ACAD_DSTYLE_DIM_LINETYPE
1070
   380
1005
16
1001
ACAD_DSTYLE_DIM_EXT1_LINETYPE
1070
   381
1005
16
1001
ACAD_DSTYLE_DIM_EXT2_LINETYPE
1070
   382
1005
16
0
DIMENSION
5
158
100
AcDbEntity
8
2
62
256
6
ByLayer
370
18
48
1
60
0
100
AcDbDimension
2
_U4
10
0
20
5
30
0
11
-16.071429
21
5
31
0
70
32
71
1
72
1
41
1
210
0
220
0
230
1
3
Standard
100
AcDbAlignedDimension
13
7.8598
23
0.35
33
0
14
0
24
0
34
0
50
0
100
AcDbRotatedDimension
1001
ACAD
1000
DSTYLE
1002
{
1070
   371
1070
    13
1070
   372
1070
    13
1070
     3
1000

1070
   170
1070
     0
1070
   144
1040
1.0
1070
   277
1070
     2
1070
   284
1070
     8
1070
   278
1070
    46
1070
   146
1040
1.166667
1070
   345
1005
16
1070
   347
1005
16
1070
   346
1005
16
1070
   344
1005
0
1070
   343
1005
0
1070
   172
1070
     1
1070
    76
1070
     0
1070
    75
1070
     0
1070
   282
1070
     0
1070
   281
1070
     0
1070
    71
1070
     0
1070
    74
1070
     0
1070
   279
1070
     0
1070
   173
1070
     1
1070
   340
1005
D2
1070
   271
1070
     2
1070
   272
1070
     2
1070
    77
1070
     1
1070
    73
1070
     1
1070
   171
1070
     3
1070
   274
1070
     4
1070
   177
1070
     2
1070
   176
1070
     2
1070
   178
1070
     2
1070
    78
1070
     8
1070
    48
1040
-0.1
1070
    41
1040
3.5
1070
   147
1040
1.5
1070
    42
1040
1.5875
1070
    44
1040
2.0
1070
   140
1040
3.0
1002
}
1001
ACAD_DSTYLE_DIM_LINETYPE
1070
   380
1005
16
1001
ACAD_DSTYLE_DIM_EXT1_LINETYPE
1070
   381
1005
16
1001
ACAD_DSTYLE_DIM_EXT2_LINETYPE
1070
   382
1005
16
0
ENDSEC
0
SECTION
2
OBJECTS
0
DICTIONARY
5
1e2
330
0
100
AcDbDictionary
280
0
281
1
3
ACAD_GROUP
350
1e3
3
ACAD_MLINESTYLE
350
1e4
0
DICTIONARY
5
1e3
330
0
100
AcDbDictionary
280
0
281
1
0
DICTIONARY
5
1e4
330
0
100
AcDbDictionary
280
0
281
1
3
Standard
350
18
0
MLINESTYLE
5
18
330
1e4
100
AcDbMlineStyle
2
Standard
70
0
3

62
256
51
90
52
90
71
2
49
-0.5
62
256
6
ByLayer
49
0.5
62
256
6
ByLayer
0
RASTERVARIABLES
5
1d0
330

100
AcDbRasterVariables
90
0
70
1
71
1
72
1
0
ENDSEC
0
EOF
