0
SECTION
2
HEADER
9
$ACADVER
1
AC1015
9
$DWGCODEPAGE
3
ANSI_1252
9
$HANDSEED
5
1ee
9
$ANGBASE
50
0
9
$ANGDIR
70
0
9
$ATTMODE
70
1
9
$AUNITS
70
0
9
$AUPREC
70
0
9
$CECOLOR
62
256
9
$CELTSCALE
40
1
9
$CELTYPE
6
ByLayer
9
$CELWEIGHT
370
18
9
$CLAYER
8
0
9
$CMLJUST
70
0
9
$CMLSCALE
40
1
9
$CMLSTYLE
2
Standard
9
$DIMSTYLE
2
Standard
9
$TEXTSIZE
40
0.2
9
$TEXTSTYLE
7
Standard
9
$LUNITS
70
2
9
$LUPREC
70
4
9
$EXTNAMES
290
1
9
$INSUNITS
70
4
9
$LTSCALE
40
1
9
$LWDISPLAY
290
1
9
$PDMODE
70
0
9
$PDSIZE
40
0
9
$PLINEGEN
70
0
0
ENDSEC
0
SECTION
2
CLASSES
0
CLASS
1
RASTERVARIABLES
2
AcDbRasterVariables
3
ISM
90
0
280
0
281
0
0
ENDSEC
0
SECTION
2
TABLES
0
TABLE
2
VPORT
5
1e4
100
AcDbSymbolTable
0
VPORT
5
1
100
AcDbSymbolTableRecord
100
AcDbViewportTableRecord
2
*Active
70
0
10
0
20
0
11
1
21
1
12
-1
22
1
13
0
23
0
14
0.5
24
0.5
15
10
25
10
16
0
26
0
36
1
17
0
27
0
37
0
0
ENDTAB
0
TABLE
2
LTYPE
5
1e5
100
AcDbSymbolTable
0
LTYPE
5
14
100
AcDbSymbolTableRecord
100
AcDbLinetypeTableRecord
70
0
2
ByBlock
3

72
65
73
0
40
0
0
LTYPE
5
15
100
AcDbSymbolTableRecord
100
AcDbLinetypeTableRecord
70
0
2
ByLayer
3

72
65
73
0
40
0
0
LTYPE
5
16
100
AcDbSymbolTableRecord
100
AcDbLinetypeTableRecord
70
0
2
Continuous
3
Solid line
72
65
73
0
40
0
0
LTYPE
5
6E
100
AcDbSymbolTableRecord
100
AcDbLinetypeTableRecord
70
0
2
CENTER
3
____ _ ____ _ ____ _ ____
72
65
73
4
40
47.5
49
22
74
0
49
-8.5
74
0
49
8.5
74
0
49
-8.5
74
0
0
LTYPE
5
6F
100
AcDbSymbolTableRecord
100
AcDbLinetypeTableRecord
70
0
2
DASHED
3
__ __ __ __ __ __ __ __ __
72
65
73
2
40
25.72
49
12.86
74
0
49
-12.86
74
0
0
ENDTAB
0
TABLE
2
LAYER
5
1e6
100
AcDbSymbolTable
0
LAYER
5
10
100
AcDbSymbolTableRecord
100
AcDbLayerTableRecord
2
0
70
0
62
7
6
Continuous
290
1
370
-3
390
0
0
LAYER
5
71
100
AcDbSymbolTableRecord
100
AcDbLayerTableRecord
2
80
70
0
62
-6
6
Continuous
290
1
370
-3
390
0
0
LAYER
5
73
100
AcDbSymbolTableRecord
100
AcDbLayerTableRecord
2
81
70
0
62
-3
6
Continuous
290
1
370
-3
390
0
0
LAYER
5
75
100
AcDbSymbolTableRecord
100
AcDbLayerTableRecord
2
1
70
0
62
4
6
Continuous
290
1
370
-3
390
0
0
LAYER
5
9C
100
AcDbSymbolTableRecord
100
AcDbLayerTableRecord
2
4
70
0
62
-2
6
CENTER
290
1
370
-3
390
0
0
LAYER
5
AC
100
AcDbSymbolTableRecord
100
AcDbLayerTableRecord
2
2
70
0
62
7
6
Continuous
290
1
370
-3
390
0
0
LAYER
5
F5
100
AcDbSymbolTableRecord
100
AcDbLayerTableRecord
2
Defpoints
70
0
62
7
6
Continuous
290
0
370
-3
390
0
0
LAYER
5
1d0
100
AcDbSymbolTableRecord
100
AcDbLayerTableRecord
2
SK1
70
0
62
4
6
Continuous
290
1
370
-3
390
0
0
LAYER
5
1d1
100
AcDbSymbolTableRecord
100
AcDbLayerTableRecord
2
SK4
70
0
62
2
6
CENTER
290
1
370
-3
390
0
0
LAYER
5
1d2
100
AcDbSymbolTableRecord
100
AcDbLayerTableRecord
2
SK2
70
0
62
7
6
Continuous
290
1
370
-3
390
0
0
LAYER
5
1d3
100
AcDbSymbolTableRecord
100
AcDbLayerTableRecord
2
SK6
70
0
62
5
6
Continuous
290
1
370
-3
390
0
0
ENDTAB
0
TABLE
2
STYLE
5
1e7
100
AcDbSymbolTable
0
STYLE
5
11
100
AcDbSymbolTableRecord
100
AcDbTextStyleTableRecord
2
Standard
3
txt
70
0
71
0
40
0
41
1
42
0
50
0
0
STYLE
5
D1
100
AcDbSymbolTableRecord
100
AcDbTextStyleTableRecord
2
iso_b_vert
3
simplex.shx
70
0
71
0
40
0
41
1
42
0
50
0
0
STYLE
5
D2
100
AcDbSymbolTableRecord
100
AcDbTextStyleTableRecord
2
DWGDirectTextStyle
3
simplex
70
0
71
0
40
0
41
1
42
0
50
0
0
ENDTAB
0
TABLE
2
DIMSTYLE
5
1e8
100
AcDbSymbolTable
100
AcDbDimStyleTable
0
DIMSTYLE
105
27
100
AcDbSymbolTableRecord
100
AcDbDimStyleTableRecord
2
Standard
70
0
3
<>
41
0.18
42
0.0625
44
0.18
140
0.18
147
0.09
73
0
74
0
77
1
271
2
275
0
278
52
280
0
340
11
0
ENDTAB
0
TABLE
2
VIEW
5
1e9
100
AcDbSymbolTable
0
ENDTAB
0
TABLE
2
UCS
5
1ea
100
AcDbSymbolTable
0
ENDTAB
0
TABLE
2
APPID
5
1eb
100
AcDbSymbolTable
0
APPID
5
12
100
AcDbSymbolTableRecord
100
AcDbRegAppTableRecord
2
ACAD
70
0
0
APPID
5
F1
100
AcDbSymbolTableRecord
100
AcDbRegAppTableRecord
2
ACAD_DSTYLE_DIMBREAK
70
0
0
APPID
5
18F
100
AcDbSymbolTableRecord
100
AcDbRegAppTableRecord
2
ACAD_DSTYLE_DIM_LINETYPE
70
0
0
APPID
5
190
100
AcDbSymbolTableRecord
100
AcDbRegAppTableRecord
2
ACAD_DSTYLE_DIM_EXT1_LINETYPE
70
0
0
APPID
5
191
100
AcDbSymbolTableRecord
100
AcDbRegAppTableRecord
2
ACAD_DSTYLE_DIM_EXT2_LINETYPE
70
0
0
APPID
5
1CC
100
AcDbSymbolTableRecord
100
AcDbRegAppTableRecord
2
ACAD_MLEADERVER
70
0
0
ENDTAB
0
TABLE
2
BLOCK_RECORD
5
1ec
100
AcDbSymbolTable
0
BLOCK_RECORD
5
1F
100
AcDbSymbolTableRecord
100
AcDbBlockTableRecord
2
*Model_Space
340
0
70
0
0
BLOCK_RECORD
5
1B
100
AcDbSymbolTableRecord
100
AcDbBlockTableRecord
2
*Paper_Space
340
0
70
0
0
BLOCK_RECORD
5
23
100
AcDbSymbolTableRecord
100
AcDbBlockTableRecord
2
*Paper_Space0
340
0
70
0
0
BLOCK_RECORD
5
F6
100
AcDbSymbolTableRecord
100
AcDbBlockTableRecord
2
*D1
340
0
70
0
0
BLOCK_RECORD
5
102
100
AcDbSymbolTableRecord
100
AcDbBlockTableRecord
2
_U0
340
0
70
0
0
BLOCK_RECORD
5
10E
100
AcDbSymbolTableRecord
100
AcDbBlockTableRecord
2
*D3
340
0
70
0
0
BLOCK_RECORD
5
11C
100
AcDbSymbolTableRecord
100
AcDbBlockTableRecord
2
_U1
340
0
70
0
0
BLOCK_RECORD
5
128
100
AcDbSymbolTableRecord
100
AcDbBlockTableRecord
2
*D5
340
0
70
0
0
BLOCK_RECORD
5
136
100
AcDbSymbolTableRecord
100
AcDbBlockTableRecord
2
_U2
340
0
70
0
0
BLOCK_RECORD
5
142
100
AcDbSymbolTableRecord
100
AcDbBlockTableRecord
2
*D7
340
0
70
0
0
BLOCK_RECORD
5
14E
100
AcDbSymbolTableRecord
100
AcDbBlockTableRecord
2
_U3
340
0
70
0
0
BLOCK_RECORD
5
15A
100
AcDbSymbolTableRecord
100
AcDbBlockTableRecord
2
*D9
340
0
70
0
0
BLOCK_RECORD
5
168
100
AcDbSymbolTableRecord
100
AcDbBlockTableRecord
2
_U4
340
0
70
0
0
ENDTAB
0
ENDSEC
0
SECTION
2
BLOCKS
0
BLOCK
5
20
100
AcDbEntity
8
0
100
AcDbBlockBegin
2
*Model_Space
70
0
10
0
20
0
30
0
3
*Model_Space
0
ENDBLK
5
21
100
AcDbEntity
8
0
100
AcDbBlockEnd
0
BLOCK
5
1C
100
AcDbEntity
8
0
100
AcDbBlockBegin
2
*Paper_Space
70
0
10
0
20
0
30
0
3
*Paper_Space
0
ENDBLK
5
1D
100
AcDbEntity
8
0
100
AcDbBlockEnd
0
BLOCK
5
24
100
AcDbEntity
8
0
100
AcDbBlockBegin
2
*Paper_Space0
70
0
10
0
20
0
30
0
3
*Paper_Space0
0
ENDBLK
5
25
100
AcDbEntity
8
0
100
AcDbBlockEnd
0
BLOCK
5
F7
100
AcDbEntity
8
0
100
AcDbBlockBegin
2
*D1
70
1
10
0
20
0
30
0
3
*D1
0
LINE
5
F9
100
AcDbEntity
8
0
62
256
6
ByLayer
370
-2
48
1
60
0
100
AcDbLine
10
-30.1835
20
-0.0875
30
0
11
-30.1835
21
-37.85
31
0
39
0
210
0
220
0
230
1
0
LINE
5
FA
100
AcDbEntity
8
0
62
256
6
ByLayer
370
-2
48
1
60
0
100
AcDbLine
10
7.8165
20
-1.2125
30
0
11
7.8165
21
-37.85
31
0
39
0
210
0
220
0
230
1
0
LINE
5
FB
100
AcDbEntity
8
0
62
256
6
ByLayer
370
-2
48
1
60
0
100
AcDbLine
10
-26.6835
20
-35.85
30
0
11
4.3165
21
-35.85
31
0
39
0
210
0
220
0
230
1
0
SOLID
5
FC
100
AcDbEntity
8
0
62
256
6
ByLayer
370
-1
48
1
60
0
100
AcDbTrace
10
-26.6835
20
-35.266667
30
0
11
-26.6835
21
-36.433333
31
0
12
-30.1835
22
-35.85
32
0
13
-30.1835
23
-35.85
33
0
39
0
210
0
220
0
230
1
0
SOLID
5
FD
100
AcDbEntity
8
0
62
256
6
ByLayer
370
-1
48
1
60
0
100
AcDbTrace
10
4.3165
20
-36.433333
30
0
11
4.3165
21
-35.266667
31
0
12
7.8165
22
-35.85
32
0
13
7.8165
23
-35.85
33
0
39
0
210
0
220
0
230
1
0
MTEXT
5
FE
100
AcDbEntity
8
0
62
256
6
ByLayer
370
18
48
1
60
0
100
AcDbMText
10
-11.1835
20
-29.85
30
0
210
0
220
0
230
1
1
\A1;38
40
3
41
0
44
1
50
0
71
5
72
5
7
iso_b_vert
0
POINT
5
FF
100
AcDbEntity
8
Defpoints
62
0
6
ByLayer
370
-1
48
1
60
0
100
AcDbPoint
10
-30.1835
20
1.5
30
0
39
0
210
0
220
0
230
1
50
360
0
POINT
5
100
100
AcDbEntity
8
Defpoints
62
0
6
ByLayer
370
-1
48
1
60
0
100
AcDbPoint
10
7.8165
20
0.375
30
0
39
0
210
0
220
0
230
1
50
360
0
POINT
5
101
100
AcDbEntity
8
Defpoints
62
0
6
ByLayer
370
-1
48
1
60
0
100
AcDbPoint
10
7.8165
20
-35.85
30
0
39
0
210
0
220
0
230
1
50
360
0
ENDBLK
5
F8
100
AcDbEntity
8
0
100
AcDbBlockEnd
0
BLOCK
5
109
100
AcDbEntity
8
0
100
AcDbBlockBegin
2
_U0
70
0
10
0
20
0
30
0
3
_U0
0
MTEXT
5
103
100
AcDbEntity
8
SK2
62
256
6
ByLayer
370
18
48
1
60
0
100
AcDbMText
10
-15.66587
20
-34.964886
30
0
210
0
220
0
230
1
1
\W0.7468;38.00
40
3
41
0
44
1.084337
50
0
71
7
72
5
7
iso_b_vert
0
LINE
5
104
100
AcDbEntity
8
SK2
62
256
6
ByLayer
370
13
48
1
60
0
100
AcDbLine
10
-30.1835
20
-0.0875
30
0
11
-30.1835
21
-37.85
31
0
39
0
210
0
220
0
230
1
0
LINE
5
105
100
AcDbEntity
8
SK2
62
256
6
ByLayer
370
13
48
1
60
0
100
AcDbLine
10
7.8165
20
-1.2125
30
0
11
7.8165
21
-37.85
31
0
39
0
210
0
220
0
230
1
0
LINE
5
106
100
AcDbEntity
8
SK2
62
256
6
ByLayer
370
13
48
1
60
0
100
AcDbLine
10
-30.1835
20
-35.85
30
0
11
7.8165
21
-35.85
31
0
39
0
210
0
220
0
230
1
0
SOLID
5
107
100
AcDbEntity
8
SK2
62
256
6
ByLayer
370
18
48
1
60
0
100
AcDbTrace
10
-30.1835
20
-35.85
30
0
11
-26.683502
21
-35.389216
31
0
12
-26.683498
22
-36.310784
32
0
13
-26.683498
23
-36.310784
33
0
39
0
210
0
220
0
230
1
0
SOLID
5
108
100
AcDbEntity
8
SK2
62
256
6
ByLayer
370
18
48
1
60
0
100
AcDbTrace
10
7.8165
20
-35.85
30
0
11
4.316502
21
-36.310784
31
0
12
4.316498
22
-35.389216
32
0
13
4.316498
23
-35.389216
33
0
39
0
210
0
220
0
230
1
0
ENDBLK
5
10A
100
AcDbEntity
8
0
100
AcDbBlockEnd
0
BLOCK
5
10F
100
AcDbEntity
8
0
100
AcDbBlockBegin
2
*D3
70
1
10
0
20
0
30
0
3
*D3
0
LINE
5
111
100
AcDbEntity
8
0
62
256
6
ByLayer
370
-2
48
1
60
0
100
AcDbLine
10
7.8165
20
-1.2125
30
0
11
7.8165
21
-23.875
31
0
39
0
210
0
220
0
230
1
0
LINE
5
112
100
AcDbEntity
8
0
62
256
6
ByLayer
370
-2
48
1
60
0
100
AcDbLine
10
4.4415
20
-1.5875
30
0
11
4.4415
21
-23.875
31
0
39
0
210
0
220
0
230
1
0
LINE
5
113
100
AcDbEntity
8
0
62
256
6
ByLayer
370
-2
48
1
60
0
100
AcDbLine
10
7.8165
20
-21.875
30
0
11
32.959357
21
-21.875
31
0
39
0
210
0
220
0
230
1
0
LINE
5
114
100
AcDbEntity
8
0
62
256
6
ByLayer
370
-2
48
1
60
0
100
AcDbLine
10
11.3165
20
-21.875
30
0
11
14.8165
21
-21.875
31
0
39
0
210
0
220
0
230
1
0
LINE
5
115
100
AcDbEntity
8
0
62
256
6
ByLayer
370
-2
48
1
60
0
100
AcDbLine
10
0.9415
20
-21.875
30
0
11
-2.5585
21
-21.875
31
0
39
0
210
0
220
0
230
1
0
SOLID
5
116
100
AcDbEntity
8
0
62
256
6
ByLayer
370
-1
48
1
60
0
100
AcDbTrace
10
11.3165
20
-21.291667
30
0
11
11.3165
21
-22.458333
31
0
12
7.8165
22
-21.875
32
0
13
7.8165
23
-21.875
33
0
39
0
210
0
220
0
230
1
0
SOLID
5
117
100
AcDbEntity
8
0
62
256
6
ByLayer
370
-1
48
1
60
0
100
AcDbTrace
10
0.9415
20
-22.458333
30
0
11
0.9415
21
-21.291667
31
0
12
4.4415
22
-21.875
32
0
13
4.4415
23
-21.875
33
0
39
0
210
0
220
0
230
1
0
MTEXT
5
118
100
AcDbEntity
8
0
62
256
6
ByLayer
370
18
48
1
60
0
100
AcDbMText
10
23.887929
20
-15.875
30
0
210
0
220
0
230
1
1
\A1;3.38
40
3
41
0
44
1
50
0
71
5
72
5
7
iso_b_vert
0
POINT
5
119
100
AcDbEntity
8
Defpoints
62
0
6
ByLayer
370
-1
48
1
60
0
100
AcDbPoint
10
7.8165
20
0.375
30
0
39
0
210
0
220
0
230
1
50
360
0
POINT
5
11A
100
AcDbEntity
8
Defpoints
62
0
6
ByLayer
370
-1
48
1
60
0
100
AcDbPoint
10
4.4415
20
0
30
0
39
0
210
0
220
0
230
1
50
360
0
POINT
5
11B
100
AcDbEntity
8
Defpoints
62
0
6
ByLayer
370
-1
48
1
60
0
100
AcDbPoint
10
4.4415
20
-21.875
30
0
39
0
210
0
220
0
230
1
50
360
0
ENDBLK
5
110
100
AcDbEntity
8
0
100
AcDbBlockEnd
0
BLOCK
5
123
100
AcDbEntity
8
0
100
AcDbBlockBegin
2
_U1
70
0
10
0
20
0
30
0
3
_U1
0
MTEXT
5
11D
100
AcDbEntity
8
SK2
62
256
6
ByLayer
370
18
48
1
60
0
100
AcDbMText
10
11.9755
20
-20.989886
30
0
210
0
220
0
230
1
1
\W0.7051;(3.38)
40
3
41
0
44
1.084337
50
0
71
7
72
5
7
iso_b_vert
0
LINE
5
11E
100
AcDbEntity
8
SK2
62
256
6
ByLayer
370
13
48
1
60
0
100
AcDbLine
10
7.8165
20
-1.2125
30
0
11
7.8165
21
-23.875
31
0
39
0
210
0
220
0
230
1
0
LINE
5
11F
100
AcDbEntity
8
SK2
62
256
6
ByLayer
370
13
48
1
60
0
100
AcDbLine
10
4.4415
20
-1.5875
30
0
11
4.4415
21
-23.875
31
0
39
0
210
0
220
0
230
1
0
LINE
5
120
100
AcDbEntity
8
SK2
62
256
6
ByLayer
370
13
48
1
60
0
100
AcDbLine
10
-3.0585
20
-21.875
30
0
11
21.288269
21
-21.875
31
0
39
0
210
0
220
0
230
1
0
SOLID
5
121
100
AcDbEntity
8
SK2
62
256
6
ByLayer
370
18
48
1
60
0
100
AcDbTrace
10
7.8165
20
-21.875
30
0
11
11.316498
21
-21.414216
31
0
12
11.316502
22
-22.335784
32
0
13
11.316502
23
-22.335784
33
0
39
0
210
0
220
0
230
1
0
SOLID
5
122
100
AcDbEntity
8
SK2
62
256
6
ByLayer
370
18
48
1
60
0
100
AcDbTrace
10
4.4415
20
-21.875
30
0
11
0.941502
21
-22.335784
31
0
12
0.941498
22
-21.414216
32
0
13
0.941498
23
-21.414216
33
0
39
0
210
0
220
0
230
1
0
ENDBLK
5
124
100
AcDbEntity
8
0
100
AcDbBlockEnd
0
BLOCK
5
129
100
AcDbEntity
8
0
100
AcDbBlockBegin
2
*D5
70
1
10
0
20
0
30
0
3
*D5
0
LINE
5
12B
100
AcDbEntity
8
0
62
256
6
ByLayer
370
-2
48
1
60
0
100
AcDbLine
10
7.8165
20
-1.2125
30
0
11
7.8165
21
-31.875
31
0
39
0
210
0
220
0
230
1
0
LINE
5
12C
100
AcDbEntity
8
0
62
256
6
ByLayer
370
-2
48
1
60
0
100
AcDbLine
10
3.3165
20
-1.5875
30
0
11
3.3165
21
-31.875
31
0
39
0
210
0
220
0
230
1
0
LINE
5
12D
100
AcDbEntity
8
0
62
256
6
ByLayer
370
-2
48
1
60
0
100
AcDbLine
10
7.8165
20
-29.875
30
0
11
30.102214
21
-29.875
31
0
39
0
210
0
220
0
230
1
0
LINE
5
12E
100
AcDbEntity
8
0
62
256
6
ByLayer
370
-2
48
1
60
0
100
AcDbLine
10
11.3165
20
-29.875
30
0
11
14.8165
21
-29.875
31
0
39
0
210
0
220
0
230
1
0
LINE
5
12F
100
AcDbEntity
8
0
62
256
6
ByLayer
370
-2
48
1
60
0
100
AcDbLine
10
-0.1835
20
-29.875
30
0
11
-3.6835
21
-29.875
31
0
39
0
210
0
220
0
230
1
0
SOLID
5
130
100
AcDbEntity
8
0
62
256
6
ByLayer
370
-1
48
1
60
0
100
AcDbTrace
10
11.3165
20
-29.291667
30
0
11
11.3165
21
-30.458333
31
0
12
7.8165
22
-29.875
32
0
13
7.8165
23
-29.875
33
0
39
0
210
0
220
0
230
1
0
SOLID
5
131
100
AcDbEntity
8
0
62
256
6
ByLayer
370
-1
48
1
60
0
100
AcDbTrace
10
-0.1835
20
-30.458333
30
0
11
-0.1835
21
-29.291667
31
0
12
3.3165
22
-29.875
32
0
13
3.3165
23
-29.875
33
0
39
0
210
0
220
0
230
1
0
MTEXT
5
132
100
AcDbEntity
8
0
62
256
6
ByLayer
370
18
48
1
60
0
100
AcDbMText
10
22.459357
20
-23.875
30
0
210
0
220
0
230
1
1
\A1;4.5
40
3
41
0
44
1
50
0
71
5
72
5
7
iso_b_vert
0
POINT
5
133
100
AcDbEntity
8
Defpoints
62
0
6
ByLayer
370
-1
48
1
60
0
100
AcDbPoint
10
7.8165
20
0.375
30
0
39
0
210
0
220
0
230
1
50
360
0
POINT
5
134
100
AcDbEntity
8
Defpoints
62
0
6
ByLayer
370
-1
48
1
60
0
100
AcDbPoint
10
3.3165
20
0
30
0
39
0
210
0
220
0
230
1
50
360
0
POINT
5
135
100
AcDbEntity
8
Defpoints
62
0
6
ByLayer
370
-1
48
1
60
0
100
AcDbPoint
10
3.3165
20
-29.875
30
0
39
0
210
0
220
0
230
1
50
360
0
ENDBLK
5
12A
100
AcDbEntity
8
0
100
AcDbBlockEnd
0
BLOCK
5
13D
100
AcDbEntity
8
0
100
AcDbBlockBegin
2
_U2
70
0
10
0
20
0
30
0
3
_U2
0
MTEXT
5
137
100
AcDbEntity
8
SK2
62
256
6
ByLayer
370
18
48
1
60
0
100
AcDbMText
10
10.9755
20
-28.989886
30
0
210
0
220
0
230
1
1
\W0.7640;4.50
40
3
41
0
44
1.084337
50
0
71
7
72
5
7
iso_b_vert
0
LINE
5
138
100
AcDbEntity
8
SK2
62
256
6
ByLayer
370
13
48
1
60
0
100
AcDbLine
10
7.8165
20
-1.2125
30
0
11
7.8165
21
-31.875
31
0
39
0
210
0
220
0
230
1
0
LINE
5
139
100
AcDbEntity
8
SK2
62
256
6
ByLayer
370
13
48
1
60
0
100
AcDbLine
10
3.3165
20
-1.5875
30
0
11
3.3165
21
-31.875
31
0
39
0
210
0
220
0
230
1
0
LINE
5
13A
100
AcDbEntity
8
SK2
62
256
6
ByLayer
370
13
48
1
60
0
100
AcDbLine
10
-4.1835
20
-29.875
30
0
11
18.173298
21
-29.875
31
0
39
0
210
0
220
0
230
1
0
SOLID
5
13B
100
AcDbEntity
8
SK2
62
256
6
ByLayer
370
18
48
1
60
0
100
AcDbTrace
10
7.8165
20
-29.875
30
0
11
11.316498
21
-29.414216
31
0
12
11.316502
22
-30.335784
32
0
13
11.316502
23
-30.335784
33
0
39
0
210
0
220
0
230
1
0
SOLID
5
13C
100
AcDbEntity
8
SK2
62
256
6
ByLayer
370
18
48
1
60
0
100
AcDbTrace
10
3.3165
20
-29.875
30
0
11
-0.183498
21
-30.335784
31
0
12
-0.183502
22
-29.414216
32
0
13
-0.183502
23
-29.414216
33
0
39
0
210
0
220
0
230
1
0
ENDBLK
5
13E
100
AcDbEntity
8
0
100
AcDbBlockEnd
0
BLOCK
5
143
100
AcDbEntity
8
0
100
AcDbBlockBegin
2
*D7
70
1
10
0
20
0
30
0
3
*D7
0
LINE
5
145
100
AcDbEntity
8
0
62
256
6
ByLayer
370
-2
48
1
60
0
100
AcDbLine
10
-30.1835
20
1.5875
30
0
11
-30.1835
21
13.35
31
0
39
0
210
0
220
0
230
1
0
LINE
5
146
100
AcDbEntity
8
0
62
256
6
ByLayer
370
-2
48
1
60
0
100
AcDbLine
10
0
20
1.5875
30
0
11
0
21
13.35
31
0
39
0
210
0
220
0
230
1
0
LINE
5
147
100
AcDbEntity
8
0
62
256
6
ByLayer
370
-2
48
1
60
0
100
AcDbLine
10
-26.6835
20
11.35
30
0
11
-3.5
21
11.35
31
0
39
0
210
0
220
0
230
1
0
SOLID
5
148
100
AcDbEntity
8
0
62
256
6
ByLayer
370
-1
48
1
60
0
100
AcDbTrace
10
-26.6835
20
11.933333
30
0
11
-26.6835
21
10.766667
31
0
12
-30.1835
22
11.35
32
0
13
-30.1835
23
11.35
33
0
39
0
210
0
220
0
230
1
0
SOLID
5
149
100
AcDbEntity
8
0
62
256
6
ByLayer
370
-1
48
1
60
0
100
AcDbTrace
10
-3.5
20
10.766667
30
0
11
-3.5
21
11.933333
31
0
12
0
22
11.35
32
0
13
0
23
11.35
33
0
39
0
210
0
220
0
230
1
0
MTEXT
5
14A
100
AcDbEntity
8
0
62
256
6
ByLayer
370
18
48
1
60
0
100
AcDbMText
10
-15.09175
20
17.35
30
0
210
0
220
0
230
1
1
\A1;30.18
40
3
41
0
44
1
50
0
71
5
72
5
7
iso_b_vert
0
POINT
5
14B
100
AcDbEntity
8
Defpoints
62
0
6
ByLayer
370
-1
48
1
60
0
100
AcDbPoint
10
-30.1835
20
0
30
0
39
0
210
0
220
0
230
1
50
360
0
POINT
5
14C
100
AcDbEntity
8
Defpoints
62
0
6
ByLayer
370
-1
48
1
60
0
100
AcDbPoint
10
0
20
0
30
0
39
0
210
0
220
0
230
1
50
360
0
POINT
5
14D
100
AcDbEntity
8
Defpoints
62
0
6
ByLayer
370
-1
48
1
60
0
100
AcDbPoint
10
0
20
11.35
30
0
39
0
210
0
220
0
230
1
50
360
0
ENDBLK
5
144
100
AcDbEntity
8
0
100
AcDbBlockEnd
0
BLOCK
5
155
100
AcDbEntity
8
0
100
AcDbBlockBegin
2
_U3
70
0
10
0
20
0
30
0
3
_U3
0
MTEXT
5
14F
100
AcDbEntity
8
SK2
62
256
6
ByLayer
370
18
48
1
60
0
100
AcDbMText
10
-19.199178
20
12.235114
30
0
210
0
220
0
230
1
1
\W0.6864;30.18
40
3
41
0
44
1.084337
50
0
71
7
72
5
7
iso_b_vert
0
LINE
5
150
100
AcDbEntity
8
SK2
62
256
6
ByLayer
370
13
48
1
60
0
100
AcDbLine
10
-30.1835
20
1.5875
30
0
11
-30.1835
21
13.35
31
0
39
0
210
0
220
0
230
1
0
LINE
5
151
100
AcDbEntity
8
SK2
62
256
6
ByLayer
370
13
48
1
60
0
100
AcDbLine
10
0
20
1.5875
30
0
11
0
21
13.35
31
0
39
0
210
0
220
0
230
1
0
LINE
5
152
100
AcDbEntity
8
SK2
62
256
6
ByLayer
370
13
48
1
60
0
100
AcDbLine
10
-30.1835
20
11.35
30
0
11
0
21
11.35
31
0
39
0
210
0
220
0
230
1
0
SOLID
5
153
100
AcDbEntity
8
SK2
62
256
6
ByLayer
370
18
48
1
60
0
100
AcDbTrace
10
-30.1835
20
11.35
30
0
11
-26.683502
21
11.810784
31
0
12
-26.683498
22
10.889216
32
0
13
-26.683498
23
10.889216
33
0
39
0
210
0
220
0
230
1
0
SOLID
5
154
100
AcDbEntity
8
SK2
62
256
6
ByLayer
370
18
48
1
60
0
100
AcDbTrace
10
0
20
11.35
30
0
11
-3.499998
21
10.889216
31
0
12
-3.500002
22
11.810784
32
0
13
-3.500002
23
11.810784
33
0
39
0
210
0
220
0
230
1
0
ENDBLK
5
156
100
AcDbEntity
8
0
100
AcDbBlockEnd
0
BLOCK
5
15B
100
AcDbEntity
8
0
100
AcDbBlockBegin
2
*D9
70
1
10
0
20
0
30
0
3
*D9
0
LINE
5
15D
100
AcDbEntity
8
0
62
256
6
ByLayer
370
-2
48
1
60
0
100
AcDbLine
10
7.8165
20
1.9625
30
0
11
7.8165
21
7
31
0
39
0
210
0
220
0
230
1
0
LINE
5
15E
100
AcDbEntity
8
0
62
256
6
ByLayer
370
-2
48
1
60
0
100
AcDbLine
10
0
20
1.5875
30
0
11
0
21
7
31
0
39
0
210
0
220
0
230
1
0
LINE
5
15F
100
AcDbEntity
8
0
62
256
6
ByLayer
370
-2
48
1
60
0
100
AcDbLine
10
0
20
5
30
0
11
-25.142857
21
5
31
0
39
0
210
0
220
0
230
1
0
LINE
5
160
100
AcDbEntity
8
0
62
256
6
ByLayer
370
-2
48
1
60
0
100
AcDbLine
10
11.3165
20
5
30
0
11
14.8165
21
5
31
0
39
0
210
0
220
0
230
1
0
LINE
5
161
100
AcDbEntity
8
0
62
256
6
ByLayer
370
-2
48
1
60
0
100
AcDbLine
10
-3.5
20
5
30
0
11
-7
21
5
31
0
39
0
210
0
220
0
230
1
0
SOLID
5
162
100
AcDbEntity
8
0
62
256
6
ByLayer
370
-1
48
1
60
0
100
AcDbTrace
10
11.3165
20
5.583333
30
0
11
11.3165
21
4.416667
31
0
12
7.8165
22
5
32
0
13
7.8165
23
5
33
0
39
0
210
0
220
0
230
1
0
SOLID
5
163
100
AcDbEntity
8
0
62
256
6
ByLayer
370
-1
48
1
60
0
100
AcDbTrace
10
-3.5
20
4.416667
30
0
11
-3.5
21
5.583333
31
0
12
0
22
5
32
0
13
0
23
5
33
0
39
0
210
0
220
0
230
1
0
MTEXT
5
164
100
AcDbEntity
8
0
62
256
6
ByLayer
370
18
48
1
60
0
100
AcDbMText
10
-16.071429
20
11
30
0
210
0
220
0
230
1
1
\A1;7.82
40
3
41
0
44
1
50
0
71
5
72
5
7
iso_b_vert
0
POINT
5
165
100
AcDbEntity
8
Defpoints
62
0
6
ByLayer
370
-1
48
1
60
0
100
AcDbPoint
10
7.8165
20
0.375
30
0
39
0
210
0
220
0
230
1
50
360
0
POINT
5
166
100
AcDbEntity
8
Defpoints
62
0
6
ByLayer
370
-1
48
1
60
0
100
AcDbPoint
10
0
20
0
30
0
39
0
210
0
220
0
230
1
50
360
0
POINT
5
167
100
AcDbEntity
8
Defpoints
62
0
6
ByLayer
370
-1
48
1
60
0
100
AcDbPoint
10
0
20
5
30
0
39
0
210
0
220
0
230
1
50
360
0
ENDBLK
5
15C
100
AcDbEntity
8
0
100
AcDbBlockEnd
0
BLOCK
5
16F
100
AcDbEntity
8
0
100
AcDbBlockBegin
2
_U4
70
0
10
0
20
0
30
0
3
_U4
0
MTEXT
5
169
100
AcDbEntity
8
2
62
256
6
ByLayer
370
18
48
1
60
0
100
AcDbMText
10
-9.841
20
5.885114
30
0
210
0
220
0
230
1
1
\W0.7346;7.82
40
3
41
0
44
1.084337
50
0
71
7
72
5
7
iso_b_vert
0
LINE
5
16A
100
AcDbEntity
8
2
62
256
6
ByLayer
370
13
48
1
60
0
100
AcDbLine
10
7.8165
20
1.9625
30
0
11
7.8165
21
7
31
0
39
0
210
0
220
0
230
1
0
LINE
5
16B
100
AcDbEntity
8
2
62
256
6
ByLayer
370
13
48
1
60
0
100
AcDbLine
10
0
20
1.5875
30
0
11
0
21
7
31
0
39
0
210
0
220
0
230
1
0
LINE
5
16C
100
AcDbEntity
8
2
62
256
6
ByLayer
370
13
48
1
60
0
100
AcDbLine
10
7.8165
20
5
30
0
11
-10
21
5
31
0
39
0
210
0
220
0
230
1
0
SOLID
5
16D
100
AcDbEntity
8
2
62
256
6
ByLayer
370
18
48
1
60
0
100
AcDbTrace
10
7.8165
20
5
30
0
11
4.316502
21
4.539216
31
0
12
4.316498
22
5.460784
32
0
13
4.316498
23
5.460784
33
0
39
0
210
0
220
0
230
1
0
SOLID
5
16E
100
AcDbEntity
8
2
62
256
6
ByLayer
370
18
48
1
60
0
100
AcDbTrace
10
0
20
5
30
0
11
3.499998
21
5.460784
31
0
12
3.500002
22
4.539216
32
0
13
3.500002
23
4.539216
33
0
39
0
210
0
220
0
230
1
0
ENDBLK
5
170
100
AcDbEntity
8
0
100
AcDbBlockEnd
0
ENDSEC
0
SECTION
2
ENTITIES
0
ARC
5
BD
100
AcDbEntity
8
1
62
256
6
ByLayer
370
18
48
1
60
0
100
AcDbCircle
39
0
10
2.216544
20
-1.375
30
0
40
1
210
0
220
0
230
1
100
AcDbArc
50
90
51
120
0
ARC
5
BE
100
AcDbEntity
8
1
62
256
6
ByLayer
370
18
48
1
60
0
100
AcDbCircle
39
0
10
2.216544
20
1.375
30
0
40
1
210
0
220
0
230
1
100
AcDbArc
50
240
51
270
0
ARC
5
BF
100
AcDbEntity
8
SK2
62
256
6
ByLayer
370
13
48
1
60
0
100
AcDbCircle
39
0
10
7.8165
20
0
30
0
40
16.35
210
0
220
0
230
1
100
AcDbArc
50
10.57289
51
65
0
ARC
5
C0
100
AcDbEntity
8
SK2
62
256
6
ByLayer
370
13
48
1
60
0
100
AcDbCircle
39
0
10
7.8165
20
0
30
0
40
16.35
210
0
220
0
230
1
100
AcDbArc
50
295
51
349.42711
0
ELLIPSE
5
C1
100
AcDbEntity
8
1
62
256
6
ByLayer
370
18
48
1
60
0
100
AcDbEllipse
10
3.735451
20
0.594988
30
0
11
-0.476173695374566
21
0.451572973001612
31
0
210
0
220
0
230
1
40
0.687036
41
1.34956728508575
42
1.72200451938942
0
POINT
5
70
100
AcDbEntity
8
80
62
256
6
ByLayer
370
18
48
1
60
0
100
AcDbPoint
10
0
20
0
30
0
39
0
210
0
220
0
230
1
50
360
0
POINT
5
72
100
AcDbEntity
8
81
62
256
6
ByLayer
370
18
48
1
60
0
100
AcDbPoint
10
7.8165
20
0
30
0
39
0
210
0
220
0
230
1
50
360
0
POINT
5
74
100
AcDbEntity
8
1
62
256
6
ByLayer
370
18
48
1
60
1
100
AcDbPoint
10
-30.1835
20
1.5
30
0
39
0
210
0
220
0
230
1
50
360
0
POINT
5
76
100
AcDbEntity
8
1
62
256
6
ByLayer
370
18
48
1
60
1
100
AcDbPoint
10
7.8165
20
0.375
30
0
39
0
210
0
220
0
230
1
50
360
0
POINT
5
77
100
AcDbEntity
8
1
62
256
6
ByLayer
370
18
48
1
60
1
100
AcDbPoint
10
7.8165
20
0.375
30
0
39
0
210
0
220
0
230
1
50
360
0
POINT
5
78
100
AcDbEntity
8
1
62
256
6
ByLayer
370
18
48
1
60
1
100
AcDbPoint
10
4.4415
20
0
30
0
39
0
210
0
220
0
230
1
50
360
0
POINT
5
79
100
AcDbEntity
8
1
62
256
6
ByLayer
370
18
48
1
60
1
100
AcDbPoint
10
7.8165
20
0.375
30
0
39
0
210
0
220
0
230
1
50
360
0
POINT
5
7A
100
AcDbEntity
8
1
62
256
6
ByLayer
370
18
48
1
60
1
100
AcDbPoint
10
3.3165
20
0
30
0
39
0
210
0
220
0
230
1
50
360
0
POINT
5
7B
100
AcDbEntity
8
1
62
256
6
ByLayer
370
18
48
1
60
1
100
AcDbPoint
10
-30.1835
20
0
30
0
39
0
210
0
220
0
230
1
50
360
0
POINT
5
7C
100
AcDbEntity
8
1
62
256
6
ByLayer
370
18
48
1
60
1
100
AcDbPoint
10
0
20
0
30
0
39
0
210
0
220
0
230
1
50
360
0
POINT
5
7D
100
AcDbEntity
8
1
62
256
6
ByLayer
370
18
48
1
60
1
100
AcDbPoint
10
7.8165
20
0.375
30
0
39
0
210
0
220
0
230
1
50
360
0
POINT
5
7E
100
AcDbEntity
8
1
62
256
6
ByLayer
370
18
48
1
60
1
100
AcDbPoint
10
0
20
0
30
0
39
0
210
0
220
0
230
1
50
360
0
SPLINE
5
C2
100
AcDbEntity
8
1
62
256
6
ByLayer
370
18
48
1
60
0
100
AcDbSpline
70
4
71
3
72
16
73
12
40
0
40
0
40
0
40
0
40
0.250000000000012
40
0.250000000000012
40
0.500000000000025
40
0.500000000000025
40
0.625000000000031
40
0.625000000000031
40
0.750000000000037
40
0.750000000000037
40
1
40
1
40
1
40
1
41
1
10
3.3282792552109
20
-0.374900863980798
30
0
41
1
10
3.36185606446853
20
-0.37471080064222
30
0
41
1
10
3.39560015664693
20
-0.374322318899971
30
0
41
1
10
3.46341195356834
20
-0.37379010494277
30
0
41
1
10
3.49747969330795
20
-0.373644773546033
30
0
41
1
10
3.5488269698865
20
-0.373733507152849
30
0
41
1
10
3.56598378497736
20
-0.373810678470051
30
0
41
1
10
3.60038142413029
20
-0.374037046514758
30
0
41
1
10
3.61754757271606
20
-0.37418577000949
30
0
41
1
10
3.66862514822614
20
-0.374651392700912
30
0
41
1
10
3.70225093101519
20
-0.375003183534744
30
0
41
1
10
3.73545143047571
20
-0.374999979424814
30
0
0
SPLINE
5
C3
100
AcDbEntity
8
1
62
256
6
ByLayer
370
18
48
1
60
0
100
AcDbSpline
70
4
71
3
72
16
73
12
40
0
40
0
40
0
40
0
40
0.250000000000012
40
0.250000000000012
40
0.500000000000025
40
0.500000000000025
40
0.625000000000031
40
0.625000000000031
40
0.750000000000037
40
0.750000000000037
40
1
40
1
40
1
40
1
41
1
10
3.3282792552109
20
0.374900863980798
30
0
41
1
10
3.36185606446853
20
0.37471080064222
30
0
41
1
10
3.39560015664693
20
0.374322318899942
30
0
41
1
10
3.46341195356837
20
0.37379010494277
30
0
41
1
10
3.49747969330795
20
0.373644773546033
30
0
41
1
10
3.5488269698865
20
0.373733507152849
30
0
41
1
10
3.56598378497736
20
0.373810678470051
30
0
41
1
10
3.60038142413029
20
0.374037046514758
30
0
41
1
10
3.61754757271606
20
0.37418577000949
30
0
41
1
10
3.66862514822614
20
0.374651392700912
30
0
41
1
10
3.70225093101522
20
0.375003183534744
30
0
41
1
10
3.73545143047571
20
0.374999979424814
30
0
0
SPLINE
5
C4
100
AcDbEntity
8
1
62
256
6
ByLayer
370
18
48
1
60
0
100
AcDbSpline
70
4
71
3
72
62
73
58
40
0
40
0
40
0
40
0
40
0.0066563714054717
40
0.0066563714054717
40
0.0133127428109433
40
0.0133127428109433
40
0.0266254856218866
40
0.0266254856218866
40
0.0399382284328299
40
0.0399382284328299
40
0.0532509712437732
40
0.0532509712437732
40
0.10650194248754
40
0.10650194248754
40
0.159752913731306
40
0.159752913731306
40
0.213003884975072
40
0.213003884975072
40
0.239629370596956
40
0.239629370596956
40
0.266254856218839
40
0.266254856218839
40
0.319505827462598
40
0.319505827462598
40
0.346131313084478
40
0.346131313084478
40
0.372756798706358
40
0.372756798706358
40
0.426007769950111
40
0.426007769950111
40
0.479258741193864
40
0.479258741193864
40
0.532509712437616
40
0.532509712437616
40
0.559135198059496
40
0.559135198059496
40
0.585760683681376
40
0.585760683681376
40
0.639011654925135
40
0.639011654925135
40
0.692262626168895
40
0.692262626168895
40
0.718888111790775
40
0.718888111790775
40
0.745513597412655
40
0.745513597412655
40
0.798764568656407
40
0.798764568656407
40
0.85201553990016
40
0.85201553990016
40
0.905266511143913
40
0.905266511143913
40
0.931891996765789
40
0.931891996765789
40
0.958517482387666
40
0.958517482387666
40
1
40
1
40
1
40
1
41
1
10
7.64163462819235
20
-0.361451373113056
30
0
41
1
10
7.63599272027668
20
-0.360921117680192
30
0
41
1
10
7.63085051934664
20
-0.360140026198565
30
0
41
1
10
7.62080189153173
20
-0.358380788046731
30
0
41
1
10
7.61591735172877
20
-0.357392429855821
30
0
41
1
10
7.60102811003216
20
-0.354431787391548
30
0
41
1
10
7.59065631208554
20
-0.352562309957705
30
0
41
1
10
7.57008547134549
20
-0.348495830830018
30
0
41
1
10
7.55996517932115
20
-0.346228187473002
30
0
41
1
10
7.53965228830808
20
-0.341488694432371
30
0
41
1
10
7.52942364079061
20
-0.339047741773413
30
0
41
1
10
7.4784832527391
20
-0.32609773472052
30
0
41
1
10
7.43776275887623
20
-0.313723687714571
30
0
41
1
10
7.35629940055335
20
-0.285367509435503
30
0
41
1
10
7.31561904666549
20
-0.269483164041475
30
0
41
1
10
7.2340634341713
20
-0.234674822932988
30
0
41
1
10
7.19337444655591
20
-0.215813094094159
30
0
41
1
10
7.13245168481367
20
-0.185739344945915
30
0
41
1
10
7.11213569589162
20
-0.175437091913835
30
0
41
1
10
7.0714454147799
20
-0.154342016466842
30
0
41
1
10
7.05104693650785
20
-0.143533787869813
30
0
41
1
10
6.98991464467903
20
-0.110556031538124
30
0
41
1
10
6.94929864347418
20
-0.0878582628566278
30
0
41
1
10
6.88835628426889
20
-0.0531228007979507
30
0
41
1
10
6.86802649302521
20
-0.0414509187554586
30
0
41
1
10
6.82727971129893
20
-0.0180172443252786
30
0
41
1
10
6.80687613916174
20
-0.006249885208149
30
0
41
1
10
6.74581690412217
20
0.0289460927212701
30
0
41
1
10
6.70521017422445
20
0.0523315311713475
30
0
41
1
10
6.62389545354935
20
0.0984223346808335
30
0
41
1
10
6.58307742285891
20
0.12104188578536
30
0
41
1
10
6.50173898721093
20
0.164417220125245
30
0
41
1
10
6.46112655637845
20
0.185243892991366
30
0
41
1
10
6.4000739718031
20
0.214835489721168
30
0
41
1
10
6.37967628118216
20
0.224401078104734
30
0
41
1
10
6.33897055930638
20
0.242776570572602
30
0
41
1
10
6.31863900743039
20
0.251603018444911
30
0
41
1
10
6.25765368096987
20
0.276934336236053
30
0
41
1
10
6.21699552542495
20
0.292309914020962
30
0
41
1
10
6.1354985848412
20
0.319577086583621
30
0
41
1
10
6.09487263186983
20
0.331317268716731
30
0
41
1
10
6.0338880269268
20
0.345937143008968
30
0
41
1
10
6.01355212965851
20
0.350311606431376
30
0
41
1
10
5.97283144996155
20
0.358034293337653
30
0
41
1
10
5.95243506241414
20
0.361386568695423
30
0
41
1
10
5.89140588064342
20
0.369804587571508
30
0
41
1
10
5.85079555802767
20
0.373236110897068
30
0
41
1
10
5.76943224697519
20
0.375715404140436
30
0
41
1
10
5.72860290259629
20
0.37474955064738
30
0
41
1
10
5.64731446658362
20
0.368410318992716
30
0
41
1
10
5.6067046788728
20
0.363065468432211
30
0
41
1
10
5.5456268810328
20
0.351887420907815
30
0
41
1
10
5.52521713603659
20
0.347627200669649
30
0
41
1
10
5.48449341616461
20
0.33810799739689
30
0
41
1
10
5.46417159816889
20
0.332842699881553
30
0
41
1
10
5.4122156411309
20
0.31813861232223
30
0
41
1
10
5.38056795014222
20
0.308037536825481
30
0
41
1
10
5.34884805691703
20
0.296859360632851
30
0
0
SPLINE
5
C5
100
AcDbEntity
8
1
62
256
6
ByLayer
370
18
48
1
60
0
100
AcDbSpline
70
4
71
3
72
20
73
16
40
0
40
0
40
0
40
0
40
0.0239320136967915
40
0.0239320136967915
40
0.186610011413993
40
0.186610011413993
40
0.349288009131194
40
0.349288009131194
40
0.511966006848396
40
0.511966006848396
40
0.674644004565597
40
0.674644004565597
40
0.837322002282799
40
0.837322002282799
40
1
40
1
40
1
40
1
41
1
10
7.74795397742909
20
-0.146996869991995
30
0
41
1
10
7.74718367922409
20
-0.148641817492432
30
0
41
1
10
7.74640832882628
20
-0.150288032977926
30
0
41
1
10
7.74032918880502
20
-0.163135877691531
30
0
41
1
10
7.73482169621596
20
-0.174402423269527
30
0
41
1
10
7.72361782230715
20
-0.1970761351524
30
0
41
1
10
7.71791297347986
20
-0.20849643083821
30
0
41
1
10
7.70640173808752
20
-0.231469498041264
30
0
41
1
10
7.70059813306577
20
-0.243003376370183
30
0
41
1
10
7.68892368720984
20
-0.266212172177148
30
0
41
1
10
7.68305285010828
20
-0.277890494258656
30
0
41
1
10
7.6712599507641
20
-0.301548746961203
30
0
41
1
10
7.66532924054567
20
-0.313589703678815
30
0
41
1
10
7.65346308786675
20
-0.33770272992399
30
0
41
1
10
7.64752990834651
20
-0.349759576412367
30
0
41
1
10
7.64163462819195
20
-0.361451373112686
30
0
0
SPLINE
5
C6
100
AcDbEntity
8
1
62
256
6
ByLayer
370
18
48
1
60
0
100
AcDbSpline
70
4
71
3
72
20
73
16
40
0
40
0
40
0
40
0
40
0.0610649825600105
40
0.0610649825600105
40
0.122129965120021
40
0.122129965120021
40
0.244259930240042
40
0.244259930240042
40
0.366389895360063
40
0.366389895360063
40
0.488519860480084
40
0.488519860480084
40
0.97703972095998
40
0.97703972095998
40
1
40
1
40
1
40
1
41
1
10
7.64163462819241
20
0.361451373113056
30
0
41
1
10
7.63599272027673
20
0.360921117680221
30
0
41
1
10
7.63085051934664
20
0.360140026198593
30
0
41
1
10
7.62080189153178
20
0.358380788046731
30
0
41
1
10
7.61591735172883
20
0.357392429855821
30
0
41
1
10
7.60102811003227
20
0.354431787391548
30
0
41
1
10
7.59065631208554
20
0.352562309957705
30
0
41
1
10
7.57008547134549
20
0.348495830830018
30
0
41
1
10
7.55996517932121
20
0.346228187473031
30
0
41
1
10
7.53965228830808
20
0.3414886944324
30
0
41
1
10
7.52942364079061
20
0.339047741773442
30
0
41
1
10
7.4784832527391
20
0.326097734720491
30
0
41
1
10
7.43776275887623
20
0.3137236877146
30
0
41
1
10
7.39511670366792
20
0.298879232866653
30
0
41
1
10
7.3932024409971
20
0.298209098088876
30
0
41
1
10
7.39128827625606
20
0.297535213597143
30
0
0
SPLINE
5
C7
100
AcDbEntity
8
1
62
256
6
ByLayer
370
18
48
1
60
0
100
AcDbSpline
70
4
71
3
72
48
73
44
40
0
40
0
40
0
40
0
40
0.042833365418409
40
0.042833365418409
40
0.102656280079756
40
0.102656280079756
40
0.132567737410433
40
0.132567737410433
40
0.162479194741111
40
0.162479194741111
40
0.222302109402465
40
0.222302109402465
40
0.28212502406382
40
0.28212502406382
40
0.312036481394494
40
0.312036481394494
40
0.341947938725167
40
0.341947938725167
40
0.401770853386514
40
0.401770853386514
40
0.461593768047861
40
0.461593768047861
40
0.521416682709208
40
0.521416682709208
40
0.551328140039882
40
0.551328140039882
40
0.581239597370555
40
0.581239597370555
40
0.64106251203191
40
0.64106251203191
40
0.670973969362587
40
0.670973969362587
40
0.700885426693265
40
0.700885426693265
40
0.760708341354612
40
0.760708341354612
40
0.820531256015959
40
0.820531256015959
40
0.850442713346636
40
0.850442713346636
40
0.880354170677313
40
0.880354170677313
40
1
40
1
40
1
40
1
41
1
10
5.77542534343598
20
-0.374998315897642
30
0
41
1
10
5.7462563270241
20
-0.374989061137171
30
0
41
1
10
5.71706005238295
20
-0.373849388151342
30
0
41
1
10
5.64731446658359
20
-0.368410318992716
30
0
41
1
10
5.60670467887275
20
-0.363065468432211
30
0
41
1
10
5.54562688103277
20
-0.351887420907815
30
0
41
1
10
5.52521713603653
20
-0.347627200669621
30
0
41
1
10
5.48449341616458
20
-0.33810799739689
30
0
41
1
10
5.46417159816889
20
-0.332842699881553
30
0
41
1
10
5.40323811657808
20
-0.315597877541933
30
0
41
1
10
5.36261102576822
20
-0.302214078054448
30
0
41
1
10
5.28105408092159
20
-0.271960350151716
30
0
41
1
10
5.24038191429841
20
-0.255176320935334
30
0
41
1
10
5.17945100327859
20
-0.227854923546943
30
0
41
1
10
5.15913383780335
20
-0.218402996722688
30
0
41
1
10
5.11843294142571
20
-0.198884559921851
30
0
41
1
10
5.09802700474259
20
-0.18879852143931
30
0
41
1
10
5.03691187200545
20
-0.157803218192356
30
0
41
1
10
4.99629871399154
20
-0.136149974402457
30
0
41
1
10
4.91503827321813
20
-0.0913317484382787
30
0
41
1
10
4.87421864826266
20
-0.0682255461474597
30
0
41
1
10
4.79282431165834
20
-0.0216381666181178
30
0
41
1
10
4.75221762189167
20
0.0018772466108601
30
0
41
1
10
4.69121608239439
20
0.037088468005777
30
0
41
1
10
4.67082776672262
20
0.0488052965758641
30
0
41
1
10
4.63008060421234
20
0.0720136153804276
30
0
41
1
10
4.60973629985634
20
0.0835015986908161
30
0
41
1
10
4.54873851026585
20
0.117531119894181
30
0
41
1
10
4.50812367649562
20
0.139644764405603
30
0
41
1
10
4.4470504385533
20
0.171570852388612
30
0
41
1
10
4.42666318456534
20
0.18197904289886
30
0
41
1
10
4.38596758471166
20
0.202149028626252
30
0
41
1
10
4.36563914893179
20
0.211933737117079
30
0
41
1
10
4.30465673940785
20
0.240312295592133
30
0
41
1
10
4.26396064747499
20
0.257955080596162
30
0
41
1
10
4.18249423463502
20
0.290131810078435
30
0
41
1
10
4.14187046079132
20
0.304501338261474
30
0
41
1
10
4.08087804823242
20
0.323285364894701
30
0
41
1
10
4.06053887012885
20
0.329085460540625
30
0
41
1
10
4.01980641141577
20
0.339723586957945
30
0
41
1
10
3.9994116674948
20
0.344565027490404
30
0
41
1
10
3.89779827980504
20
0.366129048147627
30
0
41
1
10
3.8169591481707
20
0.374984347642311
30
0
41
1
10
3.73545143047301
20
0.374999979424757
30
0
0
SPLINE
5
C8
100
AcDbEntity
8
1
62
256
6
ByLayer
370
18
48
1
60
0
100
AcDbSpline
70
4
71
3
72
22
73
18
40
0
40
0
40
0
40
0
40
0.125
40
0.125
40
0.25
40
0.25
40
0.375
40
0.375
40
0.5
40
0.5
40
0.625
40
0.625
40
0.75
40
0.75
40
0.875
40
0.875
40
1
40
1
40
1
40
1
41
1
10
7.77278358157096
20
0.0849690114901307
30
0
41
1
10
7.76959232203345
20
0.0962289331863531
30
0
41
1
10
7.76535122769465
20
0.1073474001455
30
0
41
1
10
7.75603016004502
20
0.129603372629362
30
0
41
1
10
7.75092821636005
20
0.140735561254559
30
0
41
1
10
7.74032918880508
20
0.163135877691531
30
0
41
1
10
7.73482169621596
20
0.174402423269527
30
0
41
1
10
7.72361782230715
20
0.1970761351524
30
0
41
1
10
7.71791297347986
20
0.20849643083821
30
0
41
1
10
7.70640173808752
20
0.231469498041264
30
0
41
1
10
7.70059813306577
20
0.243003376370155
30
0
41
1
10
7.68892368720989
20
0.266212172177148
30
0
41
1
10
7.68305285010828
20
0.277890494258656
30
0
41
1
10
7.6712599507641
20
0.301548746961203
30
0
41
1
10
7.66532924054562
20
0.313589703678815
30
0
41
1
10
7.6534630878667
20
0.337702729923961
30
0
41
1
10
7.64752990834657
20
0.349759576412367
30
0
41
1
10
7.64163462819195
20
0.361451373112686
30
0
0
SPLINE
5
C9
100
AcDbEntity
8
1
62
256
6
ByLayer
370
18
48
1
60
0
100
AcDbSpline
70
4
71
3
72
58
73
54
40
0
40
0
40
0
40
0
40
0.0129153162124121
40
0.0129153162124121
40
0.111883574364382
40
0.111883574364382
40
0.161367703440367
40
0.161367703440367
40
0.18610976797836
40
0.18610976797836
40
0.210851832516352
40
0.210851832516352
40
0.260335961592331
40
0.260335961592331
40
0.309820090668309
40
0.309820090668309
40
0.359304219744288
40
0.359304219744288
40
0.384046284282274
40
0.384046284282274
40
0.40878834882026
40
0.40878834882026
40
0.458272477896232
40
0.458272477896232
40
0.507756606972204
40
0.507756606972204
40
0.532498671510194
40
0.532498671510194
40
0.557240736048183
40
0.557240736048183
40
0.606724865124168
40
0.606724865124168
40
0.631466929662161
40
0.631466929662161
40
0.656208994200153
40
0.656208994200153
40
0.705693123276131
40
0.705693123276131
40
0.75517725235211
40
0.75517725235211
40
0.804661381428089
40
0.804661381428089
40
0.829403445966075
40
0.829403445966075
40
0.854145510504061
40
0.854145510504061
40
0.903629639580033
40
0.903629639580033
40
0.953113768656006
40
0.953113768656006
40
0.977855833193992
40
0.977855833193992
40
1
40
1
40
1
40
1
41
1
10
4.92448351781997
20
0.374999385245701
30
0
41
1
10
4.93499446124011
20
0.375013109906433
30
0
41
1
10
4.94549844016723
20
0.374879233571022
30
0
41
1
10
5.03645448609694
20
0.372441831250313
30
0
41
1
10
5.11694392932134
20
0.361683271082711
30
0
41
1
10
5.23932074082481
20
0.332830110586741
30
0
41
1
10
5.2799860535506
20
0.321240590925498
30
0
41
1
10
5.34102238353964
20
0.301143790231265
30
0
41
1
10
5.36137604833152
20
0.293994446997601
30
0
41
1
10
5.40212355232094
20
0.278813626545826
30
0
41
1
10
5.42254008638815
20
0.270771037879143
30
0
41
1
10
5.48363632501597
20
0.245509032381904
30
0
41
1
10
5.52427770628816
20
0.227199367734613
30
0
41
1
10
5.60569771099534
20
0.188103039821442
30
0
41
1
10
5.64656071562032
20
0.167253985852739
30
0
41
1
10
5.72793104605592
20
0.123853918609996
30
0
41
1
10
5.76857681188676
20
0.101395458173499
30
0
41
1
10
5.82970281552386
20
0.0669366270851413
30
0
41
1
10
5.85012961476397
20
0.055304849053698
30
0
41
1
10
5.89090055061681
20
0.0319406192676865
30
0
41
1
10
5.91124529288444
20
0.0201958628691443
30
0
41
1
10
5.97223512588332
20
-0.0150908311280205
30
0
41
1
10
6.01289153610574
20
-0.0385882818461027
30
0
41
1
10
6.09449779062433
20
-0.0850070499899118
30
0
41
1
10
6.13522501901056
20
-0.107814358553839
30
0
41
1
10
6.19620770879473
20
-0.140914359031683
30
0
41
1
10
6.21654048765865
20
-0.151750284983677
30
0
41
1
10
6.25727225174504
20
-0.172938684259208
30
0
41
1
10
6.27769228491408
20
-0.183311866923958
30
0
41
1
10
6.33887789358621
20
-0.213533287299754
30
0
41
1
10
6.37953395796396
20
-0.23247870901767
30
0
41
1
10
6.44052862797784
20
-0.258790964310236
30
0
41
1
10
6.46087860208442
20
-0.267188447752943
30
0
41
1
10
6.50166129518712
20
-0.283179385361933
30
0
41
1
10
6.52207704994666
20
-0.290770179829679
30
0
41
1
10
6.58318090374277
20
-0.312172407806827
30
0
41
1
10
6.62382013026374
20
-0.324661990562106
30
0
41
1
10
6.70521331713226
20
-0.3457725962175
30
0
41
1
10
6.74606830016191
20
-0.354338942550839
30
0
41
1
10
6.82748145563156
20
-0.367155367413574
30
0
41
1
10
6.86813454340304
20
-0.371441228268651
30
0
41
1
10
6.92925291361027
20
-0.374571592477167
30
0
41
1
10
6.94966318755505
20
-0.375060156827885
30
0
41
1
10
6.99040021443736
20
-0.374927990232067
30
0
41
1
10
7.01074744427186
20
-0.374309577693936
30
0
41
1
10
7.07178167605778
20
-0.370811808920649
30
0
41
1
10
7.11249226018012
20
-0.36628627981159
30
0
41
1
10
7.19404188829949
20
-0.352895566084698
30
0
41
1
10
7.23470371574254
20
-0.344109866292484
30
0
41
1
10
7.29575016640891
20
-0.327993369388764
30
0
41
1
10
7.31610667093335
20
-0.32212997573717
30
0
41
1
10
7.35473171922459
20
-0.310111355454154
30
0
41
1
10
7.37300207292017
20
-0.304041687061528
30
0
41
1
10
7.39122459216421
20
-0.297629479743847
30
0
0
SPLINE
5
CA
100
AcDbEntity
8
1
62
256
6
ByLayer
370
18
48
1
60
0
100
AcDbSpline
70
4
71
3
72
44
73
40
40
0
40
0
40
0
40
0
40
0.0122309743412325
40
0.0272319805460678
40
0.0572339929557386
40
0.0872360053654097
40
0.11723801777508
40
0.147240030184752
40
0.177242042594422
40
0.199743551901675
40
0.222245061208929
40
0.252247073618599
40
0.28224908602827
40
0.312251098437941
40
0.342253110847612
40
0.372255123257283
40
0.387256129462119
40
0.417258141871789
40
0.44726015428146
40
0.477262166691131
40
0.507264179100802
40
0.537266191510473
40
0.552267197715308
40
0.582269210124979
40
0.61227122253465
40
0.642273234944321
40
0.672275247353992
40
0.702277259763663
40
0.724778769070916
40
0.747280278378169
40
0.77728229078784
40
0.807284303197511
40
0.837286315607182
40
0.867288328016853
40
0.889789837324106
40
0.912291346631359
40
0.94229335904103
40
0.972295371450701
40
1
40
1
40
1
40
1
41
1
10
5.84267604099071
20
0.068136155840989
30
0
41
1
10
5.84700871587924
20
0.0677071315341209
30
0
41
1
10
5.85665531597627
20
0.0667417301383466
30
0
41
1
10
5.87692976650609
20
0.064665816813374
30
0
41
1
10
5.90349939256254
20
0.0618452241530179
30
0
41
1
10
5.93538294383214
20
0.0583021726095581
30
0
41
1
10
5.96726649510131
20
0.0546187765794741
30
0
41
1
10
5.9991500463706
20
0.0508123634652406
30
0
41
0.999999999999999
10
6.02837663503414
20
0.0472146156897395
30
0
41
1
10
6.05494626109183
20
0.0438615921720782
30
0
41
1
10
6.08151588714955
20
0.0404431297403676
30
0
41
1
10
6.11074247581303
20
0.0366026357493183
30
0
41
1
10
6.14262602708235
20
0.0323215591427299
30
0
41
1
10
6.17450957835163
20
0.0279546901294907
30
0
41
1
10
6.20639312962092
20
0.0235172753589268
30
0
41
1
10
6.23296275567861
20
0.019782050449038
30
0
41
1
10
6.25953238173636
20
0.0160197285130437
30
0
41
1
10
6.28610200779409
20
0.012234794243227
30
0
41
1
10
6.31798555906331
20
0.0076644590170929
30
0
41
1
10
6.34986911033261
20
0.0030739234922521
30
0
41
1
10
6.38175266160189
20
-0.0015273516459615
30
0
41
1
10
6.40832228765964
20
-0.0053653956428548
30
0
41
1
10
6.43489191371711
20
-0.0091996524669753
30
0
41
1
10
6.46146153977585
20
-0.0130157096270125
30
0
41
1
10
6.49334509104241
20
-0.0175561486732079
30
0
41
1
10
6.52522864231966
20
-0.0220515739606526
30
0
41
1
10
6.55711219355962
20
-0.0264925042598065
30
0
41
1
10
6.58633878234895
20
-0.0305059193740362
30
0
41
1
10
6.6129084078168
20
-0.034102890475566
30
0
41
1
10
6.63947803657848
20
-0.0376505118677244
30
0
41
1
10
6.66870461654608
20
-0.0414898462445308
30
0
41
1
10
6.70058812116631
20
-0.0455733423921459
30
0
41
1
10
6.73247159578656
20
-0.0495396407980024
30
0
41
1
10
6.7616980879107
20
-0.0530629525724464
30
0
41
1
10
6.78826760738215
20
-0.0561711230114952
30
0
41
0.999999999999999
10
6.81483711179317
20
-0.0591953608627876
30
0
41
1
10
6.84406354884376
20
-0.0624085985205056
30
0
41
1
10
6.87513309924498
20
-0.0656818942238715
30
0
41
1
10
6.89557485029903
20
-0.0677425941723868
30
0
41
1
10
6.90538881603757
20
-0.0687084637542625
30
0
0
SPLINE
5
CB
100
AcDbEntity
8
1
62
256
6
ByLayer
370
18
48
1
60
0
100
AcDbSpline
70
4
71
3
72
38
73
34
40
0
40
0
40
0
40
0
40
0.0755743449232518
40
0.0755743449232518
40
0.113361517384878
40
0.113361517384878
40
0.151148689846504
40
0.151148689846504
40
0.226723034769765
40
0.226723034769765
40
0.302297379693026
40
0.302297379693026
40
0.340084552154657
40
0.340084552154657
40
0.377871724616288
40
0.377871724616288
40
0.453446069539549
40
0.453446069539549
40
0.529020414462811
40
0.529020414462811
40
0.604594759386072
40
0.604594759386072
40
0.642381931847708
40
0.642381931847708
40
0.680169104309343
40
0.680169104309343
40
0.755743449232614
40
0.755743449232614
40
0.906892139079147
40
0.906892139079147
40
0.982466484002418
40
0.982466484002418
40
1
40
1
40
1
40
1
41
1
10
3.73545143047301
20
0.0971391072153551
30
0
41
1
10
3.77623998089112
20
0.074330771571681
30
0
41
1
10
3.816956621077
20
0.0510831673242649
30
0
41
1
10
3.87812530159059
20
0.0159039807588499
30
0
41
1
10
3.89855484409216
20
0.0041226083871777
30
0
41
1
10
3.93930878193299
20
-0.0194001652861857
30
0
41
1
10
3.95964951013227
20
-0.0311446778347886
30
0
41
1
10
4.02063232048783
20
-0.0662068266813947
30
0
41
1
10
4.06129199038043
20
-0.0892550468349214
30
0
41
1
10
4.14292175163453
20
-0.134183837574625
30
0
41
1
10
4.18362587796037
20
-0.15593359266046
30
0
41
1
10
4.24460729373115
20
-0.187056053022985
30
0
41
1
10
4.26494499339336
20
-0.197159257061713
30
0
41
1
10
4.30568282757554
20
-0.216762874055377
30
0
41
1
10
4.32610817403113
20
-0.226276711635563
30
0
41
1
10
4.38727720137692
20
-0.253728126474726
30
0
41
1
10
4.42792415267431
20
-0.270593220213016
30
0
41
1
10
4.50925654336692
20
-0.301063899821969
30
0
41
1
10
4.55010997148463
20
-0.31461864635412
30
0
41
1
10
4.63156958333511
20
-0.337788407675248
30
0
41
1
10
4.67221023650617
20
-0.347434923281838
30
0
41
1
10
4.7332643836026
20
-0.358811270599176
30
0
41
1
10
4.75368330121071
20
-0.362083954898623
30
0
41
1
10
4.7944239078011
20
-0.367528035443371
30
0
41
1
10
4.81472536230425
20
-0.369700946321473
30
0
41
1
10
4.87547631593674
20
-0.37458883839065
30
0
41
1
10
4.91576972760771
20
-0.375675891256009
30
0
41
1
10
5.03645448609694
20
-0.372441831250313
30
0
41
1
10
5.11694392932134
20
-0.361683271082711
30
0
41
1
10
5.23932074082484
20
-0.332830110586741
30
0
41
1
10
5.27998605355063
20
-0.32124059092547
30
0
41
1
10
5.33011737019879
20
-0.304734371115131
30
0
41
1
10
5.33955957028959
20
-0.301529044069923
30
0
41
1
10
5.3490047258928
20
-0.298227676011862
30
0
0
SPLINE
5
CC
100
AcDbEntity
8
1
62
256
6
ByLayer
370
18
48
1
60
0
100
AcDbSpline
70
4
71
3
72
30
73
26
40
0
40
0
40
0
40
0
40
0.0057849152962372
40
0.0057849152962372
40
0.0961681048147718
40
0.0961681048147718
40
0.276934483851817
40
0.276934483851817
40
0.457700862888863
40
0.457700862888863
40
0.548084052407386
40
0.548084052407386
40
0.638467241925908
40
0.638467241925908
40
0.819233620962977
40
0.819233620962977
40
0.864425215722239
40
0.864425215722239
40
0.9096168104815
40
0.9096168104815
40
0.954808405240762
40
0.954808405240762
40
0.977404202620381
40
0.977404202620381
40
1
40
1
40
1
40
1
41
1
10
6.96612018951365
20
0.374999945885463
30
0
41
1
10
6.9674241838969
20
0.375000260620084
30
0
41
1
10
6.96872802798364
20
0.374998303147038
30
0
41
1
10
6.99040021443736
20
0.374927990232067
30
0
41
1
10
7.01074744427186
20
0.374309577693936
30
0
41
1
10
7.07178167605778
20
0.370811808920649
30
0
41
1
10
7.11249226018012
20
0.366286279811561
30
0
41
1
10
7.19404188829949
20
0.352895566084726
30
0
41
1
10
7.23470371574254
20
0.344109866292456
30
0
41
1
10
7.29575016640891
20
0.327993369388764
30
0
41
1
10
7.31610667093335
20
0.32212997573717
30
0
41
1
10
7.35687187684604
20
0.309445421223984
30
0
41
1
10
7.37728932055362
20
0.302612117233366
30
0
41
1
10
7.43832922269033
20
0.280851644570589
30
0
41
1
10
7.47888255682383
20
0.26466460069372
30
0
41
1
10
7.52965536597773
20
0.24267773221527
30
0
41
1
10
7.53984833696271
20
0.238240125664163
30
0
41
1
10
7.56008940184611
20
0.228979648449325
30
0
41
1
10
7.57017209447875
20
0.224198156879567
30
0
41
1
10
7.59068585007984
20
0.214946453926132
30
0
41
1
10
7.6010355441102
20
0.210374038290524
30
0
41
1
10
7.61591625272573
20
0.202409552406607
30
0
41
1
10
7.62080164119661
20
0.19961368487904
30
0
41
1
10
7.63085299622131
20
0.194390612205524
30
0
41
1
10
7.63599791696154
20
0.191930953786141
30
0
41
1
10
7.64163462819189
20
0.190216390263061
30
0
0
SPLINE
5
CD
100
AcDbEntity
8
1
62
256
6
ByLayer
370
18
48
1
60
0
100
AcDbSpline
70
4
71
3
72
22
73
18
40
0
40
0
40
0
40
0
40
0.125
40
0.125
40
0.25
40
0.25
40
0.375
40
0.375
40
0.5
40
0.5
40
0.625
40
0.625
40
0.75
40
0.75
40
0.875
40
0.875
40
1
40
1
40
1
40
1
41
1
10
7.64163462819189
20
0.190216390263061
30
0
41
1
10
7.64750269764212
20
0.181854485229934
30
0
41
1
10
7.65337408728752
20
0.174926272929468
30
0
41
1
10
7.66513199086674
20
0.162163738826138
30
0
41
1
10
7.67101589515002
20
0.156299653528208
30
0
41
1
10
7.68278251993954
20
0.144608149263632
30
0
41
1
10
7.6886668028163
20
0.13891576958892
30
0
41
1
10
7.7003470336841
20
0.128354029936503
30
0
41
1
10
7.70614732055978
20
0.1234994932841
30
0
41
1
10
7.71762698538967
20
0.114718556645755
30
0
41
1
10
7.7233109574639
20
0.110750145135768
30
0
41
1
10
7.73450454854319
20
0.10351314289494
30
0
41
1
10
7.7400174165505
20
0.10025239202804
30
0
41
1
10
7.75068169624748
20
0.0945087078325741
30
0
41
1
10
7.75585524356401
20
0.0920213562528716
30
0
41
1
10
7.76530619408911
20
0.0878714353852956
30
0
41
1
10
7.76958519364607
20
0.0862139906498953
30
0
41
1
10
7.77278358157221
20
0.0849690114903581
30
0
0
SPLINE
5
CE
100
AcDbEntity
8
1
62
256
6
ByLayer
370
18
48
1
60
0
100
AcDbSpline
70
4
71
3
72
45
73
41
40
0
40
0
40
0
40
0
40
0.057005868538847
40
0.0783830692409146
40
0.0997602699429822
40
0.128263204212406
40
0.156766138481829
40
0.185269072751253
40
0.213772007020676
40
0.2422749412901
40
0.256526408424811
40
0.285029342694235
40
0.313532276963658
40
0.342035211233082
40
0.370538145502505
40
0.399041079771929
40
0.420418280473996
40
0.441795481176064
40
0.470298415445488
40
0.498801349714911
40
0.527304283984335
40
0.555807218253758
40
0.577184418955826
40
0.598561619657893
40
0.627064553927317
40
0.65556748819674
40
0.684070422466164
40
0.712573356735587
40
0.741076291005011
40
0.755327758139723
40
0.783830692409146
40
0.81233362667857
40
0.840836560947993
40
0.869339495217417
40
0.89784242948684
40
0.912093896621552
40
0.940596830890975
40
0.969099765160399
40
0.997602699429822
40
1
40
1
40
1
40
1
41
1
10
3.73545143047301
20
0.0743738801339191
30
0
41
1
10
3.75670663710355
20
0.0725009521034678
30
0
41
1
10
3.78593246887454
20
0.0697661937276735
30
0
41
1
10
3.82312899764872
20
0.0660261491339042
30
0
41
1
10
3.8496979803044
20
0.0632569263401024
30
0
41
1
10
3.87892391356854
20
0.0600876682796354
30
0
41
1
10
3.91080692176115
20
0.0564875638906983
30
0
41
0.999999999999999
10
3.94268996694999
20
0.0527442973139785
30
0
41
1
10
3.97457300166812
20
0.0488699523606328
30
0
41
1
10
4.00114220045984
20
0.0455376696041583
30
0
41
1
10
4.0277113980301
20
0.0421454134829275
30
0
41
1
10
4.05428059590085
20
0.038692335623864
30
0
41
1
10
4.08616363327138
20
0.034458236276663
30
0
41
1
10
4.11804667065695
20
0.0301428054818302
30
0
41
1
10
4.14992970803857
20
0.0257539698079086
30
0
41
1
10
4.17915582563961
20
0.0216709171539264
30
0
41
1
10
4.20572502345831
20
0.0179177586115316
30
0
41
1
10
4.23229422127716
20
0.0141301832219085
30
0
41
1
10
4.26152033887783
20
0.0099416136190484
30
0
41
1
10
4.29340337626041
20
0.0053551650857173
30
0
41
1
10
4.32528641364294
20
0.0007595875736115
30
0
41
1
10
4.3545125312437
20
-0.0034534234307273
30
0
41
1
10
4.38108172906246
20
-0.0072777662312831
30
0
41
1
10
4.40765092688133
20
-0.0110921069135657
30
0
41
1
10
4.436877044482
20
-0.0152710300872343
30
0
41
1
10
4.46876008186453
20
-0.0198043544093025
30
0
41
1
10
4.50064311924717
20
-0.0242891762813429
30
0
41
1
10
4.53252615662967
20
-0.0287046485855456
30
0
41
1
10
4.55909535444846
20
-0.0323229050781606
30
0
41
1
10
4.58566455226753
20
-0.0358913721487113
30
0
41
1
10
4.61223375008521
20
-0.0394061446720002
30
0
41
1
10
4.64411678747095
20
-0.043530643580624
30
0
41
1
10
4.67599982484401
20
-0.0475536649551316
30
0
41
1
10
4.70788286226295
20
-0.0514684149417235
30
0
41
1
10
4.73445205993326
20
-0.054630427748549
30
0
41
1
10
4.76102125841968
20
-0.057701956252231
30
0
41
1
10
4.7875904537822
20
-0.0606851914371589
30
0
41
1
10
4.81947349761424
20
-0.0641163861112091
30
0
41
1
10
4.84162269458201
20
-0.0663926052146735
30
0
41
1
10
4.85314421701574
20
-0.0675451748072646
30
0
41
1
10
4.85403807918445
20
-0.0676344033175269
30
0
0
SPLINE
5
CF
100
AcDbEntity
8
1
62
256
6
ByLayer
370
18
48
1
60
0
100
AcDbSpline
70
4
71
3
72
36
73
32
40
0
40
0
40
0
40
0
40
0.124999999999999
40
0.124999999999999
40
0.249999999999998
40
0.249999999999998
40
0.312499999999998
40
0.312499999999998
40
0.374999999999998
40
0.374999999999998
40
0.499999999999997
40
0.499999999999997
40
0.562499999999997
40
0.562499999999997
40
0.624999999999996
40
0.624999999999996
40
0.687499999999996
40
0.687499999999996
40
0.749999999999996
40
0.749999999999996
40
0.812499999999996
40
0.812499999999996
40
0.843749999999995
40
0.843749999999995
40
0.874999999999995
40
0.874999999999995
40
0.937499999999996
40
0.937499999999996
40
0.968749999999998
40
0.968749999999998
40
1
40
1
40
1
40
1
41
1
10
3.73545143047301
20
0.0971391072153551
30
0
41
1
10
3.70687646843615
20
0.105179810402092
30
0
41
1
10
3.67887698060557
20
0.114673337851798
30
0
41
1
10
3.62402789765042
20
0.136334750599531
30
0
41
1
10
3.59729215546847
20
0.148463637601765
30
0
41
1
10
3.55850372996679
20
0.16825714742248
30
0
41
1
10
3.54574709739668
20
0.175147628438225
30
0
41
1
10
3.52092243779938
20
0.189282185829427
30
0
41
1
10
3.5088351149177
20
0.196533952470162
30
0
41
1
10
3.47357458267811
20
0.218735699212772
30
0
41
1
10
3.45139005625694
20
0.234135026957404
30
0
41
1
10
3.42037011699441
20
0.257681857120645
30
0
41
1
10
3.41036527516073
20
0.265641553092024
30
0
41
1
10
3.39140909175293
20
0.281454196583695
30
0
41
1
10
3.3825554616094
20
0.289221808960463
30
0
41
1
10
3.36618278187674
20
0.304334033112184
30
0
41
1
10
3.35866213025528
20
0.311679591951361
30
0
41
1
10
3.3451230240203
20
0.325767819656221
30
0
41
1
10
3.33924197291128
20
0.332371277770676
30
0
41
1
10
3.32948219825042
20
0.344371771365985
30
0
41
1
10
3.32557311743355
20
0.349799582184943
30
0
41
1
10
3.32130254367695
20
0.356937030972062
30
0
41
1
10
3.32014124944271
20
0.359160657926452
30
0
41
1
10
3.31842241145571
20
0.363164673911854
30
0
41
1
10
3.31786048757542
20
0.364947327932867
30
0
41
1
10
3.31704799647315
20
0.369646254106215
30
0
41
1
10
3.31766532587952
20
0.371915738918233
30
0
41
1
10
3.32035216566945
20
0.37401986447307
30
0
41
1
10
3.32154914813324
20
0.374503420316898
30
0
41
1
10
3.32449884158981
20
0.3750254450824
30
0
41
1
10
3.3262526498124
20
0.375067558627819
30
0
41
1
10
3.32827925520539
20
0.374900863991968
30
0
0
LINE
5
7F
100
AcDbEntity
8
1
62
256
6
ByLayer
370
18
48
1
60
0
100
AcDbLine
10
0
20
1.5
30
0
11
0
21
0
31
0
39
0
210
0
220
0
230
1
0
LINE
5
80
100
AcDbEntity
8
1
62
256
6
ByLayer
370
18
48
1
60
0
100
AcDbLine
10
0
20
0
30
0
11
0
21
-1.5
31
0
39
0
210
0
220
0
230
1
0
LINE
5
81
100
AcDbEntity
8
1
62
256
6
ByLayer
370
18
48
1
60
0
100
AcDbLine
10
7.641635
20
0.190216
30
0
11
7.641635
21
-0.361451
31
0
39
0
210
0
220
0
230
1
0
LINE
5
82
100
AcDbEntity
8
1
62
256
6
ByLayer
370
18
48
1
60
0
100
AcDbLine
10
3.735451
20
0.375
30
0
11
3.735451
21
0.074374
31
0
39
0
210
0
220
0
230
1
0
LINE
5
83
100
AcDbEntity
8
1
62
256
6
ByLayer
370
13
48
1
60
0
100
AcDbLine
10
2.216544
20
0.375
30
0
11
2.216544
21
-0.375
31
0
39
0
210
0
220
0
230
1
0
LINE
5
84
100
AcDbEntity
8
1
62
256
6
ByLayer
370
18
48
1
60
0
100
AcDbLine
10
3.8E-05
20
1.5
30
0
11
3.8E-05
21
-1.5
31
0
39
0
210
0
220
0
230
1
0
LINE
5
85
100
AcDbEntity
8
1
62
256
6
ByLayer
370
13
48
1
60
0
100
AcDbLine
10
1.716544
20
0.508975
30
0
11
1.716544
21
-0.508975
31
0
39
0
210
0
220
0
230
1
0
LINE
5
86
100
AcDbEntity
8
SK1
62
256
6
ByLayer
370
18
48
1
60
0
100
AcDbLine
10
-30.1835
20
1.326795
30
0
11
-30.1835
21
-1.326795
31
0
39
0
210
0
220
0
230
1
0
LINE
5
88
100
AcDbEntity
8
SK1
62
256
6
ByLayer
370
18
48
1
60
0
100
AcDbLine
10
0
20
1.5
30
0
11
0
21
0
31
0
39
0
210
0
220
0
230
1
0
LINE
5
89
100
AcDbEntity
8
SK1
62
256
6
ByLayer
370
18
48
1
60
0
100
AcDbLine
10
0
20
0
30
0
11
0
21
-1.5
31
0
39
0
210
0
220
0
230
1
0
LINE
5
8A
100
AcDbEntity
8
SK1
62
256
6
ByLayer
370
18
48
1
60
0
100
AcDbLine
10
-29.8835
20
1.5
30
0
11
-29.8835
21
-1.5
31
0
39
0
210
0
220
0
230
1
0
LINE
5
8B
100
AcDbEntity
8
1
62
256
6
ByLayer
370
18
48
1
60
0
100
AcDbLine
10
7.8165
20
0
30
0
11
7.74777
21
0.147392
31
0
39
0
210
0
220
0
230
1
0
LINE
5
8C
100
AcDbEntity
8
1
62
256
6
ByLayer
370
18
48
1
60
0
100
AcDbLine
10
7.74777
20
-0.147392
30
0
11
7.8165
21
0
31
0
39
0
210
0
220
0
230
1
0
LINE
5
8D
100
AcDbEntity
8
1
62
256
6
ByLayer
370
18
48
1
60
0
100
AcDbLine
10
0
20
-1.5
30
0
11
3.8E-05
21
-1.5
31
0
39
0
210
0
220
0
230
1
0
LINE
5
8E
100
AcDbEntity
8
1
62
256
6
ByLayer
370
18
48
1
60
0
100
AcDbLine
10
3.8E-05
20
1.5
30
0
11
0
21
1.5
31
0
39
0
210
0
220
0
230
1
0
LINE
5
8F
100
AcDbEntity
8
1
62
256
6
ByLayer
370
18
48
1
60
0
100
AcDbLine
10
2.216544
20
-0.375
30
0
11
3.298374
21
-0.375
31
0
39
0
210
0
220
0
230
1
0
LINE
5
90
100
AcDbEntity
8
1
62
256
6
ByLayer
370
18
48
1
60
0
100
AcDbLine
10
3.766485
20
-0.375
30
0
11
4.924927
21
-0.375
31
0
39
0
210
0
220
0
230
1
0
LINE
5
91
100
AcDbEntity
8
1
62
256
6
ByLayer
370
18
48
1
60
0
100
AcDbLine
10
5.775529
20
-0.375
30
0
11
6.966222
21
-0.375
31
0
39
0
210
0
220
0
230
1
0
LINE
5
92
100
AcDbEntity
8
1
62
256
6
ByLayer
370
18
48
1
60
0
100
AcDbLine
10
6.966222
20
0.375
30
0
11
5.775529
21
0.375
31
0
39
0
210
0
220
0
230
1
0
LINE
5
93
100
AcDbEntity
8
1
62
256
6
ByLayer
370
18
48
1
60
0
100
AcDbLine
10
4.924927
20
0.375
30
0
11
3.766485
21
0.375
31
0
39
0
210
0
220
0
230
1
0
LINE
5
94
100
AcDbEntity
8
1
62
256
6
ByLayer
370
18
48
1
60
0
100
AcDbLine
10
3.298374
20
0.375
30
0
11
2.216544
21
0.375
31
0
39
0
210
0
220
0
230
1
0
LINE
5
95
100
AcDbEntity
8
1
62
256
6
ByLayer
370
18
48
1
60
0
100
AcDbLine
10
1.716544
20
0.508975
30
0
11
3.8E-05
21
1.5
31
0
39
0
210
0
220
0
230
1
0
LINE
5
96
100
AcDbEntity
8
1
62
256
6
ByLayer
370
18
48
1
60
0
100
AcDbLine
10
3.8E-05
20
-1.5
30
0
11
1.716544
21
-0.508975
31
0
39
0
210
0
220
0
230
1
0
LINE
5
97
100
AcDbEntity
8
SK1
62
256
6
ByLayer
370
18
48
1
60
0
100
AcDbLine
10
-30.1835
20
-1.326795
30
0
11
-29.8835
21
-1.5
31
0
39
0
210
0
220
0
230
1
0
LINE
5
98
100
AcDbEntity
8
SK1
62
256
6
ByLayer
370
18
48
1
60
0
100
AcDbLine
10
-29.8835
20
1.5
30
0
11
-30.1835
21
1.326795
31
0
39
0
210
0
220
0
230
1
0
LINE
5
99
100
AcDbEntity
8
SK1
62
256
6
ByLayer
370
18
48
1
60
0
100
AcDbLine
10
-29.8835
20
-1.5
30
0
11
0
21
-1.5
31
0
39
0
210
0
220
0
230
1
0
LINE
5
9A
100
AcDbEntity
8
SK1
62
256
6
ByLayer
370
18
48
1
60
0
100
AcDbLine
10
0
20
1.5
30
0
11
-29.8835
21
1.5
31
0
39
0
210
0
220
0
230
1
0
LINE
5
9B
100
AcDbEntity
8
4
62
256
6
ByLayer
370
18
48
0.05
60
0
100
AcDbLine
10
0
20
0
30
0
11
7.8165
21
0
31
0
39
0
210
0
220
0
230
1
0
LINE
5
9D
100
AcDbEntity
8
81
62
256
6
ByLayer
370
18
48
1
60
0
100
AcDbLine
10
7.8165
20
0
30
0
11
10.8165
21
0
31
0
39
0
210
0
220
0
230
1
0
LINE
5
9E
100
AcDbEntity
8
80
62
256
6
ByLayer
370
18
48
1
60
0
100
AcDbLine
10
0
20
0
30
0
11
-3
21
0
31
0
39
0
210
0
220
0
230
1
0
LINE
5
9F
100
AcDbEntity
8
SK4
62
256
6
ByLayer
370
18
48
0.05
60
0
100
AcDbLine
10
-33.1835
20
0
30
0
11
10.8165
21
0
31
0
39
0
210
0
220
0
230
1
0
LINE
5
A1
100
AcDbEntity
8
SK2
62
256
6
ByLayer
370
13
48
1
60
0
100
AcDbLine
10
-34.6835
20
-9
30
0
11
-34.6835
21
21.782741
31
0
39
0
210
0
220
0
230
1
0
LINE
5
A3
100
AcDbEntity
8
SK2
62
256
6
ByLayer
370
13
48
1
60
0
100
AcDbLine
10
-31.771
20
-1.5
30
0
11
-36.6835
21
-1.5
31
0
39
0
210
0
220
0
230
1
0
LINE
5
A4
100
AcDbEntity
8
SK2
62
256
6
ByLayer
370
13
48
1
60
0
100
AcDbLine
10
-31.771
20
1.5
30
0
11
-36.6835
21
1.5
31
0
39
0
210
0
220
0
230
1
0
LINE
5
A5
100
AcDbEntity
8
1
62
256
6
ByLayer
370
18
48
1
60
1
100
AcDbLine
10
-34.6835
20
-1.5
30
0
11
-34.222716
21
-4.999998
31
0
39
0
210
0
220
0
230
1
0
LINE
5
A6
100
AcDbEntity
8
1
62
256
6
ByLayer
370
18
48
1
60
1
100
AcDbLine
10
-34.222716
20
-4.999998
30
0
11
-35.144284
21
-5.000002
31
0
39
0
210
0
220
0
230
1
0
LINE
5
A7
100
AcDbEntity
8
1
62
256
6
ByLayer
370
18
48
1
60
1
100
AcDbLine
10
-35.144284
20
-5.000002
30
0
11
-34.6835
21
-1.5
31
0
39
0
210
0
220
0
230
1
0
LINE
5
A8
100
AcDbEntity
8
1
62
256
6
ByLayer
370
18
48
1
60
1
100
AcDbLine
10
-34.6835
20
1.5
30
0
11
-35.144284
21
4.999998
31
0
39
0
210
0
220
0
230
1
0
LINE
5
A9
100
AcDbEntity
8
1
62
256
6
ByLayer
370
18
48
1
60
1
100
AcDbLine
10
-35.144284
20
4.999998
30
0
11
-34.222716
21
5.000002
31
0
39
0
210
0
220
0
230
1
0
LINE
5
AA
100
AcDbEntity
8
1
62
256
6
ByLayer
370
18
48
1
60
1
100
AcDbLine
10
-34.222716
20
5.000002
30
0
11
-34.6835
21
1.5
31
0
39
0
210
0
220
0
230
1
0
LINE
5
AB
100
AcDbEntity
8
2
62
256
6
ByLayer
370
13
48
1
60
0
100
AcDbLine
10
13.3165
20
-7.875
30
0
11
13.3165
21
30.407741
31
0
39
0
210
0
220
0
230
1
0
LINE
5
AD
100
AcDbEntity
8
2
62
256
6
ByLayer
370
13
48
1
60
0
100
AcDbLine
10
9.404
20
-0.375
30
0
11
15.3165
21
-0.375
31
0
39
0
210
0
220
0
230
1
0
LINE
5
AE
100
AcDbEntity
8
2
62
256
6
ByLayer
370
13
48
1
60
0
100
AcDbLine
10
9.404
20
0.375
30
0
11
15.3165
21
0.375
31
0
39
0
210
0
220
0
230
1
0
LINE
5
AF
100
AcDbEntity
8
1
62
256
6
ByLayer
370
18
48
1
60
1
100
AcDbLine
10
13.3165
20
-0.375
30
0
11
13.777284
21
-3.874998
31
0
39
0
210
0
220
0
230
1
0
LINE
5
B0
100
AcDbEntity
8
1
62
256
6
ByLayer
370
18
48
1
60
1
100
AcDbLine
10
13.777284
20
-3.874998
30
0
11
12.855716
21
-3.875002
31
0
39
0
210
0
220
0
230
1
0
LINE
5
B1
100
AcDbEntity
8
1
62
256
6
ByLayer
370
18
48
1
60
1
100
AcDbLine
10
12.855716
20
-3.875002
30
0
11
13.3165
21
-0.375
31
0
39
0
210
0
220
0
230
1
0
LINE
5
B2
100
AcDbEntity
8
1
62
256
6
ByLayer
370
18
48
1
60
1
100
AcDbLine
10
13.3165
20
0.375
30
0
11
12.855716
21
3.874998
31
0
39
0
210
0
220
0
230
1
0
LINE
5
B3
100
AcDbEntity
8
1
62
256
6
ByLayer
370
18
48
1
60
1
100
AcDbLine
10
12.855716
20
3.874998
30
0
11
13.777284
21
3.875002
31
0
39
0
210
0
220
0
230
1
0
LINE
5
B4
100
AcDbEntity
8
1
62
256
6
ByLayer
370
18
48
1
60
1
100
AcDbLine
10
13.777284
20
3.875002
30
0
11
13.3165
21
0.375
31
0
39
0
210
0
220
0
230
1
0
LINE
5
B5
100
AcDbEntity
8
SK2
62
256
6
ByLayer
370
13
48
1
60
0
100
AcDbLine
10
8.487406
20
-1.438764
30
0
11
15.571545
21
-16.630748
31
0
39
0
210
0
220
0
230
1
0
LINE
5
B6
100
AcDbEntity
8
SK2
62
256
6
ByLayer
370
13
48
1
60
0
100
AcDbLine
10
8.487406
20
1.438764
30
0
11
15.571545
21
16.630748
31
0
39
0
210
0
220
0
230
1
0
LINE
5
B7
100
AcDbEntity
8
1
62
256
6
ByLayer
370
18
48
1
60
1
100
AcDbLine
10
14.726309
20
-14.818132
30
0
11
17.598342
21
-12.765394
31
0
39
0
210
0
220
0
230
1
0
LINE
5
B8
100
AcDbEntity
8
1
62
256
6
ByLayer
370
18
48
1
60
1
100
AcDbLine
10
17.598342
20
-12.765394
30
0
11
18.031771
21
-13.578675
31
0
39
0
210
0
220
0
230
1
0
LINE
5
B9
100
AcDbEntity
8
1
62
256
6
ByLayer
370
18
48
1
60
1
100
AcDbLine
10
18.031771
20
-13.578675
30
0
11
14.726309
21
-14.818132
31
0
39
0
210
0
220
0
230
1
0
LINE
5
BA
100
AcDbEntity
8
1
62
256
6
ByLayer
370
18
48
1
60
1
100
AcDbLine
10
14.726309
20
14.818132
30
0
11
18.031768
21
13.578677
31
0
39
0
210
0
220
0
230
1
0
LINE
5
BB
100
AcDbEntity
8
1
62
256
6
ByLayer
370
18
48
1
60
1
100
AcDbLine
10
18.031768
20
13.578677
30
0
11
17.598345
21
12.765392
31
0
39
0
210
0
220
0
230
1
0
LINE
5
BC
100
AcDbEntity
8
1
62
256
6
ByLayer
370
18
48
1
60
1
100
AcDbLine
10
17.598345
20
12.765392
30
0
11
14.726309
21
14.818132
31
0
39
0
210
0
220
0
230
1
0
LINE
5
D4
100
AcDbEntity
8
1
62
256
6
ByLayer
370
18
48
1
60
1
100
AcDbLine
10
-34.6835
20
-1.5
30
0
11
-34.222716
21
-4.999998
31
0
39
0
210
0
220
0
230
1
0
LINE
5
D5
100
AcDbEntity
8
1
62
256
6
ByLayer
370
18
48
1
60
1
100
AcDbLine
10
-34.222716
20
-4.999998
30
0
11
-35.144284
21
-5.000002
31
0
39
0
210
0
220
0
230
1
0
LINE
5
D6
100
AcDbEntity
8
1
62
256
6
ByLayer
370
18
48
1
60
1
100
AcDbLine
10
-35.144284
20
-5.000002
30
0
11
-34.6835
21
-1.5
31
0
39
0
210
0
220
0
230
1
0
LINE
5
D8
100
AcDbEntity
8
1
62
256
6
ByLayer
370
18
48
1
60
1
100
AcDbLine
10
-34.6835
20
1.5
30
0
11
-35.144284
21
4.999998
31
0
39
0
210
0
220
0
230
1
0
LINE
5
D9
100
AcDbEntity
8
1
62
256
6
ByLayer
370
18
48
1
60
1
100
AcDbLine
10
-35.144284
20
4.999998
30
0
11
-34.222716
21
5.000002
31
0
39
0
210
0
220
0
230
1
0
LINE
5
DA
100
AcDbEntity
8
1
62
256
6
ByLayer
370
18
48
1
60
1
100
AcDbLine
10
-34.222716
20
5.000002
30
0
11
-34.6835
21
1.5
31
0
39
0
210
0
220
0
230
1
0
LINE
5
DE
100
AcDbEntity
8
1
62
256
6
ByLayer
370
18
48
1
60
1
100
AcDbLine
10
13.3165
20
-0.375
30
0
11
13.777284
21
-3.874998
31
0
39
0
210
0
220
0
230
1
0
LINE
5
DF
100
AcDbEntity
8
1
62
256
6
ByLayer
370
18
48
1
60
1
100
AcDbLine
10
13.777284
20
-3.874998
30
0
11
12.855716
21
-3.875002
31
0
39
0
210
0
220
0
230
1
0
LINE
5
E0
100
AcDbEntity
8
1
62
256
6
ByLayer
370
18
48
1
60
1
100
AcDbLine
10
12.855716
20
-3.875002
30
0
11
13.3165
21
-0.375
31
0
39
0
210
0
220
0
230
1
0
LINE
5
E2
100
AcDbEntity
8
1
62
256
6
ByLayer
370
18
48
1
60
1
100
AcDbLine
10
13.3165
20
0.375
30
0
11
12.855716
21
3.874998
31
0
39
0
210
0
220
0
230
1
0
LINE
5
E3
100
AcDbEntity
8
1
62
256
6
ByLayer
370
18
48
1
60
1
100
AcDbLine
10
12.855716
20
3.874998
30
0
11
13.777284
21
3.875002
31
0
39
0
210
0
220
0
230
1
0
LINE
5
E4
100
AcDbEntity
8
1
62
256
6
ByLayer
370
18
48
1
60
1
100
AcDbLine
10
13.777284
20
3.875002
30
0
11
13.3165
21
0.375
31
0
39
0
210
0
220
0
230
1
0
LINE
5
E7
100
AcDbEntity
8
1
62
256
6
ByLayer
370
18
48
1
60
1
100
AcDbLine
10
14.726309
20
-14.818132
30
0
11
17.598342
21
-12.765394
31
0
39
0
210
0
220
0
230
1
0
LINE
5
E8
100
AcDbEntity
8
1
62
256
6
ByLayer
370
18
48
1
60
1
100
AcDbLine
10
17.598342
20
-12.765394
30
0
11
18.031771
21
-13.578675
31
0
39
0
210
0
220
0
230
1
0
LINE
5
E9
100
AcDbEntity
8
1
62
256
6
ByLayer
370
18
48
1
60
1
100
AcDbLine
10
18.031771
20
-13.578675
30
0
11
14.726309
21
-14.818132
31
0
39
0
210
0
220
0
230
1
0
LINE
5
EB
100
AcDbEntity
8
1
62
256
6
ByLayer
370
18
48
1
60
1
100
AcDbLine
10
14.726309
20
14.818132
30
0
11
18.031768
21
13.578677
31
0
39
0
210
0
220
0
230
1
0
LINE
5
EC
100
AcDbEntity
8
1
62
256
6
ByLayer
370
18
48
1
60
1
100
AcDbLine
10
18.031768
20
13.578677
30
0
11
17.598345
21
12.765392
31
0
39
0
210
0
220
0
230
1
0
LINE
5
ED
100
AcDbEntity
8
1
62
256
6
ByLayer
370
18
48
1
60
1
100
AcDbLine
10
17.598345
20
12.765392
30
0
11
14.726309
21
14.818132
31
0
39
0
210
0
220
0
230
1
0
MTEXT
5
D0
100
AcDbEntity
8
SK2
62
256
6
ByLayer
370
18
48
1
60
0
100
AcDbMText
10
-36.024614
20
6.658437
30
0
210
0
220
0
230
1
1
%%c
40
3
41
0
44
1.084337
50
90
71
7
72
5
7
iso_b_vert
0
MTEXT
5
D3
100
AcDbEntity
8
SK2
62
256
6
ByLayer
370
18
48
1
60
0
100
AcDbMText
10
-36.024614
20
12.635
30
0
210
0
220
0
230
1
1
\W0.7468;3.000
40
3
41
0
44
1.084337
50
90
71
7
72
5
7
iso_b_vert
0
MTEXT
5
DC
100
AcDbEntity
8
2
62
256
6
ByLayer
370
18
48
1
60
0
100
AcDbMText
10
11.975386
20
15.283437
30
0
210
0
220
0
230
1
1
%%c
40
3
41
0
44
1.084337
50
90
71
7
72
5
7
iso_b_vert
0
MTEXT
5
DD
100
AcDbEntity
8
2
62
256
6
ByLayer
370
18
48
1
60
0
100
AcDbMText
10
11.975386
20
21.26
30
0
210
0
220
0
230
1
1
\W0.7468;0.750
40
3
41
0
44
1.084337
50
90
71
7
72
5
7
iso_b_vert
0
MTEXT
5
E6
100
AcDbEntity
8
SK2
62
256
6
ByLayer
370
18
48
1
60
0
100
AcDbMText
10
20.883786
20
-2.114886
30
0
210
0
220
0
230
1
1
\W0.6747;130%%d
40
3
41
0
44
1.084337
50
0
71
7
72
5
7
iso_b_vert
0
MTEXT
5
EF
100
AcDbEntity
8
SK6
62
256
6
ByLayer
370
18
48
1
60
0
100
AcDbMText
10
-39.365039
20
-42.114886
30
0
210
0
220
0
230
1
1
\W0.7776;462.1-0075-003A0-XM X0BM
40
3
41
0
44
1.084337
50
0
71
7
72
5
7
iso_b_vert
0
HATCH
5
D7
100
AcDbEntity
8
SK2
62
256
6
ByLayer
370
13
48
1
60
0
100
AcDbHatch
10
0
20
0
30
0
210
0
220
0
230
1
2
ANSI31
70
0
71
0
91
1
92
5
93
3
72
1
10
-34.6835
20
-1.5
11
-34.2227162584472
21
-4.99999830744682
72
1
10
-34.2227162584472
20
-4.99999830744682
11
-35.1442837415528
21
-5.00000169255318
72
1
10
-35.1442837415528
20
-5.00000169255318
11
-34.6835
21
-1.5
97
0
75
0
76
1
52
0
41
0.0062
77
0
78
1
53
45
43
0
44
0
45
-0.0139193969876572
46
0.0139193969876572
79
0
47
0
98
1
10
0
20
0
0
HATCH
5
DB
100
AcDbEntity
8
SK2
62
256
6
ByLayer
370
13
48
1
60
0
100
AcDbHatch
10
0
20
0
30
0
210
0
220
0
230
1
2
ANSI31
70
0
71
0
91
1
92
5
93
3
72
1
10
-34.6835
20
1.5
11
-35.1442837415528
21
4.99999830744682
72
1
10
-35.1442837415528
20
4.99999830744682
11
-34.2227162584472
21
5.00000169255318
72
1
10
-34.2227162584472
20
5.00000169255318
11
-34.6835
21
1.5
97
0
75
0
76
1
52
0
41
0.0062
77
0
78
1
53
45
43
0
44
0
45
-0.0139193969876572
46
0.0139193969876572
79
0
47
0
98
1
10
0
20
0
0
HATCH
5
E1
100
AcDbEntity
8
2
62
256
6
ByLayer
370
13
48
1
60
0
100
AcDbHatch
10
0
20
0
30
0
210
0
220
0
230
1
2
ANSI31
70
0
71
0
91
1
92
5
93
3
72
1
10
13.3165
20
-0.375
11
13.7772837415528
21
-3.87499830744682
72
1
10
13.7772837415528
20
-3.87499830744682
11
12.8557162584472
21
-3.87500169255318
72
1
10
12.8557162584472
20
-3.87500169255318
11
13.3165
21
-0.375
97
0
75
0
76
1
52
0
41
0.0062
77
0
78
1
53
45
43
0
44
0
45
-0.0139193969876572
46
0.0139193969876572
79
0
47
0
98
1
10
0
20
0
0
HATCH
5
E5
100
AcDbEntity
8
2
62
256
6
ByLayer
370
13
48
1
60
0
100
AcDbHatch
10
0
20
0
30
0
210
0
220
0
230
1
2
ANSI31
70
0
71
0
91
1
92
5
93
3
72
1
10
13.3165
20
0.375
11
12.8557162584472
21
3.87499830744682
72
1
10
12.8557162584472
20
3.87499830744682
11
13.7772837415528
21
3.87500169255318
72
1
10
13.7772837415528
20
3.87500169255318
11
13.3165
21
0.375
97
0
75
0
76
1
52
0
41
0.0062
77
0
78
1
53
45
43
0
44
0
45
-0.0139193969876572
46
0.0139193969876572
79
0
47
0
98
1
10
0
20
0
0
HATCH
5
EA
100
AcDbEntity
8
SK2
62
256
6
ByLayer
370
13
48
1
60
0
100
AcDbHatch
10
0
20
0
30
0
210
0
220
0
230
1
2
ANSI31
70
0
71
0
91
1
92
5
93
3
72
1
10
14.7263085794604
20
-14.8181323180492
11
17.5983418553693
21
-12.765393983365
72
1
10
17.5983418553693
20
-12.765393983365
11
18.0317706127348
21
-13.5786750775861
72
1
10
18.0317706127348
20
-13.5786750775861
11
14.7263085794604
21
-14.8181323180492
97
0
75
0
76
1
52
0
41
0.0062
77
0
78
1
53
45
43
0
44
0
45
-0.0139193969876572
46
0.0139193969876572
79
0
47
0
98
1
10
0
20
0
0
HATCH
5
EE
100
AcDbEntity
8
SK2
62
256
6
ByLayer
370
13
48
1
60
0
100
AcDbHatch
10
0
20
0
30
0
210
0
220
0
230
1
2
ANSI31
70
0
71
0
91
1
92
5
93
3
72
1
10
14.7263085794604
20
14.8181323180492
11
18.0317676253807
21
13.5786766696479
72
1
10
18.0317676253807
20
13.5786766696479
11
17.5983448427234
21
12.7653923913032
72
1
10
17.5983448427234
20
12.7653923913032
11
14.7263085794604
21
14.8181323180492
97
0
75
0
76
1
52
0
41
0.0062
77
0
78
1
53
45
43
0
44
0
45
-0.0139193969876572
46
0.0139193969876572
79
0
47
0
98
1
10
0
20
0
0
DIMENSION
5
F2
100
AcDbEntity
8
SK2
62
256
6
ByLayer
370
18
48
1
60
0
100
AcDbDimension
2
_U0
10
7.8165
20
-35.85
30
0
11
-11.1835
21
-35.85
31
0
70
32
71
1
72
1
41
1
210
0
220
0
230
1
3
Standard
100
AcDbAlignedDimension
13
-30.1835
23
1.5
33
0
14
7.8165
24
0.375
34
0
50
0
100
AcDbRotatedDimension
1001
ACAD
1000
DSTYLE
1002
{
1070
   371
1070
    13
1070
   372
1070
    13
1070
     3
1000

1070
   170
1070
     0
1070
   144
1040
1.0
1070
   277
1070
     2
1070
   284
1070
     8
1070
   278
1070
    46
1070
   146
1040
1.166667
1070
   345
1005
16
1070
   347
1005
16
1070
   346
1005
16
1070
   344
1005
0
1070
   343
1005
0
1070
   172
1070
     1
1070
    76
1070
     0
1070
    75
1070
     0
1070
   282
1070
     0
1070
   281
1070
     0
1070
    71
1070
     0
1070
    74
1070
     0
1070
   279
1070
     0
1070
   173
1070
     1
1070
   340
1005
D1
1070
   271
1070
     2
1070
   272
1070
     2
1070
    77
1070
     1
1070
    73
1070
     1
1070
   171
1070
     3
1070
   274
1070
     4
1070
   177
1070
     2
1070
   176
1070
     2
1070
   178
1070
     2
1070
    78
1070
     8
1070
    48
1040
-0.1
1070
    41
1040
3.5
1070
   147
1040
1.5
1070
    42
1040
1.5875
1070
    44
1040
2.0
1070
   140
1040
3.0
1002
}
1001
ACAD_DSTYLE_DIM_LINETYPE
1070
   380
1005
16
1001
ACAD_DSTYLE_DIM_EXT1_LINETYPE
1070
   381
1005
16
1001
ACAD_DSTYLE_DIM_EXT2_LINETYPE
1070
   382
1005
16
0
DIMENSION
5
10B
100
AcDbEntity
8
SK2
62
256
6
ByLayer
370
18
48
1
60
0
100
AcDbDimension
2
_U1
10
4.4415
20
-21.875
30
0
11
23.887929
21
-21.875
31
0
70
32
71
1
72
1
41
1
210
0
220
0
230
1
3
Standard
100
AcDbAlignedDimension
13
7.8165
23
0.375
33
0
14
4.4415
24
0
34
0
50
0
100
AcDbRotatedDimension
1001
ACAD
1000
DSTYLE
1002
{
1070
   371
1070
    13
1070
   372
1070
    13
1070
     3
1000

1070
   170
1070
     0
1070
   144
1040
1.0
1070
   277
1070
     2
1070
   284
1070
     8
1070
   278
1070
    46
1070
   146
1040
1.166667
1070
   345
1005
16
1070
   347
1005
16
1070
   346
1005
16
1070
   344
1005
0
1070
   343
1005
0
1070
   172
1070
     1
1070
    76
1070
     0
1070
    75
1070
     0
1070
   282
1070
     0
1070
   281
1070
     0
1070
    71
1070
     0
1070
    74
1070
     0
1070
   279
1070
     0
1070
   173
1070
     1
1070
   340
1005
D1
1070
   271
1070
     2
1070
   272
1070
     2
1070
    77
1070
     1
1070
    73
1070
     1
1070
   171
1070
     3
1070
   274
1070
     4
1070
   177
1070
     2
1070
   176
1070
     2
1070
   178
1070
     2
1070
    78
1070
     8
1070
    48
1040
-0.1
1070
    41
1040
3.5
1070
   147
1040
1.5
1070
    42
1040
1.5875
1070
    44
1040
2.0
1070
   140
1040
3.0
1002
}
1001
ACAD_DSTYLE_DIM_LINETYPE
1070
   380
1005
16
1001
ACAD_DSTYLE_DIM_EXT1_LINETYPE
1070
   381
1005
16
1001
ACAD_DSTYLE_DIM_EXT2_LINETYPE
1070
   382
1005
16
0
DIMENSION
5
125
100
AcDbEntity
8
SK2
62
256
6
ByLayer
370
18
48
1
60
0
100
AcDbDimension
2
_U2
10
3.3165
20
-29.875
30
0
11
22.459357
21
-29.875
31
0
70
32
71
1
72
1
41
1
210
0
220
0
230
1
3
Standard
100
AcDbAlignedDimension
13
7.8165
23
0.375
33
0
14
3.3165
24
0
34
0
50
0
100
AcDbRotatedDimension
1001
ACAD
1000
DSTYLE
1002
{
1070
   371
1070
    13
1070
   372
1070
    13
1070
     3
1000

1070
   170
1070
     0
1070
   144
1040
1.0
1070
   277
1070
     2
1070
   284
1070
     8
1070
   278
1070
    46
1070
   146
1040
1.166667
1070
   345
1005
16
1070
   347
1005
16
1070
   346
1005
16
1070
   344
1005
0
1070
   343
1005
0
1070
   172
1070
     1
1070
    76
1070
     0
1070
    75
1070
     0
1070
   282
1070
     0
1070
   281
1070
     0
1070
    71
1070
     0
1070
    74
1070
     0
1070
   279
1070
     0
1070
   173
1070
     1
1070
   340
1005
D1
1070
   271
1070
     2
1070
   272
1070
     2
1070
    77
1070
     1
1070
    73
1070
     1
1070
   171
1070
     3
1070
   274
1070
     4
1070
   177
1070
     2
1070
   176
1070
     2
1070
   178
1070
     2
1070
    78
1070
     8
1070
    48
1040
-0.1
1070
    41
1040
3.5
1070
   147
1040
1.5
1070
    42
1040
1.5875
1070
    44
1040
2.0
1070
   140
1040
3.0
1002
}
1001
ACAD_DSTYLE_DIM_LINETYPE
1070
   380
1005
16
1001
ACAD_DSTYLE_DIM_EXT1_LINETYPE
1070
   381
1005
16
1001
ACAD_DSTYLE_DIM_EXT2_LINETYPE
1070
   382
1005
16
0
DIMENSION
5
13F
100
AcDbEntity
8
SK2
62
256
6
ByLayer
370
18
48
1
60
0
100
AcDbDimension
2
_U3
10
0
20
11.35
30
0
11
-15.09175
21
11.35
31
0
70
32
71
1
72
1
41
1
210
0
220
0
230
1
3
Standard
100
AcDbAlignedDimension
13
-30.1835
23
0
33
0
14
0
24
0
34
0
50
0
100
AcDbRotatedDimension
1001
ACAD
1000
DSTYLE
1002
{
1070
   371
1070
    13
1070
   372
1070
    13
1070
     3
1000

1070
   170
1070
     0
1070
   144
1040
1.0
1070
   277
1070
     2
1070
   284
1070
     8
1070
   278
1070
    46
1070
   146
1040
1.166667
1070
   345
1005
16
1070
   347
1005
16
1070
   346
1005
16
1070
   344
1005
0
1070
   343
1005
0
1070
   172
1070
     1
1070
    76
1070
     0
1070
    75
1070
     0
1070
   282
1070
     0
1070
   281
1070
     0
1070
    71
1070
     0
1070
    74
1070
     0
1070
   279
1070
     0
1070
   173
1070
     1
1070
   340
1005
D1
1070
   271
1070
     2
1070
   272
1070
     2
1070
    77
1070
     1
1070
    73
1070
     1
1070
   171
1070
     3
1070
   274
1070
     4
1070
   177
1070
     2
1070
   176
1070
     2
1070
   178
1070
     2
1070
    78
1070
     8
1070
    48
1040
-0.1
1070
    41
1040
3.5
1070
   147
1040
1.5
1070
    42
1040
1.5875
1070
    44
1040
2.0
1070
   140
1040
3.0
1002
}
1001
ACAD_DSTYLE_DIM_LINETYPE
1070
   380
1005
16
1001
ACAD_DSTYLE_DIM_EXT1_LINETYPE
1070
   381
1005
16
1001
ACAD_DSTYLE_DIM_EXT2_LINETYPE
1070
   382
1005
16
0
DIMENSION
5
157
100
AcDbEntity
8
2
62
256
6
ByLayer
370
18
48
1
60
0
100
AcDbDimension
2
_U4
10
0
20
5
30
0
11
-16.071429
21
5
31
0
70
32
71
1
72
1
41
1
210
0
220
0
230
1
3
Standard
100
AcDbAlignedDimension
13
7.8165
23
0.375
33
0
14
0
24
0
34
0
50
0
100
AcDbRotatedDimension
1001
ACAD
1000
DSTYLE
1002
{
1070
   371
1070
    13
1070
   372
1070
    13
1070
     3
1000

1070
   170
1070
     0
1070
   144
1040
1.0
1070
   277
1070
     2
1070
   284
1070
     8
1070
   278
1070
    46
1070
   146
1040
1.166667
1070
   345
1005
16
1070
   347
1005
16
1070
   346
1005
16
1070
   344
1005
0
1070
   343
1005
0
1070
   172
1070
     1
1070
    76
1070
     0
1070
    75
1070
     0
1070
   282
1070
     0
1070
   281
1070
     0
1070
    71
1070
     0
1070
    74
1070
     0
1070
   279
1070
     0
1070
   173
1070
     1
1070
   340
1005
D1
1070
   271
1070
     2
1070
   272
1070
     2
1070
    77
1070
     1
1070
    73
1070
     1
1070
   171
1070
     3
1070
   274
1070
     4
1070
   177
1070
     2
1070
   176
1070
     2
1070
   178
1070
     2
1070
    78
1070
     8
1070
    48
1040
-0.1
1070
    41
1040
3.5
1070
   147
1040
1.5
1070
    42
1040
1.5875
1070
    44
1040
2.0
1070
   140
1040
3.0
1002
}
1001
ACAD_DSTYLE_DIM_LINETYPE
1070
   380
1005
16
1001
ACAD_DSTYLE_DIM_EXT1_LINETYPE
1070
   381
1005
16
1001
ACAD_DSTYLE_DIM_EXT2_LINETYPE
1070
   382
1005
16
0
ENDSEC
0
SECTION
2
OBJECTS
0
DICTIONARY
5
1e1
330
0
100
AcDbDictionary
280
0
281
1
3
ACAD_GROUP
350
1e2
3
ACAD_MLINESTYLE
350
1e3
0
DICTIONARY
5
1e2
330
0
100
AcDbDictionary
280
0
281
1
0
DICTIONARY
5
1e3
330
0
100
AcDbDictionary
280
0
281
1
3
Standard
350
18
0
MLINESTYLE
5
18
330
1e3
100
AcDbMlineStyle
2
Standard
70
0
3

62
256
51
90
52
90
71
2
49
-0.5
62
256
6
ByLayer
49
0.5
62
256
6
ByLayer
0
RASTERVARIABLES
5
1cf
330

100
AcDbRasterVariables
90
0
70
1
71
1
72
1
0
ENDSEC
0
EOF
