0
SECTION
2
HEADER
9
$ACADVER
1
AC1015
9
$DWGCODEPAGE
3
ANSI_1252
9
$HANDSEED
5
1ee
9
$ANGBASE
50
0
9
$ANGDIR
70
0
9
$ATTMODE
70
1
9
$AUNITS
70
0
9
$AUPREC
70
0
9
$CECOLOR
62
256
9
$CELTSCALE
40
1
9
$CELTYPE
6
ByLayer
9
$CELWEIGHT
370
18
9
$CLAYER
8
0
9
$CMLJUST
70
0
9
$CMLSCALE
40
1
9
$CMLSTYLE
2
Standard
9
$DIMSTYLE
2
Standard
9
$TEXTSIZE
40
0.2
9
$TEXTSTYLE
7
Standard
9
$LUNITS
70
2
9
$LUPREC
70
4
9
$EXTNAMES
290
1
9
$INSUNITS
70
4
9
$LTSCALE
40
1
9
$LWDISPLAY
290
1
9
$PDMODE
70
0
9
$PDSIZE
40
0
9
$PLINEGEN
70
0
0
ENDSEC
0
SECTION
2
CLASSES
0
CLASS
1
RASTERVARIABLES
2
AcDbRasterVariables
3
ISM
90
0
280
0
281
0
0
ENDSEC
0
SECTION
2
TABLES
0
TABLE
2
VPORT
5
1e4
100
AcDbSymbolTable
0
VPORT
5
1
100
AcDbSymbolTableRecord
100
AcDbViewportTableRecord
2
*Active
70
0
10
0
20
0
11
1
21
1
12
-1
22
1
13
0
23
0
14
0.5
24
0.5
15
10
25
10
16
0
26
0
36
1
17
0
27
0
37
0
0
ENDTAB
0
TABLE
2
LTYPE
5
1e5
100
AcDbSymbolTable
0
LTYPE
5
14
100
AcDbSymbolTableRecord
100
AcDbLinetypeTableRecord
70
0
2
ByBlock
3

72
65
73
0
40
0
0
LTYPE
5
15
100
AcDbSymbolTableRecord
100
AcDbLinetypeTableRecord
70
0
2
ByLayer
3

72
65
73
0
40
0
0
LTYPE
5
16
100
AcDbSymbolTableRecord
100
AcDbLinetypeTableRecord
70
0
2
Continuous
3
Solid line
72
65
73
0
40
0
0
LTYPE
5
6E
100
AcDbSymbolTableRecord
100
AcDbLinetypeTableRecord
70
0
2
CENTER
3
____ _ ____ _ ____ _ ____
72
65
73
4
40
47.5
49
22
74
0
49
-8.5
74
0
49
8.5
74
0
49
-8.5
74
0
0
LTYPE
5
6F
100
AcDbSymbolTableRecord
100
AcDbLinetypeTableRecord
70
0
2
DASHED
3
__ __ __ __ __ __ __ __ __
72
65
73
2
40
25.72
49
12.86
74
0
49
-12.86
74
0
0
ENDTAB
0
TABLE
2
LAYER
5
1e6
100
AcDbSymbolTable
0
LAYER
5
10
100
AcDbSymbolTableRecord
100
AcDbLayerTableRecord
2
0
70
0
62
7
6
Continuous
290
1
370
-3
390
0
0
LAYER
5
71
100
AcDbSymbolTableRecord
100
AcDbLayerTableRecord
2
80
70
0
62
-6
6
Continuous
290
1
370
-3
390
0
0
LAYER
5
73
100
AcDbSymbolTableRecord
100
AcDbLayerTableRecord
2
81
70
0
62
-3
6
Continuous
290
1
370
-3
390
0
0
LAYER
5
75
100
AcDbSymbolTableRecord
100
AcDbLayerTableRecord
2
1
70
0
62
4
6
Continuous
290
1
370
-3
390
0
0
LAYER
5
9C
100
AcDbSymbolTableRecord
100
AcDbLayerTableRecord
2
4
70
0
62
-2
6
CENTER
290
1
370
-3
390
0
0
LAYER
5
AC
100
AcDbSymbolTableRecord
100
AcDbLayerTableRecord
2
2
70
0
62
7
6
Continuous
290
1
370
-3
390
0
0
LAYER
5
F6
100
AcDbSymbolTableRecord
100
AcDbLayerTableRecord
2
Defpoints
70
0
62
7
6
Continuous
290
0
370
-3
390
0
0
LAYER
5
1d0
100
AcDbSymbolTableRecord
100
AcDbLayerTableRecord
2
SK1
70
0
62
4
6
Continuous
290
1
370
-3
390
0
0
LAYER
5
1d1
100
AcDbSymbolTableRecord
100
AcDbLayerTableRecord
2
SK4
70
0
62
2
6
CENTER
290
1
370
-3
390
0
0
LAYER
5
1d2
100
AcDbSymbolTableRecord
100
AcDbLayerTableRecord
2
SK2
70
0
62
7
6
Continuous
290
1
370
-3
390
0
0
LAYER
5
1d3
100
AcDbSymbolTableRecord
100
AcDbLayerTableRecord
2
SK6
70
0
62
5
6
Continuous
290
1
370
-3
390
0
0
ENDTAB
0
TABLE
2
STYLE
5
1e7
100
AcDbSymbolTable
0
STYLE
5
11
100
AcDbSymbolTableRecord
100
AcDbTextStyleTableRecord
2
Standard
3
txt
70
0
71
0
40
0
41
1
42
0
50
0
0
STYLE
5
D2
100
AcDbSymbolTableRecord
100
AcDbTextStyleTableRecord
2
iso_b_vert
3
simplex.shx
70
0
71
0
40
0
41
1
42
0
50
0
0
STYLE
5
D3
100
AcDbSymbolTableRecord
100
AcDbTextStyleTableRecord
2
DWGDirectTextStyle
3
simplex
70
0
71
0
40
0
41
1
42
0
50
0
0
ENDTAB
0
TABLE
2
DIMSTYLE
5
1e8
100
AcDbSymbolTable
100
AcDbDimStyleTable
0
DIMSTYLE
105
27
100
AcDbSymbolTableRecord
100
AcDbDimStyleTableRecord
2
Standard
70
0
3
<>
41
0.18
42
0.0625
44
0.18
140
0.18
147
0.09
73
0
74
0
77
1
271
2
275
0
278
52
280
0
340
11
0
ENDTAB
0
TABLE
2
VIEW
5
1e9
100
AcDbSymbolTable
0
ENDTAB
0
TABLE
2
UCS
5
1ea
100
AcDbSymbolTable
0
ENDTAB
0
TABLE
2
APPID
5
1eb
100
AcDbSymbolTable
0
APPID
5
12
100
AcDbSymbolTableRecord
100
AcDbRegAppTableRecord
2
ACAD
70
0
0
APPID
5
F2
100
AcDbSymbolTableRecord
100
AcDbRegAppTableRecord
2
ACAD_DSTYLE_DIMBREAK
70
0
0
APPID
5
18F
100
AcDbSymbolTableRecord
100
AcDbRegAppTableRecord
2
ACAD_DSTYLE_DIM_LINETYPE
70
0
0
APPID
5
190
100
AcDbSymbolTableRecord
100
AcDbRegAppTableRecord
2
ACAD_DSTYLE_DIM_EXT1_LINETYPE
70
0
0
APPID
5
191
100
AcDbSymbolTableRecord
100
AcDbRegAppTableRecord
2
ACAD_DSTYLE_DIM_EXT2_LINETYPE
70
0
0
APPID
5
1CC
100
AcDbSymbolTableRecord
100
AcDbRegAppTableRecord
2
ACAD_MLEADERVER
70
0
0
ENDTAB
0
TABLE
2
BLOCK_RECORD
5
1ec
100
AcDbSymbolTable
0
BLOCK_RECORD
5
1F
100
AcDbSymbolTableRecord
100
AcDbBlockTableRecord
2
*Model_Space
340
0
70
0
0
BLOCK_RECORD
5
1B
100
AcDbSymbolTableRecord
100
AcDbBlockTableRecord
2
*Paper_Space
340
0
70
0
0
BLOCK_RECORD
5
23
100
AcDbSymbolTableRecord
100
AcDbBlockTableRecord
2
*Paper_Space0
340
0
70
0
0
BLOCK_RECORD
5
F7
100
AcDbSymbolTableRecord
100
AcDbBlockTableRecord
2
*D1
340
0
70
0
0
BLOCK_RECORD
5
103
100
AcDbSymbolTableRecord
100
AcDbBlockTableRecord
2
_U0
340
0
70
0
0
BLOCK_RECORD
5
10F
100
AcDbSymbolTableRecord
100
AcDbBlockTableRecord
2
*D3
340
0
70
0
0
BLOCK_RECORD
5
11D
100
AcDbSymbolTableRecord
100
AcDbBlockTableRecord
2
_U1
340
0
70
0
0
BLOCK_RECORD
5
129
100
AcDbSymbolTableRecord
100
AcDbBlockTableRecord
2
*D5
340
0
70
0
0
BLOCK_RECORD
5
137
100
AcDbSymbolTableRecord
100
AcDbBlockTableRecord
2
_U2
340
0
70
0
0
BLOCK_RECORD
5
143
100
AcDbSymbolTableRecord
100
AcDbBlockTableRecord
2
*D7
340
0
70
0
0
BLOCK_RECORD
5
14F
100
AcDbSymbolTableRecord
100
AcDbBlockTableRecord
2
_U3
340
0
70
0
0
BLOCK_RECORD
5
15B
100
AcDbSymbolTableRecord
100
AcDbBlockTableRecord
2
*D9
340
0
70
0
0
BLOCK_RECORD
5
168
100
AcDbSymbolTableRecord
100
AcDbBlockTableRecord
2
_U4
340
0
70
0
0
ENDTAB
0
ENDSEC
0
SECTION
2
BLOCKS
0
BLOCK
5
20
100
AcDbEntity
8
0
100
AcDbBlockBegin
2
*Model_Space
70
0
10
0
20
0
30
0
3
*Model_Space
0
ENDBLK
5
21
100
AcDbEntity
8
0
100
AcDbBlockEnd
0
BLOCK
5
1C
100
AcDbEntity
8
0
100
AcDbBlockBegin
2
*Paper_Space
70
0
10
0
20
0
30
0
3
*Paper_Space
0
ENDBLK
5
1D
100
AcDbEntity
8
0
100
AcDbBlockEnd
0
BLOCK
5
24
100
AcDbEntity
8
0
100
AcDbBlockBegin
2
*Paper_Space0
70
0
10
0
20
0
30
0
3
*Paper_Space0
0
ENDBLK
5
25
100
AcDbEntity
8
0
100
AcDbBlockEnd
0
BLOCK
5
F8
100
AcDbEntity
8
0
100
AcDbBlockBegin
2
*D1
70
1
10
0
20
0
30
0
3
*D1
0
LINE
5
FA
100
AcDbEntity
8
0
62
256
6
ByLayer
370
-2
48
1
60
0
100
AcDbLine
10
-29.5182
20
-0.0875
30
0
11
-29.5182
21
-37.85
31
0
39
0
210
0
220
0
230
1
0
LINE
5
FB
100
AcDbEntity
8
0
62
256
6
ByLayer
370
-2
48
1
60
0
100
AcDbLine
10
8.4818
20
-1.1925
30
0
11
8.4818
21
-37.85
31
0
39
0
210
0
220
0
230
1
0
LINE
5
FC
100
AcDbEntity
8
0
62
256
6
ByLayer
370
-2
48
1
60
0
100
AcDbLine
10
-26.0182
20
-35.85
30
0
11
4.9818
21
-35.85
31
0
39
0
210
0
220
0
230
1
0
SOLID
5
FD
100
AcDbEntity
8
0
62
256
6
ByLayer
370
-1
48
1
60
0
100
AcDbTrace
10
-26.0182
20
-35.266667
30
0
11
-26.0182
21
-36.433333
31
0
12
-29.5182
22
-35.85
32
0
13
-29.5182
23
-35.85
33
0
39
0
210
0
220
0
230
1
0
SOLID
5
FE
100
AcDbEntity
8
0
62
256
6
ByLayer
370
-1
48
1
60
0
100
AcDbTrace
10
4.9818
20
-36.433333
30
0
11
4.9818
21
-35.266667
31
0
12
8.4818
22
-35.85
32
0
13
8.4818
23
-35.85
33
0
39
0
210
0
220
0
230
1
0
MTEXT
5
FF
100
AcDbEntity
8
0
62
256
6
ByLayer
370
18
48
1
60
0
100
AcDbMText
10
-10.5182
20
-29.85
30
0
210
0
220
0
230
1
1
\A1;38
40
3
41
0
44
1
50
0
71
5
72
5
7
iso_b_vert
0
POINT
5
100
100
AcDbEntity
8
Defpoints
62
0
6
ByLayer
370
-1
48
1
60
0
100
AcDbPoint
10
-29.5182
20
1.5
30
0
39
0
210
0
220
0
230
1
50
360
0
POINT
5
101
100
AcDbEntity
8
Defpoints
62
0
6
ByLayer
370
-1
48
1
60
0
100
AcDbPoint
10
8.4818
20
0.395
30
0
39
0
210
0
220
0
230
1
50
360
0
POINT
5
102
100
AcDbEntity
8
Defpoints
62
0
6
ByLayer
370
-1
48
1
60
0
100
AcDbPoint
10
8.4818
20
-35.85
30
0
39
0
210
0
220
0
230
1
50
360
0
ENDBLK
5
F9
100
AcDbEntity
8
0
100
AcDbBlockEnd
0
BLOCK
5
10A
100
AcDbEntity
8
0
100
AcDbBlockBegin
2
_U0
70
0
10
0
20
0
30
0
3
_U0
0
MTEXT
5
104
100
AcDbEntity
8
SK2
62
256
6
ByLayer
370
18
48
1
60
0
100
AcDbMText
10
-15.00057
20
-34.964886
30
0
210
0
220
0
230
1
1
\W0.7468;38.00
40
3
41
0
44
1.084337
50
0
71
7
72
5
7
iso_b_vert
0
LINE
5
105
100
AcDbEntity
8
SK2
62
256
6
ByLayer
370
13
48
1
60
0
100
AcDbLine
10
-29.5182
20
-0.0875
30
0
11
-29.5182
21
-37.85
31
0
39
0
210
0
220
0
230
1
0
LINE
5
106
100
AcDbEntity
8
SK2
62
256
6
ByLayer
370
13
48
1
60
0
100
AcDbLine
10
8.4818
20
-1.1925
30
0
11
8.4818
21
-37.85
31
0
39
0
210
0
220
0
230
1
0
LINE
5
107
100
AcDbEntity
8
SK2
62
256
6
ByLayer
370
13
48
1
60
0
100
AcDbLine
10
-29.5182
20
-35.85
30
0
11
8.4818
21
-35.85
31
0
39
0
210
0
220
0
230
1
0
SOLID
5
108
100
AcDbEntity
8
SK2
62
256
6
ByLayer
370
18
48
1
60
0
100
AcDbTrace
10
-29.5182
20
-35.85
30
0
11
-26.018202
21
-35.389216
31
0
12
-26.018198
22
-36.310784
32
0
13
-26.018198
23
-36.310784
33
0
39
0
210
0
220
0
230
1
0
SOLID
5
109
100
AcDbEntity
8
SK2
62
256
6
ByLayer
370
18
48
1
60
0
100
AcDbTrace
10
8.4818
20
-35.85
30
0
11
4.981802
21
-36.310784
31
0
12
4.981798
22
-35.389216
32
0
13
4.981798
23
-35.389216
33
0
39
0
210
0
220
0
230
1
0
ENDBLK
5
10B
100
AcDbEntity
8
0
100
AcDbBlockEnd
0
BLOCK
5
110
100
AcDbEntity
8
0
100
AcDbBlockBegin
2
*D3
70
1
10
0
20
0
30
0
3
*D3
0
LINE
5
112
100
AcDbEntity
8
0
62
256
6
ByLayer
370
-2
48
1
60
0
100
AcDbLine
10
8.4818
20
-1.1925
30
0
11
8.4818
21
-23.895
31
0
39
0
210
0
220
0
230
1
0
LINE
5
113
100
AcDbEntity
8
0
62
256
6
ByLayer
370
-2
48
1
60
0
100
AcDbLine
10
4.6668
20
-1.5875
30
0
11
4.6668
21
-23.895
31
0
39
0
210
0
220
0
230
1
0
LINE
5
114
100
AcDbEntity
8
0
62
256
6
ByLayer
370
-2
48
1
60
0
100
AcDbLine
10
8.4818
20
-21.895
30
0
11
33.624657
21
-21.895
31
0
39
0
210
0
220
0
230
1
0
LINE
5
115
100
AcDbEntity
8
0
62
256
6
ByLayer
370
-2
48
1
60
0
100
AcDbLine
10
11.9818
20
-21.895
30
0
11
15.4818
21
-21.895
31
0
39
0
210
0
220
0
230
1
0
LINE
5
116
100
AcDbEntity
8
0
62
256
6
ByLayer
370
-2
48
1
60
0
100
AcDbLine
10
1.1668
20
-21.895
30
0
11
-2.3332
21
-21.895
31
0
39
0
210
0
220
0
230
1
0
SOLID
5
117
100
AcDbEntity
8
0
62
256
6
ByLayer
370
-1
48
1
60
0
100
AcDbTrace
10
11.9818
20
-21.311667
30
0
11
11.9818
21
-22.478333
31
0
12
8.4818
22
-21.895
32
0
13
8.4818
23
-21.895
33
0
39
0
210
0
220
0
230
1
0
SOLID
5
118
100
AcDbEntity
8
0
62
256
6
ByLayer
370
-1
48
1
60
0
100
AcDbTrace
10
1.1668
20
-22.478333
30
0
11
1.1668
21
-21.311667
31
0
12
4.6668
22
-21.895
32
0
13
4.6668
23
-21.895
33
0
39
0
210
0
220
0
230
1
0
MTEXT
5
119
100
AcDbEntity
8
0
62
256
6
ByLayer
370
18
48
1
60
0
100
AcDbMText
10
24.553229
20
-15.895
30
0
210
0
220
0
230
1
1
\A1;3.82
40
3
41
0
44
1
50
0
71
5
72
5
7
iso_b_vert
0
POINT
5
11A
100
AcDbEntity
8
Defpoints
62
0
6
ByLayer
370
-1
48
1
60
0
100
AcDbPoint
10
8.4818
20
0.395
30
0
39
0
210
0
220
0
230
1
50
360
0
POINT
5
11B
100
AcDbEntity
8
Defpoints
62
0
6
ByLayer
370
-1
48
1
60
0
100
AcDbPoint
10
4.6668
20
0
30
0
39
0
210
0
220
0
230
1
50
360
0
POINT
5
11C
100
AcDbEntity
8
Defpoints
62
0
6
ByLayer
370
-1
48
1
60
0
100
AcDbPoint
10
4.6668
20
-21.895
30
0
39
0
210
0
220
0
230
1
50
360
0
ENDBLK
5
111
100
AcDbEntity
8
0
100
AcDbBlockEnd
0
BLOCK
5
124
100
AcDbEntity
8
0
100
AcDbBlockBegin
2
_U1
70
0
10
0
20
0
30
0
3
_U1
0
MTEXT
5
11E
100
AcDbEntity
8
SK2
62
256
6
ByLayer
370
18
48
1
60
0
100
AcDbMText
10
12.6408
20
-21.009886
30
0
210
0
220
0
230
1
1
\W0.7051;(3.82)
40
3
41
0
44
1.084337
50
0
71
7
72
5
7
iso_b_vert
0
LINE
5
11F
100
AcDbEntity
8
SK2
62
256
6
ByLayer
370
13
48
1
60
0
100
AcDbLine
10
8.4818
20
-1.1925
30
0
11
8.4818
21
-23.895
31
0
39
0
210
0
220
0
230
1
0
LINE
5
120
100
AcDbEntity
8
SK2
62
256
6
ByLayer
370
13
48
1
60
0
100
AcDbLine
10
4.6668
20
-1.5875
30
0
11
4.6668
21
-23.895
31
0
39
0
210
0
220
0
230
1
0
LINE
5
121
100
AcDbEntity
8
SK2
62
256
6
ByLayer
370
13
48
1
60
0
100
AcDbLine
10
-2.8332
20
-21.895
30
0
11
21.953569
21
-21.895
31
0
39
0
210
0
220
0
230
1
0
SOLID
5
122
100
AcDbEntity
8
SK2
62
256
6
ByLayer
370
18
48
1
60
0
100
AcDbTrace
10
8.4818
20
-21.895
30
0
11
11.981798
21
-21.434216
31
0
12
11.981802
22
-22.355784
32
0
13
11.981802
23
-22.355784
33
0
39
0
210
0
220
0
230
1
0
SOLID
5
123
100
AcDbEntity
8
SK2
62
256
6
ByLayer
370
18
48
1
60
0
100
AcDbTrace
10
4.6668
20
-21.895
30
0
11
1.166802
21
-22.355784
31
0
12
1.166798
22
-21.434216
32
0
13
1.166798
23
-21.434216
33
0
39
0
210
0
220
0
230
1
0
ENDBLK
5
125
100
AcDbEntity
8
0
100
AcDbBlockEnd
0
BLOCK
5
12A
100
AcDbEntity
8
0
100
AcDbBlockBegin
2
*D5
70
1
10
0
20
0
30
0
3
*D5
0
LINE
5
12C
100
AcDbEntity
8
0
62
256
6
ByLayer
370
-2
48
1
60
0
100
AcDbLine
10
8.4818
20
-1.1925
30
0
11
8.4818
21
-31.895
31
0
39
0
210
0
220
0
230
1
0
LINE
5
12D
100
AcDbEntity
8
0
62
256
6
ByLayer
370
-2
48
1
60
0
100
AcDbLine
10
3.4818
20
-1.5875
30
0
11
3.4818
21
-31.895
31
0
39
0
210
0
220
0
230
1
0
LINE
5
12E
100
AcDbEntity
8
0
62
256
6
ByLayer
370
-2
48
1
60
0
100
AcDbLine
10
8.4818
20
-29.895
30
0
11
26.4818
21
-29.895
31
0
39
0
210
0
220
0
230
1
0
LINE
5
12F
100
AcDbEntity
8
0
62
256
6
ByLayer
370
-2
48
1
60
0
100
AcDbLine
10
11.9818
20
-29.895
30
0
11
15.4818
21
-29.895
31
0
39
0
210
0
220
0
230
1
0
LINE
5
130
100
AcDbEntity
8
0
62
256
6
ByLayer
370
-2
48
1
60
0
100
AcDbLine
10
-0.0182
20
-29.895
30
0
11
-3.5182
21
-29.895
31
0
39
0
210
0
220
0
230
1
0
SOLID
5
131
100
AcDbEntity
8
0
62
256
6
ByLayer
370
-1
48
1
60
0
100
AcDbTrace
10
11.9818
20
-29.311667
30
0
11
11.9818
21
-30.478333
31
0
12
8.4818
22
-29.895
32
0
13
8.4818
23
-29.895
33
0
39
0
210
0
220
0
230
1
0
SOLID
5
132
100
AcDbEntity
8
0
62
256
6
ByLayer
370
-1
48
1
60
0
100
AcDbTrace
10
-0.0182
20
-30.478333
30
0
11
-0.0182
21
-29.311667
31
0
12
3.4818
22
-29.895
32
0
13
3.4818
23
-29.895
33
0
39
0
210
0
220
0
230
1
0
MTEXT
5
133
100
AcDbEntity
8
0
62
256
6
ByLayer
370
18
48
1
60
0
100
AcDbMText
10
20.9818
20
-23.895
30
0
210
0
220
0
230
1
1
\A1;5
40
3
41
0
44
1
50
0
71
5
72
5
7
iso_b_vert
0
POINT
5
134
100
AcDbEntity
8
Defpoints
62
0
6
ByLayer
370
-1
48
1
60
0
100
AcDbPoint
10
8.4818
20
0.395
30
0
39
0
210
0
220
0
230
1
50
360
0
POINT
5
135
100
AcDbEntity
8
Defpoints
62
0
6
ByLayer
370
-1
48
1
60
0
100
AcDbPoint
10
3.4818
20
0
30
0
39
0
210
0
220
0
230
1
50
360
0
POINT
5
136
100
AcDbEntity
8
Defpoints
62
0
6
ByLayer
370
-1
48
1
60
0
100
AcDbPoint
10
3.4818
20
-29.895
30
0
39
0
210
0
220
0
230
1
50
360
0
ENDBLK
5
12B
100
AcDbEntity
8
0
100
AcDbBlockEnd
0
BLOCK
5
13E
100
AcDbEntity
8
0
100
AcDbBlockBegin
2
_U2
70
0
10
0
20
0
30
0
3
_U2
0
MTEXT
5
138
100
AcDbEntity
8
SK2
62
256
6
ByLayer
370
18
48
1
60
0
100
AcDbMText
10
11.6408
20
-29.009886
30
0
210
0
220
0
230
1
1
\W0.7346;5.00
40
3
41
0
44
1.084337
50
0
71
7
72
5
7
iso_b_vert
0
LINE
5
139
100
AcDbEntity
8
SK2
62
256
6
ByLayer
370
13
48
1
60
0
100
AcDbLine
10
8.4818
20
-1.1925
30
0
11
8.4818
21
-31.895
31
0
39
0
210
0
220
0
230
1
0
LINE
5
13A
100
AcDbEntity
8
SK2
62
256
6
ByLayer
370
13
48
1
60
0
100
AcDbLine
10
3.4818
20
-1.5875
30
0
11
3.4818
21
-31.895
31
0
39
0
210
0
220
0
230
1
0
LINE
5
13B
100
AcDbEntity
8
SK2
62
256
6
ByLayer
370
13
48
1
60
0
100
AcDbLine
10
-4.0182
20
-29.895
30
0
11
18.522713
21
-29.895
31
0
39
0
210
0
220
0
230
1
0
SOLID
5
13C
100
AcDbEntity
8
SK2
62
256
6
ByLayer
370
18
48
1
60
0
100
AcDbTrace
10
8.4818
20
-29.895
30
0
11
11.981798
21
-29.434216
31
0
12
11.981802
22
-30.355784
32
0
13
11.981802
23
-30.355784
33
0
39
0
210
0
220
0
230
1
0
SOLID
5
13D
100
AcDbEntity
8
SK2
62
256
6
ByLayer
370
18
48
1
60
0
100
AcDbTrace
10
3.4818
20
-29.895
30
0
11
-0.018198
21
-30.355784
31
0
12
-0.018202
22
-29.434216
32
0
13
-0.018202
23
-29.434216
33
0
39
0
210
0
220
0
230
1
0
ENDBLK
5
13F
100
AcDbEntity
8
0
100
AcDbBlockEnd
0
BLOCK
5
144
100
AcDbEntity
8
0
100
AcDbBlockBegin
2
*D7
70
1
10
0
20
0
30
0
3
*D7
0
LINE
5
146
100
AcDbEntity
8
0
62
256
6
ByLayer
370
-2
48
1
60
0
100
AcDbLine
10
-29.5182
20
1.5875
30
0
11
-29.5182
21
13.35
31
0
39
0
210
0
220
0
230
1
0
LINE
5
147
100
AcDbEntity
8
0
62
256
6
ByLayer
370
-2
48
1
60
0
100
AcDbLine
10
0
20
1.5875
30
0
11
0
21
13.35
31
0
39
0
210
0
220
0
230
1
0
LINE
5
148
100
AcDbEntity
8
0
62
256
6
ByLayer
370
-2
48
1
60
0
100
AcDbLine
10
-26.0182
20
11.35
30
0
11
-3.5
21
11.35
31
0
39
0
210
0
220
0
230
1
0
SOLID
5
149
100
AcDbEntity
8
0
62
256
6
ByLayer
370
-1
48
1
60
0
100
AcDbTrace
10
-26.0182
20
11.933333
30
0
11
-26.0182
21
10.766667
31
0
12
-29.5182
22
11.35
32
0
13
-29.5182
23
11.35
33
0
39
0
210
0
220
0
230
1
0
SOLID
5
14A
100
AcDbEntity
8
0
62
256
6
ByLayer
370
-1
48
1
60
0
100
AcDbTrace
10
-3.5
20
10.766667
30
0
11
-3.5
21
11.933333
31
0
12
0
22
11.35
32
0
13
0
23
11.35
33
0
39
0
210
0
220
0
230
1
0
MTEXT
5
14B
100
AcDbEntity
8
0
62
256
6
ByLayer
370
18
48
1
60
0
100
AcDbMText
10
-14.7591
20
17.35
30
0
210
0
220
0
230
1
1
\A1;29.52
40
3
41
0
44
1
50
0
71
5
72
5
7
iso_b_vert
0
POINT
5
14C
100
AcDbEntity
8
Defpoints
62
0
6
ByLayer
370
-1
48
1
60
0
100
AcDbPoint
10
-29.5182
20
0
30
0
39
0
210
0
220
0
230
1
50
360
0
POINT
5
14D
100
AcDbEntity
8
Defpoints
62
0
6
ByLayer
370
-1
48
1
60
0
100
AcDbPoint
10
0
20
0
30
0
39
0
210
0
220
0
230
1
50
360
0
POINT
5
14E
100
AcDbEntity
8
Defpoints
62
0
6
ByLayer
370
-1
48
1
60
0
100
AcDbPoint
10
0
20
11.35
30
0
39
0
210
0
220
0
230
1
50
360
0
ENDBLK
5
145
100
AcDbEntity
8
0
100
AcDbBlockEnd
0
BLOCK
5
156
100
AcDbEntity
8
0
100
AcDbBlockBegin
2
_U3
70
0
10
0
20
0
30
0
3
_U3
0
MTEXT
5
150
100
AcDbEntity
8
SK2
62
256
6
ByLayer
370
18
48
1
60
0
100
AcDbMText
10
-19.24147
20
12.235114
30
0
210
0
220
0
230
1
1
\W0.7468;29.52
40
3
41
0
44
1.084337
50
0
71
7
72
5
7
iso_b_vert
0
LINE
5
151
100
AcDbEntity
8
SK2
62
256
6
ByLayer
370
13
48
1
60
0
100
AcDbLine
10
-29.5182
20
1.5875
30
0
11
-29.5182
21
13.35
31
0
39
0
210
0
220
0
230
1
0
LINE
5
152
100
AcDbEntity
8
SK2
62
256
6
ByLayer
370
13
48
1
60
0
100
AcDbLine
10
0
20
1.5875
30
0
11
0
21
13.35
31
0
39
0
210
0
220
0
230
1
0
LINE
5
153
100
AcDbEntity
8
SK2
62
256
6
ByLayer
370
13
48
1
60
0
100
AcDbLine
10
-29.5182
20
11.35
30
0
11
0
21
11.35
31
0
39
0
210
0
220
0
230
1
0
SOLID
5
154
100
AcDbEntity
8
SK2
62
256
6
ByLayer
370
18
48
1
60
0
100
AcDbTrace
10
-29.5182
20
11.35
30
0
11
-26.018202
21
11.810784
31
0
12
-26.018198
22
10.889216
32
0
13
-26.018198
23
10.889216
33
0
39
0
210
0
220
0
230
1
0
SOLID
5
155
100
AcDbEntity
8
SK2
62
256
6
ByLayer
370
18
48
1
60
0
100
AcDbTrace
10
0
20
11.35
30
0
11
-3.499998
21
10.889216
31
0
12
-3.500002
22
11.810784
32
0
13
-3.500002
23
11.810784
33
0
39
0
210
0
220
0
230
1
0
ENDBLK
5
157
100
AcDbEntity
8
0
100
AcDbBlockEnd
0
BLOCK
5
15C
100
AcDbEntity
8
0
100
AcDbBlockBegin
2
*D9
70
1
10
0
20
0
30
0
3
*D9
0
LINE
5
15E
100
AcDbEntity
8
0
62
256
6
ByLayer
370
-2
48
1
60
0
100
AcDbLine
10
8.4818
20
1.9825
30
0
11
8.4818
21
13.35
31
0
39
0
210
0
220
0
230
1
0
LINE
5
15F
100
AcDbEntity
8
0
62
256
6
ByLayer
370
-2
48
1
60
0
100
AcDbLine
10
0
20
1.5875
30
0
11
0
21
13.35
31
0
39
0
210
0
220
0
230
1
0
LINE
5
160
100
AcDbEntity
8
0
62
256
6
ByLayer
370
-2
48
1
60
0
100
AcDbLine
10
11.9818
20
11.35
30
0
11
15.4818
21
11.35
31
0
39
0
210
0
220
0
230
1
0
LINE
5
161
100
AcDbEntity
8
0
62
256
6
ByLayer
370
-2
48
1
60
0
100
AcDbLine
10
-3.5
20
11.35
30
0
11
-7
21
11.35
31
0
39
0
210
0
220
0
230
1
0
SOLID
5
162
100
AcDbEntity
8
0
62
256
6
ByLayer
370
-1
48
1
60
0
100
AcDbTrace
10
11.9818
20
11.933333
30
0
11
11.9818
21
10.766667
31
0
12
8.4818
22
11.35
32
0
13
8.4818
23
11.35
33
0
39
0
210
0
220
0
230
1
0
SOLID
5
163
100
AcDbEntity
8
0
62
256
6
ByLayer
370
-1
48
1
60
0
100
AcDbTrace
10
-3.5
20
10.766667
30
0
11
-3.5
21
11.933333
31
0
12
0
22
11.35
32
0
13
0
23
11.35
33
0
39
0
210
0
220
0
230
1
0
MTEXT
5
164
100
AcDbEntity
8
0
62
256
6
ByLayer
370
18
48
1
60
0
100
AcDbMText
10
4.2409
20
17.35
30
0
210
0
220
0
230
1
1
\A1;8.48
40
3
41
0
44
1
50
0
71
5
72
5
7
iso_b_vert
0
POINT
5
165
100
AcDbEntity
8
Defpoints
62
0
6
ByLayer
370
-1
48
1
60
0
100
AcDbPoint
10
8.4818
20
0.395
30
0
39
0
210
0
220
0
230
1
50
360
0
POINT
5
166
100
AcDbEntity
8
Defpoints
62
0
6
ByLayer
370
-1
48
1
60
0
100
AcDbPoint
10
0
20
0
30
0
39
0
210
0
220
0
230
1
50
360
0
POINT
5
167
100
AcDbEntity
8
Defpoints
62
0
6
ByLayer
370
-1
48
1
60
0
100
AcDbPoint
10
0
20
11.35
30
0
39
0
210
0
220
0
230
1
50
360
0
ENDBLK
5
15D
100
AcDbEntity
8
0
100
AcDbBlockEnd
0
BLOCK
5
16F
100
AcDbEntity
8
0
100
AcDbBlockBegin
2
_U4
70
0
10
0
20
0
30
0
3
_U4
0
MTEXT
5
169
100
AcDbEntity
8
2
62
256
6
ByLayer
370
18
48
1
60
0
100
AcDbMText
10
0.721501
20
12.235114
30
0
210
0
220
0
230
1
1
\W0.7640;8.48
40
3
41
0
44
1.084337
50
0
71
7
72
5
7
iso_b_vert
0
LINE
5
16A
100
AcDbEntity
8
2
62
256
6
ByLayer
370
13
48
1
60
0
100
AcDbLine
10
8.4818
20
1.9825
30
0
11
8.4818
21
13.35
31
0
39
0
210
0
220
0
230
1
0
LINE
5
16B
100
AcDbEntity
8
2
62
256
6
ByLayer
370
13
48
1
60
0
100
AcDbLine
10
0
20
1.5875
30
0
11
0
21
13.35
31
0
39
0
210
0
220
0
230
1
0
LINE
5
16C
100
AcDbEntity
8
2
62
256
6
ByLayer
370
13
48
1
60
0
100
AcDbLine
10
8.4818
20
11.35
30
0
11
0
21
11.35
31
0
39
0
210
0
220
0
230
1
0
SOLID
5
16D
100
AcDbEntity
8
2
62
256
6
ByLayer
370
18
48
1
60
0
100
AcDbTrace
10
8.4818
20
11.35
30
0
11
4.981802
21
10.889216
31
0
12
4.981798
22
11.810784
32
0
13
4.981798
23
11.810784
33
0
39
0
210
0
220
0
230
1
0
SOLID
5
16E
100
AcDbEntity
8
2
62
256
6
ByLayer
370
18
48
1
60
0
100
AcDbTrace
10
0
20
11.35
30
0
11
3.499998
21
11.810784
31
0
12
3.500002
22
10.889216
32
0
13
3.500002
23
10.889216
33
0
39
0
210
0
220
0
230
1
0
ENDBLK
5
170
100
AcDbEntity
8
0
100
AcDbBlockEnd
0
ENDSEC
0
SECTION
2
ENTITIES
0
ARC
5
BD
100
AcDbEntity
8
1
62
256
6
ByLayer
370
18
48
1
60
0
100
AcDbCircle
39
0
10
2.181844
20
-1.395
30
0
40
0.999999999999998
210
0
220
0
230
1
100
AcDbArc
50
90
51
120
0
ARC
5
BE
100
AcDbEntity
8
1
62
256
6
ByLayer
370
18
48
1
60
0
100
AcDbCircle
39
0
10
2.181844
20
1.395
30
0
40
0.999999999999998
210
0
220
0
230
1
100
AcDbArc
50
240
51
270
0
ARC
5
BF
100
AcDbEntity
8
SK2
62
256
6
ByLayer
370
13
48
1
60
0
100
AcDbCircle
39
0
10
8.4818
20
0
30
0
40
16.35
210
0
220
0
230
1
100
AcDbArc
50
10.57289
51
65
0
ARC
5
C0
100
AcDbEntity
8
SK2
62
256
6
ByLayer
370
13
48
1
60
0
100
AcDbCircle
39
0
10
8.4818
20
0
30
0
40
16.35
210
0
220
0
230
1
100
AcDbArc
50
295
51
349.42711
0
POINT
5
70
100
AcDbEntity
8
80
62
256
6
ByLayer
370
18
48
1
60
0
100
AcDbPoint
10
0
20
0
30
0
39
0
210
0
220
0
230
1
50
360
0
POINT
5
72
100
AcDbEntity
8
81
62
256
6
ByLayer
370
18
48
1
60
0
100
AcDbPoint
10
8.4818
20
0
30
0
39
0
210
0
220
0
230
1
50
360
0
POINT
5
74
100
AcDbEntity
8
1
62
256
6
ByLayer
370
18
48
1
60
1
100
AcDbPoint
10
-29.5182
20
1.5
30
0
39
0
210
0
220
0
230
1
50
360
0
POINT
5
76
100
AcDbEntity
8
1
62
256
6
ByLayer
370
18
48
1
60
1
100
AcDbPoint
10
8.4818
20
0.395
30
0
39
0
210
0
220
0
230
1
50
360
0
POINT
5
77
100
AcDbEntity
8
1
62
256
6
ByLayer
370
18
48
1
60
1
100
AcDbPoint
10
8.4818
20
0.395
30
0
39
0
210
0
220
0
230
1
50
360
0
POINT
5
78
100
AcDbEntity
8
1
62
256
6
ByLayer
370
18
48
1
60
1
100
AcDbPoint
10
4.6668
20
0
30
0
39
0
210
0
220
0
230
1
50
360
0
POINT
5
79
100
AcDbEntity
8
1
62
256
6
ByLayer
370
18
48
1
60
1
100
AcDbPoint
10
8.4818
20
0.395
30
0
39
0
210
0
220
0
230
1
50
360
0
POINT
5
7A
100
AcDbEntity
8
1
62
256
6
ByLayer
370
18
48
1
60
1
100
AcDbPoint
10
3.4818
20
0
30
0
39
0
210
0
220
0
230
1
50
360
0
POINT
5
7B
100
AcDbEntity
8
1
62
256
6
ByLayer
370
18
48
1
60
1
100
AcDbPoint
10
-29.5182
20
0
30
0
39
0
210
0
220
0
230
1
50
360
0
POINT
5
7C
100
AcDbEntity
8
1
62
256
6
ByLayer
370
18
48
1
60
1
100
AcDbPoint
10
0
20
0
30
0
39
0
210
0
220
0
230
1
50
360
0
POINT
5
7D
100
AcDbEntity
8
1
62
256
6
ByLayer
370
18
48
1
60
1
100
AcDbPoint
10
8.4818
20
0.395
30
0
39
0
210
0
220
0
230
1
50
360
0
POINT
5
7E
100
AcDbEntity
8
1
62
256
6
ByLayer
370
18
48
1
60
1
100
AcDbPoint
10
0
20
0
30
0
39
0
210
0
220
0
230
1
50
360
0
SPLINE
5
C1
100
AcDbEntity
8
1
62
256
6
ByLayer
370
18
48
1
60
0
100
AcDbSpline
70
4
71
3
72
30
73
26
40
0
40
0
40
0
40
0
40
0.0004994286155457
40
0.0004994286155457
40
0.0671328000411854
40
0.0671328000411854
40
0.200399542892428
40
0.200399542892428
40
0.333666285743671
40
0.333666285743671
40
0.400299657169292
40
0.400299657169292
40
0.466933028594914
40
0.466933028594914
40
0.600199771446176
40
0.600199771446176
40
0.666833142871812
40
0.666833142871812
40
0.733466514297449
40
0.733466514297449
40
0.866733257148725
40
0.866733257148725
40
0.933366628574362
40
0.933366628574362
40
1
40
1
40
1
40
1
41
1
10
3.58523854415088
20
-0.361059484125804
30
0
41
1
10
3.58519925932328
20
-0.361077159018464
30
0
41
1
10
3.58515998043887
20
-0.361094830610909
30
0
41
1
10
3.57988094302726
20
-0.363469787797357
30
0
41
1
10
3.57473012144035
20
-0.365775721247047
30
0
41
1
10
3.55975473654817
20
-0.372413149540392
30
0
41
1
10
3.550428912797
20
-0.376455709791884
30
0
41
1
10
3.53318302347861
20
-0.383561686934513
30
0
41
1
10
3.52526127043731
20
-0.38662684119592
30
0
41
1
10
3.51456537651168
20
-0.390276354307304
30
0
41
1
10
3.51122101145248
20
-0.391325521602624
30
0
41
1
10
3.50506243010085
20
-0.393040344093095
30
0
41
1
10
3.50223529737426
20
-0.393710506769764
30
0
41
1
10
3.4945250753922
20
-0.395125142215193
30
0
41
1
10
3.4904075102651
20
-0.395277312295008
30
0
41
1
10
3.48590917257482
20
-0.394132898862239
30
0
41
1
10
3.4846859426481
20
-0.393515290988461
30
0
41
1
10
3.48287543330179
20
-0.391813755017409
30
0
41
1
10
3.4822835401479
20
-0.390734164179179
30
0
41
1
10
3.4814277161868
20
-0.386818312105561
30
0
41
1
10
3.48207796982817
20
-0.383307307990094
30
0
41
1
10
3.48490810774024
20
-0.37668456932991
30
0
41
1
10
3.48616892926876
20
-0.374240648346102
30
0
41
1
10
3.4892759397097
20
-0.36898087944877
30
0
41
1
10
3.4911232843709
20
-0.366159220495234
30
0
41
1
10
3.49325797538478
20
-0.363155204421759
30
0
0
SPLINE
5
C2
100
AcDbEntity
8
1
62
256
6
ByLayer
370
18
48
1
60
0
100
AcDbSpline
70
4
71
3
72
16
73
12
40
0
40
0
40
0
40
0
40
0.249999999999976
40
0.249999999999976
40
0.499999999999952
40
0.499999999999952
40
0.624999999999964
40
0.624999999999964
40
0.749999999999976
40
0.749999999999976
40
1
40
1
40
1
40
1
41
1
10
3.49325797539058
20
-0.363155204409623
30
0
41
1
10
3.52862554780862
20
-0.359730059257515
30
0
41
1
10
3.56416932490322
20
-0.357014655859246
30
0
41
1
10
3.63559775099378
20
-0.353559468942478
30
0
41
1
10
3.67148243685281
20
-0.352818340625618
30
0
41
1
10
3.72556823484888
20
-0.353322351031949
30
0
41
1
10
3.74364008007794
20
-0.353756856965106
30
0
41
1
10
3.77987225998569
20
-0.355146872698953
30
0
41
1
10
3.79795393649604
20
-0.356100343855871
30
0
41
1
10
3.85175564936665
20
-0.359630035820374
30
0
41
1
10
3.88717480724014
20
-0.362892267496193
30
0
41
1
10
3.9221460000052
20
-0.366680474338182
30
0
0
SPLINE
5
C3
100
AcDbEntity
8
1
62
256
6
ByLayer
370
18
48
1
60
0
100
AcDbSpline
70
4
71
3
72
30
73
26
40
0
40
0
40
0
40
0
40
0.159353414487198
40
0.159353414487198
40
0.318706828974396
40
0.318706828974396
40
0.39838353621801
40
0.39838353621801
40
0.478060243461625
40
0.478060243461625
40
0.637413657948825
40
0.637413657948825
40
0.677252011570613
40
0.677252011570613
40
0.7170903651924
40
0.7170903651924
40
0.796767072435953
40
0.796767072435953
40
0.876443779679506
40
0.876443779679506
40
0.916282133301282
40
0.916282133301282
40
0.956120486923059
40
0.956120486923059
40
1
40
1
40
1
40
1
41
1
10
3.922146
20
0.236944455962174
30
0
41
1
10
3.89204703998783
20
0.24396045710921
30
0
41
1
10
3.86255424613958
20
0.252135841071436
30
0
41
1
10
3.80477987876017
20
0.27029832827813
30
0
41
1
10
3.77661823032855
20
0.280252290221142
30
0
41
1
10
3.73576108880008
20
0.295897343806729
30
0
41
1
10
3.72232410249296
20
0.301250298452032
30
0
41
1
10
3.69617546105044
20
0.311989267017225
30
0
41
1
10
3.6834434809484
20
0.317382030514125
30
0
41
1
10
3.64630238698936
20
0.333448859658404
30
0
41
1
10
3.62293468582575
20
0.34402577525205
30
0
41
1
10
3.59570607247309
20
0.356339082470129
30
0
41
1
10
3.5903604719729
20
0.358755209998492
30
0
41
1
10
3.57988094302729
20
0.363469787797357
30
0
41
1
10
3.57473012144033
20
0.365775721247047
30
0
41
1
10
3.55975473654817
20
0.372413149540392
30
0
41
1
10
3.550428912797
20
0.376455709791884
30
0
41
1
10
3.53318302347861
20
0.383561686934513
30
0
41
1
10
3.52526127043734
20
0.38662684119592
30
0
41
1
10
3.51456537651168
20
0.390276354307304
30
0
41
1
10
3.51122101145245
20
0.391325521602624
30
0
41
1
10
3.50506243010088
20
0.393040344093095
30
0
41
1
10
3.50223529737426
20
0.393710506769764
30
0
41
1
10
3.49683444386312
20
0.394701430096035
30
0
41
1
10
3.49431380546736
20
0.394980928560926
30
0
41
1
10
3.49211935806576
20
0.394999803651501
30
0
0
SPLINE
5
C4
100
AcDbEntity
8
1
62
256
6
ByLayer
370
18
48
1
60
0
100
AcDbSpline
70
4
71
3
72
16
73
12
40
0
40
0
40
0
40
0
40
0.0415156202416768
40
0.0415156202416768
40
0.361010413494492
40
0.361010413494492
40
0.520757810120869
40
0.520757810120869
40
0.680505206747246
40
0.680505206747246
40
1
40
1
40
1
40
1
41
1
10
3.58596991285467
20
0.356009947234725
30
0
41
1
10
3.590604901674
20
0.355752713393912
30
0
41
1
10
3.59524278092419
20
0.355511548419003
30
0
41
1
10
3.63559775099378
20
0.353559468942478
30
0
41
1
10
3.67148243685281
20
0.352818340625618
30
0
41
1
10
3.72556823484888
20
0.353322351031949
30
0
41
1
10
3.74364008007794
20
0.353756856965106
30
0
41
1
10
3.77987225998569
20
0.355146872698953
30
0
41
1
10
3.79795393649604
20
0.356100343855871
30
0
41
1
10
3.85175564936665
20
0.359630035820374
30
0
41
1
10
3.88717480724014
20
0.362892267496193
30
0
41
1
10
3.9221460000052
20
0.366680474338182
30
0
0
SPLINE
5
C5
100
AcDbEntity
8
1
62
256
6
ByLayer
370
18
48
1
60
0
100
AcDbSpline
70
4
71
3
72
24
73
20
40
0
40
0
40
0
40
0
40
0.0659805372211831
40
0.0659805372211831
40
0.131961074442366
40
0.131961074442366
40
0.197941611663549
40
0.197941611663549
40
0.263922148884732
40
0.263922148884732
40
0.329902686105916
40
0.329902686105916
40
0.395883223327099
40
0.395883223327099
40
0.527844297769465
40
0.527844297769465
40
0.791766446654197
40
0.791766446654197
40
1
40
1
40
1
40
1
41
1
10
8.2976084750288
20
0.38019012763462
30
0
41
1
10
8.29124883341794
20
0.379608509339903
30
0
41
1
10
8.28517701945199
20
0.378871076221031
30
0
41
1
10
8.27350217744842
20
0.377086486328579
30
0
41
1
10
8.26785707532386
20
0.376059001413125
30
0
41
1
10
8.25662821815567
20
0.373880581627901
30
0
41
1
10
8.25103825421061
20
0.372733797044873
30
0
41
1
10
8.23969710446991
20
0.370455036632308
30
0
41
1
10
8.23397166567904
20
0.369309620995352
30
0
41
1
10
8.22249818726638
20
0.366960640800613
30
0
41
1
10
8.21675284704375
20
0.365755241256039
30
0
41
1
10
8.20532061533285
20
0.36322977098402
30
0
41
1
10
8.19962514583594
20
0.361914811807083
30
0
41
1
10
8.18254477571705
20
0.357848311237092
30
0
41
1
10
8.17112986624241
20
0.355002744133912
30
0
41
1
10
8.13683247479852
20
0.34605095070944
30
0
41
1
10
8.11399335116263
20
0.339471314865392
30
0
41
1
10
8.07319637088878
20
0.326753356960864
30
0
41
1
10
8.05522520106408
20
0.320799234614242
30
0
41
1
10
8.03725799253519
20
0.314517189462151
30
0
0
SPLINE
5
C6
100
AcDbEntity
8
1
62
256
6
ByLayer
370
18
48
1
60
0
100
AcDbSpline
70
4
71
3
72
47
73
43
40
0
40
0
40
0
40
0
40
0.0364725330720703
40
0.0364725330720703
40
0.0931506193619549
40
0.0931506193619549
40
0.121489662506897
40
0.121489662506897
40
0.14982870565184
40
0.14982870565184
40
0.178167748796782
40
0.178167748796782
40
0.206506791941724
40
0.206506791941724
40
0.263184878231609
40
0.263184878231609
40
0.319862964521494
40
0.319862964521494
40
0.376541050811379
40
0.376541050811379
40
0.404880093956318
40
0.404880093956318
40
0.433219137101257
40
0.433219137101257
40
0.546575309681007
40
0.546575309681007
40
0.603253395970885
40
0.603253395970885
40
0.659931482260763
40
0.659931482260763
40
0.688270525405702
40
0.688270525405702
40
0.716609568550642
40
0.744948611695581
40
0.744948611695581
40
0.77328765484052
40
0.77328765484052
40
0.829965741130391
40
0.829965741130391
40
0.886643827420263
40
0.886643827420263
40
1
40
1
40
1
40
1
41
1
10
6.33210360506683
20
-0.394997559886946
30
0
41
1
10
6.30270423209725
20
-0.394992066988919
30
0
41
1
10
6.27328278016992
20
-0.393899705591593
30
0
41
1
10
6.1983428687798
20
-0.388354906159122
30
0
41
1
10
6.15282024478697
20
-0.382387397573979
30
0
41
1
10
6.08435993360635
20
-0.369582712933294
30
0
41
1
10
6.06152148406497
20
-0.364687898738339
30
0
41
1
10
6.01593333359094
20
-0.353730096610121
30
0
41
1
10
5.99315908099524
20
-0.347661372537544
30
0
41
1
10
5.94760340195447
20
-0.334386653463923
30
0
41
1
10
5.92482049513617
20
-0.327181944987018
30
0
41
1
10
5.87919709737338
20
-0.311676282512337
30
0
41
1
10
5.85633787427111
20
-0.303356919088543
30
0
41
1
10
5.78793764803996
20
-0.276961662044016
30
0
41
1
10
5.74242347743868
20
-0.257502092795079
30
0
41
1
10
5.65120666302326
20
-0.215363418913853
30
0
41
1
10
5.60545728673182
20
-0.192626680169383
30
0
41
1
10
5.51437162031922
20
-0.144960670056548
30
0
41
1
10
5.46884469367836
20
-0.120097177666935
30
0
41
1
10
5.40028796798217
20
-0.0817361853232796
30
0
41
1
10
5.37745066253589
20
-0.0688003696853059
30
0
41
1
10
5.33199787997359
20
-0.0428487473263317
30
0
41
1
10
5.30935037501405
20
-0.029806006331853
30
0
41
1
10
5.19635953748244
20
0.0354801829423934
30
0
41
1
10
5.10646908272116
20
0.0874374387231001
30
0
41
1
10
4.97030275896515
20
0.1613041706008
30
0
41
1
10
4.92447572612079
20
0.185157796059599
30
0
41
1
10
4.8332639952356
20
0.22985626940573
30
0
41
1
10
4.7877354533735
20
0.250803006843313
30
0
41
1
10
4.71927588719788
20
0.279694558428787
30
0
41
1
10
4.69641392124942
20
0.288879817749262
30
0
41
1
10
4.65078612215893
20
0.306183726869989
30
0
41
1
10
4.60520636485168
20
0.322467639609897
30
0
41
1
10
4.55962991496728
20
0.336621925183096
30
0
41
1
10
4.51401077428559
20
0.34966230004963
30
0
41
1
10
4.49115011256509
20
0.355633870447434
30
0
41
1
10
4.42271418217481
20
0.371718096716762
30
0
41
1
10
4.37719981663685
20
0.379958259929026
30
0
41
1
10
4.28600970127411
20
0.391335381260944
30
0
41
1
10
4.24022797700425
20
0.394463700014484
30
0
41
1
10
4.10387491784618
20
0.39588159476969
30
0
41
1
10
4.01348336030318
20
0.386369262597555
30
0
41
1
10
3.922146
20
0.366680474337557
30
0
0
SPLINE
5
C7
100
AcDbEntity
8
1
62
256
6
ByLayer
370
18
48
1
60
0
100
AcDbSpline
70
4
71
3
72
20
73
16
40
0
40
0
40
0
40
0
40
0.124999999999994
40
0.124999999999994
40
0.249999999999988
40
0.249999999999988
40
0.499999999999976
40
0.499999999999976
40
0.624999999999982
40
0.624999999999982
40
0.749999999999988
40
0.749999999999988
40
0.874999999999994
40
0.874999999999994
40
1
40
1
40
1
40
1
41
1
10
8.43575212778578
20
0.0894995247463442
30
0
41
1
10
8.43239106114768
20
0.101359104068564
30
0
41
1
10
8.42792443260217
20
0.113069311813746
30
0
41
1
10
8.41810644675226
20
0.136511961116412
30
0
41
1
10
8.41273151660758
20
0.148239809494754
30
0
41
1
10
8.39598145955731
20
0.183643804229092
30
0
41
1
10
8.38403009293424
20
0.207486020465467
30
0
41
1
10
8.36585726056396
20
0.243721388271013
30
0
41
1
10
8.35973758912317
20
0.255890850771266
30
0
41
1
10
8.34740749895209
20
0.280486624309759
30
0
41
1
10
8.34120282805898
20
0.292898690138031
30
0
41
1
10
8.32876759054457
20
0.317830900730513
30
0
41
1
10
8.32253423187089
20
0.33035641949786
30
0
41
1
10
8.31006541009387
20
0.355368050304037
30
0
41
1
10
8.30383029772898
20
0.367852061109659
30
0
41
1
10
8.29760847502891
20
0.380190127634734
30
0
0
SPLINE
5
C8
100
AcDbEntity
8
1
62
256
6
ByLayer
370
18
48
1
60
0
100
AcDbSpline
70
4
71
3
72
70
73
66
40
0
40
0
40
0
40
0
40
0.0070863691832842
40
0.0070863691832842
40
0.0141727383665685
40
0.0141727383665685
40
0.0212591075498527
40
0.0212591075498527
40
0.028345476733137
40
0.028345476733137
40
0.0354318459164212
40
0.0354318459164212
40
0.0425182150997055
40
0.0425182150997055
40
0.056690953466274
40
0.056690953466274
40
0.0850364301994045
40
0.0850364301994045
40
0.113381906932535
40
0.113381906932535
40
0.141727383665666
40
0.141727383665666
40
0.170072860398796
40
0.170072860398796
40
0.226763813865051
40
0.226763813865051
40
0.283454767331305
40
0.283454767331305
40
0.34014572079756
40
0.34014572079756
40
0.36849119753069
40
0.36849119753069
40
0.396836674263821
40
0.396836674263821
40
0.425182150996952
40
0.425182150996952
40
0.453527627730082
40
0.453527627730082
40
0.51021858119635
40
0.51021858119635
40
0.566909534662617
40
0.566909534662617
40
0.623600488128884
40
0.623600488128884
40
0.651945964862015
40
0.651945964862015
40
0.680291441595146
40
0.680291441595146
40
0.708636918328276
40
0.708636918328276
40
0.736982395061407
40
0.736982395061407
40
0.793673348527668
40
0.793673348527668
40
0.850364301993929
40
0.850364301993929
40
0.90705525546019
40
0.90705525546019
40
0.935400732193317
40
0.935400732193317
40
0.963746208926444
40
0.963746208926444
40
0.992091685659572
40
0.992091685659572
40
1
40
1
40
1
40
1
41
1
10
8.2976084750288
20
-0.38019012763462
30
0
41
1
10
8.29124883341794
20
-0.379608509339903
30
0
41
1
10
8.28517701945245
20
-0.378871076221088
30
0
41
1
10
8.27350217744893
20
-0.377086486328636
30
0
41
1
10
8.26785707532432
20
-0.376059001413211
30
0
41
1
10
8.25662821815607
20
-0.373880581627986
30
0
41
1
10
8.25103825421107
20
-0.372733797044987
30
0
41
1
10
8.23969710447031
20
-0.370455036632393
30
0
41
1
10
8.23397166567949
20
-0.369309620995438
30
0
41
1
10
8.22249818726678
20
-0.366960640800727
30
0
41
1
10
8.21675284704426
20
-0.365755241256125
30
0
41
1
10
8.20532061533331
20
-0.363229770984134
30
0
41
1
10
8.19962514583639
20
-0.361914811807196
30
0
41
1
10
8.1825447757175
20
-0.357848311237177
30
0
41
1
10
8.17112986624286
20
-0.355002744134026
30
0
41
1
10
8.13683247479898
20
-0.346050950709554
30
0
41
1
10
8.11399335116309
20
-0.339471314865506
30
0
41
1
10
8.06838455452666
20
-0.325253332264765
30
0
41
1
10
8.04561455238328
20
-0.317589887169305
30
0
41
1
10
8.00007228103615
20
-0.301224261522378
30
0
41
1
10
7.97729086958023
20
-0.292532096383098
30
0
41
1
10
7.93164186170506
20
-0.274207419662901
30
0
41
1
10
7.90875360944139
20
-0.2645533251617
30
0
41
1
10
7.84025131571812
20
-0.234378716468569
30
0
41
1
10
7.79473209735417
20
-0.212619031499003
30
0
41
1
10
7.70362040792995
20
-0.166320457700749
30
0
41
1
10
7.65786599736791
20
-0.141877444354975
30
0
41
1
10
7.56670213631659
20
-0.0916301608056642
30
0
41
1
10
7.52118896822927
20
-0.065755709599074
30
0
41
1
10
7.45272560884362
20
-0.0263099100103261
30
0
41
1
10
7.42987658025524
20
-0.0131075541766563
30
0
41
1
10
7.38426190472202
20
0.0131971369139308
30
0
41
1
10
7.36147186378795
20
0.0263217658758208
30
0
41
1
10
7.3158800603093
20
0.0524356900839962
30
0
41
1
10
7.29307906016933
20
0.0654263132668973
30
0
41
1
10
7.24742272684969
20
0.0911980176234977
30
0
41
1
10
7.22454376582252
20
0.104000751271457
30
0
41
1
10
7.15608294364657
20
0.14176440048081
30
0
41
1
10
7.11056297612672
20
0.166059004423374
30
0
41
1
10
7.01939423339419
20
0.212296369946046
30
0
41
1
10
6.97370942321655
20
0.23430428063017
30
0
41
1
10
6.88265867621763
20
0.274677391535505
30
0
41
1
10
6.83710695046776
20
0.293020723090962
30
0
41
1
10
6.76849992739122
20
0.317519349922492
30
0
41
1
10
6.74561673273055
20
0.325174530567324
30
0
41
1
10
6.69997002627915
20
0.33936661666732
30
0
41
1
10
6.67718033120158
20
0.34591377577388
30
0
41
1
10
6.63162707081497
20
0.357866032892133
30
0
41
1
10
6.60886517609808
20
0.363271801560956
30
0
41
1
10
6.563302887172
20
0.372874163331886
30
0
41
1
10
6.54046658132617
20
0.377067479220841
30
0
41
1
10
6.47208767730959
20
0.387677328934984
30
0
41
1
10
6.42652737501172
20
0.392137835278902
30
0
41
1
10
6.33532713858042
20
0.39587133621967
30
0
41
1
10
6.28953819938371
20
0.395102443058988
30
0
41
1
10
6.19834286878006
20
0.388354906159151
30
0
41
1
10
6.15282024478719
20
0.382387397574007
30
0
41
1
10
6.08435993360652
20
0.369582712933323
30
0
41
1
10
6.06152148406514
20
0.364687898738367
30
0
41
1
10
6.01593333359114
20
0.353730096610178
30
0
41
1
10
5.99315908099541
20
0.347661372537601
30
0
41
1
10
5.94760340195467
20
0.33438665346398
30
0
41
1
10
5.92482049513634
20
0.327181944987103
30
0
41
1
10
5.89564439155322
20
0.317266093983648
30
0
41
1
10
5.88927628758753
20
0.315058975607258
30
0
41
1
10
5.88290680095525
20
0.312809658352535
30
0
0
SPLINE
5
C9
100
AcDbEntity
8
1
62
256
6
ByLayer
370
18
48
1
60
0
100
AcDbSpline
70
4
71
3
72
8
73
4
40
0
40
0
40
0
40
0
40
1
40
1
40
1
40
1
41
1
10
4.18353062801862
20
-0.39499994462463
30
0
41
1
10
4.09641620039307
20
-0.395079532948955
30
0
41
1
10
4.00971579286363
20
-0.385557121351894
30
0
41
1
10
3.922146
20
-0.366680474337557
30
0
0
SPLINE
5
CA
100
AcDbEntity
8
1
62
256
6
ByLayer
370
18
48
1
60
0
100
AcDbSpline
70
4
71
3
72
18
73
14
40
0
40
0
40
0
40
0
40
0.0237362223070555
40
0.0237362223070555
40
0.349157481538016
40
0.349157481538016
40
0.511868111153512
40
0.511868111153512
40
0.674578740769008
40
0.674578740769008
40
0.837289370384504
40
0.837289370384504
40
1
40
1
40
1
40
1
41
1
10
8.40957755640838
20
-0.154880890772745
30
0
41
1
10
8.40877272741531
20
-0.156599548994905
30
0
41
1
10
8.4079626635494
20
-0.158319563137127
30
0
41
1
10
8.39598145955736
20
-0.183643804229092
30
0
41
1
10
8.38403009293424
20
-0.207486020465467
30
0
41
1
10
8.36585726056396
20
-0.243721388271013
30
0
41
1
10
8.35973758912323
20
-0.255890850771266
30
0
41
1
10
8.34740749895209
20
-0.280486624309759
30
0
41
1
10
8.34120282805898
20
-0.29289869013806
30
0
41
1
10
8.32876759054452
20
-0.317830900730541
30
0
41
1
10
8.32253423187089
20
-0.330356419497889
30
0
41
1
10
8.31006541009387
20
-0.355368050304037
30
0
41
1
10
8.30383029772898
20
-0.367852061109659
30
0
41
1
10
8.29760847502891
20
-0.380190127634734
30
0
0
SPLINE
5
CB
100
AcDbEntity
8
1
62
256
6
ByLayer
370
18
48
1
60
0
100
AcDbSpline
70
4
71
3
72
61
73
57
40
0
40
0
40
0
40
0
40
0.0219318309745209
40
0.0219318309745209
40
0.0482289386636617
40
0.0482289386636617
40
0.100823154041949
40
0.100823154041949
40
0.153417369420237
40
0.153417369420237
40
0.179714477109381
40
0.179714477109381
40
0.206011584798525
40
0.206011584798525
40
0.258605800176813
40
0.258605800176813
40
0.284902907865959
40
0.284902907865959
40
0.311200015555106
40
0.311200015555106
40
0.363794230933406
40
0.363794230933406
40
0.416388446311706
40
0.416388446311706
40
0.442685554000855
40
0.442685554000855
40
0.468982661690005
40
0.468982661690005
40
0.521576877068305
40
0.521576877068305
40
0.547873984757458
40
0.547873984757458
40
0.57417109244661
40
0.57417109244661
40
0.62676530782491
40
0.62676530782491
40
0.67935952320321
40
0.67935952320321
40
0.73195373858151
40
0.73195373858151
40
0.784547953959809
40
0.784547953959809
40
0.810845061648959
40
0.810845061648959
40
0.837142169338109
40
0.863439277027259
40
0.863439277027259
40
0.889736384716408
40
0.889736384716408
40
0.942330600094702
40
0.942330600094702
40
0.968627707783846
40
0.968627707783846
40
0.99492481547299
40
0.99492481547299
40
1
40
1
40
1
40
1
41
1
10
5.43765014904133
20
0.394999818737574
30
0
41
1
10
5.45668400943796
20
0.394994421343512
30
0
41
1
10
5.47574455561025
20
0.394531698981098
30
0
41
1
10
5.5175693570983
20
0.392510519538206
30
0
41
1
10
5.5403285382915
20
0.390752710307623
30
0
41
1
10
5.60857038996144
20
0.383532931114502
30
0
41
1
10
5.6541155331725
20
0.376138877911444
30
0
41
1
10
5.74545744363812
20
0.356420395698734
30
0
41
1
10
5.79094887850798
20
0.344158772915165
30
0
41
1
10
5.85919208787678
20
0.322379829076255
30
0
41
1
10
5.88195842112336
20
0.314571398099957
30
0
41
1
10
5.92759141911051
20
0.2979209028843
30
0
41
1
10
5.95042688042722
20
0.289080944214987
30
0
41
1
10
6.01877157114674
20
0.261221980570951
30
0
41
1
10
6.06423273579341
20
0.240828352232739
30
0
41
1
10
6.13256236372288
20
0.207874365917832
30
0
41
1
10
6.15540971518467
20
0.19651004147417
30
0
41
1
10
6.20101863209501
20
0.173247662855658
30
0
41
1
10
6.22379687418214
20
0.161338676327176
30
0
41
1
10
6.29212181560402
20
0.124894075068397
30
0
41
1
10
6.33770409449488
20
0.0996244252073382
30
0
41
1
10
6.42903084269901
20
0.047854577224939
30
0
41
1
10
6.47456975014492
20
0.0216658254978483
30
0
41
1
10
6.54278750433971
20
-0.0179070854490533
30
0
41
1
10
6.56552979728698
20
-0.0311149978711569
30
0
41
1
10
6.61110646225663
20
-0.0574153736259859
30
0
41
1
10
6.63392152328836
20
-0.0704727190287713
30
0
41
1
10
6.70226495942492
20
-0.109051205120494
30
0
41
1
10
6.74779891869949
20
-0.134044851166351
30
0
41
1
10
6.81628145224906
20
-0.170087396527805
30
0
41
1
10
6.83916240996794
20
-0.181877144839376
30
0
41
1
10
6.88478816800611
20
-0.204800154279297
30
0
41
1
10
6.90754725575371
20
-0.215953825605737
30
0
41
1
10
6.97575948930481
20
-0.248338742592779
30
0
41
1
10
7.02124715090159
20
-0.26843705189097
30
0
41
1
10
7.11253861519279
20
-0.304730836673769
30
0
41
1
10
7.15803572842131
20
-0.320868524383087
30
0
41
1
10
7.24910726342628
20
-0.348764958447077
30
0
41
1
10
7.29485288302837
20
-0.360493082544679
30
0
41
1
10
7.38604398548281
20
-0.378967575578031
30
0
41
1
10
7.43153218220041
20
-0.385749024688494
30
0
41
1
10
7.49987773303147
20
-0.392055383228268
30
0
41
1
10
7.5227226880759
20
-0.393505633304301
30
0
41
1
10
7.56831993320654
20
-0.395080298580893
30
0
41
1
10
7.61386001462509
20
-0.395338280095189
30
0
41
1
10
7.659381774602
20
-0.392979340763532
30
0
41
1
10
7.70493883775501
20
-0.389312939587967
30
0
41
1
10
7.72775670152643
20
-0.386821593606527
30
0
41
1
10
7.79617743396179
20
-0.377404719970343
30
0
41
1
10
7.84167461317597
20
-0.368603638698346
30
0
41
1
10
7.91002029692626
20
-0.351848650166261
30
0
41
1
10
7.93281821879768
20
-0.345670134494043
30
0
41
1
10
7.97849048337386
20
-0.332152221082566
30
0
41
1
10
8.00130663075961
20
-0.324819043393717
30
0
41
1
10
8.02843455248231
20
-0.315461580425847
30
0
41
1
10
8.03282148323908
20
-0.313928677463338
30
0
41
1
10
8.03720703592896
20
-0.31237698662477
30
0
0
SPLINE
5
CC
100
AcDbEntity
8
1
62
256
6
ByLayer
370
18
48
1
60
0
100
AcDbSpline
70
4
71
3
72
42
73
38
40
0
40
0
40
0
40
0
40
0.0206658657532071
40
0.05219527056365
40
0.0837246753740933
40
0.107371728981925
40
0.131018782589758
40
0.162548187400201
40
0.194077592210644
40
0.225606997021087
40
0.25713640183153
40
0.288665806641973
40
0.304430509047194
40
0.335959913857637
40
0.367489318668081
40
0.399018723478524
40
0.430548128288967
40
0.46207753309941
40
0.477842235504631
40
0.509371640315074
40
0.540901045125517
40
0.57243044993596
40
0.603959854746403
40
0.635489259556846
40
0.659136313164679
40
0.682783366772511
40
0.714312771582954
40
0.745842176393397
40
0.77737158120384
40
0.808900986014283
40
0.832548039622115
40
0.856195093229948
40
0.887724498040391
40
0.919253902850834
40
0.950783307661277
40
0.98231271247172
40
1
40
1
40
1
40
1
41
1
10
6.39236449142368
20
0.0727947681428986
30
0
41
1
10
6.40014740295817
20
0.0720361724924601
30
0
41
1
10
6.41980451179324
20
0.0700848975563701
30
0
41
1
10
6.451335816619
20
0.0668208957513911
30
0
41
0.999999999999999
10
6.48398986521113
20
0.0632728395996481
30
0
41
1
10
6.5136752228195
20
0.0599075773810682
30
0
41
1
10
6.54336049501202
20
0.0564304475883262
30
0
41
1
10
6.57601418216473
20
0.0524797490805327
30
0
41
1
10
6.61163626373249
20
0.0480248401248673
30
0
41
1
10
6.64725823690028
20
0.0434559614592444
30
0
41
1
10
6.6828801164788
20
0.0387813983549279
30
0
41
1
10
6.71256495034749
20
0.0348095862942444
30
0
41
1
10
6.74224974407278
20
0.0307852540967133
30
0
41
1
10
6.77193450224101
20
0.0267113867894295
30
0
41
1
10
6.80755616984353
20
0.0217530897398319
30
0
41
1
10
6.84317780993646
20
0.0167298628419132
30
0
41
1
10
6.87879943720983
20
0.0116520026279545
30
0
41
1
10
6.90848412816291
20
0.0073792837099518
30
0
41
1
10
6.9381688294662
20
0.0030822366179848
30
0
41
1
10
6.96785354571019
20
-0.0012225126823182
30
0
41
1
10
7.00347524379831
20
-0.0063871807723217
30
0
41
1
10
7.03909699517138
20
-0.0115252469871905
30
0
41
1
10
7.07471881452213
20
-0.0166204991658958
30
0
41
1
10
7.10737222469697
20
-0.0212445945891488
30
0
41
1
10
7.13705721406325
20
-0.0254038130363199
30
0
41
1
10
7.16674227099767
20
-0.0295194388869504
30
0
41
1
10
7.19939592999512
20
-0.0339873109458608
30
0
41
1
10
7.23501823572955
20
-0.0387686404652641
30
0
41
1
10
7.27064069597835
20
-0.0434353474086037
30
0
41
1
10
7.30329474611369
20
-0.0476027336503648
30
0
41
1
10
7.33298021418281
20
-0.0512961499380822
30
0
41
0.999999999999999
10
7.36266569154839
20
-0.0549039669927538
30
0
41
1
10
7.39531971457765
20
-0.0587573978996545
30
0
41
1
10
7.43094228557976
20
-0.0628071680216067
30
0
41
1
10
7.46656485649108
20
-0.0666961362016138
30
0
41
1
10
7.49697439102803
20
-0.0698684996599752
30
0
41
1
10
7.51550973524914
20
-0.0717200098318358
30
0
41
1
10
7.52217088916043
20
-0.0723747479311498
30
0
0
SPLINE
5
CD
100
AcDbEntity
8
1
62
256
6
ByLayer
370
18
48
1
60
0
100
AcDbSpline
70
4
71
3
72
46
73
42
40
0
40
0
40
0
40
0
40
0.0697277210856565
40
0.0697277210856565
40
0.104591581628485
40
0.104591581628485
40
0.139455442171313
40
0.139455442171313
40
0.20918316325697
40
0.20918316325697
40
0.278910884342626
40
0.278910884342626
40
0.313774744885458
40
0.313774744885458
40
0.348638605428291
40
0.348638605428291
40
0.418366326513963
40
0.418366326513963
40
0.453230187056803
40
0.453230187056803
40
0.488094047599643
40
0.488094047599643
40
0.557821768685324
40
0.557821768685324
40
0.627549489771004
40
0.627549489771004
40
0.662413350313841
40
0.662413350313841
40
0.697277210856677
40
0.697277210856677
40
0.767004931942349
40
0.767004931942349
40
0.80186879248519
40
0.80186879248519
40
0.83673265302803
40
0.83673265302803
40
0.90646037411371
40
0.90646037411371
40
0.976188095199391
40
0.976188095199391
40
1
40
1
40
1
40
1
41
1
10
3.92214599999997
20
0.236944455962174
30
0
41
1
10
3.9677779075221
20
0.21577770972047
30
0
41
1
10
4.01331454653825
20
0.19315678962127
30
0
41
1
10
4.08174510048704
20
0.157469722330291
30
0
41
1
10
4.10459989195792
20
0.145268837448953
30
0
41
1
10
4.15019661540228
20
0.120466354309656
30
0
41
1
10
4.1729531692103
20
0.107849353356727
30
0
41
1
10
4.2411825860321
20
0.0694927859492225
30
0
41
1
10
4.28673438338765
20
0.043349509016366
30
0
41
1
10
4.37806927690028
20
-0.0092772711881537
30
0
41
1
10
4.42355758895707
20
-0.035611745093945
30
0
41
1
10
4.49180872759419
20
-0.0746450081384467
30
0
41
1
10
4.51458182610537
20
-0.0875441938946722
30
0
41
1
10
4.56022884552959
20
-0.113024079363839
30
0
41
1
10
4.58307236257201
20
-0.125591412404873
30
0
41
1
10
4.65145070413823
20
-0.16251750626779
30
0
41
1
10
4.69693751350735
20
-0.186168688094512
30
0
41
1
10
4.76529890689463
20
-0.21974310629264
30
0
41
1
10
4.78815088339204
20
-0.23060493838662
30
0
41
1
10
4.83377320207674
20
-0.251439879598394
30
0
41
1
10
4.85655550735683
20
-0.261433994859686
30
0
41
1
10
4.92488392404655
20
-0.290065805490599
30
0
41
1
10
4.97045055326413
20
-0.307372906073056
30
0
41
1
10
5.06173080312416
20
-0.337828305423443
30
0
41
1
10
5.1072369552206
20
-0.350799214952758
30
0
41
1
10
5.17558162972117
20
-0.366685235851037
30
0
41
1
10
5.19837572875682
20
-0.371386072433296
30
0
41
1
10
5.24403550081612
20
-0.379558706583424
30
0
41
1
10
5.26686858097239
20
-0.383026706563584
30
0
41
1
10
5.33518849366001
20
-0.391483428804492
30
0
41
1
10
5.38067568813457
20
-0.39452496596661
30
0
41
1
10
5.44909482525352
20
-0.395160539621173
30
0
41
1
10
5.47195892737361
20
-0.394714639095525
30
0
41
1
10
5.5175693570983
20
-0.392510519538206
30
0
41
1
10
5.54032853829153
20
-0.390752710307623
30
0
41
1
10
5.60857038996142
20
-0.383532931114502
30
0
41
1
10
5.65411553317247
20
-0.376138877911444
30
0
41
1
10
5.74545744363809
20
-0.356420395698734
30
0
41
1
10
5.79094887850795
20
-0.344158772915165
30
0
41
1
10
5.85198098237569
20
-0.324681160786469
30
0
41
1
10
5.86752628844738
20
-0.319466845710565
30
0
41
1
10
5.88309032774177
20
-0.314006716529008
30
0
0
SPLINE
5
CE
100
AcDbEntity
8
1
62
256
6
ByLayer
370
18
48
1
60
0
100
AcDbSpline
70
4
71
3
72
33
73
29
40
0
40
0
40
0
40
0
40
0.0389241294712365
40
0.135031716524115
40
0.135031716524115
40
0.231139303576993
40
0.231139303576993
40
0.42335447768275
40
0.42335447768275
40
0.519462064735629
40
0.519462064735629
40
0.615569651788507
40
0.615569651788507
40
0.807784825894264
40
0.807784825894264
40
0.855838619420698
40
0.855838619420698
40
0.879865516183915
40
0.879865516183915
40
0.903892412947132
40
0.903892412947132
40
0.927919309710348
40
0.927919309710348
40
0.951946206473566
40
0.951946206473566
40
0.975973103236783
40
0.975973103236783
40
1
40
1
40
1
40
1
41
1
10
7.58619115588962
20
0.395000012257384
30
0
41
1
10
7.5954143963236
20
0.395002186746581
30
0
41
1
10
7.62740260637301
20
0.394636502476232
30
0
41
1
10
7.65938177460194
20
0.392979340763532
30
0
41
1
10
7.70493883775501
20
0.389312939587967
30
0
41
1
10
7.72775670152637
20
0.386821593606527
30
0
41
1
10
7.79617743396184
20
0.377404719970372
30
0
41
1
10
7.84167461317597
20
0.368603638698346
30
0
41
1
10
7.91002029692626
20
0.351848650166261
30
0
41
1
10
7.93281821879768
20
0.345670134494043
30
0
41
1
10
7.97849048337386
20
0.332152221082566
30
0
41
1
10
8.00130663075961
20
0.324819043393717
30
0
41
1
10
8.06952471383843
20
0.301288004316206
30
0
41
1
10
8.11482839326922
20
0.283547341807235
30
0
41
1
10
8.17158957758031
20
0.259266477858319
30
0
41
1
10
8.18293122085132
20
0.254282953215466
30
0
41
1
10
8.19991902228284
20
0.246599262024631
30
0
41
1
10
8.20558623085785
20
0.244015079858684
30
0
41
1
10
8.21696638668939
20
0.238853846373701
30
0
41
1
10
8.22268749100672
20
0.236288876475641
30
0
41
1
10
8.23411586762805
20
0.231083769667691
30
0
41
1
10
8.23982072619853
20
0.228440223010892
30
0
41
1
10
8.25112646030507
20
0.222940374682054
30
0
41
1
10
8.25670214445014
20
0.220045375451889
30
0
41
1
10
8.26790831730258
20
0.214270785489902
30
0
41
1
10
8.27354464337375
20
0.211399468917676
30
0
41
1
10
8.28520126979711
20
0.206193061391872
30
0
41
1
10
8.29126302857472
20
0.2039234070117
30
0
41
1
10
8.2976084750288
20
0.202085147919831
30
0
0
SPLINE
5
CF
100
AcDbEntity
8
1
62
256
6
ByLayer
370
18
48
1
60
0
100
AcDbSpline
70
4
71
3
72
20
73
16
40
0
40
0
40
0
40
0
40
0.125000000000006
40
0.125000000000006
40
0.250000000000012
40
0.250000000000012
40
0.375000000000019
40
0.375000000000019
40
0.500000000000025
40
0.500000000000025
40
0.750000000000012
40
0.750000000000012
40
0.875000000000006
40
0.875000000000006
40
1
40
1
40
1
40
1
41
1
10
8.2976084750288
20
0.202085147919831
30
0
41
1
10
8.3037890146808
20
0.193310428424098
30
0
41
1
10
8.30995730936453
20
0.185454853242646
30
0
41
1
10
8.32229335688916
20
0.170990428290906
30
0
41
1
10
8.32846052659167
20
0.164378777217166
30
0
41
1
10
8.34079416977229
20
0.152026657292339
30
0
41
1
10
8.34696052660863
20
0.146288139964781
30
0
41
1
10
8.35928049797124
20
0.135458328998027
30
0
41
1
10
8.36544342754686
20
0.130347022989468
30
0
41
1
10
8.38370356424005
20
0.116253963537304
30
0
41
1
10
8.39566562831092
20
0.108561686019812
30
0
41
1
10
8.41248482870444
20
0.099532917698383
30
0
41
1
10
8.41790056982708
20
0.0969349380287383
30
0
41
1
10
8.42783195389822
20
0.0925755995620534
30
0
41
1
10
8.43237780400969
20
0.0908129459190263
30
0
41
1
10
8.43575212778578
20
0.0894995247463442
30
0
0
SPLINE
5
D0
100
AcDbEntity
8
1
62
256
6
ByLayer
370
18
48
1
60
0
100
AcDbSpline
70
4
71
3
72
42
73
38
40
0
40
0
40
0
40
0
40
0.0201774444729378
40
0.0522249729309514
40
0.0842725013889649
40
0.116320029846979
40
0.148367558304992
40
0.172403204648502
40
0.196438850992012
40
0.228486379450026
40
0.26053390790804
40
0.292581436366053
40
0.324628964824067
40
0.348664611167577
40
0.372700257511087
40
0.404747785969101
40
0.436795314427114
40
0.468842842885128
40
0.500890371343142
40
0.532937899801155
40
0.548961664030162
40
0.581009192488176
40
0.613056720946189
40
0.645104249404203
40
0.677151777862216
40
0.70919930632023
40
0.725223070549237
40
0.75727059900725
40
0.789318127465264
40
0.821365655923278
40
0.853413184381291
40
0.885460712839305
40
0.909496359182815
40
0.933532005526325
40
0.965579533984339
40
0.997627062442352
40
1
40
1
40
1
40
1
41
1
10
4.25594058629346
20
0.0714587408330374
30
0
41
1
10
4.26341670736303
20
0.0707138169214261
30
0
41
1
10
4.28276703795481
20
0.0687534067942011
30
0
41
1
10
4.3139915780267
20
0.0654579990853108
30
0
41
1
10
4.3496142065342
20
0.0615227792532096
30
0
41
1
10
4.38523683503942
20
0.0574200869763785
30
0
41
1
10
4.41789091116985
20
0.0535133857607093
30
0
41
1
10
4.44757643492457
20
0.0498526023839077
30
0
41
1
10
4.47726195867935
20
0.0460988439219818
30
0
41
1
10
4.50991603480958
20
0.0418744509017301
30
0
41
1
10
4.54553866331531
20
0.0371613228548426
30
0
41
1
10
4.58116129182102
20
0.0323531035533904
30
0
41
1
10
4.61381536795139
20
0.0278681702892811
30
0
41
1
10
4.64350089170577
20
0.0237365864814194
30
0
41
1
10
4.67318641546206
20
0.019564746155595
30
0
41
1
10
4.70584049158771
20
0.0149287079309488
30
0
41
1
10
4.74146312010615
20
0.0098174576602048
30
0
41
1
10
4.77708574857078
20
0.004679287360517
30
0
41
1
10
4.81270837724639
20
-0.0004575080934615
30
0
41
1
10
4.84239390024945
20
-0.0047320628907528
30
0
41
1
10
4.87207942769359
20
-0.0089969112818267
30
0
41
1
10
4.9017648633185
20
-0.0132469403284858
30
0
41
1
10
4.93738725408363
20
-0.0183132310898486
30
0
41
1
10
4.97300952567136
20
-0.0233346657256846
30
0
41
1
10
5.00863169124884
20
-0.0283013151834268
30
0
41
1
10
5.03831675179279
20
-0.0323827267564525
30
0
41
1
10
5.06800176245233
20
-0.036397597905335
30
0
41
1
10
5.09768672732037
20
-0.0403486374933948
30
0
41
1
10
5.1333086249987
20
-0.0449763465742592
30
0
41
1
10
5.16893047561601
20
-0.0494812136581402
30
0
41
1
10
5.20455229227431
20
-0.0538540806067545
30
0
41
1
10
5.23720560509233
20
-0.0577318175004677
30
0
41
1
10
5.26689042927217
20
-0.0611479073398584
30
0
41
1
10
5.29657525474664
20
-0.0644676155577883
30
0
41
1
10
5.32922857231168
20
-0.0679753626380944
30
0
41
1
10
5.3538556542978
20
-0.0704887554624349
30
0
41
1
10
5.36660880161622
20
-0.071752652862358
30
0
41
1
10
5.36748800015658
20
-0.071839606075855
30
0
0
LINE
5
7F
100
AcDbEntity
8
1
62
256
6
ByLayer
370
18
48
1
60
0
100
AcDbLine
10
0
20
-1.499988
30
0
11
0
21
0
31
0
39
0
210
0
220
0
230
1
0
LINE
5
80
100
AcDbEntity
8
1
62
256
6
ByLayer
370
18
48
1
60
0
100
AcDbLine
10
0
20
0
30
0
11
0
21
1.499988
31
0
39
0
210
0
220
0
230
1
0
LINE
5
81
100
AcDbEntity
8
1
62
256
6
ByLayer
370
18
48
1
60
0
100
AcDbLine
10
8.297608
20
0.202085
30
0
11
8.297608
21
-0.38019
31
0
39
0
210
0
220
0
230
1
0
LINE
5
82
100
AcDbEntity
8
1
62
256
6
ByLayer
370
18
48
1
60
0
100
AcDbLine
10
3.922146
20
0.36668
30
0
11
3.922146
21
0.22853
31
0
39
0
210
0
220
0
230
1
0
LINE
5
83
100
AcDbEntity
8
1
62
256
6
ByLayer
370
13
48
1
60
0
100
AcDbLine
10
2.181844
20
0.395
30
0
11
2.181844
21
-0.395
31
0
39
0
210
0
220
0
230
1
0
LINE
5
84
100
AcDbEntity
8
1
62
256
6
ByLayer
370
13
48
1
60
0
100
AcDbLine
10
1.681844
20
0.528975
30
0
11
1.681844
21
-0.528975
31
0
39
0
210
0
220
0
230
1
0
LINE
5
85
100
AcDbEntity
8
SK1
62
256
6
ByLayer
370
18
48
1
60
0
100
AcDbLine
10
-29.5182
20
1.326795
30
0
11
-29.5182
21
-1.326795
31
0
39
0
210
0
220
0
230
1
0
LINE
5
87
100
AcDbEntity
8
SK1
62
256
6
ByLayer
370
18
48
1
60
0
100
AcDbLine
10
-29.2182
20
1.5
30
0
11
-29.2182
21
-1.5
31
0
39
0
210
0
220
0
230
1
0
LINE
5
88
100
AcDbEntity
8
SK1
62
256
6
ByLayer
370
18
48
1
60
0
100
AcDbLine
10
0
20
-1.499988
30
0
11
0
21
0
31
0
39
0
210
0
220
0
230
1
0
LINE
5
89
100
AcDbEntity
8
SK1
62
256
6
ByLayer
370
18
48
1
60
0
100
AcDbLine
10
0
20
0
30
0
11
0
21
1.499988
31
0
39
0
210
0
220
0
230
1
0
LINE
5
8A
100
AcDbEntity
8
SK1
62
256
6
ByLayer
370
18
48
1
60
0
100
AcDbLine
10
-2.1E-05
20
1.5
30
0
11
-2.1E-05
21
-1.5
31
0
39
0
210
0
220
0
230
1
0
LINE
5
8B
100
AcDbEntity
8
1
62
256
6
ByLayer
370
18
48
1
60
0
100
AcDbLine
10
1.681844
20
0.528975
30
0
11
0
21
1.499988
31
0
39
0
210
0
220
0
230
1
0
LINE
5
8C
100
AcDbEntity
8
1
62
256
6
ByLayer
370
18
48
1
60
0
100
AcDbLine
10
0
20
-1.499988
30
0
11
1.681844
21
-0.528975
31
0
39
0
210
0
220
0
230
1
0
LINE
5
8D
100
AcDbEntity
8
1
62
256
6
ByLayer
370
18
48
1
60
0
100
AcDbLine
10
8.4818
20
0
30
0
11
8.409383
21
0.155298
31
0
39
0
210
0
220
0
230
1
0
LINE
5
8E
100
AcDbEntity
8
1
62
256
6
ByLayer
370
18
48
1
60
0
100
AcDbLine
10
8.409383
20
-0.155298
30
0
11
8.4818
21
0
31
0
39
0
210
0
220
0
230
1
0
LINE
5
8F
100
AcDbEntity
8
1
62
256
6
ByLayer
370
18
48
1
60
0
100
AcDbLine
10
2.181844
20
-0.395
30
0
11
3.495877
21
-0.395
31
0
39
0
210
0
220
0
230
1
0
LINE
5
90
100
AcDbEntity
8
1
62
256
6
ByLayer
370
18
48
1
60
0
100
AcDbLine
10
4.183155
20
-0.395
30
0
11
5.437529
21
-0.395
31
0
39
0
210
0
220
0
230
1
0
LINE
5
91
100
AcDbEntity
8
1
62
256
6
ByLayer
370
18
48
1
60
0
100
AcDbLine
10
6.332172
20
-0.395
30
0
11
7.58631
21
-0.395
31
0
39
0
210
0
220
0
230
1
0
LINE
5
92
100
AcDbEntity
8
1
62
256
6
ByLayer
370
18
48
1
60
0
100
AcDbLine
10
7.58631
20
0.395
30
0
11
6.332172
21
0.395
31
0
39
0
210
0
220
0
230
1
0
LINE
5
93
100
AcDbEntity
8
1
62
256
6
ByLayer
370
18
48
1
60
0
100
AcDbLine
10
5.437529
20
0.395
30
0
11
4.183155
21
0.395
31
0
39
0
210
0
220
0
230
1
0
LINE
5
94
100
AcDbEntity
8
1
62
256
6
ByLayer
370
18
48
1
60
0
100
AcDbLine
10
3.495877
20
0.395
30
0
11
2.181844
21
0.395
31
0
39
0
210
0
220
0
230
1
0
LINE
5
95
100
AcDbEntity
8
SK1
62
256
6
ByLayer
370
18
48
1
60
0
100
AcDbLine
10
-29.5182
20
-1.326795
30
0
11
-29.2182
21
-1.5
31
0
39
0
210
0
220
0
230
1
0
LINE
5
96
100
AcDbEntity
8
SK1
62
256
6
ByLayer
370
18
48
1
60
0
100
AcDbLine
10
-29.2182
20
1.5
30
0
11
-29.5182
21
1.326795
31
0
39
0
210
0
220
0
230
1
0
LINE
5
97
100
AcDbEntity
8
SK1
62
256
6
ByLayer
370
18
48
1
60
0
100
AcDbLine
10
-29.2182
20
-1.5
30
0
11
-2.1E-05
21
-1.5
31
0
39
0
210
0
220
0
230
1
0
LINE
5
98
100
AcDbEntity
8
SK1
62
256
6
ByLayer
370
18
48
1
60
0
100
AcDbLine
10
-2.1E-05
20
1.5
30
0
11
-29.2182
21
1.5
31
0
39
0
210
0
220
0
230
1
0
LINE
5
99
100
AcDbEntity
8
SK1
62
256
6
ByLayer
370
18
48
1
60
0
100
AcDbLine
10
0
20
1.499988
30
0
11
-2.1E-05
21
1.5
31
0
39
0
210
0
220
0
230
1
0
LINE
5
9A
100
AcDbEntity
8
SK1
62
256
6
ByLayer
370
18
48
1
60
0
100
AcDbLine
10
-2.1E-05
20
-1.5
30
0
11
0
21
-1.499988
31
0
39
0
210
0
220
0
230
1
0
LINE
5
9B
100
AcDbEntity
8
4
62
256
6
ByLayer
370
18
48
0.05
60
0
100
AcDbLine
10
0
20
0
30
0
11
8.4818
21
0
31
0
39
0
210
0
220
0
230
1
0
LINE
5
9D
100
AcDbEntity
8
81
62
256
6
ByLayer
370
18
48
1
60
0
100
AcDbLine
10
8.4818
20
0
30
0
11
11.4818
21
0
31
0
39
0
210
0
220
0
230
1
0
LINE
5
9E
100
AcDbEntity
8
80
62
256
6
ByLayer
370
18
48
1
60
0
100
AcDbLine
10
0
20
0
30
0
11
-3
21
0
31
0
39
0
210
0
220
0
230
1
0
LINE
5
9F
100
AcDbEntity
8
SK4
62
256
6
ByLayer
370
18
48
0.05
60
0
100
AcDbLine
10
-32.5182
20
0
30
0
11
11.4818
21
0
31
0
39
0
210
0
220
0
230
1
0
LINE
5
A1
100
AcDbEntity
8
SK2
62
256
6
ByLayer
370
13
48
1
60
0
100
AcDbLine
10
-34.0182
20
-9
30
0
11
-34.0182
21
21.782741
31
0
39
0
210
0
220
0
230
1
0
LINE
5
A3
100
AcDbEntity
8
SK2
62
256
6
ByLayer
370
13
48
1
60
0
100
AcDbLine
10
-31.1057
20
-1.5
30
0
11
-36.0182
21
-1.5
31
0
39
0
210
0
220
0
230
1
0
LINE
5
A4
100
AcDbEntity
8
SK2
62
256
6
ByLayer
370
13
48
1
60
0
100
AcDbLine
10
-31.1057
20
1.5
30
0
11
-36.0182
21
1.5
31
0
39
0
210
0
220
0
230
1
0
LINE
5
A5
100
AcDbEntity
8
1
62
256
6
ByLayer
370
18
48
1
60
1
100
AcDbLine
10
-34.0182
20
-1.5
30
0
11
-33.557416
21
-4.999998
31
0
39
0
210
0
220
0
230
1
0
LINE
5
A6
100
AcDbEntity
8
1
62
256
6
ByLayer
370
18
48
1
60
1
100
AcDbLine
10
-33.557416
20
-4.999998
30
0
11
-34.478984
21
-5.000002
31
0
39
0
210
0
220
0
230
1
0
LINE
5
A7
100
AcDbEntity
8
1
62
256
6
ByLayer
370
18
48
1
60
1
100
AcDbLine
10
-34.478984
20
-5.000002
30
0
11
-34.0182
21
-1.5
31
0
39
0
210
0
220
0
230
1
0
LINE
5
A8
100
AcDbEntity
8
1
62
256
6
ByLayer
370
18
48
1
60
1
100
AcDbLine
10
-34.0182
20
1.5
30
0
11
-34.478984
21
4.999998
31
0
39
0
210
0
220
0
230
1
0
LINE
5
A9
100
AcDbEntity
8
1
62
256
6
ByLayer
370
18
48
1
60
1
100
AcDbLine
10
-34.478984
20
4.999998
30
0
11
-33.557416
21
5.000002
31
0
39
0
210
0
220
0
230
1
0
LINE
5
AA
100
AcDbEntity
8
1
62
256
6
ByLayer
370
18
48
1
60
1
100
AcDbLine
10
-33.557416
20
5.000002
30
0
11
-34.0182
21
1.5
31
0
39
0
210
0
220
0
230
1
0
LINE
5
AB
100
AcDbEntity
8
2
62
256
6
ByLayer
370
13
48
1
60
0
100
AcDbLine
10
13.9818
20
-7.895
30
0
11
13.9818
21
30.387741
31
0
39
0
210
0
220
0
230
1
0
LINE
5
AD
100
AcDbEntity
8
2
62
256
6
ByLayer
370
13
48
1
60
0
100
AcDbLine
10
10.0693
20
-0.395
30
0
11
15.9818
21
-0.395
31
0
39
0
210
0
220
0
230
1
0
LINE
5
AE
100
AcDbEntity
8
2
62
256
6
ByLayer
370
13
48
1
60
0
100
AcDbLine
10
10.0693
20
0.395
30
0
11
15.9818
21
0.395
31
0
39
0
210
0
220
0
230
1
0
LINE
5
AF
100
AcDbEntity
8
1
62
256
6
ByLayer
370
18
48
1
60
1
100
AcDbLine
10
13.9818
20
-0.395
30
0
11
14.442584
21
-3.894998
31
0
39
0
210
0
220
0
230
1
0
LINE
5
B0
100
AcDbEntity
8
1
62
256
6
ByLayer
370
18
48
1
60
1
100
AcDbLine
10
14.442584
20
-3.894998
30
0
11
13.521016
21
-3.895002
31
0
39
0
210
0
220
0
230
1
0
LINE
5
B1
100
AcDbEntity
8
1
62
256
6
ByLayer
370
18
48
1
60
1
100
AcDbLine
10
13.521016
20
-3.895002
30
0
11
13.9818
21
-0.395
31
0
39
0
210
0
220
0
230
1
0
LINE
5
B2
100
AcDbEntity
8
1
62
256
6
ByLayer
370
18
48
1
60
1
100
AcDbLine
10
13.9818
20
0.395
30
0
11
13.521016
21
3.894998
31
0
39
0
210
0
220
0
230
1
0
LINE
5
B3
100
AcDbEntity
8
1
62
256
6
ByLayer
370
18
48
1
60
1
100
AcDbLine
10
13.521016
20
3.894998
30
0
11
14.442584
21
3.895002
31
0
39
0
210
0
220
0
230
1
0
LINE
5
B4
100
AcDbEntity
8
1
62
256
6
ByLayer
370
18
48
1
60
1
100
AcDbLine
10
14.442584
20
3.895002
30
0
11
13.9818
21
0.395
31
0
39
0
210
0
220
0
230
1
0
LINE
5
B5
100
AcDbEntity
8
SK2
62
256
6
ByLayer
370
13
48
1
60
0
100
AcDbLine
10
9.152706
20
-1.438764
30
0
11
16.236845
21
-16.630748
31
0
39
0
210
0
220
0
230
1
0
LINE
5
B6
100
AcDbEntity
8
SK2
62
256
6
ByLayer
370
13
48
1
60
0
100
AcDbLine
10
9.152706
20
1.438764
30
0
11
16.236845
21
16.630748
31
0
39
0
210
0
220
0
230
1
0
LINE
5
B7
100
AcDbEntity
8
1
62
256
6
ByLayer
370
18
48
1
60
1
100
AcDbLine
10
15.391609
20
-14.818132
30
0
11
18.263642
21
-12.765394
31
0
39
0
210
0
220
0
230
1
0
LINE
5
B8
100
AcDbEntity
8
1
62
256
6
ByLayer
370
18
48
1
60
1
100
AcDbLine
10
18.263642
20
-12.765394
30
0
11
18.697071
21
-13.578675
31
0
39
0
210
0
220
0
230
1
0
LINE
5
B9
100
AcDbEntity
8
1
62
256
6
ByLayer
370
18
48
1
60
1
100
AcDbLine
10
18.697071
20
-13.578675
30
0
11
15.391609
21
-14.818132
31
0
39
0
210
0
220
0
230
1
0
LINE
5
BA
100
AcDbEntity
8
1
62
256
6
ByLayer
370
18
48
1
60
1
100
AcDbLine
10
15.391609
20
14.818132
30
0
11
18.697068
21
13.578677
31
0
39
0
210
0
220
0
230
1
0
LINE
5
BB
100
AcDbEntity
8
1
62
256
6
ByLayer
370
18
48
1
60
1
100
AcDbLine
10
18.697068
20
13.578677
30
0
11
18.263645
21
12.765392
31
0
39
0
210
0
220
0
230
1
0
LINE
5
BC
100
AcDbEntity
8
1
62
256
6
ByLayer
370
18
48
1
60
1
100
AcDbLine
10
18.263645
20
12.765392
30
0
11
15.391609
21
14.818132
31
0
39
0
210
0
220
0
230
1
0
LINE
5
D5
100
AcDbEntity
8
1
62
256
6
ByLayer
370
18
48
1
60
1
100
AcDbLine
10
-34.0182
20
-1.5
30
0
11
-33.557416
21
-4.999998
31
0
39
0
210
0
220
0
230
1
0
LINE
5
D6
100
AcDbEntity
8
1
62
256
6
ByLayer
370
18
48
1
60
1
100
AcDbLine
10
-33.557416
20
-4.999998
30
0
11
-34.478984
21
-5.000002
31
0
39
0
210
0
220
0
230
1
0
LINE
5
D7
100
AcDbEntity
8
1
62
256
6
ByLayer
370
18
48
1
60
1
100
AcDbLine
10
-34.478984
20
-5.000002
30
0
11
-34.0182
21
-1.5
31
0
39
0
210
0
220
0
230
1
0
LINE
5
D9
100
AcDbEntity
8
1
62
256
6
ByLayer
370
18
48
1
60
1
100
AcDbLine
10
-34.0182
20
1.5
30
0
11
-34.478984
21
4.999998
31
0
39
0
210
0
220
0
230
1
0
LINE
5
DA
100
AcDbEntity
8
1
62
256
6
ByLayer
370
18
48
1
60
1
100
AcDbLine
10
-34.478984
20
4.999998
30
0
11
-33.557416
21
5.000002
31
0
39
0
210
0
220
0
230
1
0
LINE
5
DB
100
AcDbEntity
8
1
62
256
6
ByLayer
370
18
48
1
60
1
100
AcDbLine
10
-33.557416
20
5.000002
30
0
11
-34.0182
21
1.5
31
0
39
0
210
0
220
0
230
1
0
LINE
5
DF
100
AcDbEntity
8
1
62
256
6
ByLayer
370
18
48
1
60
1
100
AcDbLine
10
13.9818
20
-0.395
30
0
11
14.442584
21
-3.894998
31
0
39
0
210
0
220
0
230
1
0
LINE
5
E0
100
AcDbEntity
8
1
62
256
6
ByLayer
370
18
48
1
60
1
100
AcDbLine
10
14.442584
20
-3.894998
30
0
11
13.521016
21
-3.895002
31
0
39
0
210
0
220
0
230
1
0
LINE
5
E1
100
AcDbEntity
8
1
62
256
6
ByLayer
370
18
48
1
60
1
100
AcDbLine
10
13.521016
20
-3.895002
30
0
11
13.9818
21
-0.395
31
0
39
0
210
0
220
0
230
1
0
LINE
5
E3
100
AcDbEntity
8
1
62
256
6
ByLayer
370
18
48
1
60
1
100
AcDbLine
10
13.9818
20
0.395
30
0
11
13.521016
21
3.894998
31
0
39
0
210
0
220
0
230
1
0
LINE
5
E4
100
AcDbEntity
8
1
62
256
6
ByLayer
370
18
48
1
60
1
100
AcDbLine
10
13.521016
20
3.894998
30
0
11
14.442584
21
3.895002
31
0
39
0
210
0
220
0
230
1
0
LINE
5
E5
100
AcDbEntity
8
1
62
256
6
ByLayer
370
18
48
1
60
1
100
AcDbLine
10
14.442584
20
3.895002
30
0
11
13.9818
21
0.395
31
0
39
0
210
0
220
0
230
1
0
LINE
5
E8
100
AcDbEntity
8
1
62
256
6
ByLayer
370
18
48
1
60
1
100
AcDbLine
10
15.391609
20
-14.818132
30
0
11
18.263642
21
-12.765394
31
0
39
0
210
0
220
0
230
1
0
LINE
5
E9
100
AcDbEntity
8
1
62
256
6
ByLayer
370
18
48
1
60
1
100
AcDbLine
10
18.263642
20
-12.765394
30
0
11
18.697071
21
-13.578675
31
0
39
0
210
0
220
0
230
1
0
LINE
5
EA
100
AcDbEntity
8
1
62
256
6
ByLayer
370
18
48
1
60
1
100
AcDbLine
10
18.697071
20
-13.578675
30
0
11
15.391609
21
-14.818132
31
0
39
0
210
0
220
0
230
1
0
LINE
5
EC
100
AcDbEntity
8
1
62
256
6
ByLayer
370
18
48
1
60
1
100
AcDbLine
10
15.391609
20
14.818132
30
0
11
18.697068
21
13.578677
31
0
39
0
210
0
220
0
230
1
0
LINE
5
ED
100
AcDbEntity
8
1
62
256
6
ByLayer
370
18
48
1
60
1
100
AcDbLine
10
18.697068
20
13.578677
30
0
11
18.263645
21
12.765392
31
0
39
0
210
0
220
0
230
1
0
LINE
5
EE
100
AcDbEntity
8
1
62
256
6
ByLayer
370
18
48
1
60
1
100
AcDbLine
10
18.263645
20
12.765392
30
0
11
15.391609
21
14.818132
31
0
39
0
210
0
220
0
230
1
0
MTEXT
5
D1
100
AcDbEntity
8
SK2
62
256
6
ByLayer
370
18
48
1
60
0
100
AcDbMText
10
-35.359314
20
6.658437
30
0
210
0
220
0
230
1
1
%%c
40
3
41
0
44
1.084337
50
90
71
7
72
5
7
iso_b_vert
0
MTEXT
5
D4
100
AcDbEntity
8
SK2
62
256
6
ByLayer
370
18
48
1
60
0
100
AcDbMText
10
-35.359314
20
12.635
30
0
210
0
220
0
230
1
1
\W0.7468;3.000
40
3
41
0
44
1.084337
50
90
71
7
72
5
7
iso_b_vert
0
MTEXT
5
DD
100
AcDbEntity
8
2
62
256
6
ByLayer
370
18
48
1
60
0
100
AcDbMText
10
12.640686
20
15.263437
30
0
210
0
220
0
230
1
1
%%c
40
3
41
0
44
1.084337
50
90
71
7
72
5
7
iso_b_vert
0
MTEXT
5
DE
100
AcDbEntity
8
2
62
256
6
ByLayer
370
18
48
1
60
0
100
AcDbMText
10
12.640686
20
21.24
30
0
210
0
220
0
230
1
1
\W0.7468;0.790
40
3
41
0
44
1.084337
50
90
71
7
72
5
7
iso_b_vert
0
MTEXT
5
E7
100
AcDbEntity
8
SK2
62
256
6
ByLayer
370
18
48
1
60
0
100
AcDbMText
10
21.549086
20
-2.114886
30
0
210
0
220
0
230
1
1
\W0.6747;130%%d
40
3
41
0
44
1.084337
50
0
71
7
72
5
7
iso_b_vert
0
MTEXT
5
F0
100
AcDbEntity
8
SK6
62
256
6
ByLayer
370
18
48
1
60
0
100
AcDbMText
10
-38.699739
20
-42.114886
30
0
210
0
220
0
230
1
1
\W0.7776;462.1-0079-003A0-XM X0BM
40
3
41
0
44
1.084337
50
0
71
7
72
5
7
iso_b_vert
0
HATCH
5
D8
100
AcDbEntity
8
SK2
62
256
6
ByLayer
370
13
48
1
60
0
100
AcDbHatch
10
0
20
0
30
0
210
0
220
0
230
1
2
ANSI31
70
0
71
0
91
1
92
5
93
3
72
1
10
-34.0182
20
-1.5
11
-33.5574162584472
21
-4.99999830744682
72
1
10
-33.5574162584472
20
-4.99999830744682
11
-34.4789837415528
21
-5.00000169255318
72
1
10
-34.4789837415528
20
-5.00000169255318
11
-34.0182
21
-1.5
97
0
75
0
76
1
52
0
41
0.0062
77
0
78
1
53
45
43
0
44
0
45
-0.0139193969876572
46
0.0139193969876572
79
0
47
0
98
1
10
0
20
0
0
HATCH
5
DC
100
AcDbEntity
8
SK2
62
256
6
ByLayer
370
13
48
1
60
0
100
AcDbHatch
10
0
20
0
30
0
210
0
220
0
230
1
2
ANSI31
70
0
71
0
91
1
92
5
93
3
72
1
10
-34.0182
20
1.5
11
-34.4789837415528
21
4.99999830744682
72
1
10
-34.4789837415528
20
4.99999830744682
11
-33.5574162584472
21
5.00000169255318
72
1
10
-33.5574162584472
20
5.00000169255318
11
-34.0182
21
1.5
97
0
75
0
76
1
52
0
41
0.0062
77
0
78
1
53
45
43
0
44
0
45
-0.0139193969876572
46
0.0139193969876572
79
0
47
0
98
1
10
0
20
0
0
HATCH
5
E2
100
AcDbEntity
8
2
62
256
6
ByLayer
370
13
48
1
60
0
100
AcDbHatch
10
0
20
0
30
0
210
0
220
0
230
1
2
ANSI31
70
0
71
0
91
1
92
5
93
3
72
1
10
13.9818
20
-0.39500000000001
11
14.4425837415528
21
-3.89499830744683
72
1
10
14.4425837415528
20
-3.89499830744683
11
13.5210162584472
21
-3.89500169255319
72
1
10
13.5210162584472
20
-3.89500169255319
11
13.9818
21
-0.39500000000001
97
0
75
0
76
1
52
0
41
0.0062
77
0
78
1
53
45
43
0
44
0
45
-0.0139193969876572
46
0.0139193969876572
79
0
47
0
98
1
10
0
20
0
0
HATCH
5
E6
100
AcDbEntity
8
2
62
256
6
ByLayer
370
13
48
1
60
0
100
AcDbHatch
10
0
20
0
30
0
210
0
220
0
230
1
2
ANSI31
70
0
71
0
91
1
92
5
93
3
72
1
10
13.9818
20
0.39500000000001
11
13.5210162584472
21
3.89499830744683
72
1
10
13.5210162584472
20
3.89499830744683
11
14.4425837415528
21
3.89500169255319
72
1
10
14.4425837415528
20
3.89500169255319
11
13.9818
21
0.39500000000001
97
0
75
0
76
1
52
0
41
0.0062
77
0
78
1
53
45
43
0
44
0
45
-0.0139193969876572
46
0.0139193969876572
79
0
47
0
98
1
10
0
20
0
0
HATCH
5
EB
100
AcDbEntity
8
SK2
62
256
6
ByLayer
370
13
48
1
60
0
100
AcDbHatch
10
0
20
0
30
0
210
0
220
0
230
1
2
ANSI31
70
0
71
0
91
1
92
5
93
3
72
1
10
15.3916085794604
20
-14.8181323180492
11
18.2636418553693
21
-12.765393983365
72
1
10
18.2636418553693
20
-12.765393983365
11
18.6970706127348
21
-13.5786750775861
72
1
10
18.6970706127348
20
-13.5786750775861
11
15.3916085794604
21
-14.8181323180492
97
0
75
0
76
1
52
0
41
0.0062
77
0
78
1
53
45
43
0
44
0
45
-0.0139193969876572
46
0.0139193969876572
79
0
47
0
98
1
10
0
20
0
0
HATCH
5
EF
100
AcDbEntity
8
SK2
62
256
6
ByLayer
370
13
48
1
60
0
100
AcDbHatch
10
0
20
0
30
0
210
0
220
0
230
1
2
ANSI31
70
0
71
0
91
1
92
5
93
3
72
1
10
15.3916085794604
20
14.8181323180492
11
18.6970676253807
21
13.5786766696479
72
1
10
18.6970676253807
20
13.5786766696479
11
18.2636448427234
21
12.7653923913032
72
1
10
18.2636448427234
20
12.7653923913032
11
15.3916085794604
21
14.8181323180492
97
0
75
0
76
1
52
0
41
0.0062
77
0
78
1
53
45
43
0
44
0
45
-0.0139193969876572
46
0.0139193969876572
79
0
47
0
98
1
10
0
20
0
0
DIMENSION
5
F3
100
AcDbEntity
8
SK2
62
256
6
ByLayer
370
18
48
1
60
0
100
AcDbDimension
2
_U0
10
8.4818
20
-35.85
30
0
11
-10.5182
21
-35.85
31
0
70
32
71
1
72
1
41
1
210
0
220
0
230
1
3
Standard
100
AcDbAlignedDimension
13
-29.5182
23
1.5
33
0
14
8.4818
24
0.395
34
0
50
0
100
AcDbRotatedDimension
1001
ACAD
1000
DSTYLE
1002
{
1070
   371
1070
    13
1070
   372
1070
    13
1070
     3
1000

1070
   170
1070
     0
1070
   144
1040
1.0
1070
   277
1070
     2
1070
   284
1070
     8
1070
   278
1070
    46
1070
   146
1040
1.166667
1070
   345
1005
16
1070
   347
1005
16
1070
   346
1005
16
1070
   344
1005
0
1070
   343
1005
0
1070
   172
1070
     1
1070
    76
1070
     0
1070
    75
1070
     0
1070
   282
1070
     0
1070
   281
1070
     0
1070
    71
1070
     0
1070
    74
1070
     0
1070
   279
1070
     0
1070
   173
1070
     1
1070
   340
1005
D2
1070
   271
1070
     2
1070
   272
1070
     2
1070
    77
1070
     1
1070
    73
1070
     1
1070
   171
1070
     3
1070
   274
1070
     4
1070
   177
1070
     2
1070
   176
1070
     2
1070
   178
1070
     2
1070
    78
1070
     8
1070
    48
1040
-0.1
1070
    41
1040
3.5
1070
   147
1040
1.5
1070
    42
1040
1.5875
1070
    44
1040
2.0
1070
   140
1040
3.0
1002
}
1001
ACAD_DSTYLE_DIM_LINETYPE
1070
   380
1005
16
1001
ACAD_DSTYLE_DIM_EXT1_LINETYPE
1070
   381
1005
16
1001
ACAD_DSTYLE_DIM_EXT2_LINETYPE
1070
   382
1005
16
0
DIMENSION
5
10C
100
AcDbEntity
8
SK2
62
256
6
ByLayer
370
18
48
1
60
0
100
AcDbDimension
2
_U1
10
4.6668
20
-21.895
30
0
11
24.553229
21
-21.895
31
0
70
32
71
1
72
1
41
1
210
0
220
0
230
1
3
Standard
100
AcDbAlignedDimension
13
8.4818
23
0.395
33
0
14
4.6668
24
0
34
0
50
0
100
AcDbRotatedDimension
1001
ACAD
1000
DSTYLE
1002
{
1070
   371
1070
    13
1070
   372
1070
    13
1070
     3
1000

1070
   170
1070
     0
1070
   144
1040
1.0
1070
   277
1070
     2
1070
   284
1070
     8
1070
   278
1070
    46
1070
   146
1040
1.166667
1070
   345
1005
16
1070
   347
1005
16
1070
   346
1005
16
1070
   344
1005
0
1070
   343
1005
0
1070
   172
1070
     1
1070
    76
1070
     0
1070
    75
1070
     0
1070
   282
1070
     0
1070
   281
1070
     0
1070
    71
1070
     0
1070
    74
1070
     0
1070
   279
1070
     0
1070
   173
1070
     1
1070
   340
1005
D2
1070
   271
1070
     2
1070
   272
1070
     2
1070
    77
1070
     1
1070
    73
1070
     1
1070
   171
1070
     3
1070
   274
1070
     4
1070
   177
1070
     2
1070
   176
1070
     2
1070
   178
1070
     2
1070
    78
1070
     8
1070
    48
1040
-0.1
1070
    41
1040
3.5
1070
   147
1040
1.5
1070
    42
1040
1.5875
1070
    44
1040
2.0
1070
   140
1040
3.0
1002
}
1001
ACAD_DSTYLE_DIM_LINETYPE
1070
   380
1005
16
1001
ACAD_DSTYLE_DIM_EXT1_LINETYPE
1070
   381
1005
16
1001
ACAD_DSTYLE_DIM_EXT2_LINETYPE
1070
   382
1005
16
0
DIMENSION
5
126
100
AcDbEntity
8
SK2
62
256
6
ByLayer
370
18
48
1
60
0
100
AcDbDimension
2
_U2
10
3.4818
20
-29.895
30
0
11
20.9818
21
-29.895
31
0
70
32
71
1
72
1
41
1
210
0
220
0
230
1
3
Standard
100
AcDbAlignedDimension
13
8.4818
23
0.395
33
0
14
3.4818
24
0
34
0
50
0
100
AcDbRotatedDimension
1001
ACAD
1000
DSTYLE
1002
{
1070
   371
1070
    13
1070
   372
1070
    13
1070
     3
1000

1070
   170
1070
     0
1070
   144
1040
1.0
1070
   277
1070
     2
1070
   284
1070
     8
1070
   278
1070
    46
1070
   146
1040
1.166667
1070
   345
1005
16
1070
   347
1005
16
1070
   346
1005
16
1070
   344
1005
0
1070
   343
1005
0
1070
   172
1070
     1
1070
    76
1070
     0
1070
    75
1070
     0
1070
   282
1070
     0
1070
   281
1070
     0
1070
    71
1070
     0
1070
    74
1070
     0
1070
   279
1070
     0
1070
   173
1070
     1
1070
   340
1005
D2
1070
   271
1070
     2
1070
   272
1070
     2
1070
    77
1070
     1
1070
    73
1070
     1
1070
   171
1070
     3
1070
   274
1070
     4
1070
   177
1070
     2
1070
   176
1070
     2
1070
   178
1070
     2
1070
    78
1070
     8
1070
    48
1040
-0.1
1070
    41
1040
3.5
1070
   147
1040
1.5
1070
    42
1040
1.5875
1070
    44
1040
2.0
1070
   140
1040
3.0
1002
}
1001
ACAD_DSTYLE_DIM_LINETYPE
1070
   380
1005
16
1001
ACAD_DSTYLE_DIM_EXT1_LINETYPE
1070
   381
1005
16
1001
ACAD_DSTYLE_DIM_EXT2_LINETYPE
1070
   382
1005
16
0
DIMENSION
5
140
100
AcDbEntity
8
SK2
62
256
6
ByLayer
370
18
48
1
60
0
100
AcDbDimension
2
_U3
10
0
20
11.35
30
0
11
-14.7591
21
11.35
31
0
70
32
71
1
72
1
41
1
210
0
220
0
230
1
3
Standard
100
AcDbAlignedDimension
13
-29.5182
23
0
33
0
14
0
24
0
34
0
50
0
100
AcDbRotatedDimension
1001
ACAD
1000
DSTYLE
1002
{
1070
   371
1070
    13
1070
   372
1070
    13
1070
     3
1000

1070
   170
1070
     0
1070
   144
1040
1.0
1070
   277
1070
     2
1070
   284
1070
     8
1070
   278
1070
    46
1070
   146
1040
1.166667
1070
   345
1005
16
1070
   347
1005
16
1070
   346
1005
16
1070
   344
1005
0
1070
   343
1005
0
1070
   172
1070
     1
1070
    76
1070
     0
1070
    75
1070
     0
1070
   282
1070
     0
1070
   281
1070
     0
1070
    71
1070
     0
1070
    74
1070
     0
1070
   279
1070
     0
1070
   173
1070
     1
1070
   340
1005
D2
1070
   271
1070
     2
1070
   272
1070
     2
1070
    77
1070
     1
1070
    73
1070
     1
1070
   171
1070
     3
1070
   274
1070
     4
1070
   177
1070
     2
1070
   176
1070
     2
1070
   178
1070
     2
1070
    78
1070
     8
1070
    48
1040
-0.1
1070
    41
1040
3.5
1070
   147
1040
1.5
1070
    42
1040
1.5875
1070
    44
1040
2.0
1070
   140
1040
3.0
1002
}
1001
ACAD_DSTYLE_DIM_LINETYPE
1070
   380
1005
16
1001
ACAD_DSTYLE_DIM_EXT1_LINETYPE
1070
   381
1005
16
1001
ACAD_DSTYLE_DIM_EXT2_LINETYPE
1070
   382
1005
16
0
DIMENSION
5
158
100
AcDbEntity
8
2
62
256
6
ByLayer
370
18
48
1
60
0
100
AcDbDimension
2
_U4
10
0
20
11.35
30
0
11
4.2409
21
11.35
31
0
70
32
71
1
72
1
41
1
210
0
220
0
230
1
3
Standard
100
AcDbAlignedDimension
13
8.4818
23
0.395
33
0
14
0
24
0
34
0
50
0
100
AcDbRotatedDimension
1001
ACAD
1000
DSTYLE
1002
{
1070
   371
1070
    13
1070
   372
1070
    13
1070
     3
1000

1070
   170
1070
     0
1070
   144
1040
1.0
1070
   277
1070
     2
1070
   284
1070
     8
1070
   278
1070
    46
1070
   146
1040
1.166667
1070
   345
1005
16
1070
   347
1005
16
1070
   346
1005
16
1070
   344
1005
0
1070
   343
1005
0
1070
   172
1070
     1
1070
    76
1070
     0
1070
    75
1070
     0
1070
   282
1070
     0
1070
   281
1070
     0
1070
    71
1070
     0
1070
    74
1070
     0
1070
   279
1070
     0
1070
   173
1070
     1
1070
   340
1005
D2
1070
   271
1070
     2
1070
   272
1070
     2
1070
    77
1070
     1
1070
    73
1070
     1
1070
   171
1070
     3
1070
   274
1070
     4
1070
   177
1070
     2
1070
   176
1070
     2
1070
   178
1070
     2
1070
    78
1070
     8
1070
    48
1040
-0.1
1070
    41
1040
3.5
1070
   147
1040
1.5
1070
    42
1040
1.5875
1070
    44
1040
2.0
1070
   140
1040
3.0
1002
}
1001
ACAD_DSTYLE_DIM_LINETYPE
1070
   380
1005
16
1001
ACAD_DSTYLE_DIM_EXT1_LINETYPE
1070
   381
1005
16
1001
ACAD_DSTYLE_DIM_EXT2_LINETYPE
1070
   382
1005
16
0
ENDSEC
0
SECTION
2
OBJECTS
0
DICTIONARY
5
1e1
330
0
100
AcDbDictionary
280
0
281
1
3
ACAD_GROUP
350
1e2
3
ACAD_MLINESTYLE
350
1e3
0
DICTIONARY
5
1e2
330
0
100
AcDbDictionary
280
0
281
1
0
DICTIONARY
5
1e3
330
0
100
AcDbDictionary
280
0
281
1
3
Standard
350
18
0
MLINESTYLE
5
18
330
1e3
100
AcDbMlineStyle
2
Standard
70
0
3

62
256
51
90
52
90
71
2
49
-0.5
62
256
6
ByLayer
49
0.5
62
256
6
ByLayer
0
RASTERVARIABLES
5
1cf
330

100
AcDbRasterVariables
90
0
70
1
71
1
72
1
0
ENDSEC
0
EOF
