0
SECTION
2
HEADER
9
$ACADVER
1
AC1015
9
$DWGCODEPAGE
3
ANSI_1252
9
$HANDSEED
5
1ef
9
$ANGBASE
50
0
9
$ANGDIR
70
0
9
$ATTMODE
70
1
9
$AUNITS
70
0
9
$AUPREC
70
0
9
$CECOLOR
62
256
9
$CELTSCALE
40
1
9
$CELTYPE
6
ByLayer
9
$CELWEIGHT
370
18
9
$CLAYER
8
0
9
$CMLJUST
70
0
9
$CMLSCALE
40
1
9
$CMLSTYLE
2
Standard
9
$DIMSTYLE
2
Standard
9
$TEXTSIZE
40
0.2
9
$TEXTSTYLE
7
Standard
9
$LUNITS
70
2
9
$LUPREC
70
4
9
$EXTNAMES
290
1
9
$INSUNITS
70
4
9
$LTSCALE
40
1
9
$LWDISPLAY
290
1
9
$PDMODE
70
0
9
$PDSIZE
40
0
9
$PLINEGEN
70
0
0
ENDSEC
0
SECTION
2
CLASSES
0
CLASS
1
RASTERVARIABLES
2
AcDbRasterVariables
3
ISM
90
0
280
0
281
0
0
ENDSEC
0
SECTION
2
TABLES
0
TABLE
2
VPORT
5
1e5
100
AcDbSymbolTable
0
VPORT
5
1
100
AcDbSymbolTableRecord
100
AcDbViewportTableRecord
2
*Active
70
0
10
0
20
0
11
1
21
1
12
-1
22
1
13
0
23
0
14
0.5
24
0.5
15
10
25
10
16
0
26
0
36
1
17
0
27
0
37
0
0
ENDTAB
0
TABLE
2
LTYPE
5
1e6
100
AcDbSymbolTable
0
LTYPE
5
14
100
AcDbSymbolTableRecord
100
AcDbLinetypeTableRecord
70
0
2
ByBlock
3

72
65
73
0
40
0
0
LTYPE
5
15
100
AcDbSymbolTableRecord
100
AcDbLinetypeTableRecord
70
0
2
ByLayer
3

72
65
73
0
40
0
0
LTYPE
5
16
100
AcDbSymbolTableRecord
100
AcDbLinetypeTableRecord
70
0
2
Continuous
3
Solid line
72
65
73
0
40
0
0
LTYPE
5
6E
100
AcDbSymbolTableRecord
100
AcDbLinetypeTableRecord
70
0
2
CENTER
3
____ _ ____ _ ____ _ ____
72
65
73
4
40
47.5
49
22
74
0
49
-8.5
74
0
49
8.5
74
0
49
-8.5
74
0
0
LTYPE
5
6F
100
AcDbSymbolTableRecord
100
AcDbLinetypeTableRecord
70
0
2
DASHED
3
__ __ __ __ __ __ __ __ __
72
65
73
2
40
25.72
49
12.86
74
0
49
-12.86
74
0
0
ENDTAB
0
TABLE
2
LAYER
5
1e7
100
AcDbSymbolTable
0
LAYER
5
10
100
AcDbSymbolTableRecord
100
AcDbLayerTableRecord
2
0
70
0
62
7
6
Continuous
290
1
370
-3
390
0
0
LAYER
5
71
100
AcDbSymbolTableRecord
100
AcDbLayerTableRecord
2
80
70
0
62
-6
6
Continuous
290
1
370
-3
390
0
0
LAYER
5
73
100
AcDbSymbolTableRecord
100
AcDbLayerTableRecord
2
81
70
0
62
-3
6
Continuous
290
1
370
-3
390
0
0
LAYER
5
75
100
AcDbSymbolTableRecord
100
AcDbLayerTableRecord
2
1
70
0
62
4
6
Continuous
290
1
370
-3
390
0
0
LAYER
5
9C
100
AcDbSymbolTableRecord
100
AcDbLayerTableRecord
2
4
70
0
62
-2
6
CENTER
290
1
370
-3
390
0
0
LAYER
5
AC
100
AcDbSymbolTableRecord
100
AcDbLayerTableRecord
2
2
70
0
62
7
6
Continuous
290
1
370
-3
390
0
0
LAYER
5
F7
100
AcDbSymbolTableRecord
100
AcDbLayerTableRecord
2
Defpoints
70
0
62
7
6
Continuous
290
0
370
-3
390
0
0
LAYER
5
1d1
100
AcDbSymbolTableRecord
100
AcDbLayerTableRecord
2
SK1
70
0
62
4
6
Continuous
290
1
370
-3
390
0
0
LAYER
5
1d2
100
AcDbSymbolTableRecord
100
AcDbLayerTableRecord
2
SK4
70
0
62
2
6
CENTER
290
1
370
-3
390
0
0
LAYER
5
1d3
100
AcDbSymbolTableRecord
100
AcDbLayerTableRecord
2
SK2
70
0
62
7
6
Continuous
290
1
370
-3
390
0
0
LAYER
5
1d4
100
AcDbSymbolTableRecord
100
AcDbLayerTableRecord
2
SK6
70
0
62
5
6
Continuous
290
1
370
-3
390
0
0
ENDTAB
0
TABLE
2
STYLE
5
1e8
100
AcDbSymbolTable
0
STYLE
5
11
100
AcDbSymbolTableRecord
100
AcDbTextStyleTableRecord
2
Standard
3
txt
70
0
71
0
40
0
41
1
42
0
50
0
0
STYLE
5
D3
100
AcDbSymbolTableRecord
100
AcDbTextStyleTableRecord
2
iso_b_vert
3
simplex.shx
70
0
71
0
40
0
41
1
42
0
50
0
0
STYLE
5
D4
100
AcDbSymbolTableRecord
100
AcDbTextStyleTableRecord
2
DWGDirectTextStyle
3
simplex
70
0
71
0
40
0
41
1
42
0
50
0
0
ENDTAB
0
TABLE
2
DIMSTYLE
5
1e9
100
AcDbSymbolTable
100
AcDbDimStyleTable
0
DIMSTYLE
105
27
100
AcDbSymbolTableRecord
100
AcDbDimStyleTableRecord
2
Standard
70
0
3
<>
41
0.18
42
0.0625
44
0.18
140
0.18
147
0.09
73
0
74
0
77
1
271
2
275
0
278
52
280
0
340
11
0
ENDTAB
0
TABLE
2
VIEW
5
1ea
100
AcDbSymbolTable
0
ENDTAB
0
TABLE
2
UCS
5
1eb
100
AcDbSymbolTable
0
ENDTAB
0
TABLE
2
APPID
5
1ec
100
AcDbSymbolTable
0
APPID
5
12
100
AcDbSymbolTableRecord
100
AcDbRegAppTableRecord
2
ACAD
70
0
0
APPID
5
F3
100
AcDbSymbolTableRecord
100
AcDbRegAppTableRecord
2
ACAD_DSTYLE_DIMBREAK
70
0
0
APPID
5
190
100
AcDbSymbolTableRecord
100
AcDbRegAppTableRecord
2
ACAD_DSTYLE_DIM_LINETYPE
70
0
0
APPID
5
191
100
AcDbSymbolTableRecord
100
AcDbRegAppTableRecord
2
ACAD_DSTYLE_DIM_EXT1_LINETYPE
70
0
0
APPID
5
192
100
AcDbSymbolTableRecord
100
AcDbRegAppTableRecord
2
ACAD_DSTYLE_DIM_EXT2_LINETYPE
70
0
0
APPID
5
1CD
100
AcDbSymbolTableRecord
100
AcDbRegAppTableRecord
2
ACAD_MLEADERVER
70
0
0
ENDTAB
0
TABLE
2
BLOCK_RECORD
5
1ed
100
AcDbSymbolTable
0
BLOCK_RECORD
5
1F
100
AcDbSymbolTableRecord
100
AcDbBlockTableRecord
2
*Model_Space
340
0
70
0
0
BLOCK_RECORD
5
1B
100
AcDbSymbolTableRecord
100
AcDbBlockTableRecord
2
*Paper_Space
340
0
70
0
0
BLOCK_RECORD
5
23
100
AcDbSymbolTableRecord
100
AcDbBlockTableRecord
2
*Paper_Space0
340
0
70
0
0
BLOCK_RECORD
5
F8
100
AcDbSymbolTableRecord
100
AcDbBlockTableRecord
2
*D1
340
0
70
0
0
BLOCK_RECORD
5
104
100
AcDbSymbolTableRecord
100
AcDbBlockTableRecord
2
_U0
340
0
70
0
0
BLOCK_RECORD
5
110
100
AcDbSymbolTableRecord
100
AcDbBlockTableRecord
2
*D3
340
0
70
0
0
BLOCK_RECORD
5
11E
100
AcDbSymbolTableRecord
100
AcDbBlockTableRecord
2
_U1
340
0
70
0
0
BLOCK_RECORD
5
12A
100
AcDbSymbolTableRecord
100
AcDbBlockTableRecord
2
*D5
340
0
70
0
0
BLOCK_RECORD
5
138
100
AcDbSymbolTableRecord
100
AcDbBlockTableRecord
2
_U2
340
0
70
0
0
BLOCK_RECORD
5
144
100
AcDbSymbolTableRecord
100
AcDbBlockTableRecord
2
*D7
340
0
70
0
0
BLOCK_RECORD
5
150
100
AcDbSymbolTableRecord
100
AcDbBlockTableRecord
2
_U3
340
0
70
0
0
BLOCK_RECORD
5
15C
100
AcDbSymbolTableRecord
100
AcDbBlockTableRecord
2
*D9
340
0
70
0
0
BLOCK_RECORD
5
169
100
AcDbSymbolTableRecord
100
AcDbBlockTableRecord
2
_U4
340
0
70
0
0
ENDTAB
0
ENDSEC
0
SECTION
2
BLOCKS
0
BLOCK
5
20
100
AcDbEntity
8
0
100
AcDbBlockBegin
2
*Model_Space
70
0
10
0
20
0
30
0
3
*Model_Space
0
ENDBLK
5
21
100
AcDbEntity
8
0
100
AcDbBlockEnd
0
BLOCK
5
1C
100
AcDbEntity
8
0
100
AcDbBlockBegin
2
*Paper_Space
70
0
10
0
20
0
30
0
3
*Paper_Space
0
ENDBLK
5
1D
100
AcDbEntity
8
0
100
AcDbBlockEnd
0
BLOCK
5
24
100
AcDbEntity
8
0
100
AcDbBlockBegin
2
*Paper_Space0
70
0
10
0
20
0
30
0
3
*Paper_Space0
0
ENDBLK
5
25
100
AcDbEntity
8
0
100
AcDbBlockEnd
0
BLOCK
5
F9
100
AcDbEntity
8
0
100
AcDbBlockBegin
2
*D1
70
1
10
0
20
0
30
0
3
*D1
0
LINE
5
FB
100
AcDbEntity
8
0
62
256
6
ByLayer
370
-2
48
1
60
0
100
AcDbLine
10
-26.2599
20
-0.0875
30
0
11
-26.2599
21
-37.85
31
0
39
0
210
0
220
0
230
1
0
LINE
5
FC
100
AcDbEntity
8
0
62
256
6
ByLayer
370
-2
48
1
60
0
100
AcDbLine
10
11.7401
20
-0.9375
30
0
11
11.7401
21
-37.85
31
0
39
0
210
0
220
0
230
1
0
LINE
5
FD
100
AcDbEntity
8
0
62
256
6
ByLayer
370
-2
48
1
60
0
100
AcDbLine
10
-22.7599
20
-35.85
30
0
11
8.2401
21
-35.85
31
0
39
0
210
0
220
0
230
1
0
SOLID
5
FE
100
AcDbEntity
8
0
62
256
6
ByLayer
370
-1
48
1
60
0
100
AcDbTrace
10
-22.7599
20
-35.266667
30
0
11
-22.7599
21
-36.433333
31
0
12
-26.2599
22
-35.85
32
0
13
-26.2599
23
-35.85
33
0
39
0
210
0
220
0
230
1
0
SOLID
5
FF
100
AcDbEntity
8
0
62
256
6
ByLayer
370
-1
48
1
60
0
100
AcDbTrace
10
8.2401
20
-36.433333
30
0
11
8.2401
21
-35.266667
31
0
12
11.7401
22
-35.85
32
0
13
11.7401
23
-35.85
33
0
39
0
210
0
220
0
230
1
0
MTEXT
5
100
100
AcDbEntity
8
0
62
256
6
ByLayer
370
18
48
1
60
0
100
AcDbMText
10
-7.2599
20
-29.85
30
0
210
0
220
0
230
1
1
\A1;38
40
3
41
0
44
1
50
0
71
5
72
5
7
iso_b_vert
0
POINT
5
101
100
AcDbEntity
8
Defpoints
62
0
6
ByLayer
370
-1
48
1
60
0
100
AcDbPoint
10
-26.2599
20
1.5
30
0
39
0
210
0
220
0
230
1
50
360
0
POINT
5
102
100
AcDbEntity
8
Defpoints
62
0
6
ByLayer
370
-1
48
1
60
0
100
AcDbPoint
10
11.7401
20
0.65
30
0
39
0
210
0
220
0
230
1
50
360
0
POINT
5
103
100
AcDbEntity
8
Defpoints
62
0
6
ByLayer
370
-1
48
1
60
0
100
AcDbPoint
10
11.7401
20
-35.85
30
0
39
0
210
0
220
0
230
1
50
360
0
ENDBLK
5
FA
100
AcDbEntity
8
0
100
AcDbBlockEnd
0
BLOCK
5
10B
100
AcDbEntity
8
0
100
AcDbBlockBegin
2
_U0
70
0
10
0
20
0
30
0
3
_U0
0
MTEXT
5
105
100
AcDbEntity
8
SK2
62
256
6
ByLayer
370
18
48
1
60
0
100
AcDbMText
10
-11.74227
20
-34.964886
30
0
210
0
220
0
230
1
1
\W0.7468;38.00
40
3
41
0
44
1.084337
50
0
71
7
72
5
7
iso_b_vert
0
LINE
5
106
100
AcDbEntity
8
SK2
62
256
6
ByLayer
370
13
48
1
60
0
100
AcDbLine
10
-26.2599
20
-0.0875
30
0
11
-26.2599
21
-37.85
31
0
39
0
210
0
220
0
230
1
0
LINE
5
107
100
AcDbEntity
8
SK2
62
256
6
ByLayer
370
13
48
1
60
0
100
AcDbLine
10
11.7401
20
-0.9375
30
0
11
11.7401
21
-37.85
31
0
39
0
210
0
220
0
230
1
0
LINE
5
108
100
AcDbEntity
8
SK2
62
256
6
ByLayer
370
13
48
1
60
0
100
AcDbLine
10
-26.2599
20
-35.85
30
0
11
11.7401
21
-35.85
31
0
39
0
210
0
220
0
230
1
0
SOLID
5
109
100
AcDbEntity
8
SK2
62
256
6
ByLayer
370
18
48
1
60
0
100
AcDbTrace
10
-26.2599
20
-35.85
30
0
11
-22.759902
21
-35.389216
31
0
12
-22.759898
22
-36.310784
32
0
13
-22.759898
23
-36.310784
33
0
39
0
210
0
220
0
230
1
0
SOLID
5
10A
100
AcDbEntity
8
SK2
62
256
6
ByLayer
370
18
48
1
60
0
100
AcDbTrace
10
11.7401
20
-35.85
30
0
11
8.240102
21
-36.310784
31
0
12
8.240098
22
-35.389216
32
0
13
8.240098
23
-35.389216
33
0
39
0
210
0
220
0
230
1
0
ENDBLK
5
10C
100
AcDbEntity
8
0
100
AcDbBlockEnd
0
BLOCK
5
111
100
AcDbEntity
8
0
100
AcDbBlockBegin
2
*D3
70
1
10
0
20
0
30
0
3
*D3
0
LINE
5
113
100
AcDbEntity
8
0
62
256
6
ByLayer
370
-2
48
1
60
0
100
AcDbLine
10
11.7401
20
-0.9375
30
0
11
11.7401
21
-24.15
31
0
39
0
210
0
220
0
230
1
0
LINE
5
114
100
AcDbEntity
8
0
62
256
6
ByLayer
370
-2
48
1
60
0
100
AcDbLine
10
5.4901
20
-1.5875
30
0
11
5.4901
21
-24.15
31
0
39
0
210
0
220
0
230
1
0
LINE
5
115
100
AcDbEntity
8
0
62
256
6
ByLayer
370
-2
48
1
60
0
100
AcDbLine
10
11.7401
20
-22.15
30
0
11
36.7401
21
-22.15
31
0
39
0
210
0
220
0
230
1
0
LINE
5
116
100
AcDbEntity
8
0
62
256
6
ByLayer
370
-2
48
1
60
0
100
AcDbLine
10
15.2401
20
-22.15
30
0
11
18.7401
21
-22.15
31
0
39
0
210
0
220
0
230
1
0
LINE
5
117
100
AcDbEntity
8
0
62
256
6
ByLayer
370
-2
48
1
60
0
100
AcDbLine
10
1.9901
20
-22.15
30
0
11
-1.5099
21
-22.15
31
0
39
0
210
0
220
0
230
1
0
SOLID
5
118
100
AcDbEntity
8
0
62
256
6
ByLayer
370
-1
48
1
60
0
100
AcDbTrace
10
15.2401
20
-21.566667
30
0
11
15.2401
21
-22.733333
31
0
12
11.7401
22
-22.15
32
0
13
11.7401
23
-22.15
33
0
39
0
210
0
220
0
230
1
0
SOLID
5
119
100
AcDbEntity
8
0
62
256
6
ByLayer
370
-1
48
1
60
0
100
AcDbTrace
10
1.9901
20
-22.733333
30
0
11
1.9901
21
-21.566667
31
0
12
5.4901
22
-22.15
32
0
13
5.4901
23
-22.15
33
0
39
0
210
0
220
0
230
1
0
MTEXT
5
11A
100
AcDbEntity
8
0
62
256
6
ByLayer
370
18
48
1
60
0
100
AcDbMText
10
27.7401
20
-16.15
30
0
210
0
220
0
230
1
1
\A1;6.25
40
3
41
0
44
1
50
0
71
5
72
5
7
iso_b_vert
0
POINT
5
11B
100
AcDbEntity
8
Defpoints
62
0
6
ByLayer
370
-1
48
1
60
0
100
AcDbPoint
10
11.7401
20
0.65
30
0
39
0
210
0
220
0
230
1
50
360
0
POINT
5
11C
100
AcDbEntity
8
Defpoints
62
0
6
ByLayer
370
-1
48
1
60
0
100
AcDbPoint
10
5.4901
20
0
30
0
39
0
210
0
220
0
230
1
50
360
0
POINT
5
11D
100
AcDbEntity
8
Defpoints
62
0
6
ByLayer
370
-1
48
1
60
0
100
AcDbPoint
10
5.4901
20
-22.15
30
0
39
0
210
0
220
0
230
1
50
360
0
ENDBLK
5
112
100
AcDbEntity
8
0
100
AcDbBlockEnd
0
BLOCK
5
125
100
AcDbEntity
8
0
100
AcDbBlockBegin
2
_U1
70
0
10
0
20
0
30
0
3
_U1
0
MTEXT
5
11F
100
AcDbEntity
8
SK2
62
256
6
ByLayer
370
18
48
1
60
0
100
AcDbMText
10
15.8991
20
-21.264886
30
0
210
0
220
0
230
1
1
\W0.7051;(6.25)
40
3
41
0
44
1.084337
50
0
71
7
72
5
7
iso_b_vert
0
LINE
5
120
100
AcDbEntity
8
SK2
62
256
6
ByLayer
370
13
48
1
60
0
100
AcDbLine
10
11.7401
20
-0.9375
30
0
11
11.7401
21
-24.15
31
0
39
0
210
0
220
0
230
1
0
LINE
5
121
100
AcDbEntity
8
SK2
62
256
6
ByLayer
370
13
48
1
60
0
100
AcDbLine
10
5.4901
20
-1.5875
30
0
11
5.4901
21
-24.15
31
0
39
0
210
0
220
0
230
1
0
LINE
5
122
100
AcDbEntity
8
SK2
62
256
6
ByLayer
370
13
48
1
60
0
100
AcDbLine
10
-2.0099
20
-22.15
30
0
11
25.211869
21
-22.15
31
0
39
0
210
0
220
0
230
1
0
SOLID
5
123
100
AcDbEntity
8
SK2
62
256
6
ByLayer
370
18
48
1
60
0
100
AcDbTrace
10
11.7401
20
-22.15
30
0
11
15.240098
21
-21.689216
31
0
12
15.240102
22
-22.610784
32
0
13
15.240102
23
-22.610784
33
0
39
0
210
0
220
0
230
1
0
SOLID
5
124
100
AcDbEntity
8
SK2
62
256
6
ByLayer
370
18
48
1
60
0
100
AcDbTrace
10
5.4901
20
-22.15
30
0
11
1.990102
21
-22.610784
31
0
12
1.990098
22
-21.689216
32
0
13
1.990098
23
-21.689216
33
0
39
0
210
0
220
0
230
1
0
ENDBLK
5
126
100
AcDbEntity
8
0
100
AcDbBlockEnd
0
BLOCK
5
12B
100
AcDbEntity
8
0
100
AcDbBlockBegin
2
*D5
70
1
10
0
20
0
30
0
3
*D5
0
LINE
5
12D
100
AcDbEntity
8
0
62
256
6
ByLayer
370
-2
48
1
60
0
100
AcDbLine
10
11.7401
20
-0.9375
30
0
11
11.7401
21
-32.15
31
0
39
0
210
0
220
0
230
1
0
LINE
5
12E
100
AcDbEntity
8
0
62
256
6
ByLayer
370
-2
48
1
60
0
100
AcDbLine
10
3.5401
20
-1.5875
30
0
11
3.5401
21
-32.15
31
0
39
0
210
0
220
0
230
1
0
LINE
5
12F
100
AcDbEntity
8
0
62
256
6
ByLayer
370
-2
48
1
60
0
100
AcDbLine
10
11.7401
20
-30.15
30
0
11
34.025814
21
-30.15
31
0
39
0
210
0
220
0
230
1
0
LINE
5
130
100
AcDbEntity
8
0
62
256
6
ByLayer
370
-2
48
1
60
0
100
AcDbLine
10
15.2401
20
-30.15
30
0
11
18.7401
21
-30.15
31
0
39
0
210
0
220
0
230
1
0
LINE
5
131
100
AcDbEntity
8
0
62
256
6
ByLayer
370
-2
48
1
60
0
100
AcDbLine
10
0.0401
20
-30.15
30
0
11
-3.4599
21
-30.15
31
0
39
0
210
0
220
0
230
1
0
SOLID
5
132
100
AcDbEntity
8
0
62
256
6
ByLayer
370
-1
48
1
60
0
100
AcDbTrace
10
15.2401
20
-29.566667
30
0
11
15.2401
21
-30.733333
31
0
12
11.7401
22
-30.15
32
0
13
11.7401
23
-30.15
33
0
39
0
210
0
220
0
230
1
0
SOLID
5
133
100
AcDbEntity
8
0
62
256
6
ByLayer
370
-1
48
1
60
0
100
AcDbTrace
10
0.0401
20
-30.733333
30
0
11
0.0401
21
-29.566667
31
0
12
3.5401
22
-30.15
32
0
13
3.5401
23
-30.15
33
0
39
0
210
0
220
0
230
1
0
MTEXT
5
134
100
AcDbEntity
8
0
62
256
6
ByLayer
370
18
48
1
60
0
100
AcDbMText
10
26.382957
20
-24.15
30
0
210
0
220
0
230
1
1
\A1;8.2
40
3
41
0
44
1
50
0
71
5
72
5
7
iso_b_vert
0
POINT
5
135
100
AcDbEntity
8
Defpoints
62
0
6
ByLayer
370
-1
48
1
60
0
100
AcDbPoint
10
11.7401
20
0.65
30
0
39
0
210
0
220
0
230
1
50
360
0
POINT
5
136
100
AcDbEntity
8
Defpoints
62
0
6
ByLayer
370
-1
48
1
60
0
100
AcDbPoint
10
3.5401
20
0
30
0
39
0
210
0
220
0
230
1
50
360
0
POINT
5
137
100
AcDbEntity
8
Defpoints
62
0
6
ByLayer
370
-1
48
1
60
0
100
AcDbPoint
10
3.5401
20
-30.15
30
0
39
0
210
0
220
0
230
1
50
360
0
ENDBLK
5
12C
100
AcDbEntity
8
0
100
AcDbBlockEnd
0
BLOCK
5
13F
100
AcDbEntity
8
0
100
AcDbBlockBegin
2
_U2
70
0
10
0
20
0
30
0
3
_U2
0
MTEXT
5
139
100
AcDbEntity
8
SK2
62
256
6
ByLayer
370
18
48
1
60
0
100
AcDbMText
10
14.8991
20
-29.264886
30
0
210
0
220
0
230
1
1
\W0.7346;8.20
40
3
41
0
44
1.084337
50
0
71
7
72
5
7
iso_b_vert
0
LINE
5
13A
100
AcDbEntity
8
SK2
62
256
6
ByLayer
370
13
48
1
60
0
100
AcDbLine
10
11.7401
20
-0.9375
30
0
11
11.7401
21
-32.15
31
0
39
0
210
0
220
0
230
1
0
LINE
5
13B
100
AcDbEntity
8
SK2
62
256
6
ByLayer
370
13
48
1
60
0
100
AcDbLine
10
3.5401
20
-1.5875
30
0
11
3.5401
21
-32.15
31
0
39
0
210
0
220
0
230
1
0
LINE
5
13C
100
AcDbEntity
8
SK2
62
256
6
ByLayer
370
13
48
1
60
0
100
AcDbLine
10
3.5401
20
-30.15
30
0
11
21.781013
21
-30.15
31
0
39
0
210
0
220
0
230
1
0
SOLID
5
13D
100
AcDbEntity
8
SK2
62
256
6
ByLayer
370
18
48
1
60
0
100
AcDbTrace
10
11.7401
20
-30.15
30
0
11
8.240102
21
-30.610784
31
0
12
8.240098
22
-29.689216
32
0
13
8.240098
23
-29.689216
33
0
39
0
210
0
220
0
230
1
0
SOLID
5
13E
100
AcDbEntity
8
SK2
62
256
6
ByLayer
370
18
48
1
60
0
100
AcDbTrace
10
3.5401
20
-30.15
30
0
11
7.040098
21
-29.689216
31
0
12
7.040102
22
-30.610784
32
0
13
7.040102
23
-30.610784
33
0
39
0
210
0
220
0
230
1
0
ENDBLK
5
140
100
AcDbEntity
8
0
100
AcDbBlockEnd
0
BLOCK
5
145
100
AcDbEntity
8
0
100
AcDbBlockBegin
2
*D7
70
1
10
0
20
0
30
0
3
*D7
0
LINE
5
147
100
AcDbEntity
8
0
62
256
6
ByLayer
370
-2
48
1
60
0
100
AcDbLine
10
-26.2599
20
1.5875
30
0
11
-26.2599
21
13.35
31
0
39
0
210
0
220
0
230
1
0
LINE
5
148
100
AcDbEntity
8
0
62
256
6
ByLayer
370
-2
48
1
60
0
100
AcDbLine
10
0
20
1.5875
30
0
11
0
21
13.35
31
0
39
0
210
0
220
0
230
1
0
LINE
5
149
100
AcDbEntity
8
0
62
256
6
ByLayer
370
-2
48
1
60
0
100
AcDbLine
10
-22.7599
20
11.35
30
0
11
-3.5
21
11.35
31
0
39
0
210
0
220
0
230
1
0
SOLID
5
14A
100
AcDbEntity
8
0
62
256
6
ByLayer
370
-1
48
1
60
0
100
AcDbTrace
10
-22.7599
20
11.933333
30
0
11
-22.7599
21
10.766667
31
0
12
-26.2599
22
11.35
32
0
13
-26.2599
23
11.35
33
0
39
0
210
0
220
0
230
1
0
SOLID
5
14B
100
AcDbEntity
8
0
62
256
6
ByLayer
370
-1
48
1
60
0
100
AcDbTrace
10
-3.5
20
10.766667
30
0
11
-3.5
21
11.933333
31
0
12
0
22
11.35
32
0
13
0
23
11.35
33
0
39
0
210
0
220
0
230
1
0
MTEXT
5
14C
100
AcDbEntity
8
0
62
256
6
ByLayer
370
18
48
1
60
0
100
AcDbMText
10
-13.12995
20
17.35
30
0
210
0
220
0
230
1
1
\A1;26.26
40
3
41
0
44
1
50
0
71
5
72
5
7
iso_b_vert
0
POINT
5
14D
100
AcDbEntity
8
Defpoints
62
0
6
ByLayer
370
-1
48
1
60
0
100
AcDbPoint
10
-26.2599
20
0
30
0
39
0
210
0
220
0
230
1
50
360
0
POINT
5
14E
100
AcDbEntity
8
Defpoints
62
0
6
ByLayer
370
-1
48
1
60
0
100
AcDbPoint
10
0
20
0
30
0
39
0
210
0
220
0
230
1
50
360
0
POINT
5
14F
100
AcDbEntity
8
Defpoints
62
0
6
ByLayer
370
-1
48
1
60
0
100
AcDbPoint
10
0
20
11.35
30
0
39
0
210
0
220
0
230
1
50
360
0
ENDBLK
5
146
100
AcDbEntity
8
0
100
AcDbBlockEnd
0
BLOCK
5
157
100
AcDbEntity
8
0
100
AcDbBlockBegin
2
_U3
70
0
10
0
20
0
30
0
3
_U3
0
MTEXT
5
151
100
AcDbEntity
8
SK2
62
256
6
ByLayer
370
18
48
1
60
0
100
AcDbMText
10
-17.61232
20
12.235114
30
0
210
0
220
0
230
1
1
\W0.7468;26.26
40
3
41
0
44
1.084337
50
0
71
7
72
5
7
iso_b_vert
0
LINE
5
152
100
AcDbEntity
8
SK2
62
256
6
ByLayer
370
13
48
1
60
0
100
AcDbLine
10
-26.2599
20
1.5875
30
0
11
-26.2599
21
13.35
31
0
39
0
210
0
220
0
230
1
0
LINE
5
153
100
AcDbEntity
8
SK2
62
256
6
ByLayer
370
13
48
1
60
0
100
AcDbLine
10
0
20
1.5875
30
0
11
0
21
13.35
31
0
39
0
210
0
220
0
230
1
0
LINE
5
154
100
AcDbEntity
8
SK2
62
256
6
ByLayer
370
13
48
1
60
0
100
AcDbLine
10
-26.2599
20
11.35
30
0
11
0
21
11.35
31
0
39
0
210
0
220
0
230
1
0
SOLID
5
155
100
AcDbEntity
8
SK2
62
256
6
ByLayer
370
18
48
1
60
0
100
AcDbTrace
10
-26.2599
20
11.35
30
0
11
-22.759902
21
11.810784
31
0
12
-22.759898
22
10.889216
32
0
13
-22.759898
23
10.889216
33
0
39
0
210
0
220
0
230
1
0
SOLID
5
156
100
AcDbEntity
8
SK2
62
256
6
ByLayer
370
18
48
1
60
0
100
AcDbTrace
10
0
20
11.35
30
0
11
-3.499998
21
10.889216
31
0
12
-3.500002
22
11.810784
32
0
13
-3.500002
23
11.810784
33
0
39
0
210
0
220
0
230
1
0
ENDBLK
5
158
100
AcDbEntity
8
0
100
AcDbBlockEnd
0
BLOCK
5
15D
100
AcDbEntity
8
0
100
AcDbBlockBegin
2
*D9
70
1
10
0
20
0
30
0
3
*D9
0
LINE
5
15F
100
AcDbEntity
8
0
62
256
6
ByLayer
370
-2
48
1
60
0
100
AcDbLine
10
11.7401
20
2.2375
30
0
11
11.7401
21
13.35
31
0
39
0
210
0
220
0
230
1
0
LINE
5
160
100
AcDbEntity
8
0
62
256
6
ByLayer
370
-2
48
1
60
0
100
AcDbLine
10
0
20
1.5875
30
0
11
0
21
13.35
31
0
39
0
210
0
220
0
230
1
0
LINE
5
161
100
AcDbEntity
8
0
62
256
6
ByLayer
370
-2
48
1
60
0
100
AcDbLine
10
15.2401
20
11.35
30
0
11
18.7401
21
11.35
31
0
39
0
210
0
220
0
230
1
0
LINE
5
162
100
AcDbEntity
8
0
62
256
6
ByLayer
370
-2
48
1
60
0
100
AcDbLine
10
-3.5
20
11.35
30
0
11
-7
21
11.35
31
0
39
0
210
0
220
0
230
1
0
SOLID
5
163
100
AcDbEntity
8
0
62
256
6
ByLayer
370
-1
48
1
60
0
100
AcDbTrace
10
15.2401
20
11.933333
30
0
11
15.2401
21
10.766667
31
0
12
11.7401
22
11.35
32
0
13
11.7401
23
11.35
33
0
39
0
210
0
220
0
230
1
0
SOLID
5
164
100
AcDbEntity
8
0
62
256
6
ByLayer
370
-1
48
1
60
0
100
AcDbTrace
10
-3.5
20
10.766667
30
0
11
-3.5
21
11.933333
31
0
12
0
22
11.35
32
0
13
0
23
11.35
33
0
39
0
210
0
220
0
230
1
0
MTEXT
5
165
100
AcDbEntity
8
0
62
256
6
ByLayer
370
18
48
1
60
0
100
AcDbMText
10
5.87005
20
17.35
30
0
210
0
220
0
230
1
1
\A1;11.74
40
3
41
0
44
1
50
0
71
5
72
5
7
iso_b_vert
0
POINT
5
166
100
AcDbEntity
8
Defpoints
62
0
6
ByLayer
370
-1
48
1
60
0
100
AcDbPoint
10
11.7401
20
0.65
30
0
39
0
210
0
220
0
230
1
50
360
0
POINT
5
167
100
AcDbEntity
8
Defpoints
62
0
6
ByLayer
370
-1
48
1
60
0
100
AcDbPoint
10
0
20
0
30
0
39
0
210
0
220
0
230
1
50
360
0
POINT
5
168
100
AcDbEntity
8
Defpoints
62
0
6
ByLayer
370
-1
48
1
60
0
100
AcDbPoint
10
0
20
11.35
30
0
39
0
210
0
220
0
230
1
50
360
0
ENDBLK
5
15E
100
AcDbEntity
8
0
100
AcDbBlockEnd
0
BLOCK
5
170
100
AcDbEntity
8
0
100
AcDbBlockBegin
2
_U4
70
0
10
0
20
0
30
0
3
_U4
0
MTEXT
5
16A
100
AcDbEntity
8
2
62
256
6
ByLayer
370
18
48
1
60
0
100
AcDbMText
10
1.979622
20
12.235114
30
0
210
0
220
0
230
1
1
\W0.6413;11.74
40
3
41
0
44
1.084337
50
0
71
7
72
5
7
iso_b_vert
0
LINE
5
16B
100
AcDbEntity
8
2
62
256
6
ByLayer
370
13
48
1
60
0
100
AcDbLine
10
11.7401
20
2.2375
30
0
11
11.7401
21
13.35
31
0
39
0
210
0
220
0
230
1
0
LINE
5
16C
100
AcDbEntity
8
2
62
256
6
ByLayer
370
13
48
1
60
0
100
AcDbLine
10
0
20
1.5875
30
0
11
0
21
13.35
31
0
39
0
210
0
220
0
230
1
0
LINE
5
16D
100
AcDbEntity
8
2
62
256
6
ByLayer
370
13
48
1
60
0
100
AcDbLine
10
11.7401
20
11.35
30
0
11
0
21
11.35
31
0
39
0
210
0
220
0
230
1
0
SOLID
5
16E
100
AcDbEntity
8
2
62
256
6
ByLayer
370
18
48
1
60
0
100
AcDbTrace
10
11.7401
20
11.35
30
0
11
8.240102
21
10.889216
31
0
12
8.240098
22
11.810784
32
0
13
8.240098
23
11.810784
33
0
39
0
210
0
220
0
230
1
0
SOLID
5
16F
100
AcDbEntity
8
2
62
256
6
ByLayer
370
18
48
1
60
0
100
AcDbTrace
10
0
20
11.35
30
0
11
3.499998
21
11.810784
31
0
12
3.500002
22
10.889216
32
0
13
3.500002
23
10.889216
33
0
39
0
210
0
220
0
230
1
0
ENDBLK
5
171
100
AcDbEntity
8
0
100
AcDbBlockEnd
0
ENDSEC
0
SECTION
2
ENTITIES
0
ARC
5
BD
100
AcDbEntity
8
1
62
256
6
ByLayer
370
18
48
1
60
0
100
AcDbCircle
39
0
10
1.740144
20
-1.65
30
0
40
1
210
0
220
0
230
1
100
AcDbArc
50
90
51
120
0
ARC
5
BE
100
AcDbEntity
8
1
62
256
6
ByLayer
370
18
48
1
60
0
100
AcDbCircle
39
0
10
1.740144
20
1.65
30
0
40
1
210
0
220
0
230
1
100
AcDbArc
50
240
51
270
0
ARC
5
BF
100
AcDbEntity
8
SK2
62
256
6
ByLayer
370
13
48
1
60
0
100
AcDbCircle
39
0
10
11.7401
20
0
30
0
40
16.35
210
0
220
0
230
1
100
AcDbArc
50
10.57289
51
65
0
ARC
5
C0
100
AcDbEntity
8
SK2
62
256
6
ByLayer
370
13
48
1
60
0
100
AcDbCircle
39
0
10
11.7401
20
0
30
0
40
16.35
210
0
220
0
230
1
100
AcDbArc
50
295
51
349.42711
0
POINT
5
70
100
AcDbEntity
8
80
62
256
6
ByLayer
370
18
48
1
60
0
100
AcDbPoint
10
0
20
0
30
0
39
0
210
0
220
0
230
1
50
360
0
POINT
5
72
100
AcDbEntity
8
81
62
256
6
ByLayer
370
18
48
1
60
0
100
AcDbPoint
10
11.7401
20
0
30
0
39
0
210
0
220
0
230
1
50
360
0
POINT
5
74
100
AcDbEntity
8
1
62
256
6
ByLayer
370
18
48
1
60
1
100
AcDbPoint
10
-26.2599
20
1.5
30
0
39
0
210
0
220
0
230
1
50
360
0
POINT
5
76
100
AcDbEntity
8
1
62
256
6
ByLayer
370
18
48
1
60
1
100
AcDbPoint
10
11.7401
20
0.65
30
0
39
0
210
0
220
0
230
1
50
360
0
POINT
5
77
100
AcDbEntity
8
1
62
256
6
ByLayer
370
18
48
1
60
1
100
AcDbPoint
10
11.7401
20
0.65
30
0
39
0
210
0
220
0
230
1
50
360
0
POINT
5
78
100
AcDbEntity
8
1
62
256
6
ByLayer
370
18
48
1
60
1
100
AcDbPoint
10
5.4901
20
0
30
0
39
0
210
0
220
0
230
1
50
360
0
POINT
5
79
100
AcDbEntity
8
1
62
256
6
ByLayer
370
18
48
1
60
1
100
AcDbPoint
10
11.7401
20
0.65
30
0
39
0
210
0
220
0
230
1
50
360
0
POINT
5
7A
100
AcDbEntity
8
1
62
256
6
ByLayer
370
18
48
1
60
1
100
AcDbPoint
10
3.5401
20
0
30
0
39
0
210
0
220
0
230
1
50
360
0
POINT
5
7B
100
AcDbEntity
8
1
62
256
6
ByLayer
370
18
48
1
60
1
100
AcDbPoint
10
-26.2599
20
0
30
0
39
0
210
0
220
0
230
1
50
360
0
POINT
5
7C
100
AcDbEntity
8
1
62
256
6
ByLayer
370
18
48
1
60
1
100
AcDbPoint
10
0
20
0
30
0
39
0
210
0
220
0
230
1
50
360
0
POINT
5
7D
100
AcDbEntity
8
1
62
256
6
ByLayer
370
18
48
1
60
1
100
AcDbPoint
10
11.7401
20
0.65
30
0
39
0
210
0
220
0
230
1
50
360
0
POINT
5
7E
100
AcDbEntity
8
1
62
256
6
ByLayer
370
18
48
1
60
1
100
AcDbPoint
10
0
20
0
30
0
39
0
210
0
220
0
230
1
50
360
0
SPLINE
5
C1
100
AcDbEntity
8
1
62
256
6
ByLayer
370
18
48
1
60
0
100
AcDbSpline
70
4
71
3
72
12
73
8
40
0
40
0
40
0
40
0
40
0.462851334528738
40
0.462851334528738
40
0.958144199257238
40
0.958144199257238
40
1
40
1
40
1
40
1
41
1
10
3.68159436766993
20
-0.601023416980837
30
0
41
1
10
3.6663745535929
20
-0.608183285454743
30
0
41
1
10
3.65210423588374
20
-0.614803843571366
30
0
41
1
10
3.62465434243271
20
-0.627098932438543
30
0
41
1
10
3.61161854628887
20
-0.632677421479087
30
0
41
1
10
3.59889305614919
20
-0.637631527689933
30
0
41
1
10
3.59791184349453
20
-0.638009866056592
30
0
41
1
10
3.59694136695299
20
-0.638380297994246
30
0
0
SPLINE
5
C2
100
AcDbEntity
8
1
62
256
6
ByLayer
370
18
48
1
60
0
100
AcDbSpline
70
4
71
3
72
18
73
14
40
0
40
0
40
0
40
0
40
0.0701930059423425
40
0.0701930059423425
40
0.225160838285286
40
0.225160838285286
40
0.38012867062823
40
0.38012867062823
40
0.690064335314118
40
0.690064335314118
40
0.845032167657059
40
0.845032167657059
40
1
40
1
40
1
40
1
41
1
10
3.55296369542569
20
-0.649999974604867
30
0
41
1
10
3.55165905885053
20
-0.650008143834242
30
0
41
1
10
3.55044700549581
20
-0.649942265048935
30
0
41
1
10
3.54686192955333
20
-0.649485856794541
30
0
41
1
10
3.54484901954734
20
-0.648789338507015
30
0
41
1
10
3.54186970036992
20
-0.646625444180955
30
0
41
1
10
3.54089569897747
20
-0.645165023498834
30
0
41
1
10
3.53948738106695
20
-0.639663873270393
30
0
41
1
10
3.54055741870468
20
-0.634507121402663
30
0
41
1
10
3.54521460767398
20
-0.624528782995782
30
0
41
1
10
3.54728937727793
20
-0.620812770006239
30
0
41
1
10
3.55240217926934
20
-0.612755354863197
30
0
41
1
10
3.55544211353038
20
-0.608405404902726
30
0
41
1
10
3.5589548962115
20
-0.60374991166637
30
0
0
SPLINE
5
C3
100
AcDbEntity
8
1
62
256
6
ByLayer
370
18
48
1
60
0
100
AcDbSpline
70
4
71
3
72
16
73
12
40
0
40
0
40
0
40
0
40
0.25
40
0.25
40
0.5
40
0.5
40
0.625
40
0.625
40
0.75
40
0.75
40
1
40
1
40
1
40
1
41
1
10
3.55895489621236
20
-0.603749911666938
30
0
41
1
10
3.61715469892556
20
-0.598441770931458
30
0
41
1
10
3.6756444587015
20
-0.594206108117334
30
0
41
1
10
3.79318490669863
20
-0.58881210880665
30
0
41
1
10
3.85223565558059
20
-0.587651512224255
30
0
41
1
10
3.94123760165007
20
-0.588439619632908
30
0
41
1
10
3.97097608114092
20
-0.589119122617092
30
0
41
1
10
4.03059865567266
20
-0.591290534289726
30
0
41
1
10
4.06035331322133
20
-0.592779242010579
30
0
41
1
10
4.1488877774388
20
-0.598280542322129
30
0
41
1
10
4.20717246760717
20
-0.603355918127619
30
0
41
1
10
4.26472000000538
20
-0.609202082220463
30
0
0
SPLINE
5
C4
100
AcDbEntity
8
1
62
256
6
ByLayer
370
18
48
1
60
0
100
AcDbSpline
70
4
71
3
72
32
73
28
40
0
40
0
40
0
40
0
40
0.156574172513525
40
0.156574172513525
40
0.234861258770287
40
0.234861258770287
40
0.31314834502705
40
0.31314834502705
40
0.391435431283812
40
0.391435431283812
40
0.469722517540575
40
0.469722517540575
40
0.6262966900541
40
0.6262966900541
40
0.665440233182485
40
0.665440233182485
40
0.70458377631087
40
0.70458377631087
40
0.782870862567633
40
0.782870862567633
40
0.861157948824396
40
0.861157948824396
40
0.900301491952778
40
0.900301491952778
40
0.939445035081159
40
0.939445035081159
40
1
40
1
40
1
40
1
41
1
10
4.26472000000001
20
0.376901053923177
30
0
41
1
10
4.21519006580272
20
0.388657326371316
30
0
41
1
10
4.16665762022961
20
0.402370629611625
30
0
41
1
10
4.09535381238788
20
0.425269194709216
30
0
41
1
10
4.07184656098985
20
0.43328746534371
30
0
41
1
10
4.02560256841971
20
0.449885011571041
30
0
41
1
10
4.00283283303531
20
0.458474692616477
30
0
41
1
10
3.95801065245556
20
0.476095044876274
30
0
41
1
10
3.93589915600074
20
0.485151885122008
30
0
41
1
10
3.89286974603203
20
0.50335740230409
30
0
41
1
10
3.87191838637043
20
0.512517383876627
30
0
41
1
10
3.81080013048842
20
0.539876836806059
30
0
41
1
10
3.77234695135837
20
0.557978238561333
30
0
41
1
10
3.72754037242359
20
0.579246956313455
30
0
41
1
10
3.71874381463852
20
0.583431008806429
30
0
41
1
10
3.70149902017101
20
0.591620509853129
30
0
41
1
10
3.69302298464817
20
0.595639067688694
30
0
41
1
10
3.66837994621804
20
0.607251861265212
30
0
41
1
10
3.65303365396929
20
0.614387547676557
30
0
41
1
10
3.62465434243271
20
0.627098932438543
30
0
41
1
10
3.61161854628887
20
0.632677421479087
30
0
41
1
10
3.59401770818337
20
0.639529528582045
30
0
41
1
10
3.58851432264288
20
0.641544136203265
30
0
41
1
10
3.57837994826687
20
0.644947508907705
30
0
41
1
10
3.57372770453961
20
0.646344691414527
30
0
41
1
10
3.56295585165123
20
0.6490803105672
30
0
41
1
10
3.55742001316406
20
0.649972014733578
30
0
41
1
10
3.55296413053867
20
0.649999971877605
30
0
0
SPLINE
5
C5
100
AcDbEntity
8
1
62
256
6
ByLayer
370
18
48
1
60
0
100
AcDbSpline
70
4
71
3
72
16
73
12
40
0
40
0
40
0
40
0
40
0.092507239618333
40
0.092507239618333
40
0.395004826412222
40
0.395004826412222
40
0.546253619809167
40
0.546253619809167
40
0.697502413206111
40
0.697502413206111
40
1
40
1
40
1
40
1
41
1
10
3.68057581139809
20
0.594401786639565
30
0
41
1
10
3.6984956916348
20
0.593302552273173
30
0
41
1
10
3.71644207256625
20
0.592333881961906
30
0
41
1
10
3.79318490669863
20
0.58881210880665
30
0
41
1
10
3.85223565558059
20
0.587651512224255
30
0
41
1
10
3.94123760165005
20
0.588439619632908
30
0
41
1
10
3.97097608114092
20
0.589119122617092
30
0
41
1
10
4.03059865567269
20
0.591290534289726
30
0
41
1
10
4.06035331322133
20
0.592779242010579
30
0
41
1
10
4.1488877774388
20
0.598280542322129
30
0
41
1
10
4.20717246760717
20
0.603355918127619
30
0
41
1
10
4.26472000000538
20
0.609202082220463
30
0
0
SPLINE
5
C6
100
AcDbEntity
8
1
62
256
6
ByLayer
370
18
48
1
60
0
100
AcDbSpline
70
4
71
3
72
64
73
60
40
0
40
0
40
0
40
0
40
0.0260861607109666
40
0.0260861607109666
40
0.0522772010019039
40
0.0522772010019039
40
0.0784682412928413
40
0.0784682412928413
40
0.104659281583779
40
0.104659281583779
40
0.157041362165653
40
0.157041362165653
40
0.183232402456591
40
0.183232402456591
40
0.209423442747528
40
0.209423442747528
40
0.261805523329406
40
0.261805523329406
40
0.287996563620345
40
0.287996563620345
40
0.314187603911284
40
0.314187603911284
40
0.366569684493163
40
0.366569684493163
40
0.418951765075041
40
0.418951765075041
40
0.445142805365978
40
0.445142805365978
40
0.471333845656916
40
0.471333845656916
40
0.523715926238794
40
0.523715926238794
40
0.549906966529733
40
0.549906966529733
40
0.576098006820672
40
0.576098006820672
40
0.62848008740255
40
0.62848008740255
40
0.680862167984429
40
0.680862167984429
40
0.70705320827537
40
0.70705320827537
40
0.733244248566311
40
0.733244248566311
40
0.785626329148189
40
0.785626329148189
40
0.811817369439128
40
0.811817369439128
40
0.838008409730067
40
0.838008409730067
40
0.890390490311949
40
0.890390490311949
40
0.942772570893831
40
0.942772570893831
40
0.968963611184774
40
0.968963611184774
40
0.995154651475717
40
0.995154651475717
40
1
40
1
40
1
40
1
41
1
10
6.73071337944211
20
0.649999907192807
30
0
41
1
10
6.76794698165818
20
0.649988420778328
30
0
41
1
10
6.80527376905351
20
0.648910467236874
30
0
41
1
10
6.87988904920499
20
0.644624298673818
30
0
41
1
10
6.91719610316557
20
0.641407727132162
30
0
41
1
10
6.99177077832618
20
0.632862273946103
30
0
41
1
10
7.02905560169111
20
0.627539346080795
30
0
41
1
10
7.10373082362062
20
0.614849124629956
30
0
41
1
10
7.14113873932692
20
0.607472543154046
30
0
41
1
10
7.25344018685504
20
0.582350719022031
30
0
41
1
10
7.32801187179967
20
0.561706818638498
30
0
41
1
10
7.43987317440937
20
0.525261674855045
30
0
41
1
10
7.47718927000778
20
0.512225852095696
30
0
41
1
10
7.55198302111458
20
0.484486505035761
30
0
41
1
10
7.58942061092336
20
0.469782062226102
30
0
41
1
10
7.70145770555681
20
0.423518249880857
30
0
41
1
10
7.77597809132587
20
0.389746814893414
30
0
41
1
10
7.88797390795304
20
0.335303309597435
30
0
41
1
10
7.92542355835724
20
0.316546281587165
30
0
41
1
10
8.00019654102388
20
0.278176972132997
30
0
41
1
10
8.0375381462095
20
0.258551234254554
30
0
41
1
10
8.14954079941364
20
0.198540757163528
30
0
41
1
10
8.22422017731554
20
0.157004603990913
30
0
41
1
10
8.37395917141791
20
0.0719724778998625
30
0
41
1
10
8.44859470454796
20
0.0289762986438689
30
0
41
1
10
8.56041247905202
20
-0.0358648331977633
30
0
41
1
10
8.59768840466936
20
-0.0574914471762327
30
0
41
1
10
8.67238467267885
20
-0.10053124306134
30
0
41
1
10
8.70980118071688
20
-0.121902049485385
30
0
41
1
10
8.82186104064147
20
-0.184993433118223
30
0
41
1
10
8.89649907311471
20
-0.225841422928596
30
0
41
1
10
9.00869888029027
20
-0.284737632501702
30
0
41
1
10
9.04618881547711
20
-0.303997825435573
30
0
41
1
10
9.12098255480524
20
-0.341430978936387
30
0
41
1
10
9.15828840120676
20
-0.35963338063064
30
0
41
1
10
9.27009802436837
20
-0.412441153405922
30
0
41
1
10
9.34467213812582
20
-0.445052525773264
30
0
41
1
10
9.49436112634763
20
-0.504151530724698
30
0
41
1
10
9.56893231989207
20
-0.530404596032554
30
0
41
1
10
9.68085184502232
20
-0.564386401803972
30
0
41
1
10
9.71818644992607
20
-0.574796431758358
30
0
41
1
10
9.79301114846115
20
-0.593697488588418
30
0
41
1
10
9.83048078865161
20
-0.602186954759816
30
0
41
1
10
9.94260272986853
20
-0.624583838382705
30
0
41
1
10
10.0171663549294
20
-0.635481226716081
30
0
41
1
10
10.1291808008014
20
-0.645512162222445
30
0
41
1
10
10.1666263583827
20
-0.6477936994402
30
0
41
1
10
10.2414025004581
20
-0.650194272984294
30
0
41
1
10
10.2787352318158
20
-0.650319357801379
30
0
41
1
10
10.3906861108704
20
-0.647488634432051
30
0
41
1
10
10.4652857616127
20
-0.641329444179576
30
0
41
1
10
10.6149323316005
20
-0.62050009640194
30
0
41
1
10
10.6895320847584
20
-0.605970386299219
30
0
41
1
10
10.8015451844191
20
-0.578384291367996
30
0
41
1
10
10.8389002695016
20
-0.568221175100433
30
0
41
1
10
10.9137191155917
20
-0.546004340775312
30
0
41
1
10
10.9511657527924
20
-0.53394241692132
30
0
41
1
10
10.99536691641
20
-0.518665384314886
30
0
41
1
10
11.0022651450307
20
-0.516251946206097
30
0
41
1
10
11.0091613308099
20
-0.513810537621765
30
0
0
SPLINE
5
C7
100
AcDbEntity
8
1
62
256
6
ByLayer
370
18
48
1
60
0
100
AcDbSpline
70
4
71
3
72
28
73
24
40
0
40
0
40
0
40
0
40
0.0329293801297161
40
0.0329293801297161
40
0.0658587602594322
40
0.0658587602594322
40
0.131717520518827
40
0.131717520518827
40
0.197576280778222
40
0.197576280778222
40
0.263435041037617
40
0.263435041037617
40
0.329293801297012
40
0.329293801297012
40
0.395152561556406
40
0.395152561556406
40
0.461011321815801
40
0.461011321815801
40
0.526870082075196
40
0.526870082075196
40
0.790305123112739
40
0.790305123112739
40
1
40
1
40
1
40
1
41
1
10
11.4370000221993
20
0.625663837208606
30
0
41
1
10
11.4317743788609
20
0.625191606216504
30
0
41
1
10
11.426661640675
20
0.624658202084362
30
0
41
1
10
11.4166805131022
20
0.62344935755786
30
0
41
1
10
11.4118178374002
20
0.622770726838496
30
0
41
1
10
11.3974768461921
20
0.620564677067051
30
0
41
1
10
11.3882344333578
20
0.618870203586681
30
0
41
1
10
11.3698353465454
20
0.615285887359875
30
0
41
1
10
11.360663838008
20
0.613405731122668
30
0
41
1
10
11.3420473630457
20
0.609675742108436
30
0
41
1
10
11.3326474192996
20
0.607802127659085
30
0
41
1
10
11.3138148367826
20
0.603957105744541
30
0
41
1
10
11.304388259225
20
0.60198156168812
30
0
41
1
10
11.285634940132
20
0.597839434118498
30
0
41
1
10
11.2762923374416
20
0.59568246088827
30
0
41
1
10
11.2576112654583
20
0.591237076937205
30
0
41
1
10
11.2482715436945
20
0.588949643122533
30
0
41
1
10
11.229539897891
20
0.584288160814282
30
0
41
1
10
11.220155046927
20
0.58190938076774
30
0
41
1
10
11.1732553821731
20
0.569683259335932
30
0
41
1
10
11.1358288638723
20
0.558913033243471
30
0
41
1
10
11.0686658584832
20
0.538001148897877
30
0
41
1
10
11.0389291667587
20
0.528158097414575
30
0
41
1
10
11.0091946327664
20
0.517767995593857
30
0
0
SPLINE
5
C8
100
AcDbEntity
8
1
62
256
6
ByLayer
370
18
48
1
60
0
100
AcDbSpline
70
4
71
3
72
56
73
52
40
0
40
0
40
0
40
0
40
0.0326619824467353
40
0.0326619824467353
40
0.0895642187734035
40
0.0895642187734035
40
0.118015336936738
40
0.118015336936738
40
0.146466455100072
40
0.146466455100072
40
0.174917573263406
40
0.174917573263406
40
0.20336869142674
40
0.20336869142674
40
0.260270927753404
40
0.260270927753404
40
0.317173164080068
40
0.317173164080068
40
0.374075400406732
40
0.374075400406732
40
0.402526518570066
40
0.402526518570066
40
0.4309776367334
40
0.4309776367334
40
0.459428754896735
40
0.459428754896735
40
0.487879873060069
40
0.487879873060069
40
0.544782109386733
40
0.544782109386733
40
0.573233227550063
40
0.573233227550063
40
0.601684345713393
40
0.601684345713393
40
0.658586582040053
40
0.658586582040053
40
0.715488818366713
40
0.715488818366713
40
0.743939936530041
40
0.743939936530041
40
0.772391054693369
40
0.772391054693369
40
0.829293291020025
40
0.829293291020025
40
0.857744409183355
40
0.857744409183355
40
0.886195527346684
40
0.886195527346684
40
0.943097763673342
40
0.943097763673342
40
1
40
1
40
1
40
1
41
1
10
8.20260429119597
20
-0.649995086405596
30
0
41
1
10
8.15958215960958
20
-0.649987555311867
30
0
41
1
10
8.11654020916842
20
-0.648567245181056
30
0
41
1
10
7.99878311022343
20
-0.640814501819563
30
0
41
1
10
7.92411409205027
20
-0.63164241041693
30
0
41
1
10
7.8118652341395
20
-0.611573279723302
30
0
41
1
10
7.77437445594893
20
-0.60384415086466
30
0
41
1
10
7.69956794849762
20
-0.586465582154233
30
0
41
1
10
7.66220381332101
20
-0.576805673919608
30
0
41
1
10
7.58747763057133
20
-0.555613792540754
30
0
41
1
10
7.55011315350066
20
-0.54408384570516
30
0
41
1
10
7.47530341564774
20
-0.51921962931587
30
0
41
1
10
7.43781649612967
20
-0.505853847199973
30
0
41
1
10
7.32556124168894
20
-0.463328836763594
30
0
41
1
10
7.25089527224492
20
-0.431889754420894
30
0
41
1
10
7.10131072672618
20
-0.363669406380893
30
0
41
1
10
7.02625375799616
20
-0.326766542331626
30
0
41
1
10
6.87680442891386
20
-0.249217855836576
30
0
41
1
10
6.80213917229446
20
-0.208700864556874
30
0
41
1
10
6.68975167477032
20
-0.146103563520285
30
0
41
1
10
6.65222390331564
20
-0.12492572785726
30
0
41
1
10
6.57737980179687
20
-0.0823116598015758
30
0
41
1
10
6.54001820061055
20
-0.06083621727484
30
0
41
1
10
6.46531949321084
20
-0.0177152645370882
30
0
41
1
10
6.42795558846828
20
0.0038836683717705
30
0
41
1
10
6.35310424471339
20
0.0469933390656365
30
0
41
1
10
6.31557358241065
20
0.0685474768296217
30
0
41
1
10
6.20315537914715
20
0.13266423860378
30
0
41
1
10
6.12847339295243
20
0.174698490901363
30
0
41
1
10
6.01636397009511
20
0.23586173701716
30
0
41
1
10
5.97895025435278
20
0.255885901947039
30
0
41
1
10
5.90394809612619
20
0.295064569193073
30
0
41
1
10
5.86657871771797
20
0.314110004459479
30
0
41
1
10
5.75482289232406
20
0.369446592936413
30
0
41
1
10
5.68076990671315
20
0.403975508697272
30
0
41
1
10
5.53293780774538
20
0.467471954402725
30
0
41
1
10
5.45904187653957
20
0.496287288375555
30
0
41
1
10
5.34777727466445
20
0.534569559258216
30
0
41
1
10
5.31062126483735
20
0.546508627850017
30
0
41
1
10
5.23610047816433
20
0.568642224255314
30
0
41
1
10
5.19868007917509
20
0.578853703672621
30
0
41
1
10
5.0863846206158
20
0.606583195282099
30
0
41
1
10
5.01172723623876
20
0.621015272451245
30
0
41
1
10
4.89957414165585
20
0.636424893484673
30
0
41
1
10
4.86216485121787
20
0.640521819089457
30
0
41
1
10
4.78721881151989
20
0.646594331109611
30
0
41
1
10
4.74975277666093
20
0.64856301694968
30
0
41
1
10
4.63775458840516
20
0.651225661759696
30
0
41
1
10
4.5633054925612
20
0.648697907688785
30
0
41
1
10
4.41426094076931
20
0.635248047429258
30
0
41
1
10
4.33967045868664
20
0.624325192928069
30
0
41
1
10
4.26472000000001
20
0.609202082219866
30
0
0
SPLINE
5
C9
100
AcDbEntity
8
1
62
256
6
ByLayer
370
18
48
1
60
0
100
AcDbSpline
70
4
71
3
72
22
73
18
40
0
40
0
40
0
40
0
40
0.125
40
0.125
40
0.25
40
0.25
40
0.375
40
0.375
40
0.5
40
0.5
40
0.625
40
0.625
40
0.75
40
0.75
40
0.875
40
0.875
40
1
40
1
40
1
40
1
41
1
10
11.6643250099993
20
0.147280361137348
30
0
41
1
10
11.6587940981828
20
0.166795639969195
30
0
41
1
10
11.6514438702072
20
0.18606522774374
30
0
41
1
10
11.6352876087863
20
0.224640979442114
30
0
41
1
10
11.6264427882895
20
0.243939579470322
30
0
41
1
10
11.608067438918
20
0.282778015553248
30
0
41
1
10
11.5985201692618
20
0.302313810504586
30
0
41
1
10
11.5791144229258
20
0.341575204034797
30
0
41
1
10
11.5692437764161
20
0.361309231998689
30
0
41
1
10
11.549305738628
20
0.40106740815645
30
0
41
1
10
11.5392346820683
20
0.421096873892992
30
0
41
1
10
11.5189470533682
20
0.461561320073002
30
0
41
1
10
11.5087394295037
20
0.481973672629891
30
0
41
1
10
11.4882798854755
20
0.522984182964507
30
0
41
1
10
11.4780231337215
20
0.543593611144757
30
0
41
1
10
11.4575022927481
20
0.584778571793322
30
0
41
1
10
11.4472394637623
20
0.605346495448487
30
0
41
1
10
11.4370000221994
20
0.625663837208663
30
0
0
SPLINE
5
CA
100
AcDbEntity
8
1
62
256
6
ByLayer
370
18
48
1
60
0
100
AcDbSpline
70
4
71
3
72
74
73
70
40
0
40
0
40
0
40
0
40
0.0035257944059784
40
0.0035257944059784
40
0.0070515888119568
40
0.0070515888119568
40
0.0141031776239175
40
0.0141031776239175
40
0.0211547664358783
40
0.0211547664358783
40
0.0282063552478391
40
0.0282063552478391
40
0.0352579440597999
40
0.0352579440597999
40
0.0423095328717607
40
0.0423095328717607
40
0.0493611216837214
40
0.0493611216837214
40
0.0564127104956822
40
0.0564127104956822
40
0.0846190657435253
40
0.0846190657435253
40
0.112825420991368
40
0.112825420991368
40
0.141031776239212
40
0.141031776239212
40
0.169238131487055
40
0.169238131487055
40
0.225650841982745
40
0.225650841982745
40
0.253857197230592
40
0.253857197230592
40
0.282063552478439
40
0.282063552478439
40
0.338476262974137
40
0.338476262974137
40
0.366682618221986
40
0.366682618221986
40
0.394888973469835
40
0.394888973469835
40
0.423095328717685
40
0.423095328717685
40
0.451301683965534
40
0.451301683965534
40
0.564127104956934
40
0.564127104956934
40
0.620539815452636
40
0.620539815452636
40
0.648746170700485
40
0.648746170700485
40
0.676952525948334
40
0.676952525948334
40
0.705158881196183
40
0.705158881196183
40
0.733365236444032
40
0.733365236444032
40
0.789777946939726
40
0.789777946939726
40
0.846190657435421
40
0.846190657435421
40
0.902603367931115
40
0.902603367931115
40
0.930809723178962
40
0.930809723178962
40
0.959016078426809
40
0.959016078426809
40
0.987222433674656
40
0.987222433674656
40
1
40
1
40
1
40
1
41
1
10
11.4370000221993
20
-0.625663837208634
30
0
41
1
10
11.4317743788609
20
-0.625191606216504
30
0
41
1
10
11.4266616406755
20
-0.624658202084419
30
0
41
1
10
11.4166805131028
20
-0.623449357557917
30
0
41
1
10
11.4118178374008
20
-0.622770726838581
30
0
41
1
10
11.3974768461926
20
-0.620564677067136
30
0
41
1
10
11.3882344333583
20
-0.618870203586766
30
0
41
1
10
11.369835346546
20
-0.615285887359988
30
0
41
1
10
11.3606638380086
20
-0.613405731122782
30
0
41
1
10
11.3420473630462
20
-0.60967574210855
30
0
41
1
10
11.3326474193001
20
-0.607802127659198
30
0
41
1
10
11.3138148367832
20
-0.603957105744655
30
0
41
1
10
11.3043882592255
20
-0.601981561688262
30
0
41
1
10
11.2856349401326
20
-0.597839434118612
30
0
41
1
10
11.2762923374421
20
-0.595682460888384
30
0
41
1
10
11.2576112654589
20
-0.591237076937347
30
0
41
1
10
11.248271543695
20
-0.588949643122646
30
0
41
1
10
11.2295398978916
20
-0.584288160814424
30
0
41
1
10
11.2201550469275
20
-0.581909380767883
30
0
41
1
10
11.1732553821737
20
-0.569683259336074
30
0
41
1
10
11.1358288638729
20
-0.558913033243613
30
0
41
1
10
11.0610371907591
20
-0.535625885667258
30
0
41
1
10
11.0236894542154
20
-0.523075236105484
30
0
41
1
10
10.948977883461
20
-0.49626958973468
30
0
41
1
10
10.9115977748811
20
-0.482032543005545
30
0
41
1
10
10.8366926573835
20
-0.452002709776252
30
0
41
1
10
10.7991487860021
20
-0.436189200223737
30
0
41
1
10
10.6868153643765
20
-0.38678708268921
30
0
41
1
10
10.6121407559171
20
-0.351159241521287
30
0
41
1
10
10.4999951844892
20
-0.294298341455601
30
0
41
1
10
10.462513815395
20
-0.274796656140524
30
0
41
1
10
10.3875888173771
20
-0.235001835926994
30
0
41
1
10
10.3501874014904
20
-0.214726562416416
30
0
41
1
10
10.2380492156352
20
-0.152966038609065
30
0
41
1
10
10.1633707131013
20
-0.110560176784332
30
0
41
1
10
10.0509973356086
20
-0.0458921376242927
30
0
41
1
10
10.013538565896
20
-0.0242643216073759
30
0
41
1
10
9.93872432521673
20
0.0188729282100439
30
0
41
1
10
9.90134422297191
20
0.0404090724167645
30
0
41
1
10
9.82656137682065
20
0.0832836230572411
30
0
41
1
10
9.78915934771263
20
0.104623276500632
30
0
41
1
10
9.71426023578593
20
0.146978578431998
30
0
41
1
10
9.67672317124928
20
0.168031808990719
30
0
41
1
10
9.49006117746634
20
0.271262147691687
30
0
41
1
10
9.342699775732
20
0.347563963133126
30
0
41
1
10
9.12076815146324
20
0.44683448143715
30
0
41
1
10
9.04646788488131
20
0.477150859882727
30
0
41
1
10
8.93411960960432
20
0.51790048783073
30
0
41
1
10
8.89654670078079
20
0.530683130114369
30
0
41
1
10
8.82165908049234
20
0.554397200543008
30
0
41
1
10
8.78426935660144
20
0.565357212987692
30
0
41
1
10
8.70953856153682
20
0.585420948273423
30
0
41
1
10
8.67220203306891
20
0.594527228606665
30
0
41
1
10
8.59748115023632
20
0.610778819111459
30
0
41
1
10
8.56002774649872
20
0.617919636029683
30
0
41
1
10
8.44781978009132
20
0.636144332390813
30
0
41
1
10
8.37309663705878
20
0.64402922372031
30
0
41
1
10
8.22352411125499
20
0.6513208046388
30
0
41
1
10
8.14841077102571
20
0.650665499036506
30
0
41
1
10
7.99878311022368
20
0.640814501819591
30
0
41
1
10
7.9241140920505
20
0.631642410416958
30
0
41
1
10
7.81186523413973
20
0.611573279723359
30
0
41
1
10
7.77437445594919
20
0.603844150864717
30
0
41
1
10
7.69956794849787
20
0.58646558215429
30
0
41
1
10
7.66220381332121
20
0.576805673919694
30
0
41
1
10
7.58747763057156
20
0.555613792540811
30
0
41
1
10
7.55011315350086
20
0.544083845705217
30
0
41
1
10
7.4957637630508
20
0.526019953977226
30
0
41
1
10
7.47880240377705
20
0.520196569531066
30
0
41
1
10
7.46183820230209
20
0.51419315347917
30
0
0
SPLINE
5
CB
100
AcDbEntity
8
1
62
256
6
ByLayer
370
18
48
1
60
0
100
AcDbSpline
70
4
71
3
72
10
73
6
40
0
40
0
40
0
40
0
40
0.444290710611549
40
0.444290710611549
40
1
40
1
40
1
40
1
41
1
10
4.66753299006317
20
-0.65000021020046
30
0
41
1
10
4.60789786295393
20
-0.650043318598279
30
0
41
1
10
4.54836392828273
20
-0.647349572917818
30
0
41
1
10
4.41426094076928
20
-0.635248047429258
30
0
41
1
10
4.33967045868661
20
-0.624325192928069
30
0
41
1
10
4.26472000000001
20
-0.609202082219838
30
0
0
SPLINE
5
CC
100
AcDbEntity
8
1
62
256
6
ByLayer
370
18
48
1
60
0
100
AcDbSpline
70
4
71
3
72
42
73
38
40
0
40
0
40
0
40
0
40
0.0286203381085901
40
0.0597487234177322
40
0.0908771087268744
40
0.114223397708731
40
0.137569686690588
40
0.16869807199973
40
0.199826457308873
40
0.230954842618015
40
0.262083227927157
40
0.2932116132363
40
0.308775805890871
40
0.339904191200013
40
0.371032576509155
40
0.402160961818297
40
0.43328934712744
40
0.464417732436582
40
0.479981925091153
40
0.511110310400295
40
0.542238695709438
40
0.57336708101858
40
0.604495466327723
40
0.635623851636865
40
0.658970140618721
40
0.682316429600578
40
0.71344481490972
40
0.744573200218863
40
0.775701585528005
40
0.806829970837147
40
0.830176259819004
40
0.853522548800861
40
0.884650934110003
40
0.915779319419145
40
0.946907704728288
40
0.97803609003743
40
1
40
1
40
1
40
1
41
1
10
8.29913668244069
20
0.120049510577843
30
0
41
1
10
8.31703552135195
20
0.11830972577809
30
0
41
1
10
8.35440170382225
20
0.114582332204122
30
0
41
1
10
8.41123522953435
20
0.108634960924178
30
0
41
0.999999999999999
10
8.46477042534327
20
0.10275858691503
30
0
41
1
10
8.51343877908297
20
0.0971946664017764
30
0
41
1
10
8.5621071609107
20
0.0914512379067389
30
0
41
1
10
8.61564228213578
20
0.0849318203759992
30
0
41
1
10
8.67404403760702
20
0.0775872128138531
30
0
41
1
10
8.7324456242151
20
0.0700617768956419
30
0
41
1
10
8.79084705191243
20
0.0623691894475087
30
0
41
1
10
8.83951478764192
20
0.0558344622462528
30
0
41
1
10
8.88818244077973
20
0.0492144047659906
30
0
41
1
10
8.93685001553237
20
0.0425136385738085
30
0
41
1
10
8.99525099287046
20
0.0343568061916812
30
0
41
1
10
9.05365187094557
20
0.0260976668981243
30
0
41
1
10
9.11205266285023
20
0.0177560911755847
30
0
41
1
10
9.16071992854109
20
0.0107415925093335
30
0
41
1
10
9.20938715674322
20
0.0036901666901485
30
0
41
1
10
9.25805435154859
20
-0.0033646217091245
30
0
41
1
10
9.31645494497403
20
-0.0118058358558244
30
0
41
1
10
9.37485551115213
20
-0.0202082656984714
30
0
41
1
10
9.43325606317657
20
-0.0285535594595387
30
0
41
1
10
9.48678990156066
20
-0.0361272814285769
30
0
41
1
10
9.53545703613892
20
-0.0429381341376427
30
0
41
1
10
9.58412418437572
20
-0.049676739938377
30
0
41
1
10
9.63765807284167
20
-0.0569913895542982
30
0
41
1
10
9.69605872320861
20
-0.0648162780980784
30
0
41
1
10
9.75445943143759
20
-0.0724499283377611
30
0
41
1
10
9.8079934790224
20
-0.0792635007691729
30
0
41
1
10
9.85666085630006
20
-0.085299443922878
30
0
41
0.999999999999999
10
9.90532829222509
20
-0.0911930237816137
30
0
41
1
10
9.9588625549849
20
-0.0974840519720032
30
0
41
1
10
10.0172636854879
20
-0.104091226651263
30
0
41
1
10
10.0756649464679
20
-0.110431699380768
30
0
41
1
10
10.1283350496449
20
-0.115891957106982
30
0
41
1
10
10.1615380999615
20
-0.11917439558502
30
0
41
1
10
10.1752739787103
20
-0.120504799418654
30
0
0
SPLINE
5
CD
100
AcDbEntity
8
1
62
256
6
ByLayer
370
18
48
1
60
0
100
AcDbSpline
70
4
71
3
72
20
73
16
40
0
40
0
40
0
40
0
40
0.0237759872982257
40
0.0237759872982257
40
0.186479989415188
40
0.186479989415188
40
0.349183991532151
40
0.349183991532151
40
0.511887993649113
40
0.511887993649113
40
0.674591995766075
40
0.674591995766075
40
0.837295997883038
40
0.837295997883038
40
1
40
1
40
1
40
1
41
1
10
11.6212596204628
20
-0.254852972220789
30
0
41
1
10
11.619932987888
20
-0.257685900246486
30
0
41
1
10
11.6185977114119
20
-0.260521061036428
30
0
41
1
10
11.608067438918
20
-0.282778015553248
30
0
41
1
10
11.5985201692618
20
-0.302313810504586
30
0
41
1
10
11.5791144229257
20
-0.341575204034797
30
0
41
1
10
11.5692437764161
20
-0.361309231998689
30
0
41
1
10
11.549305738628
20
-0.401067408156479
30
0
41
1
10
11.5392346820683
20
-0.42109687389302
30
0
41
1
10
11.5189470533682
20
-0.461561320073002
30
0
41
1
10
11.5087394295037
20
-0.481973672629891
30
0
41
1
10
11.4882798854755
20
-0.522984182964507
30
0
41
1
10
11.4780231337215
20
-0.543593611144786
30
0
41
1
10
11.4575022927481
20
-0.58477857179335
30
0
41
1
10
11.4472394637623
20
-0.605346495448515
30
0
41
1
10
11.4370000221994
20
-0.625663837208691
30
0
0
SPLINE
5
CE
100
AcDbEntity
8
1
62
256
6
ByLayer
370
18
48
1
60
0
100
AcDbSpline
70
4
71
3
72
52
73
48
40
0
40
0
40
0
40
0
40
0.070099188746761
40
0.070099188746761
40
0.105148783120142
40
0.105148783120142
40
0.140198377493522
40
0.140198377493522
40
0.175247971866903
40
0.175247971866903
40
0.210297566240283
40
0.210297566240283
40
0.280396754987042
40
0.280396754987042
40
0.315446349360423
40
0.315446349360423
40
0.350495943733805
40
0.350495943733805
40
0.420595132480568
40
0.420595132480568
40
0.45564472685395
40
0.45564472685395
40
0.490694321227332
40
0.490694321227332
40
0.525743915600714
40
0.525743915600714
40
0.560793509974095
40
0.560793509974095
40
0.630892698720863
40
0.630892698720863
40
0.665942293094245
40
0.665942293094245
40
0.700991887467627
40
0.700991887467627
40
0.771091076214385
40
0.771091076214385
40
0.806140670587767
40
0.806140670587767
40
0.841190264961148
40
0.841190264961148
40
0.87623985933453
40
0.87623985933453
40
0.911289453707912
40
0.911289453707912
40
0.981388642454675
40
0.981388642454675
40
1
40
1
40
1
40
1
41
1
10
4.26472000000001
20
0.376901053923177
30
0
41
1
10
4.33955322959838
20
0.341621835465077
30
0
41
1
10
4.41424049992372
20
0.304066475454448
30
0
41
1
10
4.52648701606418
20
0.245017960415453
30
0
41
1
10
4.56396823665978
20
0.22486378556161
30
0
41
1
10
4.63873408868591
20
0.18394889362358
30
0
41
1
10
4.67604962677757
20
0.16315978460662
30
0
41
1
10
4.75063532016893
20
0.121067478362363
30
0
41
1
10
4.7879293704722
20
0.0998047912891025
30
0
41
1
10
4.86262356619056
20
0.0570255979192495
30
0
41
1
10
4.90005294138624
20
0.0354709097337889
30
0
41
1
10
5.01231967280233
20
-0.0292683522692982
30
0
41
1
10
5.08686459906156
20
-0.0723964349867288
30
0
41
1
10
5.19870588032697
20
-0.136217187236809
30
0
41
1
10
5.23602452233442
20
-0.157286728762216
30
0
41
1
10
5.31083013748523
20
-0.19886139151933
30
0
41
1
10
5.34825495644304
20
-0.219338667710446
30
0
41
1
10
5.460296282858
20
-0.279445730006074
30
0
41
1
10
5.53483067092415
20
-0.317861786127111
30
0
41
1
10
5.64686739517919
20
-0.372242620814177
30
0
41
1
10
5.68431864666317
20
-0.389809921442549
30
0
41
1
10
5.75907849982738
20
-0.423463529615731
30
0
41
1
10
5.7964131278072
20
-0.439581014743425
30
0
41
1
10
5.87106864723268
20
-0.470309168394209
30
0
41
1
10
5.90838837990637
20
-0.4849213578606
30
0
41
1
10
5.98308427276413
20
-0.512550006879309
30
0
41
1
10
6.02048984526087
20
-0.525580380232441
30
0
41
1
10
6.13269850667425
20
-0.562034632028315
30
0
41
1
10
6.20728884861433
20
-0.582610201341794
30
0
41
1
10
6.31931613632131
20
-0.607596921058473
30
0
41
1
10
6.35667941482004
20
-0.614947203486281
30
0
41
1
10
6.43152302321226
20
-0.627627710724397
30
0
41
1
10
6.46894991923537
20
-0.632951730521938
30
0
41
1
10
6.58093790567844
20
-0.645734663764102
30
0
41
1
10
6.65549920054053
20
-0.650005839120212
30
0
41
1
10
6.76764683495253
20
-0.649997071469073
30
0
41
1
10
6.80512407436652
20
-0.648919066235095
30
0
41
1
10
6.87988904920499
20
-0.644624298673818
30
0
41
1
10
6.91719610316557
20
-0.641407727132162
30
0
41
1
10
6.99177077832618
20
-0.632862273946103
30
0
41
1
10
7.02905560169114
20
-0.627539346080795
30
0
41
1
10
7.10373082362065
20
-0.614849124629956
30
0
41
1
10
7.14113873932689
20
-0.607472543154046
30
0
41
1
10
7.25344018685504
20
-0.582350719022031
30
0
41
1
10
7.32801187179967
20
-0.561706818638498
30
0
41
1
10
7.42238554849845
20
-0.530959257717797
30
0
41
1
10
7.44219319886022
20
-0.524258234810475
30
0
41
1
10
7.46201677800443
20
-0.517315011096798
30
0
0
SPLINE
5
CF
100
AcDbEntity
8
1
62
256
6
ByLayer
370
18
48
1
60
0
100
AcDbSpline
70
4
71
3
72
38
73
34
40
0
40
0
40
0
40
0
40
0.0426955574037711
40
0.0426955574037711
40
0.234156445923001
40
0.234156445923001
40
0.42561733444223
40
0.42561733444223
40
0.521347778701845
40
0.521347778701845
40
0.61707822296146
40
0.61707822296146
40
0.712808667221075
40
0.712808667221075
40
0.80853911148069
40
0.80853911148069
40
0.832471722545604
40
0.832471722545604
40
0.856404333610518
40
0.856404333610518
40
0.880336944675431
40
0.880336944675431
40
0.904269555740345
40
0.904269555740345
40
0.928202166805259
40
0.928202166805259
40
0.952134777870172
40
0.952134777870172
40
0.976067388935086
40
0.976067388935086
40
0.988033694467543
40
0.988033694467543
40
1
40
1
40
1
40
1
41
1
10
10.2661094356805
20
0.649999985315333
30
0
41
1
10
10.2827624983476
20
0.650004876178627
30
0
41
1
10
10.2994089135269
20
0.649796615376829
30
0
41
1
10
10.3906861108704
20
0.647488634432051
30
0
41
1
10
10.4652857616127
20
0.641329444179576
30
0
41
1
10
10.6149323316005
20
0.62050009640194
30
0
41
1
10
10.6895320847584
20
0.605970386299248
30
0
41
1
10
10.8015451844191
20
0.578384291367968
30
0
41
1
10
10.8389002695016
20
0.568221175100433
30
0
41
1
10
10.9137191155917
20
0.546004340775312
30
0
41
1
10
10.9511657527924
20
0.533942416921349
30
0
41
1
10
11.0257668582308
20
0.50815840068779
30
0
41
1
10
11.0629978047647
20
0.494436193946598
30
0
41
1
10
11.1374277043095
20
0.465471360518308
30
0
41
1
10
11.174592877764
20
0.450185865521007
30
0
41
1
10
11.2211311160919
20
0.430263067379855
30
0
41
1
10
11.2304467658665
20
0.426243290966482
30
0
41
1
10
11.2490459905885
20
0.418068236426365
30
0
41
1
10
11.2583235671077
20
0.413904355921943
30
0
41
1
10
11.2768899435391
20
0.405497154081871
30
0
41
1
10
11.2861795871023
20
0.401254955284486
30
0
41
1
10
11.3048344718291
20
0.392784064261548
30
0
41
1
10
11.3142149067629
20
0.388577708137376
30
0
41
1
10
11.3329596240889
20
0.380052625627059
30
0
41
1
10
11.3423185104761
20
0.375726295403439
30
0
41
1
10
11.3608618385092
20
0.366721173365988
30
0
41
1
10
11.3700021306038
20
0.361974945400021
30
0
41
1
10
11.3883499241723
20
0.352474411365563
30
0
41
1
10
11.3975713192094
20
0.347739949803213
30
0
41
1
10
11.4118804072577
20
0.341303438955947
30
0
41
1
10
11.416732386574
20
0.339273577641819
30
0
41
1
10
11.4266895990587
20
0.335590496597604
30
0
41
1
10
11.4317891112679
20
0.333928669472101
30
0
41
1
10
11.4370000221993
20
0.332435780119539
30
0
0
SPLINE
5
D0
100
AcDbEntity
8
1
62
256
6
ByLayer
370
18
48
1
60
0
100
AcDbSpline
70
4
71
3
72
22
73
18
40
0
40
0
40
0
40
0
40
0.125
40
0.125
40
0.25
40
0.25
40
0.375
40
0.375
40
0.5
40
0.5
40
0.625
40
0.625
40
0.75
40
0.75
40
0.875
40
0.875
40
1
40
1
40
1
40
1
41
1
10
11.4370000221993
20
0.332435780119539
30
0
41
1
10
11.4471853695808
20
0.318011591094176
30
0
41
1
10
11.4573501870483
20
0.305131063737889
30
0
41
1
10
11.4776784316268
20
0.281374403500138
30
0
41
1
10
11.4878407817297
20
0.270483779392833
30
0
41
1
10
11.5081636335719
20
0.250105625542545
30
0
41
1
10
11.5183240242487
20
0.24062772933388
30
0
41
1
10
11.538623291647
20
0.222772038405992
30
0
41
1
10
11.548779213147
20
0.214362088744565
30
0
41
1
10
11.5688235631447
20
0.19891824096112
30
0
41
1
10
11.578732489767
20
0.19188096449389
30
0
41
1
10
11.5981777407834
20
0.179242532627427
30
0
41
1
10
11.607721934851
20
0.17362464336918
30
0
41
1
10
11.6261319748985
20
0.163747617192314
30
0
41
1
10
11.6350157053153
20
0.159488369981261
30
0
41
1
10
11.6512921542994
20
0.152344483877414
30
0
41
1
10
11.6587278181933
20
0.1494598227452
30
0
41
1
10
11.6643250099993
20
0.147280361137348
30
0
0
SPLINE
5
D1
100
AcDbEntity
8
1
62
256
6
ByLayer
370
18
48
1
60
0
100
AcDbSpline
70
4
71
3
72
42
73
38
40
0
40
0
40
0
40
0
40
0.0093171396851689
40
0.0408851835583586
40
0.0724532274315483
40
0.104021271304738
40
0.135589315177928
40
0.167157359051118
40
0.19083339195601
40
0.214509424860902
40
0.246077468734092
40
0.277645512607281
40
0.309213556480471
40
0.340781600353661
40
0.364457633258553
40
0.388133666163446
40
0.419701710036635
40
0.451269753909825
40
0.482837797783015
40
0.514405841656204
40
0.545973885529394
40
0.561757907465989
40
0.593325951339179
40
0.624893995212369
40
0.656462039085558
40
0.688030082958748
40
0.719598126831938
40
0.735382148768532
40
0.766950192641722
40
0.798518236514912
40
0.830086280388102
40
0.861654324261291
40
0.893222368134481
40
0.916898401039373
40
0.940574433944266
40
0.972142477817455
40
1
40
1
40
1
40
1
41
1
10
4.77309970858337
20
0.11897577714484
30
0
41
1
10
4.77884536531764
20
0.118410687402161
30
0
41
1
10
4.80405827411317
20
0.115911348320793
30
0
41
1
10
4.84873840681874
20
0.111329673109623
30
0
41
1
10
4.90714007211707
20
0.105043896247139
30
0
41
1
10
4.96554168602415
20
0.0984760988460493
30
0
41
1
10
5.02394325257216
20
0.0916396329006943
30
0
41
1
10
5.07747798223295
20
0.0851390499456954
30
0
41
1
10
5.12614588969188
20
0.0790546974968152
30
0
41
1
10
5.17481377454726
20
0.0728212325425091
30
0
41
1
10
5.22834842132684
20
0.0658149078117276
30
0
41
1
10
5.28674982512928
20
0.0580088577147251
30
0
41
1
10
5.34515120395119
20
0.050055816363141
30
0
41
1
10
5.39868578203428
20
0.0426467326655313
30
0
41
1
10
5.44735356800822
20
0.0358293241135072
30
0
41
1
10
5.49602134536031
20
0.0289487742088568
30
0
41
1
10
5.54955589182942
20
0.0213132087581016
30
0
41
1
10
5.60795720857308
20
0.0129060819437825
30
0
41
1
10
5.66635852270682
20
0.0044644900652031
30
0
41
1
10
5.72475983829821
20
-0.0039662977288231
30
0
41
1
10
5.77342760589448
20
-0.0109767509673304
30
0
41
1
10
5.82209537948921
20
-0.0179621855349978
30
0
41
1
10
5.87076316033648
20
-0.0249182775756935
30
0
41
1
10
5.92916451309031
20
-0.0332008724146817
30
0
41
1
10
5.9875658854827
20
-0.0414009681971379
30
0
41
1
10
6.0459672821452
20
-0.0495024522774372
30
0
41
1
10
6.09463513422088
20
-0.0561522863684161
30
0
41
1
10
6.14330301413455
20
-0.0626887167796326
30
0
41
1
10
6.19197084728032
20
-0.0691160286434638
30
0
41
1
10
6.25037217340656
20
-0.076635907901391
30
0
41
1
10
6.30877343876449
20
-0.0839479477596114
30
0
41
1
10
6.36717465441828
20
-0.0910374470579143
30
0
41
1
10
6.42070906702435
20
-0.0973165830659752
30
0
41
1
10
6.46937669521222
20
-0.102841957886454
30
0
41
1
10
6.51804431190172
20
-0.108205894692389
30
0
41
1
10
6.56929051749035
20
-0.113624600576713
30
0
41
1
10
6.60593644110938
20
-0.117312070903921
30
0
41
1
10
6.62311532196233
20
-0.118998625807308
30
0
0
LINE
5
7F
100
AcDbEntity
8
1
62
256
6
ByLayer
370
18
48
1
60
0
100
AcDbLine
10
0
20
-1.499972
30
0
11
0
21
0
31
0
39
0
210
0
220
0
230
1
0
LINE
5
80
100
AcDbEntity
8
1
62
256
6
ByLayer
370
18
48
1
60
0
100
AcDbLine
10
0
20
0
30
0
11
0
21
1.499972
31
0
39
0
210
0
220
0
230
1
0
LINE
5
81
100
AcDbEntity
8
1
62
256
6
ByLayer
370
18
48
1
60
0
100
AcDbLine
10
11.437
20
0.332436
30
0
11
11.437
21
-0.625664
31
0
39
0
210
0
220
0
230
1
0
LINE
5
82
100
AcDbEntity
8
1
62
256
6
ByLayer
370
18
48
1
60
0
100
AcDbLine
10
4.26472
20
0.609202
30
0
11
4.26472
21
0.363528
31
0
39
0
210
0
220
0
230
1
0
LINE
5
83
100
AcDbEntity
8
1
62
256
6
ByLayer
370
13
48
1
60
0
100
AcDbLine
10
1.740144
20
0.65
30
0
11
1.740144
21
-0.65
31
0
39
0
210
0
220
0
230
1
0
LINE
5
84
100
AcDbEntity
8
1
62
256
6
ByLayer
370
13
48
1
60
0
100
AcDbLine
10
1.240144
20
0.783975
30
0
11
1.240144
21
-0.783975
31
0
39
0
210
0
220
0
230
1
0
LINE
5
85
100
AcDbEntity
8
SK1
62
256
6
ByLayer
370
18
48
1
60
0
100
AcDbLine
10
-26.2599
20
1.326795
30
0
11
-26.2599
21
-1.326795
31
0
39
0
210
0
220
0
230
1
0
LINE
5
87
100
AcDbEntity
8
SK1
62
256
6
ByLayer
370
18
48
1
60
0
100
AcDbLine
10
-25.9599
20
1.5
30
0
11
-25.9599
21
-1.5
31
0
39
0
210
0
220
0
230
1
0
LINE
5
88
100
AcDbEntity
8
SK1
62
256
6
ByLayer
370
18
48
1
60
0
100
AcDbLine
10
0
20
-1.499972
30
0
11
0
21
0
31
0
39
0
210
0
220
0
230
1
0
LINE
5
89
100
AcDbEntity
8
SK1
62
256
6
ByLayer
370
18
48
1
60
0
100
AcDbLine
10
0
20
0
30
0
11
0
21
1.499972
31
0
39
0
210
0
220
0
230
1
0
LINE
5
8A
100
AcDbEntity
8
SK1
62
256
6
ByLayer
370
18
48
1
60
0
100
AcDbLine
10
-4.8E-05
20
1.5
30
0
11
-4.8E-05
21
-1.5
31
0
39
0
210
0
220
0
230
1
0
LINE
5
8B
100
AcDbEntity
8
1
62
256
6
ByLayer
370
18
48
1
60
0
100
AcDbLine
10
1.240144
20
0.783975
30
0
11
0
21
1.499972
31
0
39
0
210
0
220
0
230
1
0
LINE
5
8C
100
AcDbEntity
8
1
62
256
6
ByLayer
370
18
48
1
60
0
100
AcDbLine
10
0
20
-1.499972
30
0
11
1.240144
21
-0.783975
31
0
39
0
210
0
220
0
230
1
0
LINE
5
8D
100
AcDbEntity
8
1
62
256
6
ByLayer
370
18
48
1
60
0
100
AcDbLine
10
11.7401
20
0
30
0
11
11.62094
21
0.255539
31
0
39
0
210
0
220
0
230
1
0
LINE
5
8E
100
AcDbEntity
8
1
62
256
6
ByLayer
370
18
48
1
60
0
100
AcDbLine
10
11.62094
20
-0.255539
30
0
11
11.7401
21
0
31
0
39
0
210
0
220
0
230
1
0
LINE
5
8F
100
AcDbEntity
8
1
62
256
6
ByLayer
370
18
48
1
60
0
100
AcDbLine
10
1.740144
20
-0.65
30
0
11
3.55819
21
-0.65
31
0
39
0
210
0
220
0
230
1
0
LINE
5
90
100
AcDbEntity
8
1
62
256
6
ByLayer
370
18
48
1
60
0
100
AcDbLine
10
4.666921
20
-0.65
30
0
11
6.730498
21
-0.65
31
0
39
0
210
0
220
0
230
1
0
LINE
5
91
100
AcDbEntity
8
1
62
256
6
ByLayer
370
18
48
1
60
0
100
AcDbLine
10
8.202734
20
-0.65
30
0
11
10.266346
21
-0.65
31
0
39
0
210
0
220
0
230
1
0
LINE
5
92
100
AcDbEntity
8
1
62
256
6
ByLayer
370
18
48
1
60
0
100
AcDbLine
10
10.266346
20
0.65
30
0
11
8.202734
21
0.65
31
0
39
0
210
0
220
0
230
1
0
LINE
5
93
100
AcDbEntity
8
1
62
256
6
ByLayer
370
18
48
1
60
0
100
AcDbLine
10
6.730498
20
0.65
30
0
11
4.666921
21
0.65
31
0
39
0
210
0
220
0
230
1
0
LINE
5
94
100
AcDbEntity
8
1
62
256
6
ByLayer
370
18
48
1
60
0
100
AcDbLine
10
3.55819
20
0.65
30
0
11
1.740144
21
0.65
31
0
39
0
210
0
220
0
230
1
0
LINE
5
95
100
AcDbEntity
8
SK1
62
256
6
ByLayer
370
18
48
1
60
0
100
AcDbLine
10
-26.2599
20
-1.326795
30
0
11
-25.9599
21
-1.5
31
0
39
0
210
0
220
0
230
1
0
LINE
5
96
100
AcDbEntity
8
SK1
62
256
6
ByLayer
370
18
48
1
60
0
100
AcDbLine
10
-25.9599
20
1.5
30
0
11
-26.2599
21
1.326795
31
0
39
0
210
0
220
0
230
1
0
LINE
5
97
100
AcDbEntity
8
SK1
62
256
6
ByLayer
370
18
48
1
60
0
100
AcDbLine
10
-25.9599
20
-1.5
30
0
11
-4.8E-05
21
-1.5
31
0
39
0
210
0
220
0
230
1
0
LINE
5
98
100
AcDbEntity
8
SK1
62
256
6
ByLayer
370
18
48
1
60
0
100
AcDbLine
10
-4.8E-05
20
1.5
30
0
11
-25.9599
21
1.5
31
0
39
0
210
0
220
0
230
1
0
LINE
5
99
100
AcDbEntity
8
SK1
62
256
6
ByLayer
370
18
48
1
60
0
100
AcDbLine
10
0
20
1.499972
30
0
11
-4.8E-05
21
1.5
31
0
39
0
210
0
220
0
230
1
0
LINE
5
9A
100
AcDbEntity
8
SK1
62
256
6
ByLayer
370
18
48
1
60
0
100
AcDbLine
10
-4.8E-05
20
-1.5
30
0
11
0
21
-1.499972
31
0
39
0
210
0
220
0
230
1
0
LINE
5
9B
100
AcDbEntity
8
4
62
256
6
ByLayer
370
18
48
0.05
60
0
100
AcDbLine
10
0
20
0
30
0
11
11.7401
21
0
31
0
39
0
210
0
220
0
230
1
0
LINE
5
9D
100
AcDbEntity
8
81
62
256
6
ByLayer
370
18
48
1
60
0
100
AcDbLine
10
11.7401
20
0
30
0
11
14.7401
21
0
31
0
39
0
210
0
220
0
230
1
0
LINE
5
9E
100
AcDbEntity
8
80
62
256
6
ByLayer
370
18
48
1
60
0
100
AcDbLine
10
0
20
0
30
0
11
-3
21
0
31
0
39
0
210
0
220
0
230
1
0
LINE
5
9F
100
AcDbEntity
8
SK4
62
256
6
ByLayer
370
18
48
0.05
60
0
100
AcDbLine
10
-29.2599
20
0
30
0
11
14.7401
21
0
31
0
39
0
210
0
220
0
230
1
0
LINE
5
A1
100
AcDbEntity
8
SK2
62
256
6
ByLayer
370
13
48
1
60
0
100
AcDbLine
10
-30.7599
20
-9
30
0
11
-30.7599
21
21.782741
31
0
39
0
210
0
220
0
230
1
0
LINE
5
A3
100
AcDbEntity
8
SK2
62
256
6
ByLayer
370
13
48
1
60
0
100
AcDbLine
10
-27.8474
20
-1.5
30
0
11
-32.7599
21
-1.5
31
0
39
0
210
0
220
0
230
1
0
LINE
5
A4
100
AcDbEntity
8
SK2
62
256
6
ByLayer
370
13
48
1
60
0
100
AcDbLine
10
-27.8474
20
1.5
30
0
11
-32.7599
21
1.5
31
0
39
0
210
0
220
0
230
1
0
LINE
5
A5
100
AcDbEntity
8
1
62
256
6
ByLayer
370
18
48
1
60
1
100
AcDbLine
10
-30.7599
20
-1.5
30
0
11
-30.299116
21
-4.999998
31
0
39
0
210
0
220
0
230
1
0
LINE
5
A6
100
AcDbEntity
8
1
62
256
6
ByLayer
370
18
48
1
60
1
100
AcDbLine
10
-30.299116
20
-4.999998
30
0
11
-31.220684
21
-5.000002
31
0
39
0
210
0
220
0
230
1
0
LINE
5
A7
100
AcDbEntity
8
1
62
256
6
ByLayer
370
18
48
1
60
1
100
AcDbLine
10
-31.220684
20
-5.000002
30
0
11
-30.7599
21
-1.5
31
0
39
0
210
0
220
0
230
1
0
LINE
5
A8
100
AcDbEntity
8
1
62
256
6
ByLayer
370
18
48
1
60
1
100
AcDbLine
10
-30.7599
20
1.5
30
0
11
-31.220684
21
4.999998
31
0
39
0
210
0
220
0
230
1
0
LINE
5
A9
100
AcDbEntity
8
1
62
256
6
ByLayer
370
18
48
1
60
1
100
AcDbLine
10
-31.220684
20
4.999998
30
0
11
-30.299116
21
5.000002
31
0
39
0
210
0
220
0
230
1
0
LINE
5
AA
100
AcDbEntity
8
1
62
256
6
ByLayer
370
18
48
1
60
1
100
AcDbLine
10
-30.299116
20
5.000002
30
0
11
-30.7599
21
1.5
31
0
39
0
210
0
220
0
230
1
0
LINE
5
AB
100
AcDbEntity
8
2
62
256
6
ByLayer
370
13
48
1
60
0
100
AcDbLine
10
17.2401
20
-8.15
30
0
11
17.2401
21
29.382855
31
0
39
0
210
0
220
0
230
1
0
LINE
5
AD
100
AcDbEntity
8
2
62
256
6
ByLayer
370
13
48
1
60
0
100
AcDbLine
10
13.3276
20
-0.65
30
0
11
19.2401
21
-0.65
31
0
39
0
210
0
220
0
230
1
0
LINE
5
AE
100
AcDbEntity
8
2
62
256
6
ByLayer
370
13
48
1
60
0
100
AcDbLine
10
13.3276
20
0.65
30
0
11
19.2401
21
0.65
31
0
39
0
210
0
220
0
230
1
0
LINE
5
AF
100
AcDbEntity
8
1
62
256
6
ByLayer
370
18
48
1
60
1
100
AcDbLine
10
17.2401
20
-0.65
30
0
11
17.700884
21
-4.149998
31
0
39
0
210
0
220
0
230
1
0
LINE
5
B0
100
AcDbEntity
8
1
62
256
6
ByLayer
370
18
48
1
60
1
100
AcDbLine
10
17.700884
20
-4.149998
30
0
11
16.779316
21
-4.150002
31
0
39
0
210
0
220
0
230
1
0
LINE
5
B1
100
AcDbEntity
8
1
62
256
6
ByLayer
370
18
48
1
60
1
100
AcDbLine
10
16.779316
20
-4.150002
30
0
11
17.2401
21
-0.65
31
0
39
0
210
0
220
0
230
1
0
LINE
5
B2
100
AcDbEntity
8
1
62
256
6
ByLayer
370
18
48
1
60
1
100
AcDbLine
10
17.2401
20
0.65
30
0
11
16.779316
21
4.149998
31
0
39
0
210
0
220
0
230
1
0
LINE
5
B3
100
AcDbEntity
8
1
62
256
6
ByLayer
370
18
48
1
60
1
100
AcDbLine
10
16.779316
20
4.149998
30
0
11
17.700884
21
4.150002
31
0
39
0
210
0
220
0
230
1
0
LINE
5
B4
100
AcDbEntity
8
1
62
256
6
ByLayer
370
18
48
1
60
1
100
AcDbLine
10
17.700884
20
4.150002
30
0
11
17.2401
21
0.65
31
0
39
0
210
0
220
0
230
1
0
LINE
5
B5
100
AcDbEntity
8
SK2
62
256
6
ByLayer
370
13
48
1
60
0
100
AcDbLine
10
12.411006
20
-1.438764
30
0
11
19.495145
21
-16.630748
31
0
39
0
210
0
220
0
230
1
0
LINE
5
B6
100
AcDbEntity
8
SK2
62
256
6
ByLayer
370
13
48
1
60
0
100
AcDbLine
10
12.411006
20
1.438764
30
0
11
19.495145
21
16.630748
31
0
39
0
210
0
220
0
230
1
0
LINE
5
B7
100
AcDbEntity
8
1
62
256
6
ByLayer
370
18
48
1
60
1
100
AcDbLine
10
18.649909
20
-14.818132
30
0
11
21.521942
21
-12.765394
31
0
39
0
210
0
220
0
230
1
0
LINE
5
B8
100
AcDbEntity
8
1
62
256
6
ByLayer
370
18
48
1
60
1
100
AcDbLine
10
21.521942
20
-12.765394
30
0
11
21.955371
21
-13.578675
31
0
39
0
210
0
220
0
230
1
0
LINE
5
B9
100
AcDbEntity
8
1
62
256
6
ByLayer
370
18
48
1
60
1
100
AcDbLine
10
21.955371
20
-13.578675
30
0
11
18.649909
21
-14.818132
31
0
39
0
210
0
220
0
230
1
0
LINE
5
BA
100
AcDbEntity
8
1
62
256
6
ByLayer
370
18
48
1
60
1
100
AcDbLine
10
18.649909
20
14.818132
30
0
11
21.955368
21
13.578677
31
0
39
0
210
0
220
0
230
1
0
LINE
5
BB
100
AcDbEntity
8
1
62
256
6
ByLayer
370
18
48
1
60
1
100
AcDbLine
10
21.955368
20
13.578677
30
0
11
21.521945
21
12.765392
31
0
39
0
210
0
220
0
230
1
0
LINE
5
BC
100
AcDbEntity
8
1
62
256
6
ByLayer
370
18
48
1
60
1
100
AcDbLine
10
21.521945
20
12.765392
30
0
11
18.649909
21
14.818132
31
0
39
0
210
0
220
0
230
1
0
LINE
5
D6
100
AcDbEntity
8
1
62
256
6
ByLayer
370
18
48
1
60
1
100
AcDbLine
10
-30.7599
20
-1.5
30
0
11
-30.299116
21
-4.999998
31
0
39
0
210
0
220
0
230
1
0
LINE
5
D7
100
AcDbEntity
8
1
62
256
6
ByLayer
370
18
48
1
60
1
100
AcDbLine
10
-30.299116
20
-4.999998
30
0
11
-31.220684
21
-5.000002
31
0
39
0
210
0
220
0
230
1
0
LINE
5
D8
100
AcDbEntity
8
1
62
256
6
ByLayer
370
18
48
1
60
1
100
AcDbLine
10
-31.220684
20
-5.000002
30
0
11
-30.7599
21
-1.5
31
0
39
0
210
0
220
0
230
1
0
LINE
5
DA
100
AcDbEntity
8
1
62
256
6
ByLayer
370
18
48
1
60
1
100
AcDbLine
10
-30.7599
20
1.5
30
0
11
-31.220684
21
4.999998
31
0
39
0
210
0
220
0
230
1
0
LINE
5
DB
100
AcDbEntity
8
1
62
256
6
ByLayer
370
18
48
1
60
1
100
AcDbLine
10
-31.220684
20
4.999998
30
0
11
-30.299116
21
5.000002
31
0
39
0
210
0
220
0
230
1
0
LINE
5
DC
100
AcDbEntity
8
1
62
256
6
ByLayer
370
18
48
1
60
1
100
AcDbLine
10
-30.299116
20
5.000002
30
0
11
-30.7599
21
1.5
31
0
39
0
210
0
220
0
230
1
0
LINE
5
E0
100
AcDbEntity
8
1
62
256
6
ByLayer
370
18
48
1
60
1
100
AcDbLine
10
17.2401
20
-0.65
30
0
11
17.700884
21
-4.149998
31
0
39
0
210
0
220
0
230
1
0
LINE
5
E1
100
AcDbEntity
8
1
62
256
6
ByLayer
370
18
48
1
60
1
100
AcDbLine
10
17.700884
20
-4.149998
30
0
11
16.779316
21
-4.150002
31
0
39
0
210
0
220
0
230
1
0
LINE
5
E2
100
AcDbEntity
8
1
62
256
6
ByLayer
370
18
48
1
60
1
100
AcDbLine
10
16.779316
20
-4.150002
30
0
11
17.2401
21
-0.65
31
0
39
0
210
0
220
0
230
1
0
LINE
5
E4
100
AcDbEntity
8
1
62
256
6
ByLayer
370
18
48
1
60
1
100
AcDbLine
10
17.2401
20
0.65
30
0
11
16.779316
21
4.149998
31
0
39
0
210
0
220
0
230
1
0
LINE
5
E5
100
AcDbEntity
8
1
62
256
6
ByLayer
370
18
48
1
60
1
100
AcDbLine
10
16.779316
20
4.149998
30
0
11
17.700884
21
4.150002
31
0
39
0
210
0
220
0
230
1
0
LINE
5
E6
100
AcDbEntity
8
1
62
256
6
ByLayer
370
18
48
1
60
1
100
AcDbLine
10
17.700884
20
4.150002
30
0
11
17.2401
21
0.65
31
0
39
0
210
0
220
0
230
1
0
LINE
5
E9
100
AcDbEntity
8
1
62
256
6
ByLayer
370
18
48
1
60
1
100
AcDbLine
10
18.649909
20
-14.818132
30
0
11
21.521942
21
-12.765394
31
0
39
0
210
0
220
0
230
1
0
LINE
5
EA
100
AcDbEntity
8
1
62
256
6
ByLayer
370
18
48
1
60
1
100
AcDbLine
10
21.521942
20
-12.765394
30
0
11
21.955371
21
-13.578675
31
0
39
0
210
0
220
0
230
1
0
LINE
5
EB
100
AcDbEntity
8
1
62
256
6
ByLayer
370
18
48
1
60
1
100
AcDbLine
10
21.955371
20
-13.578675
30
0
11
18.649909
21
-14.818132
31
0
39
0
210
0
220
0
230
1
0
LINE
5
ED
100
AcDbEntity
8
1
62
256
6
ByLayer
370
18
48
1
60
1
100
AcDbLine
10
18.649909
20
14.818132
30
0
11
21.955368
21
13.578677
31
0
39
0
210
0
220
0
230
1
0
LINE
5
EE
100
AcDbEntity
8
1
62
256
6
ByLayer
370
18
48
1
60
1
100
AcDbLine
10
21.955368
20
13.578677
30
0
11
21.521945
21
12.765392
31
0
39
0
210
0
220
0
230
1
0
LINE
5
EF
100
AcDbEntity
8
1
62
256
6
ByLayer
370
18
48
1
60
1
100
AcDbLine
10
21.521945
20
12.765392
30
0
11
18.649909
21
14.818132
31
0
39
0
210
0
220
0
230
1
0
MTEXT
5
D2
100
AcDbEntity
8
SK2
62
256
6
ByLayer
370
18
48
1
60
0
100
AcDbMText
10
-32.101014
20
6.658437
30
0
210
0
220
0
230
1
1
%%c
40
3
41
0
44
1.084337
50
90
71
7
72
5
7
iso_b_vert
0
MTEXT
5
D5
100
AcDbEntity
8
SK2
62
256
6
ByLayer
370
18
48
1
60
0
100
AcDbMText
10
-32.101014
20
12.635
30
0
210
0
220
0
230
1
1
\W0.7468;3.000
40
3
41
0
44
1.084337
50
90
71
7
72
5
7
iso_b_vert
0
MTEXT
5
DE
100
AcDbEntity
8
2
62
256
6
ByLayer
370
18
48
1
60
0
100
AcDbMText
10
15.898986
20
15.008437
30
0
210
0
220
0
230
1
1
%%c
40
3
41
0
44
1.084337
50
90
71
7
72
5
7
iso_b_vert
0
MTEXT
5
DF
100
AcDbEntity
8
2
62
256
6
ByLayer
370
18
48
1
60
0
100
AcDbMText
10
15.898986
20
20.985
30
0
210
0
220
0
230
1
1
\W0.6864;1.300
40
3
41
0
44
1.084337
50
90
71
7
72
5
7
iso_b_vert
0
MTEXT
5
E8
100
AcDbEntity
8
SK2
62
256
6
ByLayer
370
18
48
1
60
0
100
AcDbMText
10
24.807386
20
-2.114886
30
0
210
0
220
0
230
1
1
\W0.6747;130%%d
40
3
41
0
44
1.084337
50
0
71
7
72
5
7
iso_b_vert
0
MTEXT
5
F1
100
AcDbEntity
8
SK6
62
256
6
ByLayer
370
18
48
1
60
0
100
AcDbMText
10
-35.066496
20
-42.114886
30
0
210
0
220
0
230
1
1
\W0.7670;462.1-0130-006A0-XM X0BM
40
3
41
0
44
1.084337
50
0
71
7
72
5
7
iso_b_vert
0
HATCH
5
D9
100
AcDbEntity
8
SK2
62
256
6
ByLayer
370
13
48
1
60
0
100
AcDbHatch
10
0
20
0
30
0
210
0
220
0
230
1
2
ANSI31
70
0
71
0
91
1
92
5
93
3
72
1
10
-30.7599
20
-1.5
11
-30.2991162584472
21
-4.99999830744682
72
1
10
-30.2991162584472
20
-4.99999830744682
11
-31.2206837415528
21
-5.00000169255318
72
1
10
-31.2206837415528
20
-5.00000169255318
11
-30.7599
21
-1.5
97
0
75
0
76
1
52
0
41
0.0062
77
0
78
1
53
45
43
0
44
0
45
-0.0139193969876572
46
0.0139193969876572
79
0
47
0
98
1
10
0
20
0
0
HATCH
5
DD
100
AcDbEntity
8
SK2
62
256
6
ByLayer
370
13
48
1
60
0
100
AcDbHatch
10
0
20
0
30
0
210
0
220
0
230
1
2
ANSI31
70
0
71
0
91
1
92
5
93
3
72
1
10
-30.7599
20
1.5
11
-31.2206837415528
21
4.99999830744682
72
1
10
-31.2206837415528
20
4.99999830744682
11
-30.2991162584472
21
5.00000169255318
72
1
10
-30.2991162584472
20
5.00000169255318
11
-30.7599
21
1.5
97
0
75
0
76
1
52
0
41
0.0062
77
0
78
1
53
45
43
0
44
0
45
-0.0139193969876572
46
0.0139193969876572
79
0
47
0
98
1
10
0
20
0
0
HATCH
5
E3
100
AcDbEntity
8
2
62
256
6
ByLayer
370
13
48
1
60
0
100
AcDbHatch
10
0
20
0
30
0
210
0
220
0
230
1
2
ANSI31
70
0
71
0
91
1
92
5
93
3
72
1
10
17.2401
20
-0.650000000000006
11
17.7008837415528
21
-4.14999830744682
72
1
10
17.7008837415528
20
-4.14999830744682
11
16.7793162584472
21
-4.15000169255319
72
1
10
16.7793162584472
20
-4.15000169255319
11
17.2401
21
-0.650000000000006
97
0
75
0
76
1
52
0
41
0.0062
77
0
78
1
53
45
43
0
44
0
45
-0.0139193969876572
46
0.0139193969876572
79
0
47
0
98
1
10
0
20
0
0
HATCH
5
E7
100
AcDbEntity
8
2
62
256
6
ByLayer
370
13
48
1
60
0
100
AcDbHatch
10
0
20
0
30
0
210
0
220
0
230
1
2
ANSI31
70
0
71
0
91
1
92
5
93
3
72
1
10
17.2401
20
0.650000000000006
11
16.7793162584472
21
4.14999830744682
72
1
10
16.7793162584472
20
4.14999830744682
11
17.7008837415528
21
4.15000169255319
72
1
10
17.7008837415528
20
4.15000169255319
11
17.2401
21
0.650000000000006
97
0
75
0
76
1
52
0
41
0.0062
77
0
78
1
53
45
43
0
44
0
45
-0.0139193969876572
46
0.0139193969876572
79
0
47
0
98
1
10
0
20
0
0
HATCH
5
EC
100
AcDbEntity
8
SK2
62
256
6
ByLayer
370
13
48
1
60
0
100
AcDbHatch
10
0
20
0
30
0
210
0
220
0
230
1
2
ANSI31
70
0
71
0
91
1
92
5
93
3
72
1
10
18.6499085794605
20
-14.8181323180492
11
21.5219418553693
21
-12.765393983365
72
1
10
21.5219418553693
20
-12.765393983365
11
21.9553706127348
21
-13.5786750775861
72
1
10
21.9553706127348
20
-13.5786750775861
11
18.6499085794605
21
-14.8181323180492
97
0
75
0
76
1
52
0
41
0.0062
77
0
78
1
53
45
43
0
44
0
45
-0.0139193969876572
46
0.0139193969876572
79
0
47
0
98
1
10
0
20
0
0
HATCH
5
F0
100
AcDbEntity
8
SK2
62
256
6
ByLayer
370
13
48
1
60
0
100
AcDbHatch
10
0
20
0
30
0
210
0
220
0
230
1
2
ANSI31
70
0
71
0
91
1
92
5
93
3
72
1
10
18.6499085794605
20
14.8181323180492
11
21.9553676253807
21
13.5786766696479
72
1
10
21.9553676253807
20
13.5786766696479
11
21.5219448427234
21
12.7653923913032
72
1
10
21.5219448427234
20
12.7653923913032
11
18.6499085794605
21
14.8181323180492
97
0
75
0
76
1
52
0
41
0.0062
77
0
78
1
53
45
43
0
44
0
45
-0.0139193969876572
46
0.0139193969876572
79
0
47
0
98
1
10
0
20
0
0
DIMENSION
5
F4
100
AcDbEntity
8
SK2
62
256
6
ByLayer
370
18
48
1
60
0
100
AcDbDimension
2
_U0
10
11.7401
20
-35.85
30
0
11
-7.2599
21
-35.85
31
0
70
32
71
1
72
1
41
1
210
0
220
0
230
1
3
Standard
100
AcDbAlignedDimension
13
-26.2599
23
1.5
33
0
14
11.7401
24
0.65
34
0
50
0
100
AcDbRotatedDimension
1001
ACAD
1000
DSTYLE
1002
{
1070
   371
1070
    13
1070
   372
1070
    13
1070
     3
1000

1070
   170
1070
     0
1070
   144
1040
1.0
1070
   277
1070
     2
1070
   284
1070
     8
1070
   278
1070
    46
1070
   146
1040
1.166667
1070
   345
1005
16
1070
   347
1005
16
1070
   346
1005
16
1070
   344
1005
0
1070
   343
1005
0
1070
   172
1070
     1
1070
    76
1070
     0
1070
    75
1070
     0
1070
   282
1070
     0
1070
   281
1070
     0
1070
    71
1070
     0
1070
    74
1070
     0
1070
   279
1070
     0
1070
   173
1070
     1
1070
   340
1005
D3
1070
   271
1070
     2
1070
   272
1070
     2
1070
    77
1070
     1
1070
    73
1070
     1
1070
   171
1070
     3
1070
   274
1070
     4
1070
   177
1070
     2
1070
   176
1070
     2
1070
   178
1070
     2
1070
    78
1070
     8
1070
    48
1040
-0.1
1070
    41
1040
3.5
1070
   147
1040
1.5
1070
    42
1040
1.5875
1070
    44
1040
2.0
1070
   140
1040
3.0
1002
}
1001
ACAD_DSTYLE_DIM_LINETYPE
1070
   380
1005
16
1001
ACAD_DSTYLE_DIM_EXT1_LINETYPE
1070
   381
1005
16
1001
ACAD_DSTYLE_DIM_EXT2_LINETYPE
1070
   382
1005
16
0
DIMENSION
5
10D
100
AcDbEntity
8
SK2
62
256
6
ByLayer
370
18
48
1
60
0
100
AcDbDimension
2
_U1
10
5.4901
20
-22.15
30
0
11
27.7401
21
-22.15
31
0
70
32
71
1
72
1
41
1
210
0
220
0
230
1
3
Standard
100
AcDbAlignedDimension
13
11.7401
23
0.65
33
0
14
5.4901
24
0
34
0
50
0
100
AcDbRotatedDimension
1001
ACAD
1000
DSTYLE
1002
{
1070
   371
1070
    13
1070
   372
1070
    13
1070
     3
1000

1070
   170
1070
     0
1070
   144
1040
1.0
1070
   277
1070
     2
1070
   284
1070
     8
1070
   278
1070
    46
1070
   146
1040
1.166667
1070
   345
1005
16
1070
   347
1005
16
1070
   346
1005
16
1070
   344
1005
0
1070
   343
1005
0
1070
   172
1070
     1
1070
    76
1070
     0
1070
    75
1070
     0
1070
   282
1070
     0
1070
   281
1070
     0
1070
    71
1070
     0
1070
    74
1070
     0
1070
   279
1070
     0
1070
   173
1070
     1
1070
   340
1005
D3
1070
   271
1070
     2
1070
   272
1070
     2
1070
    77
1070
     1
1070
    73
1070
     1
1070
   171
1070
     3
1070
   274
1070
     4
1070
   177
1070
     2
1070
   176
1070
     2
1070
   178
1070
     2
1070
    78
1070
     8
1070
    48
1040
-0.1
1070
    41
1040
3.5
1070
   147
1040
1.5
1070
    42
1040
1.5875
1070
    44
1040
2.0
1070
   140
1040
3.0
1002
}
1001
ACAD_DSTYLE_DIM_LINETYPE
1070
   380
1005
16
1001
ACAD_DSTYLE_DIM_EXT1_LINETYPE
1070
   381
1005
16
1001
ACAD_DSTYLE_DIM_EXT2_LINETYPE
1070
   382
1005
16
0
DIMENSION
5
127
100
AcDbEntity
8
SK2
62
256
6
ByLayer
370
18
48
1
60
0
100
AcDbDimension
2
_U2
10
3.5401
20
-30.15
30
0
11
26.382957
21
-30.15
31
0
70
32
71
1
72
1
41
1
210
0
220
0
230
1
3
Standard
100
AcDbAlignedDimension
13
11.7401
23
0.65
33
0
14
3.5401
24
0
34
0
50
0
100
AcDbRotatedDimension
1001
ACAD
1000
DSTYLE
1002
{
1070
   371
1070
    13
1070
   372
1070
    13
1070
     3
1000

1070
   170
1070
     0
1070
   144
1040
1.0
1070
   277
1070
     2
1070
   284
1070
     8
1070
   278
1070
    46
1070
   146
1040
1.166667
1070
   345
1005
16
1070
   347
1005
16
1070
   346
1005
16
1070
   344
1005
0
1070
   343
1005
0
1070
   172
1070
     1
1070
    76
1070
     0
1070
    75
1070
     0
1070
   282
1070
     0
1070
   281
1070
     0
1070
    71
1070
     0
1070
    74
1070
     0
1070
   279
1070
     0
1070
   173
1070
     1
1070
   340
1005
D3
1070
   271
1070
     2
1070
   272
1070
     2
1070
    77
1070
     1
1070
    73
1070
     1
1070
   171
1070
     3
1070
   274
1070
     4
1070
   177
1070
     2
1070
   176
1070
     2
1070
   178
1070
     2
1070
    78
1070
     8
1070
    48
1040
-0.1
1070
    41
1040
3.5
1070
   147
1040
1.5
1070
    42
1040
1.5875
1070
    44
1040
2.0
1070
   140
1040
3.0
1002
}
1001
ACAD_DSTYLE_DIM_LINETYPE
1070
   380
1005
16
1001
ACAD_DSTYLE_DIM_EXT1_LINETYPE
1070
   381
1005
16
1001
ACAD_DSTYLE_DIM_EXT2_LINETYPE
1070
   382
1005
16
0
DIMENSION
5
141
100
AcDbEntity
8
SK2
62
256
6
ByLayer
370
18
48
1
60
0
100
AcDbDimension
2
_U3
10
0
20
11.35
30
0
11
-13.12995
21
11.35
31
0
70
32
71
1
72
1
41
1
210
0
220
0
230
1
3
Standard
100
AcDbAlignedDimension
13
-26.2599
23
0
33
0
14
0
24
0
34
0
50
0
100
AcDbRotatedDimension
1001
ACAD
1000
DSTYLE
1002
{
1070
   371
1070
    13
1070
   372
1070
    13
1070
     3
1000

1070
   170
1070
     0
1070
   144
1040
1.0
1070
   277
1070
     2
1070
   284
1070
     8
1070
   278
1070
    46
1070
   146
1040
1.166667
1070
   345
1005
16
1070
   347
1005
16
1070
   346
1005
16
1070
   344
1005
0
1070
   343
1005
0
1070
   172
1070
     1
1070
    76
1070
     0
1070
    75
1070
     0
1070
   282
1070
     0
1070
   281
1070
     0
1070
    71
1070
     0
1070
    74
1070
     0
1070
   279
1070
     0
1070
   173
1070
     1
1070
   340
1005
D3
1070
   271
1070
     2
1070
   272
1070
     2
1070
    77
1070
     1
1070
    73
1070
     1
1070
   171
1070
     3
1070
   274
1070
     4
1070
   177
1070
     2
1070
   176
1070
     2
1070
   178
1070
     2
1070
    78
1070
     8
1070
    48
1040
-0.1
1070
    41
1040
3.5
1070
   147
1040
1.5
1070
    42
1040
1.5875
1070
    44
1040
2.0
1070
   140
1040
3.0
1002
}
1001
ACAD_DSTYLE_DIM_LINETYPE
1070
   380
1005
16
1001
ACAD_DSTYLE_DIM_EXT1_LINETYPE
1070
   381
1005
16
1001
ACAD_DSTYLE_DIM_EXT2_LINETYPE
1070
   382
1005
16
0
DIMENSION
5
159
100
AcDbEntity
8
2
62
256
6
ByLayer
370
18
48
1
60
0
100
AcDbDimension
2
_U4
10
0
20
11.35
30
0
11
5.87005
21
11.35
31
0
70
32
71
1
72
1
41
1
210
0
220
0
230
1
3
Standard
100
AcDbAlignedDimension
13
11.7401
23
0.65
33
0
14
0
24
0
34
0
50
0
100
AcDbRotatedDimension
1001
ACAD
1000
DSTYLE
1002
{
1070
   371
1070
    13
1070
   372
1070
    13
1070
     3
1000

1070
   170
1070
     0
1070
   144
1040
1.0
1070
   277
1070
     2
1070
   284
1070
     8
1070
   278
1070
    46
1070
   146
1040
1.166667
1070
   345
1005
16
1070
   347
1005
16
1070
   346
1005
16
1070
   344
1005
0
1070
   343
1005
0
1070
   172
1070
     1
1070
    76
1070
     0
1070
    75
1070
     0
1070
   282
1070
     0
1070
   281
1070
     0
1070
    71
1070
     0
1070
    74
1070
     0
1070
   279
1070
     0
1070
   173
1070
     1
1070
   340
1005
D3
1070
   271
1070
     2
1070
   272
1070
     2
1070
    77
1070
     1
1070
    73
1070
     1
1070
   171
1070
     3
1070
   274
1070
     4
1070
   177
1070
     2
1070
   176
1070
     2
1070
   178
1070
     2
1070
    78
1070
     8
1070
    48
1040
-0.1
1070
    41
1040
3.5
1070
   147
1040
1.5
1070
    42
1040
1.5875
1070
    44
1040
2.0
1070
   140
1040
3.0
1002
}
1001
ACAD_DSTYLE_DIM_LINETYPE
1070
   380
1005
16
1001
ACAD_DSTYLE_DIM_EXT1_LINETYPE
1070
   381
1005
16
1001
ACAD_DSTYLE_DIM_EXT2_LINETYPE
1070
   382
1005
16
0
ENDSEC
0
SECTION
2
OBJECTS
0
DICTIONARY
5
1e2
330
0
100
AcDbDictionary
280
0
281
1
3
ACAD_GROUP
350
1e3
3
ACAD_MLINESTYLE
350
1e4
0
DICTIONARY
5
1e3
330
0
100
AcDbDictionary
280
0
281
1
0
DICTIONARY
5
1e4
330
0
100
AcDbDictionary
280
0
281
1
3
Standard
350
18
0
MLINESTYLE
5
18
330
1e4
100
AcDbMlineStyle
2
Standard
70
0
3

62
256
51
90
52
90
71
2
49
-0.5
62
256
6
ByLayer
49
0.5
62
256
6
ByLayer
0
RASTERVARIABLES
5
1d0
330

100
AcDbRasterVariables
90
0
70
1
71
1
72
1
0
ENDSEC
0
EOF
