0
SECTION
2
HEADER
9
$ACADVER
1
AC1015
9
$DWGCODEPAGE
3
ANSI_1252
9
$HANDSEED
5
1ee
9
$ANGBASE
50
0
9
$ANGDIR
70
0
9
$ATTMODE
70
1
9
$AUNITS
70
0
9
$AUPREC
70
0
9
$CECOLOR
62
256
9
$CELTSCALE
40
1
9
$CELTYPE
6
ByLayer
9
$CELWEIGHT
370
18
9
$CLAYER
8
0
9
$CMLJUST
70
0
9
$CMLSCALE
40
1
9
$CMLSTYLE
2
Standard
9
$DIMSTYLE
2
Standard
9
$TEXTSIZE
40
0.2
9
$TEXTSTYLE
7
Standard
9
$LUNITS
70
2
9
$LUPREC
70
4
9
$EXTNAMES
290
1
9
$INSUNITS
70
4
9
$LTSCALE
40
1
9
$LWDISPLAY
290
1
9
$PDMODE
70
0
9
$PDSIZE
40
0
9
$PLINEGEN
70
0
0
ENDSEC
0
SECTION
2
CLASSES
0
CLASS
1
RASTERVARIABLES
2
AcDbRasterVariables
3
ISM
90
0
280
0
281
0
0
ENDSEC
0
SECTION
2
TABLES
0
TABLE
2
VPORT
5
1e4
100
AcDbSymbolTable
0
VPORT
5
1
100
AcDbSymbolTableRecord
100
AcDbViewportTableRecord
2
*Active
70
0
10
0
20
0
11
1
21
1
12
-1
22
1
13
0
23
0
14
0.5
24
0.5
15
10
25
10
16
0
26
0
36
1
17
0
27
0
37
0
0
ENDTAB
0
TABLE
2
LTYPE
5
1e5
100
AcDbSymbolTable
0
LTYPE
5
14
100
AcDbSymbolTableRecord
100
AcDbLinetypeTableRecord
70
0
2
ByBlock
3

72
65
73
0
40
0
0
LTYPE
5
15
100
AcDbSymbolTableRecord
100
AcDbLinetypeTableRecord
70
0
2
ByLayer
3

72
65
73
0
40
0
0
LTYPE
5
16
100
AcDbSymbolTableRecord
100
AcDbLinetypeTableRecord
70
0
2
Continuous
3
Solid line
72
65
73
0
40
0
0
LTYPE
5
6E
100
AcDbSymbolTableRecord
100
AcDbLinetypeTableRecord
70
0
2
CENTER
3
____ _ ____ _ ____ _ ____
72
65
73
4
40
47.5
49
22
74
0
49
-8.5
74
0
49
8.5
74
0
49
-8.5
74
0
0
LTYPE
5
6F
100
AcDbSymbolTableRecord
100
AcDbLinetypeTableRecord
70
0
2
DASHED
3
__ __ __ __ __ __ __ __ __
72
65
73
2
40
25.72
49
12.86
74
0
49
-12.86
74
0
0
ENDTAB
0
TABLE
2
LAYER
5
1e6
100
AcDbSymbolTable
0
LAYER
5
10
100
AcDbSymbolTableRecord
100
AcDbLayerTableRecord
2
0
70
0
62
7
6
Continuous
290
1
370
-3
390
0
0
LAYER
5
71
100
AcDbSymbolTableRecord
100
AcDbLayerTableRecord
2
80
70
0
62
-6
6
Continuous
290
1
370
-3
390
0
0
LAYER
5
73
100
AcDbSymbolTableRecord
100
AcDbLayerTableRecord
2
81
70
0
62
-3
6
Continuous
290
1
370
-3
390
0
0
LAYER
5
75
100
AcDbSymbolTableRecord
100
AcDbLayerTableRecord
2
1
70
0
62
4
6
Continuous
290
1
370
-3
390
0
0
LAYER
5
9C
100
AcDbSymbolTableRecord
100
AcDbLayerTableRecord
2
4
70
0
62
-2
6
CENTER
290
1
370
-3
390
0
0
LAYER
5
AC
100
AcDbSymbolTableRecord
100
AcDbLayerTableRecord
2
2
70
0
62
7
6
Continuous
290
1
370
-3
390
0
0
LAYER
5
F6
100
AcDbSymbolTableRecord
100
AcDbLayerTableRecord
2
Defpoints
70
0
62
7
6
Continuous
290
0
370
-3
390
0
0
LAYER
5
1d0
100
AcDbSymbolTableRecord
100
AcDbLayerTableRecord
2
SK1
70
0
62
4
6
Continuous
290
1
370
-3
390
0
0
LAYER
5
1d1
100
AcDbSymbolTableRecord
100
AcDbLayerTableRecord
2
SK4
70
0
62
2
6
CENTER
290
1
370
-3
390
0
0
LAYER
5
1d2
100
AcDbSymbolTableRecord
100
AcDbLayerTableRecord
2
SK2
70
0
62
7
6
Continuous
290
1
370
-3
390
0
0
LAYER
5
1d3
100
AcDbSymbolTableRecord
100
AcDbLayerTableRecord
2
SK6
70
0
62
5
6
Continuous
290
1
370
-3
390
0
0
ENDTAB
0
TABLE
2
STYLE
5
1e7
100
AcDbSymbolTable
0
STYLE
5
11
100
AcDbSymbolTableRecord
100
AcDbTextStyleTableRecord
2
Standard
3
txt
70
0
71
0
40
0
41
1
42
0
50
0
0
STYLE
5
D2
100
AcDbSymbolTableRecord
100
AcDbTextStyleTableRecord
2
iso_b_vert
3
simplex.shx
70
0
71
0
40
0
41
1
42
0
50
0
0
STYLE
5
D3
100
AcDbSymbolTableRecord
100
AcDbTextStyleTableRecord
2
DWGDirectTextStyle
3
simplex
70
0
71
0
40
0
41
1
42
0
50
0
0
ENDTAB
0
TABLE
2
DIMSTYLE
5
1e8
100
AcDbSymbolTable
100
AcDbDimStyleTable
0
DIMSTYLE
105
27
100
AcDbSymbolTableRecord
100
AcDbDimStyleTableRecord
2
Standard
70
0
3
<>
41
0.18
42
0.0625
44
0.18
140
0.18
147
0.09
73
0
74
0
77
1
271
2
275
0
278
52
280
0
340
11
0
ENDTAB
0
TABLE
2
VIEW
5
1e9
100
AcDbSymbolTable
0
ENDTAB
0
TABLE
2
UCS
5
1ea
100
AcDbSymbolTable
0
ENDTAB
0
TABLE
2
APPID
5
1eb
100
AcDbSymbolTable
0
APPID
5
12
100
AcDbSymbolTableRecord
100
AcDbRegAppTableRecord
2
ACAD
70
0
0
APPID
5
F2
100
AcDbSymbolTableRecord
100
AcDbRegAppTableRecord
2
ACAD_DSTYLE_DIMBREAK
70
0
0
APPID
5
18F
100
AcDbSymbolTableRecord
100
AcDbRegAppTableRecord
2
ACAD_DSTYLE_DIM_LINETYPE
70
0
0
APPID
5
190
100
AcDbSymbolTableRecord
100
AcDbRegAppTableRecord
2
ACAD_DSTYLE_DIM_EXT1_LINETYPE
70
0
0
APPID
5
191
100
AcDbSymbolTableRecord
100
AcDbRegAppTableRecord
2
ACAD_DSTYLE_DIM_EXT2_LINETYPE
70
0
0
APPID
5
1CC
100
AcDbSymbolTableRecord
100
AcDbRegAppTableRecord
2
ACAD_MLEADERVER
70
0
0
ENDTAB
0
TABLE
2
BLOCK_RECORD
5
1ec
100
AcDbSymbolTable
0
BLOCK_RECORD
5
1F
100
AcDbSymbolTableRecord
100
AcDbBlockTableRecord
2
*Model_Space
340
0
70
0
0
BLOCK_RECORD
5
1B
100
AcDbSymbolTableRecord
100
AcDbBlockTableRecord
2
*Paper_Space
340
0
70
0
0
BLOCK_RECORD
5
23
100
AcDbSymbolTableRecord
100
AcDbBlockTableRecord
2
*Paper_Space0
340
0
70
0
0
BLOCK_RECORD
5
F7
100
AcDbSymbolTableRecord
100
AcDbBlockTableRecord
2
*D1
340
0
70
0
0
BLOCK_RECORD
5
103
100
AcDbSymbolTableRecord
100
AcDbBlockTableRecord
2
_U0
340
0
70
0
0
BLOCK_RECORD
5
10F
100
AcDbSymbolTableRecord
100
AcDbBlockTableRecord
2
*D3
340
0
70
0
0
BLOCK_RECORD
5
11D
100
AcDbSymbolTableRecord
100
AcDbBlockTableRecord
2
_U1
340
0
70
0
0
BLOCK_RECORD
5
129
100
AcDbSymbolTableRecord
100
AcDbBlockTableRecord
2
*D5
340
0
70
0
0
BLOCK_RECORD
5
137
100
AcDbSymbolTableRecord
100
AcDbBlockTableRecord
2
_U2
340
0
70
0
0
BLOCK_RECORD
5
143
100
AcDbSymbolTableRecord
100
AcDbBlockTableRecord
2
*D7
340
0
70
0
0
BLOCK_RECORD
5
14F
100
AcDbSymbolTableRecord
100
AcDbBlockTableRecord
2
_U3
340
0
70
0
0
BLOCK_RECORD
5
15B
100
AcDbSymbolTableRecord
100
AcDbBlockTableRecord
2
*D9
340
0
70
0
0
BLOCK_RECORD
5
168
100
AcDbSymbolTableRecord
100
AcDbBlockTableRecord
2
_U4
340
0
70
0
0
ENDTAB
0
ENDSEC
0
SECTION
2
BLOCKS
0
BLOCK
5
20
100
AcDbEntity
8
0
100
AcDbBlockBegin
2
*Model_Space
70
0
10
0
20
0
30
0
3
*Model_Space
0
ENDBLK
5
21
100
AcDbEntity
8
0
100
AcDbBlockEnd
0
BLOCK
5
1C
100
AcDbEntity
8
0
100
AcDbBlockBegin
2
*Paper_Space
70
0
10
0
20
0
30
0
3
*Paper_Space
0
ENDBLK
5
1D
100
AcDbEntity
8
0
100
AcDbBlockEnd
0
BLOCK
5
24
100
AcDbEntity
8
0
100
AcDbBlockBegin
2
*Paper_Space0
70
0
10
0
20
0
30
0
3
*Paper_Space0
0
ENDBLK
5
25
100
AcDbEntity
8
0
100
AcDbBlockEnd
0
BLOCK
5
F8
100
AcDbEntity
8
0
100
AcDbBlockBegin
2
*D1
70
1
10
0
20
0
30
0
3
*D1
0
LINE
5
FA
100
AcDbEntity
8
0
62
256
6
ByLayer
370
-2
48
1
60
0
100
AcDbLine
10
-25.1205
20
-0.0875
30
0
11
-25.1205
21
-37.85
31
0
39
0
210
0
220
0
230
1
0
LINE
5
FB
100
AcDbEntity
8
0
62
256
6
ByLayer
370
-2
48
1
60
0
100
AcDbLine
10
12.8795
20
-0.9025
30
0
11
12.8795
21
-37.85
31
0
39
0
210
0
220
0
230
1
0
LINE
5
FC
100
AcDbEntity
8
0
62
256
6
ByLayer
370
-2
48
1
60
0
100
AcDbLine
10
-21.6205
20
-35.85
30
0
11
9.3795
21
-35.85
31
0
39
0
210
0
220
0
230
1
0
SOLID
5
FD
100
AcDbEntity
8
0
62
256
6
ByLayer
370
-1
48
1
60
0
100
AcDbTrace
10
-21.6205
20
-35.266667
30
0
11
-21.6205
21
-36.433333
31
0
12
-25.1205
22
-35.85
32
0
13
-25.1205
23
-35.85
33
0
39
0
210
0
220
0
230
1
0
SOLID
5
FE
100
AcDbEntity
8
0
62
256
6
ByLayer
370
-1
48
1
60
0
100
AcDbTrace
10
9.3795
20
-36.433333
30
0
11
9.3795
21
-35.266667
31
0
12
12.8795
22
-35.85
32
0
13
12.8795
23
-35.85
33
0
39
0
210
0
220
0
230
1
0
MTEXT
5
FF
100
AcDbEntity
8
0
62
256
6
ByLayer
370
18
48
1
60
0
100
AcDbMText
10
-6.1205
20
-29.85
30
0
210
0
220
0
230
1
1
\A1;38
40
3
41
0
44
1
50
0
71
5
72
5
7
iso_b_vert
0
POINT
5
100
100
AcDbEntity
8
Defpoints
62
0
6
ByLayer
370
-1
48
1
60
0
100
AcDbPoint
10
-25.1205
20
1.5
30
0
39
0
210
0
220
0
230
1
50
360
0
POINT
5
101
100
AcDbEntity
8
Defpoints
62
0
6
ByLayer
370
-1
48
1
60
0
100
AcDbPoint
10
12.8795
20
0.685
30
0
39
0
210
0
220
0
230
1
50
360
0
POINT
5
102
100
AcDbEntity
8
Defpoints
62
0
6
ByLayer
370
-1
48
1
60
0
100
AcDbPoint
10
12.8795
20
-35.85
30
0
39
0
210
0
220
0
230
1
50
360
0
ENDBLK
5
F9
100
AcDbEntity
8
0
100
AcDbBlockEnd
0
BLOCK
5
10A
100
AcDbEntity
8
0
100
AcDbBlockBegin
2
_U0
70
0
10
0
20
0
30
0
3
_U0
0
MTEXT
5
104
100
AcDbEntity
8
SK2
62
256
6
ByLayer
370
18
48
1
60
0
100
AcDbMText
10
-10.60287
20
-34.964886
30
0
210
0
220
0
230
1
1
\W0.7468;38.00
40
3
41
0
44
1.084337
50
0
71
7
72
5
7
iso_b_vert
0
LINE
5
105
100
AcDbEntity
8
SK2
62
256
6
ByLayer
370
13
48
1
60
0
100
AcDbLine
10
-25.1205
20
-0.0875
30
0
11
-25.1205
21
-37.85
31
0
39
0
210
0
220
0
230
1
0
LINE
5
106
100
AcDbEntity
8
SK2
62
256
6
ByLayer
370
13
48
1
60
0
100
AcDbLine
10
12.8795
20
-0.9025
30
0
11
12.8795
21
-37.85
31
0
39
0
210
0
220
0
230
1
0
LINE
5
107
100
AcDbEntity
8
SK2
62
256
6
ByLayer
370
13
48
1
60
0
100
AcDbLine
10
-25.1205
20
-35.85
30
0
11
12.8795
21
-35.85
31
0
39
0
210
0
220
0
230
1
0
SOLID
5
108
100
AcDbEntity
8
SK2
62
256
6
ByLayer
370
18
48
1
60
0
100
AcDbTrace
10
-25.1205
20
-35.85
30
0
11
-21.620502
21
-35.389216
31
0
12
-21.620498
22
-36.310784
32
0
13
-21.620498
23
-36.310784
33
0
39
0
210
0
220
0
230
1
0
SOLID
5
109
100
AcDbEntity
8
SK2
62
256
6
ByLayer
370
18
48
1
60
0
100
AcDbTrace
10
12.8795
20
-35.85
30
0
11
9.379502
21
-36.310784
31
0
12
9.379498
22
-35.389216
32
0
13
9.379498
23
-35.389216
33
0
39
0
210
0
220
0
230
1
0
ENDBLK
5
10B
100
AcDbEntity
8
0
100
AcDbBlockEnd
0
BLOCK
5
110
100
AcDbEntity
8
0
100
AcDbBlockBegin
2
*D3
70
1
10
0
20
0
30
0
3
*D3
0
LINE
5
112
100
AcDbEntity
8
0
62
256
6
ByLayer
370
-2
48
1
60
0
100
AcDbLine
10
12.8795
20
-0.9025
30
0
11
12.8795
21
-24.185
31
0
39
0
210
0
220
0
230
1
0
LINE
5
113
100
AcDbEntity
8
0
62
256
6
ByLayer
370
-2
48
1
60
0
100
AcDbLine
10
5.7345
20
-1.5875
30
0
11
5.7345
21
-24.185
31
0
39
0
210
0
220
0
230
1
0
LINE
5
114
100
AcDbEntity
8
0
62
256
6
ByLayer
370
-2
48
1
60
0
100
AcDbLine
10
12.8795
20
-22.185
30
0
11
38.022357
21
-22.185
31
0
39
0
210
0
220
0
230
1
0
LINE
5
115
100
AcDbEntity
8
0
62
256
6
ByLayer
370
-2
48
1
60
0
100
AcDbLine
10
16.3795
20
-22.185
30
0
11
19.8795
21
-22.185
31
0
39
0
210
0
220
0
230
1
0
LINE
5
116
100
AcDbEntity
8
0
62
256
6
ByLayer
370
-2
48
1
60
0
100
AcDbLine
10
2.2345
20
-22.185
30
0
11
-1.2655
21
-22.185
31
0
39
0
210
0
220
0
230
1
0
SOLID
5
117
100
AcDbEntity
8
0
62
256
6
ByLayer
370
-1
48
1
60
0
100
AcDbTrace
10
16.3795
20
-21.601667
30
0
11
16.3795
21
-22.768333
31
0
12
12.8795
22
-22.185
32
0
13
12.8795
23
-22.185
33
0
39
0
210
0
220
0
230
1
0
SOLID
5
118
100
AcDbEntity
8
0
62
256
6
ByLayer
370
-1
48
1
60
0
100
AcDbTrace
10
2.2345
20
-22.768333
30
0
11
2.2345
21
-21.601667
31
0
12
5.7345
22
-22.185
32
0
13
5.7345
23
-22.185
33
0
39
0
210
0
220
0
230
1
0
MTEXT
5
119
100
AcDbEntity
8
0
62
256
6
ByLayer
370
18
48
1
60
0
100
AcDbMText
10
28.950929
20
-16.185
30
0
210
0
220
0
230
1
1
\A1;7.15
40
3
41
0
44
1
50
0
71
5
72
5
7
iso_b_vert
0
POINT
5
11A
100
AcDbEntity
8
Defpoints
62
0
6
ByLayer
370
-1
48
1
60
0
100
AcDbPoint
10
12.8795
20
0.685
30
0
39
0
210
0
220
0
230
1
50
360
0
POINT
5
11B
100
AcDbEntity
8
Defpoints
62
0
6
ByLayer
370
-1
48
1
60
0
100
AcDbPoint
10
5.7345
20
0
30
0
39
0
210
0
220
0
230
1
50
360
0
POINT
5
11C
100
AcDbEntity
8
Defpoints
62
0
6
ByLayer
370
-1
48
1
60
0
100
AcDbPoint
10
5.7345
20
-22.185
30
0
39
0
210
0
220
0
230
1
50
360
0
ENDBLK
5
111
100
AcDbEntity
8
0
100
AcDbBlockEnd
0
BLOCK
5
124
100
AcDbEntity
8
0
100
AcDbBlockBegin
2
_U1
70
0
10
0
20
0
30
0
3
_U1
0
MTEXT
5
11E
100
AcDbEntity
8
SK2
62
256
6
ByLayer
370
18
48
1
60
0
100
AcDbMText
10
17.0385
20
-21.299886
30
0
210
0
220
0
230
1
1
\W0.6702;(7.14)
40
3
41
0
44
1.084337
50
0
71
7
72
5
7
iso_b_vert
0
LINE
5
11F
100
AcDbEntity
8
SK2
62
256
6
ByLayer
370
13
48
1
60
0
100
AcDbLine
10
12.8795
20
-0.9025
30
0
11
12.8795
21
-24.185
31
0
39
0
210
0
220
0
230
1
0
LINE
5
120
100
AcDbEntity
8
SK2
62
256
6
ByLayer
370
13
48
1
60
0
100
AcDbLine
10
5.7345
20
-1.5875
30
0
11
5.7345
21
-24.185
31
0
39
0
210
0
220
0
230
1
0
LINE
5
121
100
AcDbEntity
8
SK2
62
256
6
ByLayer
370
13
48
1
60
0
100
AcDbLine
10
5.7345
20
-22.185
30
0
11
25.917269
21
-22.185
31
0
39
0
210
0
220
0
230
1
0
SOLID
5
122
100
AcDbEntity
8
SK2
62
256
6
ByLayer
370
18
48
1
60
0
100
AcDbTrace
10
12.8795
20
-22.185
30
0
11
9.379502
21
-22.645784
31
0
12
9.379498
22
-21.724216
32
0
13
9.379498
23
-21.724216
33
0
39
0
210
0
220
0
230
1
0
SOLID
5
123
100
AcDbEntity
8
SK2
62
256
6
ByLayer
370
18
48
1
60
0
100
AcDbTrace
10
5.7345
20
-22.185
30
0
11
9.234498
21
-21.724216
31
0
12
9.234502
22
-22.645784
32
0
13
9.234502
23
-22.645784
33
0
39
0
210
0
220
0
230
1
0
ENDBLK
5
125
100
AcDbEntity
8
0
100
AcDbBlockEnd
0
BLOCK
5
12A
100
AcDbEntity
8
0
100
AcDbBlockBegin
2
*D5
70
1
10
0
20
0
30
0
3
*D5
0
LINE
5
12C
100
AcDbEntity
8
0
62
256
6
ByLayer
370
-2
48
1
60
0
100
AcDbLine
10
12.8795
20
-0.9025
30
0
11
12.8795
21
-32.185
31
0
39
0
210
0
220
0
230
1
0
LINE
5
12D
100
AcDbEntity
8
0
62
256
6
ByLayer
370
-2
48
1
60
0
100
AcDbLine
10
3.6795
20
-1.5875
30
0
11
3.6795
21
-32.185
31
0
39
0
210
0
220
0
230
1
0
LINE
5
12E
100
AcDbEntity
8
0
62
256
6
ByLayer
370
-2
48
1
60
0
100
AcDbLine
10
12.8795
20
-30.185
30
0
11
35.165214
21
-30.185
31
0
39
0
210
0
220
0
230
1
0
LINE
5
12F
100
AcDbEntity
8
0
62
256
6
ByLayer
370
-2
48
1
60
0
100
AcDbLine
10
16.3795
20
-30.185
30
0
11
19.8795
21
-30.185
31
0
39
0
210
0
220
0
230
1
0
LINE
5
130
100
AcDbEntity
8
0
62
256
6
ByLayer
370
-2
48
1
60
0
100
AcDbLine
10
0.1795
20
-30.185
30
0
11
-3.3205
21
-30.185
31
0
39
0
210
0
220
0
230
1
0
SOLID
5
131
100
AcDbEntity
8
0
62
256
6
ByLayer
370
-1
48
1
60
0
100
AcDbTrace
10
16.3795
20
-29.601667
30
0
11
16.3795
21
-30.768333
31
0
12
12.8795
22
-30.185
32
0
13
12.8795
23
-30.185
33
0
39
0
210
0
220
0
230
1
0
SOLID
5
132
100
AcDbEntity
8
0
62
256
6
ByLayer
370
-1
48
1
60
0
100
AcDbTrace
10
0.1795
20
-30.768333
30
0
11
0.1795
21
-29.601667
31
0
12
3.6795
22
-30.185
32
0
13
3.6795
23
-30.185
33
0
39
0
210
0
220
0
230
1
0
MTEXT
5
133
100
AcDbEntity
8
0
62
256
6
ByLayer
370
18
48
1
60
0
100
AcDbMText
10
27.522357
20
-24.185
30
0
210
0
220
0
230
1
1
\A1;9.2
40
3
41
0
44
1
50
0
71
5
72
5
7
iso_b_vert
0
POINT
5
134
100
AcDbEntity
8
Defpoints
62
0
6
ByLayer
370
-1
48
1
60
0
100
AcDbPoint
10
12.8795
20
0.685
30
0
39
0
210
0
220
0
230
1
50
360
0
POINT
5
135
100
AcDbEntity
8
Defpoints
62
0
6
ByLayer
370
-1
48
1
60
0
100
AcDbPoint
10
3.6795
20
0
30
0
39
0
210
0
220
0
230
1
50
360
0
POINT
5
136
100
AcDbEntity
8
Defpoints
62
0
6
ByLayer
370
-1
48
1
60
0
100
AcDbPoint
10
3.6795
20
-30.185
30
0
39
0
210
0
220
0
230
1
50
360
0
ENDBLK
5
12B
100
AcDbEntity
8
0
100
AcDbBlockEnd
0
BLOCK
5
13E
100
AcDbEntity
8
0
100
AcDbBlockBegin
2
_U2
70
0
10
0
20
0
30
0
3
_U2
0
MTEXT
5
138
100
AcDbEntity
8
SK2
62
256
6
ByLayer
370
18
48
1
60
0
100
AcDbMText
10
16.0385
20
-29.299886
30
0
210
0
220
0
230
1
1
\W0.7346;9.20
40
3
41
0
44
1.084337
50
0
71
7
72
5
7
iso_b_vert
0
LINE
5
139
100
AcDbEntity
8
SK2
62
256
6
ByLayer
370
13
48
1
60
0
100
AcDbLine
10
12.8795
20
-0.9025
30
0
11
12.8795
21
-32.185
31
0
39
0
210
0
220
0
230
1
0
LINE
5
13A
100
AcDbEntity
8
SK2
62
256
6
ByLayer
370
13
48
1
60
0
100
AcDbLine
10
3.6795
20
-1.5875
30
0
11
3.6795
21
-32.185
31
0
39
0
210
0
220
0
230
1
0
LINE
5
13B
100
AcDbEntity
8
SK2
62
256
6
ByLayer
370
13
48
1
60
0
100
AcDbLine
10
3.6795
20
-30.185
30
0
11
22.920413
21
-30.185
31
0
39
0
210
0
220
0
230
1
0
SOLID
5
13C
100
AcDbEntity
8
SK2
62
256
6
ByLayer
370
18
48
1
60
0
100
AcDbTrace
10
12.8795
20
-30.185
30
0
11
9.379502
21
-30.645784
31
0
12
9.379498
22
-29.724216
32
0
13
9.379498
23
-29.724216
33
0
39
0
210
0
220
0
230
1
0
SOLID
5
13D
100
AcDbEntity
8
SK2
62
256
6
ByLayer
370
18
48
1
60
0
100
AcDbTrace
10
3.6795
20
-30.185
30
0
11
7.179498
21
-29.724216
31
0
12
7.179502
22
-30.645784
32
0
13
7.179502
23
-30.645784
33
0
39
0
210
0
220
0
230
1
0
ENDBLK
5
13F
100
AcDbEntity
8
0
100
AcDbBlockEnd
0
BLOCK
5
144
100
AcDbEntity
8
0
100
AcDbBlockBegin
2
*D7
70
1
10
0
20
0
30
0
3
*D7
0
LINE
5
146
100
AcDbEntity
8
0
62
256
6
ByLayer
370
-2
48
1
60
0
100
AcDbLine
10
-25.1205
20
1.5875
30
0
11
-25.1205
21
13.35
31
0
39
0
210
0
220
0
230
1
0
LINE
5
147
100
AcDbEntity
8
0
62
256
6
ByLayer
370
-2
48
1
60
0
100
AcDbLine
10
0
20
1.5875
30
0
11
0
21
13.35
31
0
39
0
210
0
220
0
230
1
0
LINE
5
148
100
AcDbEntity
8
0
62
256
6
ByLayer
370
-2
48
1
60
0
100
AcDbLine
10
-21.6205
20
11.35
30
0
11
-3.5
21
11.35
31
0
39
0
210
0
220
0
230
1
0
SOLID
5
149
100
AcDbEntity
8
0
62
256
6
ByLayer
370
-1
48
1
60
0
100
AcDbTrace
10
-21.6205
20
11.933333
30
0
11
-21.6205
21
10.766667
31
0
12
-25.1205
22
11.35
32
0
13
-25.1205
23
11.35
33
0
39
0
210
0
220
0
230
1
0
SOLID
5
14A
100
AcDbEntity
8
0
62
256
6
ByLayer
370
-1
48
1
60
0
100
AcDbTrace
10
-3.5
20
10.766667
30
0
11
-3.5
21
11.933333
31
0
12
0
22
11.35
32
0
13
0
23
11.35
33
0
39
0
210
0
220
0
230
1
0
MTEXT
5
14B
100
AcDbEntity
8
0
62
256
6
ByLayer
370
18
48
1
60
0
100
AcDbMText
10
-12.56025
20
17.35
30
0
210
0
220
0
230
1
1
\A1;25.12
40
3
41
0
44
1
50
0
71
5
72
5
7
iso_b_vert
0
POINT
5
14C
100
AcDbEntity
8
Defpoints
62
0
6
ByLayer
370
-1
48
1
60
0
100
AcDbPoint
10
-25.1205
20
0
30
0
39
0
210
0
220
0
230
1
50
360
0
POINT
5
14D
100
AcDbEntity
8
Defpoints
62
0
6
ByLayer
370
-1
48
1
60
0
100
AcDbPoint
10
0
20
0
30
0
39
0
210
0
220
0
230
1
50
360
0
POINT
5
14E
100
AcDbEntity
8
Defpoints
62
0
6
ByLayer
370
-1
48
1
60
0
100
AcDbPoint
10
0
20
11.35
30
0
39
0
210
0
220
0
230
1
50
360
0
ENDBLK
5
145
100
AcDbEntity
8
0
100
AcDbBlockEnd
0
BLOCK
5
156
100
AcDbEntity
8
0
100
AcDbBlockBegin
2
_U3
70
0
10
0
20
0
30
0
3
_U3
0
MTEXT
5
150
100
AcDbEntity
8
SK2
62
256
6
ByLayer
370
18
48
1
60
0
100
AcDbMText
10
-16.667678
20
12.235114
30
0
210
0
220
0
230
1
1
\W0.6864;25.12
40
3
41
0
44
1.084337
50
0
71
7
72
5
7
iso_b_vert
0
LINE
5
151
100
AcDbEntity
8
SK2
62
256
6
ByLayer
370
13
48
1
60
0
100
AcDbLine
10
-25.1205
20
1.5875
30
0
11
-25.1205
21
13.35
31
0
39
0
210
0
220
0
230
1
0
LINE
5
152
100
AcDbEntity
8
SK2
62
256
6
ByLayer
370
13
48
1
60
0
100
AcDbLine
10
0
20
1.5875
30
0
11
0
21
13.35
31
0
39
0
210
0
220
0
230
1
0
LINE
5
153
100
AcDbEntity
8
SK2
62
256
6
ByLayer
370
13
48
1
60
0
100
AcDbLine
10
-25.1205
20
11.35
30
0
11
0
21
11.35
31
0
39
0
210
0
220
0
230
1
0
SOLID
5
154
100
AcDbEntity
8
SK2
62
256
6
ByLayer
370
18
48
1
60
0
100
AcDbTrace
10
-25.1205
20
11.35
30
0
11
-21.620502
21
11.810784
31
0
12
-21.620498
22
10.889216
32
0
13
-21.620498
23
10.889216
33
0
39
0
210
0
220
0
230
1
0
SOLID
5
155
100
AcDbEntity
8
SK2
62
256
6
ByLayer
370
18
48
1
60
0
100
AcDbTrace
10
0
20
11.35
30
0
11
-3.499998
21
10.889216
31
0
12
-3.500002
22
11.810784
32
0
13
-3.500002
23
11.810784
33
0
39
0
210
0
220
0
230
1
0
ENDBLK
5
157
100
AcDbEntity
8
0
100
AcDbBlockEnd
0
BLOCK
5
15C
100
AcDbEntity
8
0
100
AcDbBlockBegin
2
*D9
70
1
10
0
20
0
30
0
3
*D9
0
LINE
5
15E
100
AcDbEntity
8
0
62
256
6
ByLayer
370
-2
48
1
60
0
100
AcDbLine
10
12.8795
20
2.2725
30
0
11
12.8795
21
13.35
31
0
39
0
210
0
220
0
230
1
0
LINE
5
15F
100
AcDbEntity
8
0
62
256
6
ByLayer
370
-2
48
1
60
0
100
AcDbLine
10
0
20
1.5875
30
0
11
0
21
13.35
31
0
39
0
210
0
220
0
230
1
0
LINE
5
160
100
AcDbEntity
8
0
62
256
6
ByLayer
370
-2
48
1
60
0
100
AcDbLine
10
16.3795
20
11.35
30
0
11
19.8795
21
11.35
31
0
39
0
210
0
220
0
230
1
0
LINE
5
161
100
AcDbEntity
8
0
62
256
6
ByLayer
370
-2
48
1
60
0
100
AcDbLine
10
-3.5
20
11.35
30
0
11
-7
21
11.35
31
0
39
0
210
0
220
0
230
1
0
SOLID
5
162
100
AcDbEntity
8
0
62
256
6
ByLayer
370
-1
48
1
60
0
100
AcDbTrace
10
16.3795
20
11.933333
30
0
11
16.3795
21
10.766667
31
0
12
12.8795
22
11.35
32
0
13
12.8795
23
11.35
33
0
39
0
210
0
220
0
230
1
0
SOLID
5
163
100
AcDbEntity
8
0
62
256
6
ByLayer
370
-1
48
1
60
0
100
AcDbTrace
10
-3.5
20
10.766667
30
0
11
-3.5
21
11.933333
31
0
12
0
22
11.35
32
0
13
0
23
11.35
33
0
39
0
210
0
220
0
230
1
0
MTEXT
5
164
100
AcDbEntity
8
0
62
256
6
ByLayer
370
18
48
1
60
0
100
AcDbMText
10
6.43975
20
17.35
30
0
210
0
220
0
230
1
1
\A1;12.88
40
3
41
0
44
1
50
0
71
5
72
5
7
iso_b_vert
0
POINT
5
165
100
AcDbEntity
8
Defpoints
62
0
6
ByLayer
370
-1
48
1
60
0
100
AcDbPoint
10
12.8795
20
0.685
30
0
39
0
210
0
220
0
230
1
50
360
0
POINT
5
166
100
AcDbEntity
8
Defpoints
62
0
6
ByLayer
370
-1
48
1
60
0
100
AcDbPoint
10
0
20
0
30
0
39
0
210
0
220
0
230
1
50
360
0
POINT
5
167
100
AcDbEntity
8
Defpoints
62
0
6
ByLayer
370
-1
48
1
60
0
100
AcDbPoint
10
0
20
11.35
30
0
39
0
210
0
220
0
230
1
50
360
0
ENDBLK
5
15D
100
AcDbEntity
8
0
100
AcDbBlockEnd
0
BLOCK
5
16F
100
AcDbEntity
8
0
100
AcDbBlockBegin
2
_U4
70
0
10
0
20
0
30
0
3
_U4
0
MTEXT
5
169
100
AcDbEntity
8
2
62
256
6
ByLayer
370
18
48
1
60
0
100
AcDbMText
10
2.332322
20
12.235114
30
0
210
0
220
0
230
1
1
\W0.6864;12.88
40
3
41
0
44
1.084337
50
0
71
7
72
5
7
iso_b_vert
0
LINE
5
16A
100
AcDbEntity
8
2
62
256
6
ByLayer
370
13
48
1
60
0
100
AcDbLine
10
12.8795
20
2.2725
30
0
11
12.8795
21
13.35
31
0
39
0
210
0
220
0
230
1
0
LINE
5
16B
100
AcDbEntity
8
2
62
256
6
ByLayer
370
13
48
1
60
0
100
AcDbLine
10
0
20
1.5875
30
0
11
0
21
13.35
31
0
39
0
210
0
220
0
230
1
0
LINE
5
16C
100
AcDbEntity
8
2
62
256
6
ByLayer
370
13
48
1
60
0
100
AcDbLine
10
12.8795
20
11.35
30
0
11
0
21
11.35
31
0
39
0
210
0
220
0
230
1
0
SOLID
5
16D
100
AcDbEntity
8
2
62
256
6
ByLayer
370
18
48
1
60
0
100
AcDbTrace
10
12.8795
20
11.35
30
0
11
9.379502
21
10.889216
31
0
12
9.379498
22
11.810784
32
0
13
9.379498
23
11.810784
33
0
39
0
210
0
220
0
230
1
0
SOLID
5
16E
100
AcDbEntity
8
2
62
256
6
ByLayer
370
18
48
1
60
0
100
AcDbTrace
10
0
20
11.35
30
0
11
3.499998
21
11.810784
31
0
12
3.500002
22
10.889216
32
0
13
3.500002
23
10.889216
33
0
39
0
210
0
220
0
230
1
0
ENDBLK
5
170
100
AcDbEntity
8
0
100
AcDbBlockEnd
0
ENDSEC
0
SECTION
2
ENTITIES
0
ARC
5
BD
100
AcDbEntity
8
1
62
256
6
ByLayer
370
18
48
1
60
0
100
AcDbCircle
39
0
10
1.679544
20
-1.685
30
0
40
0.999999999999999
210
0
220
0
230
1
100
AcDbArc
50
90
51
120
0
ARC
5
BE
100
AcDbEntity
8
1
62
256
6
ByLayer
370
18
48
1
60
0
100
AcDbCircle
39
0
10
1.679544
20
1.685
30
0
40
0.999999999999999
210
0
220
0
230
1
100
AcDbArc
50
240
51
270
0
ARC
5
BF
100
AcDbEntity
8
SK2
62
256
6
ByLayer
370
13
48
1
60
0
100
AcDbCircle
39
0
10
12.8795
20
0
30
0
40
16.35
210
0
220
0
230
1
100
AcDbArc
50
10.57289
51
65
0
ARC
5
C0
100
AcDbEntity
8
SK2
62
256
6
ByLayer
370
13
48
1
60
0
100
AcDbCircle
39
0
10
12.8795
20
0
30
0
40
16.35
210
0
220
0
230
1
100
AcDbArc
50
295
51
349.42711
0
POINT
5
70
100
AcDbEntity
8
80
62
256
6
ByLayer
370
18
48
1
60
0
100
AcDbPoint
10
0
20
0
30
0
39
0
210
0
220
0
230
1
50
360
0
POINT
5
72
100
AcDbEntity
8
81
62
256
6
ByLayer
370
18
48
1
60
0
100
AcDbPoint
10
12.8795
20
0
30
0
39
0
210
0
220
0
230
1
50
360
0
POINT
5
74
100
AcDbEntity
8
1
62
256
6
ByLayer
370
18
48
1
60
1
100
AcDbPoint
10
-25.1205
20
1.5
30
0
39
0
210
0
220
0
230
1
50
360
0
POINT
5
76
100
AcDbEntity
8
1
62
256
6
ByLayer
370
18
48
1
60
1
100
AcDbPoint
10
12.8795
20
0.685
30
0
39
0
210
0
220
0
230
1
50
360
0
POINT
5
77
100
AcDbEntity
8
1
62
256
6
ByLayer
370
18
48
1
60
1
100
AcDbPoint
10
12.8795
20
0.685
30
0
39
0
210
0
220
0
230
1
50
360
0
POINT
5
78
100
AcDbEntity
8
1
62
256
6
ByLayer
370
18
48
1
60
1
100
AcDbPoint
10
5.7345
20
0
30
0
39
0
210
0
220
0
230
1
50
360
0
POINT
5
79
100
AcDbEntity
8
1
62
256
6
ByLayer
370
18
48
1
60
1
100
AcDbPoint
10
12.8795
20
0.685
30
0
39
0
210
0
220
0
230
1
50
360
0
POINT
5
7A
100
AcDbEntity
8
1
62
256
6
ByLayer
370
18
48
1
60
1
100
AcDbPoint
10
3.6795
20
0
30
0
39
0
210
0
220
0
230
1
50
360
0
POINT
5
7B
100
AcDbEntity
8
1
62
256
6
ByLayer
370
18
48
1
60
1
100
AcDbPoint
10
-25.1205
20
0
30
0
39
0
210
0
220
0
230
1
50
360
0
POINT
5
7C
100
AcDbEntity
8
1
62
256
6
ByLayer
370
18
48
1
60
1
100
AcDbPoint
10
0
20
0
30
0
39
0
210
0
220
0
230
1
50
360
0
POINT
5
7D
100
AcDbEntity
8
1
62
256
6
ByLayer
370
18
48
1
60
1
100
AcDbPoint
10
12.8795
20
0.685
30
0
39
0
210
0
220
0
230
1
50
360
0
POINT
5
7E
100
AcDbEntity
8
1
62
256
6
ByLayer
370
18
48
1
60
1
100
AcDbPoint
10
0
20
0
30
0
39
0
210
0
220
0
230
1
50
360
0
SPLINE
5
C1
100
AcDbEntity
8
1
62
256
6
ByLayer
370
18
48
1
60
0
100
AcDbSpline
70
4
71
3
72
16
73
12
40
0
40
0
40
0
40
0
40
0.249999999999997
40
0.249999999999997
40
0.499999999999993
40
0.499999999999993
40
0.624999999999992
40
0.624999999999992
40
0.74999999999999
40
0.74999999999999
40
1
40
1
40
1
40
1
41
1
10
3.69937015985457
20
-0.451936437200601
30
0
41
1
10
3.76070379809849
20
-0.440589308752266
30
0
41
1
10
3.82234300647775
20
-0.432097006589117
30
0
41
1
10
3.94621255552087
20
-0.421371303440083
30
0
41
1
10
4.00844296011186
20
-0.419136675431389
30
0
41
1
10
4.10223731866199
20
-0.420677739066747
30
0
41
1
10
4.13357710089468
20
-0.422004857786817
30
0
41
1
10
4.19641012174736
20
-0.426293831462061
30
0
41
1
10
4.22776695316406
20
-0.429249695117079
30
0
41
1
10
4.32106865776245
20
-0.440371981817691
30
0
41
1
10
4.382491754325
20
-0.4508178072021
30
0
41
1
10
4.4431380000062
20
-0.463819608262384
30
0
0
SPLINE
5
C2
100
AcDbEntity
8
1
62
256
6
ByLayer
370
18
48
1
60
0
100
AcDbSpline
70
4
71
3
72
42
73
38
40
0
40
0
40
0
40
0
40
0.124999999999984
40
0.124999999999984
40
0.18749999999998
40
0.18749999999998
40
0.249999999999975
40
0.249999999999975
40
0.312499999999971
40
0.312499999999971
40
0.374999999999967
40
0.374999999999967
40
0.499999999999964
40
0.499999999999964
40
0.531249999999964
40
0.531249999999964
40
0.562499999999963
40
0.562499999999963
40
0.624999999999967
40
0.624999999999967
40
0.687499999999971
40
0.687499999999971
40
0.718749999999973
40
0.718749999999973
40
0.749999999999975
40
0.749999999999975
40
0.812499999999981
40
0.812499999999981
40
0.843749999999985
40
0.843749999999985
40
0.874999999999988
40
0.874999999999988
40
0.937499999999994
40
0.937499999999994
40
0.968749999999997
40
0.968749999999997
40
1
40
1
40
1
40
1
41
1
10
4.443138
20
-0.607125931513309
30
0
41
1
10
4.39094106934596
20
-0.614167901728905
30
0
41
1
10
4.33979533824197
20
-0.622110749472682
30
0
41
1
10
4.2646520945934
20
-0.634439119839101
30
0
41
1
10
4.2398790681201
20
-0.638613466291076
30
0
41
1
10
4.19114501441155
20
-0.646856695956586
30
0
41
1
10
4.16714921635307
20
-0.650931514610988
30
0
41
1
10
4.11991353374208
20
-0.658769654392557
30
0
41
1
10
4.09661141824697
20
-0.662542246652265
30
0
41
1
10
4.05126504004917
20
-0.669452123645925
30
0
41
1
10
4.02918553025194
20
-0.672596278444672
30
0
41
1
10
3.96477629136089
20
-0.680701067100642
30
0
41
1
10
3.92425255643155
20
-0.684376976203879
30
0
41
1
10
3.87703331555414
20
-0.685067406610671
30
0
41
1
10
3.86776309696523
20
-0.685006842897138
30
0
41
1
10
3.8495897366418
20
-0.6844267581655
30
0
41
1
10
3.84065729920618
20
-0.683904288342262
30
0
41
1
10
3.81468732793749
20
-0.681561606663308
30
0
41
1
10
3.79851469687537
20
-0.678981773876217
30
0
41
1
10
3.76860726856373
20
-0.671358941784035
30
0
41
1
10
3.75486954493522
20
-0.666319896988909
30
0
41
1
10
3.73632096939329
20
-0.656466007118468
30
0
41
1
10
3.73052124770834
20
-0.652812218250887
30
0
41
1
10
3.71984117625053
20
-0.644811807942062
30
0
41
1
10
3.71493842709177
20
-0.640453851693621
30
0
41
1
10
3.70156753580648
20
-0.626248939949221
30
0
41
1
10
3.69442694818102
20
-0.615277929583669
30
0
41
1
10
3.68662603345237
20
-0.596239095889814
30
0
41
1
10
3.68450473598455
20
-0.589412085956013
30
0
41
1
10
3.68136499192835
20
-0.57509693266158
30
0
41
1
10
3.68033854430703
20
-0.567618871820258
30
0
41
1
10
3.67885439389366
20
-0.544236332634625
30
0
41
1
10
3.67998204894263
20
-0.527386752195042
30
0
41
1
10
3.68489000962569
20
-0.500212853891725
30
0
41
1
10
3.6870764975929
20
-0.49080536248934
30
0
41
1
10
3.69246460430691
20
-0.471656966939378
30
0
41
1
10
3.69566822733589
20
-0.461888411417931
30
0
41
1
10
3.69937015985366
20
-0.45193643720026
30
0
0
SPLINE
5
C3
100
AcDbEntity
8
1
62
256
6
ByLayer
370
18
48
1
60
0
100
AcDbSpline
70
4
71
3
72
20
73
16
40
0
40
0
40
0
40
0
40
0.247815949209791
40
0.247815949209791
40
0.371723923814679
40
0.371723923814679
40
0.495631898419567
40
0.495631898419567
40
0.619539873024455
40
0.619539873024455
40
0.743447847629343
40
0.743447847629343
40
0.991263796839106
40
0.991263796839106
40
1
40
1
40
1
40
1
41
1
10
4.443138
20
0.607125931513309
30
0
41
1
10
4.39094106934596
20
0.614167901728905
30
0
41
1
10
4.33979533824197
20
0.622110749472682
30
0
41
1
10
4.26465209459337
20
0.634439119839101
30
0
41
1
10
4.2398790681201
20
0.638613466291076
30
0
41
1
10
4.19114501441157
20
0.646856695956586
30
0
41
1
10
4.16714921635261
20
0.65093151461565
30
0
41
1
10
4.11991353374162
20
0.658769654397219
30
0
41
1
10
4.09661141824697
20
0.662542246652265
30
0
41
1
10
4.05126504004915
20
0.669452123645925
30
0
41
1
10
4.02918553025194
20
0.672596278444672
30
0
41
1
10
3.96477629136092
20
0.680701067100642
30
0
41
1
10
3.92425255643153
20
0.684376976203879
30
0
41
1
10
3.88514547581289
20
0.684948792206797
30
0
41
1
10
3.88381724037211
20
0.684964313902924
30
0
41
1
10
3.88249248519048
20
0.684975799177096
30
0
0
SPLINE
5
C4
100
AcDbEntity
8
1
62
256
6
ByLayer
370
18
48
1
60
0
100
AcDbSpline
70
4
71
3
72
20
73
16
40
0
40
0
40
0
40
0
40
0.070008462893178
40
0.070008462893178
40
0.140016925786356
40
0.140016925786356
40
0.280033851572712
40
0.280033851572712
40
0.420050777359068
40
0.420050777359068
40
0.560067703145424
40
0.560067703145424
40
0.84010155471817
40
0.84010155471817
40
1
40
1
40
1
40
1
41
1
10
12.5600792541638
20
0.659444699387961
30
0
41
1
10
12.5486899569594
20
0.658174034865141
30
0
41
1
10
12.5377793325485
20
0.656623924479049
30
0
41
1
10
12.5162680378578
20
0.653219070194723
30
0
41
1
10
12.5056501684158
20
0.651375693870591
30
0
41
1
10
12.4739095543967
20
0.645554601120352
30
0
41
1
10
12.4529172092168
20
0.641273215772486
30
0
41
1
10
12.4106709016199
20
0.632271715680673
30
0
41
1
10
12.3895047542873
20
0.627505482716856
30
0
41
1
10
12.3472637521542
20
0.617321397071692
30
0
41
1
10
12.3261595816775
20
0.611921360544955
30
0
41
1
10
12.2627613803327
20
0.594904244607079
30
0
41
1
10
12.2204747030394
20
0.582397821219899
30
0
41
1
10
12.1539140583704
20
0.560993677934874
30
0
41
1
10
12.1297355871212
20
0.552859086929828
30
0
41
1
10
12.1055785008912
20
0.544387383053135
30
0
0
SPLINE
5
C5
100
AcDbEntity
8
1
62
256
6
ByLayer
370
18
48
1
60
0
100
AcDbSpline
70
4
71
3
72
64
73
60
40
0
40
0
40
0
40
0
40
0.0039648568682757
40
0.0039648568682757
40
0.0320847611526772
40
0.0320847611526772
40
0.0883245697214768
40
0.0883245697214768
40
0.116444474005877
40
0.116444474005877
40
0.144564378290276
40
0.144564378290276
40
0.172684282574676
40
0.172684282574676
40
0.200804186859076
40
0.200804186859076
40
0.257043995427875
40
0.257043995427875
40
0.285163899712275
40
0.285163899712275
40
0.313283803996675
40
0.313283803996675
40
0.369523612565474
40
0.369523612565474
40
0.425763421134274
40
0.425763421134274
40
0.453883325418674
40
0.453883325418674
40
0.482003229703073
40
0.482003229703073
40
0.538243038271869
40
0.538243038271869
40
0.566362942556266
40
0.566362942556266
40
0.594482846840662
40
0.594482846840662
40
0.622602751125058
40
0.622602751125058
40
0.650722655409454
40
0.650722655409454
40
0.706962463978243
40
0.706962463978243
40
0.735082368262638
40
0.735082368262638
40
0.763202272547034
40
0.763202272547034
40
0.791322176831429
40
0.791322176831429
40
0.819442081115825
40
0.819442081115825
40
0.875681889684617
40
0.875681889684617
40
0.903801793969013
40
0.903801793969013
40
0.931921698253408
40
0.931921698253408
40
0.988161506822199
40
0.988161506822199
40
1
40
1
40
1
40
1
41
1
10
9.15147996478015
20
-0.684999979840768
30
0
41
1
10
9.14551893055051
20
-0.684998621110395
30
0
41
1
10
9.13955722815513
20
-0.68497138677435
30
0
41
1
10
9.09130691922104
20
-0.684541417706839
30
0
41
1
10
9.04892671788278
20
-0.682855348610246
30
0
41
1
10
8.92198512284
20
-0.673881117659533
30
0
41
1
10
8.83759250726592
20
-0.662736268180083
30
0
41
1
10
8.71074357143942
20
-0.638601975219501
30
0
41
1
10
8.66836285467582
20
-0.629307139810095
30
0
41
1
10
8.58366971403544
20
-0.608342587926217
30
0
41
1
10
8.54142041546027
20
-0.596685405663322
30
0
41
1
10
8.45698867500755
20
-0.571129014700261
30
0
41
1
10
8.41477971144298
20
-0.557254025813478
30
0
41
1
10
8.3302514000822
20
-0.527443157439052
30
0
41
1
10
8.2878968877705
20
-0.511489834119828
30
0
41
1
10
8.16080207871607
20
-0.460755486478718
30
0
41
1
10
8.07640131050948
20
-0.42331068525479
30
0
41
1
10
7.94969294909873
20
-0.362514481493804
30
0
41
1
10
7.90738550357179
20
-0.341520654288644
30
0
41
1
10
7.82262426415267
20
-0.298286307274339
30
0
41
1
10
7.78032389191219
20
-0.276118803728338
30
0
41
1
10
7.65351558299193
20
-0.208213241511714
30
0
41
1
10
7.56909065958317
20
-0.161090089807402
30
0
41
1
10
7.39965695452963
20
-0.0644483746931712
30
0
41
1
10
7.31519886850174
20
-0.0155907640415478
30
0
41
1
10
7.18840436568735
20
0.0574202487340472
30
0
41
1
10
7.14611365953854
20
0.081709472278078
30
0
41
1
10
7.06138002195453
20
0.130017368445152
30
0
41
1
10
7.01905689909535
20
0.153982496296237
30
0
41
1
10
6.89234646297126
20
0.224810272775017
30
0
41
1
10
6.80796251845106
20
0.270476934953138
30
0
41
1
10
6.6809044442482
20
0.335649336258285
30
0
41
1
10
6.63853658833963
20
0.356777087475876
30
0
41
1
10
6.55400578063066
20
0.397530912263989
30
0
41
1
10
6.51179946195955
20
0.417190972885749
30
0
41
1
10
6.42738003906132
20
0.454895854664613
30
0
41
1
10
6.38513451997335
20
0.472897527508962
30
0
41
1
10
6.30046409056851
20
0.507061144251225
30
0
41
1
10
6.25807157050656
20
0.523211305017156
30
0
41
1
10
6.13122811690599
20
0.56847913160405
30
0
41
1
10
6.046858535571
20
0.594497835833579
30
0
41
1
10
5.91996424141735
20
0.626638873394086
30
0
41
1
10
5.87757670756673
20
0.636174713522905
30
0
41
1
10
5.79299178614752
20
0.652715448009701
30
0
41
1
10
5.75073815025036
20
0.659741861696432
30
0
41
1
10
5.66621593220364
20
0.671275735239362
30
0
41
1
10
5.62394518554854
20
0.675782172388722
30
0
41
1
10
5.5392873054175
20
0.682225710963365
30
0
41
1
10
5.49687653886392
20
0.684159672618932
30
0
41
1
10
5.37004025290628
20
0.686019517542348
30
0
41
1
10
5.28563049347997
20
0.68203200883525
30
0
41
1
10
5.15864654901367
20
0.668351277353025
30
0
41
1
10
5.1161999193406
20
0.662489659001864
30
0
41
1
10
5.03173426791162
20
0.648312615539879
30
0
41
1
10
4.98965760555703
20
0.639988584953727
30
0
41
1
10
4.86369323221547
20
0.611454757791307
30
0
41
1
10
4.77995659047014
20
0.587770954487297
30
0
41
1
10
4.67838675600163
20
0.55393269511913
30
0
41
1
10
4.66071368194645
20
0.547862114936549
30
0
41
1
10
4.64302699116416
20
0.541607970519465
30
0
0
SPLINE
5
C6
100
AcDbEntity
8
1
62
256
6
ByLayer
370
18
48
1
60
0
100
AcDbSpline
70
4
71
3
72
24
73
20
40
0
40
0
40
0
40
0
40
0.125
40
0.125
40
0.25
40
0.25
40
0.375
40
0.375
40
0.5
40
0.5
40
0.625
40
0.625
40
0.75
40
0.75
40
0.875
40
0.875
40
0.9375
40
0.9375
40
1
40
1
40
1
40
1
41
1
10
12.7996450285844
20
0.155201062122103
30
0
41
1
10
12.7938177032921
20
0.175765148722036
30
0
41
1
10
12.7860740924471
20
0.196069360553906
30
0
41
1
10
12.7690516619528
20
0.236717664513918
30
0
41
1
10
12.7597320916425
20
0.257053512529552
30
0
41
1
10
12.7403660295524
20
0.297991327232495
30
0
41
1
10
12.7303006505755
20
0.318593690809905
30
0
41
1
10
12.7098479522784
20
0.35998424046565
30
0
41
1
10
12.6994487746873
20
0.380778554163839
30
0
41
1
10
12.6784669081551
20
0.422565480927489
30
0
41
1
10
12.6678765041159
20
0.443570458262769
30
0
41
1
10
12.6465023476713
20
0.486164858727221
30
0
41
1
10
12.635717962838
20
0.507805843293795
30
0
41
1
10
12.6140971274549
20
0.551409130406768
30
0
41
1
10
12.6032561424619
20
0.573365595604457
30
0
41
1
10
12.5870293943404
20
0.605991893566738
30
0
41
1
10
12.5816271439782
20
0.616806957025261
30
0
41
1
10
12.570842004887
20
0.638249092775993
30
0
41
1
10
12.565457876574
20
0.648884783895966
30
0
41
1
10
12.5600792541638
20
0.659444699387961
30
0
0
SPLINE
5
C7
100
AcDbEntity
8
1
62
256
6
ByLayer
370
18
48
1
60
0
100
AcDbSpline
70
4
71
3
72
61
73
57
40
0
40
0
40
0
40
0
40
0.0322030040708855
40
0.0322030040708855
40
0.064406008141771
40
0.064406008141771
40
0.0966090122126565
40
0.0966090122126565
40
0.128812016283542
40
0.128812016283542
40
0.193218024425313
40
0.193218024425313
40
0.225421028496197
40
0.225421028496197
40
0.257624032567082
40
0.257624032567082
40
0.289827036637967
40
0.289827036637967
40
0.305928538673408
40
0.305928538673408
40
0.322030040708849
40
0.322030040708849
40
0.386436048850614
40
0.386436048850614
40
0.450842056992381
40
0.450842056992381
40
0.515248065134148
40
0.515248065134148
40
0.531349567169591
40
0.531349567169591
40
0.547451069205034
40
0.579654073275919
40
0.579654073275919
40
0.611857077346805
40
0.611857077346805
40
0.627958579382248
40
0.627958579382248
40
0.64406008141769
40
0.64406008141769
40
0.708466089559469
40
0.708466089559469
40
0.772872097701248
40
0.772872097701248
40
0.805075101772138
40
0.805075101772138
40
0.837278105843027
40
0.837278105843027
40
0.901684113984806
40
0.901684113984806
40
0.917785616020252
40
0.917785616020252
40
0.933887118055698
40
0.933887118055698
40
0.966090122126589
40
0.966090122126589
40
1
40
1
40
1
40
1
41
1
10
4.44313800000003
20
0.607125931513309
30
0
41
1
10
4.48572740857239
20
0.595881650957892
30
0
41
1
10
4.52806958004913
20
0.583396759880202
30
0
41
1
10
4.61267961758756
20
0.556285718124343
30
0
41
1
10
4.65494077384602
20
0.541661430984419
30
0
41
1
10
4.73945968725283
20
0.510362320541418
30
0
41
1
10
4.78173335631354
20
0.493704525952467
30
0
41
1
10
4.86642470653112
20
0.458496307465424
30
0
41
1
10
4.90888952244626
20
0.43990514687323
30
0
41
1
10
5.03592982815118
20
0.381802792531971
30
0
41
1
10
5.12045336760917
20
0.340088155147214
30
0
41
1
10
5.2476133450765
20
0.274038621676681
30
0
41
1
10
5.29011907040385
20
0.25139767279893
30
0
41
1
10
5.37495245494677
20
0.205293984938407
30
0
41
1
10
5.4172784488963
20
0.18181557965886
30
0
41
1
10
5.50188178351553
20
0.134227826864674
30
0
41
1
10
5.54418899853755
20
0.110169277439979
30
0
41
1
10
5.60773884239001
20
0.0738243336429605
30
0
41
1
10
5.62893661413312
20
0.0616658917736856
30
0
41
1
10
5.67137201975032
20
0.0372806191051041
30
0
41
1
10
5.69262854469525
20
0.0250421675739005
30
0
41
1
10
5.79861456805872
20
-0.0360095567955341
30
0
41
1
10
5.88269430039674
20
-0.0845770510075283
30
0
41
1
10
6.05026260972249
20
-0.179745476336365
30
0
41
1
10
6.13389365713473
20
-0.226098784080847
30
0
41
1
10
6.30163925406191
20
-0.315029276947058
30
0
41
1
10
6.38576475404608
20
-0.357589700543428
30
0
41
1
10
6.49172387834611
20
-0.407561009728028
30
0
41
1
10
6.51294584163327
20
-0.417378828192767
30
0
41
1
10
6.55532785342436
20
-0.436542000824261
30
0
41
1
10
6.61885902147517
20
-0.464630792491164
30
0
41
1
10
6.68231733157461
20
-0.490696571350526
30
0
41
1
10
6.76696296982129
20
-0.523535999350486
30
0
41
1
10
6.80930670896763
20
-0.538993902126435
30
0
41
1
10
6.87293106200457
20
-0.560641392865762
30
0
41
1
10
6.89417641339617
20
-0.567605218756597
30
0
41
1
10
6.93653675028878
20
-0.580952236994165
30
0
41
1
10
6.95766563743018
20
-0.587344491501767
30
0
41
1
10
7.06313790306646
20
-0.61783227565823
30
0
41
1
10
7.14702002565153
20
-0.637471454569294
30
0
41
1
10
7.31459891951363
20
-0.666993638628469
30
0
41
1
10
7.39830016474315
20
-0.6768760956287
30
0
41
1
10
7.52428485450989
20
-0.684057510329438
30
0
41
1
10
7.56638111957852
20
-0.685169222936651
30
0
41
1
10
7.65091024036684
20
-0.684789130220281
30
0
41
1
10
7.69342363952015
20
-0.683289439049958
30
0
41
1
10
7.82066166111159
20
-0.674885489036711
30
0
41
1
10
7.9052085848551
20
-0.664113565652457
30
0
41
1
10
8.01103293560982
20
-0.644340659784348
30
0
41
1
10
8.03220970683464
20
-0.640072462367698
30
0
41
1
10
8.07461960058981
20
-0.630927861746926
30
0
41
1
10
8.09586617892185
20
-0.626044367455307
30
0
41
1
10
8.15942440033663
20
-0.610547535993874
30
0
41
1
10
8.20163090234647
20
-0.599077750931855
30
0
41
1
10
8.28804389429169
20
-0.573323866544797
30
0
41
1
10
8.33224375701525
20
-0.55892995853614
30
0
41
1
10
8.37637706613944
20
-0.543415343353132
30
0
0
SPLINE
5
C8
100
AcDbEntity
8
1
62
256
6
ByLayer
370
18
48
1
60
0
100
AcDbSpline
70
4
71
3
72
26
73
22
40
0
40
0
40
0
40
0
40
0.17551288211857
40
0.17551288211857
40
0.278573771853745
40
0.278573771853745
40
0.381634661588921
40
0.381634661588921
40
0.587756441059284
40
0.587756441059284
40
0.793878220529648
40
0.793878220529648
40
0.845408665397239
40
0.845408665397239
40
0.89693911026483
40
0.89693911026483
40
0.948469555132422
40
0.948469555132422
40
0.97423477756621
40
0.97423477756621
40
1
40
1
40
1
40
1
41
1
10
11.3263354054455
20
0.68500024451663
30
0
41
1
10
11.3985061007406
20
0.685024419834718
30
0
41
1
10
11.4704848543007
20
0.68124779548765
30
0
41
1
10
11.5848420215531
20
0.669267560543375
30
0
41
1
10
11.6272417069867
20
0.663537001050656
30
0
41
1
10
11.7121367267475
20
0.649569433457799
30
0
41
1
10
11.7545129073466
20
0.641350106012283
30
0
41
1
10
11.8815708052473
20
0.613112691513976
30
0
41
1
10
11.9661789594273
20
0.589517165962945
30
0
41
1
10
12.1359369329842
20
0.533252645796495
30
0
41
1
10
12.2203996958005
20
0.501019497237849
30
0
41
1
10
12.3259951196152
20
0.456334505435876
30
0
41
1
10
12.3470925311136
20
0.447147607910949
30
0
41
1
10
12.3893328792427
20
0.428390143424139
30
0
41
1
10
12.4105051900906
20
0.41886234621839
30
0
41
1
10
12.4527786279633
20
0.399261788393204
30
0
41
1
10
12.4737918093948
20
0.389055406128222
30
0
41
1
10
12.5055718476152
20
0.373785739363797
30
0
41
1
10
12.5162045232638
20
0.368697007461861
30
0
41
1
10
12.5377472849117
20
0.358837076337892
30
0
41
1
10
12.5486744739717
20
0.354090096452211
30
0
41
1
10
12.5600792541638
20
0.35004800740586
30
0
0
SPLINE
5
C9
100
AcDbEntity
8
1
62
256
6
ByLayer
370
18
48
1
60
0
100
AcDbSpline
70
4
71
3
72
24
73
20
40
0
40
0
40
0
40
0
40
0.0624999999999998
40
0.0624999999999998
40
0.125
40
0.125
40
0.25
40
0.25
40
0.375
40
0.375
40
0.5
40
0.5
40
0.625
40
0.625
40
0.75
40
0.75
40
0.875
40
0.875
40
1
40
1
40
1
40
1
41
1
10
12.5600792541638
20
0.35004800740586
30
0
41
1
10
12.5654391344864
20
0.342097869093834
30
0
41
1
10
12.5707948669105
20
0.334574124497578
30
0
41
1
10
12.5815074928855
20
0.320424548776856
30
0
41
1
10
12.5868646165286
20
0.31381905888918
30
0
41
1
10
12.6029447172682
20
0.295181092572136
30
0
41
1
10
12.613676593881
20
0.284242793553233
30
0
41
1
10
12.6351469498169
20
0.263644898648749
30
0
41
1
10
12.6458923543684
20
0.253937028078525
30
0
41
1
10
12.6673301271443
20
0.234990711494703
30
0
41
1
10
12.6779950415982
20
0.225944702364387
30
0
41
1
10
12.6990771727223
20
0.209466030948079
30
0
41
1
10
12.7094918159302
20
0.20206532243111
30
0
41
1
10
12.7299346871682
20
0.188814153674031
30
0
41
1
10
12.7399719874525
20
0.182939010109237
30
0
41
1
10
12.759352164094
20
0.172567142313625
30
0
41
1
10
12.7687129412537
20
0.168080078579379
30
0
41
1
10
12.7858791803276
20
0.160547590768658
30
0
41
1
10
12.7937312847789
20
0.157501465644543
30
0
41
1
10
12.7996450285844
20
0.155201062122103
30
0
0
SPLINE
5
CA
100
AcDbEntity
8
1
62
256
6
ByLayer
370
18
48
1
60
0
100
AcDbSpline
70
4
71
3
72
41
73
37
40
0
40
0
40
0
40
0
40
0.004914950795713
40
0.0385152942776276
40
0.0721156377595422
40
0.105715981241457
40
0.130916238852893
40
0.156116496464329
40
0.189716839946243
40
0.223317183428158
40
0.256917526910073
40
0.290517870391987
40
0.324118213873902
40
0.340918385614859
40
0.374518729096774
40
0.408119072578688
40
0.441719416060603
40
0.475319759542518
40
0.508920103024432
40
0.525720274765389
40
0.559320618247304
40
0.592920961729219
40
0.626521305211133
40
0.660121648693048
40
0.693721992174963
40
0.718922249786398
40
0.744122507397834
40
0.777722850879749
40
0.811323194361664
40
0.844923537843578
40
0.878523881325493
40
0.912124224807408
40
0.928924396548365
40
0.962524740030279
40
0.996125083512194
40
1
40
1
40
1
40
1
41
1
10
5.52099985746651
20
0.126971342852158
30
0
41
1
10
5.52421352248214
20
0.126660163412169
30
0
41
1
10
5.54939693883583
20
0.124210984445938
30
0
41
1
10
5.59655010169303
20
0.119469893547006
30
0
41
1
10
5.66245933900455
20
0.112481595863159
30
0
41
1
10
5.72287613120403
20
0.105758814835042
30
0
41
1
10
5.77780048151689
20
0.0994119953141989
30
0
41
1
10
5.83272482685044
20
0.0928684986336635
30
0
41
1
10
5.89314160082944
20
0.0854337983964513
30
0
41
1
10
5.95905080228448
20
0.077038878100808
30
0
41
1
10
6.02495999803824
20
0.0683972693638282
30
0
41
1
10
6.09086918891137
20
0.0595690006106793
30
0
41
1
10
6.14579351125547
20
0.0520605180330449
30
0
41
1
10
6.20071783157485
20
0.0444578339702275
30
0
41
1
10
6.25564215012588
20
0.0367652996708614
30
0
41
1
10
6.32155133037841
20
0.0274235044182376
30
0
41
1
10
6.38746050944266
20
0.0179889217589562
30
0
41
1
10
6.45336968813922
20
0.0084846291136103
30
0
41
1
10
6.50829400409765
20
0.0005259014461103
30
0
41
1
10
6.56321832084905
20
-0.0074112618477784
30
0
41
1
10
6.61814263866416
20
-0.0153304208334077
30
0
41
1
10
6.68405182251246
20
-0.0247781902960469
30
0
41
1
10
6.74996100977367
20
-0.0341493107639508
30
0
41
1
10
6.81587020088656
20
-0.0434142352870879
30
0
41
1
10
6.87628696511868
20
-0.0517883355273341
30
0
41
1
10
6.93121129529996
20
-0.0592885183902752
30
0
41
1
10
6.98613558863332
20
-0.0666895334002788
30
0
41
1
10
7.04655227702222
20
-0.0746589127186042
30
0
41
1
10
7.11246135005518
20
-0.0831048346395562
30
0
41
1
10
7.17837038557349
20
-0.0912862810707509
30
0
41
1
10
7.24427938708902
20
-0.0991847806213286
30
0
41
1
10
7.29920352972357
20
-0.105511620838854
30
0
41
1
10
7.35412765563871
20
-0.111634365629698
30
0
41
1
10
7.40905176596806
20
-0.117546637347459
30
0
41
1
10
7.45552466020965
20
-0.122302768666856
30
0
41
1
10
7.48002791375609
20
-0.124732521510879
30
0
41
1
10
7.48256153353119
20
-0.12498291074624
30
0
0
SPLINE
5
CB
100
AcDbEntity
8
1
62
256
6
ByLayer
370
18
48
1
60
0
100
AcDbSpline
70
4
71
3
72
10
73
6
40
0
40
0
40
0
40
0
40
0.636131844260025
40
0.636131844260025
40
1
40
1
40
1
40
1
41
1
10
4.44313800000003
20
-0.607125931513309
30
0
41
1
10
4.48572740857239
20
-0.595881650957892
30
0
41
1
10
4.52806958004913
20
-0.583396759880202
30
0
41
1
10
4.5945731188217
20
-0.562087465273692
30
0
41
1
10
4.61875728765489
20
-0.553984006900549
30
0
41
1
10
4.6429349961316
20
-0.545539004584327
30
0
0
SPLINE
5
CC
100
AcDbEntity
8
1
62
256
6
ByLayer
370
18
48
1
60
0
100
AcDbSpline
70
4
71
3
72
66
73
62
40
0
40
0
40
0
40
0
40
0.0019157759587985
40
0.0019157759587985
40
0.0300887580875889
40
0.0300887580875889
40
0.0864347223451734
40
0.0864347223451734
40
0.10052121340957
40
0.10052121340957
40
0.114607704473965
40
0.114607704473965
40
0.142780686602761
40
0.142780686602761
40
0.199126650860349
40
0.199126650860349
40
0.255472615117937
40
0.255472615117937
40
0.283645597246729
40
0.283645597246729
40
0.311818579375521
40
0.311818579375521
40
0.368164543633106
40
0.368164543633106
40
0.396337525761896
40
0.396337525761896
40
0.424510507890687
40
0.424510507890687
40
0.452683490019477
40
0.452683490019477
40
0.480856472148268
40
0.480856472148268
40
0.537202436405849
40
0.537202436405849
40
0.565375418534637
40
0.565375418534637
40
0.593548400663426
40
0.593548400663426
40
0.621721382792215
40
0.621721382792215
40
0.649894364921004
40
0.649894364921004
40
0.706240329178584
40
0.706240329178584
40
0.734413311307375
40
0.734413311307375
40
0.762586293436165
40
0.762586293436165
40
0.790759275564956
40
0.790759275564956
40
0.818932257693747
40
0.818932257693747
40
0.875278221951328
40
0.875278221951328
40
0.903451204080118
40
0.903451204080118
40
0.931624186208909
40
0.931624186208909
40
0.98797015046649
40
0.98797015046649
40
1
40
1
40
1
40
1
41
1
10
7.60002596394239
20
0.684999894237393
30
0
41
1
10
7.6028984384404
20
0.684999003644663
30
0
41
1
10
7.60577167010234
20
0.684992099819681
30
0
41
1
10
7.65091024036673
20
0.684789130220281
30
0
41
1
10
7.69342363952009
20
0.683289439049958
30
0
41
1
10
7.82066166111153
20
0.674885489036711
30
0
41
1
10
7.90520858485505
20
0.664113565652485
30
0
41
1
10
8.01103293560976
20
0.644340659784348
30
0
41
1
10
8.03220970683458
20
0.640072462367698
30
0
41
1
10
8.07461960058981
20
0.630927861746926
30
0
41
1
10
8.09586617892182
20
0.626044367455307
30
0
41
1
10
8.15942440033658
20
0.610547535993874
30
0
41
1
10
8.20163090234641
20
0.599077750931855
30
0
41
1
10
8.32790393036538
20
0.561444278330157
30
0
41
1
10
8.41164540768307
20
0.532082219867277
30
0
41
1
10
8.5790087303298
20
0.465686330929373
30
0
41
1
10
8.66277648580399
20
0.428826555428827
30
0
41
1
10
8.78916960250993
20
0.368817913031393
30
0
41
1
10
8.83142217555871
20
0.348024435001179
30
0
41
1
10
8.91628104465326
20
0.30498449383137
30
0
41
1
10
8.95870705469895
20
0.282821816113625
30
0
41
1
10
9.08566679505859
20
0.214897165449315
30
0
41
1
10
9.17020875549485
20
0.167813150810787
30
0
41
1
10
9.29750965036465
20
0.0955511666207656
30
0
41
1
10
9.33998278155585
20
0.0712140677211437
30
0
41
1
10
9.42470505237367
20
0.0224600534993726
30
0
41
1
10
9.46700405842245
20
-0.0020034661108355
30
0
41
1
10
9.55158730871764
20
-0.0509127286464661
30
0
41
1
10
9.59390341991715
20
-0.0753030387228648
30
0
41
1
10
9.6787190142644
20
-0.12372151075752
30
0
41
1
10
9.72121526609419
20
-0.147768553286284
30
0
41
1
10
9.84834962710141
20
-0.218732015151289
30
0
41
1
10
9.93288242381942
20
-0.264621795444526
30
0
41
1
10
10.0599452535288
20
-0.330321411331795
30
0
41
1
10
10.1024123664357
20
-0.351667834996277
30
0
41
1
10
10.1871442151084
20
-0.392773508923653
30
0
41
1
10
10.2294556701861
20
-0.412573321599638
30
0
41
1
10
10.3140773612187
20
-0.450524872539546
30
0
41
1
10
10.3563907617028
20
-0.468672360186758
30
0
41
1
10
10.4411290043316
20
-0.503166313825943
30
0
41
1
10
10.4836072928393
20
-0.519536847034829
30
0
41
1
10
10.6107038804585
20
-0.565487599017871
30
0
41
1
10
10.6952557393378
20
-0.591819974300989
30
0
41
1
10
10.8224178639336
20
-0.624387756050965
30
0
41
1
10
10.8649210543881
20
-0.634100587637448
30
0
41
1
10
10.9497600609258
20
-0.651047345461279
30
0
41
1
10
10.9920914704756
20
-0.658286106136842
30
0
41
1
10
11.0766819982775
20
-0.670236894196847
30
0
41
1
10
11.1189754236658
20
-0.674933918897068
30
0
41
1
10
11.2036767537142
20
-0.681738048226947
30
0
41
1
10
11.2461349414993
20
-0.68384747811055
30
0
41
1
10
11.3734025197423
20
-0.686226977964935
30
0
41
1
10
11.4579196125317
20
-0.682564149784838
30
0
41
1
10
11.5848420215531
20
-0.669267560543375
30
0
41
1
10
11.6272417069867
20
-0.663537001050656
30
0
41
1
10
11.7121367267475
20
-0.649569433457799
30
0
41
1
10
11.7545129073466
20
-0.641350106012283
30
0
41
1
10
11.8815708052473
20
-0.613112691513976
30
0
41
1
10
11.9661789594273
20
-0.589517165962974
30
0
41
1
10
12.0691795890414
20
-0.555378675259703
30
0
41
1
10
12.0872822594959
20
-0.549185517345961
30
0
41
1
10
12.105370140289
20
-0.542811135383886
30
0
0
SPLINE
5
CD
100
AcDbEntity
8
1
62
256
6
ByLayer
370
18
48
1
60
0
100
AcDbSpline
70
4
71
3
72
67
73
63
40
0
40
0
40
0
40
0
40
0.0075821908895147
40
0.0075821908895147
40
0.0151643817790293
40
0.0151643817790293
40
0.0303287635580587
40
0.0303287635580587
40
0.045493145337088
40
0.045493145337088
40
0.0606575271161174
40
0.0606575271161174
40
0.090986290674176
40
0.090986290674176
40
0.121315054232235
40
0.121315054232235
40
0.181972581348356
40
0.181972581348356
40
0.212301344906416
40
0.212301344906416
40
0.242630108464477
40
0.242630108464477
40
0.272958872022537
40
0.272958872022537
40
0.303287635580598
40
0.303287635580598
40
0.363945162696715
40
0.363945162696715
40
0.394273926254772
40
0.394273926254772
40
0.424602689812829
40
0.454931453370886
40
0.454931453370886
40
0.485260216928943
40
0.485260216928943
40
0.54591774404506
40
0.54591774404506
40
0.576246507603119
40
0.576246507603119
40
0.606575271161177
40
0.606575271161177
40
0.636904034719236
40
0.636904034719236
40
0.667232798277295
40
0.667232798277295
40
0.727890325393408
40
0.727890325393408
40
0.758219088951467
40
0.758219088951467
40
0.788547852509526
40
0.788547852509526
40
0.818876616067584
40
0.818876616067584
40
0.849205379625643
40
0.849205379625643
40
0.90986290674176
40
0.90986290674176
40
0.940191670299819
40
0.940191670299819
40
0.970520433857878
40
0.970520433857878
40
1
40
1
40
1
40
1
41
1
10
12.5600792541638
20
-0.659444699387961
30
0
41
1
10
12.5486899569594
20
-0.658174034865169
30
0
41
1
10
12.5377793325485
20
-0.656623924479049
30
0
41
1
10
12.5162680378578
20
-0.653219070194723
30
0
41
1
10
12.5056501684158
20
-0.651375693870591
30
0
41
1
10
12.4739095543968
20
-0.645554601120352
30
0
41
1
10
12.4529172092169
20
-0.641273215772486
30
0
41
1
10
12.4106709016199
20
-0.632271715680673
30
0
41
1
10
12.3895047542873
20
-0.627505482716856
30
0
41
1
10
12.3472637521543
20
-0.617321397071692
30
0
41
1
10
12.3261595816775
20
-0.611921360544955
30
0
41
1
10
12.2627613803327
20
-0.594904244607079
30
0
41
1
10
12.2204747030395
20
-0.582397821219899
30
0
41
1
10
12.1357378750179
20
-0.555148697995378
30
0
41
1
10
12.0934116629427
20
-0.540435275603244
30
0
41
1
10
11.9666825163495
20
-0.493316820793325
30
0
41
1
10
11.8822521913854
20
-0.458074086034941
30
0
41
1
10
11.7551238536561
20
-0.400196457801968
30
0
41
1
10
11.7127405415473
20
-0.380095434382326
30
0
41
1
10
11.6281873533647
20
-0.338566794344956
30
0
41
1
10
11.5859773596257
20
-0.31710518640196
30
0
41
1
10
11.5015578513738
20
-0.27298188549176
30
0
41
1
10
11.4593202376242
20
-0.250364351996382
30
0
41
1
10
11.3746595173699
20
-0.204225401501105
30
0
41
1
10
11.332277353087
20
-0.180708325096305
30
0
41
1
10
11.205447957429
20
-0.109438741041288
30
0
41
1
10
11.1210679863986
20
-0.0608690486160128
30
0
41
1
10
10.9941567343319
20
0.0125430755199147
30
0
41
1
10
10.9517597753693
20
0.0370409810938668
30
0
41
1
10
10.8671644283986
20
0.0856201459548913
30
0
41
1
10
10.7826484917324
20
0.133863442314663
30
0
41
1
10
10.6981007647176
20
0.181111461367664
30
0
41
1
10
10.6134439606132
20
0.227700335626338
30
0
41
1
10
10.5710423634089
20
0.250687558090732
30
0
41
1
10
10.4442405859352
20
0.317980626246879
30
0
41
1
10
10.3598778538553
20
0.360544648896479
30
0
41
1
10
10.2329730980845
20
0.420023408871202
30
0
41
1
10
10.190564438226
20
0.439133641292074
30
0
41
1
10
10.1059816968038
20
0.475522308190705
30
0
41
1
10
10.0637655547137
20
0.492834033545904
30
0
41
1
10
9.97935365058956
20
0.525531569077629
30
0
41
1
10
9.93713505710571
20
0.540890744694565
30
0
41
1
10
9.85253888403429
20
0.569490289632284
30
0
41
1
10
9.81011388054259
20
0.58275454177317
30
0
41
1
10
9.68313610563379
20
0.619054404003606
30
0
41
1
10
9.59874870795124
20
0.638657703705633
30
0
41
1
10
9.47196328041812
20
0.660700800388526
30
0
41
1
10
9.4295687030635
20
0.666805268523802
30
0
41
1
10
9.34490738308548
20
0.676414258265368
30
0
41
1
10
9.30264028720964
20
0.679928554283208
30
0
41
1
10
9.21812992639161
20
0.68436919883095
30
0
41
1
10
9.17588252584392
20
0.685295089455622
30
0
41
1
10
9.09130691922101
20
0.684541417706839
30
0
41
1
10
9.04892671788272
20
0.682855348610246
30
0
41
1
10
8.92198512284
20
0.673881117659533
30
0
41
1
10
8.83759250726592
20
0.662736268180055
30
0
41
1
10
8.71074357143937
20
0.638601975219501
30
0
41
1
10
8.66836285467576
20
0.629307139810095
30
0
41
1
10
8.58366971403541
20
0.608342587926217
30
0
41
1
10
8.54142041546024
20
0.596685405663294
30
0
41
1
10
8.45817070828886
20
0.571486800818406
30
0
41
1
10
8.41714339665089
20
0.558030158034683
30
0
41
1
10
8.37606558310046
20
0.543598211338093
30
0
0
SPLINE
5
CE
100
AcDbEntity
8
1
62
256
6
ByLayer
370
18
48
1
60
0
100
AcDbSpline
70
4
71
3
72
18
73
14
40
0
40
0
40
0
40
0
40
0.227401634655968
40
0.227401634655968
40
0.35616802887997
40
0.35616802887997
40
0.484934423103973
40
0.484934423103973
40
0.742467211551986
40
0.742467211551986
40
0.871233605775993
40
0.871233605775993
40
1
40
1
40
1
40
1
41
1
10
5.42492370288548
20
-0.685000301980693
30
0
41
1
10
5.35028511856578
20
-0.685016181657119
30
0
41
1
10
5.27572580578837
20
-0.680964918241273
30
0
41
1
10
5.15864654901353
20
-0.668351277352997
30
0
41
1
10
5.11619991934049
20
-0.662489659001864
30
0
41
1
10
5.03173426791156
20
-0.648312615539851
30
0
41
1
10
4.98965760555694
20
-0.639988584953699
30
0
41
1
10
4.86369323221544
20
-0.611454757791307
30
0
41
1
10
4.77995659047014
20
-0.587770954487269
30
0
41
1
10
4.65409560612591
20
-0.545840034201149
30
0
41
1
10
4.61208235091152
20
-0.530812134362691
30
0
41
1
10
4.52785479026099
20
-0.498726941898383
30
0
41
1
10
4.48564616182253
20
-0.481653571934061
30
0
41
1
10
4.443138
20
-0.463819608260991
30
0
0
SPLINE
5
CF
100
AcDbEntity
8
1
62
256
6
ByLayer
370
18
48
1
60
0
100
AcDbSpline
70
4
71
3
72
40
73
36
40
0
40
0
40
0
40
0
40
0.0208166590797921
40
0.0541551402208522
40
0.0874936213619119
40
0.120832102502971
40
0.154170583644031
40
0.187509064785091
40
0.204178305355621
40
0.237516786496681
40
0.270855267637741
40
0.3041937487788
40
0.33753222991986
40
0.37087071106092
40
0.38753995163145
40
0.42087843277251
40
0.454216913913569
40
0.487555395054629
40
0.520893876195689
40
0.554232357336749
40
0.579236218192543
40
0.604240079048338
40
0.637578560189398
40
0.670917041330458
40
0.704255522471518
40
0.737594003612577
40
0.762597864468372
40
0.787601725324167
40
0.820940206465227
40
0.854278687606286
40
0.887617168747346
40
0.920955649888406
40
0.954294131029466
40
0.970963371599996
40
1
40
1
40
1
40
1
41
1
10
9.24630158825914
20
0.127194931546768
30
0
41
1
10
9.26001951465798
20
0.125871126356571
30
0
41
1
10
9.29570710300302
20
0.12236084791499
30
0
41
1
10
9.35336437368048
20
0.116420203932648
30
0
41
1
10
9.41927341694404
20
0.109268596959282
30
0
41
1
10
9.48518250316806
20
0.10176824449988
30
0
41
1
10
9.5510916371004
20
0.0939347137031063
30
0
41
1
10
9.60601595894019
20
0.087181015535009
30
0
41
1
10
9.66094031661001
20
0.0802689613065297
30
0
41
1
10
9.71586471043003
20
0.0732039081291305
30
0
41
1
10
9.78177405007446
20
0.0645027142140861
30
0
41
1
10
9.84768338119568
20
0.0556024124287831
30
0
41
1
10
9.91359271464691
20
0.0465242567717041
30
0
41
1
10
9.96851715850218
20
0.0388289314790313
30
0
41
1
10
10.0234416026131
20
0.0310439302195391
30
0
41
1
10
10.0783660466634
20
0.0231956104232722
30
0
41
1
10
10.1442753795382
20
0.0137212316225828
30
0
41
1
10
10.2101847124102
20
0.0042125509551454
30
0
41
1
10
10.2760940452829
20
-0.005307547147595
30
0
41
1
10
10.3365109337494
20
-0.014017598323818
30
0
41
1
10
10.3914353778098
20
-0.0219019345053084
30
0
41
1
10
10.4463598218702
20
-0.029746826922036
30
0
41
1
10
10.5067767103368
20
-0.038311864688751
30
0
41
1
10
10.5726860432093
20
-0.0475508180349209
30
0
41
1
10
10.6385953760818
20
-0.0566140657270182
30
0
41
1
10
10.6990122645483
20
-0.0647513426877993
30
0
41
1
10
10.7539367086088
20
-0.0719965169836314
30
0
41
0.999999999999999
10
10.8088611526695
20
-0.0791024419166889
30
0
41
1
10
10.8692780411353
20
-0.0867270557544088
30
0
41
1
10
10.9351873740094
20
-0.0947858337056573
30
0
41
1
10
11.0010967068772
20
-0.10256246743549
30
0
41
1
10
11.0670060397686
20
-0.110044444758927
30
0
41
1
10
11.1219304837484
20
-0.115982836454918
30
0
41
1
10
11.1740200435309
20
-0.121397357421302
30
0
41
1
10
11.2041398246068
20
-0.124410131300721
30
0
41
1
10
11.2232747177212
20
-0.126275061811242
30
0
0
SPLINE
5
D0
100
AcDbEntity
8
1
62
256
6
ByLayer
370
18
48
1
60
0
100
AcDbSpline
70
4
71
3
72
22
73
18
40
0
40
0
40
0
40
0
40
0.0235161498337028
40
0.0235161498337028
40
0.186263458194752
40
0.186263458194752
40
0.349010766555802
40
0.349010766555802
40
0.511758074916851
40
0.511758074916851
40
0.674505383277901
40
0.674505383277901
40
0.83725269163895
40
0.83725269163895
40
0.918626345819475
40
0.918626345819475
40
1
40
1
40
1
40
1
41
1
10
12.754222397272
20
-0.268657432268782
30
0
41
1
10
12.752839768452
20
-0.271609894116779
30
0
41
1
10
12.7514482088304
20
-0.274564767941598
30
0
41
1
10
12.7403660295524
20
-0.297991327232495
30
0
41
1
10
12.7303006505754
20
-0.318593690809905
30
0
41
1
10
12.7098479522784
20
-0.35998424046565
30
0
41
1
10
12.6994487746873
20
-0.380778554163839
30
0
41
1
10
12.6784669081551
20
-0.422565480927489
30
0
41
1
10
12.6678765041159
20
-0.443570458262769
30
0
41
1
10
12.6465023476713
20
-0.486164858727221
30
0
41
1
10
12.635717962838
20
-0.507805843293795
30
0
41
1
10
12.6140971274548
20
-0.551409130406768
30
0
41
1
10
12.6032561424619
20
-0.573365595604457
30
0
41
1
10
12.5870293943404
20
-0.605991893566738
30
0
41
1
10
12.5816271439782
20
-0.616806957025261
30
0
41
1
10
12.570842004887
20
-0.638249092775993
30
0
41
1
10
12.5654578765739
20
-0.648884783895966
30
0
41
1
10
12.5600792541638
20
-0.659444699387961
30
0
0
LINE
5
7F
100
AcDbEntity
8
1
62
256
6
ByLayer
370
18
48
1
60
0
100
AcDbLine
10
0
20
-1.499985
30
0
11
0
21
0
31
0
39
0
210
0
220
0
230
1
0
LINE
5
80
100
AcDbEntity
8
1
62
256
6
ByLayer
370
18
48
1
60
0
100
AcDbLine
10
0
20
0
30
0
11
0
21
1.499985
31
0
39
0
210
0
220
0
230
1
0
LINE
5
81
100
AcDbEntity
8
1
62
256
6
ByLayer
370
18
48
1
60
0
100
AcDbLine
10
12.560079
20
0.350048
30
0
11
12.560079
21
-0.659445
31
0
39
0
210
0
220
0
230
1
0
LINE
5
82
100
AcDbEntity
8
1
62
256
6
ByLayer
370
18
48
1
60
0
100
AcDbLine
10
4.443138
20
-0.449734
30
0
11
4.443138
21
-0.607126
31
0
39
0
210
0
220
0
230
1
0
LINE
5
83
100
AcDbEntity
8
1
62
256
6
ByLayer
370
13
48
1
60
0
100
AcDbLine
10
1.679544
20
0.685
30
0
11
1.679544
21
-0.685
31
0
39
0
210
0
220
0
230
1
0
LINE
5
84
100
AcDbEntity
8
1
62
256
6
ByLayer
370
13
48
1
60
0
100
AcDbLine
10
1.179544
20
0.818975
30
0
11
1.179544
21
-0.818975
31
0
39
0
210
0
220
0
230
1
0
LINE
5
85
100
AcDbEntity
8
SK1
62
256
6
ByLayer
370
18
48
1
60
0
100
AcDbLine
10
-25.1205
20
1.326795
30
0
11
-25.1205
21
-1.326795
31
0
39
0
210
0
220
0
230
1
0
LINE
5
87
100
AcDbEntity
8
SK1
62
256
6
ByLayer
370
18
48
1
60
0
100
AcDbLine
10
-24.8205
20
1.5
30
0
11
-24.8205
21
-1.5
31
0
39
0
210
0
220
0
230
1
0
LINE
5
88
100
AcDbEntity
8
SK1
62
256
6
ByLayer
370
18
48
1
60
0
100
AcDbLine
10
0
20
-1.499985
30
0
11
0
21
0
31
0
39
0
210
0
220
0
230
1
0
LINE
5
89
100
AcDbEntity
8
SK1
62
256
6
ByLayer
370
18
48
1
60
0
100
AcDbLine
10
0
20
0
30
0
11
0
21
1.499985
31
0
39
0
210
0
220
0
230
1
0
LINE
5
8A
100
AcDbEntity
8
SK1
62
256
6
ByLayer
370
18
48
1
60
0
100
AcDbLine
10
-2.7E-05
20
1.5
30
0
11
-2.7E-05
21
-1.5
31
0
39
0
210
0
220
0
230
1
0
LINE
5
8B
100
AcDbEntity
8
1
62
256
6
ByLayer
370
18
48
1
60
0
100
AcDbLine
10
12.8795
20
0
30
0
11
12.753882
21
0.26939
31
0
39
0
210
0
220
0
230
1
0
LINE
5
8C
100
AcDbEntity
8
1
62
256
6
ByLayer
370
18
48
1
60
0
100
AcDbLine
10
12.753882
20
-0.26939
30
0
11
12.8795
21
0
31
0
39
0
210
0
220
0
230
1
0
LINE
5
8D
100
AcDbEntity
8
1
62
256
6
ByLayer
370
18
48
1
60
0
100
AcDbLine
10
1.179544
20
0.818975
30
0
11
0
21
1.499985
31
0
39
0
210
0
220
0
230
1
0
LINE
5
8E
100
AcDbEntity
8
1
62
256
6
ByLayer
370
18
48
1
60
0
100
AcDbLine
10
0
20
-1.499985
30
0
11
1.179544
21
-0.818975
31
0
39
0
210
0
220
0
230
1
0
LINE
5
8F
100
AcDbEntity
8
1
62
256
6
ByLayer
370
18
48
1
60
0
100
AcDbLine
10
1.679544
20
-0.685
30
0
11
3.888928
21
-0.685
31
0
39
0
210
0
220
0
230
1
0
LINE
5
90
100
AcDbEntity
8
1
62
256
6
ByLayer
370
18
48
1
60
0
100
AcDbLine
10
5.424684
20
-0.685
30
0
11
7.599853
21
-0.685
31
0
39
0
210
0
220
0
230
1
0
LINE
5
91
100
AcDbEntity
8
1
62
256
6
ByLayer
370
18
48
1
60
0
100
AcDbLine
10
9.151717
20
-0.685
30
0
11
11.326575
21
-0.685
31
0
39
0
210
0
220
0
230
1
0
LINE
5
92
100
AcDbEntity
8
1
62
256
6
ByLayer
370
18
48
1
60
0
100
AcDbLine
10
11.326575
20
0.685
30
0
11
9.151717
21
0.685
31
0
39
0
210
0
220
0
230
1
0
LINE
5
93
100
AcDbEntity
8
1
62
256
6
ByLayer
370
18
48
1
60
0
100
AcDbLine
10
7.599853
20
0.685
30
0
11
5.424684
21
0.685
31
0
39
0
210
0
220
0
230
1
0
LINE
5
94
100
AcDbEntity
8
1
62
256
6
ByLayer
370
18
48
1
60
0
100
AcDbLine
10
3.888928
20
0.685
30
0
11
1.679544
21
0.685
31
0
39
0
210
0
220
0
230
1
0
LINE
5
95
100
AcDbEntity
8
SK1
62
256
6
ByLayer
370
18
48
1
60
0
100
AcDbLine
10
-25.1205
20
-1.326795
30
0
11
-24.8205
21
-1.5
31
0
39
0
210
0
220
0
230
1
0
LINE
5
96
100
AcDbEntity
8
SK1
62
256
6
ByLayer
370
18
48
1
60
0
100
AcDbLine
10
-24.8205
20
1.5
30
0
11
-25.1205
21
1.326795
31
0
39
0
210
0
220
0
230
1
0
LINE
5
97
100
AcDbEntity
8
SK1
62
256
6
ByLayer
370
18
48
1
60
0
100
AcDbLine
10
-24.8205
20
-1.5
30
0
11
-2.7E-05
21
-1.5
31
0
39
0
210
0
220
0
230
1
0
LINE
5
98
100
AcDbEntity
8
SK1
62
256
6
ByLayer
370
18
48
1
60
0
100
AcDbLine
10
-2.7E-05
20
1.5
30
0
11
-24.8205
21
1.5
31
0
39
0
210
0
220
0
230
1
0
LINE
5
99
100
AcDbEntity
8
SK1
62
256
6
ByLayer
370
18
48
1
60
0
100
AcDbLine
10
0
20
1.499985
30
0
11
-2.7E-05
21
1.5
31
0
39
0
210
0
220
0
230
1
0
LINE
5
9A
100
AcDbEntity
8
SK1
62
256
6
ByLayer
370
18
48
1
60
0
100
AcDbLine
10
-2.7E-05
20
-1.5
30
0
11
0
21
-1.499985
31
0
39
0
210
0
220
0
230
1
0
LINE
5
9B
100
AcDbEntity
8
4
62
256
6
ByLayer
370
18
48
0.05
60
0
100
AcDbLine
10
0
20
0
30
0
11
12.8795
21
0
31
0
39
0
210
0
220
0
230
1
0
LINE
5
9D
100
AcDbEntity
8
81
62
256
6
ByLayer
370
18
48
1
60
0
100
AcDbLine
10
12.8795
20
0
30
0
11
15.8795
21
0
31
0
39
0
210
0
220
0
230
1
0
LINE
5
9E
100
AcDbEntity
8
80
62
256
6
ByLayer
370
18
48
1
60
0
100
AcDbLine
10
0
20
0
30
0
11
-3
21
0
31
0
39
0
210
0
220
0
230
1
0
LINE
5
9F
100
AcDbEntity
8
SK4
62
256
6
ByLayer
370
18
48
0.05
60
0
100
AcDbLine
10
-28.1205
20
0
30
0
11
15.8795
21
0
31
0
39
0
210
0
220
0
230
1
0
LINE
5
A1
100
AcDbEntity
8
SK2
62
256
6
ByLayer
370
13
48
1
60
0
100
AcDbLine
10
-29.6205
20
-9
30
0
11
-29.6205
21
21.782741
31
0
39
0
210
0
220
0
230
1
0
LINE
5
A3
100
AcDbEntity
8
SK2
62
256
6
ByLayer
370
13
48
1
60
0
100
AcDbLine
10
-26.708
20
-1.5
30
0
11
-31.6205
21
-1.5
31
0
39
0
210
0
220
0
230
1
0
LINE
5
A4
100
AcDbEntity
8
SK2
62
256
6
ByLayer
370
13
48
1
60
0
100
AcDbLine
10
-26.708
20
1.5
30
0
11
-31.6205
21
1.5
31
0
39
0
210
0
220
0
230
1
0
LINE
5
A5
100
AcDbEntity
8
1
62
256
6
ByLayer
370
18
48
1
60
1
100
AcDbLine
10
-29.6205
20
-1.5
30
0
11
-29.159716
21
-4.999998
31
0
39
0
210
0
220
0
230
1
0
LINE
5
A6
100
AcDbEntity
8
1
62
256
6
ByLayer
370
18
48
1
60
1
100
AcDbLine
10
-29.159716
20
-4.999998
30
0
11
-30.081284
21
-5.000002
31
0
39
0
210
0
220
0
230
1
0
LINE
5
A7
100
AcDbEntity
8
1
62
256
6
ByLayer
370
18
48
1
60
1
100
AcDbLine
10
-30.081284
20
-5.000002
30
0
11
-29.6205
21
-1.5
31
0
39
0
210
0
220
0
230
1
0
LINE
5
A8
100
AcDbEntity
8
1
62
256
6
ByLayer
370
18
48
1
60
1
100
AcDbLine
10
-29.6205
20
1.5
30
0
11
-30.081284
21
4.999998
31
0
39
0
210
0
220
0
230
1
0
LINE
5
A9
100
AcDbEntity
8
1
62
256
6
ByLayer
370
18
48
1
60
1
100
AcDbLine
10
-30.081284
20
4.999998
30
0
11
-29.159716
21
5.000002
31
0
39
0
210
0
220
0
230
1
0
LINE
5
AA
100
AcDbEntity
8
1
62
256
6
ByLayer
370
18
48
1
60
1
100
AcDbLine
10
-29.159716
20
5.000002
30
0
11
-29.6205
21
1.5
31
0
39
0
210
0
220
0
230
1
0
LINE
5
AB
100
AcDbEntity
8
2
62
256
6
ByLayer
370
13
48
1
60
0
100
AcDbLine
10
18.3795
20
-8.185
30
0
11
18.3795
21
29.347855
31
0
39
0
210
0
220
0
230
1
0
LINE
5
AD
100
AcDbEntity
8
2
62
256
6
ByLayer
370
13
48
1
60
0
100
AcDbLine
10
14.467
20
-0.685
30
0
11
20.3795
21
-0.685
31
0
39
0
210
0
220
0
230
1
0
LINE
5
AE
100
AcDbEntity
8
2
62
256
6
ByLayer
370
13
48
1
60
0
100
AcDbLine
10
14.467
20
0.685
30
0
11
20.3795
21
0.685
31
0
39
0
210
0
220
0
230
1
0
LINE
5
AF
100
AcDbEntity
8
1
62
256
6
ByLayer
370
18
48
1
60
1
100
AcDbLine
10
18.3795
20
-0.685
30
0
11
18.840284
21
-4.184998
31
0
39
0
210
0
220
0
230
1
0
LINE
5
B0
100
AcDbEntity
8
1
62
256
6
ByLayer
370
18
48
1
60
1
100
AcDbLine
10
18.840284
20
-4.184998
30
0
11
17.918716
21
-4.185002
31
0
39
0
210
0
220
0
230
1
0
LINE
5
B1
100
AcDbEntity
8
1
62
256
6
ByLayer
370
18
48
1
60
1
100
AcDbLine
10
17.918716
20
-4.185002
30
0
11
18.3795
21
-0.685
31
0
39
0
210
0
220
0
230
1
0
LINE
5
B2
100
AcDbEntity
8
1
62
256
6
ByLayer
370
18
48
1
60
1
100
AcDbLine
10
18.3795
20
0.685
30
0
11
17.918716
21
4.184998
31
0
39
0
210
0
220
0
230
1
0
LINE
5
B3
100
AcDbEntity
8
1
62
256
6
ByLayer
370
18
48
1
60
1
100
AcDbLine
10
17.918716
20
4.184998
30
0
11
18.840284
21
4.185002
31
0
39
0
210
0
220
0
230
1
0
LINE
5
B4
100
AcDbEntity
8
1
62
256
6
ByLayer
370
18
48
1
60
1
100
AcDbLine
10
18.840284
20
4.185002
30
0
11
18.3795
21
0.685
31
0
39
0
210
0
220
0
230
1
0
LINE
5
B5
100
AcDbEntity
8
SK2
62
256
6
ByLayer
370
13
48
1
60
0
100
AcDbLine
10
13.550406
20
-1.438764
30
0
11
20.634545
21
-16.630748
31
0
39
0
210
0
220
0
230
1
0
LINE
5
B6
100
AcDbEntity
8
SK2
62
256
6
ByLayer
370
13
48
1
60
0
100
AcDbLine
10
13.550406
20
1.438764
30
0
11
20.634545
21
16.630748
31
0
39
0
210
0
220
0
230
1
0
LINE
5
B7
100
AcDbEntity
8
1
62
256
6
ByLayer
370
18
48
1
60
1
100
AcDbLine
10
19.789309
20
-14.818132
30
0
11
22.661342
21
-12.765394
31
0
39
0
210
0
220
0
230
1
0
LINE
5
B8
100
AcDbEntity
8
1
62
256
6
ByLayer
370
18
48
1
60
1
100
AcDbLine
10
22.661342
20
-12.765394
30
0
11
23.094771
21
-13.578675
31
0
39
0
210
0
220
0
230
1
0
LINE
5
B9
100
AcDbEntity
8
1
62
256
6
ByLayer
370
18
48
1
60
1
100
AcDbLine
10
23.094771
20
-13.578675
30
0
11
19.789309
21
-14.818132
31
0
39
0
210
0
220
0
230
1
0
LINE
5
BA
100
AcDbEntity
8
1
62
256
6
ByLayer
370
18
48
1
60
1
100
AcDbLine
10
19.789309
20
14.818132
30
0
11
23.094768
21
13.578677
31
0
39
0
210
0
220
0
230
1
0
LINE
5
BB
100
AcDbEntity
8
1
62
256
6
ByLayer
370
18
48
1
60
1
100
AcDbLine
10
23.094768
20
13.578677
30
0
11
22.661345
21
12.765392
31
0
39
0
210
0
220
0
230
1
0
LINE
5
BC
100
AcDbEntity
8
1
62
256
6
ByLayer
370
18
48
1
60
1
100
AcDbLine
10
22.661345
20
12.765392
30
0
11
19.789309
21
14.818132
31
0
39
0
210
0
220
0
230
1
0
LINE
5
D5
100
AcDbEntity
8
1
62
256
6
ByLayer
370
18
48
1
60
1
100
AcDbLine
10
-29.6205
20
-1.5
30
0
11
-29.159716
21
-4.999998
31
0
39
0
210
0
220
0
230
1
0
LINE
5
D6
100
AcDbEntity
8
1
62
256
6
ByLayer
370
18
48
1
60
1
100
AcDbLine
10
-29.159716
20
-4.999998
30
0
11
-30.081284
21
-5.000002
31
0
39
0
210
0
220
0
230
1
0
LINE
5
D7
100
AcDbEntity
8
1
62
256
6
ByLayer
370
18
48
1
60
1
100
AcDbLine
10
-30.081284
20
-5.000002
30
0
11
-29.6205
21
-1.5
31
0
39
0
210
0
220
0
230
1
0
LINE
5
D9
100
AcDbEntity
8
1
62
256
6
ByLayer
370
18
48
1
60
1
100
AcDbLine
10
-29.6205
20
1.5
30
0
11
-30.081284
21
4.999998
31
0
39
0
210
0
220
0
230
1
0
LINE
5
DA
100
AcDbEntity
8
1
62
256
6
ByLayer
370
18
48
1
60
1
100
AcDbLine
10
-30.081284
20
4.999998
30
0
11
-29.159716
21
5.000002
31
0
39
0
210
0
220
0
230
1
0
LINE
5
DB
100
AcDbEntity
8
1
62
256
6
ByLayer
370
18
48
1
60
1
100
AcDbLine
10
-29.159716
20
5.000002
30
0
11
-29.6205
21
1.5
31
0
39
0
210
0
220
0
230
1
0
LINE
5
DF
100
AcDbEntity
8
1
62
256
6
ByLayer
370
18
48
1
60
1
100
AcDbLine
10
18.3795
20
-0.685
30
0
11
18.840284
21
-4.184998
31
0
39
0
210
0
220
0
230
1
0
LINE
5
E0
100
AcDbEntity
8
1
62
256
6
ByLayer
370
18
48
1
60
1
100
AcDbLine
10
18.840284
20
-4.184998
30
0
11
17.918716
21
-4.185002
31
0
39
0
210
0
220
0
230
1
0
LINE
5
E1
100
AcDbEntity
8
1
62
256
6
ByLayer
370
18
48
1
60
1
100
AcDbLine
10
17.918716
20
-4.185002
30
0
11
18.3795
21
-0.685
31
0
39
0
210
0
220
0
230
1
0
LINE
5
E3
100
AcDbEntity
8
1
62
256
6
ByLayer
370
18
48
1
60
1
100
AcDbLine
10
18.3795
20
0.685
30
0
11
17.918716
21
4.184998
31
0
39
0
210
0
220
0
230
1
0
LINE
5
E4
100
AcDbEntity
8
1
62
256
6
ByLayer
370
18
48
1
60
1
100
AcDbLine
10
17.918716
20
4.184998
30
0
11
18.840284
21
4.185002
31
0
39
0
210
0
220
0
230
1
0
LINE
5
E5
100
AcDbEntity
8
1
62
256
6
ByLayer
370
18
48
1
60
1
100
AcDbLine
10
18.840284
20
4.185002
30
0
11
18.3795
21
0.685
31
0
39
0
210
0
220
0
230
1
0
LINE
5
E8
100
AcDbEntity
8
1
62
256
6
ByLayer
370
18
48
1
60
1
100
AcDbLine
10
19.789309
20
-14.818132
30
0
11
22.661342
21
-12.765394
31
0
39
0
210
0
220
0
230
1
0
LINE
5
E9
100
AcDbEntity
8
1
62
256
6
ByLayer
370
18
48
1
60
1
100
AcDbLine
10
22.661342
20
-12.765394
30
0
11
23.094771
21
-13.578675
31
0
39
0
210
0
220
0
230
1
0
LINE
5
EA
100
AcDbEntity
8
1
62
256
6
ByLayer
370
18
48
1
60
1
100
AcDbLine
10
23.094771
20
-13.578675
30
0
11
19.789309
21
-14.818132
31
0
39
0
210
0
220
0
230
1
0
LINE
5
EC
100
AcDbEntity
8
1
62
256
6
ByLayer
370
18
48
1
60
1
100
AcDbLine
10
19.789309
20
14.818132
30
0
11
23.094768
21
13.578677
31
0
39
0
210
0
220
0
230
1
0
LINE
5
ED
100
AcDbEntity
8
1
62
256
6
ByLayer
370
18
48
1
60
1
100
AcDbLine
10
23.094768
20
13.578677
30
0
11
22.661345
21
12.765392
31
0
39
0
210
0
220
0
230
1
0
LINE
5
EE
100
AcDbEntity
8
1
62
256
6
ByLayer
370
18
48
1
60
1
100
AcDbLine
10
22.661345
20
12.765392
30
0
11
19.789309
21
14.818132
31
0
39
0
210
0
220
0
230
1
0
MTEXT
5
D1
100
AcDbEntity
8
SK2
62
256
6
ByLayer
370
18
48
1
60
0
100
AcDbMText
10
-30.961614
20
6.658437
30
0
210
0
220
0
230
1
1
%%c
40
3
41
0
44
1.084337
50
90
71
7
72
5
7
iso_b_vert
0
MTEXT
5
D4
100
AcDbEntity
8
SK2
62
256
6
ByLayer
370
18
48
1
60
0
100
AcDbMText
10
-30.961614
20
12.635
30
0
210
0
220
0
230
1
1
\W0.7468;3.000
40
3
41
0
44
1.084337
50
90
71
7
72
5
7
iso_b_vert
0
MTEXT
5
DD
100
AcDbEntity
8
2
62
256
6
ByLayer
370
18
48
1
60
0
100
AcDbMText
10
17.038386
20
14.973437
30
0
210
0
220
0
230
1
1
%%c
40
3
41
0
44
1.084337
50
90
71
7
72
5
7
iso_b_vert
0
MTEXT
5
DE
100
AcDbEntity
8
2
62
256
6
ByLayer
370
18
48
1
60
0
100
AcDbMText
10
17.038386
20
20.95
30
0
210
0
220
0
230
1
1
\W0.6864;1.370
40
3
41
0
44
1.084337
50
90
71
7
72
5
7
iso_b_vert
0
MTEXT
5
E7
100
AcDbEntity
8
SK2
62
256
6
ByLayer
370
18
48
1
60
0
100
AcDbMText
10
25.946786
20
-2.114886
30
0
210
0
220
0
230
1
1
\W0.6747;130%%d
40
3
41
0
44
1.084337
50
0
71
7
72
5
7
iso_b_vert
0
MTEXT
5
F0
100
AcDbEntity
8
SK6
62
256
6
ByLayer
370
18
48
1
60
0
100
AcDbMText
10
-33.927096
20
-42.114886
30
0
210
0
220
0
230
1
1
\W0.7670;462.1-0137-007A0-XM X0BM
40
3
41
0
44
1.084337
50
0
71
7
72
5
7
iso_b_vert
0
HATCH
5
D8
100
AcDbEntity
8
SK2
62
256
6
ByLayer
370
13
48
1
60
0
100
AcDbHatch
10
0
20
0
30
0
210
0
220
0
230
1
2
ANSI31
70
0
71
0
91
1
92
5
93
3
72
1
10
-29.6205
20
-1.5
11
-29.1597162584472
21
-4.99999830744682
72
1
10
-29.1597162584472
20
-4.99999830744682
11
-30.0812837415528
21
-5.00000169255318
72
1
10
-30.0812837415528
20
-5.00000169255318
11
-29.6205
21
-1.5
97
0
75
0
76
1
52
0
41
0.0062
77
0
78
1
53
45
43
0
44
0
45
-0.0139193969876572
46
0.0139193969876572
79
0
47
0
98
1
10
0
20
0
0
HATCH
5
DC
100
AcDbEntity
8
SK2
62
256
6
ByLayer
370
13
48
1
60
0
100
AcDbHatch
10
0
20
0
30
0
210
0
220
0
230
1
2
ANSI31
70
0
71
0
91
1
92
5
93
3
72
1
10
-29.6205
20
1.5
11
-30.0812837415528
21
4.99999830744682
72
1
10
-30.0812837415528
20
4.99999830744682
11
-29.1597162584472
21
5.00000169255318
72
1
10
-29.1597162584472
20
5.00000169255318
11
-29.6205
21
1.5
97
0
75
0
76
1
52
0
41
0.0062
77
0
78
1
53
45
43
0
44
0
45
-0.0139193969876572
46
0.0139193969876572
79
0
47
0
98
1
10
0
20
0
0
HATCH
5
E2
100
AcDbEntity
8
2
62
256
6
ByLayer
370
13
48
1
60
0
100
AcDbHatch
10
0
20
0
30
0
210
0
220
0
230
1
2
ANSI31
70
0
71
0
91
1
92
5
93
3
72
1
10
18.3795
20
-0.685000000000002
11
18.8402837415528
21
-4.18499830744682
72
1
10
18.8402837415528
20
-4.18499830744682
11
17.9187162584472
21
-4.18500169255319
72
1
10
17.9187162584472
20
-4.18500169255319
11
18.3795
21
-0.685000000000002
97
0
75
0
76
1
52
0
41
0.0062
77
0
78
1
53
45
43
0
44
0
45
-0.0139193969876572
46
0.0139193969876572
79
0
47
0
98
1
10
0
20
0
0
HATCH
5
E6
100
AcDbEntity
8
2
62
256
6
ByLayer
370
13
48
1
60
0
100
AcDbHatch
10
0
20
0
30
0
210
0
220
0
230
1
2
ANSI31
70
0
71
0
91
1
92
5
93
3
72
1
10
18.3795
20
0.685000000000002
11
17.9187162584472
21
4.18499830744682
72
1
10
17.9187162584472
20
4.18499830744682
11
18.8402837415528
21
4.18500169255319
72
1
10
18.8402837415528
20
4.18500169255319
11
18.3795
21
0.685000000000002
97
0
75
0
76
1
52
0
41
0.0062
77
0
78
1
53
45
43
0
44
0
45
-0.0139193969876572
46
0.0139193969876572
79
0
47
0
98
1
10
0
20
0
0
HATCH
5
EB
100
AcDbEntity
8
SK2
62
256
6
ByLayer
370
13
48
1
60
0
100
AcDbHatch
10
0
20
0
30
0
210
0
220
0
230
1
2
ANSI31
70
0
71
0
91
1
92
5
93
3
72
1
10
19.7893085794605
20
-14.8181323180492
11
22.6613418553693
21
-12.765393983365
72
1
10
22.6613418553693
20
-12.765393983365
11
23.0947706127348
21
-13.5786750775861
72
1
10
23.0947706127348
20
-13.5786750775861
11
19.7893085794605
21
-14.8181323180492
97
0
75
0
76
1
52
0
41
0.0062
77
0
78
1
53
45
43
0
44
0
45
-0.0139193969876572
46
0.0139193969876572
79
0
47
0
98
1
10
0
20
0
0
HATCH
5
EF
100
AcDbEntity
8
SK2
62
256
6
ByLayer
370
13
48
1
60
0
100
AcDbHatch
10
0
20
0
30
0
210
0
220
0
230
1
2
ANSI31
70
0
71
0
91
1
92
5
93
3
72
1
10
19.7893085794605
20
14.8181323180492
11
23.0947676253807
21
13.5786766696479
72
1
10
23.0947676253807
20
13.5786766696479
11
22.6613448427234
21
12.7653923913032
72
1
10
22.6613448427234
20
12.7653923913032
11
19.7893085794605
21
14.8181323180492
97
0
75
0
76
1
52
0
41
0.0062
77
0
78
1
53
45
43
0
44
0
45
-0.0139193969876572
46
0.0139193969876572
79
0
47
0
98
1
10
0
20
0
0
DIMENSION
5
F3
100
AcDbEntity
8
SK2
62
256
6
ByLayer
370
18
48
1
60
0
100
AcDbDimension
2
_U0
10
12.8795
20
-35.85
30
0
11
-6.1205
21
-35.85
31
0
70
32
71
1
72
1
41
1
210
0
220
0
230
1
3
Standard
100
AcDbAlignedDimension
13
-25.1205
23
1.5
33
0
14
12.8795
24
0.685
34
0
50
0
100
AcDbRotatedDimension
1001
ACAD
1000
DSTYLE
1002
{
1070
   371
1070
    13
1070
   372
1070
    13
1070
     3
1000

1070
   170
1070
     0
1070
   144
1040
1.0
1070
   277
1070
     2
1070
   284
1070
     8
1070
   278
1070
    46
1070
   146
1040
1.166667
1070
   345
1005
16
1070
   347
1005
16
1070
   346
1005
16
1070
   344
1005
0
1070
   343
1005
0
1070
   172
1070
     1
1070
    76
1070
     0
1070
    75
1070
     0
1070
   282
1070
     0
1070
   281
1070
     0
1070
    71
1070
     0
1070
    74
1070
     0
1070
   279
1070
     0
1070
   173
1070
     1
1070
   340
1005
D2
1070
   271
1070
     2
1070
   272
1070
     2
1070
    77
1070
     1
1070
    73
1070
     1
1070
   171
1070
     3
1070
   274
1070
     4
1070
   177
1070
     2
1070
   176
1070
     2
1070
   178
1070
     2
1070
    78
1070
     8
1070
    48
1040
-0.1
1070
    41
1040
3.5
1070
   147
1040
1.5
1070
    42
1040
1.5875
1070
    44
1040
2.0
1070
   140
1040
3.0
1002
}
1001
ACAD_DSTYLE_DIM_LINETYPE
1070
   380
1005
16
1001
ACAD_DSTYLE_DIM_EXT1_LINETYPE
1070
   381
1005
16
1001
ACAD_DSTYLE_DIM_EXT2_LINETYPE
1070
   382
1005
16
0
DIMENSION
5
10C
100
AcDbEntity
8
SK2
62
256
6
ByLayer
370
18
48
1
60
0
100
AcDbDimension
2
_U1
10
5.7345
20
-22.185
30
0
11
28.950929
21
-22.185
31
0
70
32
71
1
72
1
41
1
210
0
220
0
230
1
3
Standard
100
AcDbAlignedDimension
13
12.8795
23
0.685
33
0
14
5.7345
24
0
34
0
50
0
100
AcDbRotatedDimension
1001
ACAD
1000
DSTYLE
1002
{
1070
   371
1070
    13
1070
   372
1070
    13
1070
     3
1000

1070
   170
1070
     0
1070
   144
1040
1.0
1070
   277
1070
     2
1070
   284
1070
     8
1070
   278
1070
    46
1070
   146
1040
1.166667
1070
   345
1005
16
1070
   347
1005
16
1070
   346
1005
16
1070
   344
1005
0
1070
   343
1005
0
1070
   172
1070
     1
1070
    76
1070
     0
1070
    75
1070
     0
1070
   282
1070
     0
1070
   281
1070
     0
1070
    71
1070
     0
1070
    74
1070
     0
1070
   279
1070
     0
1070
   173
1070
     1
1070
   340
1005
D2
1070
   271
1070
     2
1070
   272
1070
     2
1070
    77
1070
     1
1070
    73
1070
     1
1070
   171
1070
     3
1070
   274
1070
     4
1070
   177
1070
     2
1070
   176
1070
     2
1070
   178
1070
     2
1070
    78
1070
     8
1070
    48
1040
-0.1
1070
    41
1040
3.5
1070
   147
1040
1.5
1070
    42
1040
1.5875
1070
    44
1040
2.0
1070
   140
1040
3.0
1002
}
1001
ACAD_DSTYLE_DIM_LINETYPE
1070
   380
1005
16
1001
ACAD_DSTYLE_DIM_EXT1_LINETYPE
1070
   381
1005
16
1001
ACAD_DSTYLE_DIM_EXT2_LINETYPE
1070
   382
1005
16
0
DIMENSION
5
126
100
AcDbEntity
8
SK2
62
256
6
ByLayer
370
18
48
1
60
0
100
AcDbDimension
2
_U2
10
3.6795
20
-30.185
30
0
11
27.522357
21
-30.185
31
0
70
32
71
1
72
1
41
1
210
0
220
0
230
1
3
Standard
100
AcDbAlignedDimension
13
12.8795
23
0.685
33
0
14
3.6795
24
0
34
0
50
0
100
AcDbRotatedDimension
1001
ACAD
1000
DSTYLE
1002
{
1070
   371
1070
    13
1070
   372
1070
    13
1070
     3
1000

1070
   170
1070
     0
1070
   144
1040
1.0
1070
   277
1070
     2
1070
   284
1070
     8
1070
   278
1070
    46
1070
   146
1040
1.166667
1070
   345
1005
16
1070
   347
1005
16
1070
   346
1005
16
1070
   344
1005
0
1070
   343
1005
0
1070
   172
1070
     1
1070
    76
1070
     0
1070
    75
1070
     0
1070
   282
1070
     0
1070
   281
1070
     0
1070
    71
1070
     0
1070
    74
1070
     0
1070
   279
1070
     0
1070
   173
1070
     1
1070
   340
1005
D2
1070
   271
1070
     2
1070
   272
1070
     2
1070
    77
1070
     1
1070
    73
1070
     1
1070
   171
1070
     3
1070
   274
1070
     4
1070
   177
1070
     2
1070
   176
1070
     2
1070
   178
1070
     2
1070
    78
1070
     8
1070
    48
1040
-0.1
1070
    41
1040
3.5
1070
   147
1040
1.5
1070
    42
1040
1.5875
1070
    44
1040
2.0
1070
   140
1040
3.0
1002
}
1001
ACAD_DSTYLE_DIM_LINETYPE
1070
   380
1005
16
1001
ACAD_DSTYLE_DIM_EXT1_LINETYPE
1070
   381
1005
16
1001
ACAD_DSTYLE_DIM_EXT2_LINETYPE
1070
   382
1005
16
0
DIMENSION
5
140
100
AcDbEntity
8
SK2
62
256
6
ByLayer
370
18
48
1
60
0
100
AcDbDimension
2
_U3
10
0
20
11.35
30
0
11
-12.56025
21
11.35
31
0
70
32
71
1
72
1
41
1
210
0
220
0
230
1
3
Standard
100
AcDbAlignedDimension
13
-25.1205
23
0
33
0
14
0
24
0
34
0
50
0
100
AcDbRotatedDimension
1001
ACAD
1000
DSTYLE
1002
{
1070
   371
1070
    13
1070
   372
1070
    13
1070
     3
1000

1070
   170
1070
     0
1070
   144
1040
1.0
1070
   277
1070
     2
1070
   284
1070
     8
1070
   278
1070
    46
1070
   146
1040
1.166667
1070
   345
1005
16
1070
   347
1005
16
1070
   346
1005
16
1070
   344
1005
0
1070
   343
1005
0
1070
   172
1070
     1
1070
    76
1070
     0
1070
    75
1070
     0
1070
   282
1070
     0
1070
   281
1070
     0
1070
    71
1070
     0
1070
    74
1070
     0
1070
   279
1070
     0
1070
   173
1070
     1
1070
   340
1005
D2
1070
   271
1070
     2
1070
   272
1070
     2
1070
    77
1070
     1
1070
    73
1070
     1
1070
   171
1070
     3
1070
   274
1070
     4
1070
   177
1070
     2
1070
   176
1070
     2
1070
   178
1070
     2
1070
    78
1070
     8
1070
    48
1040
-0.1
1070
    41
1040
3.5
1070
   147
1040
1.5
1070
    42
1040
1.5875
1070
    44
1040
2.0
1070
   140
1040
3.0
1002
}
1001
ACAD_DSTYLE_DIM_LINETYPE
1070
   380
1005
16
1001
ACAD_DSTYLE_DIM_EXT1_LINETYPE
1070
   381
1005
16
1001
ACAD_DSTYLE_DIM_EXT2_LINETYPE
1070
   382
1005
16
0
DIMENSION
5
158
100
AcDbEntity
8
2
62
256
6
ByLayer
370
18
48
1
60
0
100
AcDbDimension
2
_U4
10
0
20
11.35
30
0
11
6.43975
21
11.35
31
0
70
32
71
1
72
1
41
1
210
0
220
0
230
1
3
Standard
100
AcDbAlignedDimension
13
12.8795
23
0.685
33
0
14
0
24
0
34
0
50
0
100
AcDbRotatedDimension
1001
ACAD
1000
DSTYLE
1002
{
1070
   371
1070
    13
1070
   372
1070
    13
1070
     3
1000

1070
   170
1070
     0
1070
   144
1040
1.0
1070
   277
1070
     2
1070
   284
1070
     8
1070
   278
1070
    46
1070
   146
1040
1.166667
1070
   345
1005
16
1070
   347
1005
16
1070
   346
1005
16
1070
   344
1005
0
1070
   343
1005
0
1070
   172
1070
     1
1070
    76
1070
     0
1070
    75
1070
     0
1070
   282
1070
     0
1070
   281
1070
     0
1070
    71
1070
     0
1070
    74
1070
     0
1070
   279
1070
     0
1070
   173
1070
     1
1070
   340
1005
D2
1070
   271
1070
     2
1070
   272
1070
     2
1070
    77
1070
     1
1070
    73
1070
     1
1070
   171
1070
     3
1070
   274
1070
     4
1070
   177
1070
     2
1070
   176
1070
     2
1070
   178
1070
     2
1070
    78
1070
     8
1070
    48
1040
-0.1
1070
    41
1040
3.5
1070
   147
1040
1.5
1070
    42
1040
1.5875
1070
    44
1040
2.0
1070
   140
1040
3.0
1002
}
1001
ACAD_DSTYLE_DIM_LINETYPE
1070
   380
1005
16
1001
ACAD_DSTYLE_DIM_EXT1_LINETYPE
1070
   381
1005
16
1001
ACAD_DSTYLE_DIM_EXT2_LINETYPE
1070
   382
1005
16
0
ENDSEC
0
SECTION
2
OBJECTS
0
DICTIONARY
5
1e1
330
0
100
AcDbDictionary
280
0
281
1
3
ACAD_GROUP
350
1e2
3
ACAD_MLINESTYLE
350
1e3
0
DICTIONARY
5
1e2
330
0
100
AcDbDictionary
280
0
281
1
0
DICTIONARY
5
1e3
330
0
100
AcDbDictionary
280
0
281
1
3
Standard
350
18
0
MLINESTYLE
5
18
330
1e3
100
AcDbMlineStyle
2
Standard
70
0
3

62
256
51
90
52
90
71
2
49
-0.5
62
256
6
ByLayer
49
0.5
62
256
6
ByLayer
0
RASTERVARIABLES
5
1cf
330

100
AcDbRasterVariables
90
0
70
1
71
1
72
1
0
ENDSEC
0
EOF
