0
SECTION
2
HEADER
9
$ACADVER
1
AC1015
9
$DWGCODEPAGE
3
ANSI_1252
9
$HANDSEED
5
1ef
9
$ANGBASE
50
0
9
$ANGDIR
70
0
9
$ATTMODE
70
1
9
$AUNITS
70
0
9
$AUPREC
70
0
9
$CECOLOR
62
256
9
$CELTSCALE
40
1
9
$CELTYPE
6
ByLayer
9
$CELWEIGHT
370
18
9
$CLAYER
8
0
9
$CMLJUST
70
0
9
$CMLSCALE
40
1
9
$CMLSTYLE
2
Standard
9
$DIMSTYLE
2
Standard
9
$TEXTSIZE
40
0.2
9
$TEXTSTYLE
7
Standard
9
$LUNITS
70
2
9
$LUPREC
70
4
9
$EXTNAMES
290
1
9
$INSUNITS
70
4
9
$LTSCALE
40
1
9
$LWDISPLAY
290
1
9
$PDMODE
70
0
9
$PDSIZE
40
0
9
$PLINEGEN
70
0
0
ENDSEC
0
SECTION
2
CLASSES
0
CLASS
1
RASTERVARIABLES
2
AcDbRasterVariables
3
ISM
90
0
280
0
281
0
0
ENDSEC
0
SECTION
2
TABLES
0
TABLE
2
VPORT
5
1e5
100
AcDbSymbolTable
0
VPORT
5
1
100
AcDbSymbolTableRecord
100
AcDbViewportTableRecord
2
*Active
70
0
10
0
20
0
11
1
21
1
12
-1
22
1
13
0
23
0
14
0.5
24
0.5
15
10
25
10
16
0
26
0
36
1
17
0
27
0
37
0
0
ENDTAB
0
TABLE
2
LTYPE
5
1e6
100
AcDbSymbolTable
0
LTYPE
5
14
100
AcDbSymbolTableRecord
100
AcDbLinetypeTableRecord
70
0
2
ByBlock
3

72
65
73
0
40
0
0
LTYPE
5
15
100
AcDbSymbolTableRecord
100
AcDbLinetypeTableRecord
70
0
2
ByLayer
3

72
65
73
0
40
0
0
LTYPE
5
16
100
AcDbSymbolTableRecord
100
AcDbLinetypeTableRecord
70
0
2
Continuous
3
Solid line
72
65
73
0
40
0
0
LTYPE
5
6E
100
AcDbSymbolTableRecord
100
AcDbLinetypeTableRecord
70
0
2
CENTER
3
____ _ ____ _ ____ _ ____
72
65
73
4
40
47.5
49
22
74
0
49
-8.5
74
0
49
8.5
74
0
49
-8.5
74
0
0
LTYPE
5
6F
100
AcDbSymbolTableRecord
100
AcDbLinetypeTableRecord
70
0
2
DASHED
3
__ __ __ __ __ __ __ __ __
72
65
73
2
40
25.72
49
12.86
74
0
49
-12.86
74
0
0
ENDTAB
0
TABLE
2
LAYER
5
1e7
100
AcDbSymbolTable
0
LAYER
5
10
100
AcDbSymbolTableRecord
100
AcDbLayerTableRecord
2
0
70
0
62
7
6
Continuous
290
1
370
-3
390
0
0
LAYER
5
71
100
AcDbSymbolTableRecord
100
AcDbLayerTableRecord
2
80
70
0
62
-6
6
Continuous
290
1
370
-3
390
0
0
LAYER
5
73
100
AcDbSymbolTableRecord
100
AcDbLayerTableRecord
2
81
70
0
62
-3
6
Continuous
290
1
370
-3
390
0
0
LAYER
5
75
100
AcDbSymbolTableRecord
100
AcDbLayerTableRecord
2
1
70
0
62
4
6
Continuous
290
1
370
-3
390
0
0
LAYER
5
9C
100
AcDbSymbolTableRecord
100
AcDbLayerTableRecord
2
4
70
0
62
-2
6
CENTER
290
1
370
-3
390
0
0
LAYER
5
AC
100
AcDbSymbolTableRecord
100
AcDbLayerTableRecord
2
2
70
0
62
7
6
Continuous
290
1
370
-3
390
0
0
LAYER
5
F7
100
AcDbSymbolTableRecord
100
AcDbLayerTableRecord
2
Defpoints
70
0
62
7
6
Continuous
290
0
370
-3
390
0
0
LAYER
5
1d1
100
AcDbSymbolTableRecord
100
AcDbLayerTableRecord
2
SK1
70
0
62
4
6
Continuous
290
1
370
-3
390
0
0
LAYER
5
1d2
100
AcDbSymbolTableRecord
100
AcDbLayerTableRecord
2
SK4
70
0
62
2
6
CENTER
290
1
370
-3
390
0
0
LAYER
5
1d3
100
AcDbSymbolTableRecord
100
AcDbLayerTableRecord
2
SK2
70
0
62
7
6
Continuous
290
1
370
-3
390
0
0
LAYER
5
1d4
100
AcDbSymbolTableRecord
100
AcDbLayerTableRecord
2
SK6
70
0
62
5
6
Continuous
290
1
370
-3
390
0
0
ENDTAB
0
TABLE
2
STYLE
5
1e8
100
AcDbSymbolTable
0
STYLE
5
11
100
AcDbSymbolTableRecord
100
AcDbTextStyleTableRecord
2
Standard
3
txt
70
0
71
0
40
0
41
1
42
0
50
0
0
STYLE
5
D3
100
AcDbSymbolTableRecord
100
AcDbTextStyleTableRecord
2
iso_b_vert
3
simplex.shx
70
0
71
0
40
0
41
1
42
0
50
0
0
STYLE
5
D4
100
AcDbSymbolTableRecord
100
AcDbTextStyleTableRecord
2
DWGDirectTextStyle
3
simplex
70
0
71
0
40
0
41
1
42
0
50
0
0
ENDTAB
0
TABLE
2
DIMSTYLE
5
1e9
100
AcDbSymbolTable
100
AcDbDimStyleTable
0
DIMSTYLE
105
27
100
AcDbSymbolTableRecord
100
AcDbDimStyleTableRecord
2
Standard
70
0
3
<>
41
0.18
42
0.0625
44
0.18
140
0.18
147
0.09
73
0
74
0
77
1
271
2
275
0
278
52
280
0
340
11
0
ENDTAB
0
TABLE
2
VIEW
5
1ea
100
AcDbSymbolTable
0
ENDTAB
0
TABLE
2
UCS
5
1eb
100
AcDbSymbolTable
0
ENDTAB
0
TABLE
2
APPID
5
1ec
100
AcDbSymbolTable
0
APPID
5
12
100
AcDbSymbolTableRecord
100
AcDbRegAppTableRecord
2
ACAD
70
0
0
APPID
5
F3
100
AcDbSymbolTableRecord
100
AcDbRegAppTableRecord
2
ACAD_DSTYLE_DIMBREAK
70
0
0
APPID
5
190
100
AcDbSymbolTableRecord
100
AcDbRegAppTableRecord
2
ACAD_DSTYLE_DIM_LINETYPE
70
0
0
APPID
5
191
100
AcDbSymbolTableRecord
100
AcDbRegAppTableRecord
2
ACAD_DSTYLE_DIM_EXT1_LINETYPE
70
0
0
APPID
5
192
100
AcDbSymbolTableRecord
100
AcDbRegAppTableRecord
2
ACAD_DSTYLE_DIM_EXT2_LINETYPE
70
0
0
APPID
5
1CD
100
AcDbSymbolTableRecord
100
AcDbRegAppTableRecord
2
ACAD_MLEADERVER
70
0
0
ENDTAB
0
TABLE
2
BLOCK_RECORD
5
1ed
100
AcDbSymbolTable
0
BLOCK_RECORD
5
1F
100
AcDbSymbolTableRecord
100
AcDbBlockTableRecord
2
*Model_Space
340
0
70
0
0
BLOCK_RECORD
5
1B
100
AcDbSymbolTableRecord
100
AcDbBlockTableRecord
2
*Paper_Space
340
0
70
0
0
BLOCK_RECORD
5
23
100
AcDbSymbolTableRecord
100
AcDbBlockTableRecord
2
*Paper_Space0
340
0
70
0
0
BLOCK_RECORD
5
F8
100
AcDbSymbolTableRecord
100
AcDbBlockTableRecord
2
*D1
340
0
70
0
0
BLOCK_RECORD
5
104
100
AcDbSymbolTableRecord
100
AcDbBlockTableRecord
2
_U0
340
0
70
0
0
BLOCK_RECORD
5
110
100
AcDbSymbolTableRecord
100
AcDbBlockTableRecord
2
*D3
340
0
70
0
0
BLOCK_RECORD
5
11E
100
AcDbSymbolTableRecord
100
AcDbBlockTableRecord
2
_U1
340
0
70
0
0
BLOCK_RECORD
5
12A
100
AcDbSymbolTableRecord
100
AcDbBlockTableRecord
2
*D5
340
0
70
0
0
BLOCK_RECORD
5
138
100
AcDbSymbolTableRecord
100
AcDbBlockTableRecord
2
_U2
340
0
70
0
0
BLOCK_RECORD
5
144
100
AcDbSymbolTableRecord
100
AcDbBlockTableRecord
2
*D7
340
0
70
0
0
BLOCK_RECORD
5
150
100
AcDbSymbolTableRecord
100
AcDbBlockTableRecord
2
_U3
340
0
70
0
0
BLOCK_RECORD
5
15C
100
AcDbSymbolTableRecord
100
AcDbBlockTableRecord
2
*D9
340
0
70
0
0
BLOCK_RECORD
5
169
100
AcDbSymbolTableRecord
100
AcDbBlockTableRecord
2
_U4
340
0
70
0
0
ENDTAB
0
ENDSEC
0
SECTION
2
BLOCKS
0
BLOCK
5
20
100
AcDbEntity
8
0
100
AcDbBlockBegin
2
*Model_Space
70
0
10
0
20
0
30
0
3
*Model_Space
0
ENDBLK
5
21
100
AcDbEntity
8
0
100
AcDbBlockEnd
0
BLOCK
5
1C
100
AcDbEntity
8
0
100
AcDbBlockBegin
2
*Paper_Space
70
0
10
0
20
0
30
0
3
*Paper_Space
0
ENDBLK
5
1D
100
AcDbEntity
8
0
100
AcDbBlockEnd
0
BLOCK
5
24
100
AcDbEntity
8
0
100
AcDbBlockBegin
2
*Paper_Space0
70
0
10
0
20
0
30
0
3
*Paper_Space0
0
ENDBLK
5
25
100
AcDbEntity
8
0
100
AcDbBlockEnd
0
BLOCK
5
F9
100
AcDbEntity
8
0
100
AcDbBlockBegin
2
*D1
70
1
10
0
20
0
30
0
3
*D1
0
LINE
5
FB
100
AcDbEntity
8
0
62
256
6
ByLayer
370
-2
48
1
60
0
100
AcDbLine
10
-25.1898
20
-0.0875
30
0
11
-25.1898
21
-37.85
31
0
39
0
210
0
220
0
230
1
0
LINE
5
FC
100
AcDbEntity
8
0
62
256
6
ByLayer
370
-2
48
1
60
0
100
AcDbLine
10
12.8102
20
-0.8625
30
0
11
12.8102
21
-37.85
31
0
39
0
210
0
220
0
230
1
0
LINE
5
FD
100
AcDbEntity
8
0
62
256
6
ByLayer
370
-2
48
1
60
0
100
AcDbLine
10
-21.6898
20
-35.85
30
0
11
9.3102
21
-35.85
31
0
39
0
210
0
220
0
230
1
0
SOLID
5
FE
100
AcDbEntity
8
0
62
256
6
ByLayer
370
-1
48
1
60
0
100
AcDbTrace
10
-21.6898
20
-35.266667
30
0
11
-21.6898
21
-36.433333
31
0
12
-25.1898
22
-35.85
32
0
13
-25.1898
23
-35.85
33
0
39
0
210
0
220
0
230
1
0
SOLID
5
FF
100
AcDbEntity
8
0
62
256
6
ByLayer
370
-1
48
1
60
0
100
AcDbTrace
10
9.3102
20
-36.433333
30
0
11
9.3102
21
-35.266667
31
0
12
12.8102
22
-35.85
32
0
13
12.8102
23
-35.85
33
0
39
0
210
0
220
0
230
1
0
MTEXT
5
100
100
AcDbEntity
8
0
62
256
6
ByLayer
370
18
48
1
60
0
100
AcDbMText
10
-6.1898
20
-29.85
30
0
210
0
220
0
230
1
1
\A1;38
40
3
41
0
44
1
50
0
71
5
72
5
7
iso_b_vert
0
POINT
5
101
100
AcDbEntity
8
Defpoints
62
0
6
ByLayer
370
-1
48
1
60
0
100
AcDbPoint
10
-25.1898
20
1.5
30
0
39
0
210
0
220
0
230
1
50
360
0
POINT
5
102
100
AcDbEntity
8
Defpoints
62
0
6
ByLayer
370
-1
48
1
60
0
100
AcDbPoint
10
12.8102
20
0.725
30
0
39
0
210
0
220
0
230
1
50
360
0
POINT
5
103
100
AcDbEntity
8
Defpoints
62
0
6
ByLayer
370
-1
48
1
60
0
100
AcDbPoint
10
12.8102
20
-35.85
30
0
39
0
210
0
220
0
230
1
50
360
0
ENDBLK
5
FA
100
AcDbEntity
8
0
100
AcDbBlockEnd
0
BLOCK
5
10B
100
AcDbEntity
8
0
100
AcDbBlockBegin
2
_U0
70
0
10
0
20
0
30
0
3
_U0
0
MTEXT
5
105
100
AcDbEntity
8
SK2
62
256
6
ByLayer
370
18
48
1
60
0
100
AcDbMText
10
-10.67217
20
-34.964886
30
0
210
0
220
0
230
1
1
\W0.7468;38.00
40
3
41
0
44
1.084337
50
0
71
7
72
5
7
iso_b_vert
0
LINE
5
106
100
AcDbEntity
8
SK2
62
256
6
ByLayer
370
13
48
1
60
0
100
AcDbLine
10
-25.1898
20
-0.0875
30
0
11
-25.1898
21
-37.85
31
0
39
0
210
0
220
0
230
1
0
LINE
5
107
100
AcDbEntity
8
SK2
62
256
6
ByLayer
370
13
48
1
60
0
100
AcDbLine
10
12.8102
20
-0.8625
30
0
11
12.8102
21
-37.85
31
0
39
0
210
0
220
0
230
1
0
LINE
5
108
100
AcDbEntity
8
SK2
62
256
6
ByLayer
370
13
48
1
60
0
100
AcDbLine
10
-25.1898
20
-35.85
30
0
11
12.8102
21
-35.85
31
0
39
0
210
0
220
0
230
1
0
SOLID
5
109
100
AcDbEntity
8
SK2
62
256
6
ByLayer
370
18
48
1
60
0
100
AcDbTrace
10
-25.1898
20
-35.85
30
0
11
-21.689802
21
-35.389216
31
0
12
-21.689798
22
-36.310784
32
0
13
-21.689798
23
-36.310784
33
0
39
0
210
0
220
0
230
1
0
SOLID
5
10A
100
AcDbEntity
8
SK2
62
256
6
ByLayer
370
18
48
1
60
0
100
AcDbTrace
10
12.8102
20
-35.85
30
0
11
9.310202
21
-36.310784
31
0
12
9.310198
22
-35.389216
32
0
13
9.310198
23
-35.389216
33
0
39
0
210
0
220
0
230
1
0
ENDBLK
5
10C
100
AcDbEntity
8
0
100
AcDbBlockEnd
0
BLOCK
5
111
100
AcDbEntity
8
0
100
AcDbBlockBegin
2
*D3
70
1
10
0
20
0
30
0
3
*D3
0
LINE
5
113
100
AcDbEntity
8
0
62
256
6
ByLayer
370
-2
48
1
60
0
100
AcDbLine
10
12.8102
20
-0.8625
30
0
11
12.8102
21
-24.225
31
0
39
0
210
0
220
0
230
1
0
LINE
5
114
100
AcDbEntity
8
0
62
256
6
ByLayer
370
-2
48
1
60
0
100
AcDbLine
10
5.7852
20
-1.5875
30
0
11
5.7852
21
-24.225
31
0
39
0
210
0
220
0
230
1
0
LINE
5
115
100
AcDbEntity
8
0
62
256
6
ByLayer
370
-2
48
1
60
0
100
AcDbLine
10
12.8102
20
-22.225
30
0
11
37.953057
21
-22.225
31
0
39
0
210
0
220
0
230
1
0
LINE
5
116
100
AcDbEntity
8
0
62
256
6
ByLayer
370
-2
48
1
60
0
100
AcDbLine
10
16.3102
20
-22.225
30
0
11
19.8102
21
-22.225
31
0
39
0
210
0
220
0
230
1
0
LINE
5
117
100
AcDbEntity
8
0
62
256
6
ByLayer
370
-2
48
1
60
0
100
AcDbLine
10
2.2852
20
-22.225
30
0
11
-1.2148
21
-22.225
31
0
39
0
210
0
220
0
230
1
0
SOLID
5
118
100
AcDbEntity
8
0
62
256
6
ByLayer
370
-1
48
1
60
0
100
AcDbTrace
10
16.3102
20
-21.641667
30
0
11
16.3102
21
-22.808333
31
0
12
12.8102
22
-22.225
32
0
13
12.8102
23
-22.225
33
0
39
0
210
0
220
0
230
1
0
SOLID
5
119
100
AcDbEntity
8
0
62
256
6
ByLayer
370
-1
48
1
60
0
100
AcDbTrace
10
2.2852
20
-22.808333
30
0
11
2.2852
21
-21.641667
31
0
12
5.7852
22
-22.225
32
0
13
5.7852
23
-22.225
33
0
39
0
210
0
220
0
230
1
0
MTEXT
5
11A
100
AcDbEntity
8
0
62
256
6
ByLayer
370
18
48
1
60
0
100
AcDbMText
10
28.881629
20
-16.225
30
0
210
0
220
0
230
1
1
\A1;7.03
40
3
41
0
44
1
50
0
71
5
72
5
7
iso_b_vert
0
POINT
5
11B
100
AcDbEntity
8
Defpoints
62
0
6
ByLayer
370
-1
48
1
60
0
100
AcDbPoint
10
12.8102
20
0.725
30
0
39
0
210
0
220
0
230
1
50
360
0
POINT
5
11C
100
AcDbEntity
8
Defpoints
62
0
6
ByLayer
370
-1
48
1
60
0
100
AcDbPoint
10
5.7852
20
0
30
0
39
0
210
0
220
0
230
1
50
360
0
POINT
5
11D
100
AcDbEntity
8
Defpoints
62
0
6
ByLayer
370
-1
48
1
60
0
100
AcDbPoint
10
5.7852
20
-22.225
30
0
39
0
210
0
220
0
230
1
50
360
0
ENDBLK
5
112
100
AcDbEntity
8
0
100
AcDbBlockEnd
0
BLOCK
5
125
100
AcDbEntity
8
0
100
AcDbBlockBegin
2
_U1
70
0
10
0
20
0
30
0
3
_U1
0
MTEXT
5
11F
100
AcDbEntity
8
SK2
62
256
6
ByLayer
370
18
48
1
60
0
100
AcDbMText
10
16.9692
20
-21.339886
30
0
210
0
220
0
230
1
1
\W0.7051;(7.02)
40
3
41
0
44
1.084337
50
0
71
7
72
5
7
iso_b_vert
0
LINE
5
120
100
AcDbEntity
8
SK2
62
256
6
ByLayer
370
13
48
1
60
0
100
AcDbLine
10
12.8102
20
-0.8625
30
0
11
12.8102
21
-24.225
31
0
39
0
210
0
220
0
230
1
0
LINE
5
121
100
AcDbEntity
8
SK2
62
256
6
ByLayer
370
13
48
1
60
0
100
AcDbLine
10
5.7852
20
-1.5875
30
0
11
5.7852
21
-24.225
31
0
39
0
210
0
220
0
230
1
0
LINE
5
122
100
AcDbEntity
8
SK2
62
256
6
ByLayer
370
13
48
1
60
0
100
AcDbLine
10
5.7852
20
-22.225
30
0
11
26.281969
21
-22.225
31
0
39
0
210
0
220
0
230
1
0
SOLID
5
123
100
AcDbEntity
8
SK2
62
256
6
ByLayer
370
18
48
1
60
0
100
AcDbTrace
10
12.8102
20
-22.225
30
0
11
9.310202
21
-22.685784
31
0
12
9.310198
22
-21.764216
32
0
13
9.310198
23
-21.764216
33
0
39
0
210
0
220
0
230
1
0
SOLID
5
124
100
AcDbEntity
8
SK2
62
256
6
ByLayer
370
18
48
1
60
0
100
AcDbTrace
10
5.7852
20
-22.225
30
0
11
9.285198
21
-21.764216
31
0
12
9.285202
22
-22.685784
32
0
13
9.285202
23
-22.685784
33
0
39
0
210
0
220
0
230
1
0
ENDBLK
5
126
100
AcDbEntity
8
0
100
AcDbBlockEnd
0
BLOCK
5
12B
100
AcDbEntity
8
0
100
AcDbBlockBegin
2
*D5
70
1
10
0
20
0
30
0
3
*D5
0
LINE
5
12D
100
AcDbEntity
8
0
62
256
6
ByLayer
370
-2
48
1
60
0
100
AcDbLine
10
12.8102
20
-0.8625
30
0
11
12.8102
21
-32.225
31
0
39
0
210
0
220
0
230
1
0
LINE
5
12E
100
AcDbEntity
8
0
62
256
6
ByLayer
370
-2
48
1
60
0
100
AcDbLine
10
3.6102
20
-1.5875
30
0
11
3.6102
21
-32.225
31
0
39
0
210
0
220
0
230
1
0
LINE
5
12F
100
AcDbEntity
8
0
62
256
6
ByLayer
370
-2
48
1
60
0
100
AcDbLine
10
12.8102
20
-30.225
30
0
11
35.095914
21
-30.225
31
0
39
0
210
0
220
0
230
1
0
LINE
5
130
100
AcDbEntity
8
0
62
256
6
ByLayer
370
-2
48
1
60
0
100
AcDbLine
10
16.3102
20
-30.225
30
0
11
19.8102
21
-30.225
31
0
39
0
210
0
220
0
230
1
0
LINE
5
131
100
AcDbEntity
8
0
62
256
6
ByLayer
370
-2
48
1
60
0
100
AcDbLine
10
0.1102
20
-30.225
30
0
11
-3.3898
21
-30.225
31
0
39
0
210
0
220
0
230
1
0
SOLID
5
132
100
AcDbEntity
8
0
62
256
6
ByLayer
370
-1
48
1
60
0
100
AcDbTrace
10
16.3102
20
-29.641667
30
0
11
16.3102
21
-30.808333
31
0
12
12.8102
22
-30.225
32
0
13
12.8102
23
-30.225
33
0
39
0
210
0
220
0
230
1
0
SOLID
5
133
100
AcDbEntity
8
0
62
256
6
ByLayer
370
-1
48
1
60
0
100
AcDbTrace
10
0.1102
20
-30.808333
30
0
11
0.1102
21
-29.641667
31
0
12
3.6102
22
-30.225
32
0
13
3.6102
23
-30.225
33
0
39
0
210
0
220
0
230
1
0
MTEXT
5
134
100
AcDbEntity
8
0
62
256
6
ByLayer
370
18
48
1
60
0
100
AcDbMText
10
27.453057
20
-24.225
30
0
210
0
220
0
230
1
1
\A1;9.2
40
3
41
0
44
1
50
0
71
5
72
5
7
iso_b_vert
0
POINT
5
135
100
AcDbEntity
8
Defpoints
62
0
6
ByLayer
370
-1
48
1
60
0
100
AcDbPoint
10
12.8102
20
0.725
30
0
39
0
210
0
220
0
230
1
50
360
0
POINT
5
136
100
AcDbEntity
8
Defpoints
62
0
6
ByLayer
370
-1
48
1
60
0
100
AcDbPoint
10
3.6102
20
0
30
0
39
0
210
0
220
0
230
1
50
360
0
POINT
5
137
100
AcDbEntity
8
Defpoints
62
0
6
ByLayer
370
-1
48
1
60
0
100
AcDbPoint
10
3.6102
20
-30.225
30
0
39
0
210
0
220
0
230
1
50
360
0
ENDBLK
5
12C
100
AcDbEntity
8
0
100
AcDbBlockEnd
0
BLOCK
5
13F
100
AcDbEntity
8
0
100
AcDbBlockBegin
2
_U2
70
0
10
0
20
0
30
0
3
_U2
0
MTEXT
5
139
100
AcDbEntity
8
SK2
62
256
6
ByLayer
370
18
48
1
60
0
100
AcDbMText
10
15.9692
20
-29.339886
30
0
210
0
220
0
230
1
1
\W0.7346;9.20
40
3
41
0
44
1.084337
50
0
71
7
72
5
7
iso_b_vert
0
LINE
5
13A
100
AcDbEntity
8
SK2
62
256
6
ByLayer
370
13
48
1
60
0
100
AcDbLine
10
12.8102
20
-0.8625
30
0
11
12.8102
21
-32.225
31
0
39
0
210
0
220
0
230
1
0
LINE
5
13B
100
AcDbEntity
8
SK2
62
256
6
ByLayer
370
13
48
1
60
0
100
AcDbLine
10
3.6102
20
-1.5875
30
0
11
3.6102
21
-32.225
31
0
39
0
210
0
220
0
230
1
0
LINE
5
13C
100
AcDbEntity
8
SK2
62
256
6
ByLayer
370
13
48
1
60
0
100
AcDbLine
10
3.6102
20
-30.225
30
0
11
22.851113
21
-30.225
31
0
39
0
210
0
220
0
230
1
0
SOLID
5
13D
100
AcDbEntity
8
SK2
62
256
6
ByLayer
370
18
48
1
60
0
100
AcDbTrace
10
12.8102
20
-30.225
30
0
11
9.310202
21
-30.685784
31
0
12
9.310198
22
-29.764216
32
0
13
9.310198
23
-29.764216
33
0
39
0
210
0
220
0
230
1
0
SOLID
5
13E
100
AcDbEntity
8
SK2
62
256
6
ByLayer
370
18
48
1
60
0
100
AcDbTrace
10
3.6102
20
-30.225
30
0
11
7.110198
21
-29.764216
31
0
12
7.110202
22
-30.685784
32
0
13
7.110202
23
-30.685784
33
0
39
0
210
0
220
0
230
1
0
ENDBLK
5
140
100
AcDbEntity
8
0
100
AcDbBlockEnd
0
BLOCK
5
145
100
AcDbEntity
8
0
100
AcDbBlockBegin
2
*D7
70
1
10
0
20
0
30
0
3
*D7
0
LINE
5
147
100
AcDbEntity
8
0
62
256
6
ByLayer
370
-2
48
1
60
0
100
AcDbLine
10
-25.1898
20
1.5875
30
0
11
-25.1898
21
13.35
31
0
39
0
210
0
220
0
230
1
0
LINE
5
148
100
AcDbEntity
8
0
62
256
6
ByLayer
370
-2
48
1
60
0
100
AcDbLine
10
0
20
1.5875
30
0
11
0
21
13.35
31
0
39
0
210
0
220
0
230
1
0
LINE
5
149
100
AcDbEntity
8
0
62
256
6
ByLayer
370
-2
48
1
60
0
100
AcDbLine
10
-21.6898
20
11.35
30
0
11
-3.5
21
11.35
31
0
39
0
210
0
220
0
230
1
0
SOLID
5
14A
100
AcDbEntity
8
0
62
256
6
ByLayer
370
-1
48
1
60
0
100
AcDbTrace
10
-21.6898
20
11.933333
30
0
11
-21.6898
21
10.766667
31
0
12
-25.1898
22
11.35
32
0
13
-25.1898
23
11.35
33
0
39
0
210
0
220
0
230
1
0
SOLID
5
14B
100
AcDbEntity
8
0
62
256
6
ByLayer
370
-1
48
1
60
0
100
AcDbTrace
10
-3.5
20
10.766667
30
0
11
-3.5
21
11.933333
31
0
12
0
22
11.35
32
0
13
0
23
11.35
33
0
39
0
210
0
220
0
230
1
0
MTEXT
5
14C
100
AcDbEntity
8
0
62
256
6
ByLayer
370
18
48
1
60
0
100
AcDbMText
10
-12.5949
20
17.35
30
0
210
0
220
0
230
1
1
\A1;25.19
40
3
41
0
44
1
50
0
71
5
72
5
7
iso_b_vert
0
POINT
5
14D
100
AcDbEntity
8
Defpoints
62
0
6
ByLayer
370
-1
48
1
60
0
100
AcDbPoint
10
-25.1898
20
0
30
0
39
0
210
0
220
0
230
1
50
360
0
POINT
5
14E
100
AcDbEntity
8
Defpoints
62
0
6
ByLayer
370
-1
48
1
60
0
100
AcDbPoint
10
0
20
0
30
0
39
0
210
0
220
0
230
1
50
360
0
POINT
5
14F
100
AcDbEntity
8
Defpoints
62
0
6
ByLayer
370
-1
48
1
60
0
100
AcDbPoint
10
0
20
11.35
30
0
39
0
210
0
220
0
230
1
50
360
0
ENDBLK
5
146
100
AcDbEntity
8
0
100
AcDbBlockEnd
0
BLOCK
5
157
100
AcDbEntity
8
0
100
AcDbBlockBegin
2
_U3
70
0
10
0
20
0
30
0
3
_U3
0
MTEXT
5
151
100
AcDbEntity
8
SK2
62
256
6
ByLayer
370
18
48
1
60
0
100
AcDbMText
10
-16.702328
20
12.235114
30
0
210
0
220
0
230
1
1
\W0.6944;25.19
40
3
41
0
44
1.084337
50
0
71
7
72
5
7
iso_b_vert
0
LINE
5
152
100
AcDbEntity
8
SK2
62
256
6
ByLayer
370
13
48
1
60
0
100
AcDbLine
10
-25.1898
20
1.5875
30
0
11
-25.1898
21
13.35
31
0
39
0
210
0
220
0
230
1
0
LINE
5
153
100
AcDbEntity
8
SK2
62
256
6
ByLayer
370
13
48
1
60
0
100
AcDbLine
10
0
20
1.5875
30
0
11
0
21
13.35
31
0
39
0
210
0
220
0
230
1
0
LINE
5
154
100
AcDbEntity
8
SK2
62
256
6
ByLayer
370
13
48
1
60
0
100
AcDbLine
10
-25.1898
20
11.35
30
0
11
0
21
11.35
31
0
39
0
210
0
220
0
230
1
0
SOLID
5
155
100
AcDbEntity
8
SK2
62
256
6
ByLayer
370
18
48
1
60
0
100
AcDbTrace
10
-25.1898
20
11.35
30
0
11
-21.689802
21
11.810784
31
0
12
-21.689798
22
10.889216
32
0
13
-21.689798
23
10.889216
33
0
39
0
210
0
220
0
230
1
0
SOLID
5
156
100
AcDbEntity
8
SK2
62
256
6
ByLayer
370
18
48
1
60
0
100
AcDbTrace
10
0
20
11.35
30
0
11
-3.499998
21
10.889216
31
0
12
-3.500002
22
11.810784
32
0
13
-3.500002
23
11.810784
33
0
39
0
210
0
220
0
230
1
0
ENDBLK
5
158
100
AcDbEntity
8
0
100
AcDbBlockEnd
0
BLOCK
5
15D
100
AcDbEntity
8
0
100
AcDbBlockBegin
2
*D9
70
1
10
0
20
0
30
0
3
*D9
0
LINE
5
15F
100
AcDbEntity
8
0
62
256
6
ByLayer
370
-2
48
1
60
0
100
AcDbLine
10
12.8102
20
2.3125
30
0
11
12.8102
21
13.35
31
0
39
0
210
0
220
0
230
1
0
LINE
5
160
100
AcDbEntity
8
0
62
256
6
ByLayer
370
-2
48
1
60
0
100
AcDbLine
10
0
20
1.5875
30
0
11
0
21
13.35
31
0
39
0
210
0
220
0
230
1
0
LINE
5
161
100
AcDbEntity
8
0
62
256
6
ByLayer
370
-2
48
1
60
0
100
AcDbLine
10
16.3102
20
11.35
30
0
11
19.8102
21
11.35
31
0
39
0
210
0
220
0
230
1
0
LINE
5
162
100
AcDbEntity
8
0
62
256
6
ByLayer
370
-2
48
1
60
0
100
AcDbLine
10
-3.5
20
11.35
30
0
11
-7
21
11.35
31
0
39
0
210
0
220
0
230
1
0
SOLID
5
163
100
AcDbEntity
8
0
62
256
6
ByLayer
370
-1
48
1
60
0
100
AcDbTrace
10
16.3102
20
11.933333
30
0
11
16.3102
21
10.766667
31
0
12
12.8102
22
11.35
32
0
13
12.8102
23
11.35
33
0
39
0
210
0
220
0
230
1
0
SOLID
5
164
100
AcDbEntity
8
0
62
256
6
ByLayer
370
-1
48
1
60
0
100
AcDbTrace
10
-3.5
20
10.766667
30
0
11
-3.5
21
11.933333
31
0
12
0
22
11.35
32
0
13
0
23
11.35
33
0
39
0
210
0
220
0
230
1
0
MTEXT
5
165
100
AcDbEntity
8
0
62
256
6
ByLayer
370
18
48
1
60
0
100
AcDbMText
10
6.4051
20
17.35
30
0
210
0
220
0
230
1
1
\A1;12.81
40
3
41
0
44
1
50
0
71
5
72
5
7
iso_b_vert
0
POINT
5
166
100
AcDbEntity
8
Defpoints
62
0
6
ByLayer
370
-1
48
1
60
0
100
AcDbPoint
10
12.8102
20
0.725
30
0
39
0
210
0
220
0
230
1
50
360
0
POINT
5
167
100
AcDbEntity
8
Defpoints
62
0
6
ByLayer
370
-1
48
1
60
0
100
AcDbPoint
10
0
20
0
30
0
39
0
210
0
220
0
230
1
50
360
0
POINT
5
168
100
AcDbEntity
8
Defpoints
62
0
6
ByLayer
370
-1
48
1
60
0
100
AcDbPoint
10
0
20
11.35
30
0
39
0
210
0
220
0
230
1
50
360
0
ENDBLK
5
15E
100
AcDbEntity
8
0
100
AcDbBlockEnd
0
BLOCK
5
170
100
AcDbEntity
8
0
100
AcDbBlockBegin
2
_U4
70
0
10
0
20
0
30
0
3
_U4
0
MTEXT
5
16A
100
AcDbEntity
8
2
62
256
6
ByLayer
370
18
48
1
60
0
100
AcDbMText
10
2.672615
20
12.235114
30
0
210
0
220
0
230
1
1
\W0.6725;12.81
40
3
41
0
44
1.084337
50
0
71
7
72
5
7
iso_b_vert
0
LINE
5
16B
100
AcDbEntity
8
2
62
256
6
ByLayer
370
13
48
1
60
0
100
AcDbLine
10
12.8102
20
2.3125
30
0
11
12.8102
21
13.35
31
0
39
0
210
0
220
0
230
1
0
LINE
5
16C
100
AcDbEntity
8
2
62
256
6
ByLayer
370
13
48
1
60
0
100
AcDbLine
10
0
20
1.5875
30
0
11
0
21
13.35
31
0
39
0
210
0
220
0
230
1
0
LINE
5
16D
100
AcDbEntity
8
2
62
256
6
ByLayer
370
13
48
1
60
0
100
AcDbLine
10
12.8102
20
11.35
30
0
11
0
21
11.35
31
0
39
0
210
0
220
0
230
1
0
SOLID
5
16E
100
AcDbEntity
8
2
62
256
6
ByLayer
370
18
48
1
60
0
100
AcDbTrace
10
12.8102
20
11.35
30
0
11
9.310202
21
10.889216
31
0
12
9.310198
22
11.810784
32
0
13
9.310198
23
11.810784
33
0
39
0
210
0
220
0
230
1
0
SOLID
5
16F
100
AcDbEntity
8
2
62
256
6
ByLayer
370
18
48
1
60
0
100
AcDbTrace
10
0
20
11.35
30
0
11
3.499998
21
11.810784
31
0
12
3.500002
22
10.889216
32
0
13
3.500002
23
10.889216
33
0
39
0
210
0
220
0
230
1
0
ENDBLK
5
171
100
AcDbEntity
8
0
100
AcDbBlockEnd
0
ENDSEC
0
SECTION
2
ENTITIES
0
ARC
5
BD
100
AcDbEntity
8
1
62
256
6
ByLayer
370
18
48
1
60
0
100
AcDbCircle
39
0
10
1.610244
20
-1.725
30
0
40
1
210
0
220
0
230
1
100
AcDbArc
50
90
51
120
0
ARC
5
BE
100
AcDbEntity
8
1
62
256
6
ByLayer
370
18
48
1
60
0
100
AcDbCircle
39
0
10
1.610244
20
1.725
30
0
40
1
210
0
220
0
230
1
100
AcDbArc
50
240
51
270
0
ARC
5
BF
100
AcDbEntity
8
SK2
62
256
6
ByLayer
370
13
48
1
60
0
100
AcDbCircle
39
0
10
12.8102
20
0
30
0
40
16.35
210
0
220
0
230
1
100
AcDbArc
50
10.57289
51
65
0
ARC
5
C0
100
AcDbEntity
8
SK2
62
256
6
ByLayer
370
13
48
1
60
0
100
AcDbCircle
39
0
10
12.8102
20
0
30
0
40
16.35
210
0
220
0
230
1
100
AcDbArc
50
295
51
349.42711
0
POINT
5
70
100
AcDbEntity
8
80
62
256
6
ByLayer
370
18
48
1
60
0
100
AcDbPoint
10
0
20
0
30
0
39
0
210
0
220
0
230
1
50
360
0
POINT
5
72
100
AcDbEntity
8
81
62
256
6
ByLayer
370
18
48
1
60
0
100
AcDbPoint
10
12.8102
20
0
30
0
39
0
210
0
220
0
230
1
50
360
0
POINT
5
74
100
AcDbEntity
8
1
62
256
6
ByLayer
370
18
48
1
60
1
100
AcDbPoint
10
-25.1898
20
1.5
30
0
39
0
210
0
220
0
230
1
50
360
0
POINT
5
76
100
AcDbEntity
8
1
62
256
6
ByLayer
370
18
48
1
60
1
100
AcDbPoint
10
12.8102
20
0.725
30
0
39
0
210
0
220
0
230
1
50
360
0
POINT
5
77
100
AcDbEntity
8
1
62
256
6
ByLayer
370
18
48
1
60
1
100
AcDbPoint
10
12.8102
20
0.725
30
0
39
0
210
0
220
0
230
1
50
360
0
POINT
5
78
100
AcDbEntity
8
1
62
256
6
ByLayer
370
18
48
1
60
1
100
AcDbPoint
10
5.7852
20
0
30
0
39
0
210
0
220
0
230
1
50
360
0
POINT
5
79
100
AcDbEntity
8
1
62
256
6
ByLayer
370
18
48
1
60
1
100
AcDbPoint
10
12.8102
20
0.725
30
0
39
0
210
0
220
0
230
1
50
360
0
POINT
5
7A
100
AcDbEntity
8
1
62
256
6
ByLayer
370
18
48
1
60
1
100
AcDbPoint
10
3.6102
20
0
30
0
39
0
210
0
220
0
230
1
50
360
0
POINT
5
7B
100
AcDbEntity
8
1
62
256
6
ByLayer
370
18
48
1
60
1
100
AcDbPoint
10
-25.1898
20
0
30
0
39
0
210
0
220
0
230
1
50
360
0
POINT
5
7C
100
AcDbEntity
8
1
62
256
6
ByLayer
370
18
48
1
60
1
100
AcDbPoint
10
0
20
0
30
0
39
0
210
0
220
0
230
1
50
360
0
POINT
5
7D
100
AcDbEntity
8
1
62
256
6
ByLayer
370
18
48
1
60
1
100
AcDbPoint
10
12.8102
20
0.725
30
0
39
0
210
0
220
0
230
1
50
360
0
POINT
5
7E
100
AcDbEntity
8
1
62
256
6
ByLayer
370
18
48
1
60
1
100
AcDbPoint
10
0
20
0
30
0
39
0
210
0
220
0
230
1
50
360
0
SPLINE
5
C1
100
AcDbEntity
8
1
62
256
6
ByLayer
370
18
48
1
60
0
100
AcDbSpline
70
4
71
3
72
16
73
12
40
0
40
0
40
0
40
0
40
0.139144236733717
40
0.139144236733717
40
0.305685952547086
40
0.305685952547086
40
0.638769384173824
40
0.638769384173824
40
0.971852815800561
40
0.971852815800561
40
1
40
1
40
1
40
1
41
1
10
3.82434545467314
20
-0.657409555968314
30
0
41
1
10
3.81604520541663
20
-0.661021431157906
30
0
41
1
10
3.80787443947412
20
-0.664567124927913
30
0
41
1
10
3.79022198403692
20
-0.672181671456855
30
0
41
1
10
3.78076794441526
20
-0.676229148091466
30
0
41
1
10
3.75328147847398
20
-0.687842040700588
30
0
41
1
10
3.73616446019656
20
-0.694863501645841
30
0
41
1
10
3.70451061271342
20
-0.707068018496585
30
0
41
1
10
3.68997068624526
20
-0.712254317867377
30
0
41
1
10
3.67577690001036
20
-0.716594596563624
30
0
41
1
10
3.67468249957915
20
-0.716923883703686
30
0
41
1
10
3.67360007338994
20
-0.717244059117832
30
0
0
SPLINE
5
C2
100
AcDbEntity
8
1
62
256
6
ByLayer
370
18
48
1
60
0
100
AcDbSpline
70
4
71
3
72
18
73
14
40
0
40
0
40
0
40
0
40
0.16983886092883
40
0.16983886092883
40
0.308199050774025
40
0.308199050774025
40
0.446559240619219
40
0.446559240619219
40
0.72327962030961
40
0.72327962030961
40
0.861639810154805
40
0.861639810154805
40
1
40
1
40
1
40
1
41
1
10
3.63290878001243
20
-0.7249985330767
30
0
41
1
10
3.62802434742434
20
-0.72504639316125
30
0
41
1
10
3.6238725951915
20
-0.724509737061908
30
0
41
1
10
3.6177421521941
20
-0.722379086377998
30
0
41
1
10
3.61549698334127
20
-0.720984262662171
30
0
41
1
10
3.61217389656648
20
-0.717341905461865
30
0
41
1
10
3.61108751039794
20
-0.715102478508243
30
0
41
1
10
3.609516694267
20
-0.707146611630236
30
0
41
1
10
3.61071019778598
20
-0.70019685592203
30
0
41
1
10
3.61590475471331
20
-0.687293264564062
30
0
41
1
10
3.61821892081002
20
-0.682559250739814
30
0
41
1
10
3.62392166149272
20
-0.672419769099093
30
0
41
1
10
3.62731235739929
20
-0.667002809303966
30
0
41
1
10
3.63123046115899
20
-0.661255743521451
30
0
0
SPLINE
5
C3
100
AcDbEntity
8
1
62
256
6
ByLayer
370
18
48
1
60
0
100
AcDbSpline
70
4
71
3
72
16
73
12
40
0
40
0
40
0
40
0
40
0.25000000000001
40
0.25000000000001
40
0.50000000000002
40
0.50000000000002
40
0.625000000000018
40
0.625000000000018
40
0.750000000000016
40
0.750000000000016
40
1
40
1
40
1
40
1
41
1
10
3.63123046115899
20
-0.661255743521451
30
0
41
1
10
3.69614562572389
20
-0.654703004114282
30
0
41
1
10
3.76138420393474
20
-0.649530551890507
30
0
41
1
10
3.89248701131649
20
-0.642952497823757
30
0
41
1
10
3.95835130814655
20
-0.641544467207041
30
0
41
1
10
4.05762270953198
20
-0.642502963982366
30
0
41
1
10
4.09079255204111
20
-0.643329217626359
30
0
41
1
10
4.15729465440361
20
-0.645974399521464
30
0
41
1
10
4.19048254166952
20
-0.647789461599672
30
0
41
1
10
4.28923252098923
20
-0.654516733436594
30
0
41
1
10
4.3542423677321
20
-0.660741669389893
30
0
41
1
10
4.41843000002237
20
-0.668009149297092
30
0
0
SPLINE
5
C4
100
AcDbEntity
8
1
62
256
6
ByLayer
370
18
48
1
60
0
100
AcDbSpline
70
4
71
3
72
32
73
28
40
0
40
0
40
0
40
0
40
0.161469128694388
40
0.161469128694388
40
0.242203693041582
40
0.242203693041582
40
0.322938257388776
40
0.322938257388776
40
0.403672821735969
40
0.403672821735969
40
0.484407386083163
40
0.484407386083163
40
0.645876514777551
40
0.645876514777551
40
0.686243796951148
40
0.686243796951148
40
0.726611079124745
40
0.726611079124745
40
0.807345643471939
40
0.807345643471939
40
0.888080207819133
40
0.888080207819133
40
0.92844748999273
40
0.92844748999273
40
0.968814772166327
40
0.968814772166327
40
1
40
1
40
1
40
1
41
1
10
4.41843000000003
20
0.445371917373677
30
0
41
1
10
4.36318507339536
20
0.458071740397372
30
0
41
1
10
4.30905273025613
20
0.472858466150598
30
0
41
1
10
4.22952155997112
20
0.497455766761334
30
0
41
1
10
4.20330193341181
20
0.506054581597283
30
0
41
1
10
4.1517220955451
20
0.523813993711826
30
0
41
1
10
4.12632508300095
20
0.532985801772867
30
0
41
1
10
4.07633111235427
20
0.551748108866803
30
0
41
1
10
4.05166828938548
20
0.561366235414283
30
0
41
1
10
4.00367394749728
20
0.580632510896407
30
0
41
1
10
3.98030512325934
20
0.590292881653539
30
0
41
1
10
3.9121347609294
20
0.619018002554895
30
0
41
1
10
3.86924467651514
20
0.637853941678316
30
0
41
1
10
3.81926810770329
20
0.659622049954123
30
0
41
1
10
3.80945656248142
20
0.663884661839603
30
0
41
1
10
3.79022198403692
20
0.672181671456855
30
0
41
1
10
3.78076794441529
20
0.676229148091466
30
0
41
1
10
3.75328147847398
20
0.687842040700588
30
0
41
1
10
3.73616446019653
20
0.694863501645841
30
0
41
1
10
3.70451061271342
20
0.707068018496585
30
0
41
1
10
3.68997068624529
20
0.712254317867377
30
0
41
1
10
3.67033898220456
20
0.718257442432503
30
0
41
1
10
3.66420059064018
20
0.719946608378137
30
0
41
1
10
3.65289686537463
20
0.722617001925641
30
0
41
1
10
3.6477078242942
20
0.723605681208994
30
0
41
1
10
3.63934636844923
20
0.724706838620023
30
0
41
1
10
3.63598217585121
20
0.724968447848454
30
0
41
1
10
3.63290818666187
20
0.724998538887746
30
0
0
SPLINE
5
C5
100
AcDbEntity
8
1
62
256
6
ByLayer
370
18
48
1
60
0
100
AcDbSpline
70
4
71
3
72
14
73
10
40
0
40
0
40
0
40
0
40
0.331145880531349
40
0.331145880531349
40
0.498359410398508
40
0.498359410398508
40
0.665572940265666
40
0.665572940265666
40
1
40
1
40
1
40
1
41
1
10
3.82886514026558
20
0.646145258887003
30
0
41
1
10
3.893779476453
20
0.642925065527947
30
0
41
1
10
3.9590006321136
20
0.64155073663531
30
0
41
1
10
4.05762270953198
20
0.642502963982366
30
0
41
1
10
4.09079255204111
20
0.643329217626359
30
0
41
1
10
4.15729465440361
20
0.645974399521492
30
0
41
1
10
4.19048254166955
20
0.647789461599672
30
0
41
1
10
4.28923252098923
20
0.654516733436594
30
0
41
1
10
4.35424236773213
20
0.660741669389893
30
0
41
1
10
4.4184300000224
20
0.668009149297092
30
0
0
SPLINE
5
C6
100
AcDbEntity
8
1
62
256
6
ByLayer
370
18
48
1
60
0
100
AcDbSpline
70
4
71
3
72
77
73
73
40
0
40
0
40
0
40
0
40
0.007111566361002
40
0.007111566361002
40
0.014223132722004
40
0.014223132722004
40
0.021334699083006
40
0.021334699083006
40
0.028446265444008
40
0.028446265444008
40
0.0355578318050099
40
0.0355578318050099
40
0.0426693981660119
40
0.0497809645270139
40
0.0497809645270139
40
0.0568925308880159
40
0.0568925308880159
40
0.0853387963320274
40
0.0853387963320274
40
0.113785061776039
40
0.113785061776039
40
0.14223132722005
40
0.14223132722005
40
0.170677592664062
40
0.170677592664062
40
0.227570123552088
40
0.227570123552088
40
0.256016388996102
40
0.256016388996102
40
0.284462654440115
40
0.284462654440115
40
0.341355185328142
40
0.341355185328142
40
0.369801450772155
40
0.369801450772155
40
0.398247716216168
40
0.398247716216168
40
0.426693981660181
40
0.426693981660181
40
0.455140247104194
40
0.455140247104194
40
0.512032777992221
40
0.512032777992221
40
0.540479043436236
40
0.540479043436236
40
0.568925308880251
40
0.568925308880251
40
0.625817839768285
40
0.625817839768285
40
0.654264105212303
40
0.654264105212303
40
0.682710370656322
40
0.682710370656322
40
0.71115663610034
40
0.71115663610034
40
0.739602901544359
40
0.739602901544359
40
0.796495432432396
40
0.796495432432396
40
0.824941697876414
40
0.824941697876414
40
0.853387963320433
40
0.853387963320433
40
0.91028049420847
40
0.91028049420847
40
0.938726759652489
40
0.938726759652489
40
0.967173025096507
40
0.967173025096507
40
0.995619290540526
40
0.995619290540526
40
1
40
1
40
1
40
1
41
1
10
12.4721269478377
20
-0.697792857534182
30
0
41
1
10
12.4604362426085
20
-0.696714570892851
30
0
41
1
10
12.4492546088644
20
-0.695358982218011
30
0
41
1
10
12.4277417353758
20
-0.692084853901463
30
0
41
1
10
12.4173363910072
20
-0.690200845755442
30
0
41
1
10
12.3966493144894
20
-0.686200559268059
30
0
41
1
10
12.3863593681652
20
-0.684089932050597
30
0
41
1
10
12.3654917413313
20
-0.679890115249947
30
0
41
1
10
12.3549586696935
20
-0.67777787881775
30
0
41
1
10
12.3338483319147
20
-0.673447690665313
30
0
41
1
10
12.3232749722411
20
-0.671227091780935
30
0
41
1
10
12.3022321679643
20
-0.666577417674006
30
0
41
1
10
12.2812653061169
20
-0.66173559514317
30
0
41
1
10
12.2603157174197
20
-0.656593849898627
30
0
41
1
10
12.2393131022735
20
-0.65135059319087
30
0
41
1
10
12.2287900731558
20
-0.64867530456101
30
0
41
1
10
12.176194871884
20
-0.634932685667593
30
0
41
1
10
12.1341351628051
20
-0.622798797297776
30
0
41
1
10
12.050171482848
20
-0.596580332943205
30
0
41
1
10
12.0082559690621
20
-0.582451393386663
30
0
41
1
10
11.9244314004478
20
-0.552281191607079
30
0
41
1
10
11.8825031579923
20
-0.536261131384123
30
0
41
1
10
11.7985067232976
20
-0.50248104698781
30
0
41
1
10
11.7563878937412
20
-0.484685842957134
30
0
41
1
10
11.6302611933026
20
-0.429046123797264
30
0
41
1
10
11.5464641733276
20
-0.388942347097441
30
0
41
1
10
11.4206821662642
20
-0.32499212924472
30
0
41
1
10
11.378697402935
20
-0.303089872512999
30
0
41
1
10
11.2945638563907
20
-0.258298332785017
30
0
41
1
10
11.2525763544135
20
-0.235487451854738
30
0
41
1
10
11.1267181296654
20
-0.16603755832756
30
0
41
1
10
11.0429413288288
20
-0.118399833553298
30
0
41
1
10
10.9169352373108
20
-0.0458287088525253
30
0
41
1
10
10.8748550801851
20
-0.0215217961748806
30
0
41
1
10
10.7908763352196
20
0.0268993392237178
30
0
41
1
10
10.7489262991917
20
0.051057934129517
30
0
41
1
10
10.6650179214383
20
0.0991211312155826
30
0
41
1
10
10.6230604742177
20
0.123027294164189
30
0
41
1
10
10.5390556526085
20
0.170443477025969
30
0
41
1
10
10.4969592981194
20
0.193998561958011
30
0
41
1
10
10.3709515172326
20
0.263479667640098
30
0
41
1
10
10.2871745930276
20
0.30812616894724
30
0
41
1
10
10.1613287878755
20
0.37176403869347
30
0
41
1
10
10.11932992834
20
0.392431097055038
30
0
41
1
10
10.0352821425449
20
0.432482328137127
30
0
41
1
10
9.99336385507272
20
0.451798415438276
30
0
41
1
10
9.86761979295773
20
0.507218053966341
30
0
41
1
10
9.78376473689499
20
0.540760929405252
30
0
41
1
10
9.65756153981269
20
0.585552065600211
30
0
41
1
10
9.61545185134412
20
0.599542296780754
30
0
41
1
10
9.53147845644094
20
0.625444781555984
30
0
41
1
10
9.48957322780427
20
0.637387657800105
30
0
41
1
10
9.40579222816183
20
0.659124533956486
30
0
41
1
10
9.36388340556692
20
0.668893640865917
30
0
41
1
10
9.27992782897951
20
0.686164523494256
30
0
41
1
10
9.23783161037045
20
0.693675484162299
30
0
41
1
10
9.11182106005873
20
0.712625270009795
30
0
41
1
10
9.028065845573
20
0.720519126647957
30
0
41
1
10
8.90225081494097
20
0.725091858942562
30
0
41
1
10
8.86022243971351
20
0.72539938419493
30
0
41
1
10
8.77608029037395
20
0.723580247579093
30
0
41
1
10
8.73407871603916
20
0.721457996903382
30
0
41
1
10
8.60815238251772
20
0.711512180449148
30
0
41
1
10
8.52431788685158
20
0.700112961000883
30
0
41
1
10
8.39822407788159
20
0.675965639248716
30
0
41
1
10
8.35615663066076
20
0.666765310826975
30
0
41
1
10
8.27220416011735
20
0.646215666964366
30
0
41
1
10
8.23027180032508
20
0.634855298002321
30
0
41
1
10
8.14641164844932
20
0.610033723961209
30
0
41
1
10
8.10448029694197
20
0.596575513957276
30
0
41
1
10
8.05603742070235
20
0.57987638794873
30
0
41
1
10
8.0495709806421
20
0.577622905542398
30
0
41
1
10
8.04310337543996
20
0.575345087683246
30
0
0
SPLINE
5
C7
100
AcDbEntity
8
1
62
256
6
ByLayer
370
18
48
1
60
0
100
AcDbSpline
70
4
71
3
72
12
73
8
40
0
40
0
40
0
40
0
40
0.0029904135981719
40
0.0029904135981719
40
0.501495206799088
40
0.501495206799088
40
1
40
1
40
1
40
1
41
1
10
4.92186262615769
20
-0.724999017816856
30
0
41
1
10
4.92136056409271
20
-0.724999495308339
30
0
41
1
10
4.92085851420131
20
-0.72499979869022
30
0
41
1
10
4.8366662941979
20
-0.725021479723154
30
0
41
1
10
4.7532087496887
20
-0.720216906963401
30
0
41
1
10
4.58611401973354
20
-0.701185279003511
30
0
41
1
10
4.50248153322065
20
-0.686956997807926
30
0
41
1
10
4.41843
20
-0.668009149294477
30
0
0
SPLINE
5
C8
100
AcDbEntity
8
1
62
256
6
ByLayer
370
18
48
1
60
0
100
AcDbSpline
70
4
71
3
72
20
73
16
40
0
40
0
40
0
40
0
40
0.0237761111572436
40
0.0237761111572436
40
0.186480092631036
40
0.186480092631036
40
0.349184074104829
40
0.349184074104829
40
0.511888055578622
40
0.511888055578622
40
0.674592037052415
40
0.674592037052415
40
0.837296018526207
40
0.837296018526207
40
1
40
1
40
1
40
1
41
1
10
12.6776474343904
20
-0.284258712417142
30
0
41
1
10
12.6761676905197
20
-0.287418582888335
30
0
41
1
10
12.6746783006194
20
-0.290580958936886
30
0
41
1
10
12.6629326728201
20
-0.315406679019191
30
0
41
1
10
12.6522833658561
20
-0.337197984766789
30
0
41
1
10
12.6306389187615
20
-0.38098858572684
30
0
41
1
10
12.6196307265365
20
-0.402995252983686
30
0
41
1
10
12.5973952264089
20
-0.447328424454497
30
0
41
1
10
12.5861635889003
20
-0.469661349572647
30
0
41
1
10
12.5635306917954
20
-0.514812557593899
30
0
41
1
10
12.5521403202127
20
-0.537604421418052
30
0
41
1
10
12.5293133158952
20
-0.58338138137384
30
0
41
1
10
12.5178716669684
20
-0.606374935177627
30
0
41
1
10
12.494987829329
20
-0.652263961248735
30
0
41
1
10
12.483545751857
20
-0.67515869180923
30
0
41
1
10
12.4721269478379
20
-0.697792857534523
30
0
0
SPLINE
5
C9
100
AcDbEntity
8
1
62
256
6
ByLayer
370
18
48
1
60
0
100
AcDbSpline
70
4
71
3
72
25
73
21
40
0
40
0
40
0
40
0
40
0.066102604658506
40
0.066102604658506
40
0.132205209317012
40
0.132205209317012
40
0.198307813975518
40
0.198307813975518
40
0.264410418634024
40
0.264410418634024
40
0.33051302329253
40
0.33051302329253
40
0.396615627951036
40
0.462718232609542
40
0.462718232609542
40
0.528820837268048
40
0.528820837268048
40
0.79323125590204
40
0.79323125590204
40
1
40
1
40
1
40
1
41
1
10
12.4721269478376
20
0.697792857534211
30
0
41
1
10
12.4604362426085
20
0.696714570892851
30
0
41
1
10
12.4492546088632
20
0.69535898221784
30
0
41
1
10
12.4277417353748
20
0.692084853901292
30
0
41
1
10
12.4173363910061
20
0.690200845755243
30
0
41
1
10
12.3966493144883
20
0.686200559267832
30
0
41
1
10
12.386359368164
20
0.68408993205037
30
0
41
1
10
12.3654917413302
20
0.679890115249719
30
0
41
1
10
12.3549586696924
20
0.677777878817523
30
0
41
1
10
12.3338483319135
20
0.673447690665085
30
0
41
1
10
12.32327497224
20
0.671227091780708
30
0
41
1
10
12.3022321679631
20
0.66657741767375
30
0
41
1
10
12.2812653061159
20
0.661735595142915
30
0
41
1
10
12.2603157174186
20
0.656593849898343
30
0
41
1
10
12.2393131022724
20
0.651350593190614
30
0
41
1
10
12.2287900731548
20
0.648675304560726
30
0
41
1
10
12.1761948718829
20
0.634932685667309
30
0
41
1
10
12.1341351628041
20
0.622798797297463
30
0
41
1
10
12.0593235562371
20
0.599438155635653
30
0
41
1
10
12.0265343496276
20
0.588563171841798
30
0
41
1
10
11.9937555294949
20
0.57709500211601
30
0
0
SPLINE
5
CA
100
AcDbEntity
8
1
62
256
6
ByLayer
370
18
48
1
60
0
100
AcDbSpline
70
4
71
3
72
62
73
58
40
0
40
0
40
0
40
0
40
0.0104608260917324
40
0.0104608260917324
40
0.0387333739176786
40
0.0387333739176786
40
0.095278469569571
40
0.095278469569571
40
0.123551017395519
40
0.123551017395519
40
0.151823565221467
40
0.151823565221467
40
0.180096113047415
40
0.180096113047415
40
0.208368660873363
40
0.208368660873363
40
0.264913756525259
40
0.264913756525259
40
0.293186304351207
40
0.293186304351207
40
0.321458852177155
40
0.321458852177155
40
0.378003947829054
40
0.378003947829054
40
0.392140221742029
40
0.392140221742029
40
0.406276495655004
40
0.406276495655004
40
0.434549043480957
40
0.434549043480957
40
0.491094139132863
40
0.491094139132863
40
0.54763923478477
40
0.54763923478477
40
0.575911782610723
40
0.575911782610723
40
0.604184330436676
40
0.604184330436676
40
0.660729426088582
40
0.660729426088582
40
0.689001973914535
40
0.689001973914535
40
0.717274521740487
40
0.717274521740487
40
0.745547069566439
40
0.745547069566439
40
0.773819617392392
40
0.773819617392392
40
0.830364713044295
40
0.830364713044295
40
0.858637260870246
40
0.858637260870246
40
0.886909808696198
40
0.886909808696198
40
0.943454904348099
40
0.943454904348099
40
1
40
1
40
1
40
1
41
1
10
8.86483024969036
20
-0.72499959534818
30
0
41
1
10
8.84927806534881
20
-0.724996275787021
30
0
41
1
10
8.83371763796356
20
-0.724826355626732
30
0
41
1
10
8.77608029037339
20
-0.723580247579065
30
0
41
1
10
8.7340787160386
20
-0.721457996903354
30
0
41
1
10
8.6081523825172
20
-0.711512180449063
30
0
41
1
10
8.52431788685104
20
-0.700112961000798
30
0
41
1
10
8.39822407788111
20
-0.675965639248602
30
0
41
1
10
8.35615663066028
20
-0.666765310826861
30
0
41
1
10
8.27220416011687
20
-0.646215666964252
30
0
41
1
10
8.2302718003246
20
-0.634855298002179
30
0
41
1
10
8.14641164844889
20
-0.610033723961067
30
0
41
1
10
8.10448029694152
20
-0.596575513957106
30
0
41
1
10
8.02052379955276
20
-0.567634207454233
30
0
41
1
10
7.97846912448688
20
-0.552108999249356
30
0
41
1
10
7.85260758353152
20
-0.502923506125569
30
0
41
1
10
7.76873346653372
20
-0.466888484612213
30
0
41
1
10
7.64277722450018
20
-0.408307443021897
30
0
41
1
10
7.60071760085751
20
-0.388010822635124
30
0
41
1
10
7.51663160892087
20
-0.34613255435076
30
0
41
1
10
7.47469887980833
20
-0.324568088076717
30
0
41
1
10
7.34900453417947
20
-0.258349007794664
30
0
41
1
10
7.26523407824172
20
-0.212351405879616
30
0
41
1
10
7.16009995112856
20
-0.153293681343968
30
0
41
1
10
7.1390541229174
20
-0.141403187001743
30
0
41
1
10
7.09708598296143
20
-0.117579795064103
30
0
41
1
10
7.07614160912803
20
-0.105635045494012
30
0
41
1
10
7.01341155776595
20
-0.0697296504370684
30
0
41
1
10
6.97173581834238
20
-0.0456854782845824
30
0
41
1
10
6.8469773484002
20
0.0264778561630123
30
0
41
1
10
6.7640283276375
20
0.0743878947006067
30
0
41
1
10
6.59793340966894
20
0.168696670021802
30
0
41
1
10
6.51478561834563
20
0.215092066110344
30
0
41
1
10
6.38941746296126
20
0.282668826937282
30
0
41
1
10
6.34747262450492
20
0.304841251250451
30
0
41
1
10
6.26336418513637
20
0.348232375513589
30
0
41
1
10
6.22141139298498
20
0.369358653861013
30
0
41
1
10
6.09566219645961
20
0.430741532799402
30
0
41
1
10
6.01183420218501
20
0.468809823986135
30
0
41
1
10
5.88574966681534
20
0.521157289440595
30
0
41
1
10
5.84365890912005
20
0.537773237671672
30
0
41
1
10
5.75967612169106
20
0.56904937932751
30
0
41
1
10
5.71773439614412
20
0.583743581165407
30
0
41
1
10
5.63385988565912
20
0.611152426564018
30
0
41
1
10
5.59192464251277
20
0.623864692824725
30
0
41
1
10
5.50796908727207
20
0.647207937487224
30
0
41
1
10
5.46589641801424
20
0.657854102353156
30
0
41
1
10
5.33998093992653
20
0.686373267270341
30
0
41
1
10
5.25621926296367
20
0.700763770325267
30
0
41
1
10
5.13031196298988
20
0.715249951345754
30
0
41
1
10
5.08827269494705
20
0.718895788402818
30
0
41
1
10
5.00413053340966
20
0.723768865033492
30
0
41
1
10
4.96220156747546
20
0.724989152099653
30
0
41
1
10
4.8366662941979
20
0.725021479723154
30
0
41
1
10
4.75320874968872
20
0.720216906963373
30
0
41
1
10
4.58611401973351
20
0.701185279003511
30
0
41
1
10
4.50248153322065
20
0.686956997807897
30
0
41
1
10
4.41843
20
0.668009149294477
30
0
0
SPLINE
5
CB
100
AcDbEntity
8
1
62
256
6
ByLayer
370
18
48
1
60
0
100
AcDbSpline
70
4
71
3
72
22
73
18
40
0
40
0
40
0
40
0
40
0.125
40
0.125
40
0.25
40
0.25
40
0.375
40
0.375
40
0.5
40
0.5
40
0.625
40
0.625
40
0.75
40
0.75
40
0.875
40
0.875
40
1
40
1
40
1
40
1
41
1
10
12.7256817619261
20
0.164276051508068
30
0
41
1
10
12.7195127524289
20
0.186042433143598
30
0
41
1
10
12.7113145594391
20
0.207534759854894
30
0
41
1
10
12.6932942187389
20
0.250560645807639
30
0
41
1
10
12.6834288060093
20
0.272085770676114
30
0
41
1
10
12.6629326728201
20
0.315406679019191
30
0
41
1
10
12.6522833658561
20
0.337197984766789
30
0
41
1
10
12.6306389187615
20
0.380988585726811
30
0
41
1
10
12.6196307265365
20
0.402995252983686
30
0
41
1
10
12.5973952264089
20
0.447328424454469
30
0
41
1
10
12.5861635889003
20
0.469661349572618
30
0
41
1
10
12.5635306917954
20
0.514812557593871
30
0
41
1
10
12.5521403202127
20
0.537604421417996
30
0
41
1
10
12.5293133158952
20
0.583381381373783
30
0
41
1
10
12.5178716669684
20
0.60637493517757
30
0
41
1
10
12.494987829329
20
0.652263961248678
30
0
41
1
10
12.483545751857
20
0.675158691809173
30
0
41
1
10
12.472126947838
20
0.697792857534495
30
0
0
SPLINE
5
CC
100
AcDbEntity
8
1
62
256
6
ByLayer
370
18
48
1
60
0
100
AcDbSpline
70
4
71
3
72
70
73
66
40
0
40
0
40
0
40
0
40
0.0189361224244378
40
0.0189361224244378
40
0.045309518943476
40
0.045309518943476
40
0.0716829154625143
40
0.0716829154625143
40
0.0980563119815525
40
0.0980563119815525
40
0.150803105019632
40
0.150803105019632
40
0.177176501538672
40
0.177176501538672
40
0.203549898057712
40
0.203549898057712
40
0.256296691095788
40
0.256296691095788
40
0.282670087614828
40
0.282670087614828
40
0.309043484133868
40
0.309043484133868
40
0.335416880652908
40
0.335416880652908
40
0.361790277171948
40
0.361790277171948
40
0.414537070210031
40
0.414537070210031
40
0.440910466729072
40
0.440910466729072
40
0.467283863248114
40
0.467283863248114
40
0.520030656286193
40
0.520030656286193
40
0.546404052805232
40
0.546404052805232
40
0.57277744932427
40
0.57277744932427
40
0.599150845843308
40
0.599150845843308
40
0.625524242362346
40
0.625524242362346
40
0.678271035400426
40
0.678271035400426
40
0.704644431919466
40
0.704644431919466
40
0.731017828438505
40
0.731017828438505
40
0.783764621476582
40
0.783764621476582
40
0.810138017995622
40
0.810138017995622
40
0.836511414514662
40
0.836511414514662
40
0.862884811033702
40
0.862884811033702
40
0.889258207552741
40
0.889258207552741
40
0.942005000590821
40
0.942005000590821
40
0.968378397109861
40
0.968378397109861
40
0.994751793628901
40
0.994751793628901
40
1
40
1
40
1
40
1
41
1
10
7.22255549905859
20
0.724999390155062
30
0
41
1
10
7.25272039478435
20
0.724992537858839
30
0
41
1
10
7.28290655143883
20
0.724359250506637
30
0
41
1
10
7.35499298123392
20
0.721345361196285
30
0
41
1
10
7.39686674483167
20
0.718376866155751
30
0
41
1
10
7.48057478779623
20
0.710034332894963
30
0
41
1
10
7.52243192101048
20
0.704666995489902
30
0
41
1
10
7.6062889589945
20
0.691607816013232
30
0
41
1
10
7.64831821236859
20
0.683901968865143
30
0
41
1
10
7.7744299953402
20
0.657409337250925
30
0
41
1
10
7.85825691424736
20
0.635367182538346
30
0
41
1
10
7.98383013004667
20
0.595842542695408
30
0
41
1
10
8.02572194499845
20
0.58164122623694
30
0
41
1
10
8.10971630790382
20
0.551331156464812
30
0
41
1
10
8.15173041475475
20
0.535233011753348
30
0
41
1
10
8.27752987771683
20
0.4844587502445
30
0
41
1
10
8.36125532283387
20
0.447257677645126
30
0
41
1
10
8.48713840753607
20
0.387083286006202
30
0
41
1
10
8.52921950354408
20
0.366315821721571
30
0
41
1
10
8.61319494657741
20
0.323769498585534
30
0
41
1
10
8.65513271835638
20
0.301966230330976
30
0
41
1
10
8.73898950987336
20
0.257433320671424
30
0
41
1
10
8.78090713424231
20
0.234701374967983
30
0
41
1
10
8.864807315261
20
0.188443171964508
30
0
41
1
10
8.90682720826084
20
0.164872338718368
30
0
41
1
10
9.03279168037648
20
0.0933938640029055
30
0
41
1
10
9.11650362684378
20
0.0450472316129265
30
0
41
1
10
9.24222201803985
20
-0.0275625898879355
30
0
41
1
10
9.2841553825312
20
-0.0517771454650813
30
0
41
1
10
9.36816690610894
20
-0.100072302112579
30
0
41
1
10
9.41014813000231
20
-0.124107723775381
30
0
41
1
10
9.53582097860271
20
-0.195394592869036
30
0
41
1
10
9.61956898999139
20
-0.241608358369462
30
0
41
1
10
9.74559442786961
20
-0.308234625879834
30
0
41
1
10
9.7877015117777
20
-0.330013959245406
30
0
41
1
10
9.87166909937253
20
-0.372330523186861
30
0
41
1
10
9.91357306028328
20
-0.392906478459821
30
0
41
1
10
9.99729846643959
20
-0.432768938833107
30
0
41
1
10
10.0391293284828
20
-0.452039913039585
30
0
41
1
10
10.1229292664738
20
-0.488977973680079
30
0
41
1
10
10.1649513312415
20
-0.506667058040534
30
0
41
1
10
10.290943744569
20
-0.557024203200797
30
0
41
1
10
10.3746668378106
20
-0.586928564870959
30
0
41
1
10
10.500372234403
20
-0.625749738900936
30
0
41
1
10
10.5423158605955
20
-0.637662231979391
30
0
41
1
10
10.6264003191273
20
-0.659330203303142
30
0
41
1
10
10.6684208439591
20
-0.669061209838475
30
0
41
1
10
10.794275856094
20
-0.694825780520688
30
0
41
1
10
10.8780117507717
20
-0.70746962641519
30
0
41
1
10
11.0038715301613
20
-0.719306295100779
30
0
41
1
10
11.0459258104281
20
-0.722049058828048
30
0
41
1
10
11.1298412110314
20
-0.725090350456497
30
0
41
1
10
11.1717476190215
20
-0.725397504833495
30
0
41
1
10
11.2555476728473
20
-0.723594626548561
30
0
41
1
10
11.2974451878332
20
-0.721484914469073
30
0
41
1
10
11.3813225357518
20
-0.714851511741557
30
0
41
1
10
11.4233536337974
20
-0.710317856718746
30
0
41
1
10
11.5492742429997
20
-0.693151530053683
30
0
41
1
10
11.633017196049
20
-0.677047974789332
30
0
41
1
10
11.7588368003176
20
-0.646311191304193
30
0
41
1
10
11.8008091648194
20
-0.634965895481173
30
0
41
1
10
11.884903724694
20
-0.610123008532184
30
0
41
1
10
11.9268510659701
20
-0.596665397507365
30
0
41
1
10
11.9770100801689
20
-0.579386781372705
30
0
41
1
10
11.9853320725248
20
-0.576481851269222
30
0
41
1
10
11.9936516874087
20
-0.573540318094217
30
0
0
SPLINE
5
CD
100
AcDbEntity
8
1
62
256
6
ByLayer
370
18
48
1
60
0
100
AcDbSpline
70
4
71
3
72
42
73
38
40
0
40
0
40
0
40
0
40
0.0180401894089925
40
0.0493420705116018
40
0.0806439516142106
40
0.104120362441167
40
0.127596773268124
40
0.158898654370733
40
0.190200535473342
40
0.221502416575951
40
0.25280429767856
40
0.284106178781169
40
0.299757119332473
40
0.331059000435082
40
0.362360881537691
40
0.3936627626403
40
0.424964643742909
40
0.456266524845518
40
0.471917465396823
40
0.503219346499431
40
0.53452122760204
40
0.565823108704649
40
0.597124989807258
40
0.628426870909867
40
0.651903281736824
40
0.675379692563781
40
0.70668157366639
40
0.737983454768998
40
0.769285335871607
40
0.800587216974217
40
0.824063627801173
40
0.84754003862813
40
0.878841919730739
40
0.910143800833348
40
0.941445681935957
40
0.972747563038565
40
1
40
1
40
1
40
1
41
1
10
8.96989100994944
20
0.134140388975908
30
0
41
1
10
8.98248590139028
20
0.132915291504446
30
0
41
1
10
9.01693443148173
20
0.129509227072333
30
0
41
1
10
9.07323659829594
20
0.123709838624705
30
0
41
0.999999999999999
10
9.13333410258978
20
0.1172121008197
30
0
41
1
10
9.18796819919464
20
0.111073417872319
30
0
41
1
10
9.24260229868113
20
0.104743395696943
30
0
41
1
10
9.30269981355045
20
0.0975492264783213
30
0
41
1
10
9.36826074851922
20
0.0894290553433166
30
0
41
1
10
9.43382169602716
20
0.0810530519599694
30
0
41
1
10
9.49938265895647
20
0.0724415125825146
30
0
41
1
10
9.55401680998432
20
0.0651311240580128
30
0
41
1
10
9.60865097425113
20
0.0577241519394817
30
0
41
1
10
9.66328515266969
20
0.0502261935458535
30
0
41
1
10
9.72884619224902
20
0.0410980120344675
30
0
41
1
10
9.79440726031328
20
0.0318564838233613
30
0
41
1
10
9.85996835930251
20
0.0225211349086294
30
0
41
1
10
9.91460263833307
20
0.014671071657915
30
0
41
1
10
9.96923693384263
20
0.0067776822873782
30
0
41
1
10
10.0238712261656
20
-0.0011454284509966
30
0
41
1
10
10.089432377713
20
-0.0106481099134328
30
0
41
1
10
10.1549935291125
20
-0.0200993968327623
30
0
41
1
10
10.2205546805492
20
-0.0294840578135336
30
0
41
1
10
10.2806524026885
20
-0.0380056439362306
30
0
41
1
10
10.3352866955463
20
-0.045674412060805
30
0
41
1
10
10.3899209884027
20
-0.0532657788147901
30
0
41
1
10
10.4500187105452
20
-0.0615108915840779
30
0
41
1
10
10.5155798619733
20
-0.0703380719953373
30
0
41
1
10
10.5811410134013
20
-0.0789534908112159
30
0
41
1
10
10.6412387355436
20
-0.0866475203054336
30
0
41
1
10
10.6958730284008
20
-0.0934665295701222
30
0
41
0.999999999999999
10
10.7505073212555
20
-0.10012744606567
30
0
41
1
10
10.810605043404
20
-0.107241153051945
30
0
41
1
10
10.8761661948157
20
-0.114716638032235
30
0
41
1
10
10.941727346295
20
-0.121894612215158
30
0
41
1
10
11.0044613381448
20
-0.1284579961183
30
0
41
1
10
11.0453416136517
20
-0.132519786886917
30
0
41
1
10
11.0643681708323
20
-0.134363161664339
30
0
0
SPLINE
5
CE
100
AcDbEntity
8
1
62
256
6
ByLayer
370
18
48
1
60
0
100
AcDbSpline
70
4
71
3
72
52
73
48
40
0
40
0
40
0
40
0
40
0.0694275700831874
40
0.0694275700831874
40
0.104141355124781
40
0.104141355124781
40
0.138855140166375
40
0.138855140166375
40
0.173568925207969
40
0.173568925207969
40
0.208282710249562
40
0.208282710249562
40
0.27771028033275
40
0.27771028033275
40
0.312424065374343
40
0.312424065374343
40
0.347137850415937
40
0.347137850415937
40
0.416565420499127
40
0.416565420499127
40
0.45127920554072
40
0.45127920554072
40
0.485992990582314
40
0.485992990582314
40
0.520706775623908
40
0.520706775623908
40
0.555420560665502
40
0.555420560665502
40
0.624848130748685
40
0.624848130748685
40
0.659561915790276
40
0.659561915790276
40
0.694275700831868
40
0.694275700831868
40
0.763703270915047
40
0.763703270915047
40
0.798417055956638
40
0.798417055956638
40
0.83313084099823
40
0.83313084099823
40
0.867844626039821
40
0.867844626039821
40
0.902558411081413
40
0.902558411081413
40
0.971985981164596
40
0.971985981164596
40
1
40
1
40
1
40
1
41
1
10
4.41843
20
0.445371917373677
30
0
41
1
10
4.50241249754308
20
0.406932582256303
30
0
41
1
10
4.58623719533693
20
0.365765859938534
30
0
41
1
10
4.71223473813379
20
0.300725800003278
30
0
41
1
10
4.75432371322086
20
0.278469627421259
30
0
41
1
10
4.83830890317915
20
0.233180478395013
30
0
41
1
10
4.88022576890492
20
0.210124769411351
30
0
41
1
10
4.96400668200272
20
0.163355110781566
30
0
41
1
10
5.00589422062058
20
0.139680617827054
30
0
41
1
10
5.08977545816251
20
0.0919447647428626
30
0
41
1
10
5.13178818899692
20
0.0678496144704468
30
0
41
1
10
5.25789838103137
20
-0.0047370987472846
30
0
41
1
10
5.34161817844361
20
-0.0532749393224208
30
0
41
1
10
5.46720912198248
20
-0.125357194795669
30
0
41
1
10
5.50911225093733
20
-0.1491989166731
30
0
41
1
10
5.59310351832707
20
-0.196329237063509
30
0
41
1
10
5.63514350439007
20
-0.219600114844496
30
0
41
1
10
5.76098111481195
20
-0.288011533752609
30
0
41
1
10
5.84471329702197
20
-0.331858770727934
30
0
41
1
10
5.9705997184729
20
-0.394148419355815
30
0
41
1
10
6.01268332966677
20
-0.414319538616212
30
0
41
1
10
6.09665663073429
20
-0.453115100845707
30
0
41
1
10
6.13856072779612
20
-0.471785194290902
30
0
41
1
10
6.22229775989669
20
-0.507537014445745
30
0
41
1
10
6.26415986538535
20
-0.524580662951394
30
0
41
1
10
6.34799875558465
20
-0.556851369438277
30
0
41
1
10
6.39000375719485
20
-0.57210066867097
30
0
41
1
10
6.5160530003364
20
-0.614909191626623
30
0
41
1
10
6.59983348061613
20
-0.639335014321887
30
0
41
1
10
6.72563066541645
20
-0.669449253117449
30
0
41
1
10
6.76758520845965
20
-0.678397496842905
30
0
41
1
10
6.85162667975055
20
-0.694035825703367
30
0
41
1
10
6.89364410546673
20
-0.700717572551355
30
0
41
1
10
7.01937381846642
20
-0.717176890144003
30
0
41
1
10
7.10308431298381
20
-0.723365916639551
30
0
41
1
10
7.22899967804261
20
-0.725393381003897
30
0
41
1
10
7.27107401493461
20
-0.724853961583108
30
0
41
1
10
7.35499298123392
20
-0.721345361196285
30
0
41
1
10
7.3968667448317
20
-0.718376866155751
30
0
41
1
10
7.48057478779623
20
-0.710034332894963
30
0
41
1
10
7.52243192101051
20
-0.704666995489873
30
0
41
1
10
7.6062889589945
20
-0.691607816013232
30
0
41
1
10
7.64831821236859
20
-0.683901968865143
30
0
41
1
10
7.7744299953402
20
-0.657409337250925
30
0
41
1
10
7.85825691424736
20
-0.635367182538346
30
0
41
1
10
7.97575157963215
20
-0.598385296686047
30
0
41
1
10
8.00955295999853
20
-0.587084705249481
30
0
41
1
10
8.04341399962715
20
-0.575153865876274
30
0
0
SPLINE
5
CF
100
AcDbEntity
8
1
62
256
6
ByLayer
370
18
48
1
60
0
100
AcDbSpline
70
4
71
3
72
37
73
33
40
0
40
0
40
0
40
0
40
0.0362376600289382
40
0.0362376600289382
40
0.132613894026044
40
0.132613894026044
40
0.22899012802315
40
0.22899012802315
40
0.421742596017374
40
0.421742596017374
40
0.518118830014486
40
0.518118830014486
40
0.614495064011598
40
0.614495064011598
40
0.710871298008711
40
0.710871298008711
40
0.807247532005823
40
0.807247532005823
40
0.831341590505095
40
0.831341590505095
40
0.855435649004367
40
0.879529707503639
40
0.879529707503639
40
0.903623766002911
40
0.903623766002911
40
0.927717824502184
40
0.927717824502184
40
0.951811883001455
40
0.951811883001455
40
0.975905941500728
40
0.975905941500728
40
1
40
1
40
1
40
1
41
1
10
11.166379066056
20
0.725000030281535
30
0
41
1
10
11.1821377530912
20
0.725003083627342
30
0
41
1
10
11.1978931505833
20
0.724835008642287
30
0
41
1
10
11.2555476728473
20
0.723594626548561
30
0
41
1
10
11.2974451878332
20
0.721484914469073
30
0
41
1
10
11.3813225357518
20
0.714851511741557
30
0
41
1
10
11.4233536337974
20
0.710317856718746
30
0
41
1
10
11.5492742429997
20
0.693151530053683
30
0
41
1
10
11.633017196049
20
0.677047974789332
30
0
41
1
10
11.7588368003176
20
0.646311191304193
30
0
41
1
10
11.8008091648194
20
0.634965895481173
30
0
41
1
10
11.884903724694
20
0.610123008532184
30
0
41
1
10
11.9268510659701
20
0.596665397507337
30
0
41
1
10
12.0105194097327
20
0.567843595133695
30
0
41
1
10
12.0522816119736
20
0.552492905373498
30
0
41
1
10
12.135781996136
20
0.520067297033535
30
0
41
1
10
12.1774834574503
20
0.502945743310107
30
0
41
1
10
12.2297094646794
20
0.480616060457834
30
0
41
1
10
12.2401621021413
20
0.476107470516979
30
0
41
1
10
12.2610315511587
20
0.466935977041402
30
0
41
1
10
12.2818576498141
20
0.457598870251616
30
0
41
1
10
12.3027210633686
20
0.448095810058845
30
0
41
1
10
12.3236681136233
20
0.438604365121194
30
0
41
1
10
12.3341967831703
20
0.433884323884769
30
0
41
1
10
12.3552242519855
20
0.424298376359161
30
0
41
1
10
12.3657196094264
20
0.419427598796972
30
0
41
1
10
12.3865226128249
20
0.409298235001671
30
0
41
1
10
12.3967867796691
20
0.403972549951135
30
0
41
1
10
12.4174326642353
20
0.393374283202405
30
0
41
1
10
12.4278219948595
20
0.388112368355308
30
0
41
1
10
12.4493008995394
20
0.37856715228989
30
0
41
1
10
12.4604633614561
20
0.37439921835238
30
0
41
1
10
12.4721269478376
20
0.370993286900216
30
0
0
SPLINE
5
D0
100
AcDbEntity
8
1
62
256
6
ByLayer
370
18
48
1
60
0
100
AcDbSpline
70
4
71
3
72
21
73
17
40
0
40
0
40
0
40
0
40
0.125
40
0.125
40
0.25
40
0.375
40
0.375
40
0.5
40
0.5
40
0.625
40
0.625
40
0.75
40
0.75
40
0.875
40
0.875
40
1
40
1
40
1
40
1
41
1
10
12.4721269478376
20
0.370993286900216
30
0
41
1
10
12.4834698806036
20
0.35486047786182
30
0
41
1
10
12.4947905058373
20
0.340395835686536
30
0
41
1
10
12.5174311258429
20
0.313799232040111
30
0
41
1
10
12.5400694454291
20
0.289540348674535
30
0
41
1
10
12.5627052584115
20
0.268520176620825
30
0
41
1
10
12.5853178819658
20
0.248659295436909
30
0
41
1
10
12.596628920285
20
0.239271836772815
30
0
41
1
10
12.6189723930437
20
0.222016426685741
30
0
41
1
10
12.6300254334275
20
0.214148619821941
30
0
41
1
10
12.651730370179
20
0.200025489040911
30
0
41
1
10
12.6623915008057
20
0.193746618560766
30
0
41
1
10
12.6829740777912
20
0.182697951095889
30
0
41
1
10
12.692915998212
20
0.177928120486541
30
0
41
1
10
12.7111483018497
20
0.169923355523991
30
0
41
1
10
12.7194897182134
20
0.166687769560696
30
0
41
1
10
12.7256817619261
20
0.164276051508068
30
0
0
SPLINE
5
D1
100
AcDbEntity
8
1
62
256
6
ByLayer
370
18
48
1
60
0
100
AcDbSpline
70
4
71
3
72
42
73
38
40
0
40
0
40
0
40
0
40
0.0163067823173415
40
0.0481232868522305
40
0.0799397913871195
40
0.111756295922008
40
0.143572800456897
40
0.167435178858064
40
0.191297557259231
40
0.22311406179412
40
0.254930566329009
40
0.286747070863898
40
0.318563575398787
40
0.342425953799954
40
0.36628833220112
40
0.398104836736009
40
0.429921341270898
40
0.461737845805787
40
0.493554350340676
40
0.525370854875565
40
0.54127910714301
40
0.573095611677899
40
0.604912116212788
40
0.636728620747677
40
0.668545125282566
40
0.700361629817455
40
0.716269882084899
40
0.748086386619788
40
0.779902891154677
40
0.811719395689566
40
0.843535900224455
40
0.875352404759344
40
0.899214783160511
40
0.923077161561677
40
0.954893666096567
40
0.986710170631456
40
1
40
1
40
1
40
1
41
1
10
5.04043612459145
20
0.132585939745468
30
0
41
1
10
5.05163672878416
20
0.131485216006297
30
0
41
1
10
5.08469106633623
20
0.1281907929189
30
0
41
1
10
5.13959913742277
20
0.12249617780796
30
0
41
1
10
5.20516033771508
20
0.115361473635176
30
0
41
1
10
5.27072153801956
20
0.107908687350061
30
0
41
1
10
5.33081930496158
20
0.100798901199738
30
0
41
1
10
5.38545363854661
20
0.0941267654291096
30
0
41
1
10
5.4400879721311
20
0.0872765645920595
30
0
41
1
10
5.50018573907423
20
0.0795583488538512
30
0
41
1
10
5.56574693937574
20
0.0709371104880745
30
0
41
1
10
5.63130813967731
20
0.0621329076325025
30
0
41
1
10
5.69140590662033
20
0.0539121261454057
30
0
41
1
10
5.74604024020539
20
0.0463377056039746
30
0
41
1
10
5.80067457378803
20
0.0386856383269105
30
0
41
1
10
5.86077234073758
20
0.0301833417799173
30
0
41
1
10
5.92633354102119
20
0.020812624267478
30
0
41
1
10
5.99189474138086
20
0.0113857235276953
30
0
41
1
10
6.0574559414419
20
0.0019444336415404
30
0
41
1
10
6.11209027609095
20
-0.0059372529945563
30
0
41
1
10
6.16672460445116
20
-0.0138237097878004
30
0
41
1
10
6.2213589591052
20
-0.0217042112195145
30
0
41
1
10
6.28692008916786
20
-0.0310849235480362
30
0
41
1
10
6.35248109235227
20
-0.0403704193946055
30
0
41
1
10
6.41804198866183
20
-0.0495421310211839
30
0
41
1
10
6.47267598686284
20
-0.0570740899453881
30
0
41
1
10
6.52730993096242
20
-0.0644933992540473
30
0
41
1
10
6.58194382414149
20
-0.0718005048134103
30
0
41
1
10
6.64750442551079
20
-0.0803696281838882
30
0
41
1
10
6.71306496736821
20
-0.0887225109692622
30
0
41
1
10
6.77862546066163
20
-0.0968380224017551
30
0
41
1
10
6.83872254502984
20
-0.104041603724568
30
0
41
1
10
6.89335623864239
20
-0.110393147467903
30
0
41
1
10
6.94798992071509
20
-0.116570321996448
30
0
41
1
10
7.00808696276786
20
-0.123103718510294
30
0
41
1
10
7.06092214915924
20
-0.128567026382711
30
0
41
1
10
7.09190386937484
20
-0.131650964862075
30
0
41
1
10
7.10103211724728
20
-0.132549029539973
30
0
0
LINE
5
7F
100
AcDbEntity
8
1
62
256
6
ByLayer
370
18
48
1
60
0
100
AcDbLine
10
0
20
-1.499974
30
0
11
0
21
0
31
0
39
0
210
0
220
0
230
1
0
LINE
5
80
100
AcDbEntity
8
1
62
256
6
ByLayer
370
18
48
1
60
0
100
AcDbLine
10
0
20
0
30
0
11
0
21
1.499974
31
0
39
0
210
0
220
0
230
1
0
LINE
5
81
100
AcDbEntity
8
1
62
256
6
ByLayer
370
18
48
1
60
0
100
AcDbLine
10
12.472127
20
0.370993
30
0
11
12.472127
21
-0.697793
31
0
39
0
210
0
220
0
230
1
0
LINE
5
82
100
AcDbEntity
8
1
62
256
6
ByLayer
370
18
48
1
60
0
100
AcDbLine
10
4.41843
20
0.668009
30
0
11
4.41843
21
0.429651
31
0
39
0
210
0
220
0
230
1
0
LINE
5
83
100
AcDbEntity
8
1
62
256
6
ByLayer
370
13
48
1
60
0
100
AcDbLine
10
1.610244
20
0.725
30
0
11
1.610244
21
-0.725
31
0
39
0
210
0
220
0
230
1
0
LINE
5
84
100
AcDbEntity
8
1
62
256
6
ByLayer
370
13
48
1
60
0
100
AcDbLine
10
1.110244
20
0.858975
30
0
11
1.110244
21
-0.858975
31
0
39
0
210
0
220
0
230
1
0
LINE
5
85
100
AcDbEntity
8
SK1
62
256
6
ByLayer
370
18
48
1
60
0
100
AcDbLine
10
-25.1898
20
1.326795
30
0
11
-25.1898
21
-1.326795
31
0
39
0
210
0
220
0
230
1
0
LINE
5
87
100
AcDbEntity
8
SK1
62
256
6
ByLayer
370
18
48
1
60
0
100
AcDbLine
10
-24.8898
20
1.5
30
0
11
-24.8898
21
-1.5
31
0
39
0
210
0
220
0
230
1
0
LINE
5
88
100
AcDbEntity
8
SK1
62
256
6
ByLayer
370
18
48
1
60
0
100
AcDbLine
10
0
20
-1.499974
30
0
11
0
21
0
31
0
39
0
210
0
220
0
230
1
0
LINE
5
89
100
AcDbEntity
8
SK1
62
256
6
ByLayer
370
18
48
1
60
0
100
AcDbLine
10
0
20
0
30
0
11
0
21
1.499974
31
0
39
0
210
0
220
0
230
1
0
LINE
5
8A
100
AcDbEntity
8
SK1
62
256
6
ByLayer
370
18
48
1
60
0
100
AcDbLine
10
-4.5E-05
20
1.5
30
0
11
-4.5E-05
21
-1.5
31
0
39
0
210
0
220
0
230
1
0
LINE
5
8B
100
AcDbEntity
8
1
62
256
6
ByLayer
370
18
48
1
60
0
100
AcDbLine
10
1.110244
20
0.858975
30
0
11
0
21
1.499974
31
0
39
0
210
0
220
0
230
1
0
LINE
5
8C
100
AcDbEntity
8
1
62
256
6
ByLayer
370
18
48
1
60
0
100
AcDbLine
10
0
20
-1.499974
30
0
11
1.110244
21
-0.858975
31
0
39
0
210
0
220
0
230
1
0
LINE
5
8D
100
AcDbEntity
8
1
62
256
6
ByLayer
370
18
48
1
60
0
100
AcDbLine
10
12.8102
20
0
30
0
11
12.677291
21
0.285024
31
0
39
0
210
0
220
0
230
1
0
LINE
5
8E
100
AcDbEntity
8
1
62
256
6
ByLayer
370
18
48
1
60
0
100
AcDbLine
10
12.677291
20
-0.285024
30
0
11
12.8102
21
0
31
0
39
0
210
0
220
0
230
1
0
LINE
5
8F
100
AcDbEntity
8
1
62
256
6
ByLayer
370
18
48
1
60
0
100
AcDbLine
10
1.610244
20
-0.725
30
0
11
3.640194
21
-0.725
31
0
39
0
210
0
220
0
230
1
0
LINE
5
90
100
AcDbEntity
8
1
62
256
6
ByLayer
370
18
48
1
60
0
100
AcDbLine
10
4.921126
20
-0.725
30
0
11
7.222344
21
-0.725
31
0
39
0
210
0
220
0
230
1
0
LINE
5
91
100
AcDbEntity
8
1
62
256
6
ByLayer
370
18
48
1
60
0
100
AcDbLine
10
8.865026
20
-0.725
30
0
11
11.166554
21
-0.725
31
0
39
0
210
0
220
0
230
1
0
LINE
5
92
100
AcDbEntity
8
1
62
256
6
ByLayer
370
18
48
1
60
0
100
AcDbLine
10
11.166554
20
0.725
30
0
11
8.865026
21
0.725
31
0
39
0
210
0
220
0
230
1
0
LINE
5
93
100
AcDbEntity
8
1
62
256
6
ByLayer
370
18
48
1
60
0
100
AcDbLine
10
7.222344
20
0.725
30
0
11
4.921126
21
0.725
31
0
39
0
210
0
220
0
230
1
0
LINE
5
94
100
AcDbEntity
8
1
62
256
6
ByLayer
370
18
48
1
60
0
100
AcDbLine
10
3.640194
20
0.725
30
0
11
1.610244
21
0.725
31
0
39
0
210
0
220
0
230
1
0
LINE
5
95
100
AcDbEntity
8
SK1
62
256
6
ByLayer
370
18
48
1
60
0
100
AcDbLine
10
-25.1898
20
-1.326795
30
0
11
-24.8898
21
-1.5
31
0
39
0
210
0
220
0
230
1
0
LINE
5
96
100
AcDbEntity
8
SK1
62
256
6
ByLayer
370
18
48
1
60
0
100
AcDbLine
10
-24.8898
20
1.5
30
0
11
-25.1898
21
1.326795
31
0
39
0
210
0
220
0
230
1
0
LINE
5
97
100
AcDbEntity
8
SK1
62
256
6
ByLayer
370
18
48
1
60
0
100
AcDbLine
10
-24.8898
20
-1.5
30
0
11
-4.5E-05
21
-1.5
31
0
39
0
210
0
220
0
230
1
0
LINE
5
98
100
AcDbEntity
8
SK1
62
256
6
ByLayer
370
18
48
1
60
0
100
AcDbLine
10
-4.5E-05
20
1.5
30
0
11
-24.8898
21
1.5
31
0
39
0
210
0
220
0
230
1
0
LINE
5
99
100
AcDbEntity
8
SK1
62
256
6
ByLayer
370
18
48
1
60
0
100
AcDbLine
10
0
20
1.499974
30
0
11
-4.5E-05
21
1.5
31
0
39
0
210
0
220
0
230
1
0
LINE
5
9A
100
AcDbEntity
8
SK1
62
256
6
ByLayer
370
18
48
1
60
0
100
AcDbLine
10
-4.5E-05
20
-1.5
30
0
11
0
21
-1.499974
31
0
39
0
210
0
220
0
230
1
0
LINE
5
9B
100
AcDbEntity
8
4
62
256
6
ByLayer
370
18
48
0.05
60
0
100
AcDbLine
10
0
20
0
30
0
11
12.8102
21
0
31
0
39
0
210
0
220
0
230
1
0
LINE
5
9D
100
AcDbEntity
8
81
62
256
6
ByLayer
370
18
48
1
60
0
100
AcDbLine
10
12.8102
20
0
30
0
11
15.8102
21
0
31
0
39
0
210
0
220
0
230
1
0
LINE
5
9E
100
AcDbEntity
8
80
62
256
6
ByLayer
370
18
48
1
60
0
100
AcDbLine
10
0
20
0
30
0
11
-3
21
0
31
0
39
0
210
0
220
0
230
1
0
LINE
5
9F
100
AcDbEntity
8
SK4
62
256
6
ByLayer
370
18
48
0.05
60
0
100
AcDbLine
10
-28.1898
20
0
30
0
11
15.8102
21
0
31
0
39
0
210
0
220
0
230
1
0
LINE
5
A1
100
AcDbEntity
8
SK2
62
256
6
ByLayer
370
13
48
1
60
0
100
AcDbLine
10
-29.6898
20
-9
30
0
11
-29.6898
21
21.782741
31
0
39
0
210
0
220
0
230
1
0
LINE
5
A3
100
AcDbEntity
8
SK2
62
256
6
ByLayer
370
13
48
1
60
0
100
AcDbLine
10
-26.7773
20
-1.5
30
0
11
-31.6898
21
-1.5
31
0
39
0
210
0
220
0
230
1
0
LINE
5
A4
100
AcDbEntity
8
SK2
62
256
6
ByLayer
370
13
48
1
60
0
100
AcDbLine
10
-26.7773
20
1.5
30
0
11
-31.6898
21
1.5
31
0
39
0
210
0
220
0
230
1
0
LINE
5
A5
100
AcDbEntity
8
1
62
256
6
ByLayer
370
18
48
1
60
1
100
AcDbLine
10
-29.6898
20
-1.5
30
0
11
-29.229016
21
-4.999998
31
0
39
0
210
0
220
0
230
1
0
LINE
5
A6
100
AcDbEntity
8
1
62
256
6
ByLayer
370
18
48
1
60
1
100
AcDbLine
10
-29.229016
20
-4.999998
30
0
11
-30.150584
21
-5.000002
31
0
39
0
210
0
220
0
230
1
0
LINE
5
A7
100
AcDbEntity
8
1
62
256
6
ByLayer
370
18
48
1
60
1
100
AcDbLine
10
-30.150584
20
-5.000002
30
0
11
-29.6898
21
-1.5
31
0
39
0
210
0
220
0
230
1
0
LINE
5
A8
100
AcDbEntity
8
1
62
256
6
ByLayer
370
18
48
1
60
1
100
AcDbLine
10
-29.6898
20
1.5
30
0
11
-30.150584
21
4.999998
31
0
39
0
210
0
220
0
230
1
0
LINE
5
A9
100
AcDbEntity
8
1
62
256
6
ByLayer
370
18
48
1
60
1
100
AcDbLine
10
-30.150584
20
4.999998
30
0
11
-29.229016
21
5.000002
31
0
39
0
210
0
220
0
230
1
0
LINE
5
AA
100
AcDbEntity
8
1
62
256
6
ByLayer
370
18
48
1
60
1
100
AcDbLine
10
-29.229016
20
5.000002
30
0
11
-29.6898
21
1.5
31
0
39
0
210
0
220
0
230
1
0
LINE
5
AB
100
AcDbEntity
8
2
62
256
6
ByLayer
370
13
48
1
60
0
100
AcDbLine
10
18.3102
20
-8.225
30
0
11
18.3102
21
29.623741
31
0
39
0
210
0
220
0
230
1
0
LINE
5
AD
100
AcDbEntity
8
2
62
256
6
ByLayer
370
13
48
1
60
0
100
AcDbLine
10
14.3977
20
-0.725
30
0
11
20.3102
21
-0.725
31
0
39
0
210
0
220
0
230
1
0
LINE
5
AE
100
AcDbEntity
8
2
62
256
6
ByLayer
370
13
48
1
60
0
100
AcDbLine
10
14.3977
20
0.725
30
0
11
20.3102
21
0.725
31
0
39
0
210
0
220
0
230
1
0
LINE
5
AF
100
AcDbEntity
8
1
62
256
6
ByLayer
370
18
48
1
60
1
100
AcDbLine
10
18.3102
20
-0.725
30
0
11
18.770984
21
-4.224998
31
0
39
0
210
0
220
0
230
1
0
LINE
5
B0
100
AcDbEntity
8
1
62
256
6
ByLayer
370
18
48
1
60
1
100
AcDbLine
10
18.770984
20
-4.224998
30
0
11
17.849416
21
-4.225002
31
0
39
0
210
0
220
0
230
1
0
LINE
5
B1
100
AcDbEntity
8
1
62
256
6
ByLayer
370
18
48
1
60
1
100
AcDbLine
10
17.849416
20
-4.225002
30
0
11
18.3102
21
-0.725
31
0
39
0
210
0
220
0
230
1
0
LINE
5
B2
100
AcDbEntity
8
1
62
256
6
ByLayer
370
18
48
1
60
1
100
AcDbLine
10
18.3102
20
0.725
30
0
11
17.849416
21
4.224998
31
0
39
0
210
0
220
0
230
1
0
LINE
5
B3
100
AcDbEntity
8
1
62
256
6
ByLayer
370
18
48
1
60
1
100
AcDbLine
10
17.849416
20
4.224998
30
0
11
18.770984
21
4.225002
31
0
39
0
210
0
220
0
230
1
0
LINE
5
B4
100
AcDbEntity
8
1
62
256
6
ByLayer
370
18
48
1
60
1
100
AcDbLine
10
18.770984
20
4.225002
30
0
11
18.3102
21
0.725
31
0
39
0
210
0
220
0
230
1
0
LINE
5
B5
100
AcDbEntity
8
SK2
62
256
6
ByLayer
370
13
48
1
60
0
100
AcDbLine
10
13.481106
20
-1.438764
30
0
11
20.565245
21
-16.630748
31
0
39
0
210
0
220
0
230
1
0
LINE
5
B6
100
AcDbEntity
8
SK2
62
256
6
ByLayer
370
13
48
1
60
0
100
AcDbLine
10
13.481106
20
1.438764
30
0
11
20.565245
21
16.630748
31
0
39
0
210
0
220
0
230
1
0
LINE
5
B7
100
AcDbEntity
8
1
62
256
6
ByLayer
370
18
48
1
60
1
100
AcDbLine
10
19.720009
20
-14.818132
30
0
11
22.592042
21
-12.765394
31
0
39
0
210
0
220
0
230
1
0
LINE
5
B8
100
AcDbEntity
8
1
62
256
6
ByLayer
370
18
48
1
60
1
100
AcDbLine
10
22.592042
20
-12.765394
30
0
11
23.025471
21
-13.578675
31
0
39
0
210
0
220
0
230
1
0
LINE
5
B9
100
AcDbEntity
8
1
62
256
6
ByLayer
370
18
48
1
60
1
100
AcDbLine
10
23.025471
20
-13.578675
30
0
11
19.720009
21
-14.818132
31
0
39
0
210
0
220
0
230
1
0
LINE
5
BA
100
AcDbEntity
8
1
62
256
6
ByLayer
370
18
48
1
60
1
100
AcDbLine
10
19.720009
20
14.818132
30
0
11
23.025468
21
13.578677
31
0
39
0
210
0
220
0
230
1
0
LINE
5
BB
100
AcDbEntity
8
1
62
256
6
ByLayer
370
18
48
1
60
1
100
AcDbLine
10
23.025468
20
13.578677
30
0
11
22.592045
21
12.765392
31
0
39
0
210
0
220
0
230
1
0
LINE
5
BC
100
AcDbEntity
8
1
62
256
6
ByLayer
370
18
48
1
60
1
100
AcDbLine
10
22.592045
20
12.765392
30
0
11
19.720009
21
14.818132
31
0
39
0
210
0
220
0
230
1
0
LINE
5
D6
100
AcDbEntity
8
1
62
256
6
ByLayer
370
18
48
1
60
1
100
AcDbLine
10
-29.6898
20
-1.5
30
0
11
-29.229016
21
-4.999998
31
0
39
0
210
0
220
0
230
1
0
LINE
5
D7
100
AcDbEntity
8
1
62
256
6
ByLayer
370
18
48
1
60
1
100
AcDbLine
10
-29.229016
20
-4.999998
30
0
11
-30.150584
21
-5.000002
31
0
39
0
210
0
220
0
230
1
0
LINE
5
D8
100
AcDbEntity
8
1
62
256
6
ByLayer
370
18
48
1
60
1
100
AcDbLine
10
-30.150584
20
-5.000002
30
0
11
-29.6898
21
-1.5
31
0
39
0
210
0
220
0
230
1
0
LINE
5
DA
100
AcDbEntity
8
1
62
256
6
ByLayer
370
18
48
1
60
1
100
AcDbLine
10
-29.6898
20
1.5
30
0
11
-30.150584
21
4.999998
31
0
39
0
210
0
220
0
230
1
0
LINE
5
DB
100
AcDbEntity
8
1
62
256
6
ByLayer
370
18
48
1
60
1
100
AcDbLine
10
-30.150584
20
4.999998
30
0
11
-29.229016
21
5.000002
31
0
39
0
210
0
220
0
230
1
0
LINE
5
DC
100
AcDbEntity
8
1
62
256
6
ByLayer
370
18
48
1
60
1
100
AcDbLine
10
-29.229016
20
5.000002
30
0
11
-29.6898
21
1.5
31
0
39
0
210
0
220
0
230
1
0
LINE
5
E0
100
AcDbEntity
8
1
62
256
6
ByLayer
370
18
48
1
60
1
100
AcDbLine
10
18.3102
20
-0.725
30
0
11
18.770984
21
-4.224998
31
0
39
0
210
0
220
0
230
1
0
LINE
5
E1
100
AcDbEntity
8
1
62
256
6
ByLayer
370
18
48
1
60
1
100
AcDbLine
10
18.770984
20
-4.224998
30
0
11
17.849416
21
-4.225002
31
0
39
0
210
0
220
0
230
1
0
LINE
5
E2
100
AcDbEntity
8
1
62
256
6
ByLayer
370
18
48
1
60
1
100
AcDbLine
10
17.849416
20
-4.225002
30
0
11
18.3102
21
-0.725
31
0
39
0
210
0
220
0
230
1
0
LINE
5
E4
100
AcDbEntity
8
1
62
256
6
ByLayer
370
18
48
1
60
1
100
AcDbLine
10
18.3102
20
0.725
30
0
11
17.849416
21
4.224998
31
0
39
0
210
0
220
0
230
1
0
LINE
5
E5
100
AcDbEntity
8
1
62
256
6
ByLayer
370
18
48
1
60
1
100
AcDbLine
10
17.849416
20
4.224998
30
0
11
18.770984
21
4.225002
31
0
39
0
210
0
220
0
230
1
0
LINE
5
E6
100
AcDbEntity
8
1
62
256
6
ByLayer
370
18
48
1
60
1
100
AcDbLine
10
18.770984
20
4.225002
30
0
11
18.3102
21
0.725
31
0
39
0
210
0
220
0
230
1
0
LINE
5
E9
100
AcDbEntity
8
1
62
256
6
ByLayer
370
18
48
1
60
1
100
AcDbLine
10
19.720009
20
-14.818132
30
0
11
22.592042
21
-12.765394
31
0
39
0
210
0
220
0
230
1
0
LINE
5
EA
100
AcDbEntity
8
1
62
256
6
ByLayer
370
18
48
1
60
1
100
AcDbLine
10
22.592042
20
-12.765394
30
0
11
23.025471
21
-13.578675
31
0
39
0
210
0
220
0
230
1
0
LINE
5
EB
100
AcDbEntity
8
1
62
256
6
ByLayer
370
18
48
1
60
1
100
AcDbLine
10
23.025471
20
-13.578675
30
0
11
19.720009
21
-14.818132
31
0
39
0
210
0
220
0
230
1
0
LINE
5
ED
100
AcDbEntity
8
1
62
256
6
ByLayer
370
18
48
1
60
1
100
AcDbLine
10
19.720009
20
14.818132
30
0
11
23.025468
21
13.578677
31
0
39
0
210
0
220
0
230
1
0
LINE
5
EE
100
AcDbEntity
8
1
62
256
6
ByLayer
370
18
48
1
60
1
100
AcDbLine
10
23.025468
20
13.578677
30
0
11
22.592045
21
12.765392
31
0
39
0
210
0
220
0
230
1
0
LINE
5
EF
100
AcDbEntity
8
1
62
256
6
ByLayer
370
18
48
1
60
1
100
AcDbLine
10
22.592045
20
12.765392
30
0
11
19.720009
21
14.818132
31
0
39
0
210
0
220
0
230
1
0
MTEXT
5
D2
100
AcDbEntity
8
SK2
62
256
6
ByLayer
370
18
48
1
60
0
100
AcDbMText
10
-31.030914
20
6.658437
30
0
210
0
220
0
230
1
1
%%c
40
3
41
0
44
1.084337
50
90
71
7
72
5
7
iso_b_vert
0
MTEXT
5
D5
100
AcDbEntity
8
SK2
62
256
6
ByLayer
370
18
48
1
60
0
100
AcDbMText
10
-31.030914
20
12.635
30
0
210
0
220
0
230
1
1
\W0.7468;3.000
40
3
41
0
44
1.084337
50
90
71
7
72
5
7
iso_b_vert
0
MTEXT
5
DE
100
AcDbEntity
8
2
62
256
6
ByLayer
370
18
48
1
60
0
100
AcDbMText
10
16.969086
20
14.933438
30
0
210
0
220
0
230
1
1
%%c
40
3
41
0
44
1.084337
50
90
71
7
72
5
7
iso_b_vert
0
MTEXT
5
DF
100
AcDbEntity
8
2
62
256
6
ByLayer
370
18
48
1
60
0
100
AcDbMText
10
16.969086
20
20.91
30
0
210
0
220
0
230
1
1
\W0.7091;1.450
40
3
41
0
44
1.084337
50
90
71
7
72
5
7
iso_b_vert
0
MTEXT
5
E8
100
AcDbEntity
8
SK2
62
256
6
ByLayer
370
18
48
1
60
0
100
AcDbMText
10
25.877486
20
-2.114886
30
0
210
0
220
0
230
1
1
\W0.6747;130%%d
40
3
41
0
44
1.084337
50
0
71
7
72
5
7
iso_b_vert
0
MTEXT
5
F1
100
AcDbEntity
8
SK6
62
256
6
ByLayer
370
18
48
1
60
0
100
AcDbMText
10
-34.154339
20
-42.114886
30
0
210
0
220
0
230
1
1
\W0.7716;462.1-0145-007A0-XM X0BM
40
3
41
0
44
1.084337
50
0
71
7
72
5
7
iso_b_vert
0
HATCH
5
D9
100
AcDbEntity
8
SK2
62
256
6
ByLayer
370
13
48
1
60
0
100
AcDbHatch
10
0
20
0
30
0
210
0
220
0
230
1
2
ANSI31
70
0
71
0
91
1
92
5
93
3
72
1
10
-29.6898
20
-1.5
11
-29.2290162584472
21
-4.99999830744682
72
1
10
-29.2290162584472
20
-4.99999830744682
11
-30.1505837415528
21
-5.00000169255318
72
1
10
-30.1505837415528
20
-5.00000169255318
11
-29.6898
21
-1.5
97
0
75
0
76
1
52
0
41
0.0062
77
0
78
1
53
45
43
0
44
0
45
-0.0139193969876572
46
0.0139193969876572
79
0
47
0
98
1
10
0
20
0
0
HATCH
5
DD
100
AcDbEntity
8
SK2
62
256
6
ByLayer
370
13
48
1
60
0
100
AcDbHatch
10
0
20
0
30
0
210
0
220
0
230
1
2
ANSI31
70
0
71
0
91
1
92
5
93
3
72
1
10
-29.6898
20
1.5
11
-30.1505837415528
21
4.99999830744682
72
1
10
-30.1505837415528
20
4.99999830744682
11
-29.2290162584472
21
5.00000169255318
72
1
10
-29.2290162584472
20
5.00000169255318
11
-29.6898
21
1.5
97
0
75
0
76
1
52
0
41
0.0062
77
0
78
1
53
45
43
0
44
0
45
-0.0139193969876572
46
0.0139193969876572
79
0
47
0
98
1
10
0
20
0
0
HATCH
5
E3
100
AcDbEntity
8
2
62
256
6
ByLayer
370
13
48
1
60
0
100
AcDbHatch
10
0
20
0
30
0
210
0
220
0
230
1
2
ANSI31
70
0
71
0
91
1
92
5
93
3
72
1
10
18.3102
20
-0.724999999999994
11
18.7709837415528
21
-4.22499830744681
72
1
10
18.7709837415528
20
-4.22499830744681
11
17.8494162584472
21
-4.22500169255318
72
1
10
17.8494162584472
20
-4.22500169255318
11
18.3102
21
-0.724999999999994
97
0
75
0
76
1
52
0
41
0.0062
77
0
78
1
53
45
43
0
44
0
45
-0.0139193969876572
46
0.0139193969876572
79
0
47
0
98
1
10
0
20
0
0
HATCH
5
E7
100
AcDbEntity
8
2
62
256
6
ByLayer
370
13
48
1
60
0
100
AcDbHatch
10
0
20
0
30
0
210
0
220
0
230
1
2
ANSI31
70
0
71
0
91
1
92
5
93
3
72
1
10
18.3102
20
0.724999999999994
11
17.8494162584472
21
4.22499830744681
72
1
10
17.8494162584472
20
4.22499830744681
11
18.7709837415528
21
4.22500169255318
72
1
10
18.7709837415528
20
4.22500169255318
11
18.3102
21
0.724999999999994
97
0
75
0
76
1
52
0
41
0.0062
77
0
78
1
53
45
43
0
44
0
45
-0.0139193969876572
46
0.0139193969876572
79
0
47
0
98
1
10
0
20
0
0
HATCH
5
EC
100
AcDbEntity
8
SK2
62
256
6
ByLayer
370
13
48
1
60
0
100
AcDbHatch
10
0
20
0
30
0
210
0
220
0
230
1
2
ANSI31
70
0
71
0
91
1
92
5
93
3
72
1
10
19.7200085794605
20
-14.8181323180492
11
22.5920418553693
21
-12.765393983365
72
1
10
22.5920418553693
20
-12.765393983365
11
23.0254706127348
21
-13.5786750775861
72
1
10
23.0254706127348
20
-13.5786750775861
11
19.7200085794605
21
-14.8181323180492
97
0
75
0
76
1
52
0
41
0.0062
77
0
78
1
53
45
43
0
44
0
45
-0.0139193969876572
46
0.0139193969876572
79
0
47
0
98
1
10
0
20
0
0
HATCH
5
F0
100
AcDbEntity
8
SK2
62
256
6
ByLayer
370
13
48
1
60
0
100
AcDbHatch
10
0
20
0
30
0
210
0
220
0
230
1
2
ANSI31
70
0
71
0
91
1
92
5
93
3
72
1
10
19.7200085794605
20
14.8181323180492
11
23.0254676253807
21
13.5786766696479
72
1
10
23.0254676253807
20
13.5786766696479
11
22.5920448427234
21
12.7653923913032
72
1
10
22.5920448427234
20
12.7653923913032
11
19.7200085794605
21
14.8181323180492
97
0
75
0
76
1
52
0
41
0.0062
77
0
78
1
53
45
43
0
44
0
45
-0.0139193969876572
46
0.0139193969876572
79
0
47
0
98
1
10
0
20
0
0
DIMENSION
5
F4
100
AcDbEntity
8
SK2
62
256
6
ByLayer
370
18
48
1
60
0
100
AcDbDimension
2
_U0
10
12.8102
20
-35.85
30
0
11
-6.1898
21
-35.85
31
0
70
32
71
1
72
1
41
1
210
0
220
0
230
1
3
Standard
100
AcDbAlignedDimension
13
-25.1898
23
1.5
33
0
14
12.8102
24
0.725
34
0
50
0
100
AcDbRotatedDimension
1001
ACAD
1000
DSTYLE
1002
{
1070
   371
1070
    13
1070
   372
1070
    13
1070
     3
1000

1070
   170
1070
     0
1070
   144
1040
1.0
1070
   277
1070
     2
1070
   284
1070
     8
1070
   278
1070
    46
1070
   146
1040
1.166667
1070
   345
1005
16
1070
   347
1005
16
1070
   346
1005
16
1070
   344
1005
0
1070
   343
1005
0
1070
   172
1070
     1
1070
    76
1070
     0
1070
    75
1070
     0
1070
   282
1070
     0
1070
   281
1070
     0
1070
    71
1070
     0
1070
    74
1070
     0
1070
   279
1070
     0
1070
   173
1070
     1
1070
   340
1005
D3
1070
   271
1070
     2
1070
   272
1070
     2
1070
    77
1070
     1
1070
    73
1070
     1
1070
   171
1070
     3
1070
   274
1070
     4
1070
   177
1070
     2
1070
   176
1070
     2
1070
   178
1070
     2
1070
    78
1070
     8
1070
    48
1040
-0.1
1070
    41
1040
3.5
1070
   147
1040
1.5
1070
    42
1040
1.5875
1070
    44
1040
2.0
1070
   140
1040
3.0
1002
}
1001
ACAD_DSTYLE_DIM_LINETYPE
1070
   380
1005
16
1001
ACAD_DSTYLE_DIM_EXT1_LINETYPE
1070
   381
1005
16
1001
ACAD_DSTYLE_DIM_EXT2_LINETYPE
1070
   382
1005
16
0
DIMENSION
5
10D
100
AcDbEntity
8
SK2
62
256
6
ByLayer
370
18
48
1
60
0
100
AcDbDimension
2
_U1
10
5.7852
20
-22.225
30
0
11
28.881629
21
-22.225
31
0
70
32
71
1
72
1
41
1
210
0
220
0
230
1
3
Standard
100
AcDbAlignedDimension
13
12.8102
23
0.725
33
0
14
5.7852
24
0
34
0
50
0
100
AcDbRotatedDimension
1001
ACAD
1000
DSTYLE
1002
{
1070
   371
1070
    13
1070
   372
1070
    13
1070
     3
1000

1070
   170
1070
     0
1070
   144
1040
1.0
1070
   277
1070
     2
1070
   284
1070
     8
1070
   278
1070
    46
1070
   146
1040
1.166667
1070
   345
1005
16
1070
   347
1005
16
1070
   346
1005
16
1070
   344
1005
0
1070
   343
1005
0
1070
   172
1070
     1
1070
    76
1070
     0
1070
    75
1070
     0
1070
   282
1070
     0
1070
   281
1070
     0
1070
    71
1070
     0
1070
    74
1070
     0
1070
   279
1070
     0
1070
   173
1070
     1
1070
   340
1005
D3
1070
   271
1070
     2
1070
   272
1070
     2
1070
    77
1070
     1
1070
    73
1070
     1
1070
   171
1070
     3
1070
   274
1070
     4
1070
   177
1070
     2
1070
   176
1070
     2
1070
   178
1070
     2
1070
    78
1070
     8
1070
    48
1040
-0.1
1070
    41
1040
3.5
1070
   147
1040
1.5
1070
    42
1040
1.5875
1070
    44
1040
2.0
1070
   140
1040
3.0
1002
}
1001
ACAD_DSTYLE_DIM_LINETYPE
1070
   380
1005
16
1001
ACAD_DSTYLE_DIM_EXT1_LINETYPE
1070
   381
1005
16
1001
ACAD_DSTYLE_DIM_EXT2_LINETYPE
1070
   382
1005
16
0
DIMENSION
5
127
100
AcDbEntity
8
SK2
62
256
6
ByLayer
370
18
48
1
60
0
100
AcDbDimension
2
_U2
10
3.6102
20
-30.225
30
0
11
27.453057
21
-30.225
31
0
70
32
71
1
72
1
41
1
210
0
220
0
230
1
3
Standard
100
AcDbAlignedDimension
13
12.8102
23
0.725
33
0
14
3.6102
24
0
34
0
50
0
100
AcDbRotatedDimension
1001
ACAD
1000
DSTYLE
1002
{
1070
   371
1070
    13
1070
   372
1070
    13
1070
     3
1000

1070
   170
1070
     0
1070
   144
1040
1.0
1070
   277
1070
     2
1070
   284
1070
     8
1070
   278
1070
    46
1070
   146
1040
1.166667
1070
   345
1005
16
1070
   347
1005
16
1070
   346
1005
16
1070
   344
1005
0
1070
   343
1005
0
1070
   172
1070
     1
1070
    76
1070
     0
1070
    75
1070
     0
1070
   282
1070
     0
1070
   281
1070
     0
1070
    71
1070
     0
1070
    74
1070
     0
1070
   279
1070
     0
1070
   173
1070
     1
1070
   340
1005
D3
1070
   271
1070
     2
1070
   272
1070
     2
1070
    77
1070
     1
1070
    73
1070
     1
1070
   171
1070
     3
1070
   274
1070
     4
1070
   177
1070
     2
1070
   176
1070
     2
1070
   178
1070
     2
1070
    78
1070
     8
1070
    48
1040
-0.1
1070
    41
1040
3.5
1070
   147
1040
1.5
1070
    42
1040
1.5875
1070
    44
1040
2.0
1070
   140
1040
3.0
1002
}
1001
ACAD_DSTYLE_DIM_LINETYPE
1070
   380
1005
16
1001
ACAD_DSTYLE_DIM_EXT1_LINETYPE
1070
   381
1005
16
1001
ACAD_DSTYLE_DIM_EXT2_LINETYPE
1070
   382
1005
16
0
DIMENSION
5
141
100
AcDbEntity
8
SK2
62
256
6
ByLayer
370
18
48
1
60
0
100
AcDbDimension
2
_U3
10
0
20
11.35
30
0
11
-12.5949
21
11.35
31
0
70
32
71
1
72
1
41
1
210
0
220
0
230
1
3
Standard
100
AcDbAlignedDimension
13
-25.1898
23
0
33
0
14
0
24
0
34
0
50
0
100
AcDbRotatedDimension
1001
ACAD
1000
DSTYLE
1002
{
1070
   371
1070
    13
1070
   372
1070
    13
1070
     3
1000

1070
   170
1070
     0
1070
   144
1040
1.0
1070
   277
1070
     2
1070
   284
1070
     8
1070
   278
1070
    46
1070
   146
1040
1.166667
1070
   345
1005
16
1070
   347
1005
16
1070
   346
1005
16
1070
   344
1005
0
1070
   343
1005
0
1070
   172
1070
     1
1070
    76
1070
     0
1070
    75
1070
     0
1070
   282
1070
     0
1070
   281
1070
     0
1070
    71
1070
     0
1070
    74
1070
     0
1070
   279
1070
     0
1070
   173
1070
     1
1070
   340
1005
D3
1070
   271
1070
     2
1070
   272
1070
     2
1070
    77
1070
     1
1070
    73
1070
     1
1070
   171
1070
     3
1070
   274
1070
     4
1070
   177
1070
     2
1070
   176
1070
     2
1070
   178
1070
     2
1070
    78
1070
     8
1070
    48
1040
-0.1
1070
    41
1040
3.5
1070
   147
1040
1.5
1070
    42
1040
1.5875
1070
    44
1040
2.0
1070
   140
1040
3.0
1002
}
1001
ACAD_DSTYLE_DIM_LINETYPE
1070
   380
1005
16
1001
ACAD_DSTYLE_DIM_EXT1_LINETYPE
1070
   381
1005
16
1001
ACAD_DSTYLE_DIM_EXT2_LINETYPE
1070
   382
1005
16
0
DIMENSION
5
159
100
AcDbEntity
8
2
62
256
6
ByLayer
370
18
48
1
60
0
100
AcDbDimension
2
_U4
10
0
20
11.35
30
0
11
6.4051
21
11.35
31
0
70
32
71
1
72
1
41
1
210
0
220
0
230
1
3
Standard
100
AcDbAlignedDimension
13
12.8102
23
0.725
33
0
14
0
24
0
34
0
50
0
100
AcDbRotatedDimension
1001
ACAD
1000
DSTYLE
1002
{
1070
   371
1070
    13
1070
   372
1070
    13
1070
     3
1000

1070
   170
1070
     0
1070
   144
1040
1.0
1070
   277
1070
     2
1070
   284
1070
     8
1070
   278
1070
    46
1070
   146
1040
1.166667
1070
   345
1005
16
1070
   347
1005
16
1070
   346
1005
16
1070
   344
1005
0
1070
   343
1005
0
1070
   172
1070
     1
1070
    76
1070
     0
1070
    75
1070
     0
1070
   282
1070
     0
1070
   281
1070
     0
1070
    71
1070
     0
1070
    74
1070
     0
1070
   279
1070
     0
1070
   173
1070
     1
1070
   340
1005
D3
1070
   271
1070
     2
1070
   272
1070
     2
1070
    77
1070
     1
1070
    73
1070
     1
1070
   171
1070
     3
1070
   274
1070
     4
1070
   177
1070
     2
1070
   176
1070
     2
1070
   178
1070
     2
1070
    78
1070
     8
1070
    48
1040
-0.1
1070
    41
1040
3.5
1070
   147
1040
1.5
1070
    42
1040
1.5875
1070
    44
1040
2.0
1070
   140
1040
3.0
1002
}
1001
ACAD_DSTYLE_DIM_LINETYPE
1070
   380
1005
16
1001
ACAD_DSTYLE_DIM_EXT1_LINETYPE
1070
   381
1005
16
1001
ACAD_DSTYLE_DIM_EXT2_LINETYPE
1070
   382
1005
16
0
ENDSEC
0
SECTION
2
OBJECTS
0
DICTIONARY
5
1e2
330
0
100
AcDbDictionary
280
0
281
1
3
ACAD_GROUP
350
1e3
3
ACAD_MLINESTYLE
350
1e4
0
DICTIONARY
5
1e3
330
0
100
AcDbDictionary
280
0
281
1
0
DICTIONARY
5
1e4
330
0
100
AcDbDictionary
280
0
281
1
3
Standard
350
18
0
MLINESTYLE
5
18
330
1e4
100
AcDbMlineStyle
2
Standard
70
0
3

62
256
51
90
52
90
71
2
49
-0.5
62
256
6
ByLayer
49
0.5
62
256
6
ByLayer
0
RASTERVARIABLES
5
1d0
330

100
AcDbRasterVariables
90
0
70
1
71
1
72
1
0
ENDSEC
0
EOF
