0
SECTION
2
HEADER
9
$ACADVER
1
AC1015
9
$DWGCODEPAGE
3
ANSI_1252
9
$HANDSEED
5
1ec
9
$ANGBASE
50
0
9
$ANGDIR
70
0
9
$ATTMODE
70
1
9
$AUNITS
70
0
9
$AUPREC
70
0
9
$CECOLOR
62
256
9
$CELTSCALE
40
1
9
$CELTYPE
6
ByLayer
9
$CELWEIGHT
370
18
9
$CLAYER
8
0
9
$CMLJUST
70
0
9
$CMLSCALE
40
1
9
$CMLSTYLE
2
Standard
9
$DIMSTYLE
2
Standard
9
$TEXTSIZE
40
0.2
9
$TEXTSTYLE
7
Standard
9
$LUNITS
70
2
9
$LUPREC
70
4
9
$EXTNAMES
290
1
9
$INSUNITS
70
4
9
$LTSCALE
40
1
9
$LWDISPLAY
290
1
9
$PDMODE
70
0
9
$PDSIZE
40
0
9
$PLINEGEN
70
0
0
ENDSEC
0
SECTION
2
CLASSES
0
CLASS
1
RASTERVARIABLES
2
AcDbRasterVariables
3
ISM
90
0
280
0
281
0
0
ENDSEC
0
SECTION
2
TABLES
0
TABLE
2
VPORT
5
1e2
100
AcDbSymbolTable
0
VPORT
5
1
100
AcDbSymbolTableRecord
100
AcDbViewportTableRecord
2
*Active
70
0
10
0
20
0
11
1
21
1
12
-1
22
1
13
0
23
0
14
0.5
24
0.5
15
10
25
10
16
0
26
0
36
1
17
0
27
0
37
0
0
ENDTAB
0
TABLE
2
LTYPE
5
1e3
100
AcDbSymbolTable
0
LTYPE
5
14
100
AcDbSymbolTableRecord
100
AcDbLinetypeTableRecord
70
0
2
ByBlock
3

72
65
73
0
40
0
0
LTYPE
5
15
100
AcDbSymbolTableRecord
100
AcDbLinetypeTableRecord
70
0
2
ByLayer
3

72
65
73
0
40
0
0
LTYPE
5
16
100
AcDbSymbolTableRecord
100
AcDbLinetypeTableRecord
70
0
2
Continuous
3
Solid line
72
65
73
0
40
0
0
LTYPE
5
6E
100
AcDbSymbolTableRecord
100
AcDbLinetypeTableRecord
70
0
2
CENTER
3
____ _ ____ _ ____ _ ____
72
65
73
4
40
47.5
49
22
74
0
49
-8.5
74
0
49
8.5
74
0
49
-8.5
74
0
0
LTYPE
5
6F
100
AcDbSymbolTableRecord
100
AcDbLinetypeTableRecord
70
0
2
DASHED
3
__ __ __ __ __ __ __ __ __
72
65
73
2
40
25.72
49
12.86
74
0
49
-12.86
74
0
0
ENDTAB
0
TABLE
2
LAYER
5
1e4
100
AcDbSymbolTable
0
LAYER
5
10
100
AcDbSymbolTableRecord
100
AcDbLayerTableRecord
2
0
70
0
62
7
6
Continuous
290
1
370
-3
390
0
0
LAYER
5
71
100
AcDbSymbolTableRecord
100
AcDbLayerTableRecord
2
80
70
0
62
-6
6
Continuous
290
1
370
-3
390
0
0
LAYER
5
73
100
AcDbSymbolTableRecord
100
AcDbLayerTableRecord
2
81
70
0
62
-3
6
Continuous
290
1
370
-3
390
0
0
LAYER
5
75
100
AcDbSymbolTableRecord
100
AcDbLayerTableRecord
2
1
70
0
62
4
6
Continuous
290
1
370
-3
390
0
0
LAYER
5
99
100
AcDbSymbolTableRecord
100
AcDbLayerTableRecord
2
4
70
0
62
-2
6
CENTER
290
1
370
-3
390
0
0
LAYER
5
A9
100
AcDbSymbolTableRecord
100
AcDbLayerTableRecord
2
2
70
0
62
7
6
Continuous
290
1
370
-3
390
0
0
LAYER
5
F4
100
AcDbSymbolTableRecord
100
AcDbLayerTableRecord
2
Defpoints
70
0
62
7
6
Continuous
290
0
370
-3
390
0
0
LAYER
5
1ce
100
AcDbSymbolTableRecord
100
AcDbLayerTableRecord
2
SK1
70
0
62
4
6
Continuous
290
1
370
-3
390
0
0
LAYER
5
1cf
100
AcDbSymbolTableRecord
100
AcDbLayerTableRecord
2
SK4
70
0
62
2
6
CENTER
290
1
370
-3
390
0
0
LAYER
5
1d0
100
AcDbSymbolTableRecord
100
AcDbLayerTableRecord
2
SK2
70
0
62
7
6
Continuous
290
1
370
-3
390
0
0
LAYER
5
1d1
100
AcDbSymbolTableRecord
100
AcDbLayerTableRecord
2
SK6
70
0
62
5
6
Continuous
290
1
370
-3
390
0
0
ENDTAB
0
TABLE
2
STYLE
5
1e5
100
AcDbSymbolTable
0
STYLE
5
11
100
AcDbSymbolTableRecord
100
AcDbTextStyleTableRecord
2
Standard
3
txt
70
0
71
0
40
0
41
1
42
0
50
0
0
STYLE
5
D0
100
AcDbSymbolTableRecord
100
AcDbTextStyleTableRecord
2
iso_b_vert
3
simplex.shx
70
0
71
0
40
0
41
1
42
0
50
0
0
STYLE
5
D1
100
AcDbSymbolTableRecord
100
AcDbTextStyleTableRecord
2
DWGDirectTextStyle
3
simplex
70
0
71
0
40
0
41
1
42
0
50
0
0
ENDTAB
0
TABLE
2
DIMSTYLE
5
1e6
100
AcDbSymbolTable
100
AcDbDimStyleTable
0
DIMSTYLE
105
27
100
AcDbSymbolTableRecord
100
AcDbDimStyleTableRecord
2
Standard
70
0
3
<>
41
0.18
42
0.0625
44
0.18
140
0.18
147
0.09
73
0
74
0
77
1
271
2
275
0
278
52
280
0
340
11
0
ENDTAB
0
TABLE
2
VIEW
5
1e7
100
AcDbSymbolTable
0
ENDTAB
0
TABLE
2
UCS
5
1e8
100
AcDbSymbolTable
0
ENDTAB
0
TABLE
2
APPID
5
1e9
100
AcDbSymbolTable
0
APPID
5
12
100
AcDbSymbolTableRecord
100
AcDbRegAppTableRecord
2
ACAD
70
0
0
APPID
5
F0
100
AcDbSymbolTableRecord
100
AcDbRegAppTableRecord
2
ACAD_DSTYLE_DIMBREAK
70
0
0
APPID
5
18D
100
AcDbSymbolTableRecord
100
AcDbRegAppTableRecord
2
ACAD_DSTYLE_DIM_LINETYPE
70
0
0
APPID
5
18E
100
AcDbSymbolTableRecord
100
AcDbRegAppTableRecord
2
ACAD_DSTYLE_DIM_EXT1_LINETYPE
70
0
0
APPID
5
18F
100
AcDbSymbolTableRecord
100
AcDbRegAppTableRecord
2
ACAD_DSTYLE_DIM_EXT2_LINETYPE
70
0
0
APPID
5
1CA
100
AcDbSymbolTableRecord
100
AcDbRegAppTableRecord
2
ACAD_MLEADERVER
70
0
0
ENDTAB
0
TABLE
2
BLOCK_RECORD
5
1ea
100
AcDbSymbolTable
0
BLOCK_RECORD
5
1F
100
AcDbSymbolTableRecord
100
AcDbBlockTableRecord
2
*Model_Space
340
0
70
0
0
BLOCK_RECORD
5
1B
100
AcDbSymbolTableRecord
100
AcDbBlockTableRecord
2
*Paper_Space
340
0
70
0
0
BLOCK_RECORD
5
23
100
AcDbSymbolTableRecord
100
AcDbBlockTableRecord
2
*Paper_Space0
340
0
70
0
0
BLOCK_RECORD
5
F5
100
AcDbSymbolTableRecord
100
AcDbBlockTableRecord
2
*D1
340
0
70
0
0
BLOCK_RECORD
5
101
100
AcDbSymbolTableRecord
100
AcDbBlockTableRecord
2
_U0
340
0
70
0
0
BLOCK_RECORD
5
10D
100
AcDbSymbolTableRecord
100
AcDbBlockTableRecord
2
*D3
340
0
70
0
0
BLOCK_RECORD
5
11B
100
AcDbSymbolTableRecord
100
AcDbBlockTableRecord
2
_U1
340
0
70
0
0
BLOCK_RECORD
5
127
100
AcDbSymbolTableRecord
100
AcDbBlockTableRecord
2
*D5
340
0
70
0
0
BLOCK_RECORD
5
135
100
AcDbSymbolTableRecord
100
AcDbBlockTableRecord
2
_U2
340
0
70
0
0
BLOCK_RECORD
5
141
100
AcDbSymbolTableRecord
100
AcDbBlockTableRecord
2
*D7
340
0
70
0
0
BLOCK_RECORD
5
14D
100
AcDbSymbolTableRecord
100
AcDbBlockTableRecord
2
_U3
340
0
70
0
0
BLOCK_RECORD
5
159
100
AcDbSymbolTableRecord
100
AcDbBlockTableRecord
2
*D9
340
0
70
0
0
BLOCK_RECORD
5
166
100
AcDbSymbolTableRecord
100
AcDbBlockTableRecord
2
_U4
340
0
70
0
0
ENDTAB
0
ENDSEC
0
SECTION
2
BLOCKS
0
BLOCK
5
20
100
AcDbEntity
8
0
100
AcDbBlockBegin
2
*Model_Space
70
0
10
0
20
0
30
0
3
*Model_Space
0
ENDBLK
5
21
100
AcDbEntity
8
0
100
AcDbBlockEnd
0
BLOCK
5
1C
100
AcDbEntity
8
0
100
AcDbBlockBegin
2
*Paper_Space
70
0
10
0
20
0
30
0
3
*Paper_Space
0
ENDBLK
5
1D
100
AcDbEntity
8
0
100
AcDbBlockEnd
0
BLOCK
5
24
100
AcDbEntity
8
0
100
AcDbBlockBegin
2
*Paper_Space0
70
0
10
0
20
0
30
0
3
*Paper_Space0
0
ENDBLK
5
25
100
AcDbEntity
8
0
100
AcDbBlockEnd
0
BLOCK
5
F6
100
AcDbEntity
8
0
100
AcDbBlockBegin
2
*D1
70
1
10
0
20
0
30
0
3
*D1
0
LINE
5
F8
100
AcDbEntity
8
0
62
256
6
ByLayer
370
-2
48
1
60
0
100
AcDbLine
10
-25.2244
20
-0.0875
30
0
11
-25.2244
21
-37.85
31
0
39
0
210
0
220
0
230
1
0
LINE
5
F9
100
AcDbEntity
8
0
62
256
6
ByLayer
370
-2
48
1
60
0
100
AcDbLine
10
12.7756
20
-0.8425
30
0
11
12.7756
21
-37.85
31
0
39
0
210
0
220
0
230
1
0
LINE
5
FA
100
AcDbEntity
8
0
62
256
6
ByLayer
370
-2
48
1
60
0
100
AcDbLine
10
-21.7244
20
-35.85
30
0
11
9.2756
21
-35.85
31
0
39
0
210
0
220
0
230
1
0
SOLID
5
FB
100
AcDbEntity
8
0
62
256
6
ByLayer
370
-1
48
1
60
0
100
AcDbTrace
10
-21.7244
20
-35.266667
30
0
11
-21.7244
21
-36.433333
31
0
12
-25.2244
22
-35.85
32
0
13
-25.2244
23
-35.85
33
0
39
0
210
0
220
0
230
1
0
SOLID
5
FC
100
AcDbEntity
8
0
62
256
6
ByLayer
370
-1
48
1
60
0
100
AcDbTrace
10
9.2756
20
-36.433333
30
0
11
9.2756
21
-35.266667
31
0
12
12.7756
22
-35.85
32
0
13
12.7756
23
-35.85
33
0
39
0
210
0
220
0
230
1
0
MTEXT
5
FD
100
AcDbEntity
8
0
62
256
6
ByLayer
370
18
48
1
60
0
100
AcDbMText
10
-6.2244
20
-29.85
30
0
210
0
220
0
230
1
1
\A1;38
40
3
41
0
44
1
50
0
71
5
72
5
7
iso_b_vert
0
POINT
5
FE
100
AcDbEntity
8
Defpoints
62
0
6
ByLayer
370
-1
48
1
60
0
100
AcDbPoint
10
-25.2244
20
1.5
30
0
39
0
210
0
220
0
230
1
50
360
0
POINT
5
FF
100
AcDbEntity
8
Defpoints
62
0
6
ByLayer
370
-1
48
1
60
0
100
AcDbPoint
10
12.7756
20
0.745
30
0
39
0
210
0
220
0
230
1
50
360
0
POINT
5
100
100
AcDbEntity
8
Defpoints
62
0
6
ByLayer
370
-1
48
1
60
0
100
AcDbPoint
10
12.7756
20
-35.85
30
0
39
0
210
0
220
0
230
1
50
360
0
ENDBLK
5
F7
100
AcDbEntity
8
0
100
AcDbBlockEnd
0
BLOCK
5
108
100
AcDbEntity
8
0
100
AcDbBlockBegin
2
_U0
70
0
10
0
20
0
30
0
3
_U0
0
MTEXT
5
102
100
AcDbEntity
8
SK2
62
256
6
ByLayer
370
18
48
1
60
0
100
AcDbMText
10
-10.70677
20
-34.964886
30
0
210
0
220
0
230
1
1
\W0.7468;38.00
40
3
41
0
44
1.084337
50
0
71
7
72
5
7
iso_b_vert
0
LINE
5
103
100
AcDbEntity
8
SK2
62
256
6
ByLayer
370
13
48
1
60
0
100
AcDbLine
10
-25.2244
20
-0.0875
30
0
11
-25.2244
21
-37.85
31
0
39
0
210
0
220
0
230
1
0
LINE
5
104
100
AcDbEntity
8
SK2
62
256
6
ByLayer
370
13
48
1
60
0
100
AcDbLine
10
12.7756
20
-0.8425
30
0
11
12.7756
21
-37.85
31
0
39
0
210
0
220
0
230
1
0
LINE
5
105
100
AcDbEntity
8
SK2
62
256
6
ByLayer
370
13
48
1
60
0
100
AcDbLine
10
-25.2244
20
-35.85
30
0
11
12.7756
21
-35.85
31
0
39
0
210
0
220
0
230
1
0
SOLID
5
106
100
AcDbEntity
8
SK2
62
256
6
ByLayer
370
18
48
1
60
0
100
AcDbTrace
10
-25.2244
20
-35.85
30
0
11
-21.724402
21
-35.389216
31
0
12
-21.724398
22
-36.310784
32
0
13
-21.724398
23
-36.310784
33
0
39
0
210
0
220
0
230
1
0
SOLID
5
107
100
AcDbEntity
8
SK2
62
256
6
ByLayer
370
18
48
1
60
0
100
AcDbTrace
10
12.7756
20
-35.85
30
0
11
9.275602
21
-36.310784
31
0
12
9.275598
22
-35.389216
32
0
13
9.275598
23
-35.389216
33
0
39
0
210
0
220
0
230
1
0
ENDBLK
5
109
100
AcDbEntity
8
0
100
AcDbBlockEnd
0
BLOCK
5
10E
100
AcDbEntity
8
0
100
AcDbBlockBegin
2
*D3
70
1
10
0
20
0
30
0
3
*D3
0
LINE
5
110
100
AcDbEntity
8
0
62
256
6
ByLayer
370
-2
48
1
60
0
100
AcDbLine
10
12.7756
20
-0.8425
30
0
11
12.7756
21
-24.245
31
0
39
0
210
0
220
0
230
1
0
LINE
5
111
100
AcDbEntity
8
0
62
256
6
ByLayer
370
-2
48
1
60
0
100
AcDbLine
10
5.8106
20
-1.5875
30
0
11
5.8106
21
-24.245
31
0
39
0
210
0
220
0
230
1
0
LINE
5
112
100
AcDbEntity
8
0
62
256
6
ByLayer
370
-2
48
1
60
0
100
AcDbLine
10
12.7756
20
-22.245
30
0
11
37.7756
21
-22.245
31
0
39
0
210
0
220
0
230
1
0
LINE
5
113
100
AcDbEntity
8
0
62
256
6
ByLayer
370
-2
48
1
60
0
100
AcDbLine
10
16.2756
20
-22.245
30
0
11
19.7756
21
-22.245
31
0
39
0
210
0
220
0
230
1
0
LINE
5
114
100
AcDbEntity
8
0
62
256
6
ByLayer
370
-2
48
1
60
0
100
AcDbLine
10
2.3106
20
-22.245
30
0
11
-1.1894
21
-22.245
31
0
39
0
210
0
220
0
230
1
0
SOLID
5
115
100
AcDbEntity
8
0
62
256
6
ByLayer
370
-1
48
1
60
0
100
AcDbTrace
10
16.2756
20
-21.661667
30
0
11
16.2756
21
-22.828333
31
0
12
12.7756
22
-22.245
32
0
13
12.7756
23
-22.245
33
0
39
0
210
0
220
0
230
1
0
SOLID
5
116
100
AcDbEntity
8
0
62
256
6
ByLayer
370
-1
48
1
60
0
100
AcDbTrace
10
2.3106
20
-22.828333
30
0
11
2.3106
21
-21.661667
31
0
12
5.8106
22
-22.245
32
0
13
5.8106
23
-22.245
33
0
39
0
210
0
220
0
230
1
0
MTEXT
5
117
100
AcDbEntity
8
0
62
256
6
ByLayer
370
18
48
1
60
0
100
AcDbMText
10
28.7756
20
-16.245
30
0
210
0
220
0
230
1
1
\A1;6.97
40
3
41
0
44
1
50
0
71
5
72
5
7
iso_b_vert
0
POINT
5
118
100
AcDbEntity
8
Defpoints
62
0
6
ByLayer
370
-1
48
1
60
0
100
AcDbPoint
10
12.7756
20
0.745
30
0
39
0
210
0
220
0
230
1
50
360
0
POINT
5
119
100
AcDbEntity
8
Defpoints
62
0
6
ByLayer
370
-1
48
1
60
0
100
AcDbPoint
10
5.8106
20
0
30
0
39
0
210
0
220
0
230
1
50
360
0
POINT
5
11A
100
AcDbEntity
8
Defpoints
62
0
6
ByLayer
370
-1
48
1
60
0
100
AcDbPoint
10
5.8106
20
-22.245
30
0
39
0
210
0
220
0
230
1
50
360
0
ENDBLK
5
10F
100
AcDbEntity
8
0
100
AcDbBlockEnd
0
BLOCK
5
122
100
AcDbEntity
8
0
100
AcDbBlockBegin
2
_U1
70
0
10
0
20
0
30
0
3
_U1
0
MTEXT
5
11C
100
AcDbEntity
8
SK2
62
256
6
ByLayer
370
18
48
1
60
0
100
AcDbMText
10
16.9346
20
-21.359886
30
0
210
0
220
0
230
1
1
\W0.7051;(6.96)
40
3
41
0
44
1.084337
50
0
71
7
72
5
7
iso_b_vert
0
LINE
5
11D
100
AcDbEntity
8
SK2
62
256
6
ByLayer
370
13
48
1
60
0
100
AcDbLine
10
12.7756
20
-0.8425
30
0
11
12.7756
21
-24.245
31
0
39
0
210
0
220
0
230
1
0
LINE
5
11E
100
AcDbEntity
8
SK2
62
256
6
ByLayer
370
13
48
1
60
0
100
AcDbLine
10
5.8106
20
-1.5875
30
0
11
5.8106
21
-24.245
31
0
39
0
210
0
220
0
230
1
0
LINE
5
11F
100
AcDbEntity
8
SK2
62
256
6
ByLayer
370
13
48
1
60
0
100
AcDbLine
10
-1.6894
20
-22.245
30
0
11
26.247369
21
-22.245
31
0
39
0
210
0
220
0
230
1
0
SOLID
5
120
100
AcDbEntity
8
SK2
62
256
6
ByLayer
370
18
48
1
60
0
100
AcDbTrace
10
12.7756
20
-22.245
30
0
11
16.275598
21
-21.784216
31
0
12
16.275602
22
-22.705784
32
0
13
16.275602
23
-22.705784
33
0
39
0
210
0
220
0
230
1
0
SOLID
5
121
100
AcDbEntity
8
SK2
62
256
6
ByLayer
370
18
48
1
60
0
100
AcDbTrace
10
5.8106
20
-22.245
30
0
11
2.310602
21
-22.705784
31
0
12
2.310598
22
-21.784216
32
0
13
2.310598
23
-21.784216
33
0
39
0
210
0
220
0
230
1
0
ENDBLK
5
123
100
AcDbEntity
8
0
100
AcDbBlockEnd
0
BLOCK
5
128
100
AcDbEntity
8
0
100
AcDbBlockBegin
2
*D5
70
1
10
0
20
0
30
0
3
*D5
0
LINE
5
12A
100
AcDbEntity
8
0
62
256
6
ByLayer
370
-2
48
1
60
0
100
AcDbLine
10
12.7756
20
-0.8425
30
0
11
12.7756
21
-32.245
31
0
39
0
210
0
220
0
230
1
0
LINE
5
12B
100
AcDbEntity
8
0
62
256
6
ByLayer
370
-2
48
1
60
0
100
AcDbLine
10
3.5756
20
-1.5875
30
0
11
3.5756
21
-32.245
31
0
39
0
210
0
220
0
230
1
0
LINE
5
12C
100
AcDbEntity
8
0
62
256
6
ByLayer
370
-2
48
1
60
0
100
AcDbLine
10
12.7756
20
-30.245
30
0
11
35.061314
21
-30.245
31
0
39
0
210
0
220
0
230
1
0
LINE
5
12D
100
AcDbEntity
8
0
62
256
6
ByLayer
370
-2
48
1
60
0
100
AcDbLine
10
16.2756
20
-30.245
30
0
11
19.7756
21
-30.245
31
0
39
0
210
0
220
0
230
1
0
LINE
5
12E
100
AcDbEntity
8
0
62
256
6
ByLayer
370
-2
48
1
60
0
100
AcDbLine
10
0.0756
20
-30.245
30
0
11
-3.4244
21
-30.245
31
0
39
0
210
0
220
0
230
1
0
SOLID
5
12F
100
AcDbEntity
8
0
62
256
6
ByLayer
370
-1
48
1
60
0
100
AcDbTrace
10
16.2756
20
-29.661667
30
0
11
16.2756
21
-30.828333
31
0
12
12.7756
22
-30.245
32
0
13
12.7756
23
-30.245
33
0
39
0
210
0
220
0
230
1
0
SOLID
5
130
100
AcDbEntity
8
0
62
256
6
ByLayer
370
-1
48
1
60
0
100
AcDbTrace
10
0.0756
20
-30.828333
30
0
11
0.0756
21
-29.661667
31
0
12
3.5756
22
-30.245
32
0
13
3.5756
23
-30.245
33
0
39
0
210
0
220
0
230
1
0
MTEXT
5
131
100
AcDbEntity
8
0
62
256
6
ByLayer
370
18
48
1
60
0
100
AcDbMText
10
27.418457
20
-24.245
30
0
210
0
220
0
230
1
1
\A1;9.2
40
3
41
0
44
1
50
0
71
5
72
5
7
iso_b_vert
0
POINT
5
132
100
AcDbEntity
8
Defpoints
62
0
6
ByLayer
370
-1
48
1
60
0
100
AcDbPoint
10
12.7756
20
0.745
30
0
39
0
210
0
220
0
230
1
50
360
0
POINT
5
133
100
AcDbEntity
8
Defpoints
62
0
6
ByLayer
370
-1
48
1
60
0
100
AcDbPoint
10
3.5756
20
0
30
0
39
0
210
0
220
0
230
1
50
360
0
POINT
5
134
100
AcDbEntity
8
Defpoints
62
0
6
ByLayer
370
-1
48
1
60
0
100
AcDbPoint
10
3.5756
20
-30.245
30
0
39
0
210
0
220
0
230
1
50
360
0
ENDBLK
5
129
100
AcDbEntity
8
0
100
AcDbBlockEnd
0
BLOCK
5
13C
100
AcDbEntity
8
0
100
AcDbBlockBegin
2
_U2
70
0
10
0
20
0
30
0
3
_U2
0
MTEXT
5
136
100
AcDbEntity
8
SK2
62
256
6
ByLayer
370
18
48
1
60
0
100
AcDbMText
10
15.9346
20
-29.359886
30
0
210
0
220
0
230
1
1
\W0.7346;9.20
40
3
41
0
44
1.084337
50
0
71
7
72
5
7
iso_b_vert
0
LINE
5
137
100
AcDbEntity
8
SK2
62
256
6
ByLayer
370
13
48
1
60
0
100
AcDbLine
10
12.7756
20
-0.8425
30
0
11
12.7756
21
-32.245
31
0
39
0
210
0
220
0
230
1
0
LINE
5
138
100
AcDbEntity
8
SK2
62
256
6
ByLayer
370
13
48
1
60
0
100
AcDbLine
10
3.5756
20
-1.5875
30
0
11
3.5756
21
-32.245
31
0
39
0
210
0
220
0
230
1
0
LINE
5
139
100
AcDbEntity
8
SK2
62
256
6
ByLayer
370
13
48
1
60
0
100
AcDbLine
10
3.5756
20
-30.245
30
0
11
22.816513
21
-30.245
31
0
39
0
210
0
220
0
230
1
0
SOLID
5
13A
100
AcDbEntity
8
SK2
62
256
6
ByLayer
370
18
48
1
60
0
100
AcDbTrace
10
12.7756
20
-30.245
30
0
11
9.275602
21
-30.705784
31
0
12
9.275598
22
-29.784216
32
0
13
9.275598
23
-29.784216
33
0
39
0
210
0
220
0
230
1
0
SOLID
5
13B
100
AcDbEntity
8
SK2
62
256
6
ByLayer
370
18
48
1
60
0
100
AcDbTrace
10
3.5756
20
-30.245
30
0
11
7.075598
21
-29.784216
31
0
12
7.075602
22
-30.705784
32
0
13
7.075602
23
-30.705784
33
0
39
0
210
0
220
0
230
1
0
ENDBLK
5
13D
100
AcDbEntity
8
0
100
AcDbBlockEnd
0
BLOCK
5
142
100
AcDbEntity
8
0
100
AcDbBlockBegin
2
*D7
70
1
10
0
20
0
30
0
3
*D7
0
LINE
5
144
100
AcDbEntity
8
0
62
256
6
ByLayer
370
-2
48
1
60
0
100
AcDbLine
10
-25.2244
20
1.5875
30
0
11
-25.2244
21
13.35
31
0
39
0
210
0
220
0
230
1
0
LINE
5
145
100
AcDbEntity
8
0
62
256
6
ByLayer
370
-2
48
1
60
0
100
AcDbLine
10
0
20
1.5875
30
0
11
0
21
13.35
31
0
39
0
210
0
220
0
230
1
0
LINE
5
146
100
AcDbEntity
8
0
62
256
6
ByLayer
370
-2
48
1
60
0
100
AcDbLine
10
-21.7244
20
11.35
30
0
11
-3.5
21
11.35
31
0
39
0
210
0
220
0
230
1
0
SOLID
5
147
100
AcDbEntity
8
0
62
256
6
ByLayer
370
-1
48
1
60
0
100
AcDbTrace
10
-21.7244
20
11.933333
30
0
11
-21.7244
21
10.766667
31
0
12
-25.2244
22
11.35
32
0
13
-25.2244
23
11.35
33
0
39
0
210
0
220
0
230
1
0
SOLID
5
148
100
AcDbEntity
8
0
62
256
6
ByLayer
370
-1
48
1
60
0
100
AcDbTrace
10
-3.5
20
10.766667
30
0
11
-3.5
21
11.933333
31
0
12
0
22
11.35
32
0
13
0
23
11.35
33
0
39
0
210
0
220
0
230
1
0
MTEXT
5
149
100
AcDbEntity
8
0
62
256
6
ByLayer
370
18
48
1
60
0
100
AcDbMText
10
-12.6122
20
17.35
30
0
210
0
220
0
230
1
1
\A1;25.22
40
3
41
0
44
1
50
0
71
5
72
5
7
iso_b_vert
0
POINT
5
14A
100
AcDbEntity
8
Defpoints
62
0
6
ByLayer
370
-1
48
1
60
0
100
AcDbPoint
10
-25.2244
20
0
30
0
39
0
210
0
220
0
230
1
50
360
0
POINT
5
14B
100
AcDbEntity
8
Defpoints
62
0
6
ByLayer
370
-1
48
1
60
0
100
AcDbPoint
10
0
20
0
30
0
39
0
210
0
220
0
230
1
50
360
0
POINT
5
14C
100
AcDbEntity
8
Defpoints
62
0
6
ByLayer
370
-1
48
1
60
0
100
AcDbPoint
10
0
20
11.35
30
0
39
0
210
0
220
0
230
1
50
360
0
ENDBLK
5
143
100
AcDbEntity
8
0
100
AcDbBlockEnd
0
BLOCK
5
154
100
AcDbEntity
8
0
100
AcDbBlockBegin
2
_U3
70
0
10
0
20
0
30
0
3
_U3
0
MTEXT
5
14E
100
AcDbEntity
8
SK2
62
256
6
ByLayer
370
18
48
1
60
0
100
AcDbMText
10
-17.09457
20
12.235114
30
0
210
0
220
0
230
1
1
\W0.7468;25.22
40
3
41
0
44
1.084337
50
0
71
7
72
5
7
iso_b_vert
0
LINE
5
14F
100
AcDbEntity
8
SK2
62
256
6
ByLayer
370
13
48
1
60
0
100
AcDbLine
10
-25.2244
20
1.5875
30
0
11
-25.2244
21
13.35
31
0
39
0
210
0
220
0
230
1
0
LINE
5
150
100
AcDbEntity
8
SK2
62
256
6
ByLayer
370
13
48
1
60
0
100
AcDbLine
10
0
20
1.5875
30
0
11
0
21
13.35
31
0
39
0
210
0
220
0
230
1
0
LINE
5
151
100
AcDbEntity
8
SK2
62
256
6
ByLayer
370
13
48
1
60
0
100
AcDbLine
10
-25.2244
20
11.35
30
0
11
0
21
11.35
31
0
39
0
210
0
220
0
230
1
0
SOLID
5
152
100
AcDbEntity
8
SK2
62
256
6
ByLayer
370
18
48
1
60
0
100
AcDbTrace
10
-25.2244
20
11.35
30
0
11
-21.724402
21
11.810784
31
0
12
-21.724398
22
10.889216
32
0
13
-21.724398
23
10.889216
33
0
39
0
210
0
220
0
230
1
0
SOLID
5
153
100
AcDbEntity
8
SK2
62
256
6
ByLayer
370
18
48
1
60
0
100
AcDbTrace
10
0
20
11.35
30
0
11
-3.499998
21
10.889216
31
0
12
-3.500002
22
11.810784
32
0
13
-3.500002
23
11.810784
33
0
39
0
210
0
220
0
230
1
0
ENDBLK
5
155
100
AcDbEntity
8
0
100
AcDbBlockEnd
0
BLOCK
5
15A
100
AcDbEntity
8
0
100
AcDbBlockBegin
2
*D9
70
1
10
0
20
0
30
0
3
*D9
0
LINE
5
15C
100
AcDbEntity
8
0
62
256
6
ByLayer
370
-2
48
1
60
0
100
AcDbLine
10
12.7756
20
2.3325
30
0
11
12.7756
21
13.35
31
0
39
0
210
0
220
0
230
1
0
LINE
5
15D
100
AcDbEntity
8
0
62
256
6
ByLayer
370
-2
48
1
60
0
100
AcDbLine
10
0
20
1.5875
30
0
11
0
21
13.35
31
0
39
0
210
0
220
0
230
1
0
LINE
5
15E
100
AcDbEntity
8
0
62
256
6
ByLayer
370
-2
48
1
60
0
100
AcDbLine
10
16.2756
20
11.35
30
0
11
19.7756
21
11.35
31
0
39
0
210
0
220
0
230
1
0
LINE
5
15F
100
AcDbEntity
8
0
62
256
6
ByLayer
370
-2
48
1
60
0
100
AcDbLine
10
-3.5
20
11.35
30
0
11
-7
21
11.35
31
0
39
0
210
0
220
0
230
1
0
SOLID
5
160
100
AcDbEntity
8
0
62
256
6
ByLayer
370
-1
48
1
60
0
100
AcDbTrace
10
16.2756
20
11.933333
30
0
11
16.2756
21
10.766667
31
0
12
12.7756
22
11.35
32
0
13
12.7756
23
11.35
33
0
39
0
210
0
220
0
230
1
0
SOLID
5
161
100
AcDbEntity
8
0
62
256
6
ByLayer
370
-1
48
1
60
0
100
AcDbTrace
10
-3.5
20
10.766667
30
0
11
-3.5
21
11.933333
31
0
12
0
22
11.35
32
0
13
0
23
11.35
33
0
39
0
210
0
220
0
230
1
0
MTEXT
5
162
100
AcDbEntity
8
0
62
256
6
ByLayer
370
18
48
1
60
0
100
AcDbMText
10
6.3878
20
17.35
30
0
210
0
220
0
230
1
1
\A1;12.78
40
3
41
0
44
1
50
0
71
5
72
5
7
iso_b_vert
0
POINT
5
163
100
AcDbEntity
8
Defpoints
62
0
6
ByLayer
370
-1
48
1
60
0
100
AcDbPoint
10
12.7756
20
0.745
30
0
39
0
210
0
220
0
230
1
50
360
0
POINT
5
164
100
AcDbEntity
8
Defpoints
62
0
6
ByLayer
370
-1
48
1
60
0
100
AcDbPoint
10
0
20
0
30
0
39
0
210
0
220
0
230
1
50
360
0
POINT
5
165
100
AcDbEntity
8
Defpoints
62
0
6
ByLayer
370
-1
48
1
60
0
100
AcDbPoint
10
0
20
11.35
30
0
39
0
210
0
220
0
230
1
50
360
0
ENDBLK
5
15B
100
AcDbEntity
8
0
100
AcDbBlockEnd
0
BLOCK
5
16D
100
AcDbEntity
8
0
100
AcDbBlockBegin
2
_U4
70
0
10
0
20
0
30
0
3
_U4
0
MTEXT
5
167
100
AcDbEntity
8
2
62
256
6
ByLayer
370
18
48
1
60
0
100
AcDbMText
10
2.280372
20
12.235114
30
0
210
0
220
0
230
1
1
\W0.6864;12.78
40
3
41
0
44
1.084337
50
0
71
7
72
5
7
iso_b_vert
0
LINE
5
168
100
AcDbEntity
8
2
62
256
6
ByLayer
370
13
48
1
60
0
100
AcDbLine
10
12.7756
20
2.3325
30
0
11
12.7756
21
13.35
31
0
39
0
210
0
220
0
230
1
0
LINE
5
169
100
AcDbEntity
8
2
62
256
6
ByLayer
370
13
48
1
60
0
100
AcDbLine
10
0
20
1.5875
30
0
11
0
21
13.35
31
0
39
0
210
0
220
0
230
1
0
LINE
5
16A
100
AcDbEntity
8
2
62
256
6
ByLayer
370
13
48
1
60
0
100
AcDbLine
10
12.7756
20
11.35
30
0
11
0
21
11.35
31
0
39
0
210
0
220
0
230
1
0
SOLID
5
16B
100
AcDbEntity
8
2
62
256
6
ByLayer
370
18
48
1
60
0
100
AcDbTrace
10
12.7756
20
11.35
30
0
11
9.275602
21
10.889216
31
0
12
9.275598
22
11.810784
32
0
13
9.275598
23
11.810784
33
0
39
0
210
0
220
0
230
1
0
SOLID
5
16C
100
AcDbEntity
8
2
62
256
6
ByLayer
370
18
48
1
60
0
100
AcDbTrace
10
0
20
11.35
30
0
11
3.499998
21
11.810784
31
0
12
3.500002
22
10.889216
32
0
13
3.500002
23
10.889216
33
0
39
0
210
0
220
0
230
1
0
ENDBLK
5
16E
100
AcDbEntity
8
0
100
AcDbBlockEnd
0
ENDSEC
0
SECTION
2
ENTITIES
0
ARC
5
BA
100
AcDbEntity
8
1
62
256
6
ByLayer
370
18
48
1
60
0
100
AcDbCircle
39
0
10
1.575644
20
-1.745
30
0
40
1
210
0
220
0
230
1
100
AcDbArc
50
90
51
120
0
ARC
5
BB
100
AcDbEntity
8
1
62
256
6
ByLayer
370
18
48
1
60
0
100
AcDbCircle
39
0
10
1.575644
20
1.745
30
0
40
1
210
0
220
0
230
1
100
AcDbArc
50
240
51
270
0
ARC
5
BC
100
AcDbEntity
8
SK2
62
256
6
ByLayer
370
13
48
1
60
0
100
AcDbCircle
39
0
10
12.7756
20
0
30
0
40
16.35
210
0
220
0
230
1
100
AcDbArc
50
10.57289
51
65
0
ARC
5
BD
100
AcDbEntity
8
SK2
62
256
6
ByLayer
370
13
48
1
60
0
100
AcDbCircle
39
0
10
12.7756
20
0
30
0
40
16.35
210
0
220
0
230
1
100
AcDbArc
50
295
51
349.42711
0
POINT
5
70
100
AcDbEntity
8
80
62
256
6
ByLayer
370
18
48
1
60
0
100
AcDbPoint
10
0
20
0
30
0
39
0
210
0
220
0
230
1
50
360
0
POINT
5
72
100
AcDbEntity
8
81
62
256
6
ByLayer
370
18
48
1
60
0
100
AcDbPoint
10
12.7756
20
0
30
0
39
0
210
0
220
0
230
1
50
360
0
POINT
5
74
100
AcDbEntity
8
1
62
256
6
ByLayer
370
18
48
1
60
1
100
AcDbPoint
10
-25.2244
20
1.5
30
0
39
0
210
0
220
0
230
1
50
360
0
POINT
5
76
100
AcDbEntity
8
1
62
256
6
ByLayer
370
18
48
1
60
1
100
AcDbPoint
10
12.7756
20
0.745
30
0
39
0
210
0
220
0
230
1
50
360
0
POINT
5
77
100
AcDbEntity
8
1
62
256
6
ByLayer
370
18
48
1
60
1
100
AcDbPoint
10
12.7756
20
0.745
30
0
39
0
210
0
220
0
230
1
50
360
0
POINT
5
78
100
AcDbEntity
8
1
62
256
6
ByLayer
370
18
48
1
60
1
100
AcDbPoint
10
5.8106
20
0
30
0
39
0
210
0
220
0
230
1
50
360
0
POINT
5
79
100
AcDbEntity
8
1
62
256
6
ByLayer
370
18
48
1
60
1
100
AcDbPoint
10
12.7756
20
0.745
30
0
39
0
210
0
220
0
230
1
50
360
0
POINT
5
7A
100
AcDbEntity
8
1
62
256
6
ByLayer
370
18
48
1
60
1
100
AcDbPoint
10
3.5756
20
0
30
0
39
0
210
0
220
0
230
1
50
360
0
POINT
5
7B
100
AcDbEntity
8
1
62
256
6
ByLayer
370
18
48
1
60
1
100
AcDbPoint
10
-25.2244
20
0
30
0
39
0
210
0
220
0
230
1
50
360
0
POINT
5
7C
100
AcDbEntity
8
1
62
256
6
ByLayer
370
18
48
1
60
1
100
AcDbPoint
10
0
20
0
30
0
39
0
210
0
220
0
230
1
50
360
0
POINT
5
7D
100
AcDbEntity
8
1
62
256
6
ByLayer
370
18
48
1
60
1
100
AcDbPoint
10
12.7756
20
0.745
30
0
39
0
210
0
220
0
230
1
50
360
0
POINT
5
7E
100
AcDbEntity
8
1
62
256
6
ByLayer
370
18
48
1
60
1
100
AcDbPoint
10
0
20
0
30
0
39
0
210
0
220
0
230
1
50
360
0
SPLINE
5
BE
100
AcDbEntity
8
1
62
256
6
ByLayer
370
18
48
1
60
0
100
AcDbSpline
70
4
71
3
72
10
73
6
40
0
40
0
40
0
40
0
40
0.706740758706197
40
0.706740758706197
40
1
40
1
40
1
40
1
41
1
10
3.60414777953068
20
-0.726622821487496
30
0
41
1
10
3.59681786196191
20
-0.731645866942557
30
0
41
1
10
3.59079517344441
20
-0.735742793571035
30
0
41
1
10
3.58426251917285
20
-0.74006096324365
30
0
41
1
10
3.58258582005942
20
-0.741149081918337
30
0
41
1
10
3.58117266616898
20
-0.742040416681022
30
0
0
SPLINE
5
BF
100
AcDbEntity
8
1
62
256
6
ByLayer
370
18
48
1
60
0
100
AcDbSpline
70
4
71
3
72
12
73
8
40
0
40
0
40
0
40
0
40
0.477409209564251
40
0.477409209564251
40
0.738704604782125
40
0.738704604782125
40
1
40
1
40
1
40
1
41
1
10
3.57574648703803
20
-0.74500006601707
30
0
41
1
10
3.57512734303157
20
-0.745010451630066
30
0
41
1
10
3.57643193514903
20
-0.743570372085941
30
0
41
1
10
3.58146212725711
20
-0.739089269404502
30
0
41
1
10
3.58384013241854
20
-0.737056480098914
30
0
41
1
10
3.58970019008561
20
-0.732189204863545
30
0
41
1
10
3.59318442243097
20
-0.729352253595579
30
0
41
1
10
3.59721061181165
20
-0.726131168805381
30
0
0
SPLINE
5
C0
100
AcDbEntity
8
1
62
256
6
ByLayer
370
18
48
1
60
0
100
AcDbSpline
70
4
71
3
72
16
73
12
40
0
40
0
40
0
40
0
40
0.249999999999991
40
0.249999999999991
40
0.499999999999981
40
0.499999999999981
40
0.624999999999983
40
0.624999999999983
40
0.749999999999984
40
0.749999999999984
40
1
40
1
40
1
40
1
41
1
10
3.59721061181165
20
-0.726131168805381
30
0
41
1
10
3.66391653953696
20
-0.722458524357307
30
0
41
1
10
3.73095480266397
20
-0.719321180767565
30
0
41
1
10
3.86567423921488
20
-0.715293130361175
30
0
41
1
10
3.93335548216436
20
-0.714399534433426
30
0
41
1
10
4.03536540496731
20
-0.714997644389001
30
0
41
1
10
4.06945027761464
20
-0.715513913359786
30
0
41
1
10
4.137786920732
20
-0.717146027832712
30
0
41
1
10
4.17189033592246
20
-0.718259345559147
30
0
41
1
10
4.27336445260272
20
-0.722300150652416
30
0
41
1
10
4.34016767442671
20
-0.725960205437701
30
0
41
1
10
4.40612600002154
20
-0.729819569710799
30
0
0
SPLINE
5
C1
100
AcDbEntity
8
1
62
256
6
ByLayer
370
18
48
1
60
0
100
AcDbSpline
70
4
71
3
72
16
73
12
40
0
40
0
40
0
40
0
40
0.249999999999997
40
0.249999999999997
40
0.499999999999993
40
0.499999999999993
40
0.624999999999998
40
0.624999999999998
40
0.750000000000003
40
0.750000000000003
40
1
40
1
40
1
40
1
41
1
10
3.59721061181165
20
0.726131168805381
30
0
41
1
10
3.66391653953696
20
0.722458524357307
30
0
41
1
10
3.73095480266397
20
0.719321180767565
30
0
41
1
10
3.86567423921488
20
0.715293130361175
30
0
41
1
10
3.93335548216436
20
0.714399534433426
30
0
41
1
10
4.03536540496734
20
0.714997644388973
30
0
41
1
10
4.06945027761464
20
0.715513913359786
30
0
41
1
10
4.13778692073197
20
0.717146027832712
30
0
41
1
10
4.17189033592246
20
0.718259345559147
30
0
41
1
10
4.27336445260269
20
0.722300150652416
30
0
41
1
10
4.34016767442671
20
0.725960205437701
30
0
41
1
10
4.40612600002154
20
0.729819569710799
30
0
0
SPLINE
5
C2
100
AcDbEntity
8
1
62
256
6
ByLayer
370
18
48
1
60
0
100
AcDbSpline
70
4
71
3
72
75
73
71
40
0
40
0
40
0
40
0
40
0.003435576082326
40
0.003435576082326
40
0.006871152164652
40
0.006871152164652
40
0.013742304329304
40
0.013742304329304
40
0.0171778804116301
40
0.0171778804116301
40
0.0206134564939561
40
0.0274846086586081
40
0.0274846086586081
40
0.0343557608232602
40
0.0343557608232602
40
0.0412269129879122
40
0.0412269129879122
40
0.0549692173172164
40
0.0549692173172164
40
0.082453825975828
40
0.082453825975828
40
0.10993843463444
40
0.10993843463444
40
0.137423043293051
40
0.137423043293051
40
0.164907651951663
40
0.164907651951663
40
0.219876869268886
40
0.219876869268886
40
0.274846086586109
40
0.274846086586109
40
0.329815303903333
40
0.329815303903333
40
0.357299912561946
40
0.357299912561946
40
0.38478452122056
40
0.38478452122056
40
0.412269129879173
40
0.412269129879173
40
0.439753738537786
40
0.439753738537786
40
0.49472295585501
40
0.49472295585501
40
0.522207564513621
40
0.522207564513621
40
0.549692173172233
40
0.549692173172233
40
0.604661390489456
40
0.604661390489456
40
0.632145999148068
40
0.632145999148068
40
0.659630607806679
40
0.659630607806679
40
0.714599825123899
40
0.714599825123899
40
0.742084433782509
40
0.742084433782509
40
0.769569042441119
40
0.769569042441119
40
0.797053651099729
40
0.797053651099729
40
0.824538259758339
40
0.824538259758339
40
0.879507477075555
40
0.879507477075555
40
0.934476694392772
40
0.934476694392772
40
0.989445911709988
40
0.989445911709988
40
1
40
1
40
1
40
1
41
1
10
12.4282007946745
20
-0.717451253899384
30
0
41
1
10
12.4223222623891
20
-0.716943379238614
30
0
41
1
10
12.4166240268456
20
-0.716342666259294
30
0
41
1
10
12.4055802893897
20
-0.714943680380344
30
0
41
1
10
12.4002161171402
20
-0.714154138915148
30
0
41
1
10
12.3843903350339
20
-0.711598823881218
30
0
41
1
10
12.3741919388156
20
-0.709644683223274
30
0
41
1
10
12.3588674416446
20
-0.706602403788764
30
0
41
1
10
12.3537560573182
20
-0.705570086630246
30
0
41
1
10
12.3434448033813
20
-0.70351842723278
30
0
41
1
10
12.3278606607263
20
-0.700452054802469
30
0
41
1
10
12.3120327672199
20
-0.697378384869523
30
0
41
1
10
12.2909360320052
20
-0.693148810637183
30
0
41
1
10
12.2804117372678
20
-0.690954325545619
30
0
41
1
10
12.2594829569516
20
-0.686349083532065
30
0
41
1
10
12.2490576780155
20
-0.683951257246378
30
0
41
1
10
12.2177622677119
20
-0.676560918483091
30
0
41
1
10
12.1967852848585
20
-0.671439881316246
30
0
41
1
10
12.1338931095273
20
-0.655236912076049
30
0
41
1
10
12.092039748658
20
-0.643344711655658
30
0
41
1
10
12.0084435534083
20
-0.617648489714782
30
0
41
1
10
11.966706139207
20
-0.603805070874074
30
0
41
1
10
11.8832387225395
20
-0.574234737190068
30
0
41
1
10
11.8414850507891
20
-0.558533236108474
30
0
41
1
10
11.7578326201329
20
-0.525420682540982
30
0
41
1
10
11.7158890057854
20
-0.507976069381584
30
0
41
1
10
11.5903205467439
20
-0.453438700913892
30
0
41
1
10
11.5068738884648
20
-0.414100873886042
30
0
41
1
10
11.3398639251491
20
-0.330355889360504
30
0
41
1
10
11.2559689337306
20
-0.286083326259842
30
0
41
1
10
11.0887834630563
20
-0.194847867958344
30
0
41
1
10
11.0053440944723
20
-0.147784029654986
30
0
41
1
10
10.8799090770772
20
-0.0758551718621732
30
0
41
1
10
10.837987522211
20
-0.0516939442605917
30
0
41
1
10
10.7543274142922
20
-0.0034619614187363
30
0
41
1
10
10.7125449878516
20
0.0206483412052023
30
0
41
1
10
10.6289952991371
20
0.0687190395186406
30
0
41
1
10
10.5872297607423
20
0.0926824329837359
30
0
41
1
10
10.5036382392811
20
0.140327515136733
30
0
41
1
10
10.4617859320069
20
0.164042746078735
30
0
41
1
10
10.3362160250462
20
0.234367234882882
30
0
41
1
10
10.2527517697045
20
0.2797770573072
30
0
41
1
10
10.1274165239581
20
0.344889413410471
30
0
41
1
10
10.0856185667043
20
0.366098397958666
30
0
41
1
10
10.0019021244968
20
0.407393055508407
30
0
41
1
10
9.96000063658448
20
0.427480003747689
30
0
41
1
10
9.83465914737826
20
0.485531916241229
30
0
41
1
10
9.75121132188346
20
0.521200620529299
30
0
41
1
10
9.62574998851798
20
0.569609901463707
30
0
41
1
10
9.58382849414414
20
0.584916035991142
30
0
41
1
10
9.50010274794863
20
0.613622631351944
30
0
41
1
10
9.45833037835342
20
0.627025982031711
30
0
41
1
10
9.33310793639293
20
0.664215975856564
30
0
41
1
10
9.24964262635854
20
0.684892584614772
30
0
41
1
10
9.12397503461477
20
0.709367948900876
30
0
41
1
10
9.08208521890134
20
0.716419821857869
30
0
41
1
10
8.99848994260458
20
0.728231738493434
30
0
41
1
10
8.95675367957929
20
0.733003059614049
30
0
41
1
10
8.87328390042916
20
0.740228079718662
30
0
41
1
10
8.83153057312794
20
0.742676906828393
30
0
41
1
10
8.74787743853773
20
0.745232533337827
30
0
41
1
10
8.70590709597971
20
0.74533649964124
30
0
41
1
10
8.58054784824071
20
0.742142865114005
30
0
41
1
10
8.49757253239969
20
0.735368895695302
30
0
41
1
10
8.33218701583968
20
0.712858794471231
30
0
41
1
10
8.24962266814902
20
0.697187434087198
30
0
41
1
10
8.08414225025697
20
0.657451103881158
30
0
41
1
10
8.00123808767324
20
0.633376804133434
30
0
41
1
10
7.90183447051831
20
0.599831772006269
30
0
41
1
10
7.8857887311066
20
0.59427852251136
30
0
41
1
10
7.86972652004781
20
0.588585835152315
30
0
0
SPLINE
5
C3
100
AcDbEntity
8
1
62
256
6
ByLayer
370
18
48
1
60
0
100
AcDbSpline
70
4
71
3
72
10
73
6
40
0
40
0
40
0
40
0
40
0.0407657747072564
40
0.0407657747072564
40
1
40
1
40
1
40
1
41
1
10
4.66757050980672
20
-0.744999962880087
30
0
41
1
10
4.66401950140681
20
-0.745000681130108
30
0
41
1
10
4.66046860933014
20
-0.744992966432818
30
0
41
1
10
4.57336612559035
20
-0.7445969514946
30
0
41
1
10
4.48986968728241
20
-0.739558253012461
30
0
41
1
10
4.406126
20
-0.729819569709434
30
0
0
SPLINE
5
C4
100
AcDbEntity
8
1
62
256
6
ByLayer
370
18
48
1
60
0
100
AcDbSpline
70
4
71
3
72
19
73
15
40
0
40
0
40
0
40
0
40
0.0238734411827241
40
0.0238734411827241
40
0.186561200985606
40
0.186561200985606
40
0.349248960788488
40
0.349248960788488
40
0.674624480394253
40
0.674624480394253
40
0.755968360295694
40
0.837312240197135
40
0.837312240197135
40
1
40
1
40
1
40
1
41
1
10
12.6394101935834
20
-0.292058839358674
30
0
41
1
10
12.6378835059359
20
-0.295318984475841
30
0
41
1
10
12.6363468347106
20
-0.298581664142489
30
0
41
1
10
12.6242723573272
20
-0.32410106034726
30
0
41
1
10
12.6133309558942
20
-0.346486589696781
30
0
41
1
10
12.5910852962734
20
-0.391494881760963
30
0
41
1
10
12.5797649512264
20
-0.41413634668146
30
0
41
1
10
12.545471840072
20
-0.482551386652375
30
0
41
1
10
12.5221632011688
20
-0.528834120840315
30
0
41
1
10
12.4928755218496
20
-0.587487280783876
30
0
41
1
10
12.4811410588553
20
-0.611031267464313
30
0
41
1
10
12.4693733499856
20
-0.634753932334604
30
0
41
1
10
12.4517160757398
20
-0.670350243017083
30
0
41
1
10
12.4399372726995
20
-0.694105930785611
30
0
41
1
10
12.4282007946745
20
-0.717451253899384
30
0
0
SPLINE
5
C5
100
AcDbEntity
8
1
62
256
6
ByLayer
370
18
48
1
60
0
100
AcDbSpline
70
4
71
3
72
50
73
46
40
0
40
0
40
0
40
0
40
0.0723719928347756
40
0.0723719928347756
40
0.108557989252165
40
0.108557989252165
40
0.144743985669553
40
0.144743985669553
40
0.180929982086942
40
0.180929982086942
40
0.217115978504331
40
0.217115978504331
40
0.289487971339109
40
0.289487971339109
40
0.325673967756497
40
0.325673967756497
40
0.361859964173885
40
0.361859964173885
40
0.43423195700866
40
0.43423195700866
40
0.470417953426046
40
0.470417953426046
40
0.506603949843431
40
0.506603949843431
40
0.578975942678203
40
0.578975942678203
40
0.615161939095586
40
0.615161939095586
40
0.651347935512969
40
0.651347935512969
40
0.687533931930353
40
0.687533931930353
40
0.723719928347736
40
0.723719928347736
40
0.796091921182503
40
0.796091921182503
40
0.832277917599888
40
0.832277917599888
40
0.868463914017274
40
0.868463914017274
40
0.940835906852045
40
0.940835906852045
40
0.977021903269433
40
0.977021903269433
40
1
40
1
40
1
40
1
41
1
10
4.406126
20
0.333791697414369
30
0
41
1
10
4.48980268408934
20
0.290476441509014
30
0
41
1
10
4.57333011010289
20
0.2453220728014
30
0
41
1
10
4.69885017260083
20
0.175598270867226
30
0
41
1
10
4.74075788592421
20
0.152004806489657
30
0
41
1
10
4.82435545568316
20
0.104491944090512
30
0
41
1
10
4.86608012838283
20
0.0805393271950834
30
0
41
1
10
4.94948068150288
20
0.0324135005914172
30
0
41
1
10
4.99118286404874
20
0.0082859078437139
30
0
41
1
10
5.07470454128242
20
-0.0399005654865334
30
0
41
1
10
5.11654104327624
20
-0.0639932517233035
30
0
41
1
10
5.24214116983464
20
-0.135905221124005
30
0
41
1
10
5.32554735052423
20
-0.183126343620103
30
0
41
1
10
5.4506616188159
20
-0.252033745297837
30
0
41
1
10
5.49240141126506
20
-0.274625064036996
30
0
41
1
10
5.57604528421598
20
-0.318898522039405
30
0
41
1
10
5.61794808331206
20
-0.340584985836301
30
0
41
1
10
5.74333380276536
20
-0.403772685521147
30
0
41
1
10
5.82670599551071
20
-0.443545838618547
30
0
41
1
10
5.95194001954047
20
-0.498925521829676
30
0
41
1
10
5.99379072926894
20
-0.516656113765919
30
0
41
1
10
6.07746421895087
20
-0.550360960801498
30
0
41
1
10
6.11923654076605
20
-0.566333173471349
30
0
41
1
10
6.24448500591299
20
-0.611490368442844
30
0
41
1
10
6.32788038859053
20
-0.637933445553386
30
0
41
1
10
6.45331483251283
20
-0.671543533665925
30
0
41
1
10
6.49516065502277
20
-0.681694185724012
30
0
41
1
10
6.57870207265998
20
-0.699757312740616
30
0
41
1
10
6.62043954975604
20
-0.707687600450384
30
0
41
1
10
6.70392344821141
20
-0.721314707427837
30
0
41
1
10
6.74566908575525
20
-0.727011807163649
30
0
41
1
10
6.82924722418039
20
-0.736126429513604
30
0
41
1
10
6.87112630065116
20
-0.739547999664751
30
0
41
1
10
6.99649045710632
20
-0.746275434419715
30
0
41
1
10
7.07987571803034
20
-0.746051809026028
30
0
41
1
10
7.20515200205946
20
-0.73875058018848
30
0
41
1
10
7.24694132449667
20
-0.735153935676124
30
0
41
1
10
7.33066451617651
20
-0.725632338958548
30
0
41
1
10
7.37246031484989
20
-0.719716427844673
30
0
41
1
10
7.49765071914939
20
-0.698610946299539
30
0
41
1
10
7.5810250134582
20
-0.680113399666482
30
0
41
1
10
7.70646716361489
20
-0.646102430457489
30
0
41
1
10
7.74838155993993
20
-0.633701791714742
30
0
41
1
10
7.81672822462346
20
-0.611864482175235
30
0
41
1
10
7.84324228387064
20
-0.602991432573589
30
0
41
1
10
7.86973874390219
20
-0.593739284978454
30
0
0
SPLINE
5
C6
100
AcDbEntity
8
1
62
256
6
ByLayer
370
18
48
1
60
0
100
AcDbSpline
70
4
71
3
72
38
73
34
40
0
40
0
40
0
40
0
40
0.064371601787299
40
0.064371601787299
40
0.251497281429837
40
0.251497281429837
40
0.345060121251106
40
0.345060121251106
40
0.438622961072375
40
0.438622961072375
40
0.625748640714924
40
0.625748640714924
40
0.719311480536199
40
0.719311480536199
40
0.812874320357473
40
0.812874320357473
40
0.85965574026811
40
0.85965574026811
40
0.883046450223429
40
0.883046450223429
40
0.906437160178749
40
0.906437160178749
40
0.929827870134067
40
0.929827870134067
40
0.941523225111721
40
0.941523225111721
40
0.953218580089375
40
0.953218580089375
40
0.976609290044681
40
0.976609290044681
40
0.988304645022341
40
0.988304645022341
40
1
40
1
40
1
40
1
41
1
10
11.087341946511
20
0.745000205971962
30
0
41
1
10
11.1160937224757
20
0.744992252232294
30
0
41
1
10
11.1448693277785
20
0.744430230757331
30
0
41
1
10
11.2574206708036
20
0.740065666907412
30
0
41
1
10
11.3408348129099
20
0.732154790758472
30
0
41
1
10
11.4659426059337
20
0.713431912497896
30
0
41
1
10
11.5076791374004
20
0.706062606036795
30
0
41
1
10
11.5913144339225
20
0.689119612130639
30
0
41
1
10
11.6332204793981
20
0.679538559566566
30
0
41
1
10
11.7586299937471
20
0.64771713416232
30
0
41
1
10
11.8420333535835
20
0.622355765501737
30
0
41
1
10
11.9673220122546
20
0.578488260126761
30
0
41
1
10
12.0091979749246
20
0.562901334039452
30
0
41
1
10
12.0928424657672
20
0.530099186178859
30
0
41
1
10
12.1345818726926
20
0.512836824324182
30
0
41
1
10
12.1972527031859
20
0.48590138837983
30
0
41
1
10
12.2181609786863
20
0.476762443081356
30
0
41
1
10
12.2493675094827
20
0.462557141696266
30
0
41
1
10
12.2597655084768
20
0.457768131920119
30
0
41
1
10
12.2806435459847
20
0.448210355451806
30
0
41
1
10
12.2911444570764
20
0.443471548633653
30
0
41
1
10
12.31219573333
20
0.433975772838949
30
0
41
1
10
12.3227260716097
20
0.429190914470212
30
0
41
1
10
12.338362180588
20
0.421711916894935
30
0
41
1
10
12.3435477915186
20
0.419168640695005
30
0
41
1
10
12.3538419055454
20
0.413943251737123
30
0
41
1
10
12.3589455642841
20
0.411253769592662
30
0
41
1
10
12.374249106855
20
0.403132808328962
30
0
41
1
10
12.3844362368794
20
0.397638196251535
30
0
41
1
10
12.40024572878
20
0.390122417876768
30
0
41
1
10
12.4056045761934
20
0.38774011900918
30
0
41
1
10
12.4166369924341
20
0.383438274799119
30
0
41
1
10
12.4223291172826
20
0.381547348025379
30
0
41
1
10
12.4282007946745
20
0.37992742159318
30
0
0
SPLINE
5
C7
100
AcDbEntity
8
1
62
256
6
ByLayer
370
18
48
1
60
0
100
AcDbSpline
70
4
71
3
72
23
73
19
40
0
40
0
40
0
40
0
40
0.125000000000022
40
0.125000000000022
40
0.187500000000026
40
0.187500000000026
40
0.25000000000003
40
0.375000000000025
40
0.375000000000025
40
0.50000000000002
40
0.50000000000002
40
0.625000000000015
40
0.625000000000015
40
0.75000000000001
40
0.75000000000001
40
0.875000000000005
40
0.875000000000005
40
1
40
1
40
1
40
1
41
1
10
12.4282007946745
20
0.37992742159318
30
0
41
1
10
12.4398840720723
20
0.363542231630106
30
0
41
1
10
12.4515414365212
20
0.349242777934052
30
0
41
1
10
12.4690258817428
20
0.329337398460638
30
0
41
1
10
12.4748530371066
20
0.322965620776813
30
0
41
1
10
12.4865064200483
20
0.310553598884837
30
0
41
1
10
12.5039845982058
20
0.292427947948681
30
0
41
1
10
12.521457606952
20
0.275835090475425
30
0
41
1
10
12.5447287114854
20
0.255156482873758
30
0
41
1
10
12.5563689646627
20
0.245533890495551
30
0
41
1
10
12.5793260961624
20
0.227934357695631
30
0
41
1
10
12.5906728751809
20
0.219927243099875
30
0
41
1
10
12.6129509980632
20
0.205468313236224
30
0
41
1
10
12.6238888328372
20
0.199018807409033
30
0
41
1
10
12.6449864450605
20
0.187685411394
30
0
41
1
10
12.6551664394499
20
0.182801427456923
30
0
41
1
10
12.6738168557321
20
0.174612681978431
30
0
41
1
10
12.6823365716693
20
0.171307176167971
30
0
41
1
10
12.6887501326701
20
0.168809053122459
30
0
0
SPLINE
5
C8
100
AcDbEntity
8
1
62
256
6
ByLayer
370
18
48
1
60
0
100
AcDbSpline
70
4
71
3
72
27
73
23
40
0
40
0
40
0
40
0
40
0.0319856440582537
40
0.0319856440582537
40
0.0639712881165073
40
0.0639712881165073
40
0.127942576233047
40
0.127942576233047
40
0.159928220291316
40
0.159928220291316
40
0.191913864349586
40
0.255885152466125
40
0.255885152466125
40
0.319856440582664
40
0.319856440582664
40
0.383827728699204
40
0.383827728699204
40
0.511770304932282
40
0.511770304932282
40
0.767655457398439
40
0.767655457398439
40
1
40
1
40
1
40
1
41
1
10
12.4282007946745
20
0.717451253899384
30
0
41
1
10
12.4223222623891
20
0.716943379238614
30
0
41
1
10
12.4166240268456
20
0.716342666259294
30
0
41
1
10
12.4055802893897
20
0.714943680380344
30
0
41
1
10
12.4002161171402
20
0.714154138915148
30
0
41
1
10
12.3843903350339
20
0.711598823881218
30
0
41
1
10
12.3741919388156
20
0.709644683223274
30
0
41
1
10
12.3588674416446
20
0.706602403788764
30
0
41
1
10
12.3537560573182
20
0.705570086630246
30
0
41
1
10
12.3434448033812
20
0.70351842723278
30
0
41
1
10
12.3278606607263
20
0.700452054802469
30
0
41
1
10
12.3120327672199
20
0.697378384869523
30
0
41
1
10
12.2909360320053
20
0.693148810637183
30
0
41
1
10
12.2804117372678
20
0.690954325545619
30
0
41
1
10
12.2594829569516
20
0.686349083532065
30
0
41
1
10
12.2490576780155
20
0.683951257246378
30
0
41
1
10
12.2177622677119
20
0.676560918483091
30
0
41
1
10
12.1967852848585
20
0.671439881316246
30
0
41
1
10
12.1338931095273
20
0.655236912076049
30
0
41
1
10
12.092039748658
20
0.643344711655658
30
0
41
1
10
12.0122888437652
20
0.618830474542506
30
0
41
1
10
11.9743860681504
20
0.606343747070241
30
0
41
1
10
11.9364906695778
20
0.593076514326015
30
0
0
SPLINE
5
C9
100
AcDbEntity
8
1
62
256
6
ByLayer
370
18
48
1
60
0
100
AcDbSpline
70
4
71
3
72
56
73
52
40
0
40
0
40
0
40
0
40
0.013177031531779
40
0.013177031531779
40
0.0712254414416702
40
0.0712254414416702
40
0.129273851351562
40
0.129273851351562
40
0.187322261261453
40
0.187322261261453
40
0.216346466216401
40
0.216346466216401
40
0.245370671171348
40
0.245370671171348
40
0.303419081081247
40
0.303419081081247
40
0.361467490991146
40
0.361467490991146
40
0.390491695946095
40
0.390491695946095
40
0.419515900901044
40
0.419515900901044
40
0.477564310810943
40
0.477564310810943
40
0.506588515765894
40
0.506588515765894
40
0.535612720720845
40
0.535612720720845
40
0.593661130630744
40
0.593661130630744
40
0.622685335585695
40
0.622685335585695
40
0.651709540540644
40
0.651709540540644
40
0.680733745495592
40
0.680733745495592
40
0.709757950450539
40
0.709757950450539
40
0.767806360360432
40
0.767806360360432
40
0.796830565315379
40
0.796830565315379
40
0.825854770270326
40
0.825854770270326
40
0.883903180180219
40
0.883903180180219
40
0.912927385135165
40
0.912927385135165
40
0.94195159009011
40
0.94195159009011
40
1
40
1
40
1
40
1
41
1
10
8.72111702788487
20
-0.74499881904805
30
0
41
1
10
8.70210077850865
20
-0.744997714235751
30
0
41
1
10
8.68309177405331
20
-0.744755259715447
30
0
41
1
10
8.58054784824074
20
-0.742142865114005
30
0
41
1
10
8.49757253239963
20
-0.735368895695331
30
0
41
1
10
8.33218701583974
20
-0.712858794471202
30
0
41
1
10
8.24962266814904
20
-0.697187434087198
30
0
41
1
10
8.084142250257
20
-0.657451103881186
30
0
41
1
10
8.00123808767324
20
-0.633376804133462
30
0
41
1
10
7.87614964052756
20
-0.591164094995293
30
0
41
1
10
7.83422006345143
20
-0.57607577997149
30
0
41
1
10
7.75052802463745
20
-0.544238222812538
30
0
41
1
10
7.70873667130908
20
-0.527473296700492
30
0
41
1
10
7.58340649935113
20
-0.474804583856837
30
0
41
1
10
7.49992810664594
20
-0.436508590512091
30
0
41
1
10
7.33244326774312
20
-0.354372282352074
30
0
41
1
10
7.24893131611387
20
-0.311028072775827
30
0
41
1
10
7.1236091465662
20
-0.243533496046211
30
0
41
1
10
7.08182351560902
20
-0.220611308797629
30
0
41
1
10
6.99814746966376
20
-0.174047921152578
30
0
41
1
10
6.95622566807472
20
-0.150375667579368
30
0
41
1
10
6.8308225281082
20
-0.0788547174419421
30
0
41
1
10
6.74737621011207
20
-0.0306408869676886
30
0
41
1
10
6.6219540005315
20
0.041630662531162
30
0
41
1
10
6.58007745026381
20
0.0657341046220665
30
0
41
1
10
6.49629674961881
20
0.113726973196464
30
0
41
1
10
6.45450255522806
20
0.137565440652764
30
0
41
1
10
6.32925136543167
20
0.208337176390046
30
0
41
1
10
6.2458013659944
20
0.254317173605443
30
0
41
1
10
6.12020407126255
20
0.320665895435269
30
0
41
1
10
6.07827381223225
20
0.342346192075667
30
0
41
1
10
5.99464490319613
20
0.384477632773979
30
0
41
1
10
5.9528991368856
20
0.404972401679601
30
0
41
1
10
5.86943036924862
20
0.444647857312845
30
0
41
1
10
5.82768832281045
20
0.463801256397261
30
0
41
1
10
5.74407014131242
20
0.500579552647054
30
0
41
1
10
5.70215194458766
20
0.518239837222353
30
0
41
1
10
5.57651338991721
20
0.568634576717926
30
0
41
1
10
5.49304908883315
20
0.598759258818291
30
0
41
1
10
5.36781329736294
20
0.638200908528489
30
0
41
1
10
5.32602892020805
20
0.650357919416081
30
0
41
1
10
5.24227728439809
20
0.672597462914752
30
0
41
1
10
5.20037873830512
20
0.682665322868559
30
0
41
1
10
5.07494048600438
20
0.709547815590611
30
0
41
1
10
4.99149095755809
20
0.723098898099693
30
0
41
1
10
4.86608598622945
20
0.736559762270559
30
0
41
1
10
4.82416446138484
20
0.739890415562996
30
0
41
1
10
4.74048220619693
20
0.744189931978667
30
0
41
1
10
4.69869365085722
20
0.745166758118273
30
0
41
1
10
4.57336612559038
20
0.7445969514946
30
0
41
1
10
4.48986968728241
20
0.739558253012461
30
0
41
1
10
4.406126
20
0.729819569709463
30
0
0
SPLINE
5
CA
100
AcDbEntity
8
1
62
256
6
ByLayer
370
18
48
1
60
0
100
AcDbSpline
70
4
71
3
72
43
73
39
40
0
40
0
40
0
40
0
40
0.0215432321237042
40
0.0521974565805882
40
0.0828516810374723
40
0.0981787932659143
40
0.128833017722798
40
0.159487242179682
40
0.190141466636566
40
0.220795691093451
40
0.251449915550335
40
0.274440583892998
40
0.297431252235661
40
0.328085476692545
40
0.358739701149429
40
0.389393925606313
40
0.420048150063197
40
0.44303881840586
40
0.466029486748523
40
0.496683711205407
40
0.527337935662291
40
0.557992160119175
40
0.588646384576059
40
0.619300609032943
40
0.634627721261385
40
0.665281945718269
40
0.695936170175153
40
0.726590394632037
40
0.757244619088921
40
0.787898843545805
40
0.803225955774247
40
0.833880180231132
40
0.864534404688016
40
0.895188629144899
40
0.925842853601784
40
0.956497078058668
40
0.979487746401331
40
1
40
1
40
1
40
1
41
1
10
4.78519473810505
20
0.136832760041557
30
0
41
1
10
4.8005125161005
20
0.13533375127875
30
0
41
1
10
4.83762616979857
20
0.131630327939519
30
0
41
1
10
4.89653556277145
20
0.125481317354968
30
0
41
1
10
4.95102499625986
20
0.119515358754796
30
0
41
1
10
5.0055143231234
20
0.113372818154062
30
0
41
1
10
5.06000354828814
20
0.107053303205703
30
0
41
1
10
5.12539047416015
20
0.0992001401182562
30
0
41
1
10
5.19077727378647
20
0.0910953497588025
30
0
41
1
10
5.25616396529895
20
0.0827549099187194
30
0
41
1
10
5.31610168335763
20
0.0749083560424992
30
0
41
1
10
5.37059046555064
20
0.0676282485567015
30
0
41
1
10
5.42507921131892
20
0.0602239094312154
30
0
41
1
10
5.4850167958202
20
0.0519650097654676
30
0
41
1
10
5.55040322507449
20
0.0428373957250869
30
0
41
1
10
5.61578964588065
20
0.0336091034305639
30
0
41
1
10
5.67572720717141
20
0.0250745837992383
30
0
41
1
10
5.7302159194607
20
0.0172695517501609
30
0
41
1
10
5.78470465789929
20
0.0094322526090878
30
0
41
1
10
5.84464231330918
20
0.0007851216815027
30
0
41
1
10
5.91002892237117
20
-0.0086742515542539
30
0
41
1
10
5.97541561420346
20
-0.018111351657609
30
0
41
1
10
6.0408024485595
20
-0.0274800094541092
30
0
41
1
10
6.09529142593152
20
-0.0352231484009167
30
0
41
1
10
6.14978033776427
20
-0.0429038844325475
30
0
41
1
10
6.20426920038306
20
-0.0505175936388582
30
0
41
1
10
6.26965575975953
20
-0.0595281191004062
30
0
41
1
10
6.33504225227034
20
-0.0683938991899425
30
0
41
1
10
6.40042868580806
20
-0.0770984661405691
30
0
41
1
10
6.45491733804542
20
-0.0841963240738722
30
0
41
1
10
6.50940596353169
20
-0.0911389656658628
30
0
41
1
10
6.56389456479366
20
-0.097931413765707
30
0
41
1
10
6.62928085561748
20
-0.105823684574403
30
0
41
1
10
6.69466712382117
20
-0.113442611504695
30
0
41
1
10
6.76005337747472
20
-0.120773694548859
30
0
41
1
10
6.81999077071691
20
-0.127214700573006
30
0
41
0.999999999999999
10
6.87271713707372
20
-0.132657728425414
30
0
41
1
10
6.90364808980561
20
-0.135741933071841
30
0
41
1
10
6.91823248001563
20
-0.137169296503799
30
0
0
SPLINE
5
CB
100
AcDbEntity
8
1
62
256
6
ByLayer
370
18
48
1
60
0
100
AcDbSpline
70
4
71
3
72
21
73
17
40
0
40
0
40
0
40
0
40
0.125000000000002
40
0.125000000000002
40
0.250000000000003
40
0.250000000000003
40
0.375000000000005
40
0.375000000000005
40
0.500000000000006
40
0.500000000000006
40
0.750000000000009
40
0.750000000000009
40
0.81250000000001
40
0.875000000000011
40
0.875000000000011
40
1
40
1
40
1
40
1
41
1
10
12.6887501326701
20
0.168809053122459
30
0
41
1
10
12.6824106264413
20
0.191176519022662
30
0
41
1
10
12.6739857372905
20
0.213262710338853
30
0
41
1
10
12.6554681107429
20
0.25747569789894
30
0
41
1
10
12.6453310733508
20
0.279593484515431
30
0
41
1
10
12.6242723573272
20
0.32410106034726
30
0
41
1
10
12.6133309558942
20
0.346486589696781
30
0
41
1
10
12.5910852962734
20
0.391494881760963
30
0
41
1
10
12.5797649512264
20
0.41413634668146
30
0
41
1
10
12.545471840072
20
0.482551386652346
30
0
41
1
10
12.5221632011688
20
0.528834120840315
30
0
41
1
10
12.4928755218496
20
0.587487280783876
30
0
41
1
10
12.4811410588553
20
0.611031267464341
30
0
41
1
10
12.4693733499856
20
0.634753932334604
30
0
41
1
10
12.4517160757398
20
0.670350243017054
30
0
41
1
10
12.4399372726995
20
0.694105930785611
30
0
41
1
10
12.4282007946745
20
0.717451253899384
30
0
0
SPLINE
5
CC
100
AcDbEntity
8
1
62
256
6
ByLayer
370
18
48
1
60
0
100
AcDbSpline
70
4
71
3
72
66
73
62
40
0
40
0
40
0
40
0
40
0.0267037015736689
40
0.0267037015736689
40
0.0522575797864446
40
0.0522575797864446
40
0.0778114579992202
40
0.0778114579992202
40
0.128919214424771
40
0.128919214424771
40
0.154473092637547
40
0.154473092637547
40
0.180026970850323
40
0.180026970850323
40
0.231134727275871
40
0.231134727275871
40
0.282242483701419
40
0.282242483701419
40
0.307796361914193
40
0.307796361914193
40
0.333350240126967
40
0.333350240126967
40
0.384457996552515
40
0.384457996552515
40
0.410011874765291
40
0.410011874765291
40
0.435565752978066
40
0.435565752978066
40
0.486673509403617
40
0.486673509403617
40
0.512227387616393
40
0.512227387616393
40
0.537781265829169
40
0.537781265829169
40
0.563335144041945
40
0.563335144041945
40
0.58888902225472
40
0.58888902225472
40
0.639996778680274
40
0.639996778680274
40
0.665550656893053
40
0.665550656893053
40
0.691104535105832
40
0.691104535105832
40
0.74221229153139
40
0.74221229153139
40
0.767766169744168
40
0.767766169744168
40
0.793320047956947
40
0.793320047956947
40
0.844427804382508
40
0.844427804382508
40
0.895535560808069
40
0.895535560808069
40
0.921089439020847
40
0.921089439020847
40
0.946643317233626
40
0.946643317233626
40
0.997751073659184
40
0.997751073659184
40
1
40
1
40
1
40
1
41
1
10
7.03254225481589
20
0.745001466233703
30
0
41
1
10
7.07615386813961
20
0.745003033287759
30
0
41
1
10
7.11975550042095
20
0.74372757487842
30
0
41
1
10
7.20515200205946
20
0.73875058018848
30
0
41
1
10
7.2469413244967
20
0.735153935676124
30
0
41
1
10
7.33066451617651
20
0.725632338958548
30
0
41
1
10
7.37246031484992
20
0.719716427844673
30
0
41
1
10
7.49765071914939
20
0.698610946299539
30
0
41
1
10
7.58102501345815
20
0.680113399666453
30
0
41
1
10
7.70646716361489
20
0.646102430457489
30
0
41
1
10
7.74838155993993
20
0.633701791714742
30
0
41
1
10
7.83198605826948
20
0.606989481503689
30
0
41
1
10
7.87371302365816
20
0.592661423508446
30
0
41
1
10
7.99881753750725
20
0.546911479913689
30
0
41
1
10
8.08229670058748
20
0.512849892949191
30
0
41
1
10
8.24977463485484
20
0.438531526249221
30
0
41
1
10
8.33318685732189
20
0.3985162746431
30
0
41
1
10
8.45829641541116
20
0.334904398032762
30
0
41
1
10
8.50003568520282
20
0.313158790869807
30
0
41
1
10
8.58367564208766
20
0.268725707040318
30
0
41
1
10
8.62558084336808
20
0.246029687461203
30
0
41
1
10
8.75097298757299
20
0.177069858279879
30
0
41
1
10
8.83434820372656
20
0.129796666391457
30
0
41
1
10
8.95958143809878
20
0.0577775184658265
30
0
41
1
10
9.00142982078964
20
0.0336030807588088
30
0
41
1
10
9.08510765402522
20
-0.0146831285760243
30
0
41
1
10
9.12688163106492
20
-0.0387833294496431
30
0
41
1
10
9.25213244882701
20
-0.110743287584739
30
0
41
1
10
9.33552574120716
20
-0.158284640430367
30
0
41
1
10
9.46095380172818
20
-0.228079114845571
30
0
41
1
10
9.5028016236472
20
-0.251013422386023
30
0
41
1
10
9.58634363340488
20
-0.29586051259426
30
0
41
1
10
9.62808021907085
20
-0.317812502457684
30
0
41
1
10
9.71156245148131
20
-0.360655584591882
30
0
41
1
10
9.75330683330137
20
-0.38154861786424
30
0
41
1
10
9.83688168316607
20
-0.422151026968123
30
0
41
1
10
9.87876086074118
20
-0.441896131591932
30
0
41
1
10
10.0041264650736
20
-0.498905972756489
30
0
41
1
10
10.0875136418017
20
-0.533774249243493
30
0
41
1
10
10.2127875253502
20
-0.580837559190428
30
0
41
1
10
10.2545759569464
20
-0.595652983009586
30
0
41
1
10
10.3382945820881
20
-0.623434871412201
30
0
41
1
10
10.3800957231791
20
-0.636367647082835
30
0
41
1
10
10.5052888059539
20
-0.672066363339724
30
0
41
1
10
10.5886627283804
20
-0.691682319895307
30
0
41
1
10
10.7141017972496
20
-0.714508186442089
30
0
41
1
10
10.7560168173223
20
-0.721021946317819
30
0
41
1
10
10.8396260257714
20
-0.731738896380165
30
0
41
1
10
10.8813548740286
20
-0.735953882209031
30
0
41
1
10
11.0064633227977
20
-0.745117124108987
30
0
41
1
10
11.0899337982735
20
-0.746560544085554
30
0
41
1
10
11.2574206708036
20
-0.740065666907412
30
0
41
1
10
11.3408348129099
20
-0.7321547907585
30
0
41
1
10
11.4659426059337
20
-0.713431912497896
30
0
41
1
10
11.5076791374004
20
-0.706062606036795
30
0
41
1
10
11.5913144339224
20
-0.689119612130639
30
0
41
1
10
11.6332204793981
20
-0.679538559566595
30
0
41
1
10
11.7586299937471
20
-0.64771713416232
30
0
41
1
10
11.8420333535835
20
-0.622355765501737
30
0
41
1
10
11.9292345624603
20
-0.591823875866368
30
0
41
1
10
11.9329108746979
20
-0.590529520083294
30
0
41
1
10
11.9365879490504
20
-0.589227797003645
30
0
0
SPLINE
5
CD
100
AcDbEntity
8
1
62
256
6
ByLayer
370
18
48
1
60
0
100
AcDbSpline
70
4
71
3
72
44
73
40
40
0
40
0
40
0
40
0
40
0.0087542380979525
40
0.0391484489885353
40
0.069542659879118
40
0.0999368707697011
40
0.130331081660284
40
0.153126739828221
40
0.175922397996158
40
0.206316608886741
40
0.236710819777324
40
0.267105030667907
40
0.29749924155849
40
0.327893452449073
40
0.343090557894364
40
0.373484768784947
40
0.40387897967553
40
0.434273190566113
40
0.464667401456696
40
0.495061612347279
40
0.51025871779257
40
0.540652928683153
40
0.571047139573736
40
0.601441350464319
40
0.631835561354901
40
0.662229772245484
40
0.685025430413422
40
0.707821088581359
40
0.738215299471942
40
0.768609510362524
40
0.799003721253108
40
0.82939793214369
40
0.852193590311628
40
0.874989248479565
40
0.905383459370148
40
0.93577767026073
40
0.966171881151313
40
0.996566092041896
40
1
40
1
40
1
40
1
41
1
10
8.83357419466944
20
0.137391047995379
30
0
41
1
10
8.83985180504266
20
0.136779199000244
30
0
41
1
10
8.86792491698177
20
0.134020401149542
30
0
41
1
10
8.91779352821499
20
0.128939881391602
30
0
41
1
10
8.98318003146446
20
0.121946198867335
30
0
41
1
10
9.04856654211686
20
0.114654710241325
30
0
41
0.999999999999999
10
9.10850418921758
20
0.107706484124322
30
0
41
1
10
9.16299297352907
20
0.101192952654316
30
0
41
1
10
9.21748177286446
20
0.094517478299025
30
0
41
1
10
9.27741947505183
20
0.0869762590335199
30
0
41
1
10
9.34280609387545
20
0.0785191578785032
30
0
41
1
10
9.40819275337031
20
0.0698455211570774
30
0
41
1
10
9.4735794595648
20
0.0609801180660838
30
0
41
1
10
9.52806842542845
20
0.0534836732204553
30
0
41
1
10
9.58255742770387
20
0.0459074465766491
30
0
41
1
10
9.63704647011264
20
0.0382613609698694
30
0
41
1
10
9.70243338399078
20
0.0289912735700284
30
0
41
1
10
9.76782038592717
20
0.0196441441955528
30
0
41
1
10
9.83320741271245
20
0.0102407362039401
30
0
41
1
10
9.88769659436537
20
0.0023687495083777
30
0
41
1
10
9.94218577874579
20
-0.0055182889588252
30
0
41
1
10
9.99667496247965
20
-0.0133892134983
30
0
41
1
10
10.0620619831144
20
-0.0227828528923908
30
0
41
1
10
10.1274490037192
20
-0.0321112351853969
30
0
41
1
10
10.1928360243315
20
-0.0413537643135555
30
0
41
1
10
10.2527741265573
20
-0.0497307298134047
30
0
41
1
10
10.3072633103995
20
-0.0572571342970321
30
0
41
1
10
10.3617524942416
20
-0.0646962574192286
30
0
41
1
10
10.421690596468
20
-0.0727660633251048
30
0
41
1
10
10.4870776170785
20
-0.0813789034188233
30
0
41
1
10
10.552464637689
20
-0.0897636292893366
30
0
41
1
10
10.6124027399154
20
-0.0972312051237339
30
0
41
1
10
10.6668919237574
20
-0.103833655613783
30
0
41
0.999999999999999
10
10.7213811076001
20
-0.110269484959758
30
0
41
1
10
10.7813192098247
20
-0.117126478141728
30
0
41
1
10
10.8467062304398
20
-0.12431228397881
30
0
41
1
10
10.9120932510362
20
-0.13119264280931
30
0
41
1
10
10.9581470518414
20
-0.135806877458123
30
0
41
1
10
10.9824051790191
20
-0.138160412274004
30
0
41
1
10
10.9848676327055
20
-0.138398527435299
30
0
0
SPLINE
5
CE
100
AcDbEntity
8
1
62
256
6
ByLayer
370
18
48
1
60
0
100
AcDbSpline
70
4
71
3
72
38
73
34
40
0
40
0
40
0
40
0
40
0.138834007722237
40
0.138834007722237
40
0.208251011583355
40
0.208251011583355
40
0.277668015444474
40
0.277668015444474
40
0.347085019305592
40
0.347085019305592
40
0.41650202316671
40
0.41650202316671
40
0.55533603088894
40
0.55533603088894
40
0.590044532819498
40
0.590044532819498
40
0.624753034750055
40
0.624753034750055
40
0.694170038611165
40
0.694170038611165
40
0.763587042472275
40
0.763587042472275
40
0.79829554440283
40
0.79829554440283
40
0.833004046333385
40
0.833004046333385
40
0.902421050194497
40
0.902421050194497
40
0.937129552125053
40
0.937129552125053
40
0.971838054055609
40
0.971838054055609
40
1
40
1
40
1
40
1
41
1
10
4.406126
20
0.333791697414369
30
0
41
1
10
4.34935707542004
20
0.348577505515976
30
0
41
1
10
4.29373142626318
20
0.365924453012042
30
0
41
1
10
4.21200629265994
20
0.395234190946411
30
0
41
1
10
4.18506336605762
20
0.405549870594655
30
0
41
1
10
4.13206063611185
20
0.427049152843466
30
0
41
1
10
4.10596301632509
20
0.438245951687861
30
0
41
1
10
4.05458990166059
20
0.461405858406494
30
0
41
1
10
4.0292467249547
20
0.473404233839545
30
0
41
1
10
3.97992840122132
20
0.497770330839842
30
0
41
1
10
3.95591491976302
20
0.510152233930341
30
0
41
1
10
3.88586399571364
20
0.547608074363694
30
0
41
1
10
3.8417907365569
20
0.573009487988202
30
0
41
1
10
3.79043550377782
20
0.604189883397879
30
0
41
1
10
3.78035329523951
20
0.61039600951085
30
0
41
1
10
3.76058810773446
20
0.622713060352254
30
0
41
1
10
3.75087326701981
20
0.628844444389046
30
0
41
1
10
3.7226285537422
20
0.646869121527118
30
0
41
1
10
3.70503934185712
20
0.658364025646108
30
0
41
1
10
3.67251228478824
20
0.679953992153827
30
0
41
1
10
3.6575712569003
20
0.690051724913474
30
0
41
1
10
3.63739798861019
20
0.703802327378668
30
0
41
1
10
3.63109026210609
20
0.708123405174319
30
0
41
1
10
3.61947470993664
20
0.716095359957563
30
0
41
1
10
3.61414252289538
20
0.719762845583347
30
0
41
1
10
3.5996004586508
20
0.729748509068827
30
0
41
1
10
3.59183441809466
20
0.735055839303357
30
0
41
1
10
3.58335021156495
20
0.740664010470852
30
0
41
1
10
3.58104310701964
20
0.742145013966308
30
0
41
1
10
3.57762834888553
20
0.7442108372814
30
0
41
1
10
3.5765119934434
20
0.744802229283891
30
0
41
1
10
3.57553737853854
20
0.745084658939163
30
0
41
1
10
3.57547977763036
20
0.744925221428844
30
0
41
1
10
3.57580311850347
20
0.744479354491375
30
0
0
LINE
5
7F
100
AcDbEntity
8
1
62
256
6
ByLayer
370
18
48
1
60
0
100
AcDbLine
10
0
20
1.5
30
0
11
0
21
0
31
0
39
0
210
0
220
0
230
1
0
LINE
5
80
100
AcDbEntity
8
1
62
256
6
ByLayer
370
18
48
1
60
0
100
AcDbLine
10
0
20
0
30
0
11
0
21
-1.5
31
0
39
0
210
0
220
0
230
1
0
LINE
5
81
100
AcDbEntity
8
1
62
256
6
ByLayer
370
18
48
1
60
0
100
AcDbLine
10
12.428201
20
0.379927
30
0
11
12.428201
21
-0.717451
31
0
39
0
210
0
220
0
230
1
0
LINE
5
82
100
AcDbEntity
8
1
62
256
6
ByLayer
370
18
48
1
60
0
100
AcDbLine
10
4.406126
20
0.72982
30
0
11
4.406126
21
0.324136
31
0
39
0
210
0
220
0
230
1
0
LINE
5
83
100
AcDbEntity
8
1
62
256
6
ByLayer
370
13
48
1
60
0
100
AcDbLine
10
1.575644
20
0.745
30
0
11
1.575644
21
-0.745
31
0
39
0
210
0
220
0
230
1
0
LINE
5
84
100
AcDbEntity
8
1
62
256
6
ByLayer
370
13
48
1
60
0
100
AcDbLine
10
1.075644
20
0.878975
30
0
11
1.075644
21
-0.878975
31
0
39
0
210
0
220
0
230
1
0
LINE
5
85
100
AcDbEntity
8
SK1
62
256
6
ByLayer
370
18
48
1
60
0
100
AcDbLine
10
-25.2244
20
1.326795
30
0
11
-25.2244
21
-1.326795
31
0
39
0
210
0
220
0
230
1
0
LINE
5
87
100
AcDbEntity
8
SK1
62
256
6
ByLayer
370
18
48
1
60
0
100
AcDbLine
10
0
20
1.5
30
0
11
0
21
0
31
0
39
0
210
0
220
0
230
1
0
LINE
5
88
100
AcDbEntity
8
SK1
62
256
6
ByLayer
370
18
48
1
60
0
100
AcDbLine
10
0
20
0
30
0
11
0
21
-1.5
31
0
39
0
210
0
220
0
230
1
0
LINE
5
89
100
AcDbEntity
8
SK1
62
256
6
ByLayer
370
18
48
1
60
0
100
AcDbLine
10
-24.9244
20
1.5
30
0
11
-24.9244
21
-1.5
31
0
39
0
210
0
220
0
230
1
0
LINE
5
8A
100
AcDbEntity
8
1
62
256
6
ByLayer
370
18
48
1
60
0
100
AcDbLine
10
12.7756
20
0
30
0
11
12.639046
21
0.292841
31
0
39
0
210
0
220
0
230
1
0
LINE
5
8B
100
AcDbEntity
8
1
62
256
6
ByLayer
370
18
48
1
60
0
100
AcDbLine
10
12.639046
20
-0.292841
30
0
11
12.7756
21
0
31
0
39
0
210
0
220
0
230
1
0
LINE
5
8C
100
AcDbEntity
8
1
62
256
6
ByLayer
370
18
48
1
60
0
100
AcDbLine
10
1.575644
20
-0.745
30
0
11
3.581806
21
-0.745
31
0
39
0
210
0
220
0
230
1
0
LINE
5
8D
100
AcDbEntity
8
1
62
256
6
ByLayer
370
18
48
1
60
0
100
AcDbLine
10
4.667384
20
-0.745
30
0
11
7.032629
21
-0.745
31
0
39
0
210
0
220
0
230
1
0
LINE
5
8E
100
AcDbEntity
8
1
62
256
6
ByLayer
370
18
48
1
60
0
100
AcDbLine
10
8.721212
20
-0.745
30
0
11
11.0872
21
-0.745
31
0
39
0
210
0
220
0
230
1
0
LINE
5
8F
100
AcDbEntity
8
1
62
256
6
ByLayer
370
18
48
1
60
0
100
AcDbLine
10
11.0872
20
0.745
30
0
11
8.721212
21
0.745
31
0
39
0
210
0
220
0
230
1
0
LINE
5
90
100
AcDbEntity
8
1
62
256
6
ByLayer
370
18
48
1
60
0
100
AcDbLine
10
7.032629
20
0.745
30
0
11
4.667384
21
0.745
31
0
39
0
210
0
220
0
230
1
0
LINE
5
91
100
AcDbEntity
8
1
62
256
6
ByLayer
370
18
48
1
60
0
100
AcDbLine
10
3.581806
20
0.745
30
0
11
1.575644
21
0.745
31
0
39
0
210
0
220
0
230
1
0
LINE
5
92
100
AcDbEntity
8
1
62
256
6
ByLayer
370
18
48
1
60
0
100
AcDbLine
10
1.075644
20
0.878975
30
0
11
0
21
1.5
31
0
39
0
210
0
220
0
230
1
0
LINE
5
93
100
AcDbEntity
8
1
62
256
6
ByLayer
370
18
48
1
60
0
100
AcDbLine
10
0
20
-1.5
30
0
11
1.075644
21
-0.878975
31
0
39
0
210
0
220
0
230
1
0
LINE
5
94
100
AcDbEntity
8
SK1
62
256
6
ByLayer
370
18
48
1
60
0
100
AcDbLine
10
-25.2244
20
-1.326795
30
0
11
-24.9244
21
-1.5
31
0
39
0
210
0
220
0
230
1
0
LINE
5
95
100
AcDbEntity
8
SK1
62
256
6
ByLayer
370
18
48
1
60
0
100
AcDbLine
10
-24.9244
20
1.5
30
0
11
-25.2244
21
1.326795
31
0
39
0
210
0
220
0
230
1
0
LINE
5
96
100
AcDbEntity
8
SK1
62
256
6
ByLayer
370
18
48
1
60
0
100
AcDbLine
10
-24.9244
20
-1.5
30
0
11
0
21
-1.5
31
0
39
0
210
0
220
0
230
1
0
LINE
5
97
100
AcDbEntity
8
SK1
62
256
6
ByLayer
370
18
48
1
60
0
100
AcDbLine
10
0
20
1.5
30
0
11
-24.9244
21
1.5
31
0
39
0
210
0
220
0
230
1
0
LINE
5
98
100
AcDbEntity
8
4
62
256
6
ByLayer
370
18
48
0.05
60
0
100
AcDbLine
10
0
20
0
30
0
11
12.7756
21
0
31
0
39
0
210
0
220
0
230
1
0
LINE
5
9A
100
AcDbEntity
8
81
62
256
6
ByLayer
370
18
48
1
60
0
100
AcDbLine
10
12.7756
20
0
30
0
11
15.7756
21
0
31
0
39
0
210
0
220
0
230
1
0
LINE
5
9B
100
AcDbEntity
8
80
62
256
6
ByLayer
370
18
48
1
60
0
100
AcDbLine
10
0
20
0
30
0
11
-3
21
0
31
0
39
0
210
0
220
0
230
1
0
LINE
5
9C
100
AcDbEntity
8
SK4
62
256
6
ByLayer
370
18
48
0.05
60
0
100
AcDbLine
10
-28.2244
20
0
30
0
11
15.7756
21
0
31
0
39
0
210
0
220
0
230
1
0
LINE
5
9E
100
AcDbEntity
8
SK2
62
256
6
ByLayer
370
13
48
1
60
0
100
AcDbLine
10
-29.7244
20
-9
30
0
11
-29.7244
21
21.782741
31
0
39
0
210
0
220
0
230
1
0
LINE
5
A0
100
AcDbEntity
8
SK2
62
256
6
ByLayer
370
13
48
1
60
0
100
AcDbLine
10
-26.8119
20
-1.5
30
0
11
-31.7244
21
-1.5
31
0
39
0
210
0
220
0
230
1
0
LINE
5
A1
100
AcDbEntity
8
SK2
62
256
6
ByLayer
370
13
48
1
60
0
100
AcDbLine
10
-26.8119
20
1.5
30
0
11
-31.7244
21
1.5
31
0
39
0
210
0
220
0
230
1
0
LINE
5
A2
100
AcDbEntity
8
1
62
256
6
ByLayer
370
18
48
1
60
1
100
AcDbLine
10
-29.7244
20
-1.5
30
0
11
-29.263616
21
-4.999998
31
0
39
0
210
0
220
0
230
1
0
LINE
5
A3
100
AcDbEntity
8
1
62
256
6
ByLayer
370
18
48
1
60
1
100
AcDbLine
10
-29.263616
20
-4.999998
30
0
11
-30.185184
21
-5.000002
31
0
39
0
210
0
220
0
230
1
0
LINE
5
A4
100
AcDbEntity
8
1
62
256
6
ByLayer
370
18
48
1
60
1
100
AcDbLine
10
-30.185184
20
-5.000002
30
0
11
-29.7244
21
-1.5
31
0
39
0
210
0
220
0
230
1
0
LINE
5
A5
100
AcDbEntity
8
1
62
256
6
ByLayer
370
18
48
1
60
1
100
AcDbLine
10
-29.7244
20
1.5
30
0
11
-30.185184
21
4.999998
31
0
39
0
210
0
220
0
230
1
0
LINE
5
A6
100
AcDbEntity
8
1
62
256
6
ByLayer
370
18
48
1
60
1
100
AcDbLine
10
-30.185184
20
4.999998
30
0
11
-29.263616
21
5.000002
31
0
39
0
210
0
220
0
230
1
0
LINE
5
A7
100
AcDbEntity
8
1
62
256
6
ByLayer
370
18
48
1
60
1
100
AcDbLine
10
-29.263616
20
5.000002
30
0
11
-29.7244
21
1.5
31
0
39
0
210
0
220
0
230
1
0
LINE
5
A8
100
AcDbEntity
8
2
62
256
6
ByLayer
370
13
48
1
60
0
100
AcDbLine
10
18.2756
20
-8.245
30
0
11
18.2756
21
29.603741
31
0
39
0
210
0
220
0
230
1
0
LINE
5
AA
100
AcDbEntity
8
2
62
256
6
ByLayer
370
13
48
1
60
0
100
AcDbLine
10
14.3631
20
-0.745
30
0
11
20.2756
21
-0.745
31
0
39
0
210
0
220
0
230
1
0
LINE
5
AB
100
AcDbEntity
8
2
62
256
6
ByLayer
370
13
48
1
60
0
100
AcDbLine
10
14.3631
20
0.745
30
0
11
20.2756
21
0.745
31
0
39
0
210
0
220
0
230
1
0
LINE
5
AC
100
AcDbEntity
8
1
62
256
6
ByLayer
370
18
48
1
60
1
100
AcDbLine
10
18.2756
20
-0.745
30
0
11
18.736384
21
-4.244998
31
0
39
0
210
0
220
0
230
1
0
LINE
5
AD
100
AcDbEntity
8
1
62
256
6
ByLayer
370
18
48
1
60
1
100
AcDbLine
10
18.736384
20
-4.244998
30
0
11
17.814816
21
-4.245002
31
0
39
0
210
0
220
0
230
1
0
LINE
5
AE
100
AcDbEntity
8
1
62
256
6
ByLayer
370
18
48
1
60
1
100
AcDbLine
10
17.814816
20
-4.245002
30
0
11
18.2756
21
-0.745
31
0
39
0
210
0
220
0
230
1
0
LINE
5
AF
100
AcDbEntity
8
1
62
256
6
ByLayer
370
18
48
1
60
1
100
AcDbLine
10
18.2756
20
0.745
30
0
11
17.814816
21
4.244998
31
0
39
0
210
0
220
0
230
1
0
LINE
5
B0
100
AcDbEntity
8
1
62
256
6
ByLayer
370
18
48
1
60
1
100
AcDbLine
10
17.814816
20
4.244998
30
0
11
18.736384
21
4.245002
31
0
39
0
210
0
220
0
230
1
0
LINE
5
B1
100
AcDbEntity
8
1
62
256
6
ByLayer
370
18
48
1
60
1
100
AcDbLine
10
18.736384
20
4.245002
30
0
11
18.2756
21
0.745
31
0
39
0
210
0
220
0
230
1
0
LINE
5
B2
100
AcDbEntity
8
SK2
62
256
6
ByLayer
370
13
48
1
60
0
100
AcDbLine
10
13.446506
20
-1.438764
30
0
11
20.530645
21
-16.630748
31
0
39
0
210
0
220
0
230
1
0
LINE
5
B3
100
AcDbEntity
8
SK2
62
256
6
ByLayer
370
13
48
1
60
0
100
AcDbLine
10
13.446506
20
1.438764
30
0
11
20.530645
21
16.630748
31
0
39
0
210
0
220
0
230
1
0
LINE
5
B4
100
AcDbEntity
8
1
62
256
6
ByLayer
370
18
48
1
60
1
100
AcDbLine
10
19.685409
20
-14.818132
30
0
11
22.557442
21
-12.765394
31
0
39
0
210
0
220
0
230
1
0
LINE
5
B5
100
AcDbEntity
8
1
62
256
6
ByLayer
370
18
48
1
60
1
100
AcDbLine
10
22.557442
20
-12.765394
30
0
11
22.990871
21
-13.578675
31
0
39
0
210
0
220
0
230
1
0
LINE
5
B6
100
AcDbEntity
8
1
62
256
6
ByLayer
370
18
48
1
60
1
100
AcDbLine
10
22.990871
20
-13.578675
30
0
11
19.685409
21
-14.818132
31
0
39
0
210
0
220
0
230
1
0
LINE
5
B7
100
AcDbEntity
8
1
62
256
6
ByLayer
370
18
48
1
60
1
100
AcDbLine
10
19.685409
20
14.818132
30
0
11
22.990868
21
13.578677
31
0
39
0
210
0
220
0
230
1
0
LINE
5
B8
100
AcDbEntity
8
1
62
256
6
ByLayer
370
18
48
1
60
1
100
AcDbLine
10
22.990868
20
13.578677
30
0
11
22.557445
21
12.765392
31
0
39
0
210
0
220
0
230
1
0
LINE
5
B9
100
AcDbEntity
8
1
62
256
6
ByLayer
370
18
48
1
60
1
100
AcDbLine
10
22.557445
20
12.765392
30
0
11
19.685409
21
14.818132
31
0
39
0
210
0
220
0
230
1
0
LINE
5
D3
100
AcDbEntity
8
1
62
256
6
ByLayer
370
18
48
1
60
1
100
AcDbLine
10
-29.7244
20
-1.5
30
0
11
-29.263616
21
-4.999998
31
0
39
0
210
0
220
0
230
1
0
LINE
5
D4
100
AcDbEntity
8
1
62
256
6
ByLayer
370
18
48
1
60
1
100
AcDbLine
10
-29.263616
20
-4.999998
30
0
11
-30.185184
21
-5.000002
31
0
39
0
210
0
220
0
230
1
0
LINE
5
D5
100
AcDbEntity
8
1
62
256
6
ByLayer
370
18
48
1
60
1
100
AcDbLine
10
-30.185184
20
-5.000002
30
0
11
-29.7244
21
-1.5
31
0
39
0
210
0
220
0
230
1
0
LINE
5
D7
100
AcDbEntity
8
1
62
256
6
ByLayer
370
18
48
1
60
1
100
AcDbLine
10
-29.7244
20
1.5
30
0
11
-30.185184
21
4.999998
31
0
39
0
210
0
220
0
230
1
0
LINE
5
D8
100
AcDbEntity
8
1
62
256
6
ByLayer
370
18
48
1
60
1
100
AcDbLine
10
-30.185184
20
4.999998
30
0
11
-29.263616
21
5.000002
31
0
39
0
210
0
220
0
230
1
0
LINE
5
D9
100
AcDbEntity
8
1
62
256
6
ByLayer
370
18
48
1
60
1
100
AcDbLine
10
-29.263616
20
5.000002
30
0
11
-29.7244
21
1.5
31
0
39
0
210
0
220
0
230
1
0
LINE
5
DD
100
AcDbEntity
8
1
62
256
6
ByLayer
370
18
48
1
60
1
100
AcDbLine
10
18.2756
20
-0.745
30
0
11
18.736384
21
-4.244998
31
0
39
0
210
0
220
0
230
1
0
LINE
5
DE
100
AcDbEntity
8
1
62
256
6
ByLayer
370
18
48
1
60
1
100
AcDbLine
10
18.736384
20
-4.244998
30
0
11
17.814816
21
-4.245002
31
0
39
0
210
0
220
0
230
1
0
LINE
5
DF
100
AcDbEntity
8
1
62
256
6
ByLayer
370
18
48
1
60
1
100
AcDbLine
10
17.814816
20
-4.245002
30
0
11
18.2756
21
-0.745
31
0
39
0
210
0
220
0
230
1
0
LINE
5
E1
100
AcDbEntity
8
1
62
256
6
ByLayer
370
18
48
1
60
1
100
AcDbLine
10
18.2756
20
0.745
30
0
11
17.814816
21
4.244998
31
0
39
0
210
0
220
0
230
1
0
LINE
5
E2
100
AcDbEntity
8
1
62
256
6
ByLayer
370
18
48
1
60
1
100
AcDbLine
10
17.814816
20
4.244998
30
0
11
18.736384
21
4.245002
31
0
39
0
210
0
220
0
230
1
0
LINE
5
E3
100
AcDbEntity
8
1
62
256
6
ByLayer
370
18
48
1
60
1
100
AcDbLine
10
18.736384
20
4.245002
30
0
11
18.2756
21
0.745
31
0
39
0
210
0
220
0
230
1
0
LINE
5
E6
100
AcDbEntity
8
1
62
256
6
ByLayer
370
18
48
1
60
1
100
AcDbLine
10
19.685409
20
-14.818132
30
0
11
22.557442
21
-12.765394
31
0
39
0
210
0
220
0
230
1
0
LINE
5
E7
100
AcDbEntity
8
1
62
256
6
ByLayer
370
18
48
1
60
1
100
AcDbLine
10
22.557442
20
-12.765394
30
0
11
22.990871
21
-13.578675
31
0
39
0
210
0
220
0
230
1
0
LINE
5
E8
100
AcDbEntity
8
1
62
256
6
ByLayer
370
18
48
1
60
1
100
AcDbLine
10
22.990871
20
-13.578675
30
0
11
19.685409
21
-14.818132
31
0
39
0
210
0
220
0
230
1
0
LINE
5
EA
100
AcDbEntity
8
1
62
256
6
ByLayer
370
18
48
1
60
1
100
AcDbLine
10
19.685409
20
14.818132
30
0
11
22.990868
21
13.578677
31
0
39
0
210
0
220
0
230
1
0
LINE
5
EB
100
AcDbEntity
8
1
62
256
6
ByLayer
370
18
48
1
60
1
100
AcDbLine
10
22.990868
20
13.578677
30
0
11
22.557445
21
12.765392
31
0
39
0
210
0
220
0
230
1
0
LINE
5
EC
100
AcDbEntity
8
1
62
256
6
ByLayer
370
18
48
1
60
1
100
AcDbLine
10
22.557445
20
12.765392
30
0
11
19.685409
21
14.818132
31
0
39
0
210
0
220
0
230
1
0
MTEXT
5
CF
100
AcDbEntity
8
SK2
62
256
6
ByLayer
370
18
48
1
60
0
100
AcDbMText
10
-31.065514
20
6.658437
30
0
210
0
220
0
230
1
1
%%c
40
3
41
0
44
1.084337
50
90
71
7
72
5
7
iso_b_vert
0
MTEXT
5
D2
100
AcDbEntity
8
SK2
62
256
6
ByLayer
370
18
48
1
60
0
100
AcDbMText
10
-31.065514
20
12.635
30
0
210
0
220
0
230
1
1
\W0.7468;3.000
40
3
41
0
44
1.084337
50
90
71
7
72
5
7
iso_b_vert
0
MTEXT
5
DB
100
AcDbEntity
8
2
62
256
6
ByLayer
370
18
48
1
60
0
100
AcDbMText
10
16.934486
20
14.913437
30
0
210
0
220
0
230
1
1
%%c
40
3
41
0
44
1.084337
50
90
71
7
72
5
7
iso_b_vert
0
MTEXT
5
DC
100
AcDbEntity
8
2
62
256
6
ByLayer
370
18
48
1
60
0
100
AcDbMText
10
16.934486
20
20.89
30
0
210
0
220
0
230
1
1
\W0.7091;1.490
40
3
41
0
44
1.084337
50
90
71
7
72
5
7
iso_b_vert
0
MTEXT
5
E5
100
AcDbEntity
8
SK2
62
256
6
ByLayer
370
18
48
1
60
0
100
AcDbMText
10
25.842886
20
-2.114886
30
0
210
0
220
0
230
1
1
\W0.6747;130%%d
40
3
41
0
44
1.084337
50
0
71
7
72
5
7
iso_b_vert
0
MTEXT
5
EE
100
AcDbEntity
8
SK6
62
256
6
ByLayer
370
18
48
1
60
0
100
AcDbMText
10
-34.188939
20
-42.114886
30
0
210
0
220
0
230
1
1
\W0.7716;462.1-0149-006A0-XM X0BM
40
3
41
0
44
1.084337
50
0
71
7
72
5
7
iso_b_vert
0
HATCH
5
D6
100
AcDbEntity
8
SK2
62
256
6
ByLayer
370
13
48
1
60
0
100
AcDbHatch
10
0
20
0
30
0
210
0
220
0
230
1
2
ANSI31
70
0
71
0
91
1
92
5
93
3
72
1
10
-29.7244
20
-1.5
11
-29.2636162584472
21
-4.99999830744682
72
1
10
-29.2636162584472
20
-4.99999830744682
11
-30.1851837415528
21
-5.00000169255318
72
1
10
-30.1851837415528
20
-5.00000169255318
11
-29.7244
21
-1.5
97
0
75
0
76
1
52
0
41
0.0062
77
0
78
1
53
45
43
0
44
0
45
-0.0139193969876572
46
0.0139193969876572
79
0
47
0
98
1
10
0
20
0
0
HATCH
5
DA
100
AcDbEntity
8
SK2
62
256
6
ByLayer
370
13
48
1
60
0
100
AcDbHatch
10
0
20
0
30
0
210
0
220
0
230
1
2
ANSI31
70
0
71
0
91
1
92
5
93
3
72
1
10
-29.7244
20
1.5
11
-30.1851837415528
21
4.99999830744682
72
1
10
-30.1851837415528
20
4.99999830744682
11
-29.2636162584472
21
5.00000169255318
72
1
10
-29.2636162584472
20
5.00000169255318
11
-29.7244
21
1.5
97
0
75
0
76
1
52
0
41
0.0062
77
0
78
1
53
45
43
0
44
0
45
-0.0139193969876572
46
0.0139193969876572
79
0
47
0
98
1
10
0
20
0
0
HATCH
5
E0
100
AcDbEntity
8
2
62
256
6
ByLayer
370
13
48
1
60
0
100
AcDbHatch
10
0
20
0
30
0
210
0
220
0
230
1
2
ANSI31
70
0
71
0
91
1
92
5
93
3
72
1
10
18.2756
20
-0.745000000000005
11
18.7363837415528
21
-4.24499830744682
72
1
10
18.7363837415528
20
-4.24499830744682
11
17.8148162584472
21
-4.24500169255319
72
1
10
17.8148162584472
20
-4.24500169255319
11
18.2756
21
-0.745000000000005
97
0
75
0
76
1
52
0
41
0.0062
77
0
78
1
53
45
43
0
44
0
45
-0.0139193969876572
46
0.0139193969876572
79
0
47
0
98
1
10
0
20
0
0
HATCH
5
E4
100
AcDbEntity
8
2
62
256
6
ByLayer
370
13
48
1
60
0
100
AcDbHatch
10
0
20
0
30
0
210
0
220
0
230
1
2
ANSI31
70
0
71
0
91
1
92
5
93
3
72
1
10
18.2756
20
0.745000000000005
11
17.8148162584472
21
4.24499830744682
72
1
10
17.8148162584472
20
4.24499830744682
11
18.7363837415528
21
4.24500169255319
72
1
10
18.7363837415528
20
4.24500169255319
11
18.2756
21
0.745000000000005
97
0
75
0
76
1
52
0
41
0.0062
77
0
78
1
53
45
43
0
44
0
45
-0.0139193969876572
46
0.0139193969876572
79
0
47
0
98
1
10
0
20
0
0
HATCH
5
E9
100
AcDbEntity
8
SK2
62
256
6
ByLayer
370
13
48
1
60
0
100
AcDbHatch
10
0
20
0
30
0
210
0
220
0
230
1
2
ANSI31
70
0
71
0
91
1
92
5
93
3
72
1
10
19.6854085794604
20
-14.8181323180492
11
22.5574418553693
21
-12.765393983365
72
1
10
22.5574418553693
20
-12.765393983365
11
22.9908706127348
21
-13.5786750775861
72
1
10
22.9908706127348
20
-13.5786750775861
11
19.6854085794604
21
-14.8181323180492
97
0
75
0
76
1
52
0
41
0.0062
77
0
78
1
53
45
43
0
44
0
45
-0.0139193969876572
46
0.0139193969876572
79
0
47
0
98
1
10
0
20
0
0
HATCH
5
ED
100
AcDbEntity
8
SK2
62
256
6
ByLayer
370
13
48
1
60
0
100
AcDbHatch
10
0
20
0
30
0
210
0
220
0
230
1
2
ANSI31
70
0
71
0
91
1
92
5
93
3
72
1
10
19.6854085794604
20
14.8181323180492
11
22.9908676253807
21
13.5786766696479
72
1
10
22.9908676253807
20
13.5786766696479
11
22.5574448427234
21
12.7653923913032
72
1
10
22.5574448427234
20
12.7653923913032
11
19.6854085794604
21
14.8181323180492
97
0
75
0
76
1
52
0
41
0.0062
77
0
78
1
53
45
43
0
44
0
45
-0.0139193969876572
46
0.0139193969876572
79
0
47
0
98
1
10
0
20
0
0
DIMENSION
5
F1
100
AcDbEntity
8
SK2
62
256
6
ByLayer
370
18
48
1
60
0
100
AcDbDimension
2
_U0
10
12.7756
20
-35.85
30
0
11
-6.2244
21
-35.85
31
0
70
32
71
1
72
1
41
1
210
0
220
0
230
1
3
Standard
100
AcDbAlignedDimension
13
-25.2244
23
1.5
33
0
14
12.7756
24
0.745
34
0
50
0
100
AcDbRotatedDimension
1001
ACAD
1000
DSTYLE
1002
{
1070
   371
1070
    13
1070
   372
1070
    13
1070
     3
1000

1070
   170
1070
     0
1070
   144
1040
1.0
1070
   277
1070
     2
1070
   284
1070
     8
1070
   278
1070
    46
1070
   146
1040
1.166667
1070
   345
1005
16
1070
   347
1005
16
1070
   346
1005
16
1070
   344
1005
0
1070
   343
1005
0
1070
   172
1070
     1
1070
    76
1070
     0
1070
    75
1070
     0
1070
   282
1070
     0
1070
   281
1070
     0
1070
    71
1070
     0
1070
    74
1070
     0
1070
   279
1070
     0
1070
   173
1070
     1
1070
   340
1005
D0
1070
   271
1070
     2
1070
   272
1070
     2
1070
    77
1070
     1
1070
    73
1070
     1
1070
   171
1070
     3
1070
   274
1070
     4
1070
   177
1070
     2
1070
   176
1070
     2
1070
   178
1070
     2
1070
    78
1070
     8
1070
    48
1040
-0.1
1070
    41
1040
3.5
1070
   147
1040
1.5
1070
    42
1040
1.5875
1070
    44
1040
2.0
1070
   140
1040
3.0
1002
}
1001
ACAD_DSTYLE_DIM_LINETYPE
1070
   380
1005
16
1001
ACAD_DSTYLE_DIM_EXT1_LINETYPE
1070
   381
1005
16
1001
ACAD_DSTYLE_DIM_EXT2_LINETYPE
1070
   382
1005
16
0
DIMENSION
5
10A
100
AcDbEntity
8
SK2
62
256
6
ByLayer
370
18
48
1
60
0
100
AcDbDimension
2
_U1
10
5.8106
20
-22.245
30
0
11
28.7756
21
-22.245
31
0
70
32
71
1
72
1
41
1
210
0
220
0
230
1
3
Standard
100
AcDbAlignedDimension
13
12.7756
23
0.745
33
0
14
5.8106
24
0
34
0
50
0
100
AcDbRotatedDimension
1001
ACAD
1000
DSTYLE
1002
{
1070
   371
1070
    13
1070
   372
1070
    13
1070
     3
1000

1070
   170
1070
     0
1070
   144
1040
1.0
1070
   277
1070
     2
1070
   284
1070
     8
1070
   278
1070
    46
1070
   146
1040
1.166667
1070
   345
1005
16
1070
   347
1005
16
1070
   346
1005
16
1070
   344
1005
0
1070
   343
1005
0
1070
   172
1070
     1
1070
    76
1070
     0
1070
    75
1070
     0
1070
   282
1070
     0
1070
   281
1070
     0
1070
    71
1070
     0
1070
    74
1070
     0
1070
   279
1070
     0
1070
   173
1070
     1
1070
   340
1005
D0
1070
   271
1070
     2
1070
   272
1070
     2
1070
    77
1070
     1
1070
    73
1070
     1
1070
   171
1070
     3
1070
   274
1070
     4
1070
   177
1070
     2
1070
   176
1070
     2
1070
   178
1070
     2
1070
    78
1070
     8
1070
    48
1040
-0.1
1070
    41
1040
3.5
1070
   147
1040
1.5
1070
    42
1040
1.5875
1070
    44
1040
2.0
1070
   140
1040
3.0
1002
}
1001
ACAD_DSTYLE_DIM_LINETYPE
1070
   380
1005
16
1001
ACAD_DSTYLE_DIM_EXT1_LINETYPE
1070
   381
1005
16
1001
ACAD_DSTYLE_DIM_EXT2_LINETYPE
1070
   382
1005
16
0
DIMENSION
5
124
100
AcDbEntity
8
SK2
62
256
6
ByLayer
370
18
48
1
60
0
100
AcDbDimension
2
_U2
10
3.5756
20
-30.245
30
0
11
27.418457
21
-30.245
31
0
70
32
71
1
72
1
41
1
210
0
220
0
230
1
3
Standard
100
AcDbAlignedDimension
13
12.7756
23
0.745
33
0
14
3.5756
24
0
34
0
50
0
100
AcDbRotatedDimension
1001
ACAD
1000
DSTYLE
1002
{
1070
   371
1070
    13
1070
   372
1070
    13
1070
     3
1000

1070
   170
1070
     0
1070
   144
1040
1.0
1070
   277
1070
     2
1070
   284
1070
     8
1070
   278
1070
    46
1070
   146
1040
1.166667
1070
   345
1005
16
1070
   347
1005
16
1070
   346
1005
16
1070
   344
1005
0
1070
   343
1005
0
1070
   172
1070
     1
1070
    76
1070
     0
1070
    75
1070
     0
1070
   282
1070
     0
1070
   281
1070
     0
1070
    71
1070
     0
1070
    74
1070
     0
1070
   279
1070
     0
1070
   173
1070
     1
1070
   340
1005
D0
1070
   271
1070
     2
1070
   272
1070
     2
1070
    77
1070
     1
1070
    73
1070
     1
1070
   171
1070
     3
1070
   274
1070
     4
1070
   177
1070
     2
1070
   176
1070
     2
1070
   178
1070
     2
1070
    78
1070
     8
1070
    48
1040
-0.1
1070
    41
1040
3.5
1070
   147
1040
1.5
1070
    42
1040
1.5875
1070
    44
1040
2.0
1070
   140
1040
3.0
1002
}
1001
ACAD_DSTYLE_DIM_LINETYPE
1070
   380
1005
16
1001
ACAD_DSTYLE_DIM_EXT1_LINETYPE
1070
   381
1005
16
1001
ACAD_DSTYLE_DIM_EXT2_LINETYPE
1070
   382
1005
16
0
DIMENSION
5
13E
100
AcDbEntity
8
SK2
62
256
6
ByLayer
370
18
48
1
60
0
100
AcDbDimension
2
_U3
10
0
20
11.35
30
0
11
-12.6122
21
11.35
31
0
70
32
71
1
72
1
41
1
210
0
220
0
230
1
3
Standard
100
AcDbAlignedDimension
13
-25.2244
23
0
33
0
14
0
24
0
34
0
50
0
100
AcDbRotatedDimension
1001
ACAD
1000
DSTYLE
1002
{
1070
   371
1070
    13
1070
   372
1070
    13
1070
     3
1000

1070
   170
1070
     0
1070
   144
1040
1.0
1070
   277
1070
     2
1070
   284
1070
     8
1070
   278
1070
    46
1070
   146
1040
1.166667
1070
   345
1005
16
1070
   347
1005
16
1070
   346
1005
16
1070
   344
1005
0
1070
   343
1005
0
1070
   172
1070
     1
1070
    76
1070
     0
1070
    75
1070
     0
1070
   282
1070
     0
1070
   281
1070
     0
1070
    71
1070
     0
1070
    74
1070
     0
1070
   279
1070
     0
1070
   173
1070
     1
1070
   340
1005
D0
1070
   271
1070
     2
1070
   272
1070
     2
1070
    77
1070
     1
1070
    73
1070
     1
1070
   171
1070
     3
1070
   274
1070
     4
1070
   177
1070
     2
1070
   176
1070
     2
1070
   178
1070
     2
1070
    78
1070
     8
1070
    48
1040
-0.1
1070
    41
1040
3.5
1070
   147
1040
1.5
1070
    42
1040
1.5875
1070
    44
1040
2.0
1070
   140
1040
3.0
1002
}
1001
ACAD_DSTYLE_DIM_LINETYPE
1070
   380
1005
16
1001
ACAD_DSTYLE_DIM_EXT1_LINETYPE
1070
   381
1005
16
1001
ACAD_DSTYLE_DIM_EXT2_LINETYPE
1070
   382
1005
16
0
DIMENSION
5
156
100
AcDbEntity
8
2
62
256
6
ByLayer
370
18
48
1
60
0
100
AcDbDimension
2
_U4
10
0
20
11.35
30
0
11
6.3878
21
11.35
31
0
70
32
71
1
72
1
41
1
210
0
220
0
230
1
3
Standard
100
AcDbAlignedDimension
13
12.7756
23
0.745
33
0
14
0
24
0
34
0
50
0
100
AcDbRotatedDimension
1001
ACAD
1000
DSTYLE
1002
{
1070
   371
1070
    13
1070
   372
1070
    13
1070
     3
1000

1070
   170
1070
     0
1070
   144
1040
1.0
1070
   277
1070
     2
1070
   284
1070
     8
1070
   278
1070
    46
1070
   146
1040
1.166667
1070
   345
1005
16
1070
   347
1005
16
1070
   346
1005
16
1070
   344
1005
0
1070
   343
1005
0
1070
   172
1070
     1
1070
    76
1070
     0
1070
    75
1070
     0
1070
   282
1070
     0
1070
   281
1070
     0
1070
    71
1070
     0
1070
    74
1070
     0
1070
   279
1070
     0
1070
   173
1070
     1
1070
   340
1005
D0
1070
   271
1070
     2
1070
   272
1070
     2
1070
    77
1070
     1
1070
    73
1070
     1
1070
   171
1070
     3
1070
   274
1070
     4
1070
   177
1070
     2
1070
   176
1070
     2
1070
   178
1070
     2
1070
    78
1070
     8
1070
    48
1040
-0.1
1070
    41
1040
3.5
1070
   147
1040
1.5
1070
    42
1040
1.5875
1070
    44
1040
2.0
1070
   140
1040
3.0
1002
}
1001
ACAD_DSTYLE_DIM_LINETYPE
1070
   380
1005
16
1001
ACAD_DSTYLE_DIM_EXT1_LINETYPE
1070
   381
1005
16
1001
ACAD_DSTYLE_DIM_EXT2_LINETYPE
1070
   382
1005
16
0
ENDSEC
0
SECTION
2
OBJECTS
0
DICTIONARY
5
1df
330
0
100
AcDbDictionary
280
0
281
1
3
ACAD_GROUP
350
1e0
3
ACAD_MLINESTYLE
350
1e1
0
DICTIONARY
5
1e0
330
0
100
AcDbDictionary
280
0
281
1
0
DICTIONARY
5
1e1
330
0
100
AcDbDictionary
280
0
281
1
3
Standard
350
18
0
MLINESTYLE
5
18
330
1e1
100
AcDbMlineStyle
2
Standard
70
0
3

62
256
51
90
52
90
71
2
49
-0.5
62
256
6
ByLayer
49
0.5
62
256
6
ByLayer
0
RASTERVARIABLES
5
1cd
330

100
AcDbRasterVariables
90
0
70
1
71
1
72
1
0
ENDSEC
0
EOF
