0
SECTION
2
HEADER
9
$ACADVER
1
AC1015
9
$DWGCODEPAGE
3
ANSI_1252
9
$HANDSEED
5
1ed
9
$ANGBASE
50
0
9
$ANGDIR
70
0
9
$ATTMODE
70
1
9
$AUNITS
70
0
9
$AUPREC
70
0
9
$CECOLOR
62
256
9
$CELTSCALE
40
1
9
$CELTYPE
6
ByLayer
9
$CELWEIGHT
370
18
9
$CLAYER
8
0
9
$CMLJUST
70
0
9
$CMLSCALE
40
1
9
$CMLSTYLE
2
Standard
9
$DIMSTYLE
2
Standard
9
$TEXTSIZE
40
0.2
9
$TEXTSTYLE
7
Standard
9
$LUNITS
70
2
9
$LUPREC
70
4
9
$EXTNAMES
290
1
9
$INSUNITS
70
4
9
$LTSCALE
40
1
9
$LWDISPLAY
290
1
9
$PDMODE
70
0
9
$PDSIZE
40
0
9
$PLINEGEN
70
0
0
ENDSEC
0
SECTION
2
CLASSES
0
CLASS
1
RASTERVARIABLES
2
AcDbRasterVariables
3
ISM
90
0
280
0
281
0
0
ENDSEC
0
SECTION
2
TABLES
0
TABLE
2
VPORT
5
1e3
100
AcDbSymbolTable
0
VPORT
5
1
100
AcDbSymbolTableRecord
100
AcDbViewportTableRecord
2
*Active
70
0
10
0
20
0
11
1
21
1
12
-1
22
1
13
0
23
0
14
0.5
24
0.5
15
10
25
10
16
0
26
0
36
1
17
0
27
0
37
0
0
ENDTAB
0
TABLE
2
LTYPE
5
1e4
100
AcDbSymbolTable
0
LTYPE
5
14
100
AcDbSymbolTableRecord
100
AcDbLinetypeTableRecord
70
0
2
ByBlock
3

72
65
73
0
40
0
0
LTYPE
5
15
100
AcDbSymbolTableRecord
100
AcDbLinetypeTableRecord
70
0
2
ByLayer
3

72
65
73
0
40
0
0
LTYPE
5
16
100
AcDbSymbolTableRecord
100
AcDbLinetypeTableRecord
70
0
2
Continuous
3
Solid line
72
65
73
0
40
0
0
LTYPE
5
6E
100
AcDbSymbolTableRecord
100
AcDbLinetypeTableRecord
70
0
2
CENTER
3
____ _ ____ _ ____ _ ____
72
65
73
4
40
47.5
49
22
74
0
49
-8.5
74
0
49
8.5
74
0
49
-8.5
74
0
0
LTYPE
5
6F
100
AcDbSymbolTableRecord
100
AcDbLinetypeTableRecord
70
0
2
DASHED
3
__ __ __ __ __ __ __ __ __
72
65
73
2
40
25.72
49
12.86
74
0
49
-12.86
74
0
0
ENDTAB
0
TABLE
2
LAYER
5
1e5
100
AcDbSymbolTable
0
LAYER
5
10
100
AcDbSymbolTableRecord
100
AcDbLayerTableRecord
2
0
70
0
62
7
6
Continuous
290
1
370
-3
390
0
0
LAYER
5
71
100
AcDbSymbolTableRecord
100
AcDbLayerTableRecord
2
80
70
0
62
-6
6
Continuous
290
1
370
-3
390
0
0
LAYER
5
73
100
AcDbSymbolTableRecord
100
AcDbLayerTableRecord
2
81
70
0
62
-3
6
Continuous
290
1
370
-3
390
0
0
LAYER
5
75
100
AcDbSymbolTableRecord
100
AcDbLayerTableRecord
2
1
70
0
62
4
6
Continuous
290
1
370
-3
390
0
0
LAYER
5
9C
100
AcDbSymbolTableRecord
100
AcDbLayerTableRecord
2
4
70
0
62
-2
6
CENTER
290
1
370
-3
390
0
0
LAYER
5
AC
100
AcDbSymbolTableRecord
100
AcDbLayerTableRecord
2
2
70
0
62
7
6
Continuous
290
1
370
-3
390
0
0
LAYER
5
F6
100
AcDbSymbolTableRecord
100
AcDbLayerTableRecord
2
Defpoints
70
0
62
7
6
Continuous
290
0
370
-3
390
0
0
LAYER
5
1cf
100
AcDbSymbolTableRecord
100
AcDbLayerTableRecord
2
SK1
70
0
62
4
6
Continuous
290
1
370
-3
390
0
0
LAYER
5
1d0
100
AcDbSymbolTableRecord
100
AcDbLayerTableRecord
2
SK4
70
0
62
2
6
CENTER
290
1
370
-3
390
0
0
LAYER
5
1d1
100
AcDbSymbolTableRecord
100
AcDbLayerTableRecord
2
SK2
70
0
62
7
6
Continuous
290
1
370
-3
390
0
0
LAYER
5
1d2
100
AcDbSymbolTableRecord
100
AcDbLayerTableRecord
2
SK6
70
0
62
5
6
Continuous
290
1
370
-3
390
0
0
ENDTAB
0
TABLE
2
STYLE
5
1e6
100
AcDbSymbolTable
0
STYLE
5
11
100
AcDbSymbolTableRecord
100
AcDbTextStyleTableRecord
2
Standard
3
txt
70
0
71
0
40
0
41
1
42
0
50
0
0
STYLE
5
D2
100
AcDbSymbolTableRecord
100
AcDbTextStyleTableRecord
2
iso_b_vert
3
simplex.shx
70
0
71
0
40
0
41
1
42
0
50
0
0
STYLE
5
D3
100
AcDbSymbolTableRecord
100
AcDbTextStyleTableRecord
2
DWGDirectTextStyle
3
simplex
70
0
71
0
40
0
41
1
42
0
50
0
0
ENDTAB
0
TABLE
2
DIMSTYLE
5
1e7
100
AcDbSymbolTable
100
AcDbDimStyleTable
0
DIMSTYLE
105
27
100
AcDbSymbolTableRecord
100
AcDbDimStyleTableRecord
2
Standard
70
0
3
<>
41
0.18
42
0.0625
44
0.18
140
0.18
147
0.09
73
0
74
0
77
1
271
2
275
0
278
52
280
0
340
11
0
ENDTAB
0
TABLE
2
VIEW
5
1e8
100
AcDbSymbolTable
0
ENDTAB
0
TABLE
2
UCS
5
1e9
100
AcDbSymbolTable
0
ENDTAB
0
TABLE
2
APPID
5
1ea
100
AcDbSymbolTable
0
APPID
5
12
100
AcDbSymbolTableRecord
100
AcDbRegAppTableRecord
2
ACAD
70
0
0
APPID
5
F2
100
AcDbSymbolTableRecord
100
AcDbRegAppTableRecord
2
ACAD_DSTYLE_DIMBREAK
70
0
0
APPID
5
18E
100
AcDbSymbolTableRecord
100
AcDbRegAppTableRecord
2
ACAD_DSTYLE_DIM_LINETYPE
70
0
0
APPID
5
18F
100
AcDbSymbolTableRecord
100
AcDbRegAppTableRecord
2
ACAD_DSTYLE_DIM_EXT1_LINETYPE
70
0
0
APPID
5
190
100
AcDbSymbolTableRecord
100
AcDbRegAppTableRecord
2
ACAD_DSTYLE_DIM_EXT2_LINETYPE
70
0
0
APPID
5
1CB
100
AcDbSymbolTableRecord
100
AcDbRegAppTableRecord
2
ACAD_MLEADERVER
70
0
0
ENDTAB
0
TABLE
2
BLOCK_RECORD
5
1eb
100
AcDbSymbolTable
0
BLOCK_RECORD
5
1F
100
AcDbSymbolTableRecord
100
AcDbBlockTableRecord
2
*Model_Space
340
0
70
0
0
BLOCK_RECORD
5
1B
100
AcDbSymbolTableRecord
100
AcDbBlockTableRecord
2
*Paper_Space
340
0
70
0
0
BLOCK_RECORD
5
23
100
AcDbSymbolTableRecord
100
AcDbBlockTableRecord
2
*Paper_Space0
340
0
70
0
0
BLOCK_RECORD
5
F7
100
AcDbSymbolTableRecord
100
AcDbBlockTableRecord
2
*D1
340
0
70
0
0
BLOCK_RECORD
5
103
100
AcDbSymbolTableRecord
100
AcDbBlockTableRecord
2
_U0
340
0
70
0
0
BLOCK_RECORD
5
10F
100
AcDbSymbolTableRecord
100
AcDbBlockTableRecord
2
*D3
340
0
70
0
0
BLOCK_RECORD
5
11D
100
AcDbSymbolTableRecord
100
AcDbBlockTableRecord
2
_U1
340
0
70
0
0
BLOCK_RECORD
5
129
100
AcDbSymbolTableRecord
100
AcDbBlockTableRecord
2
*D5
340
0
70
0
0
BLOCK_RECORD
5
136
100
AcDbSymbolTableRecord
100
AcDbBlockTableRecord
2
_U2
340
0
70
0
0
BLOCK_RECORD
5
142
100
AcDbSymbolTableRecord
100
AcDbBlockTableRecord
2
*D7
340
0
70
0
0
BLOCK_RECORD
5
14E
100
AcDbSymbolTableRecord
100
AcDbBlockTableRecord
2
_U3
340
0
70
0
0
BLOCK_RECORD
5
15A
100
AcDbSymbolTableRecord
100
AcDbBlockTableRecord
2
*D9
340
0
70
0
0
BLOCK_RECORD
5
167
100
AcDbSymbolTableRecord
100
AcDbBlockTableRecord
2
_U4
340
0
70
0
0
ENDTAB
0
ENDSEC
0
SECTION
2
BLOCKS
0
BLOCK
5
20
100
AcDbEntity
8
0
100
AcDbBlockBegin
2
*Model_Space
70
0
10
0
20
0
30
0
3
*Model_Space
0
ENDBLK
5
21
100
AcDbEntity
8
0
100
AcDbBlockEnd
0
BLOCK
5
1C
100
AcDbEntity
8
0
100
AcDbBlockBegin
2
*Paper_Space
70
0
10
0
20
0
30
0
3
*Paper_Space
0
ENDBLK
5
1D
100
AcDbEntity
8
0
100
AcDbBlockEnd
0
BLOCK
5
24
100
AcDbEntity
8
0
100
AcDbBlockBegin
2
*Paper_Space0
70
0
10
0
20
0
30
0
3
*Paper_Space0
0
ENDBLK
5
25
100
AcDbEntity
8
0
100
AcDbBlockEnd
0
BLOCK
5
F8
100
AcDbEntity
8
0
100
AcDbBlockBegin
2
*D1
70
1
10
0
20
0
30
0
3
*D1
0
LINE
5
FA
100
AcDbEntity
8
0
62
256
6
ByLayer
370
-2
48
1
60
0
100
AcDbLine
10
-23.1803
20
-0.0875
30
0
11
-23.1803
21
-40.85
31
0
39
0
210
0
220
0
230
1
0
LINE
5
FB
100
AcDbEntity
8
0
62
256
6
ByLayer
370
-2
48
1
60
0
100
AcDbLine
10
14.8197
20
-0.7525
30
0
11
14.8197
21
-40.85
31
0
39
0
210
0
220
0
230
1
0
LINE
5
FC
100
AcDbEntity
8
0
62
256
6
ByLayer
370
-2
48
1
60
0
100
AcDbLine
10
-19.6803
20
-38.85
30
0
11
11.3197
21
-38.85
31
0
39
0
210
0
220
0
230
1
0
SOLID
5
FD
100
AcDbEntity
8
0
62
256
6
ByLayer
370
-1
48
1
60
0
100
AcDbTrace
10
-19.6803
20
-38.266667
30
0
11
-19.6803
21
-39.433333
31
0
12
-23.1803
22
-38.85
32
0
13
-23.1803
23
-38.85
33
0
39
0
210
0
220
0
230
1
0
SOLID
5
FE
100
AcDbEntity
8
0
62
256
6
ByLayer
370
-1
48
1
60
0
100
AcDbTrace
10
11.3197
20
-39.433333
30
0
11
11.3197
21
-38.266667
31
0
12
14.8197
22
-38.85
32
0
13
14.8197
23
-38.85
33
0
39
0
210
0
220
0
230
1
0
MTEXT
5
FF
100
AcDbEntity
8
0
62
256
6
ByLayer
370
18
48
1
60
0
100
AcDbMText
10
-4.1803
20
-32.85
30
0
210
0
220
0
230
1
1
\A1;38
40
3
41
0
44
1
50
0
71
5
72
5
7
iso_b_vert
0
POINT
5
100
100
AcDbEntity
8
Defpoints
62
0
6
ByLayer
370
-1
48
1
60
0
100
AcDbPoint
10
-23.1803
20
1.5
30
0
39
0
210
0
220
0
230
1
50
360
0
POINT
5
101
100
AcDbEntity
8
Defpoints
62
0
6
ByLayer
370
-1
48
1
60
0
100
AcDbPoint
10
14.8197
20
0.835
30
0
39
0
210
0
220
0
230
1
50
360
0
POINT
5
102
100
AcDbEntity
8
Defpoints
62
0
6
ByLayer
370
-1
48
1
60
0
100
AcDbPoint
10
14.8197
20
-38.85
30
0
39
0
210
0
220
0
230
1
50
360
0
ENDBLK
5
F9
100
AcDbEntity
8
0
100
AcDbBlockEnd
0
BLOCK
5
10A
100
AcDbEntity
8
0
100
AcDbBlockBegin
2
_U0
70
0
10
0
20
0
30
0
3
_U0
0
MTEXT
5
104
100
AcDbEntity
8
SK2
62
256
6
ByLayer
370
18
48
1
60
0
100
AcDbMText
10
-8.66267
20
-37.964886
30
0
210
0
220
0
230
1
1
\W0.7468;38.00
40
3
41
0
44
1.084337
50
0
71
7
72
5
7
iso_b_vert
0
LINE
5
105
100
AcDbEntity
8
SK2
62
256
6
ByLayer
370
13
48
1
60
0
100
AcDbLine
10
-23.1803
20
-0.0875
30
0
11
-23.1803
21
-40.85
31
0
39
0
210
0
220
0
230
1
0
LINE
5
106
100
AcDbEntity
8
SK2
62
256
6
ByLayer
370
13
48
1
60
0
100
AcDbLine
10
14.8197
20
-0.7525
30
0
11
14.8197
21
-40.85
31
0
39
0
210
0
220
0
230
1
0
LINE
5
107
100
AcDbEntity
8
SK2
62
256
6
ByLayer
370
13
48
1
60
0
100
AcDbLine
10
-23.1803
20
-38.85
30
0
11
14.8197
21
-38.85
31
0
39
0
210
0
220
0
230
1
0
SOLID
5
108
100
AcDbEntity
8
SK2
62
256
6
ByLayer
370
18
48
1
60
0
100
AcDbTrace
10
-23.1803
20
-38.85
30
0
11
-19.680302
21
-38.389216
31
0
12
-19.680298
22
-39.310784
32
0
13
-19.680298
23
-39.310784
33
0
39
0
210
0
220
0
230
1
0
SOLID
5
109
100
AcDbEntity
8
SK2
62
256
6
ByLayer
370
18
48
1
60
0
100
AcDbTrace
10
14.8197
20
-38.85
30
0
11
11.319702
21
-39.310784
31
0
12
11.319698
22
-38.389216
32
0
13
11.319698
23
-38.389216
33
0
39
0
210
0
220
0
230
1
0
ENDBLK
5
10B
100
AcDbEntity
8
0
100
AcDbBlockEnd
0
BLOCK
5
110
100
AcDbEntity
8
0
100
AcDbBlockBegin
2
*D3
70
1
10
0
20
0
30
0
3
*D3
0
LINE
5
112
100
AcDbEntity
8
0
62
256
6
ByLayer
370
-2
48
1
60
0
100
AcDbLine
10
14.8197
20
-0.7525
30
0
11
14.8197
21
-24.335
31
0
39
0
210
0
220
0
230
1
0
LINE
5
113
100
AcDbEntity
8
0
62
256
6
ByLayer
370
-2
48
1
60
0
100
AcDbLine
10
6.1247
20
-1.5875
30
0
11
6.1247
21
-24.335
31
0
39
0
210
0
220
0
230
1
0
LINE
5
114
100
AcDbEntity
8
0
62
256
6
ByLayer
370
-2
48
1
60
0
100
AcDbLine
10
14.8197
20
-22.335
30
0
11
37.105414
21
-22.335
31
0
39
0
210
0
220
0
230
1
0
LINE
5
115
100
AcDbEntity
8
0
62
256
6
ByLayer
370
-2
48
1
60
0
100
AcDbLine
10
18.3197
20
-22.335
30
0
11
21.8197
21
-22.335
31
0
39
0
210
0
220
0
230
1
0
LINE
5
116
100
AcDbEntity
8
0
62
256
6
ByLayer
370
-2
48
1
60
0
100
AcDbLine
10
2.6247
20
-22.335
30
0
11
-0.8753
21
-22.335
31
0
39
0
210
0
220
0
230
1
0
SOLID
5
117
100
AcDbEntity
8
0
62
256
6
ByLayer
370
-1
48
1
60
0
100
AcDbTrace
10
18.3197
20
-21.751667
30
0
11
18.3197
21
-22.918333
31
0
12
14.8197
22
-22.335
32
0
13
14.8197
23
-22.335
33
0
39
0
210
0
220
0
230
1
0
SOLID
5
118
100
AcDbEntity
8
0
62
256
6
ByLayer
370
-1
48
1
60
0
100
AcDbTrace
10
2.6247
20
-22.918333
30
0
11
2.6247
21
-21.751667
31
0
12
6.1247
22
-22.335
32
0
13
6.1247
23
-22.335
33
0
39
0
210
0
220
0
230
1
0
MTEXT
5
119
100
AcDbEntity
8
0
62
256
6
ByLayer
370
18
48
1
60
0
100
AcDbMText
10
29.462557
20
-16.335
30
0
210
0
220
0
230
1
1
\A1;8.7
40
3
41
0
44
1
50
0
71
5
72
5
7
iso_b_vert
0
POINT
5
11A
100
AcDbEntity
8
Defpoints
62
0
6
ByLayer
370
-1
48
1
60
0
100
AcDbPoint
10
14.8197
20
0.835
30
0
39
0
210
0
220
0
230
1
50
360
0
POINT
5
11B
100
AcDbEntity
8
Defpoints
62
0
6
ByLayer
370
-1
48
1
60
0
100
AcDbPoint
10
6.1247
20
0
30
0
39
0
210
0
220
0
230
1
50
360
0
POINT
5
11C
100
AcDbEntity
8
Defpoints
62
0
6
ByLayer
370
-1
48
1
60
0
100
AcDbPoint
10
6.1247
20
-22.335
30
0
39
0
210
0
220
0
230
1
50
360
0
ENDBLK
5
111
100
AcDbEntity
8
0
100
AcDbBlockEnd
0
BLOCK
5
124
100
AcDbEntity
8
0
100
AcDbBlockBegin
2
_U1
70
0
10
0
20
0
30
0
3
_U1
0
MTEXT
5
11E
100
AcDbEntity
8
SK2
62
256
6
ByLayer
370
18
48
1
60
0
100
AcDbMText
10
18.9787
20
-21.449886
30
0
210
0
220
0
230
1
1
\W0.7051;(8.70)
40
3
41
0
44
1.084337
50
0
71
7
72
5
7
iso_b_vert
0
LINE
5
11F
100
AcDbEntity
8
SK2
62
256
6
ByLayer
370
13
48
1
60
0
100
AcDbLine
10
14.8197
20
-0.7525
30
0
11
14.8197
21
-24.335
31
0
39
0
210
0
220
0
230
1
0
LINE
5
120
100
AcDbEntity
8
SK2
62
256
6
ByLayer
370
13
48
1
60
0
100
AcDbLine
10
6.1247
20
-1.5875
30
0
11
6.1247
21
-24.335
31
0
39
0
210
0
220
0
230
1
0
LINE
5
121
100
AcDbEntity
8
SK2
62
256
6
ByLayer
370
13
48
1
60
0
100
AcDbLine
10
6.1247
20
-22.335
30
0
11
28.291469
21
-22.335
31
0
39
0
210
0
220
0
230
1
0
SOLID
5
122
100
AcDbEntity
8
SK2
62
256
6
ByLayer
370
18
48
1
60
0
100
AcDbTrace
10
14.8197
20
-22.335
30
0
11
11.319702
21
-22.795784
31
0
12
11.319698
22
-21.874216
32
0
13
11.319698
23
-21.874216
33
0
39
0
210
0
220
0
230
1
0
SOLID
5
123
100
AcDbEntity
8
SK2
62
256
6
ByLayer
370
18
48
1
60
0
100
AcDbTrace
10
6.1247
20
-22.335
30
0
11
9.624698
21
-21.874216
31
0
12
9.624702
22
-22.795784
32
0
13
9.624702
23
-22.795784
33
0
39
0
210
0
220
0
230
1
0
ENDBLK
5
125
100
AcDbEntity
8
0
100
AcDbBlockEnd
0
BLOCK
5
12A
100
AcDbEntity
8
0
100
AcDbBlockBegin
2
*D5
70
1
10
0
20
0
30
0
3
*D5
0
LINE
5
12C
100
AcDbEntity
8
0
62
256
6
ByLayer
370
-2
48
1
60
0
100
AcDbLine
10
14.8197
20
-0.7525
30
0
11
14.8197
21
-32.35
31
0
39
0
210
0
220
0
230
1
0
LINE
5
12D
100
AcDbEntity
8
0
62
256
6
ByLayer
370
-2
48
1
60
0
100
AcDbLine
10
3.6197
20
-1.5875
30
0
11
3.6197
21
-32.35
31
0
39
0
210
0
220
0
230
1
0
LINE
5
12E
100
AcDbEntity
8
0
62
256
6
ByLayer
370
-2
48
1
60
0
100
AcDbLine
10
18.3197
20
-30.35
30
0
11
21.8197
21
-30.35
31
0
39
0
210
0
220
0
230
1
0
LINE
5
12F
100
AcDbEntity
8
0
62
256
6
ByLayer
370
-2
48
1
60
0
100
AcDbLine
10
0.1197
20
-30.35
30
0
11
-3.3803
21
-30.35
31
0
39
0
210
0
220
0
230
1
0
SOLID
5
130
100
AcDbEntity
8
0
62
256
6
ByLayer
370
-1
48
1
60
0
100
AcDbTrace
10
18.3197
20
-29.766667
30
0
11
18.3197
21
-30.933333
31
0
12
14.8197
22
-30.35
32
0
13
14.8197
23
-30.35
33
0
39
0
210
0
220
0
230
1
0
SOLID
5
131
100
AcDbEntity
8
0
62
256
6
ByLayer
370
-1
48
1
60
0
100
AcDbTrace
10
0.1197
20
-30.933333
30
0
11
0.1197
21
-29.766667
31
0
12
3.6197
22
-30.35
32
0
13
3.6197
23
-30.35
33
0
39
0
210
0
220
0
230
1
0
MTEXT
5
132
100
AcDbEntity
8
0
62
256
6
ByLayer
370
18
48
1
60
0
100
AcDbMText
10
9.2197
20
-24.35
30
0
210
0
220
0
230
1
1
\A1;11.2
40
3
41
0
44
1
50
0
71
5
72
5
7
iso_b_vert
0
POINT
5
133
100
AcDbEntity
8
Defpoints
62
0
6
ByLayer
370
-1
48
1
60
0
100
AcDbPoint
10
14.8197
20
0.835
30
0
39
0
210
0
220
0
230
1
50
360
0
POINT
5
134
100
AcDbEntity
8
Defpoints
62
0
6
ByLayer
370
-1
48
1
60
0
100
AcDbPoint
10
3.6197
20
0
30
0
39
0
210
0
220
0
230
1
50
360
0
POINT
5
135
100
AcDbEntity
8
Defpoints
62
0
6
ByLayer
370
-1
48
1
60
0
100
AcDbPoint
10
3.6197
20
-30.35
30
0
39
0
210
0
220
0
230
1
50
360
0
ENDBLK
5
12B
100
AcDbEntity
8
0
100
AcDbBlockEnd
0
BLOCK
5
13D
100
AcDbEntity
8
0
100
AcDbBlockBegin
2
_U2
70
0
10
0
20
0
30
0
3
_U2
0
MTEXT
5
137
100
AcDbEntity
8
SK2
62
256
6
ByLayer
370
18
48
1
60
0
100
AcDbMText
10
5.487215
20
-29.464886
30
0
210
0
220
0
230
1
1
\W0.6261;11.20
40
3
41
0
44
1.084337
50
0
71
7
72
5
7
iso_b_vert
0
LINE
5
138
100
AcDbEntity
8
SK2
62
256
6
ByLayer
370
13
48
1
60
0
100
AcDbLine
10
14.8197
20
-0.7525
30
0
11
14.8197
21
-32.35
31
0
39
0
210
0
220
0
230
1
0
LINE
5
139
100
AcDbEntity
8
SK2
62
256
6
ByLayer
370
13
48
1
60
0
100
AcDbLine
10
3.6197
20
-1.5875
30
0
11
3.6197
21
-32.35
31
0
39
0
210
0
220
0
230
1
0
LINE
5
13A
100
AcDbEntity
8
SK2
62
256
6
ByLayer
370
13
48
1
60
0
100
AcDbLine
10
14.8197
20
-30.35
30
0
11
3.6197
21
-30.35
31
0
39
0
210
0
220
0
230
1
0
SOLID
5
13B
100
AcDbEntity
8
SK2
62
256
6
ByLayer
370
18
48
1
60
0
100
AcDbTrace
10
14.8197
20
-30.35
30
0
11
11.319702
21
-30.810784
31
0
12
11.319698
22
-29.889216
32
0
13
11.319698
23
-29.889216
33
0
39
0
210
0
220
0
230
1
0
SOLID
5
13C
100
AcDbEntity
8
SK2
62
256
6
ByLayer
370
18
48
1
60
0
100
AcDbTrace
10
3.6197
20
-30.35
30
0
11
7.119698
21
-29.889216
31
0
12
7.119702
22
-30.810784
32
0
13
7.119702
23
-30.810784
33
0
39
0
210
0
220
0
230
1
0
ENDBLK
5
13E
100
AcDbEntity
8
0
100
AcDbBlockEnd
0
BLOCK
5
143
100
AcDbEntity
8
0
100
AcDbBlockBegin
2
*D7
70
1
10
0
20
0
30
0
3
*D7
0
LINE
5
145
100
AcDbEntity
8
0
62
256
6
ByLayer
370
-2
48
1
60
0
100
AcDbLine
10
-23.1803
20
1.5875
30
0
11
-23.1803
21
13.35
31
0
39
0
210
0
220
0
230
1
0
LINE
5
146
100
AcDbEntity
8
0
62
256
6
ByLayer
370
-2
48
1
60
0
100
AcDbLine
10
0
20
1.5875
30
0
11
0
21
13.35
31
0
39
0
210
0
220
0
230
1
0
LINE
5
147
100
AcDbEntity
8
0
62
256
6
ByLayer
370
-2
48
1
60
0
100
AcDbLine
10
-19.6803
20
11.35
30
0
11
-3.5
21
11.35
31
0
39
0
210
0
220
0
230
1
0
SOLID
5
148
100
AcDbEntity
8
0
62
256
6
ByLayer
370
-1
48
1
60
0
100
AcDbTrace
10
-19.6803
20
11.933333
30
0
11
-19.6803
21
10.766667
31
0
12
-23.1803
22
11.35
32
0
13
-23.1803
23
11.35
33
0
39
0
210
0
220
0
230
1
0
SOLID
5
149
100
AcDbEntity
8
0
62
256
6
ByLayer
370
-1
48
1
60
0
100
AcDbTrace
10
-3.5
20
10.766667
30
0
11
-3.5
21
11.933333
31
0
12
0
22
11.35
32
0
13
0
23
11.35
33
0
39
0
210
0
220
0
230
1
0
MTEXT
5
14A
100
AcDbEntity
8
0
62
256
6
ByLayer
370
18
48
1
60
0
100
AcDbMText
10
-11.59015
20
17.35
30
0
210
0
220
0
230
1
1
\A1;23.18
40
3
41
0
44
1
50
0
71
5
72
5
7
iso_b_vert
0
POINT
5
14B
100
AcDbEntity
8
Defpoints
62
0
6
ByLayer
370
-1
48
1
60
0
100
AcDbPoint
10
-23.1803
20
0
30
0
39
0
210
0
220
0
230
1
50
360
0
POINT
5
14C
100
AcDbEntity
8
Defpoints
62
0
6
ByLayer
370
-1
48
1
60
0
100
AcDbPoint
10
0
20
0
30
0
39
0
210
0
220
0
230
1
50
360
0
POINT
5
14D
100
AcDbEntity
8
Defpoints
62
0
6
ByLayer
370
-1
48
1
60
0
100
AcDbPoint
10
0
20
11.35
30
0
39
0
210
0
220
0
230
1
50
360
0
ENDBLK
5
144
100
AcDbEntity
8
0
100
AcDbBlockEnd
0
BLOCK
5
155
100
AcDbEntity
8
0
100
AcDbBlockBegin
2
_U3
70
0
10
0
20
0
30
0
3
_U3
0
MTEXT
5
14F
100
AcDbEntity
8
SK2
62
256
6
ByLayer
370
18
48
1
60
0
100
AcDbMText
10
-15.697578
20
12.235114
30
0
210
0
220
0
230
1
1
\W0.6864;23.18
40
3
41
0
44
1.084337
50
0
71
7
72
5
7
iso_b_vert
0
LINE
5
150
100
AcDbEntity
8
SK2
62
256
6
ByLayer
370
13
48
1
60
0
100
AcDbLine
10
-23.1803
20
1.5875
30
0
11
-23.1803
21
13.35
31
0
39
0
210
0
220
0
230
1
0
LINE
5
151
100
AcDbEntity
8
SK2
62
256
6
ByLayer
370
13
48
1
60
0
100
AcDbLine
10
0
20
1.5875
30
0
11
0
21
13.35
31
0
39
0
210
0
220
0
230
1
0
LINE
5
152
100
AcDbEntity
8
SK2
62
256
6
ByLayer
370
13
48
1
60
0
100
AcDbLine
10
-23.1803
20
11.35
30
0
11
0
21
11.35
31
0
39
0
210
0
220
0
230
1
0
SOLID
5
153
100
AcDbEntity
8
SK2
62
256
6
ByLayer
370
18
48
1
60
0
100
AcDbTrace
10
-23.1803
20
11.35
30
0
11
-19.680302
21
11.810784
31
0
12
-19.680298
22
10.889216
32
0
13
-19.680298
23
10.889216
33
0
39
0
210
0
220
0
230
1
0
SOLID
5
154
100
AcDbEntity
8
SK2
62
256
6
ByLayer
370
18
48
1
60
0
100
AcDbTrace
10
0
20
11.35
30
0
11
-3.499998
21
10.889216
31
0
12
-3.500002
22
11.810784
32
0
13
-3.500002
23
11.810784
33
0
39
0
210
0
220
0
230
1
0
ENDBLK
5
156
100
AcDbEntity
8
0
100
AcDbBlockEnd
0
BLOCK
5
15B
100
AcDbEntity
8
0
100
AcDbBlockBegin
2
*D9
70
1
10
0
20
0
30
0
3
*D9
0
LINE
5
15D
100
AcDbEntity
8
0
62
256
6
ByLayer
370
-2
48
1
60
0
100
AcDbLine
10
14.8197
20
2.4225
30
0
11
14.8197
21
13.35
31
0
39
0
210
0
220
0
230
1
0
LINE
5
15E
100
AcDbEntity
8
0
62
256
6
ByLayer
370
-2
48
1
60
0
100
AcDbLine
10
0
20
1.5875
30
0
11
0
21
13.35
31
0
39
0
210
0
220
0
230
1
0
LINE
5
15F
100
AcDbEntity
8
0
62
256
6
ByLayer
370
-2
48
1
60
0
100
AcDbLine
10
18.3197
20
11.35
30
0
11
21.8197
21
11.35
31
0
39
0
210
0
220
0
230
1
0
LINE
5
160
100
AcDbEntity
8
0
62
256
6
ByLayer
370
-2
48
1
60
0
100
AcDbLine
10
-3.5
20
11.35
30
0
11
-7
21
11.35
31
0
39
0
210
0
220
0
230
1
0
SOLID
5
161
100
AcDbEntity
8
0
62
256
6
ByLayer
370
-1
48
1
60
0
100
AcDbTrace
10
18.3197
20
11.933333
30
0
11
18.3197
21
10.766667
31
0
12
14.8197
22
11.35
32
0
13
14.8197
23
11.35
33
0
39
0
210
0
220
0
230
1
0
SOLID
5
162
100
AcDbEntity
8
0
62
256
6
ByLayer
370
-1
48
1
60
0
100
AcDbTrace
10
-3.5
20
10.766667
30
0
11
-3.5
21
11.933333
31
0
12
0
22
11.35
32
0
13
0
23
11.35
33
0
39
0
210
0
220
0
230
1
0
MTEXT
5
163
100
AcDbEntity
8
0
62
256
6
ByLayer
370
18
48
1
60
0
100
AcDbMText
10
7.40985
20
17.35
30
0
210
0
220
0
230
1
1
\A1;14.82
40
3
41
0
44
1
50
0
71
5
72
5
7
iso_b_vert
0
POINT
5
164
100
AcDbEntity
8
Defpoints
62
0
6
ByLayer
370
-1
48
1
60
0
100
AcDbPoint
10
14.8197
20
0.835
30
0
39
0
210
0
220
0
230
1
50
360
0
POINT
5
165
100
AcDbEntity
8
Defpoints
62
0
6
ByLayer
370
-1
48
1
60
0
100
AcDbPoint
10
0
20
0
30
0
39
0
210
0
220
0
230
1
50
360
0
POINT
5
166
100
AcDbEntity
8
Defpoints
62
0
6
ByLayer
370
-1
48
1
60
0
100
AcDbPoint
10
0
20
11.35
30
0
39
0
210
0
220
0
230
1
50
360
0
ENDBLK
5
15C
100
AcDbEntity
8
0
100
AcDbBlockEnd
0
BLOCK
5
16E
100
AcDbEntity
8
0
100
AcDbBlockBegin
2
_U4
70
0
10
0
20
0
30
0
3
_U4
0
MTEXT
5
168
100
AcDbEntity
8
2
62
256
6
ByLayer
370
18
48
1
60
0
100
AcDbMText
10
3.144479
20
12.235114
30
0
210
0
220
0
230
1
1
\W0.7091;14.82
40
3
41
0
44
1.084337
50
0
71
7
72
5
7
iso_b_vert
0
LINE
5
169
100
AcDbEntity
8
2
62
256
6
ByLayer
370
13
48
1
60
0
100
AcDbLine
10
14.8197
20
2.4225
30
0
11
14.8197
21
13.35
31
0
39
0
210
0
220
0
230
1
0
LINE
5
16A
100
AcDbEntity
8
2
62
256
6
ByLayer
370
13
48
1
60
0
100
AcDbLine
10
0
20
1.5875
30
0
11
0
21
13.35
31
0
39
0
210
0
220
0
230
1
0
LINE
5
16B
100
AcDbEntity
8
2
62
256
6
ByLayer
370
13
48
1
60
0
100
AcDbLine
10
14.8197
20
11.35
30
0
11
0
21
11.35
31
0
39
0
210
0
220
0
230
1
0
SOLID
5
16C
100
AcDbEntity
8
2
62
256
6
ByLayer
370
18
48
1
60
0
100
AcDbTrace
10
14.8197
20
11.35
30
0
11
11.319702
21
10.889216
31
0
12
11.319698
22
11.810784
32
0
13
11.319698
23
11.810784
33
0
39
0
210
0
220
0
230
1
0
SOLID
5
16D
100
AcDbEntity
8
2
62
256
6
ByLayer
370
18
48
1
60
0
100
AcDbTrace
10
0
20
11.35
30
0
11
3.499998
21
11.810784
31
0
12
3.500002
22
10.889216
32
0
13
3.500002
23
10.889216
33
0
39
0
210
0
220
0
230
1
0
ENDBLK
5
16F
100
AcDbEntity
8
0
100
AcDbBlockEnd
0
ENDSEC
0
SECTION
2
ENTITIES
0
ARC
5
BD
100
AcDbEntity
8
1
62
256
6
ByLayer
370
18
48
1
60
0
100
AcDbCircle
39
0
10
1.419744
20
-1.835
30
0
40
1
210
0
220
0
230
1
100
AcDbArc
50
90
51
120
0
ARC
5
BE
100
AcDbEntity
8
1
62
256
6
ByLayer
370
18
48
1
60
0
100
AcDbCircle
39
0
10
1.419744
20
1.835
30
0
40
1
210
0
220
0
230
1
100
AcDbArc
50
240
51
270
0
ARC
5
BF
100
AcDbEntity
8
SK2
62
256
6
ByLayer
370
13
48
1
60
0
100
AcDbCircle
39
0
10
14.8197
20
0
30
0
40
16.35
210
0
220
0
230
1
100
AcDbArc
50
10.57289
51
65
0
ARC
5
C0
100
AcDbEntity
8
SK2
62
256
6
ByLayer
370
13
48
1
60
0
100
AcDbCircle
39
0
10
14.8197
20
0
30
0
40
16.35
210
0
220
0
230
1
100
AcDbArc
50
295
51
349.42711
0
POINT
5
70
100
AcDbEntity
8
80
62
256
6
ByLayer
370
18
48
1
60
0
100
AcDbPoint
10
0
20
0
30
0
39
0
210
0
220
0
230
1
50
360
0
POINT
5
72
100
AcDbEntity
8
81
62
256
6
ByLayer
370
18
48
1
60
0
100
AcDbPoint
10
14.8197
20
0
30
0
39
0
210
0
220
0
230
1
50
360
0
POINT
5
74
100
AcDbEntity
8
1
62
256
6
ByLayer
370
18
48
1
60
1
100
AcDbPoint
10
-23.1803
20
1.5
30
0
39
0
210
0
220
0
230
1
50
360
0
POINT
5
76
100
AcDbEntity
8
1
62
256
6
ByLayer
370
18
48
1
60
1
100
AcDbPoint
10
14.8197
20
0.835
30
0
39
0
210
0
220
0
230
1
50
360
0
POINT
5
77
100
AcDbEntity
8
1
62
256
6
ByLayer
370
18
48
1
60
1
100
AcDbPoint
10
14.8197
20
0.835
30
0
39
0
210
0
220
0
230
1
50
360
0
POINT
5
78
100
AcDbEntity
8
1
62
256
6
ByLayer
370
18
48
1
60
1
100
AcDbPoint
10
6.1247
20
0
30
0
39
0
210
0
220
0
230
1
50
360
0
POINT
5
79
100
AcDbEntity
8
1
62
256
6
ByLayer
370
18
48
1
60
1
100
AcDbPoint
10
14.8197
20
0.835
30
0
39
0
210
0
220
0
230
1
50
360
0
POINT
5
7A
100
AcDbEntity
8
1
62
256
6
ByLayer
370
18
48
1
60
1
100
AcDbPoint
10
3.6197
20
0
30
0
39
0
210
0
220
0
230
1
50
360
0
POINT
5
7B
100
AcDbEntity
8
1
62
256
6
ByLayer
370
18
48
1
60
1
100
AcDbPoint
10
-23.1803
20
0
30
0
39
0
210
0
220
0
230
1
50
360
0
POINT
5
7C
100
AcDbEntity
8
1
62
256
6
ByLayer
370
18
48
1
60
1
100
AcDbPoint
10
0
20
0
30
0
39
0
210
0
220
0
230
1
50
360
0
POINT
5
7D
100
AcDbEntity
8
1
62
256
6
ByLayer
370
18
48
1
60
1
100
AcDbPoint
10
14.8197
20
0.835
30
0
39
0
210
0
220
0
230
1
50
360
0
POINT
5
7E
100
AcDbEntity
8
1
62
256
6
ByLayer
370
18
48
1
60
1
100
AcDbPoint
10
0
20
0
30
0
39
0
210
0
220
0
230
1
50
360
0
SPLINE
5
C1
100
AcDbEntity
8
1
62
256
6
ByLayer
370
18
48
1
60
0
100
AcDbSpline
70
4
71
3
72
18
73
14
40
0
40
0
40
0
40
0
40
0.250000000000011
40
0.250000000000011
40
0.500000000000022
40
0.500000000000022
40
0.625000000000034
40
0.625000000000034
40
0.687500000000034
40
0.687500000000034
40
0.750000000000034
40
0.750000000000034
40
1
40
1
40
1
40
1
41
1
10
3.64392128974862
20
-0.557195156474961
30
0
41
1
10
3.71868565169578
20
-0.543486318175184
30
0
41
1
10
3.79382249694552
20
-0.533218984145122
30
0
41
1
10
3.94481676475763
20
-0.520250164454211
30
0
41
1
10
4.02067426524462
20
-0.517547148272513
30
0
41
1
10
4.13500753442648
20
-0.519410875602034
30
0
41
1
10
4.17321004269562
20
-0.52101588587314
30
0
41
1
10
4.23065410008115
20
-0.52490565567922
30
0
41
1
10
4.24981619855865
20
-0.526449342764778
30
0
41
1
10
4.28796592682886
20
-0.530004324053891
30
0
41
1
10
4.30698086586122
20
-0.532017297631825
30
0
41
1
10
4.40175814486346
20
-0.543222058623371
30
0
41
1
10
4.47663155455822
20
-0.555847392554909
30
0
41
1
10
4.55055800002361
20
-0.57154855978257
30
0
0
SPLINE
5
C2
100
AcDbEntity
8
1
62
256
6
ByLayer
370
18
48
1
60
0
100
AcDbSpline
70
4
71
3
72
44
73
40
40
0
40
0
40
0
40
0
40
0.125000000000006
40
0.125000000000006
40
0.187500000000009
40
0.187500000000009
40
0.250000000000012
40
0.250000000000012
40
0.312500000000015
40
0.312500000000015
40
0.375000000000018
40
0.375000000000018
40
0.500000000000024
40
0.500000000000024
40
0.531250000000022
40
0.531250000000022
40
0.56250000000002
40
0.56250000000002
40
0.625000000000016
40
0.625000000000016
40
0.687500000000012
40
0.687500000000012
40
0.71875000000001
40
0.71875000000001
40
0.750000000000008
40
0.750000000000008
40
0.812500000000004
40
0.812500000000004
40
0.828125000000004
40
0.828125000000004
40
0.843750000000004
40
0.843750000000004
40
0.875000000000003
40
0.875000000000003
40
0.937500000000002
40
0.937500000000002
40
0.968750000000001
40
0.968750000000001
40
1
40
1
40
1
40
1
41
1
10
4.55055800000002
20
-0.73613952471311
30
0
41
1
10
4.48693108453119
20
-0.744888638291002
30
0
41
1
10
4.42458555829498
20
-0.754769952422237
30
0
41
1
10
4.33298758975982
20
-0.770153132499985
30
0
41
1
10
4.30278981296394
20
-0.775369386726851
30
0
41
1
10
4.24338406866227
20
-0.785691898587658
30
0
41
1
10
4.21413371628438
20
-0.790805544724293
30
0
41
1
10
4.15655445353963
20
-0.80067324922021
30
0
41
1
10
4.12814968501638
20
-0.805439131349942
30
0
41
1
10
4.07287344297961
20
-0.814214461339532
30
0
41
1
10
4.04595900402973
20
-0.818232440035132
30
0
41
1
10
3.96744555224282
20
-0.828696652585222
30
0
41
1
10
3.91804800674501
20
-0.833605119886244
30
0
41
1
10
3.86048878611342
20
-0.835036970675162
30
0
41
1
10
3.84918859265102
20
-0.835084008585881
30
0
41
1
10
3.82703566437354
20
-0.834624633034963
30
0
41
1
10
3.81614721874033
20
-0.834115070483193
30
0
41
1
10
3.78449039244933
20
-0.831647462089137
30
0
41
1
10
3.76477630932982
20
-0.828768748246489
30
0
41
1
10
3.72831980912511
20
-0.820023853074787
30
0
41
1
10
3.71157382484802
20
-0.814162476165819
30
0
41
1
10
3.68896351743558
20
-0.802584746300226
30
0
41
1
10
3.68189378370281
20
-0.798276749473928
30
0
41
1
10
3.66887501046594
20
-0.788815111479494
30
0
41
1
10
3.66289866660088
20
-0.783648167874645
30
0
41
1
10
3.64659984291734
20
-0.766768322794121
30
0
41
1
10
3.63789562296515
20
-0.753684920771406
30
0
41
1
10
3.62997133610577
20
-0.734706439798742
30
0
41
1
10
3.62853521689985
20
-0.73077886542373
30
0
41
1
10
3.62597102883643
20
-0.72264848205856
30
0
41
1
10
3.62484384375961
20
-0.71844275340888
30
0
41
1
10
3.62197338432137
20
-0.705568808734938
30
0
41
1
10
3.62072216714796
20
-0.696592469383518
30
0
41
1
10
3.61891302029369
20
-0.668498412654088
30
0
41
1
10
3.62028760710524
20
-0.6482196554214
30
0
41
1
10
3.6262703037043
20
-0.615467981716392
30
0
41
1
10
3.62893558465706
20
-0.604122023664871
30
0
41
1
10
3.63550356875368
20
-0.581013905051577
30
0
41
1
10
3.63940871507364
20
-0.569218463158592
30
0
41
1
10
3.64392128974862
20
-0.557195156474961
30
0
0
SPLINE
5
C3
100
AcDbEntity
8
1
62
256
6
ByLayer
370
18
48
1
60
0
100
AcDbSpline
70
4
71
3
72
20
73
16
40
0
40
0
40
0
40
0
40
0.243805812062185
40
0.243805812062185
40
0.365708718093278
40
0.365708718093278
40
0.487611624124371
40
0.487611624124371
40
0.609514530155464
40
0.609514530155464
40
0.731417436186556
40
0.731417436186556
40
0.975223248248742
40
0.975223248248742
40
1
40
1
40
1
40
1
41
1
10
4.55055800000002
20
0.73613952471311
30
0
41
1
10
4.48693108453119
20
0.744888638291002
30
0
41
1
10
4.42458555829501
20
0.754769952422237
30
0
41
1
10
4.33298758975985
20
0.770153132499985
30
0
41
1
10
4.30278981296394
20
0.775369386726851
30
0
41
1
10
4.24338406866229
20
0.785691898587658
30
0
41
1
10
4.21413371628384
20
0.790805544729949
30
0
41
1
10
4.15655445353906
20
0.800673249225866
30
0
41
1
10
4.12814968501635
20
0.805439131349942
30
0
41
1
10
4.07287344297964
20
0.814214461339532
30
0
41
1
10
4.04595900402973
20
0.818232440035132
30
0
41
1
10
3.96744555224285
20
0.828696652585222
30
0
41
1
10
3.91804800674501
20
0.833605119886244
30
0
41
1
10
3.86732106822757
20
0.834867009921197
30
0
41
1
10
3.8626764798081
20
0.834943871570431
30
0
41
1
10
3.85806767631533
20
0.834978673715483
30
0
0
SPLINE
5
C4
100
AcDbEntity
8
1
62
256
6
ByLayer
370
18
48
1
60
0
100
AcDbSpline
70
4
71
3
72
22
73
18
40
0
40
0
40
0
40
0
40
0.0702246986493435
40
0.0702246986493435
40
0.140449397298687
40
0.140449397298687
40
0.21067409594803
40
0.21067409594803
40
0.280898794597374
40
0.280898794597374
40
0.421348191896061
40
0.421348191896061
40
0.561797589194748
40
0.561797589194748
40
0.842696383792122
40
0.842696383792122
40
1
40
1
40
1
40
1
41
1
10
14.4303331054406
20
0.803825164978718
30
0
41
1
10
14.4164446709208
20
0.802285021354379
30
0
41
1
10
14.4031345639567
20
0.800407483610599
30
0
41
1
10
14.3769014689888
20
0.79627817825974
30
0
41
1
10
14.3639596018637
20
0.794039041308764
30
0
41
1
10
14.3381829210882
20
0.789316187922708
30
0
41
1
10
14.3253618461533
20
0.786825389136681
30
0
41
1
10
14.2997144826838
20
0.781660080690244
30
0
41
1
10
14.2868753431533
20
0.77899428506629
30
0
41
1
10
14.24828585881
20
0.770772959310705
30
0
41
1
10
14.2225071261673
20
0.76496895746223
30
0
41
1
10
14.1710741181806
20
0.752556782038226
30
0
41
1
10
14.145381471226
20
0.745971962530092
30
0
41
1
10
14.0681995716708
20
0.725218800813423
30
0
41
1
10
14.016704066305
20
0.709977314871537
30
0
41
1
10
13.9362022114631
20
0.684089725080895
30
0
41
1
10
13.9073198667295
20
0.674386126407086
30
0
41
1
10
13.8784594820367
20
0.664291262527229
30
0
0
SPLINE
5
C5
100
AcDbEntity
8
1
62
256
6
ByLayer
370
18
48
1
60
0
100
AcDbSpline
70
4
71
3
72
68
73
64
40
0
40
0
40
0
40
0
40
0.003255566516094
40
0.003255566516094
40
0.0313210172512694
40
0.0313210172512694
40
0.0874519187216201
40
0.0874519187216201
40
0.115517369456795
40
0.115517369456795
40
0.143582820191971
40
0.143582820191971
40
0.171648270927146
40
0.171648270927146
40
0.199713721662321
40
0.199713721662321
40
0.255844623132675
40
0.255844623132675
40
0.283910073867852
40
0.283910073867852
40
0.311975524603028
40
0.311975524603028
40
0.340040975338205
40
0.340040975338205
40
0.354073700705794
40
0.354073700705794
40
0.368106426073382
40
0.368106426073382
40
0.424237327543738
40
0.424237327543738
40
0.480368229014095
40
0.480368229014095
40
0.536499130484451
40
0.536499130484451
40
0.564564581219629
40
0.564564581219629
40
0.592630031954806
40
0.592630031954806
40
0.620695482689984
40
0.620695482689984
40
0.648760933425161
40
0.648760933425161
40
0.676826384160339
40
0.676826384160339
40
0.704891834895516
40
0.704891834895516
40
0.732957285630693
40
0.732957285630693
40
0.761022736365871
40
0.761022736365871
40
0.789088187101048
40
0.789088187101048
40
0.817153637836226
40
0.817153637836226
40
0.873284539306582
40
0.873284539306582
40
0.90134999004176
40
0.90134999004176
40
0.929415440776938
40
0.929415440776938
40
0.985546342247296
40
0.985546342247296
40
1
40
1
40
1
40
1
41
1
10
10.2746714815725
20
-0.834999934061386
30
0
41
1
10
10.2686965846391
20
-0.834998281954569
30
0
41
1
10
10.2627209857069
20
-0.834975287816349
30
0
41
1
10
10.2052235598798
20
-0.834548546273709
30
0
41
1
10
10.1535877621052
20
-0.832569359371774
30
0
41
1
10
9.99907636784917
20
-0.821873937174956
30
0
41
1
10
9.89630814963354
20
-0.808457443631625
30
0
41
1
10
9.74177301440307
20
-0.779264454920138
30
0
41
1
10
9.69012396547484
20
-0.767999946424567
30
0
41
1
10
9.587061395028
20
-0.742607763246696
30
0
41
1
10
9.53563427943698
20
-0.728476420222421
30
0
41
1
10
9.43281987602899
20
-0.697484001202554
30
0
41
1
10
9.38139952746354
20
-0.680653434153072
30
0
41
1
10
9.278387019474
20
-0.644481280993375
30
0
41
1
10
9.2267284170662
20
-0.625100941508492
30
0
41
1
10
9.07198345024196
20
-0.563616363072015
30
0
41
1
10
8.96915590720562
20
-0.518202693111363
30
0
41
1
10
8.81469574692207
20
-0.444393299714619
30
0
41
1
10
8.76307287868741
20
-0.418845133913635
30
0
41
1
10
8.6599561541602
20
-0.36627695275763
30
0
41
1
10
8.60850670105427
20
-0.339267802930522
30
0
41
1
10
8.50568443536835
20
-0.284023200605418
30
0
41
1
10
8.45428130824868
20
-0.25583654877326
30
0
41
1
10
8.37707727771462
20
-0.21289511948271
30
0
41
1
10
8.35132589855976
20
-0.198471364358255
30
0
41
1
10
8.29978007671698
20
-0.169419380785968
30
0
41
1
10
8.2739589988899
20
-0.154774647421533
30
0
41
1
10
8.14514319915256
20
-0.0814301628550709
30
0
41
1
10
8.04283762581562
20
-0.0223289474713226
30
0
41
1
10
7.83875553426321
20
0.0950586146667263
30
0
41
1
10
7.73698678473986
20
0.153358518653022
30
0
41
1
10
7.53305282186395
20
0.267507164098561
30
0
41
1
10
7.4307234841595
20
0.323073563536354
30
0
41
1
10
7.27594126630123
20
0.402859327825269
30
0
41
1
10
7.22441204390327
20
0.428720172300444
30
0
41
1
10
7.12154215924778
20
0.478692153853615
30
0
41
1
10
7.070157188368
20
0.502797791386655
30
0
41
1
10
6.96732609294151
20
0.549022958515366
30
0
41
1
10
6.91584661237695
20
0.571098011660808
30
0
41
1
10
6.81263284696061
20
0.613015183722013
30
0
41
1
10
6.7609908674041
20
0.632840084415363
30
0
41
1
10
6.65798168260321
20
0.669976382711212
30
0
41
1
10
6.60653516129304
20
0.687294357669572
30
0
41
1
10
6.50363733587142
20
0.719304199923897
30
0
41
1
10
6.45221281013684
20
0.73401929548217
30
0
41
1
10
6.34921446956832
20
0.760654828728491
30
0
41
1
10
6.29761825505756
20
0.772541348184234
30
0
41
1
10
6.194645932122
20
0.793228581753283
30
0
41
1
10
6.14320415418197
20
0.802058598368149
30
0
41
1
10
6.04029419978846
20
0.816653630701609
30
0
41
1
10
5.98882395529003
20
0.822417631371707
30
0
41
1
10
5.88573349383068
20
0.830820818899241
30
0
41
1
10
5.83407931420675
20
0.833456654788336
30
0
41
1
10
5.67959461840852
20
0.836566889264731
30
0
41
1
10
5.57679188025543
20
0.83227922387195
30
0
41
1
10
5.4221616595301
20
0.816467224323134
30
0
41
1
10
5.37046231921627
20
0.809610258985742
30
0
41
1
10
5.26755013705605
20
0.792891951560591
30
0
41
1
10
5.21628557114425
20
0.783023851028247
30
0
41
1
10
5.06282061662787
20
0.749065742107376
30
0
41
1
10
4.96081148796111
20
0.720724844257717
30
0
41
1
10
4.83228220260887
20
0.678510226350681
30
0
41
1
10
4.80594485521638
20
0.669523945537549
30
0
41
1
10
4.77958221727459
20
0.660201802003996
30
0
0
SPLINE
5
C6
100
AcDbEntity
8
1
62
256
6
ByLayer
370
18
48
1
60
0
100
AcDbSpline
70
4
71
3
72
26
73
22
40
0
40
0
40
0
40
0
40
0.125000000000003
40
0.125000000000003
40
0.250000000000005
40
0.250000000000005
40
0.375000000000008
40
0.375000000000008
40
0.50000000000001
40
0.50000000000001
40
0.625000000000013
40
0.625000000000013
40
0.687500000000009
40
0.687500000000009
40
0.750000000000005
40
0.750000000000005
40
0.875000000000008
40
0.875000000000008
40
0.937500000000004
40
0.937500000000004
40
1
40
1
40
1
40
1
41
1
10
14.7223585299964
20
0.189248062941857
30
0
41
1
10
14.7152552021408
20
0.214301278330197
30
0
41
1
10
14.7058158527639
20
0.239039293437372
30
0
41
1
10
14.6850655581733
20
0.288567273304039
30
0
41
1
10
14.6737049534488
20
0.313347179822415
30
0
41
1
10
14.6500975283984
20
0.363234630684161
30
0
41
1
10
14.637827731802
20
0.388342525163409
30
0
41
1
10
14.6128960429208
20
0.43878688088455
30
0
41
1
10
14.6002197163053
20
0.464130550748422
30
0
41
1
10
14.5746425627299
20
0.515065589700583
30
0
41
1
10
14.5617323892479
20
0.540672098482872
30
0
41
1
10
14.5421904793428
20
0.579618757259794
30
0
41
1
10
14.5356447035913
20
0.592701123465389
30
0
41
1
10
14.5225212148853
20
0.619028307901516
30
0
41
1
10
14.5159418836534
20
0.632272017722613
30
0
41
1
10
14.4961764220102
20
0.672134154094834
30
0
41
1
10
14.4829627584904
20
0.698894595117366
30
0
41
1
10
14.4631843232395
20
0.738660189100699
30
0
41
1
10
14.4565996452767
20
0.751841491858471
30
0
41
1
10
14.4434531179239
20
0.777980494398747
30
0
41
1
10
14.436889833811
20
0.790948222682999
30
0
41
1
10
14.4303331054406
20
0.803825164978718
30
0
0
SPLINE
5
C7
100
AcDbEntity
8
1
62
256
6
ByLayer
370
18
48
1
60
0
100
AcDbSpline
70
4
71
3
72
10
73
6
40
0
40
0
40
0
40
0
40
0.676590651751015
40
0.676590651751015
40
1
40
1
40
1
40
1
41
1
10
4.55055800000002
20
-0.73613952471311
30
0
41
1
10
4.6024167393941
20
-0.722169716078525
30
0
41
1
10
4.65399265011234
20
-0.706711712103072
30
0
41
1
10
4.73014021012713
20
-0.681943426063697
30
0
41
1
10
4.75475457956398
20
-0.673638229365991
30
0
41
1
10
4.77936219874084
20
-0.665044178544804
30
0
0
SPLINE
5
C8
100
AcDbEntity
8
1
62
256
6
ByLayer
370
18
48
1
60
0
100
AcDbSpline
70
4
71
3
72
68
73
64
40
0
40
0
40
0
40
0
40
0.0039624449973998
40
0.0039624449973998
40
0.0180137029831571
40
0.0180137029831571
40
0.0320649609689143
40
0.0320649609689143
40
0.0882699929119461
40
0.0882699929119461
40
0.102321250897705
40
0.102321250897705
40
0.116372508883463
40
0.116372508883463
40
0.144475024854981
40
0.144475024854981
40
0.200680056798015
40
0.200680056798015
40
0.25688508874105
40
0.25688508874105
40
0.284987604712566
40
0.284987604712566
40
0.299038862698322
40
0.299038862698322
40
0.313090120684078
40
0.313090120684078
40
0.369295152627099
40
0.369295152627099
40
0.39739766859861
40
0.39739766859861
40
0.425500184570122
40
0.425500184570122
40
0.453602700541634
40
0.453602700541634
40
0.481705216513146
40
0.481705216513146
40
0.537910248456166
40
0.537910248456166
40
0.566012764427675
40
0.566012764427675
40
0.594115280399184
40
0.594115280399184
40
0.622217796370693
40
0.622217796370693
40
0.636269054356449
40
0.636269054356449
40
0.650320312342204
40
0.650320312342204
40
0.706525344285236
40
0.706525344285236
40
0.762730376228268
40
0.762730376228268
40
0.8189354081713
40
0.8189354081713
40
0.875140440114331
40
0.875140440114331
40
0.903242956085849
40
0.903242956085849
40
0.931345472057366
40
0.931345472057366
40
0.987550504000398
40
0.987550504000398
40
1
40
1
40
1
40
1
41
1
10
8.38430776899847
20
0.834999930008479
30
0
41
1
10
8.39155172303816
20
0.834998189304798
30
0
41
1
10
8.39879894391774
20
0.834964957448136
30
0
41
1
10
8.43176137284289
20
0.834670289049313
30
0
41
1
10
8.45751487818345
20
0.834043166440892
30
0
41
1
10
8.50912561524285
20
0.831984972076782
30
0
41
1
10
8.53498382225413
20
0.830552181826505
30
0
41
1
10
8.66400832863877
20
0.821407526262107
30
0
41
1
10
8.76695655450095
20
0.80778279036349
30
0
41
1
10
8.89588846454649
20
0.783177101097891
30
0
41
1
10
8.92169101791208
20
0.777878369075466
30
0
41
1
10
8.9733576743931
20
0.766543244820184
30
0
41
1
10
8.99924676097291
20
0.760497554274252
30
0
41
1
10
9.07673450342446
20
0.741326315368582
30
0
41
1
10
9.1281849000041
20
0.727167623383195
30
0
41
1
10
9.28209899160743
20
0.680796550090861
30
0
41
1
10
9.3841206609344
20
0.644690027328437
30
0
41
1
10
9.58794732717308
20
0.563172079035951
30
0
41
1
10
9.6899229371225
20
0.517964067251143
30
0
41
1
10
9.84377914296286
20
0.444503015845953
30
0
41
1
10
9.89520854672998
20
0.419066974219788
30
0
41
1
10
9.97266703677926
20
0.379604731097317
30
0
41
1
10
9.99854198029624
20
0.366228922832988
30
0
41
1
10
10.0501809467063
20
0.339180677205235
30
0
41
1
10
10.0759731699323
20
0.325492904701434
30
0
41
1
10
10.2048436993707
20
0.256309919326441
30
0
41
1
10
10.3078064406539
20
0.198838304628367
30
0
41
1
10
10.4628088043969
20
0.110723938680565
30
0
41
1
10
10.5145625075234
20
0.0810396629079833
30
0
41
1
10
10.617772525258
20
0.021609443186037
30
0
41
1
10
10.6692951309843
20
-0.0081981161091846
30
0
41
1
10
10.7723156078489
20
-0.0677538613418847
30
0
41
1
10
10.8238523856279
20
-0.097434407340188
30
0
41
1
10
10.9271323519375
20
-0.156334914541105
30
0
41
1
10
10.9789035401781
20
-0.185593972600913
30
0
41
1
10
11.1337876335045
20
-0.271905571359071
30
0
41
1
10
11.2367642130399
20
-0.327634911424752
30
0
41
1
10
11.3915519717634
20
-0.407283670891872
30
0
41
1
10
11.4433032887827
20
-0.433151210226214
30
0
41
1
10
11.546581269296
20
-0.482966994212319
30
0
41
1
10
11.5981428887317
20
-0.506955890949769
30
0
41
1
10
11.7012434774204
20
-0.552920685799506
30
0
41
1
10
11.752783382353
20
-0.574895486222545
30
0
41
1
10
11.8301707502696
20
-0.606216919249306
30
0
41
1
10
11.8559791066099
20
-0.616384290905415
30
0
41
1
10
11.9076357031056
20
-0.636150872581368
30
0
41
1
10
11.9334802404121
20
-0.645749660171958
30
0
41
1
10
12.0622858478781
20
-0.692044952351949
30
0
41
1
10
12.1646155614707
20
-0.723652192421156
30
0
41
1
10
12.368865965093
20
-0.775535010076851
30
0
41
1
10
12.4707927422554
20
-0.795811054741222
30
0
41
1
10
12.6751256965871
20
-0.824416558045101
30
0
41
1
10
12.7776892050158
20
-0.832675670617135
30
0
41
1
10
12.984571332187
20
-0.836476779490511
30
0
41
1
10
13.0875363670785
20
-0.831977985256998
30
0
41
1
10
13.2420546626257
20
-0.815751603793302
30
0
41
1
10
13.2936112067043
20
-0.80877317481557
30
0
41
1
10
13.3969895889757
20
-0.791746078034976
30
0
41
1
10
13.4486920014393
20
-0.781708052950762
30
0
41
1
10
13.6034591006319
20
-0.74728363243733
30
0
41
1
10
13.7064207479173
20
-0.718568317943294
30
0
41
1
10
13.8324826219051
20
-0.676857937917248
30
0
41
1
10
13.8553737390125
20
-0.669028318353696
30
0
41
1
10
13.8782697897825
20
-0.660950516675626
30
0
0
SPLINE
5
C9
100
AcDbEntity
8
1
62
256
6
ByLayer
370
18
48
1
60
0
100
AcDbSpline
70
4
71
3
72
64
73
60
40
0
40
0
40
0
40
0
40
0.0322966134962787
40
0.0322966134962787
40
0.0645932269925575
40
0.0645932269925575
40
0.0968898404888362
40
0.0968898404888362
40
0.129186453985115
40
0.129186453985115
40
0.193779680977674
40
0.193779680977674
40
0.226076294473954
40
0.226076294473954
40
0.258372907970235
40
0.258372907970235
40
0.290669521466515
40
0.290669521466515
40
0.306817828214655
40
0.306817828214655
40
0.322966134962796
40
0.322966134962796
40
0.387559361955355
40
0.387559361955355
40
0.452152588947914
40
0.452152588947914
40
0.516745815940473
40
0.516745815940473
40
0.532894122688614
40
0.532894122688614
40
0.549042429436754
40
0.549042429436754
40
0.581339042933035
40
0.581339042933035
40
0.613635656429317
40
0.613635656429317
40
0.629783963177457
40
0.629783963177457
40
0.645932269925598
40
0.645932269925598
40
0.71052549691816
40
0.71052549691816
40
0.775118723910723
40
0.775118723910723
40
0.807415337407004
40
0.807415337407004
40
0.823563644155145
40
0.823563644155145
40
0.839711950903285
40
0.839711950903285
40
0.904305177895848
40
0.904305177895848
40
0.920453484643989
40
0.920453484643989
40
0.936601791392131
40
0.936601791392131
40
0.96889840488841
40
0.96889840488841
40
1
40
1
40
1
40
1
41
1
10
4.55055800000002
20
0.73613952471311
30
0
41
1
10
4.6024167393941
20
0.722169716078525
30
0
41
1
10
4.65399265011234
20
0.706711712103072
30
0
41
1
10
4.75703410463163
20
0.673195730514834
30
0
41
1
10
4.80850028367774
20
0.655147044329738
30
0
41
1
10
4.91142816635437
20
0.616579023560917
30
0
41
1
10
4.96290714000222
20
0.596078303408802
30
0
41
1
10
5.0660380160511
20
0.552799234567061
30
0
41
1
10
5.11775456137616
20
0.529967185806612
30
0
41
1
10
5.27250811084198
20
0.458659680926274
30
0
41
1
10
5.37545454686082
20
0.407549084338712
30
0
41
1
10
5.53031065551039
20
0.326746505191494
30
0
41
1
10
5.5820717432432
20
0.299070416819234
30
0
41
1
10
5.68541605194702
20
0.242728097856855
30
0
41
1
10
5.73697472013961
20
0.214054835664257
30
0
41
1
10
5.84002378936441
20
0.155970760626474
30
0
41
1
10
5.89154807382462
20
0.126617674547276
30
0
41
1
10
5.96893148840184
20
0.0822899594433579
30
0
41
1
10
5.9947418058064
20
0.0674638107674923
30
0
41
1
10
6.0464075014437
20
0.0377337809508731
30
0
41
1
10
6.07229074980768
20
0.0228129648272386
30
0
41
1
10
6.20140161329832
20
-0.051642162077826
30
0
41
1
10
6.30379435834547
20
-0.110837929908939
30
0
41
1
10
6.50783448275322
20
-0.226694924344343
30
0
41
1
10
6.60971137343037
20
-0.282959722822454
30
0
41
1
10
6.8140712645357
20
-0.390713070880395
30
0
41
1
10
6.91659779219302
20
-0.442135982734129
30
0
41
1
10
7.04561960853957
20
-0.502567436429416
30
0
41
1
10
7.07147541944255
20
-0.514448624721325
30
0
41
1
10
7.12309400378203
20
-0.53764343082014
30
0
41
1
10
7.14887853095013
20
-0.548980691706163
30
0
41
1
10
7.22619618075171
20
-0.582164725822992
30
0
41
1
10
7.27770608594849
20
-0.603168108716318
30
0
41
1
10
7.38078171557004
20
-0.642797361494303
30
0
41
1
10
7.43234584313944
20
-0.661425167592199
30
0
41
1
10
7.50982343633279
20
-0.687475435020474
30
0
41
1
10
7.53570016776695
20
-0.69585083338842
30
0
41
1
10
7.58731766061834
20
-0.711896829135299
30
0
41
1
10
7.61306397043435
20
-0.719574473297712
30
0
41
1
10
7.74158757388386
20
-0.756155795734088
30
0
41
1
10
7.84380072324907
20
-0.77960413777862
30
0
41
1
10
8.04797836350613
20
-0.814613901690819
30
0
41
1
10
8.14993583475388
20
-0.826178734421177
30
0
41
1
10
8.30337728235961
20
-0.834230787901561
30
0
41
1
10
8.35462616198191
20
-0.835359841058022
30
0
41
1
10
8.43176137284286
20
-0.834670289049313
30
0
41
1
10
8.45751487818342
20
-0.834043166440892
30
0
41
1
10
8.50912561524285
20
-0.831984972076782
30
0
41
1
10
8.53498382225413
20
-0.830552181826505
30
0
41
1
10
8.66400832863877
20
-0.821407526262107
30
0
41
1
10
8.76695655450095
20
-0.80778279036349
30
0
41
1
10
8.89588846454649
20
-0.783177101097891
30
0
41
1
10
8.92169101791208
20
-0.777878369075466
30
0
41
1
10
8.9733576743931
20
-0.766543244820184
30
0
41
1
10
8.99924676097288
20
-0.760497554274252
30
0
41
1
10
9.07673450342446
20
-0.741326315368582
30
0
41
1
10
9.12818490000407
20
-0.727167623383195
30
0
41
1
10
9.22889595121364
20
-0.696825505333152
30
0
41
1
10
9.27816604610106
20
-0.680736580263499
30
0
41
1
10
9.32735339680082
20
-0.663504107306437
30
0
0
SPLINE
5
CA
100
AcDbEntity
8
1
62
256
6
ByLayer
370
18
48
1
60
0
100
AcDbSpline
70
4
71
3
72
30
73
26
40
0
40
0
40
0
40
0
40
0.175767566455825
40
0.175767566455825
40
0.278796620648849
40
0.278796620648849
40
0.381825674841874
40
0.381825674841874
40
0.587883783227923
40
0.587883783227923
40
0.690912837420947
40
0.690912837420947
40
0.793941891613972
40
0.793941891613972
40
0.845456418710485
40
0.845456418710485
40
0.896970945806998
40
0.896970945806998
40
0.922728209355248
40
0.922728209355248
40
0.948485472903499
40
0.948485472903499
40
0.97424273645175
40
0.97424273645175
40
1
40
1
40
1
40
1
41
1
10
12.9267185800543
20
0.834999774869829
30
0
41
1
10
13.0148440715693
20
0.835017591179252
30
0
41
1
10
13.1026791600408
20
0.830387799873705
30
0
41
1
10
13.2420546626257
20
0.815751603793331
30
0
41
1
10
13.2936112067043
20
0.80877317481557
30
0
41
1
10
13.3969895889758
20
0.791746078034976
30
0
41
1
10
13.4486920014393
20
0.781708052950762
30
0
41
1
10
13.6034591006319
20
0.747283632437359
30
0
41
1
10
13.7064207479173
20
0.718568317943294
30
0
41
1
10
13.8612243391721
20
0.667348100312211
30
0
41
1
10
13.9129867440881
20
0.648919029889441
30
0
41
1
10
14.0162196695382
20
0.609760629067921
30
0
41
1
10
14.0677419229316
20
0.589009891497568
30
0
41
1
10
14.1449858740549
20
0.556258526083781
30
0
41
1
10
14.1707029496059
20
0.54503793771147
30
0
41
1
10
14.2221909504161
20
0.522142485765499
30
0
41
1
10
14.248000599057
20
0.510523763271721
30
0
41
1
10
14.2866432992555
20
0.492601782007199
30
0
41
1
10
14.2995013697231
20
0.486529332788166
30
0
41
1
10
14.3251875454782
20
0.47420545248292
30
0
41
1
10
14.3380285534194
20
0.467972088059355
30
0
41
1
10
14.363846641131
20
0.455573331556707
30
0
41
1
10
14.3768101714244
20
0.449387340177054
30
0
41
1
10
14.4030879735943
20
0.437424634684135
30
0
41
1
10
14.4164209847865
20
0.431674268213754
30
0
41
1
10
14.4303331054406
20
0.426775397947665
30
0
0
SPLINE
5
CB
100
AcDbEntity
8
1
62
256
6
ByLayer
370
18
48
1
60
0
100
AcDbSpline
70
4
71
3
72
24
73
20
40
0
40
0
40
0
40
0
40
0.0625000000000051
40
0.0625000000000051
40
0.12500000000001
40
0.12500000000001
40
0.250000000000009
40
0.250000000000009
40
0.375000000000007
40
0.375000000000007
40
0.500000000000006
40
0.500000000000006
40
0.625000000000004
40
0.625000000000004
40
0.750000000000003
40
0.750000000000003
40
0.875000000000001
40
0.875000000000001
40
1
40
1
40
1
40
1
41
1
10
14.4303331054406
20
0.426775397947665
30
0
41
1
10
14.4368681384907
20
0.417095935516357
30
0
41
1
10
14.443397898632
20
0.407933143260521
30
0
41
1
10
14.4564582097215
20
0.390692351234406
30
0
41
1
10
14.4629890138516
20
0.382637996955793
30
0
41
1
10
14.4825912606887
20
0.359914677836912
30
0
41
1
10
14.4956728037355
20
0.346578259430459
30
0
41
1
10
14.5218431021928
20
0.321478284294898
30
0
41
1
10
14.5349388390306
20
0.309661029882136
30
0
41
1
10
14.5610723088658
20
0.286594095514261
30
0
41
1
10
14.5740732904573
20
0.275577897088937
30
0
41
1
10
14.5997736547789
20
0.255499105026217
30
0
41
1
10
14.6124699023624
20
0.246475566294919
30
0
41
1
10
14.6373903467024
20
0.230315560961742
30
0
41
1
10
14.6496257171058
20
0.223148098022307
30
0
41
1
10
14.6732489435237
20
0.210489220550585
30
0
41
1
10
14.6846586561678
20
0.205009208998092
30
0
41
1
10
14.7055813757473
20
0.195800782465057
30
0
41
1
10
14.7151511519692
20
0.192071493367621
30
0
41
1
10
14.7223585299964
20
0.189248062941857
30
0
0
SPLINE
5
CC
100
AcDbEntity
8
1
62
256
6
ByLayer
370
18
48
1
60
0
100
AcDbSpline
70
4
71
3
72
41
73
37
40
0
40
0
40
0
40
0
40
0.0120663555732653
40
0.0453591269174438
40
0.0786518982616221
40
0.1119446696058
40
0.136914248113934
40
0.161883826622068
40
0.195176597966246
40
0.228469369310425
40
0.261762140654603
40
0.295054911998781
40
0.32834768334296
40
0.344994069015049
40
0.378286840359227
40
0.411579611703406
40
0.444872383047584
40
0.478165154391762
40
0.511457925735941
40
0.52810431140803
40
0.561397082752208
40
0.594689854096387
40
0.627982625440565
40
0.661275396784743
40
0.694568168128922
40
0.719537746637056
40
0.744507325145189
40
0.777800096489367
40
0.811092867833546
40
0.844385639177724
40
0.877678410521903
40
0.910971181866081
40
0.92761756753817
40
0.960910338882348
40
0.994203110226527
40
1
40
1
40
1
40
1
41
1
10
5.84524617183854
20
0.155218643377111
30
0
41
1
10
5.85493845978982
20
0.154283001899444
30
0
41
1
10
5.89137313339549
20
0.150727288636659
30
0
41
1
10
5.95455020208286
20
0.144315495793677
30
0
41
1
10
6.03477741690523
20
0.135735443295459
30
0
41
1
10
6.10831909838115
20
0.127486509953371
30
0
41
1
10
6.17517524828502
20
0.119702598707107
30
0
41
1
10
6.24203147075673
20
0.111680196006461
30
0
41
1
10
6.315573448105
20
0.102569364297409
30
0
41
1
10
6.39580118621555
20
0.0922839853117239
30
0
41
1
10
6.47602865348506
20
0.081706160305913
30
0
41
1
10
6.55625595812839
20
0.0709184919182917
30
0
41
1
10
6.62311190799042
20
0.0617637070418482
30
0
41
1
10
6.68996777620214
20
0.0524949745723973
30
0
41
1
10
6.75682356734273
20
0.043126019083644
30
0
41
1
10
6.8370504180445
20
0.0317657114328824
30
0
41
1
10
6.91727719352412
20
0.0203004749165245
30
0
41
1
10
6.99750391743077
20
0.0087404111421847
30
0
41
1
10
7.06435949737787
20
-0.0009434991494572
30
0
41
1
10
7.13121507460403
20
-0.0106100760571621
30
0
41
1
10
7.19807065648735
20
-0.0202661373583055
30
0
41
1
10
7.27829738581181
20
-0.0317722498469664
30
0
41
1
10
7.35852416981387
20
-0.0431696427972952
30
0
41
1
10
7.43875103210618
20
-0.0544300162043498
30
0
41
1
10
7.51229241595393
20
-0.0646005215129151
30
0
41
1
10
7.5791483109698
20
-0.0737039098937942
30
0
41
1
10
7.64600429552706
20
-0.082681867139712
30
0
41
1
10
7.71954600754248
20
-0.0923435214675976
30
0
41
1
10
7.79977351453712
20
-0.102576631520122
30
0
41
1
10
7.88000122895505
20
-0.112483328270002
30
0
41
1
10
7.96022917811612
20
-0.122041197876939
30
0
41
1
10
8.02708600257225
20
-0.129694422457135
30
0
41
1
10
8.09394277561924
20
-0.137099769523871
30
0
41
1
10
8.16079956142733
20
-0.144247912144351
30
0
41
1
10
8.21894139093368
20
-0.150153159899389
30
0
41
1
10
8.25034050734862
20
-0.153237292682491
30
0
41
1
10
8.25499691039078
20
-0.153692318000935
30
0
0
SPLINE
5
CD
100
AcDbEntity
8
1
62
256
6
ByLayer
370
18
48
1
60
0
100
AcDbSpline
70
4
71
3
72
72
73
68
40
0
40
0
40
0
40
0
40
0.007571397740878
40
0.007571397740878
40
0.015142795481756
40
0.015142795481756
40
0.0227141932226339
40
0.0227141932226339
40
0.0302855909635119
40
0.0302855909635119
40
0.0454283864452648
40
0.0454283864452648
40
0.0605711819270177
40
0.0605711819270177
40
0.0908567728905235
40
0.0908567728905235
40
0.121142363854029
40
0.121142363854029
40
0.181713545781041
40
0.181713545781041
40
0.211999136744547
40
0.211999136744547
40
0.242284727708052
40
0.242284727708052
40
0.272570318671558
40
0.272570318671558
40
0.302855909635064
40
0.302855909635064
40
0.363427091562079
40
0.363427091562079
40
0.393712682525584
40
0.393712682525584
40
0.42399827348909
40
0.42399827348909
40
0.454283864452596
40
0.454283864452596
40
0.484569455416102
40
0.484569455416102
40
0.545140637343116
40
0.545140637343116
40
0.575426228306625
40
0.575426228306625
40
0.605711819270134
40
0.605711819270134
40
0.635997410233643
40
0.635997410233643
40
0.666283001197152
40
0.666283001197152
40
0.726854183124169
40
0.726854183124169
40
0.75713977408768
40
0.75713977408768
40
0.78742536505119
40
0.78742536505119
40
0.817710956014701
40
0.817710956014701
40
0.847996546978211
40
0.847996546978211
40
0.908567728905229
40
0.908567728905229
40
0.938853319868738
40
0.938853319868738
40
0.969138910832247
40
0.969138910832247
40
0.999424501795755
40
0.999424501795755
40
1
40
1
40
1
40
1
41
1
10
14.4303331054406
20
-0.803825164978718
30
0
41
1
10
14.4164446709208
20
-0.802285021354379
30
0
41
1
10
14.4031345639567
20
-0.800407483610599
30
0
41
1
10
14.3769014689888
20
-0.79627817825974
30
0
41
1
10
14.3639596018637
20
-0.794039041308764
30
0
41
1
10
14.3381829210882
20
-0.789316187922708
30
0
41
1
10
14.3253618461533
20
-0.786825389136681
30
0
41
1
10
14.2997144826838
20
-0.781660080690244
30
0
41
1
10
14.2868753431533
20
-0.77899428506629
30
0
41
1
10
14.24828585881
20
-0.770772959310705
30
0
41
1
10
14.2225071261673
20
-0.76496895746223
30
0
41
1
10
14.1710741181806
20
-0.752556782038226
30
0
41
1
10
14.145381471226
20
-0.745971962530092
30
0
41
1
10
14.0681995716708
20
-0.725218800813394
30
0
41
1
10
14.016704066305
20
-0.709977314871537
30
0
41
1
10
13.9134966286901
20
-0.676788119249068
30
0
41
1
10
13.8619432646097
20
-0.658884193714641
30
0
41
1
10
13.707539614857
20
-0.601574837451352
30
0
41
1
10
13.60468346723
20
-0.558691134382826
30
0
41
1
10
13.4498336742401
20
-0.488207477003328
30
0
41
1
10
13.3982302674762
20
-0.463736501817067
30
0
41
1
10
13.2952574455786
20
-0.413171496620578
30
0
41
1
10
13.2438478087539
20
-0.387039647503059
30
0
41
1
10
13.1410223687666
20
-0.33331073890912
30
0
41
1
10
13.0895781830093
20
-0.305758093232299
30
0
41
1
10
12.9864580372325
20
-0.249544895819213
30
0
41
1
10
12.9348536986296
20
-0.220920931639739
30
0
41
1
10
12.780360684541
20
-0.134200432564995
30
0
41
1
10
12.6775458211819
20
-0.0751069202160295
30
0
41
1
10
12.5228804455269
20
0.0142317991318919
30
0
41
1
10
12.4712468894338
20
0.044036974513034
30
0
41
1
10
12.3682214240981
20
0.103190380666859
30
0
41
1
10
12.3167602413574
20
0.132583777126513
30
0
41
1
10
12.2138268241
20
0.190808078286551
30
0
41
1
10
12.1623497166316
20
0.219630621866173
30
0
41
1
10
12.0592527967872
20
0.27648475515781
30
0
41
1
10
12.007647435662
20
0.304526996359954
30
0
41
1
10
11.8532957970687
20
0.386606183034132
30
0
41
1
10
11.7505409070661
20
0.438491750126161
30
0
41
1
10
11.5958844550496
20
0.510980012242726
30
0
41
1
10
11.5442242200456
20
0.534256485158807
30
0
41
1
10
11.4411911749236
20
0.578576524167858
30
0
41
1
10
11.3897560001869
20
0.599669602308239
30
0
41
1
10
11.2868995037591
20
0.639534732194875
30
0
41
1
10
11.2354490047936
20
0.658272824254993
30
0
41
1
10
11.132358093712
20
0.693201516412387
30
0
41
1
10
11.080684354106
20
0.709408496500856
30
0
41
1
10
10.9260892444234
20
0.753779664071658
30
0
41
1
10
10.8233109936563
20
0.777787952790447
30
0
41
1
10
10.6688312505883
20
0.804847872911864
30
0
41
1
10
10.6171843159051
20
0.812352591373383
30
0
41
1
10
10.5141171870409
20
0.824194295124613
30
0
41
1
10
10.4626512271977
20
0.828548387781353
30
0
41
1
10
10.3597276797391
20
0.83410811768934
30
0
41
1
10
10.3082656264259
20
0.835313316692577
30
0
41
1
10
10.2052235598798
20
0.834548546273709
30
0
41
1
10
10.1535877621052
20
0.832569359371774
30
0
41
1
10
9.99907636784911
20
0.821873937174956
30
0
41
1
10
9.89630814963351
20
0.808457443631596
30
0
41
1
10
9.74177301440301
20
0.779264454920138
30
0
41
1
10
9.69012396547478
20
0.767999946424567
30
0
41
1
10
9.58706139502794
20
0.742607763246667
30
0
41
1
10
9.53563427943689
20
0.728476420222393
30
0
41
1
10
9.4328198760289
20
0.697484001202525
30
0
41
1
10
9.38139952746346
20
0.680653434153072
30
0
41
1
10
9.32891453223436
20
0.662223679135309
30
0
41
1
10
9.32793573598855
20
0.661879533351623
30
0
41
1
10
9.32695688630449
20
0.661534921455427
30
0
0
SPLINE
5
CE
100
AcDbEntity
8
1
62
256
6
ByLayer
370
18
48
1
60
0
100
AcDbSpline
70
4
71
3
72
18
73
14
40
0
40
0
40
0
40
0
40
0.218444996695021
40
0.218444996695021
40
0.348704163912517
40
0.348704163912517
40
0.478963331130011
40
0.478963331130011
40
0.739481665565003
40
0.739481665565003
40
0.869740832782502
40
0.869740832782502
40
1
40
1
40
1
40
1
41
1
10
5.73269895355907
20
-0.835000718315655
30
0
41
1
10
5.64638221937599
20
-0.835018878801009
30
0
41
1
10
5.56014350752696
20
-0.830576813690783
30
0
41
1
10
5.42216165952999
20
-0.816467224323105
30
0
41
1
10
5.37046231921616
20
-0.809610258985714
30
0
41
1
10
5.26755013705593
20
-0.792891951560563
30
0
41
1
10
5.2162855711442
20
-0.783023851028219
30
0
41
1
10
5.06282061662785
20
-0.749065742107348
30
0
41
1
10
4.96081148796105
20
-0.720724844257745
30
0
41
1
10
4.80749612979554
20
-0.670369399998435
30
0
41
1
10
4.75632200883351
20
-0.652294926187295
30
0
41
1
10
4.65373341719467
20
-0.613656592537382
30
0
41
1
10
4.60231757422576
20
-0.593084506784606
30
0
41
1
10
4.55055800000002
20
-0.571548559777483
30
0
0
SPLINE
5
CF
100
AcDbEntity
8
1
62
256
6
ByLayer
370
18
48
1
60
0
100
AcDbSpline
70
4
71
3
72
40
73
36
40
0
40
0
40
0
40
0
40
0.0241625749139585
40
0.057424624631235
40
0.0906866743485115
40
0.123948724065788
40
0.157210773783064
40
0.19047282350034
40
0.207103848358979
40
0.240365898076255
40
0.273627947793532
40
0.306889997510808
40
0.340152047228084
40
0.37341409694536
40
0.390045121803999
40
0.423307171521275
40
0.456569221238551
40
0.489831270955828
40
0.523093320673104
40
0.55635537039038
40
0.581301907678338
40
0.606248444966295
40
0.639510494683572
40
0.672772544400848
40
0.706034594118124
40
0.739296643835401
40
0.764243181123358
40
0.789189718411315
40
0.822451768128592
40
0.855713817845868
40
0.888975867563145
40
0.922237917280421
40
0.955499966997697
40
0.972130991856335
40
1
40
1
40
1
40
1
41
1
10
10.3890190964555
20
0.155175487382337
30
0
41
1
10
10.4084456968884
20
0.153302258482427
30
0
41
1
10
10.4546148252625
20
0.14875054464477
30
0
41
1
10
10.5275264560454
20
0.141202584908342
30
0
41
1
10
10.607753988712
20
0.132461187511382
30
0
41
1
10
10.6879814983614
20
0.12329842889855
30
0
41
1
10
10.7682089921408
20
0.113733622491395
30
0
41
1
10
10.8350652296878
20
0.105490477753875
30
0
41
1
10
10.9019214662499
20
0.0970560244366254
30
0
41
1
10
10.9687777040605
20
0.088437207876467
30
0
41
1
10
11.0490051985778
20
0.0778241295867303
30
0
41
1
10
11.1292327093872
20
0.0669747756408583
30
0
41
1
10
11.2094602436345
20
0.0559170925531589
30
0
41
1
10
11.2763165476657
20
0.0465507143055959
30
0
41
1
10
11.3431728752637
20
0.0370827219164766
30
0
41
1
10
11.410029228743
20
0.0275379287711246
30
0
41
1
10
11.4902569011733
20
0.0160236703138708
30
0
41
1
10
11.570484629736
20
0.0044640493681811
30
0
41
1
10
11.6507124192123
20
-0.0071093463461693
30
0
41
1
10
11.7242546311426
20
-0.017701412818127
30
0
41
1
10
11.7911112090116
20
-0.0272940157605319
30
0
41
1
10
11.8579677799428
20
-0.0368420866413146
30
0
41
1
10
11.9315100096653
20
-0.0472715768277396
30
0
41
1
10
12.0117378962565
20
-0.0585273348981162
30
0
41
1
10
12.0919657829357
20
-0.0695673708233073
30
0
41
1
10
12.1655080123674
20
-0.0794775475609697
30
0
41
1
10
12.2323645845857
20
-0.0882982236656744
30
0
41
0.999999999999999
10
12.2992211568019
20
-0.0969466616826083
30
0
41
1
10
12.3727633862399
20
-0.10621807357407
30
0
41
1
10
12.4529912729
20
-0.11600868975782
30
0
41
1
10
12.5332191595588
20
-0.125449177720725
30
0
41
1
10
12.6134470462223
20
-0.134525018246109
30
0
41
1
10
12.6803036184227
20
-0.141728887568007
30
0
41
1
10
12.7428241948656
20
-0.148205638618379
30
0
41
1
10
12.7786021422137
20
-0.151775887409514
30
0
41
0.999999999999999
10
12.8010087752718
20
-0.153956762707623
30
0
0
SPLINE
5
D0
100
AcDbEntity
8
1
62
256
6
ByLayer
370
18
48
1
60
0
100
AcDbSpline
70
4
71
3
72
24
73
20
40
0
40
0
40
0
40
0
40
0.0241126186304068
40
0.0241126186304068
40
0.186760515525324
40
0.186760515525324
40
0.349408412420241
40
0.349408412420241
40
0.512056309315158
40
0.512056309315158
40
0.593380257762624
40
0.593380257762624
40
0.67470420621009
40
0.67470420621009
40
0.837352103105038
40
0.837352103105038
40
0.918676051552519
40
0.918676051552519
40
1
40
1
40
1
40
1
41
1
10
14.6671199736137
20
-0.32720747154238
30
0
41
1
10
14.6653913128391
20
-0.330898670274451
30
0
41
1
10
14.6636511462342
20
-0.334592987542578
30
0
41
1
10
14.6500975283984
20
-0.363234630684161
30
0
41
1
10
14.637827731802
20
-0.388342525163409
30
0
41
1
10
14.6128960429208
20
-0.43878688088455
30
0
41
1
10
14.6002197163053
20
-0.464130550748422
30
0
41
1
10
14.5746425627299
20
-0.515065589700612
30
0
41
1
10
14.5617323892479
20
-0.540672098482901
30
0
41
1
10
14.5421904793428
20
-0.579618757259794
30
0
41
1
10
14.5356447035913
20
-0.592701123465389
30
0
41
1
10
14.5225212148853
20
-0.619028307901516
30
0
41
1
10
14.5159418836534
20
-0.632272017722613
30
0
41
1
10
14.4961764220102
20
-0.672134154094863
30
0
41
1
10
14.4829627584904
20
-0.698894595117366
30
0
41
1
10
14.4631843232395
20
-0.738660189100699
30
0
41
1
10
14.4565996452767
20
-0.751841491858471
30
0
41
1
10
14.4434531179239
20
-0.777980494398747
30
0
41
1
10
14.436889833811
20
-0.790948222682971
30
0
41
1
10
14.4303331054406
20
-0.803825164978718
30
0
0
LINE
5
7F
100
AcDbEntity
8
1
62
256
6
ByLayer
370
18
48
1
60
0
100
AcDbLine
10
0
20
-1.499989
30
0
11
0
21
0
31
0
39
0
210
0
220
0
230
1
0
LINE
5
80
100
AcDbEntity
8
1
62
256
6
ByLayer
370
18
48
1
60
0
100
AcDbLine
10
0
20
0
30
0
11
0
21
1.499989
31
0
39
0
210
0
220
0
230
1
0
LINE
5
81
100
AcDbEntity
8
1
62
256
6
ByLayer
370
18
48
1
60
0
100
AcDbLine
10
14.430333
20
0.426775
30
0
11
14.430333
21
-0.803825
31
0
39
0
210
0
220
0
230
1
0
LINE
5
82
100
AcDbEntity
8
1
62
256
6
ByLayer
370
18
48
1
60
0
100
AcDbLine
10
4.550558
20
-0.557473
30
0
11
4.550558
21
-0.73614
31
0
39
0
210
0
220
0
230
1
0
LINE
5
83
100
AcDbEntity
8
1
62
256
6
ByLayer
370
13
48
1
60
0
100
AcDbLine
10
1.419744
20
0.835
30
0
11
1.419744
21
-0.835
31
0
39
0
210
0
220
0
230
1
0
LINE
5
84
100
AcDbEntity
8
1
62
256
6
ByLayer
370
13
48
1
60
0
100
AcDbLine
10
0.919744
20
0.968975
30
0
11
0.919744
21
-0.968975
31
0
39
0
210
0
220
0
230
1
0
LINE
5
85
100
AcDbEntity
8
SK1
62
256
6
ByLayer
370
18
48
1
60
0
100
AcDbLine
10
-23.1803
20
1.326795
30
0
11
-23.1803
21
-1.326795
31
0
39
0
210
0
220
0
230
1
0
LINE
5
87
100
AcDbEntity
8
SK1
62
256
6
ByLayer
370
18
48
1
60
0
100
AcDbLine
10
-22.8803
20
1.5
30
0
11
-22.8803
21
-1.5
31
0
39
0
210
0
220
0
230
1
0
LINE
5
88
100
AcDbEntity
8
SK1
62
256
6
ByLayer
370
18
48
1
60
0
100
AcDbLine
10
0
20
-1.499989
30
0
11
0
21
0
31
0
39
0
210
0
220
0
230
1
0
LINE
5
89
100
AcDbEntity
8
SK1
62
256
6
ByLayer
370
18
48
1
60
0
100
AcDbLine
10
0
20
0
30
0
11
0
21
1.499989
31
0
39
0
210
0
220
0
230
1
0
LINE
5
8A
100
AcDbEntity
8
SK1
62
256
6
ByLayer
370
18
48
1
60
0
100
AcDbLine
10
-1.9E-05
20
1.5
30
0
11
-1.9E-05
21
-1.5
31
0
39
0
210
0
220
0
230
1
0
LINE
5
8B
100
AcDbEntity
8
1
62
256
6
ByLayer
370
18
48
1
60
0
100
AcDbLine
10
14.8197
20
0
30
0
11
14.6667
21
0.328109
31
0
39
0
210
0
220
0
230
1
0
LINE
5
8C
100
AcDbEntity
8
1
62
256
6
ByLayer
370
18
48
1
60
0
100
AcDbLine
10
14.6667
20
-0.328109
30
0
11
14.8197
21
0
31
0
39
0
210
0
220
0
230
1
0
LINE
5
8D
100
AcDbEntity
8
1
62
256
6
ByLayer
370
18
48
1
60
0
100
AcDbLine
10
0.919744
20
0.968975
30
0
11
0
21
1.499989
31
0
39
0
210
0
220
0
230
1
0
LINE
5
8E
100
AcDbEntity
8
1
62
256
6
ByLayer
370
18
48
1
60
0
100
AcDbLine
10
0
20
-1.499989
30
0
11
0.919744
21
-0.968975
31
0
39
0
210
0
220
0
230
1
0
LINE
5
8F
100
AcDbEntity
8
1
62
256
6
ByLayer
370
18
48
1
60
0
100
AcDbLine
10
1.419744
20
-0.835
30
0
11
3.865004
21
-0.835
31
0
39
0
210
0
220
0
230
1
0
LINE
5
90
100
AcDbEntity
8
1
62
256
6
ByLayer
370
18
48
1
60
0
100
AcDbLine
10
5.732399
20
-0.835
30
0
11
8.383934
21
-0.835
31
0
39
0
210
0
220
0
230
1
0
LINE
5
91
100
AcDbEntity
8
1
62
256
6
ByLayer
370
18
48
1
60
0
100
AcDbLine
10
10.275034
20
-0.835
30
0
11
12.926858
21
-0.835
31
0
39
0
210
0
220
0
230
1
0
LINE
5
92
100
AcDbEntity
8
1
62
256
6
ByLayer
370
18
48
1
60
0
100
AcDbLine
10
12.926858
20
0.835
30
0
11
10.275034
21
0.835
31
0
39
0
210
0
220
0
230
1
0
LINE
5
93
100
AcDbEntity
8
1
62
256
6
ByLayer
370
18
48
1
60
0
100
AcDbLine
10
8.383934
20
0.835
30
0
11
5.732399
21
0.835
31
0
39
0
210
0
220
0
230
1
0
LINE
5
94
100
AcDbEntity
8
1
62
256
6
ByLayer
370
18
48
1
60
0
100
AcDbLine
10
3.865004
20
0.835
30
0
11
1.419744
21
0.835
31
0
39
0
210
0
220
0
230
1
0
LINE
5
95
100
AcDbEntity
8
SK1
62
256
6
ByLayer
370
18
48
1
60
0
100
AcDbLine
10
-23.1803
20
-1.326795
30
0
11
-22.8803
21
-1.5
31
0
39
0
210
0
220
0
230
1
0
LINE
5
96
100
AcDbEntity
8
SK1
62
256
6
ByLayer
370
18
48
1
60
0
100
AcDbLine
10
-22.8803
20
1.5
30
0
11
-23.1803
21
1.326795
31
0
39
0
210
0
220
0
230
1
0
LINE
5
97
100
AcDbEntity
8
SK1
62
256
6
ByLayer
370
18
48
1
60
0
100
AcDbLine
10
-22.8803
20
-1.5
30
0
11
-1.9E-05
21
-1.5
31
0
39
0
210
0
220
0
230
1
0
LINE
5
98
100
AcDbEntity
8
SK1
62
256
6
ByLayer
370
18
48
1
60
0
100
AcDbLine
10
-1.9E-05
20
1.5
30
0
11
-22.8803
21
1.5
31
0
39
0
210
0
220
0
230
1
0
LINE
5
99
100
AcDbEntity
8
SK1
62
256
6
ByLayer
370
18
48
1
60
0
100
AcDbLine
10
0
20
1.499989
30
0
11
-1.9E-05
21
1.5
31
0
39
0
210
0
220
0
230
1
0
LINE
5
9A
100
AcDbEntity
8
SK1
62
256
6
ByLayer
370
18
48
1
60
0
100
AcDbLine
10
-1.9E-05
20
-1.5
30
0
11
0
21
-1.499989
31
0
39
0
210
0
220
0
230
1
0
LINE
5
9B
100
AcDbEntity
8
4
62
256
6
ByLayer
370
18
48
0.05
60
0
100
AcDbLine
10
0
20
0
30
0
11
14.8197
21
0
31
0
39
0
210
0
220
0
230
1
0
LINE
5
9D
100
AcDbEntity
8
81
62
256
6
ByLayer
370
18
48
1
60
0
100
AcDbLine
10
14.8197
20
0
30
0
11
17.8197
21
0
31
0
39
0
210
0
220
0
230
1
0
LINE
5
9E
100
AcDbEntity
8
80
62
256
6
ByLayer
370
18
48
1
60
0
100
AcDbLine
10
0
20
0
30
0
11
-3
21
0
31
0
39
0
210
0
220
0
230
1
0
LINE
5
9F
100
AcDbEntity
8
SK4
62
256
6
ByLayer
370
18
48
0.05
60
0
100
AcDbLine
10
-26.1803
20
0
30
0
11
17.8197
21
0
31
0
39
0
210
0
220
0
230
1
0
LINE
5
A1
100
AcDbEntity
8
SK2
62
256
6
ByLayer
370
13
48
1
60
0
100
AcDbLine
10
-27.6803
20
-9
30
0
11
-27.6803
21
21.782741
31
0
39
0
210
0
220
0
230
1
0
LINE
5
A3
100
AcDbEntity
8
SK2
62
256
6
ByLayer
370
13
48
1
60
0
100
AcDbLine
10
-24.7678
20
-1.5
30
0
11
-29.6803
21
-1.5
31
0
39
0
210
0
220
0
230
1
0
LINE
5
A4
100
AcDbEntity
8
SK2
62
256
6
ByLayer
370
13
48
1
60
0
100
AcDbLine
10
-24.7678
20
1.5
30
0
11
-29.6803
21
1.5
31
0
39
0
210
0
220
0
230
1
0
LINE
5
A5
100
AcDbEntity
8
1
62
256
6
ByLayer
370
18
48
1
60
1
100
AcDbLine
10
-27.6803
20
-1.5
30
0
11
-27.219516
21
-4.999998
31
0
39
0
210
0
220
0
230
1
0
LINE
5
A6
100
AcDbEntity
8
1
62
256
6
ByLayer
370
18
48
1
60
1
100
AcDbLine
10
-27.219516
20
-4.999998
30
0
11
-28.141084
21
-5.000002
31
0
39
0
210
0
220
0
230
1
0
LINE
5
A7
100
AcDbEntity
8
1
62
256
6
ByLayer
370
18
48
1
60
1
100
AcDbLine
10
-28.141084
20
-5.000002
30
0
11
-27.6803
21
-1.5
31
0
39
0
210
0
220
0
230
1
0
LINE
5
A8
100
AcDbEntity
8
1
62
256
6
ByLayer
370
18
48
1
60
1
100
AcDbLine
10
-27.6803
20
1.5
30
0
11
-28.141084
21
4.999998
31
0
39
0
210
0
220
0
230
1
0
LINE
5
A9
100
AcDbEntity
8
1
62
256
6
ByLayer
370
18
48
1
60
1
100
AcDbLine
10
-28.141084
20
4.999998
30
0
11
-27.219516
21
5.000002
31
0
39
0
210
0
220
0
230
1
0
LINE
5
AA
100
AcDbEntity
8
1
62
256
6
ByLayer
370
18
48
1
60
1
100
AcDbLine
10
-27.219516
20
5.000002
30
0
11
-27.6803
21
1.5
31
0
39
0
210
0
220
0
230
1
0
LINE
5
AB
100
AcDbEntity
8
2
62
256
6
ByLayer
370
13
48
1
60
0
100
AcDbLine
10
20.3197
20
-8.335
30
0
11
20.3197
21
29.197855
31
0
39
0
210
0
220
0
230
1
0
LINE
5
AD
100
AcDbEntity
8
2
62
256
6
ByLayer
370
13
48
1
60
0
100
AcDbLine
10
16.4072
20
-0.835
30
0
11
22.3197
21
-0.835
31
0
39
0
210
0
220
0
230
1
0
LINE
5
AE
100
AcDbEntity
8
2
62
256
6
ByLayer
370
13
48
1
60
0
100
AcDbLine
10
16.4072
20
0.835
30
0
11
22.3197
21
0.835
31
0
39
0
210
0
220
0
230
1
0
LINE
5
AF
100
AcDbEntity
8
1
62
256
6
ByLayer
370
18
48
1
60
1
100
AcDbLine
10
20.3197
20
-0.835
30
0
11
20.780484
21
-4.334998
31
0
39
0
210
0
220
0
230
1
0
LINE
5
B0
100
AcDbEntity
8
1
62
256
6
ByLayer
370
18
48
1
60
1
100
AcDbLine
10
20.780484
20
-4.334998
30
0
11
19.858916
21
-4.335002
31
0
39
0
210
0
220
0
230
1
0
LINE
5
B1
100
AcDbEntity
8
1
62
256
6
ByLayer
370
18
48
1
60
1
100
AcDbLine
10
19.858916
20
-4.335002
30
0
11
20.3197
21
-0.835
31
0
39
0
210
0
220
0
230
1
0
LINE
5
B2
100
AcDbEntity
8
1
62
256
6
ByLayer
370
18
48
1
60
1
100
AcDbLine
10
20.3197
20
0.835
30
0
11
19.858916
21
4.334998
31
0
39
0
210
0
220
0
230
1
0
LINE
5
B3
100
AcDbEntity
8
1
62
256
6
ByLayer
370
18
48
1
60
1
100
AcDbLine
10
19.858916
20
4.334998
30
0
11
20.780484
21
4.335002
31
0
39
0
210
0
220
0
230
1
0
LINE
5
B4
100
AcDbEntity
8
1
62
256
6
ByLayer
370
18
48
1
60
1
100
AcDbLine
10
20.780484
20
4.335002
30
0
11
20.3197
21
0.835
31
0
39
0
210
0
220
0
230
1
0
LINE
5
B5
100
AcDbEntity
8
SK2
62
256
6
ByLayer
370
13
48
1
60
0
100
AcDbLine
10
15.490606
20
-1.438764
30
0
11
22.574745
21
-16.630748
31
0
39
0
210
0
220
0
230
1
0
LINE
5
B6
100
AcDbEntity
8
SK2
62
256
6
ByLayer
370
13
48
1
60
0
100
AcDbLine
10
15.490606
20
1.438764
30
0
11
22.574745
21
16.630748
31
0
39
0
210
0
220
0
230
1
0
LINE
5
B7
100
AcDbEntity
8
1
62
256
6
ByLayer
370
18
48
1
60
1
100
AcDbLine
10
21.729509
20
-14.818132
30
0
11
24.601542
21
-12.765394
31
0
39
0
210
0
220
0
230
1
0
LINE
5
B8
100
AcDbEntity
8
1
62
256
6
ByLayer
370
18
48
1
60
1
100
AcDbLine
10
24.601542
20
-12.765394
30
0
11
25.034971
21
-13.578675
31
0
39
0
210
0
220
0
230
1
0
LINE
5
B9
100
AcDbEntity
8
1
62
256
6
ByLayer
370
18
48
1
60
1
100
AcDbLine
10
25.034971
20
-13.578675
30
0
11
21.729509
21
-14.818132
31
0
39
0
210
0
220
0
230
1
0
LINE
5
BA
100
AcDbEntity
8
1
62
256
6
ByLayer
370
18
48
1
60
1
100
AcDbLine
10
21.729509
20
14.818132
30
0
11
25.034968
21
13.578677
31
0
39
0
210
0
220
0
230
1
0
LINE
5
BB
100
AcDbEntity
8
1
62
256
6
ByLayer
370
18
48
1
60
1
100
AcDbLine
10
25.034968
20
13.578677
30
0
11
24.601545
21
12.765392
31
0
39
0
210
0
220
0
230
1
0
LINE
5
BC
100
AcDbEntity
8
1
62
256
6
ByLayer
370
18
48
1
60
1
100
AcDbLine
10
24.601545
20
12.765392
30
0
11
21.729509
21
14.818132
31
0
39
0
210
0
220
0
230
1
0
LINE
5
D5
100
AcDbEntity
8
1
62
256
6
ByLayer
370
18
48
1
60
1
100
AcDbLine
10
-27.6803
20
-1.5
30
0
11
-27.219516
21
-4.999998
31
0
39
0
210
0
220
0
230
1
0
LINE
5
D6
100
AcDbEntity
8
1
62
256
6
ByLayer
370
18
48
1
60
1
100
AcDbLine
10
-27.219516
20
-4.999998
30
0
11
-28.141084
21
-5.000002
31
0
39
0
210
0
220
0
230
1
0
LINE
5
D7
100
AcDbEntity
8
1
62
256
6
ByLayer
370
18
48
1
60
1
100
AcDbLine
10
-28.141084
20
-5.000002
30
0
11
-27.6803
21
-1.5
31
0
39
0
210
0
220
0
230
1
0
LINE
5
D9
100
AcDbEntity
8
1
62
256
6
ByLayer
370
18
48
1
60
1
100
AcDbLine
10
-27.6803
20
1.5
30
0
11
-28.141084
21
4.999998
31
0
39
0
210
0
220
0
230
1
0
LINE
5
DA
100
AcDbEntity
8
1
62
256
6
ByLayer
370
18
48
1
60
1
100
AcDbLine
10
-28.141084
20
4.999998
30
0
11
-27.219516
21
5.000002
31
0
39
0
210
0
220
0
230
1
0
LINE
5
DB
100
AcDbEntity
8
1
62
256
6
ByLayer
370
18
48
1
60
1
100
AcDbLine
10
-27.219516
20
5.000002
30
0
11
-27.6803
21
1.5
31
0
39
0
210
0
220
0
230
1
0
LINE
5
DF
100
AcDbEntity
8
1
62
256
6
ByLayer
370
18
48
1
60
1
100
AcDbLine
10
20.3197
20
-0.835
30
0
11
20.780484
21
-4.334998
31
0
39
0
210
0
220
0
230
1
0
LINE
5
E0
100
AcDbEntity
8
1
62
256
6
ByLayer
370
18
48
1
60
1
100
AcDbLine
10
20.780484
20
-4.334998
30
0
11
19.858916
21
-4.335002
31
0
39
0
210
0
220
0
230
1
0
LINE
5
E1
100
AcDbEntity
8
1
62
256
6
ByLayer
370
18
48
1
60
1
100
AcDbLine
10
19.858916
20
-4.335002
30
0
11
20.3197
21
-0.835
31
0
39
0
210
0
220
0
230
1
0
LINE
5
E3
100
AcDbEntity
8
1
62
256
6
ByLayer
370
18
48
1
60
1
100
AcDbLine
10
20.3197
20
0.835
30
0
11
19.858916
21
4.334998
31
0
39
0
210
0
220
0
230
1
0
LINE
5
E4
100
AcDbEntity
8
1
62
256
6
ByLayer
370
18
48
1
60
1
100
AcDbLine
10
19.858916
20
4.334998
30
0
11
20.780484
21
4.335002
31
0
39
0
210
0
220
0
230
1
0
LINE
5
E5
100
AcDbEntity
8
1
62
256
6
ByLayer
370
18
48
1
60
1
100
AcDbLine
10
20.780484
20
4.335002
30
0
11
20.3197
21
0.835
31
0
39
0
210
0
220
0
230
1
0
LINE
5
E8
100
AcDbEntity
8
1
62
256
6
ByLayer
370
18
48
1
60
1
100
AcDbLine
10
21.729509
20
-14.818132
30
0
11
24.601542
21
-12.765394
31
0
39
0
210
0
220
0
230
1
0
LINE
5
E9
100
AcDbEntity
8
1
62
256
6
ByLayer
370
18
48
1
60
1
100
AcDbLine
10
24.601542
20
-12.765394
30
0
11
25.034971
21
-13.578675
31
0
39
0
210
0
220
0
230
1
0
LINE
5
EA
100
AcDbEntity
8
1
62
256
6
ByLayer
370
18
48
1
60
1
100
AcDbLine
10
25.034971
20
-13.578675
30
0
11
21.729509
21
-14.818132
31
0
39
0
210
0
220
0
230
1
0
LINE
5
EC
100
AcDbEntity
8
1
62
256
6
ByLayer
370
18
48
1
60
1
100
AcDbLine
10
21.729509
20
14.818132
30
0
11
25.034968
21
13.578677
31
0
39
0
210
0
220
0
230
1
0
LINE
5
ED
100
AcDbEntity
8
1
62
256
6
ByLayer
370
18
48
1
60
1
100
AcDbLine
10
25.034968
20
13.578677
30
0
11
24.601545
21
12.765392
31
0
39
0
210
0
220
0
230
1
0
LINE
5
EE
100
AcDbEntity
8
1
62
256
6
ByLayer
370
18
48
1
60
1
100
AcDbLine
10
24.601545
20
12.765392
30
0
11
21.729509
21
14.818132
31
0
39
0
210
0
220
0
230
1
0
MTEXT
5
D1
100
AcDbEntity
8
SK2
62
256
6
ByLayer
370
18
48
1
60
0
100
AcDbMText
10
-29.021414
20
6.658437
30
0
210
0
220
0
230
1
1
%%c
40
3
41
0
44
1.084337
50
90
71
7
72
5
7
iso_b_vert
0
MTEXT
5
D4
100
AcDbEntity
8
SK2
62
256
6
ByLayer
370
18
48
1
60
0
100
AcDbMText
10
-29.021414
20
12.635
30
0
210
0
220
0
230
1
1
\W0.7468;3.000
40
3
41
0
44
1.084337
50
90
71
7
72
5
7
iso_b_vert
0
MTEXT
5
DD
100
AcDbEntity
8
2
62
256
6
ByLayer
370
18
48
1
60
0
100
AcDbMText
10
18.978586
20
14.823437
30
0
210
0
220
0
230
1
1
%%c
40
3
41
0
44
1.084337
50
90
71
7
72
5
7
iso_b_vert
0
MTEXT
5
DE
100
AcDbEntity
8
2
62
256
6
ByLayer
370
18
48
1
60
0
100
AcDbMText
10
18.978586
20
20.8
30
0
210
0
220
0
230
1
1
\W0.6864;1.670
40
3
41
0
44
1.084337
50
90
71
7
72
5
7
iso_b_vert
0
MTEXT
5
E7
100
AcDbEntity
8
SK2
62
256
6
ByLayer
370
18
48
1
60
0
100
AcDbMText
10
27.886986
20
-2.114886
30
0
210
0
220
0
230
1
1
\W0.6747;130%%d
40
3
41
0
44
1.084337
50
0
71
7
72
5
7
iso_b_vert
0
MTEXT
5
F0
100
AcDbEntity
8
SK6
62
256
6
ByLayer
370
18
48
1
60
0
100
AcDbMText
10
-31.986896
20
-48.114886
30
0
210
0
220
0
230
1
1
\W0.7670;462.1-0167-008A0-XM X0BM
40
3
41
0
44
1.084337
50
0
71
7
72
5
7
iso_b_vert
0
HATCH
5
D8
100
AcDbEntity
8
SK2
62
256
6
ByLayer
370
13
48
1
60
0
100
AcDbHatch
10
0
20
0
30
0
210
0
220
0
230
1
2
ANSI31
70
0
71
0
91
1
92
5
93
3
72
1
10
-27.6803
20
-1.5
11
-27.2195162584472
21
-4.99999830744682
72
1
10
-27.2195162584472
20
-4.99999830744682
11
-28.1410837415528
21
-5.00000169255318
72
1
10
-28.1410837415528
20
-5.00000169255318
11
-27.6803
21
-1.5
97
0
75
0
76
1
52
0
41
0.0062
77
0
78
1
53
45
43
0
44
0
45
-0.0139193969876572
46
0.0139193969876572
79
0
47
0
98
1
10
0
20
0
0
HATCH
5
DC
100
AcDbEntity
8
SK2
62
256
6
ByLayer
370
13
48
1
60
0
100
AcDbHatch
10
0
20
0
30
0
210
0
220
0
230
1
2
ANSI31
70
0
71
0
91
1
92
5
93
3
72
1
10
-27.6803
20
1.5
11
-28.1410837415528
21
4.99999830744682
72
1
10
-28.1410837415528
20
4.99999830744682
11
-27.2195162584472
21
5.00000169255318
72
1
10
-27.2195162584472
20
5.00000169255318
11
-27.6803
21
1.5
97
0
75
0
76
1
52
0
41
0.0062
77
0
78
1
53
45
43
0
44
0
45
-0.0139193969876572
46
0.0139193969876572
79
0
47
0
98
1
10
0
20
0
0
HATCH
5
E2
100
AcDbEntity
8
2
62
256
6
ByLayer
370
13
48
1
60
0
100
AcDbHatch
10
0
20
0
30
0
210
0
220
0
230
1
2
ANSI31
70
0
71
0
91
1
92
5
93
3
72
1
10
20.3197
20
-0.835000000000008
11
20.7804837415528
21
-4.33499830744682
72
1
10
20.7804837415528
20
-4.33499830744682
11
19.8589162584472
21
-4.33500169255319
72
1
10
19.8589162584472
20
-4.33500169255319
11
20.3197
21
-0.835000000000008
97
0
75
0
76
1
52
0
41
0.0062
77
0
78
1
53
45
43
0
44
0
45
-0.0139193969876572
46
0.0139193969876572
79
0
47
0
98
1
10
0
20
0
0
HATCH
5
E6
100
AcDbEntity
8
2
62
256
6
ByLayer
370
13
48
1
60
0
100
AcDbHatch
10
0
20
0
30
0
210
0
220
0
230
1
2
ANSI31
70
0
71
0
91
1
92
5
93
3
72
1
10
20.3197
20
0.835000000000008
11
19.8589162584472
21
4.33499830744682
72
1
10
19.8589162584472
20
4.33499830744682
11
20.7804837415528
21
4.33500169255319
72
1
10
20.7804837415528
20
4.33500169255319
11
20.3197
21
0.835000000000008
97
0
75
0
76
1
52
0
41
0.0062
77
0
78
1
53
45
43
0
44
0
45
-0.0139193969876572
46
0.0139193969876572
79
0
47
0
98
1
10
0
20
0
0
HATCH
5
EB
100
AcDbEntity
8
SK2
62
256
6
ByLayer
370
13
48
1
60
0
100
AcDbHatch
10
0
20
0
30
0
210
0
220
0
230
1
2
ANSI31
70
0
71
0
91
1
92
5
93
3
72
1
10
21.7295085794605
20
-14.8181323180492
11
24.6015418553693
21
-12.765393983365
72
1
10
24.6015418553693
20
-12.765393983365
11
25.0349706127348
21
-13.5786750775861
72
1
10
25.0349706127348
20
-13.5786750775861
11
21.7295085794605
21
-14.8181323180492
97
0
75
0
76
1
52
0
41
0.0062
77
0
78
1
53
45
43
0
44
0
45
-0.0139193969876572
46
0.0139193969876572
79
0
47
0
98
1
10
0
20
0
0
HATCH
5
EF
100
AcDbEntity
8
SK2
62
256
6
ByLayer
370
13
48
1
60
0
100
AcDbHatch
10
0
20
0
30
0
210
0
220
0
230
1
2
ANSI31
70
0
71
0
91
1
92
5
93
3
72
1
10
21.7295085794605
20
14.8181323180492
11
25.0349676253807
21
13.5786766696479
72
1
10
25.0349676253807
20
13.5786766696479
11
24.6015448427234
21
12.7653923913032
72
1
10
24.6015448427234
20
12.7653923913032
11
21.7295085794605
21
14.8181323180492
97
0
75
0
76
1
52
0
41
0.0062
77
0
78
1
53
45
43
0
44
0
45
-0.0139193969876572
46
0.0139193969876572
79
0
47
0
98
1
10
0
20
0
0
DIMENSION
5
F3
100
AcDbEntity
8
SK2
62
256
6
ByLayer
370
18
48
1
60
0
100
AcDbDimension
2
_U0
10
14.8197
20
-38.85
30
0
11
-4.1803
21
-38.85
31
0
70
32
71
1
72
1
41
1
210
0
220
0
230
1
3
Standard
100
AcDbAlignedDimension
13
-23.1803
23
1.5
33
0
14
14.8197
24
0.835
34
0
50
0
100
AcDbRotatedDimension
1001
ACAD
1000
DSTYLE
1002
{
1070
   371
1070
    13
1070
   372
1070
    13
1070
     3
1000

1070
   170
1070
     0
1070
   144
1040
1.0
1070
   277
1070
     2
1070
   284
1070
     8
1070
   278
1070
    46
1070
   146
1040
1.166667
1070
   345
1005
16
1070
   347
1005
16
1070
   346
1005
16
1070
   344
1005
0
1070
   343
1005
0
1070
   172
1070
     1
1070
    76
1070
     0
1070
    75
1070
     0
1070
   282
1070
     0
1070
   281
1070
     0
1070
    71
1070
     0
1070
    74
1070
     0
1070
   279
1070
     0
1070
   173
1070
     1
1070
   340
1005
D2
1070
   271
1070
     2
1070
   272
1070
     2
1070
    77
1070
     1
1070
    73
1070
     1
1070
   171
1070
     3
1070
   274
1070
     4
1070
   177
1070
     2
1070
   176
1070
     2
1070
   178
1070
     2
1070
    78
1070
     8
1070
    48
1040
-0.1
1070
    41
1040
3.5
1070
   147
1040
1.5
1070
    42
1040
1.5875
1070
    44
1040
2.0
1070
   140
1040
3.0
1002
}
1001
ACAD_DSTYLE_DIM_LINETYPE
1070
   380
1005
16
1001
ACAD_DSTYLE_DIM_EXT1_LINETYPE
1070
   381
1005
16
1001
ACAD_DSTYLE_DIM_EXT2_LINETYPE
1070
   382
1005
16
0
DIMENSION
5
10C
100
AcDbEntity
8
SK2
62
256
6
ByLayer
370
18
48
1
60
0
100
AcDbDimension
2
_U1
10
6.1247
20
-22.335
30
0
11
29.462557
21
-22.335
31
0
70
32
71
1
72
1
41
1
210
0
220
0
230
1
3
Standard
100
AcDbAlignedDimension
13
14.8197
23
0.835
33
0
14
6.1247
24
0
34
0
50
0
100
AcDbRotatedDimension
1001
ACAD
1000
DSTYLE
1002
{
1070
   371
1070
    13
1070
   372
1070
    13
1070
     3
1000

1070
   170
1070
     0
1070
   144
1040
1.0
1070
   277
1070
     2
1070
   284
1070
     8
1070
   278
1070
    46
1070
   146
1040
1.166667
1070
   345
1005
16
1070
   347
1005
16
1070
   346
1005
16
1070
   344
1005
0
1070
   343
1005
0
1070
   172
1070
     1
1070
    76
1070
     0
1070
    75
1070
     0
1070
   282
1070
     0
1070
   281
1070
     0
1070
    71
1070
     0
1070
    74
1070
     0
1070
   279
1070
     0
1070
   173
1070
     1
1070
   340
1005
D2
1070
   271
1070
     2
1070
   272
1070
     2
1070
    77
1070
     1
1070
    73
1070
     1
1070
   171
1070
     3
1070
   274
1070
     4
1070
   177
1070
     2
1070
   176
1070
     2
1070
   178
1070
     2
1070
    78
1070
     8
1070
    48
1040
-0.1
1070
    41
1040
3.5
1070
   147
1040
1.5
1070
    42
1040
1.5875
1070
    44
1040
2.0
1070
   140
1040
3.0
1002
}
1001
ACAD_DSTYLE_DIM_LINETYPE
1070
   380
1005
16
1001
ACAD_DSTYLE_DIM_EXT1_LINETYPE
1070
   381
1005
16
1001
ACAD_DSTYLE_DIM_EXT2_LINETYPE
1070
   382
1005
16
0
DIMENSION
5
126
100
AcDbEntity
8
SK2
62
256
6
ByLayer
370
18
48
1
60
0
100
AcDbDimension
2
_U2
10
3.6197
20
-30.35
30
0
11
9.2197
21
-30.35
31
0
70
32
71
1
72
1
41
1
210
0
220
0
230
1
3
Standard
100
AcDbAlignedDimension
13
14.8197
23
0.835
33
0
14
3.6197
24
0
34
0
50
0
100
AcDbRotatedDimension
1001
ACAD
1000
DSTYLE
1002
{
1070
   371
1070
    13
1070
   372
1070
    13
1070
     3
1000

1070
   170
1070
     0
1070
   144
1040
1.0
1070
   277
1070
     2
1070
   284
1070
     8
1070
   278
1070
    46
1070
   146
1040
1.166667
1070
   345
1005
16
1070
   347
1005
16
1070
   346
1005
16
1070
   344
1005
0
1070
   343
1005
0
1070
   172
1070
     1
1070
    76
1070
     0
1070
    75
1070
     0
1070
   282
1070
     0
1070
   281
1070
     0
1070
    71
1070
     0
1070
    74
1070
     0
1070
   279
1070
     0
1070
   173
1070
     1
1070
   340
1005
D2
1070
   271
1070
     2
1070
   272
1070
     2
1070
    77
1070
     1
1070
    73
1070
     1
1070
   171
1070
     3
1070
   274
1070
     4
1070
   177
1070
     2
1070
   176
1070
     2
1070
   178
1070
     2
1070
    78
1070
     8
1070
    48
1040
-0.1
1070
    41
1040
3.5
1070
   147
1040
1.5
1070
    42
1040
1.5875
1070
    44
1040
2.0
1070
   140
1040
3.0
1002
}
1001
ACAD_DSTYLE_DIM_LINETYPE
1070
   380
1005
16
1001
ACAD_DSTYLE_DIM_EXT1_LINETYPE
1070
   381
1005
16
1001
ACAD_DSTYLE_DIM_EXT2_LINETYPE
1070
   382
1005
16
0
DIMENSION
5
13F
100
AcDbEntity
8
SK2
62
256
6
ByLayer
370
18
48
1
60
0
100
AcDbDimension
2
_U3
10
0
20
11.35
30
0
11
-11.59015
21
11.35
31
0
70
32
71
1
72
1
41
1
210
0
220
0
230
1
3
Standard
100
AcDbAlignedDimension
13
-23.1803
23
0
33
0
14
0
24
0
34
0
50
0
100
AcDbRotatedDimension
1001
ACAD
1000
DSTYLE
1002
{
1070
   371
1070
    13
1070
   372
1070
    13
1070
     3
1000

1070
   170
1070
     0
1070
   144
1040
1.0
1070
   277
1070
     2
1070
   284
1070
     8
1070
   278
1070
    46
1070
   146
1040
1.166667
1070
   345
1005
16
1070
   347
1005
16
1070
   346
1005
16
1070
   344
1005
0
1070
   343
1005
0
1070
   172
1070
     1
1070
    76
1070
     0
1070
    75
1070
     0
1070
   282
1070
     0
1070
   281
1070
     0
1070
    71
1070
     0
1070
    74
1070
     0
1070
   279
1070
     0
1070
   173
1070
     1
1070
   340
1005
D2
1070
   271
1070
     2
1070
   272
1070
     2
1070
    77
1070
     1
1070
    73
1070
     1
1070
   171
1070
     3
1070
   274
1070
     4
1070
   177
1070
     2
1070
   176
1070
     2
1070
   178
1070
     2
1070
    78
1070
     8
1070
    48
1040
-0.1
1070
    41
1040
3.5
1070
   147
1040
1.5
1070
    42
1040
1.5875
1070
    44
1040
2.0
1070
   140
1040
3.0
1002
}
1001
ACAD_DSTYLE_DIM_LINETYPE
1070
   380
1005
16
1001
ACAD_DSTYLE_DIM_EXT1_LINETYPE
1070
   381
1005
16
1001
ACAD_DSTYLE_DIM_EXT2_LINETYPE
1070
   382
1005
16
0
DIMENSION
5
157
100
AcDbEntity
8
2
62
256
6
ByLayer
370
18
48
1
60
0
100
AcDbDimension
2
_U4
10
0
20
11.35
30
0
11
7.40985
21
11.35
31
0
70
32
71
1
72
1
41
1
210
0
220
0
230
1
3
Standard
100
AcDbAlignedDimension
13
14.8197
23
0.835
33
0
14
0
24
0
34
0
50
0
100
AcDbRotatedDimension
1001
ACAD
1000
DSTYLE
1002
{
1070
   371
1070
    13
1070
   372
1070
    13
1070
     3
1000

1070
   170
1070
     0
1070
   144
1040
1.0
1070
   277
1070
     2
1070
   284
1070
     8
1070
   278
1070
    46
1070
   146
1040
1.166667
1070
   345
1005
16
1070
   347
1005
16
1070
   346
1005
16
1070
   344
1005
0
1070
   343
1005
0
1070
   172
1070
     1
1070
    76
1070
     0
1070
    75
1070
     0
1070
   282
1070
     0
1070
   281
1070
     0
1070
    71
1070
     0
1070
    74
1070
     0
1070
   279
1070
     0
1070
   173
1070
     1
1070
   340
1005
D2
1070
   271
1070
     2
1070
   272
1070
     2
1070
    77
1070
     1
1070
    73
1070
     1
1070
   171
1070
     3
1070
   274
1070
     4
1070
   177
1070
     2
1070
   176
1070
     2
1070
   178
1070
     2
1070
    78
1070
     8
1070
    48
1040
-0.1
1070
    41
1040
3.5
1070
   147
1040
1.5
1070
    42
1040
1.5875
1070
    44
1040
2.0
1070
   140
1040
3.0
1002
}
1001
ACAD_DSTYLE_DIM_LINETYPE
1070
   380
1005
16
1001
ACAD_DSTYLE_DIM_EXT1_LINETYPE
1070
   381
1005
16
1001
ACAD_DSTYLE_DIM_EXT2_LINETYPE
1070
   382
1005
16
0
ENDSEC
0
SECTION
2
OBJECTS
0
DICTIONARY
5
1e0
330
0
100
AcDbDictionary
280
0
281
1
3
ACAD_GROUP
350
1e1
3
ACAD_MLINESTYLE
350
1e2
0
DICTIONARY
5
1e1
330
0
100
AcDbDictionary
280
0
281
1
0
DICTIONARY
5
1e2
330
0
100
AcDbDictionary
280
0
281
1
3
Standard
350
18
0
MLINESTYLE
5
18
330
1e2
100
AcDbMlineStyle
2
Standard
70
0
3

62
256
51
90
52
90
71
2
49
-0.5
62
256
6
ByLayer
49
0.5
62
256
6
ByLayer
0
RASTERVARIABLES
5
1ce
330

100
AcDbRasterVariables
90
0
70
1
71
1
72
1
0
ENDSEC
0
EOF
