0
SECTION
2
HEADER
9
$ACADVER
1
AC1015
9
$DWGCODEPAGE
3
ANSI_1252
9
$HANDSEED
5
1ee
9
$ANGBASE
50
0
9
$ANGDIR
70
0
9
$ATTMODE
70
1
9
$AUNITS
70
0
9
$AUPREC
70
0
9
$CECOLOR
62
256
9
$CELTSCALE
40
1
9
$CELTYPE
6
ByLayer
9
$CELWEIGHT
370
18
9
$CLAYER
8
0
9
$CMLJUST
70
0
9
$CMLSCALE
40
1
9
$CMLSTYLE
2
Standard
9
$DIMSTYLE
2
Standard
9
$TEXTSIZE
40
0.2
9
$TEXTSTYLE
7
Standard
9
$LUNITS
70
2
9
$LUPREC
70
4
9
$EXTNAMES
290
1
9
$INSUNITS
70
4
9
$LTSCALE
40
1
9
$LWDISPLAY
290
1
9
$PDMODE
70
0
9
$PDSIZE
40
0
9
$PLINEGEN
70
0
0
ENDSEC
0
SECTION
2
CLASSES
0
CLASS
1
RASTERVARIABLES
2
AcDbRasterVariables
3
ISM
90
0
280
0
281
0
0
ENDSEC
0
SECTION
2
TABLES
0
TABLE
2
VPORT
5
1e4
100
AcDbSymbolTable
0
VPORT
5
1
100
AcDbSymbolTableRecord
100
AcDbViewportTableRecord
2
*Active
70
0
10
0
20
0
11
1
21
1
12
-1
22
1
13
0
23
0
14
0.5
24
0.5
15
10
25
10
16
0
26
0
36
1
17
0
27
0
37
0
0
ENDTAB
0
TABLE
2
LTYPE
5
1e5
100
AcDbSymbolTable
0
LTYPE
5
14
100
AcDbSymbolTableRecord
100
AcDbLinetypeTableRecord
70
0
2
ByBlock
3

72
65
73
0
40
0
0
LTYPE
5
15
100
AcDbSymbolTableRecord
100
AcDbLinetypeTableRecord
70
0
2
ByLayer
3

72
65
73
0
40
0
0
LTYPE
5
16
100
AcDbSymbolTableRecord
100
AcDbLinetypeTableRecord
70
0
2
Continuous
3
Solid line
72
65
73
0
40
0
0
LTYPE
5
6E
100
AcDbSymbolTableRecord
100
AcDbLinetypeTableRecord
70
0
2
CENTER
3
____ _ ____ _ ____ _ ____
72
65
73
4
40
47.5
49
22
74
0
49
-8.5
74
0
49
8.5
74
0
49
-8.5
74
0
0
LTYPE
5
6F
100
AcDbSymbolTableRecord
100
AcDbLinetypeTableRecord
70
0
2
DASHED
3
__ __ __ __ __ __ __ __ __
72
65
73
2
40
25.72
49
12.86
74
0
49
-12.86
74
0
0
ENDTAB
0
TABLE
2
LAYER
5
1e6
100
AcDbSymbolTable
0
LAYER
5
10
100
AcDbSymbolTableRecord
100
AcDbLayerTableRecord
2
0
70
0
62
7
6
Continuous
290
1
370
-3
390
0
0
LAYER
5
71
100
AcDbSymbolTableRecord
100
AcDbLayerTableRecord
2
80
70
0
62
-6
6
Continuous
290
1
370
-3
390
0
0
LAYER
5
73
100
AcDbSymbolTableRecord
100
AcDbLayerTableRecord
2
81
70
0
62
-3
6
Continuous
290
1
370
-3
390
0
0
LAYER
5
75
100
AcDbSymbolTableRecord
100
AcDbLayerTableRecord
2
1
70
0
62
4
6
Continuous
290
1
370
-3
390
0
0
LAYER
5
9C
100
AcDbSymbolTableRecord
100
AcDbLayerTableRecord
2
4
70
0
62
-2
6
CENTER
290
1
370
-3
390
0
0
LAYER
5
AC
100
AcDbSymbolTableRecord
100
AcDbLayerTableRecord
2
2
70
0
62
7
6
Continuous
290
1
370
-3
390
0
0
LAYER
5
F7
100
AcDbSymbolTableRecord
100
AcDbLayerTableRecord
2
Defpoints
70
0
62
7
6
Continuous
290
0
370
-3
390
0
0
LAYER
5
1d0
100
AcDbSymbolTableRecord
100
AcDbLayerTableRecord
2
SK1
70
0
62
4
6
Continuous
290
1
370
-3
390
0
0
LAYER
5
1d1
100
AcDbSymbolTableRecord
100
AcDbLayerTableRecord
2
SK4
70
0
62
2
6
CENTER
290
1
370
-3
390
0
0
LAYER
5
1d2
100
AcDbSymbolTableRecord
100
AcDbLayerTableRecord
2
SK2
70
0
62
7
6
Continuous
290
1
370
-3
390
0
0
LAYER
5
1d3
100
AcDbSymbolTableRecord
100
AcDbLayerTableRecord
2
SK6
70
0
62
5
6
Continuous
290
1
370
-3
390
0
0
ENDTAB
0
TABLE
2
STYLE
5
1e7
100
AcDbSymbolTable
0
STYLE
5
11
100
AcDbSymbolTableRecord
100
AcDbTextStyleTableRecord
2
Standard
3
txt
70
0
71
0
40
0
41
1
42
0
50
0
0
STYLE
5
D3
100
AcDbSymbolTableRecord
100
AcDbTextStyleTableRecord
2
iso_b_vert
3
simplex.shx
70
0
71
0
40
0
41
1
42
0
50
0
0
STYLE
5
D4
100
AcDbSymbolTableRecord
100
AcDbTextStyleTableRecord
2
DWGDirectTextStyle
3
simplex
70
0
71
0
40
0
41
1
42
0
50
0
0
ENDTAB
0
TABLE
2
DIMSTYLE
5
1e8
100
AcDbSymbolTable
100
AcDbDimStyleTable
0
DIMSTYLE
105
27
100
AcDbSymbolTableRecord
100
AcDbDimStyleTableRecord
2
Standard
70
0
3
<>
41
0.18
42
0.0625
44
0.18
140
0.18
147
0.09
73
0
74
0
77
1
271
2
275
0
278
52
280
0
340
11
0
ENDTAB
0
TABLE
2
VIEW
5
1e9
100
AcDbSymbolTable
0
ENDTAB
0
TABLE
2
UCS
5
1ea
100
AcDbSymbolTable
0
ENDTAB
0
TABLE
2
APPID
5
1eb
100
AcDbSymbolTable
0
APPID
5
12
100
AcDbSymbolTableRecord
100
AcDbRegAppTableRecord
2
ACAD
70
0
0
APPID
5
F3
100
AcDbSymbolTableRecord
100
AcDbRegAppTableRecord
2
ACAD_DSTYLE_DIMBREAK
70
0
0
APPID
5
18F
100
AcDbSymbolTableRecord
100
AcDbRegAppTableRecord
2
ACAD_DSTYLE_DIM_LINETYPE
70
0
0
APPID
5
190
100
AcDbSymbolTableRecord
100
AcDbRegAppTableRecord
2
ACAD_DSTYLE_DIM_EXT1_LINETYPE
70
0
0
APPID
5
191
100
AcDbSymbolTableRecord
100
AcDbRegAppTableRecord
2
ACAD_DSTYLE_DIM_EXT2_LINETYPE
70
0
0
APPID
5
1CC
100
AcDbSymbolTableRecord
100
AcDbRegAppTableRecord
2
ACAD_MLEADERVER
70
0
0
ENDTAB
0
TABLE
2
BLOCK_RECORD
5
1ec
100
AcDbSymbolTable
0
BLOCK_RECORD
5
1F
100
AcDbSymbolTableRecord
100
AcDbBlockTableRecord
2
*Model_Space
340
0
70
0
0
BLOCK_RECORD
5
1B
100
AcDbSymbolTableRecord
100
AcDbBlockTableRecord
2
*Paper_Space
340
0
70
0
0
BLOCK_RECORD
5
23
100
AcDbSymbolTableRecord
100
AcDbBlockTableRecord
2
*Paper_Space0
340
0
70
0
0
BLOCK_RECORD
5
F8
100
AcDbSymbolTableRecord
100
AcDbBlockTableRecord
2
*D1
340
0
70
0
0
BLOCK_RECORD
5
104
100
AcDbSymbolTableRecord
100
AcDbBlockTableRecord
2
_U0
340
0
70
0
0
BLOCK_RECORD
5
110
100
AcDbSymbolTableRecord
100
AcDbBlockTableRecord
2
*D3
340
0
70
0
0
BLOCK_RECORD
5
11E
100
AcDbSymbolTableRecord
100
AcDbBlockTableRecord
2
_U1
340
0
70
0
0
BLOCK_RECORD
5
12A
100
AcDbSymbolTableRecord
100
AcDbBlockTableRecord
2
*D5
340
0
70
0
0
BLOCK_RECORD
5
137
100
AcDbSymbolTableRecord
100
AcDbBlockTableRecord
2
_U2
340
0
70
0
0
BLOCK_RECORD
5
143
100
AcDbSymbolTableRecord
100
AcDbBlockTableRecord
2
*D7
340
0
70
0
0
BLOCK_RECORD
5
14F
100
AcDbSymbolTableRecord
100
AcDbBlockTableRecord
2
_U3
340
0
70
0
0
BLOCK_RECORD
5
15B
100
AcDbSymbolTableRecord
100
AcDbBlockTableRecord
2
*D9
340
0
70
0
0
BLOCK_RECORD
5
168
100
AcDbSymbolTableRecord
100
AcDbBlockTableRecord
2
_U4
340
0
70
0
0
ENDTAB
0
ENDSEC
0
SECTION
2
BLOCKS
0
BLOCK
5
20
100
AcDbEntity
8
0
100
AcDbBlockBegin
2
*Model_Space
70
0
10
0
20
0
30
0
3
*Model_Space
0
ENDBLK
5
21
100
AcDbEntity
8
0
100
AcDbBlockEnd
0
BLOCK
5
1C
100
AcDbEntity
8
0
100
AcDbBlockBegin
2
*Paper_Space
70
0
10
0
20
0
30
0
3
*Paper_Space
0
ENDBLK
5
1D
100
AcDbEntity
8
0
100
AcDbBlockEnd
0
BLOCK
5
24
100
AcDbEntity
8
0
100
AcDbBlockBegin
2
*Paper_Space0
70
0
10
0
20
0
30
0
3
*Paper_Space0
0
ENDBLK
5
25
100
AcDbEntity
8
0
100
AcDbBlockEnd
0
BLOCK
5
F9
100
AcDbEntity
8
0
100
AcDbBlockBegin
2
*D1
70
1
10
0
20
0
30
0
3
*D1
0
LINE
5
FB
100
AcDbEntity
8
0
62
256
6
ByLayer
370
-2
48
1
60
0
100
AcDbLine
10
-23.3015
20
-0.0875
30
0
11
-23.3015
21
-40.867786
31
0
39
0
210
0
220
0
230
1
0
LINE
5
FC
100
AcDbEntity
8
0
62
256
6
ByLayer
370
-2
48
1
60
0
100
AcDbLine
10
14.6985
20
-0.6825
30
0
11
14.6985
21
-40.867786
31
0
39
0
210
0
220
0
230
1
0
LINE
5
FD
100
AcDbEntity
8
0
62
256
6
ByLayer
370
-2
48
1
60
0
100
AcDbLine
10
-19.8015
20
-38.867786
30
0
11
11.1985
21
-38.867786
31
0
39
0
210
0
220
0
230
1
0
SOLID
5
FE
100
AcDbEntity
8
0
62
256
6
ByLayer
370
-1
48
1
60
0
100
AcDbTrace
10
-19.8015
20
-38.284452
30
0
11
-19.8015
21
-39.451119
31
0
12
-23.3015
22
-38.867786
32
0
13
-23.3015
23
-38.867786
33
0
39
0
210
0
220
0
230
1
0
SOLID
5
FF
100
AcDbEntity
8
0
62
256
6
ByLayer
370
-1
48
1
60
0
100
AcDbTrace
10
11.1985
20
-39.451119
30
0
11
11.1985
21
-38.284452
31
0
12
14.6985
22
-38.867786
32
0
13
14.6985
23
-38.867786
33
0
39
0
210
0
220
0
230
1
0
MTEXT
5
100
100
AcDbEntity
8
0
62
256
6
ByLayer
370
18
48
1
60
0
100
AcDbMText
10
-4.3015
20
-32.867786
30
0
210
0
220
0
230
1
1
\A1;38
40
3
41
0
44
1
50
0
71
5
72
5
7
iso_b_vert
0
POINT
5
101
100
AcDbEntity
8
Defpoints
62
0
6
ByLayer
370
-1
48
1
60
0
100
AcDbPoint
10
-23.3015
20
1.5
30
0
39
0
210
0
220
0
230
1
50
360
0
POINT
5
102
100
AcDbEntity
8
Defpoints
62
0
6
ByLayer
370
-1
48
1
60
0
100
AcDbPoint
10
14.6985
20
0.905
30
0
39
0
210
0
220
0
230
1
50
360
0
POINT
5
103
100
AcDbEntity
8
Defpoints
62
0
6
ByLayer
370
-1
48
1
60
0
100
AcDbPoint
10
14.6985
20
-38.867786
30
0
39
0
210
0
220
0
230
1
50
360
0
ENDBLK
5
FA
100
AcDbEntity
8
0
100
AcDbBlockEnd
0
BLOCK
5
10B
100
AcDbEntity
8
0
100
AcDbBlockBegin
2
_U0
70
0
10
0
20
0
30
0
3
_U0
0
MTEXT
5
105
100
AcDbEntity
8
SK2
62
256
6
ByLayer
370
18
48
1
60
0
100
AcDbMText
10
-8.78387
20
-37.982671
30
0
210
0
220
0
230
1
1
\W0.7468;38.00
40
3
41
0
44
1.084337
50
0
71
7
72
5
7
iso_b_vert
0
LINE
5
106
100
AcDbEntity
8
SK2
62
256
6
ByLayer
370
13
48
1
60
0
100
AcDbLine
10
-23.3015
20
-0.0875
30
0
11
-23.3015
21
-40.867786
31
0
39
0
210
0
220
0
230
1
0
LINE
5
107
100
AcDbEntity
8
SK2
62
256
6
ByLayer
370
13
48
1
60
0
100
AcDbLine
10
14.6985
20
-0.6825
30
0
11
14.6985
21
-40.867786
31
0
39
0
210
0
220
0
230
1
0
LINE
5
108
100
AcDbEntity
8
SK2
62
256
6
ByLayer
370
13
48
1
60
0
100
AcDbLine
10
-23.3015
20
-38.867786
30
0
11
14.6985
21
-38.867786
31
0
39
0
210
0
220
0
230
1
0
SOLID
5
109
100
AcDbEntity
8
SK2
62
256
6
ByLayer
370
18
48
1
60
0
100
AcDbTrace
10
-23.3015
20
-38.867786
30
0
11
-19.801502
21
-38.407002
31
0
12
-19.801498
22
-39.328569
32
0
13
-19.801498
23
-39.328569
33
0
39
0
210
0
220
0
230
1
0
SOLID
5
10A
100
AcDbEntity
8
SK2
62
256
6
ByLayer
370
18
48
1
60
0
100
AcDbTrace
10
14.6985
20
-38.867786
30
0
11
11.198502
21
-39.328569
31
0
12
11.198498
22
-38.407002
32
0
13
11.198498
23
-38.407002
33
0
39
0
210
0
220
0
230
1
0
ENDBLK
5
10C
100
AcDbEntity
8
0
100
AcDbBlockEnd
0
BLOCK
5
111
100
AcDbEntity
8
0
100
AcDbBlockBegin
2
*D3
70
1
10
0
20
0
30
0
3
*D3
0
LINE
5
113
100
AcDbEntity
8
0
62
256
6
ByLayer
370
-2
48
1
60
0
100
AcDbLine
10
14.6985
20
-0.6825
30
0
11
14.6985
21
-24.405
31
0
39
0
210
0
220
0
230
1
0
LINE
5
114
100
AcDbEntity
8
0
62
256
6
ByLayer
370
-2
48
1
60
0
100
AcDbLine
10
6.2135
20
-1.5875
30
0
11
6.2135
21
-24.405
31
0
39
0
210
0
220
0
230
1
0
LINE
5
115
100
AcDbEntity
8
0
62
256
6
ByLayer
370
-2
48
1
60
0
100
AcDbLine
10
14.6985
20
-22.405
30
0
11
39.6985
21
-22.405
31
0
39
0
210
0
220
0
230
1
0
LINE
5
116
100
AcDbEntity
8
0
62
256
6
ByLayer
370
-2
48
1
60
0
100
AcDbLine
10
18.1985
20
-22.405
30
0
11
21.6985
21
-22.405
31
0
39
0
210
0
220
0
230
1
0
LINE
5
117
100
AcDbEntity
8
0
62
256
6
ByLayer
370
-2
48
1
60
0
100
AcDbLine
10
2.7135
20
-22.405
30
0
11
-0.7865
21
-22.405
31
0
39
0
210
0
220
0
230
1
0
SOLID
5
118
100
AcDbEntity
8
0
62
256
6
ByLayer
370
-1
48
1
60
0
100
AcDbTrace
10
18.1985
20
-21.821667
30
0
11
18.1985
21
-22.988333
31
0
12
14.6985
22
-22.405
32
0
13
14.6985
23
-22.405
33
0
39
0
210
0
220
0
230
1
0
SOLID
5
119
100
AcDbEntity
8
0
62
256
6
ByLayer
370
-1
48
1
60
0
100
AcDbTrace
10
2.7135
20
-22.988333
30
0
11
2.7135
21
-21.821667
31
0
12
6.2135
22
-22.405
32
0
13
6.2135
23
-22.405
33
0
39
0
210
0
220
0
230
1
0
MTEXT
5
11A
100
AcDbEntity
8
0
62
256
6
ByLayer
370
18
48
1
60
0
100
AcDbMText
10
30.6985
20
-16.405
30
0
210
0
220
0
230
1
1
\A1;8.49
40
3
41
0
44
1
50
0
71
5
72
5
7
iso_b_vert
0
POINT
5
11B
100
AcDbEntity
8
Defpoints
62
0
6
ByLayer
370
-1
48
1
60
0
100
AcDbPoint
10
14.6985
20
0.905
30
0
39
0
210
0
220
0
230
1
50
360
0
POINT
5
11C
100
AcDbEntity
8
Defpoints
62
0
6
ByLayer
370
-1
48
1
60
0
100
AcDbPoint
10
6.2135
20
0
30
0
39
0
210
0
220
0
230
1
50
360
0
POINT
5
11D
100
AcDbEntity
8
Defpoints
62
0
6
ByLayer
370
-1
48
1
60
0
100
AcDbPoint
10
6.2135
20
-22.405
30
0
39
0
210
0
220
0
230
1
50
360
0
ENDBLK
5
112
100
AcDbEntity
8
0
100
AcDbBlockEnd
0
BLOCK
5
125
100
AcDbEntity
8
0
100
AcDbBlockBegin
2
_U1
70
0
10
0
20
0
30
0
3
_U1
0
MTEXT
5
11F
100
AcDbEntity
8
SK2
62
256
6
ByLayer
370
18
48
1
60
0
100
AcDbMText
10
18.8575
20
-21.519886
30
0
210
0
220
0
230
1
1
\W0.7261;(8.48)
40
3
41
0
44
1.084337
50
0
71
7
72
5
7
iso_b_vert
0
LINE
5
120
100
AcDbEntity
8
SK2
62
256
6
ByLayer
370
13
48
1
60
0
100
AcDbLine
10
14.6985
20
-0.6825
30
0
11
14.6985
21
-24.405
31
0
39
0
210
0
220
0
230
1
0
LINE
5
121
100
AcDbEntity
8
SK2
62
256
6
ByLayer
370
13
48
1
60
0
100
AcDbLine
10
6.2135
20
-1.5875
30
0
11
6.2135
21
-24.405
31
0
39
0
210
0
220
0
230
1
0
LINE
5
122
100
AcDbEntity
8
SK2
62
256
6
ByLayer
370
13
48
1
60
0
100
AcDbLine
10
6.2135
20
-22.405
30
0
11
28.486155
21
-22.405
31
0
39
0
210
0
220
0
230
1
0
SOLID
5
123
100
AcDbEntity
8
SK2
62
256
6
ByLayer
370
18
48
1
60
0
100
AcDbTrace
10
14.6985
20
-22.405
30
0
11
11.198502
21
-22.865784
31
0
12
11.198498
22
-21.944216
32
0
13
11.198498
23
-21.944216
33
0
39
0
210
0
220
0
230
1
0
SOLID
5
124
100
AcDbEntity
8
SK2
62
256
6
ByLayer
370
18
48
1
60
0
100
AcDbTrace
10
6.2135
20
-22.405
30
0
11
9.713498
21
-21.944216
31
0
12
9.713502
22
-22.865784
32
0
13
9.713502
23
-22.865784
33
0
39
0
210
0
220
0
230
1
0
ENDBLK
5
126
100
AcDbEntity
8
0
100
AcDbBlockEnd
0
BLOCK
5
12B
100
AcDbEntity
8
0
100
AcDbBlockBegin
2
*D5
70
1
10
0
20
0
30
0
3
*D5
0
LINE
5
12D
100
AcDbEntity
8
0
62
256
6
ByLayer
370
-2
48
1
60
0
100
AcDbLine
10
14.6985
20
-0.6825
30
0
11
14.6985
21
-32.367786
31
0
39
0
210
0
220
0
230
1
0
LINE
5
12E
100
AcDbEntity
8
0
62
256
6
ByLayer
370
-2
48
1
60
0
100
AcDbLine
10
3.4985
20
-1.5875
30
0
11
3.4985
21
-32.367786
31
0
39
0
210
0
220
0
230
1
0
LINE
5
12F
100
AcDbEntity
8
0
62
256
6
ByLayer
370
-2
48
1
60
0
100
AcDbLine
10
18.1985
20
-30.367786
30
0
11
21.6985
21
-30.367786
31
0
39
0
210
0
220
0
230
1
0
LINE
5
130
100
AcDbEntity
8
0
62
256
6
ByLayer
370
-2
48
1
60
0
100
AcDbLine
10
-0.0015
20
-30.367786
30
0
11
-3.5015
21
-30.367786
31
0
39
0
210
0
220
0
230
1
0
SOLID
5
131
100
AcDbEntity
8
0
62
256
6
ByLayer
370
-1
48
1
60
0
100
AcDbTrace
10
18.1985
20
-29.784452
30
0
11
18.1985
21
-30.951119
31
0
12
14.6985
22
-30.367786
32
0
13
14.6985
23
-30.367786
33
0
39
0
210
0
220
0
230
1
0
SOLID
5
132
100
AcDbEntity
8
0
62
256
6
ByLayer
370
-1
48
1
60
0
100
AcDbTrace
10
-0.0015
20
-30.951119
30
0
11
-0.0015
21
-29.784452
31
0
12
3.4985
22
-30.367786
32
0
13
3.4985
23
-30.367786
33
0
39
0
210
0
220
0
230
1
0
MTEXT
5
133
100
AcDbEntity
8
0
62
256
6
ByLayer
370
18
48
1
60
0
100
AcDbMText
10
9.0985
20
-24.367786
30
0
210
0
220
0
230
1
1
\A1;11.2
40
3
41
0
44
1
50
0
71
5
72
5
7
iso_b_vert
0
POINT
5
134
100
AcDbEntity
8
Defpoints
62
0
6
ByLayer
370
-1
48
1
60
0
100
AcDbPoint
10
14.6985
20
0.905
30
0
39
0
210
0
220
0
230
1
50
360
0
POINT
5
135
100
AcDbEntity
8
Defpoints
62
0
6
ByLayer
370
-1
48
1
60
0
100
AcDbPoint
10
3.4985
20
0
30
0
39
0
210
0
220
0
230
1
50
360
0
POINT
5
136
100
AcDbEntity
8
Defpoints
62
0
6
ByLayer
370
-1
48
1
60
0
100
AcDbPoint
10
3.4985
20
-30.367786
30
0
39
0
210
0
220
0
230
1
50
360
0
ENDBLK
5
12C
100
AcDbEntity
8
0
100
AcDbBlockEnd
0
BLOCK
5
13E
100
AcDbEntity
8
0
100
AcDbBlockBegin
2
_U2
70
0
10
0
20
0
30
0
3
_U2
0
MTEXT
5
138
100
AcDbEntity
8
SK2
62
256
6
ByLayer
370
18
48
1
60
0
100
AcDbMText
10
5.366015
20
-29.482671
30
0
210
0
220
0
230
1
1
\W0.6261;11.20
40
3
41
0
44
1.084337
50
0
71
7
72
5
7
iso_b_vert
0
LINE
5
139
100
AcDbEntity
8
SK2
62
256
6
ByLayer
370
13
48
1
60
0
100
AcDbLine
10
14.6985
20
-0.6825
30
0
11
14.6985
21
-32.367786
31
0
39
0
210
0
220
0
230
1
0
LINE
5
13A
100
AcDbEntity
8
SK2
62
256
6
ByLayer
370
13
48
1
60
0
100
AcDbLine
10
3.4985
20
-1.5875
30
0
11
3.4985
21
-32.367786
31
0
39
0
210
0
220
0
230
1
0
LINE
5
13B
100
AcDbEntity
8
SK2
62
256
6
ByLayer
370
13
48
1
60
0
100
AcDbLine
10
14.6985
20
-30.367786
30
0
11
3.4985
21
-30.367786
31
0
39
0
210
0
220
0
230
1
0
SOLID
5
13C
100
AcDbEntity
8
SK2
62
256
6
ByLayer
370
18
48
1
60
0
100
AcDbTrace
10
14.6985
20
-30.367786
30
0
11
11.198502
21
-30.828569
31
0
12
11.198498
22
-29.907002
32
0
13
11.198498
23
-29.907002
33
0
39
0
210
0
220
0
230
1
0
SOLID
5
13D
100
AcDbEntity
8
SK2
62
256
6
ByLayer
370
18
48
1
60
0
100
AcDbTrace
10
3.4985
20
-30.367786
30
0
11
6.998498
21
-29.907002
31
0
12
6.998502
22
-30.828569
32
0
13
6.998502
23
-30.828569
33
0
39
0
210
0
220
0
230
1
0
ENDBLK
5
13F
100
AcDbEntity
8
0
100
AcDbBlockEnd
0
BLOCK
5
144
100
AcDbEntity
8
0
100
AcDbBlockBegin
2
*D7
70
1
10
0
20
0
30
0
3
*D7
0
LINE
5
146
100
AcDbEntity
8
0
62
256
6
ByLayer
370
-2
48
1
60
0
100
AcDbLine
10
-23.3015
20
1.5875
30
0
11
-23.3015
21
13.367786
31
0
39
0
210
0
220
0
230
1
0
LINE
5
147
100
AcDbEntity
8
0
62
256
6
ByLayer
370
-2
48
1
60
0
100
AcDbLine
10
0
20
1.5875
30
0
11
0
21
13.367786
31
0
39
0
210
0
220
0
230
1
0
LINE
5
148
100
AcDbEntity
8
0
62
256
6
ByLayer
370
-2
48
1
60
0
100
AcDbLine
10
-19.8015
20
11.367786
30
0
11
-3.5
21
11.367786
31
0
39
0
210
0
220
0
230
1
0
SOLID
5
149
100
AcDbEntity
8
0
62
256
6
ByLayer
370
-1
48
1
60
0
100
AcDbTrace
10
-19.8015
20
11.951119
30
0
11
-19.8015
21
10.784452
31
0
12
-23.3015
22
11.367786
32
0
13
-23.3015
23
11.367786
33
0
39
0
210
0
220
0
230
1
0
SOLID
5
14A
100
AcDbEntity
8
0
62
256
6
ByLayer
370
-1
48
1
60
0
100
AcDbTrace
10
-3.5
20
10.784452
30
0
11
-3.5
21
11.951119
31
0
12
0
22
11.367786
32
0
13
0
23
11.367786
33
0
39
0
210
0
220
0
230
1
0
MTEXT
5
14B
100
AcDbEntity
8
0
62
256
6
ByLayer
370
18
48
1
60
0
100
AcDbMText
10
-11.65075
20
17.367786
30
0
210
0
220
0
230
1
1
\A1;23.3
40
3
41
0
44
1
50
0
71
5
72
5
7
iso_b_vert
0
POINT
5
14C
100
AcDbEntity
8
Defpoints
62
0
6
ByLayer
370
-1
48
1
60
0
100
AcDbPoint
10
-23.3015
20
0
30
0
39
0
210
0
220
0
230
1
50
360
0
POINT
5
14D
100
AcDbEntity
8
Defpoints
62
0
6
ByLayer
370
-1
48
1
60
0
100
AcDbPoint
10
0
20
0
30
0
39
0
210
0
220
0
230
1
50
360
0
POINT
5
14E
100
AcDbEntity
8
Defpoints
62
0
6
ByLayer
370
-1
48
1
60
0
100
AcDbPoint
10
0
20
11.367786
30
0
39
0
210
0
220
0
230
1
50
360
0
ENDBLK
5
145
100
AcDbEntity
8
0
100
AcDbBlockEnd
0
BLOCK
5
156
100
AcDbEntity
8
0
100
AcDbBlockBegin
2
_U3
70
0
10
0
20
0
30
0
3
_U3
0
MTEXT
5
150
100
AcDbEntity
8
SK2
62
256
6
ByLayer
370
18
48
1
60
0
100
AcDbMText
10
-16.13312
20
12.2529
30
0
210
0
220
0
230
1
1
\W0.7468;23.30
40
3
41
0
44
1.084337
50
0
71
7
72
5
7
iso_b_vert
0
LINE
5
151
100
AcDbEntity
8
SK2
62
256
6
ByLayer
370
13
48
1
60
0
100
AcDbLine
10
-23.3015
20
1.5875
30
0
11
-23.3015
21
13.367786
31
0
39
0
210
0
220
0
230
1
0
LINE
5
152
100
AcDbEntity
8
SK2
62
256
6
ByLayer
370
13
48
1
60
0
100
AcDbLine
10
0
20
1.5875
30
0
11
0
21
13.367786
31
0
39
0
210
0
220
0
230
1
0
LINE
5
153
100
AcDbEntity
8
SK2
62
256
6
ByLayer
370
13
48
1
60
0
100
AcDbLine
10
-23.3015
20
11.367786
30
0
11
0
21
11.367786
31
0
39
0
210
0
220
0
230
1
0
SOLID
5
154
100
AcDbEntity
8
SK2
62
256
6
ByLayer
370
18
48
1
60
0
100
AcDbTrace
10
-23.3015
20
11.367786
30
0
11
-19.801502
21
11.828569
31
0
12
-19.801498
22
10.907002
32
0
13
-19.801498
23
10.907002
33
0
39
0
210
0
220
0
230
1
0
SOLID
5
155
100
AcDbEntity
8
SK2
62
256
6
ByLayer
370
18
48
1
60
0
100
AcDbTrace
10
0
20
11.367786
30
0
11
-3.499998
21
10.907002
31
0
12
-3.500002
22
11.828569
32
0
13
-3.500002
23
11.828569
33
0
39
0
210
0
220
0
230
1
0
ENDBLK
5
157
100
AcDbEntity
8
0
100
AcDbBlockEnd
0
BLOCK
5
15C
100
AcDbEntity
8
0
100
AcDbBlockBegin
2
*D9
70
1
10
0
20
0
30
0
3
*D9
0
LINE
5
15E
100
AcDbEntity
8
0
62
256
6
ByLayer
370
-2
48
1
60
0
100
AcDbLine
10
14.6985
20
2.4925
30
0
11
14.6985
21
13.367786
31
0
39
0
210
0
220
0
230
1
0
LINE
5
15F
100
AcDbEntity
8
0
62
256
6
ByLayer
370
-2
48
1
60
0
100
AcDbLine
10
0
20
1.5875
30
0
11
0
21
13.367786
31
0
39
0
210
0
220
0
230
1
0
LINE
5
160
100
AcDbEntity
8
0
62
256
6
ByLayer
370
-2
48
1
60
0
100
AcDbLine
10
18.1985
20
11.367786
30
0
11
21.6985
21
11.367786
31
0
39
0
210
0
220
0
230
1
0
LINE
5
161
100
AcDbEntity
8
0
62
256
6
ByLayer
370
-2
48
1
60
0
100
AcDbLine
10
-3.5
20
11.367786
30
0
11
-7
21
11.367786
31
0
39
0
210
0
220
0
230
1
0
SOLID
5
162
100
AcDbEntity
8
0
62
256
6
ByLayer
370
-1
48
1
60
0
100
AcDbTrace
10
18.1985
20
11.951119
30
0
11
18.1985
21
10.784452
31
0
12
14.6985
22
11.367786
32
0
13
14.6985
23
11.367786
33
0
39
0
210
0
220
0
230
1
0
SOLID
5
163
100
AcDbEntity
8
0
62
256
6
ByLayer
370
-1
48
1
60
0
100
AcDbTrace
10
-3.5
20
10.784452
30
0
11
-3.5
21
11.951119
31
0
12
0
22
11.367786
32
0
13
0
23
11.367786
33
0
39
0
210
0
220
0
230
1
0
MTEXT
5
164
100
AcDbEntity
8
0
62
256
6
ByLayer
370
18
48
1
60
0
100
AcDbMText
10
7.34925
20
17.367786
30
0
210
0
220
0
230
1
1
\A1;14.7
40
3
41
0
44
1
50
0
71
5
72
5
7
iso_b_vert
0
POINT
5
165
100
AcDbEntity
8
Defpoints
62
0
6
ByLayer
370
-1
48
1
60
0
100
AcDbPoint
10
14.6985
20
0.905
30
0
39
0
210
0
220
0
230
1
50
360
0
POINT
5
166
100
AcDbEntity
8
Defpoints
62
0
6
ByLayer
370
-1
48
1
60
0
100
AcDbPoint
10
0
20
0
30
0
39
0
210
0
220
0
230
1
50
360
0
POINT
5
167
100
AcDbEntity
8
Defpoints
62
0
6
ByLayer
370
-1
48
1
60
0
100
AcDbPoint
10
0
20
11.367786
30
0
39
0
210
0
220
0
230
1
50
360
0
ENDBLK
5
15D
100
AcDbEntity
8
0
100
AcDbBlockEnd
0
BLOCK
5
16F
100
AcDbEntity
8
0
100
AcDbBlockBegin
2
_U4
70
0
10
0
20
0
30
0
3
_U4
0
MTEXT
5
169
100
AcDbEntity
8
2
62
256
6
ByLayer
370
18
48
1
60
0
100
AcDbMText
10
4.204794
20
12.2529
30
0
210
0
220
0
230
1
1
\W0.6856;14.7
40
3
41
0
44
1.084337
50
0
71
7
72
5
7
iso_b_vert
0
LINE
5
16A
100
AcDbEntity
8
2
62
256
6
ByLayer
370
13
48
1
60
0
100
AcDbLine
10
14.6985
20
2.4925
30
0
11
14.6985
21
13.367786
31
0
39
0
210
0
220
0
230
1
0
LINE
5
16B
100
AcDbEntity
8
2
62
256
6
ByLayer
370
13
48
1
60
0
100
AcDbLine
10
0
20
1.5875
30
0
11
0
21
13.367786
31
0
39
0
210
0
220
0
230
1
0
LINE
5
16C
100
AcDbEntity
8
2
62
256
6
ByLayer
370
13
48
1
60
0
100
AcDbLine
10
14.6985
20
11.367786
30
0
11
0
21
11.367786
31
0
39
0
210
0
220
0
230
1
0
SOLID
5
16D
100
AcDbEntity
8
2
62
256
6
ByLayer
370
18
48
1
60
0
100
AcDbTrace
10
14.6985
20
11.367786
30
0
11
11.198502
21
10.907002
31
0
12
11.198498
22
11.828569
32
0
13
11.198498
23
11.828569
33
0
39
0
210
0
220
0
230
1
0
SOLID
5
16E
100
AcDbEntity
8
2
62
256
6
ByLayer
370
18
48
1
60
0
100
AcDbTrace
10
0
20
11.367786
30
0
11
3.499998
21
11.828569
31
0
12
3.500002
22
10.907002
32
0
13
3.500002
23
10.907002
33
0
39
0
210
0
220
0
230
1
0
ENDBLK
5
170
100
AcDbEntity
8
0
100
AcDbBlockEnd
0
ENDSEC
0
SECTION
2
ENTITIES
0
ARC
5
BD
100
AcDbEntity
8
1
62
256
6
ByLayer
370
18
48
1
60
0
100
AcDbCircle
39
0
10
1.298544
20
-1.905
30
0
40
1
210
0
220
0
230
1
100
AcDbArc
50
90
51
120
0
ARC
5
BE
100
AcDbEntity
8
1
62
256
6
ByLayer
370
18
48
1
60
0
100
AcDbCircle
39
0
10
1.298544
20
1.905
30
0
40
1
210
0
220
0
230
1
100
AcDbArc
50
240
51
270
0
ARC
5
BF
100
AcDbEntity
8
SK2
62
256
6
ByLayer
370
13
48
1
60
0
100
AcDbCircle
39
0
10
14.6985
20
0
30
0
40
16.35
210
0
220
0
230
1
100
AcDbArc
50
10.57289
51
65
0
ARC
5
C0
100
AcDbEntity
8
SK2
62
256
6
ByLayer
370
13
48
1
60
0
100
AcDbCircle
39
0
10
14.6985
20
0
30
0
40
16.35
210
0
220
0
230
1
100
AcDbArc
50
295
51
349.42711
0
POINT
5
70
100
AcDbEntity
8
80
62
256
6
ByLayer
370
18
48
1
60
0
100
AcDbPoint
10
0
20
0
30
0
39
0
210
0
220
0
230
1
50
360
0
POINT
5
72
100
AcDbEntity
8
81
62
256
6
ByLayer
370
18
48
1
60
0
100
AcDbPoint
10
14.6985
20
0
30
0
39
0
210
0
220
0
230
1
50
360
0
POINT
5
74
100
AcDbEntity
8
1
62
256
6
ByLayer
370
18
48
1
60
1
100
AcDbPoint
10
-23.3015
20
1.5
30
0
39
0
210
0
220
0
230
1
50
360
0
POINT
5
76
100
AcDbEntity
8
1
62
256
6
ByLayer
370
18
48
1
60
1
100
AcDbPoint
10
14.6985
20
0.905
30
0
39
0
210
0
220
0
230
1
50
360
0
POINT
5
77
100
AcDbEntity
8
1
62
256
6
ByLayer
370
18
48
1
60
1
100
AcDbPoint
10
14.6985
20
0.905
30
0
39
0
210
0
220
0
230
1
50
360
0
POINT
5
78
100
AcDbEntity
8
1
62
256
6
ByLayer
370
18
48
1
60
1
100
AcDbPoint
10
6.2135
20
0
30
0
39
0
210
0
220
0
230
1
50
360
0
POINT
5
79
100
AcDbEntity
8
1
62
256
6
ByLayer
370
18
48
1
60
1
100
AcDbPoint
10
14.6985
20
0.905
30
0
39
0
210
0
220
0
230
1
50
360
0
POINT
5
7A
100
AcDbEntity
8
1
62
256
6
ByLayer
370
18
48
1
60
1
100
AcDbPoint
10
3.4985
20
0
30
0
39
0
210
0
220
0
230
1
50
360
0
POINT
5
7B
100
AcDbEntity
8
1
62
256
6
ByLayer
370
18
48
1
60
1
100
AcDbPoint
10
-23.3015
20
0
30
0
39
0
210
0
220
0
230
1
50
360
0
POINT
5
7C
100
AcDbEntity
8
1
62
256
6
ByLayer
370
18
48
1
60
1
100
AcDbPoint
10
0
20
0
30
0
39
0
210
0
220
0
230
1
50
360
0
POINT
5
7D
100
AcDbEntity
8
1
62
256
6
ByLayer
370
18
48
1
60
1
100
AcDbPoint
10
14.6985
20
0.905
30
0
39
0
210
0
220
0
230
1
50
360
0
POINT
5
7E
100
AcDbEntity
8
1
62
256
6
ByLayer
370
18
48
1
60
1
100
AcDbPoint
10
0
20
0
30
0
39
0
210
0
220
0
230
1
50
360
0
SPLINE
5
C1
100
AcDbEntity
8
1
62
256
6
ByLayer
370
18
48
1
60
0
100
AcDbSpline
70
4
71
3
72
12
73
8
40
0
40
0
40
0
40
0
40
0.687767545239563
40
0.687767545239563
40
0.9180240386081
40
0.9180240386081
40
1
40
1
40
1
40
1
41
1
10
3.53093835982025
20
-0.887078523706208
30
0
41
1
10
3.52304085931826
20
-0.892101812301149
30
0
41
1
10
3.5164808903493
20
-0.896163489684511
30
0
41
1
10
3.50963240619845
20
-0.90015262211304
30
0
41
1
10
3.50807589376569
20
-0.901032319180985
30
0
41
1
10
3.50619160204761
20
-0.902053867147089
30
0
41
1
10
3.50571816609522
20
-0.902305948432513
30
0
41
1
10
3.50526676688773
20
-0.90254147058414
30
0
0
SPLINE
5
C2
100
AcDbEntity
8
1
62
256
6
ByLayer
370
18
48
1
60
0
100
AcDbSpline
70
4
71
3
72
14
73
10
40
0
40
0
40
0
40
0
40
0.0222398408116678
40
0.0222398408116678
40
0.511119920405834
40
0.511119920405834
40
0.755559960202916
40
0.755559960202916
40
1
40
1
40
1
40
1
41
1
10
3.49915011141124
20
-0.904999860498947
30
0
41
1
10
3.49907900255104
20
-0.905000788942203
30
0
41
1
10
3.49901372057772
20
-0.904997335900816
30
0
41
1
10
3.49764704594918
20
-0.904817408490999
30
0
41
1
10
3.49913686758112
20
-0.902536259805828
30
0
41
1
10
3.50562110760765
20
-0.895937836905489
30
0
41
1
10
3.50850982528698
20
-0.893193998169636
30
0
41
1
10
3.51562841882881
20
-0.886741772167881
30
0
41
1
10
3.5198609426846
20
-0.883029491684397
30
0
41
1
10
3.52475181703292
20
-0.87885422312894
30
0
0
SPLINE
5
C3
100
AcDbEntity
8
1
62
256
6
ByLayer
370
18
48
1
60
0
100
AcDbSpline
70
4
71
3
72
18
73
14
40
0
40
0
40
0
40
0
40
0.249999999999995
40
0.249999999999995
40
0.49999999999999
40
0.49999999999999
40
0.624999999999987
40
0.624999999999987
40
0.687499999999991
40
0.687499999999991
40
0.749999999999995
40
0.749999999999995
40
1
40
1
40
1
40
1
41
1
10
3.52475181703292
20
-0.87885422312894
30
0
41
1
10
3.60578385004155
20
-0.874093629143346
30
0
41
1
10
3.68721959249783
20
-0.870068723730327
30
0
41
1
10
3.85087206240198
20
-0.864907312406388
30
0
41
1
10
3.93308887430703
20
-0.863767329619947
30
0
41
1
10
4.05700696845025
20
-0.864531932955344
30
0
41
1
10
4.09841208220303
20
-0.865191806432478
30
0
41
1
10
4.16067180907001
20
-0.866758822755486
30
0
41
1
10
4.18144031101266
20
-0.867376920245647
30
0
41
1
10
4.22278822009596
20
-0.868783416608181
30
0
41
1
10
4.24339722587354
20
-0.869572493349125
30
0
41
1
10
4.34611990551068
20
-0.873897810638425
30
0
41
1
10
4.42727012799557
20
-0.878612057685615
30
0
41
1
10
4.50739400002689
20
-0.883652210384781
30
0
0
SPLINE
5
C4
100
AcDbEntity
8
1
62
256
6
ByLayer
370
18
48
1
60
0
100
AcDbSpline
70
4
71
3
72
18
73
14
40
0
40
0
40
0
40
0
40
0.249999999999995
40
0.249999999999995
40
0.49999999999999
40
0.49999999999999
40
0.624999999999987
40
0.624999999999987
40
0.687499999999991
40
0.687499999999991
40
0.749999999999995
40
0.749999999999995
40
1
40
1
40
1
40
1
41
1
10
3.52475181703292
20
0.87885422312894
30
0
41
1
10
3.60578385004152
20
0.874093629143346
30
0
41
1
10
3.68721959249783
20
0.870068723730355
30
0
41
1
10
3.85087206240195
20
0.864907312406388
30
0
41
1
10
3.93308887430706
20
0.863767329619947
30
0
41
1
10
4.05700696845025
20
0.864531932955344
30
0
41
1
10
4.09841208220303
20
0.865191806432478
30
0
41
1
10
4.16067180907001
20
0.866758822755486
30
0
41
1
10
4.18144031101266
20
0.867376920245647
30
0
41
1
10
4.22278822009596
20
0.868783416608181
30
0
41
1
10
4.24339722587351
20
0.869572493349125
30
0
41
1
10
4.34611990551068
20
0.873897810638425
30
0
41
1
10
4.42727012799557
20
0.878612057685615
30
0
41
1
10
4.50739400002689
20
0.883652210384781
30
0
0
SPLINE
5
C5
100
AcDbEntity
8
1
62
256
6
ByLayer
370
18
48
1
60
0
100
AcDbSpline
70
4
71
3
72
80
73
76
40
0
40
0
40
0
40
0
40
0.0034437161666516
40
0.0034437161666516
40
0.0068874323333032
40
0.0068874323333032
40
0.0137748646666064
40
0.0137748646666064
40
0.0172185808332593
40
0.0172185808332593
40
0.0206622969999123
40
0.0275497293332154
40
0.0275497293332154
40
0.0344371616665185
40
0.0344371616665185
40
0.0413245939998216
40
0.0413245939998216
40
0.0482120263331248
40
0.0482120263331248
40
0.0550994586664279
40
0.0550994586664279
40
0.0688743233330341
40
0.0688743233330341
40
0.0826491879996403
40
0.110198917332853
40
0.110198917332853
40
0.137748646666065
40
0.137748646666065
40
0.165298375999278
40
0.165298375999278
40
0.220397834665703
40
0.220397834665703
40
0.247947563998915
40
0.247947563998915
40
0.275497293332128
40
0.275497293332128
40
0.330596751998553
40
0.330596751998553
40
0.358146481331765
40
0.358146481331765
40
0.385696210664978
40
0.385696210664978
40
0.41324593999819
40
0.41324593999819
40
0.440795669331403
40
0.440795669331403
40
0.495895127997825
40
0.495895127997825
40
0.523444857331034
40
0.523444857331034
40
0.550994586664244
40
0.550994586664244
40
0.606094045330666
40
0.606094045330666
40
0.633643774663877
40
0.633643774663877
40
0.661193503997088
40
0.661193503997088
40
0.716292962663513
40
0.716292962663513
40
0.743842691996727
40
0.743842691996727
40
0.771392421329941
40
0.771392421329941
40
0.798942150663155
40
0.798942150663155
40
0.826491879996369
40
0.826491879996369
40
0.881591338662797
40
0.881591338662797
40
0.936690797329225
40
0.936690797329225
40
0.991790255995653
40
0.991790255995653
40
1
40
1
40
1
40
1
41
1
10
14.2764915693697
20
-0.871483887110628
30
0
41
1
10
14.2693288829444
20
-0.87086712534736
30
0
41
1
10
14.2623772567807
20
-0.870141274795088
30
0
41
1
10
14.2489016894154
20
-0.868450045537884
30
0
41
1
10
14.2423561751197
20
-0.867494719011802
30
0
41
1
10
14.223047671359
20
-0.86440011641173
30
0
41
1
10
14.2106082022779
20
-0.862030372581785
30
0
41
1
10
14.1919316353035
20
-0.858332390538749
30
0
41
1
10
14.1857053582828
20
-0.85707582198512
30
0
41
1
10
14.1731503021232
20
-0.854575368245747
30
0
41
1
10
14.1541767397185
20
-0.850837049772025
30
0
41
1
10
14.134908518698
20
-0.847087906430488
30
0
41
1
10
14.109221394749
20
-0.841931542996491
30
0
41
1
10
14.0964029787326
20
-0.83925873084533
30
0
41
1
10
14.0709147768473
20
-0.833647530768417
30
0
41
1
10
14.0582192691799
20
-0.830725127964826
30
0
41
1
10
14.0328169615725
20
-0.824716626220805
30
0
41
1
10
14.020101824484
20
-0.821636919182595
30
0
41
1
10
13.9945980913994
20
-0.815365582868907
30
0
41
1
10
13.9818273808343
20
-0.812161134898162
30
0
41
1
10
13.9435490755705
20
-0.80227125755664
30
0
41
1
10
13.9180490154099
20
-0.795331315310165
30
0
41
1
10
13.8670930217256
20
-0.780863756763637
30
0
41
1
10
13.7906985518556
20
-0.758262111408385
30
0
41
1
10
13.714433872552
20
-0.732961776913044
30
0
41
1
10
13.6127386484056
20
-0.696954776445892
30
0
41
1
10
13.5618751258972
20
-0.677827094625911
30
0
41
1
10
13.4600022309387
20
-0.637447099894302
30
0
41
1
10
13.4089374765067
20
-0.616156493788964
30
0
41
1
10
13.2561024456254
20
-0.549560297329521
30
0
41
1
10
13.1544833548651
20
-0.501585769520176
30
0
41
1
10
13.0018628154947
20
-0.425122588710934
30
0
41
1
10
12.9509324222005
20
-0.398914178535705
30
0
41
1
10
12.8488762634616
20
-0.345216568694809
30
0
41
1
10
12.7979536394436
20
-0.317826505447329
30
0
41
1
10
12.6453379521366
20
-0.234307386500262
30
0
41
1
10
12.5437181779152
20
-0.176961831720206
30
0
41
1
10
12.3908795151264
20
-0.0894448767124629
30
0
41
1
10
12.3398153243763
20
-0.0600417740000694
30
0
41
1
10
12.2379458144905
20
-0.0013013339560359
30
0
41
1
10
12.1870841327617
20
0.0280882100375095
30
0
41
1
10
12.0853872874115
20
0.0866978797017453
30
0
41
1
10
12.0345390862713
20
0.115895377872647
30
0
41
1
10
11.9327332438864
20
0.173885301451179
30
0
41
1
10
11.8817319636986
20
0.202720159998535
30
0
41
1
10
11.7287668982696
20
0.28814070820323
30
0
41
1
10
11.6271307932909
20
0.343358734098018
30
0
41
1
10
11.4745649556275
20
0.422600439380005
30
0
41
1
10
11.4236741466472
20
0.44838963120597
30
0
41
1
10
11.3217077781186
20
0.49853928775164
30
0
41
1
10
11.2706767981011
20
0.522891834262111
30
0
41
1
10
11.1179784975836
20
0.593213289684485
30
0
41
1
10
11.0163617394042
20
0.636464845605332
30
0
41
1
10
10.8636317998696
20
0.695158278036445
30
0
41
1
10
10.8125810751107
20
0.713688472255114
30
0
41
1
10
10.7106384370628
20
0.748369267310125
30
0
41
1
10
10.6597558933052
20
0.764528383800553
30
0
41
1
10
10.5071974653828
20
0.809307608927043
30
0
41
1
10
10.4055514303819
20
0.834183494417829
30
0
41
1
10
10.2525501829579
20
0.863508307288782
30
0
41
1
10
10.2015772325454
20
0.871912884306965
30
0
41
1
10
10.0997875243356
20
0.885915117034386
30
0
41
1
10
10.0489459085931
20
0.891522921739664
30
0
41
1
10
9.94724847313947
20
0.899913209201088
30
0
41
1
10
9.89638017377402
20
0.902692811303723
30
0
41
1
10
9.79449157629909
20
0.905394597613963
30
0
41
1
10
9.7433974946764
20
0.905310939865586
30
0
41
1
10
9.59088296643685
20
0.900774337064746
30
0
41
1
10
9.489873498777
20
0.892077626386197
30
0
41
1
10
9.28840829819538
20
0.863839466551752
30
0
41
1
10
9.18786760935706
20
0.844334446258756
30
0
41
1
10
8.98641505459668
20
0.794999151449332
30
0
41
1
10
8.88542025918687
20
0.765231118101013
30
0
41
1
10
8.7686181263397
20
0.72541168305861
30
0
41
1
10
8.75344817156429
20
0.72013817732622
30
0
41
1
10
8.73826562500892
20
0.714760781926628
30
0
0
SPLINE
5
C6
100
AcDbEntity
8
1
62
256
6
ByLayer
370
18
48
1
60
0
100
AcDbSpline
70
4
71
3
72
10
73
6
40
0
40
0
40
0
40
0
40
0.10674376557106
40
0.10674376557106
40
1
40
1
40
1
40
1
41
1
10
4.84923278128821
20
-0.90499993626338
30
0
41
1
10
4.83707871197328
20
-0.905002837651068
30
0
41
1
10
4.82492664184966
20
-0.904924127525135
30
0
41
1
10
4.71109464660896
20
-0.903422455842133
30
0
41
1
10
4.60942966937975
20
-0.896380816442701
30
0
41
1
10
4.50739400000001
20
-0.883652210382962
30
0
0
SPLINE
5
C7
100
AcDbEntity
8
1
62
256
6
ByLayer
370
18
48
1
60
0
100
AcDbSpline
70
4
71
3
72
20
73
16
40
0
40
0
40
0
40
0
40
0.0243907716411815
40
0.0243907716411815
40
0.186992309700991
40
0.186992309700991
40
0.349593847760801
40
0.349593847760801
40
0.674796923880408
40
0.674796923880408
40
0.756097692910309
40
0.756097692910309
40
0.837398461940211
40
0.837398461940211
40
1
40
1
40
1
40
1
41
1
10
14.533184156184
20
-0.354519684681492
30
0
41
1
10
14.5312888857797
20
-0.358566776355758
30
0
41
1
10
14.5293808965088
20
-0.362617114589028
30
0
41
1
10
14.5146710262076
20
-0.393697920864781
30
0
41
1
10
14.501379255067
20
-0.420886449090887
30
0
41
1
10
14.4743561189305
20
-0.475550985190893
30
0
41
1
10
14.4606053937726
20
-0.503048711599206
30
0
41
1
10
14.418948533716
20
-0.586145266068172
30
0
41
1
10
14.3906284229549
20
-0.642395652098173
30
0
41
1
10
14.355049239622
20
-0.713657578547753
30
0
41
1
10
14.3479219936936
20
-0.727958351185407
30
0
41
1
10
14.3336483983232
20
-0.756659243151518
30
0
41
1
10
14.3265018597004
20
-0.7710613661406
30
0
41
1
10
14.3050553936793
20
-0.814281052397291
30
0
41
1
10
14.2907490210439
20
-0.843121549974228
30
0
41
1
10
14.2764915693697
20
-0.871483887110628
30
0
0
SPLINE
5
C8
100
AcDbEntity
8
1
62
256
6
ByLayer
370
18
48
1
60
0
100
AcDbSpline
70
4
71
3
72
50
73
46
40
0
40
0
40
0
40
0
40
0.0721500785572535
40
0.0721500785572535
40
0.10822511783588
40
0.10822511783588
40
0.144300157114507
40
0.144300157114507
40
0.180375196393134
40
0.180375196393134
40
0.21645023567176
40
0.21645023567176
40
0.288600314229014
40
0.288600314229014
40
0.324675353507641
40
0.324675353507641
40
0.360750392786267
40
0.360750392786267
40
0.432900471343519
40
0.432900471343519
40
0.468975510622144
40
0.468975510622144
40
0.505050549900769
40
0.505050549900769
40
0.577200628458019
40
0.577200628458019
40
0.613275667736644
40
0.613275667736644
40
0.64935070701527
40
0.64935070701527
40
0.685425746293896
40
0.685425746293896
40
0.721500785572522
40
0.721500785572522
40
0.793650864129772
40
0.793650864129772
40
0.829725903408395
40
0.829725903408395
40
0.865800942687018
40
0.865800942687018
40
0.93795102124426
40
0.93795102124426
40
0.974026060522881
40
0.974026060522881
40
1
40
1
40
1
40
1
41
1
10
4.50739400000001
20
0.417902013921065
30
0
41
1
10
4.60935152966206
20
0.365652680483066
30
0
41
1
10
4.71106547327921
20
0.310988551833617
30
0
41
1
10
4.86385171297007
20
0.226318940861717
30
0
41
1
10
4.91487076163025
20
0.197656972615647
30
0
41
1
10
5.01667516026444
20
0.139949888667843
30
0
41
1
10
5.0675023365923
20
0.110862359117192
30
0
41
1
10
5.16911551970946
20
0.0524078648886075
30
0
41
1
10
5.21991725167155
20
0.0230681376293376
30
0
41
1
10
5.32163093648754
20
-0.035627651191902
30
0
41
1
10
5.37256872500848
20
-0.0650234155998248
30
0
41
1
10
5.52544381187383
20
-0.152862214086042
30
0
41
1
10
5.62701482314412
20
-0.210529507072721
30
0
41
1
10
5.77945656181029
20
-0.29468098397399
30
0
41
1
10
5.83030427043389
20
-0.322306839926227
30
0
41
1
10
5.9321724783849
20
-0.376533564695734
30
0
41
1
10
5.98318128541317
20
-0.403137855024767
30
0
41
1
10
6.13579537170926
20
-0.48074368572307
30
0
41
1
10
6.23732850627979
20
-0.529589209437944
30
0
41
1
10
6.38991776537523
20
-0.597648461480219
30
0
41
1
10
6.44090963065503
20
-0.619471006242662
30
0
41
1
10
6.54279569097019
20
-0.661029469011822
30
0
41
1
10
6.59364698085122
20
-0.680765000287465
30
0
41
1
10
6.74609612496141
20
-0.736656191804741
30
0
41
1
10
6.847657698445
20
-0.769426722900448
30
0
41
1
10
7.00050482545649
20
-0.811202594616759
30
0
41
1
10
7.05146838185468
20
-0.823855293375402
30
0
41
1
10
7.15319646091717
20
-0.846468043765697
30
0
41
1
10
7.20400715928568
20
-0.856446036863787
30
0
41
1
10
7.30562455317514
20
-0.873686740434522
30
0
41
1
10
7.35644997578086
20
-0.880939728301087
30
0
41
1
10
7.45824247290071
20
-0.892658629385011
30
0
41
1
10
7.5092643821518
20
-0.897129815211116
30
0
41
1
10
7.66198514565431
20
-0.906236058024206
30
0
41
1
10
7.76352560451116
20
-0.906588394315719
30
0
41
1
10
7.91602627329007
20
-0.898567043538662
30
0
41
1
10
7.96690922540611
20
-0.894469058447726
30
0
41
1
10
8.06888755705458
20
-0.883433791314332
30
0
41
1
10
8.11977750115798
20
-0.876514491076648
30
0
41
1
10
8.27228976007547
20
-0.851659461671943
30
0
41
1
10
8.3738281634229
20
-0.829659178832685
30
0
41
1
10
8.52654499519963
20
-0.788884026716602
30
0
41
1
10
8.57756967823195
20
-0.773992898238788
30
0
41
1
10
8.66511437855243
20
-0.746391564174246
30
0
41
1
10
8.70172321636244
20
-0.734226302069459
30
0
41
1
10
8.73831453576796
20
-0.721471311392094
30
0
0
SPLINE
5
C9
100
AcDbEntity
8
1
62
256
6
ByLayer
370
18
48
1
60
0
100
AcDbSpline
70
4
71
3
72
40
73
36
40
0
40
0
40
0
40
0
40
0.0621777416708313
40
0.0621777416708313
40
0.249742193336659
40
0.249742193336659
40
0.343524419169577
40
0.343524419169577
40
0.437306645002496
40
0.437306645002496
40
0.624871096668323
40
0.624871096668323
40
0.718653322501237
40
0.718653322501237
40
0.812435548334151
40
0.812435548334151
40
0.835881104792377
40
0.835881104792377
40
0.859326661250604
40
0.859326661250604
40
0.88277221770883
40
0.88277221770883
40
0.906217774167057
40
0.906217774167057
40
0.929663330625283
40
0.929663330625283
40
0.941386108854401
40
0.941386108854401
40
0.953108887083519
40
0.953108887083519
40
0.976554443541755
40
0.976554443541755
40
0.988277221770878
40
0.988277221770878
40
1
40
1
40
1
40
1
41
1
10
12.6476314625501
20
0.904999491098948
30
0
41
1
10
12.681391467003
20
0.904992037794159
30
0
41
1
10
12.7151784071304
20
0.904355553560634
30
0
41
1
10
12.8508436377046
20
0.899263217431667
30
0
41
1
10
12.9524062156456
20
0.88973620333033
30
0
41
1
10
13.104856768811
20
0.867123278323987
30
0
41
1
10
13.1557121454267
20
0.858205985593742
30
0
41
1
10
13.2576052602572
20
0.837655488505987
30
0
41
1
10
13.3085997821851
20
0.826023165541471
30
0
41
1
10
13.4612692952971
20
0.787314372881582
30
0
41
1
10
13.5629318061042
20
0.756440880141412
30
0
41
1
10
13.7158546526518
20
0.703044052685186
30
0
41
1
10
13.7667581276116
20
0.684130955643809
30
0
41
1
10
13.8684145099673
20
0.644288910671037
30
0
41
1
10
13.9191430263149
20
0.623293517776318
30
0
41
1
10
13.9826302342563
20
0.595968599667174
30
0
41
1
10
13.9953422223773
20
0.590464228901595
30
0
41
1
10
14.0207332494758
20
0.579293938224851
30
0
41
1
10
14.0333949069606
20
0.573604129929947
30
0
41
1
10
14.0586997677982
20
0.562078103461062
30
0
41
1
10
14.0713506684307
20
0.556252173077041
30
0
41
1
10
14.0967564728244
20
0.544626804788322
30
0
41
1
10
14.1095371310504
20
0.538864457789998
30
0
41
1
10
14.135151767596
20
0.527303912663427
30
0
41
1
10
14.1479632755616
20
0.521474357531559
30
0
41
1
10
14.166989916724
20
0.51236329602429
30
0
41
1
10
14.1733005333441
20
0.509265162934014
30
0
41
1
10
14.1858298929058
20
0.502901052394009
30
0
41
1
10
14.1920448682223
20
0.499629195562335
30
0
41
1
10
14.2106911819909
20
0.489763347999315
30
0
41
1
10
14.2231152001328
20
0.483102750632895
30
0
41
1
10
14.2424010458816
20
0.474007075898726
30
0
41
1
10
14.2489390878663
20
0.471126841814481
30
0
41
1
10
14.2623979419189
20
0.46593153701977
30
0
41
1
10
14.2693400749498
20
0.463649565381587
30
0
41
1
10
14.2764915693697
20
0.461684847020024
30
0
0
SPLINE
5
CA
100
AcDbEntity
8
1
62
256
6
ByLayer
370
18
48
1
60
0
100
AcDbSpline
70
4
71
3
72
23
73
19
40
0
40
0
40
0
40
0
40
0.12499999999999
40
0.12499999999999
40
0.187499999999991
40
0.187499999999991
40
0.249999999999992
40
0.374999999999993
40
0.374999999999993
40
0.499999999999995
40
0.499999999999995
40
0.624999999999996
40
0.624999999999996
40
0.749999999999997
40
0.749999999999997
40
0.874999999999999
40
0.874999999999999
40
1
40
1
40
1
40
1
41
1
10
14.2764915693697
20
0.461684847020024
30
0
41
1
10
14.290684342494
20
0.441791293990377
30
0
41
1
10
14.3048453435132
20
0.424382088675856
30
0
41
1
10
14.3260842097756
20
0.400153201520624
30
0
41
1
10
14.3331625382162
20
0.392398077860747
30
0
41
1
10
14.3473179515289
20
0.377303173550729
30
0
41
1
10
14.3685485656704
20
0.355290551619788
30
0
41
1
10
14.3897722463997
20
0.335186414654174
30
0
41
1
10
14.4180378276372
20
0.310115548103653
30
0
41
1
10
14.4321774679639
20
0.298434495236279
30
0
41
1
10
14.4600684267345
20
0.27704896692282
30
0
41
1
10
14.473854252577
20
0.26731351090126
30
0
41
1
10
14.500919372393
20
0.249739224704371
30
0
41
1
10
14.5142068403694
20
0.241900592968022
30
0
41
1
10
14.5398361096061
20
0.228119497144178
30
0
41
1
10
14.5522025025886
20
0.222176865051267
30
0
41
1
10
14.5748581481293
20
0.212204048826834
30
0
41
1
10
14.5852072190517
20
0.208173095269103
30
0
41
1
10
14.5929978206673
20
0.205120243895948
30
0
0
SPLINE
5
CB
100
AcDbEntity
8
1
62
256
6
ByLayer
370
18
48
1
60
0
100
AcDbSpline
70
4
71
3
72
30
73
26
40
0
40
0
40
0
40
0
40
0.0324506509607107
40
0.0324506509607107
40
0.0649013019214214
40
0.0649013019214214
40
0.129802603842843
40
0.129802603842843
40
0.162253254803541
40
0.162253254803541
40
0.194703905764238
40
0.25960520768566
40
0.25960520768566
40
0.324506509607082
40
0.324506509607082
40
0.389407811528504
40
0.389407811528504
40
0.454309113449926
40
0.454309113449926
40
0.519210415371348
40
0.519210415371348
40
0.649013019214165
40
0.649013019214165
40
0.778815623056982
40
1
40
1
40
1
40
1
41
1
10
14.2764915693697
20
0.871483887110628
30
0
41
1
10
14.2693288829445
20
0.87086712534736
30
0
41
1
10
14.2623772567807
20
0.870141274795088
30
0
41
1
10
14.2489016894154
20
0.868450045537884
30
0
41
1
10
14.2423561751197
20
0.867494719011802
30
0
41
1
10
14.223047671359
20
0.86440011641173
30
0
41
1
10
14.2106082022779
20
0.862030372581785
30
0
41
1
10
14.1919316353035
20
0.858332390538749
30
0
41
1
10
14.1857053582827
20
0.857075821985092
30
0
41
1
10
14.1731503021232
20
0.854575368245747
30
0
41
1
10
14.1541767397185
20
0.850837049772025
30
0
41
1
10
14.134908518698
20
0.847087906430488
30
0
41
1
10
14.109221394749
20
0.841931542996491
30
0
41
1
10
14.0964029787326
20
0.83925873084533
30
0
41
1
10
14.0709147768473
20
0.833647530768417
30
0
41
1
10
14.0582192691799
20
0.830725127964826
30
0
41
1
10
14.0328169615725
20
0.824716626220805
30
0
41
1
10
14.020101824484
20
0.821636919182623
30
0
41
1
10
13.9945980913993
20
0.815365582868907
30
0
41
1
10
13.9818273808343
20
0.81216113489819
30
0
41
1
10
13.9435490755705
20
0.802271257556612
30
0
41
1
10
13.9180490154099
20
0.795331315310165
30
0
41
1
10
13.8670930217256
20
0.780863756763637
30
0
41
1
10
13.7982359943764
20
0.760492097466681
30
0
41
1
10
13.7294844095587
20
0.737928009069975
30
0
41
1
10
13.6861620717734
20
0.722876787156594
30
0
0
SPLINE
5
CC
100
AcDbEntity
8
1
62
256
6
ByLayer
370
18
48
1
60
0
100
AcDbSpline
70
4
71
3
72
56
73
52
40
0
40
0
40
0
40
0
40
0.0152633559033478
40
0.0152633559033478
40
0.0731890408502024
40
0.0731890408502024
40
0.131114725797057
40
0.131114725797057
40
0.189040410743912
40
0.189040410743912
40
0.21800325321734
40
0.21800325321734
40
0.246966095690769
40
0.246966095690769
40
0.30489178063763
40
0.30489178063763
40
0.362817465584491
40
0.362817465584491
40
0.391780308057922
40
0.391780308057922
40
0.420743150531353
40
0.420743150531353
40
0.478668835478216
40
0.478668835478216
40
0.507631677951649
40
0.507631677951649
40
0.536594520425081
40
0.536594520425081
40
0.594520205371945
40
0.594520205371945
40
0.623483047845377
40
0.623483047845377
40
0.652445890318808
40
0.652445890318808
40
0.68140873279224
40
0.68140873279224
40
0.710371575265672
40
0.710371575265672
40
0.768297260212537
40
0.768297260212537
40
0.79726010268597
40
0.79726010268597
40
0.826222945159403
40
0.826222945159403
40
0.88414863010627
40
0.88414863010627
40
0.913111472579702
40
0.913111472579702
40
0.942074315053135
40
0.942074315053135
40
1
40
1
40
1
40
1
41
1
10
9.77308798638487
20
-0.904998405657153
30
0
41
1
10
9.74621361005981
20
-0.904995847590413
30
0
41
1
10
9.71935092842199
20
-0.904595665582661
30
0
41
1
10
9.59088296643685
20
-0.900774337064746
30
0
41
1
10
9.48987349877703
20
-0.892077626386197
30
0
41
1
10
9.28840829819532
20
-0.863839466551752
30
0
41
1
10
9.18786760935708
20
-0.844334446258728
30
0
41
1
10
8.98641505459668
20
-0.794999151449332
30
0
41
1
10
8.88542025918687
20
-0.765231118101013
30
0
41
1
10
8.73293687558393
20
-0.713247459580259
30
0
41
1
10
8.68184545073413
20
-0.694682635283073
30
0
41
1
10
8.57995303096826
20
-0.655529051919729
30
0
41
1
10
8.52908459460321
20
-0.634907801764882
30
0
41
1
10
8.37654302393582
20
-0.570127057044829
30
0
41
1
10
8.27483153643058
20
-0.523116909203225
30
0
41
1
10
8.07078673566863
20
-0.422629539376146
30
0
41
1
10
7.96913399912694
20
-0.369627212239266
30
0
41
1
10
7.81658409897531
20
-0.286995853710977
30
0
41
1
10
7.76570732680972
20
-0.258954568453646
30
0
41
1
10
7.66378027777046
20
-0.202072589687305
30
0
41
1
10
7.61272356358609
20
-0.173207568099798
30
0
41
1
10
7.45997883388731
20
-0.0861061706241912
30
0
41
1
10
7.35836180083953
20
-0.0273567357721731
30
0
41
1
10
7.20567043327782
20
0.0607733347455053
30
0
41
1
10
7.15465023100828
20
0.0901502165577028
30
0
41
1
10
7.05266483713632
20
0.14848790632891
30
0
41
1
10
7.00176646362678
20
0.177422248404298
30
0
41
1
10
6.84918818282119
20
0.263241830532252
30
0
41
1
10
6.74755512842066
20
0.31902685740863
30
0
41
1
10
6.59462212026475
20
0.399535280789365
30
0
41
1
10
6.54360486919092
20
0.425782308031216
30
0
41
1
10
6.44179208923015
20
0.47671646766716
30
0
41
1
10
6.39094508783043
20
0.501448353891647
30
0
41
1
10
6.28925321501356
20
0.54927289774858
30
0
41
1
10
6.23839613721032
20
0.572348227007353
30
0
41
1
10
6.13654113529776
20
0.616659674753407
30
0
41
1
10
6.08548403860795
20
0.637933894651866
30
0
41
1
10
5.93261801407434
20
0.698532111267127
30
0
41
1
10
5.8309936725143
20
0.734589021252731
30
0
41
1
10
5.67838572365835
20
0.781550888855179
30
0
41
1
10
5.6274695565622
20
0.79599900810797
30
0
41
1
10
5.52543212643531
20
0.822372948842457
30
0
41
1
10
5.47447840716063
20
0.834259368226213
30
0
41
1
10
5.32184682943736
20
0.865882655893188
30
0
41
1
10
5.2202334922047
20
0.881561514950505
30
0
41
1
10
5.06742669496106
20
0.896673759714645
30
0
41
1
10
5.01635934433446
20
0.900301176754027
30
0
41
1
10
4.91447818414372
20
0.904676935857765
30
0
41
1
10
4.86361635574838
20
0.905434522231502
30
0
41
1
10
4.71109464660896
20
0.903422455842133
30
0
41
1
10
4.60942966937975
20
0.896380816442701
30
0
41
1
10
4.50739400000001
20
0.883652210382962
30
0
0
SPLINE
5
CD
100
AcDbEntity
8
1
62
256
6
ByLayer
370
18
48
1
60
0
100
AcDbSpline
70
4
71
3
72
44
73
40
40
0
40
0
40
0
40
0
40
0.0124756845923328
40
0.0432224241429454
40
0.073969163693558
40
0.0893425334688643
40
0.120089273019477
40
0.150836012570089
40
0.181582752120702
40
0.212329491671315
40
0.243076231221927
40
0.266136285884887
40
0.289196340547846
40
0.319943080098459
40
0.350689819649071
40
0.381436559199684
40
0.412183298750297
40
0.435243353413256
40
0.458303408076215
40
0.489050147626828
40
0.51979688717744
40
0.550543626728053
40
0.581290366278666
40
0.612037105829278
40
0.627410475604585
40
0.658157215155197
40
0.68890395470581
40
0.719650694256422
40
0.750397433807035
40
0.781144173357647
40
0.796517543132954
40
0.827264282683566
40
0.858011022234179
40
0.888757761784791
40
0.919504501335404
40
0.950251240886017
40
0.973311295548976
40
0.996371350211936
40
1
40
1
40
1
40
1
41
1
10
4.9926091881267
20
0.166150319782929
30
0
41
1
10
5.00337777300047
20
0.165095948604545
30
0
41
1
10
5.04068589340011
20
0.161402061872423
30
0
41
1
10
5.10453354932957
20
0.154840255270812
30
0
41
1
10
5.17088238811877
20
0.147683285788872
30
0
41
1
10
5.23723122705235
20
0.140297179574986
30
0
41
1
10
5.3035800653918
20
0.132685459012748
30
0
41
1
10
5.38319867328056
20
0.123205588106174
30
0
41
1
10
5.46281727597128
20
0.113397260983618
30
0
41
1
10
5.5424358972418
20
0.103306627821581
30
0
41
1
10
5.61541926858226
20
0.0938145340558947
30
0
41
1
10
5.68176758531078
20
0.0850091791102443
30
0
41
1
10
5.74811572184572
20
0.0760586550377127
30
0
41
1
10
5.82109847105508
20
0.0660608972413286
30
0
41
1
10
5.9007157971929
20
0.0549899106173086
30
0
41
1
10
5.98033293978096
20
0.0437770477087156
30
0
41
1
10
6.0533151837067
20
0.033384650575897
30
0
41
1
10
6.11966259453018
20
0.02388228772665
30
0
41
1
10
6.18600994978854
20
0.014344775375605
30
0
41
1
10
6.25899198999102
20
0.0038240967800505
30
0
41
1
10
6.33860873250626
20
-0.0076749791184909
30
0
41
1
10
6.41822548085548
20
-0.0191547936245797
30
0
41
1
10
6.4978422694879
20
-0.0305748978250335
30
0
41
1
10
6.56418965562309
20
-0.0400286158226493
30
0
41
1
10
6.63053711000449
20
-0.0494191820347396
30
0
41
1
10
6.69688464335584
20
-0.0587382627321062
30
0
41
1
10
6.77650184434097
20
-0.0697581570490513
30
0
41
1
10
6.85611924033188
20
-0.0805967611199208
30
0
41
1
10
6.93573686716829
20
-0.0912324633495984
30
0
41
1
10
7.00208510546887
20
-0.0999047127120605
30
0
41
1
10
7.06843354977619
20
-0.108403670150267
30
0
41
1
10
7.13478196997588
20
-0.116729432095894
30
0
41
1
10
7.21440003010193
20
-0.126420285640762
30
0
41
1
10
7.29401805730555
20
-0.135794783653097
30
0
41
1
10
7.37363606018045
20
-0.144809459791219
30
0
41
1
10
7.44661921555004
20
-0.15272808663704
30
0
41
1
10
7.51296753408082
20
-0.159642676008616
30
0
41
1
10
7.55590862743872
20
-0.163955071924306
30
0
41
1
10
7.57894522605142
20
-0.166214235219229
30
0
41
1
10
7.58207732822393
20
-0.166520386504232
30
0
0
SPLINE
5
CE
100
AcDbEntity
8
1
62
256
6
ByLayer
370
18
48
1
60
0
100
AcDbSpline
70
4
71
3
72
22
73
18
40
0
40
0
40
0
40
0
40
0.124999999999996
40
0.124999999999996
40
0.249999999999992
40
0.249999999999992
40
0.374999999999988
40
0.374999999999988
40
0.499999999999984
40
0.499999999999984
40
0.749999999999987
40
0.749999999999987
40
0.812499999999987
40
0.812499999999987
40
0.874999999999988
40
0.874999999999988
40
1
40
1
40
1
40
1
41
1
10
14.5929978206673
20
0.205120243895948
30
0
41
1
10
14.5852968961587
20
0.232278413851446
30
0
41
1
10
14.5750626425825
20
0.259096330327793
30
0
41
1
10
14.5525677791992
20
0.312784813135181
30
0
41
1
10
14.5402533353353
20
0.339644501099457
30
0
41
1
10
14.5146710262076
20
0.393697920864781
30
0
41
1
10
14.501379255067
20
0.420886449090887
30
0
41
1
10
14.4743561189305
20
0.475550985190893
30
0
41
1
10
14.4606053937726
20
0.503048711599178
30
0
41
1
10
14.4189485337159
20
0.586145266068172
30
0
41
1
10
14.3906284229549
20
0.642395652098173
30
0
41
1
10
14.355049239622
20
0.713657578547753
30
0
41
1
10
14.3479219936936
20
0.727958351185407
30
0
41
1
10
14.3336483983232
20
0.756659243151518
30
0
41
1
10
14.3265018597004
20
0.7710613661406
30
0
41
1
10
14.3050553936793
20
0.814281052397291
30
0
41
1
10
14.2907490210439
20
0.8431215499742
30
0
41
1
10
14.2764915693697
20
0.871483887110628
30
0
0
SPLINE
5
CF
100
AcDbEntity
8
1
62
256
6
ByLayer
370
18
48
1
60
0
100
AcDbSpline
70
4
71
3
72
70
73
66
40
0
40
0
40
0
40
0
40
0.0240288544375222
40
0.0240288544375222
40
0.0496187019918562
40
0.0496187019918562
40
0.0752085495461902
40
0.0752085495461902
40
0.126388244654856
40
0.126388244654856
40
0.15197809220919
40
0.15197809220919
40
0.177567939763524
40
0.177567939763524
40
0.203157787317858
40
0.203157787317858
40
0.228747634872192
40
0.228747634872192
40
0.27992732998086
40
0.27992732998086
40
0.305517177535192
40
0.305517177535192
40
0.331107025089525
40
0.331107025089525
40
0.38228672019819
40
0.38228672019819
40
0.407876567752521
40
0.407876567752521
40
0.433466415306853
40
0.433466415306853
40
0.484646110415518
40
0.484646110415518
40
0.510235957969852
40
0.510235957969852
40
0.535825805524186
40
0.535825805524186
40
0.56141565307852
40
0.56141565307852
40
0.587005500632854
40
0.587005500632854
40
0.638185195741519
40
0.638185195741519
40
0.663775043295853
40
0.663775043295853
40
0.689364890850187
40
0.689364890850187
40
0.740544585958855
40
0.740544585958855
40
0.766134433513187
40
0.766134433513187
40
0.79172428106752
40
0.79172428106752
40
0.817314128621853
40
0.817314128621853
40
0.842903976176185
40
0.842903976176185
40
0.894083671284851
40
0.894083671284851
40
0.919673518839183
40
0.919673518839183
40
0.945263366393516
40
0.945263366393516
40
0.996443061502181
40
0.996443061502181
40
1
40
1
40
1
40
1
41
1
10
7.72203701726755
20
0.905001658282856
30
0
41
1
10
7.76975526597255
20
0.905005760273042
30
0
41
1
10
7.81746003236665
20
0.903751508626954
30
0
41
1
10
7.91602627329007
20
0.898567043538662
30
0
41
1
10
7.96690922540611
20
0.894469058447726
30
0
41
1
10
8.06888755705458
20
0.883433791314332
30
0
41
1
10
8.11977750115801
20
0.876514491076648
30
0
41
1
10
8.27228976007549
20
0.851659461671943
30
0
41
1
10
8.3738281634229
20
0.829659178832657
30
0
41
1
10
8.52654499519963
20
0.788884026716602
30
0
41
1
10
8.57756967823195
20
0.773992898238788
30
0
41
1
10
8.67936598708431
20
0.741898277811913
30
0
41
1
10
8.730191401653
20
0.724671873398506
30
0
41
1
10
8.83180493591158
20
0.687976134132782
30
0
41
1
10
8.88260835477448
20
0.668523145249111
30
0
41
1
10
8.98433045134649
20
0.627546773285189
30
0
41
1
10
9.03528425381654
20
0.605989670357701
30
0
41
1
10
9.18813787454241
20
0.538487159878855
30
0
41
1
10
9.28970556511376
20
0.490012439364591
30
0
41
1
10
9.44215100762301
20
0.412982731803169
30
0
41
1
10
9.49300335997171
20
0.386618438759257
30
0
41
1
10
9.59488477107891
20
0.332668628897835
30
0
41
1
10
9.64588588522184
20
0.305085762639294
30
0
41
1
10
9.79848803265295
20
0.221191588521975
30
0
41
1
10
9.90002332142154
20
0.16370769044488
30
0
41
1
10
10.0526286220463
20
0.0761728436578721
30
0
41
1
10
10.1036306145745
20
0.0467633219170978
30
0
41
1
10
10.2055050355111
20
-0.0120179887807126
30
0
41
1
10
10.2563524746389
20
-0.0413952116583118
30
0
41
1
10
10.4087973044136
20
-0.129188720758663
30
0
41
1
10
10.5103623339455
20
-0.187154625111333
30
0
41
1
10
10.6632291954756
20
-0.272192351692524
30
0
41
1
10
10.7141769873664
20
-0.300128522986455
30
0
41
1
10
10.8158954898767
20
-0.354852004125974
30
0
41
1
10
10.8667035462896
20
-0.381671719106009
30
0
41
1
10
10.9683203915318
20
-0.434063767582359
30
0
41
1
10
11.0191476775634
20
-0.459607285324466
30
0
41
1
10
11.1209492089288
20
-0.509220713670288
30
0
41
1
10
11.1719746764812
20
-0.533330582640531
30
0
41
1
10
11.3246757123661
20
-0.602890204404218
30
0
41
1
10
11.4262144262983
20
-0.645549491737086
30
0
41
1
10
11.5787244051133
20
-0.703238716502
30
0
41
1
10
11.6296233001533
20
-0.721399560972969
30
0
41
1
10
11.7315953925756
20
-0.755427199180815
30
0
41
1
10
11.7824755608142
20
-0.771240463060394
30
0
41
1
10
11.9349786168411
20
-0.814935083163448
30
0
41
1
10
12.0365198182372
20
-0.839029919362275
30
0
41
1
10
12.1892565827791
20
-0.867149699772312
30
0
41
1
10
12.2402781218023
20
-0.87517503576882
30
0
41
1
10
12.342065973695
20
-0.888391790079254
30
0
41
1
10
12.3928899933685
20
-0.893600850470136
30
0
41
1
10
12.4945037663047
20
-0.90119278802112
30
0
41
1
10
12.5453133956449
20
-0.903571253005055
30
0
41
1
10
12.6470414067748
20
-0.905475963580471
30
0
41
1
10
12.6980101842773
20
-0.904999980737244
30
0
41
1
10
12.8508436377046
20
-0.899263217431667
30
0
41
1
10
12.9524062156455
20
-0.88973620333033
30
0
41
1
10
13.104856768811
20
-0.867123278323987
30
0
41
1
10
13.1557121454267
20
-0.858205985593742
30
0
41
1
10
13.2576052602572
20
-0.837655488506016
30
0
41
1
10
13.3085997821851
20
-0.826023165541471
30
0
41
1
10
13.4612692952971
20
-0.787314372881582
30
0
41
1
10
13.5629318061042
20
-0.756440880141412
30
0
41
1
10
13.671965695472
20
-0.718368977159628
30
0
41
1
10
13.6790496524472
20
-0.71587343317745
30
0
41
1
10
13.6861322293728
20
-0.713356648502923
30
0
0
SPLINE
5
D0
100
AcDbEntity
8
1
62
256
6
ByLayer
370
18
48
1
60
0
100
AcDbSpline
70
4
71
3
72
44
73
40
40
0
40
0
40
0
40
0
40
0.0046227836632995
40
0.0350877108089739
40
0.0655526379546478
40
0.0960175651003222
40
0.126482492245997
40
0.149331187605252
40
0.172179882964508
40
0.202644810110182
40
0.233109737255856
40
0.26357466440153
40
0.294039591547204
40
0.324504518692879
40
0.339736982265716
40
0.37020190941139
40
0.400666836557064
40
0.431131763702739
40
0.461596690848413
40
0.492061617994087
40
0.507294081566924
40
0.537759008712598
40
0.568223935858273
40
0.598688863003947
40
0.629153790149621
40
0.659618717295295
40
0.682467412654551
40
0.705316108013807
40
0.735781035159481
40
0.766245962305155
40
0.796710889450829
40
0.827175816596503
40
0.850024511955759
40
0.872873207315015
40
0.903338134460689
40
0.933803061606363
40
0.964267988752037
40
0.994732915897712
40
1
40
1
40
1
40
1
41
1
10
9.90934404083706
20
0.166934904220483
30
0
41
1
10
9.91337118089126
20
0.166542715412874
30
0
41
1
10
9.94393785649396
20
0.163553196637196
30
0
41
1
10
10.0010440795651
20
0.157787882975725
30
0
41
1
10
10.0806626259235
20
0.149342132174127
30
0
41
1
10
10.1602810564529
20
0.140518679733958
30
0
41
0.999999999999999
10
10.2332645309934
20
0.132096689218372
30
0
41
1
10
10.2996130792969
20
0.124188335099347
30
0
41
1
10
10.3659615774975
20
0.116076798349241
30
0
41
1
10
10.4389448666069
20
0.106920055153324
30
0
41
1
10
10.5185629364711
20
0.0966568169729101
30
0
41
1
10
10.59818095225
20
0.0861393266245045
30
0
41
1
10
10.6777989235898
20
0.07539299498805
30
0
41
1
10
10.744147204041
20
0.0662873521936831
30
0
41
1
10
10.8104954687696
20
0.0570764828857761
30
0
41
1
10
10.876843720789
20
0.0477709944229901
30
0
41
1
10
10.9564616125178
20
0.0364691915887647
30
0
41
1
10
11.036079503198
20
0.0250848082940536
30
0
41
1
10
11.1156974024572
20
0.0136405066383531
30
0
41
1
10
11.1820456670798
20
0.0040679623218409
30
0
41
1
10
11.2483939489034
20
-0.005515444012957
30
0
41
1
10
11.314742252035
20
-0.015088115354331
30
0
41
1
10
11.3943602554402
20
-0.0265290856440288
30
0
41
1
10
11.4739783180141
20
-0.0379044056800239
30
0
41
1
10
11.5535964173837
20
-0.0491942662849851
30
0
41
1
10
11.6265796643774
20
-0.0594192677775425
30
0
41
1
10
11.6929280744252
20
-0.0685978474834883
30
0
41
1
10
11.7592764833156
20
-0.0776653458758573
30
0
41
1
10
11.8322597333783
20
-0.0874893031570707
30
0
41
1
10
11.9118778242926
20
-0.0979787014302929
30
0
41
1
10
11.9914959152216
20
-0.108206495083152
30
0
41
1
10
12.0644791652358
20
-0.117326572203098
30
0
41
1
10
12.1308275743409
20
-0.125400279670117
30
0
41
0.999999999999999
10
12.1971759834457
20
-0.133273585585016
30
0
41
1
10
12.270159233461
20
-0.141652895951239
30
0
41
1
10
12.3497773243866
20
-0.150426811492224
30
0
41
1
10
12.429395415313
20
-0.158819312496717
30
0
41
1
10
12.487062535656
20
-0.16460555882918
30
0
41
1
10
12.5181902923619
20
-0.167627598638575
30
0
41
1
10
12.5227786854234
20
-0.168070860060055
30
0
0
SPLINE
5
D1
100
AcDbEntity
8
1
62
256
6
ByLayer
370
18
48
1
60
0
100
AcDbSpline
70
4
71
3
72
38
73
34
40
0
40
0
40
0
40
0
40
0.143323230582382
40
0.143323230582382
40
0.214984845873573
40
0.214984845873573
40
0.286646461164764
40
0.286646461164764
40
0.358308076455955
40
0.358308076455955
40
0.429969691747146
40
0.429969691747146
40
0.573292922329522
40
0.573292922329522
40
0.609123729975119
40
0.609123729975119
40
0.644954537620716
40
0.644954537620716
40
0.716616152911909
40
0.716616152911909
40
0.788277768203102
40
0.788277768203102
40
0.824108575848697
40
0.824108575848697
40
0.859939383494292
40
0.859939383494292
40
0.93160099878548
40
0.93160099878548
40
0.949516402608276
40
0.949516402608276
40
0.967431806431073
40
0.967431806431073
40
1
40
1
40
1
40
1
41
1
10
4.50739400000001
20
0.417902013921065
30
0
41
1
10
4.43843309161761
20
0.43572240932636
30
0
41
1
10
4.37086099431971
20
0.456618479529737
30
0
41
1
10
4.27158415417082
20
0.491886861158918
30
0
41
1
10
4.23885482722437
20
0.5042939756257
30
0
41
1
10
4.17446896064592
20
0.530136192162615
30
0
41
1
10
4.14276648291837
20
0.543587186659266
30
0
41
1
10
4.08036021611116
20
0.571389205662342
30
0
41
1
10
4.04957420950873
20
0.585782473886411
30
0
41
1
10
3.9896640310138
20
0.614985914351649
30
0
41
1
10
3.96049329179266
20
0.629813182717299
30
0
41
1
10
3.87539787398771
20
0.674617398390609
30
0
41
1
10
3.82185921689126
20
0.704938869109895
30
0
41
1
10
3.75947467237441
20
0.742025596566606
30
0
41
1
10
3.74722715730439
20
0.749400421629701
30
0
41
1
10
3.72321709731503
20
0.764020930000811
30
0
41
1
10
3.71141584785627
20
0.771290829664764
30
0
41
1
10
3.67710515588817
20
0.792634356958416
30
0
41
1
10
3.65573839514187
20
0.806207989106497
30
0
41
1
10
3.61622566138706
20
0.831605562336478
30
0
41
1
10
3.59807582214063
20
0.843432815255085
30
0
41
1
10
3.57357003985533
20
0.859434418108776
30
0
41
1
10
3.56590763383358
20
0.864443462414954
30
0
41
1
10
3.5517974664331
20
0.873640790938168
30
0
41
1
10
3.54532011170514
20
0.877848422408761
30
0
41
1
10
3.52765491956907
20
0.889223320314812
30
0
41
1
10
3.51822100453108
20
0.895149901018868
30
0
41
1
10
3.50963240619845
20
0.90015262211304
30
0
41
1
10
3.50807589376569
20
0.901032319180985
30
0
41
1
10
3.50529674382869
20
0.902539004657768
30
0
41
1
10
3.50407506419452
20
0.903165137185766
30
0
41
1
10
3.5011528236904
20
0.90454386862109
30
0
41
1
10
3.49986077467162
20
0.904990512299577
30
0
41
1
10
3.49915028330443
20
0.904999858246185
30
0
0
LINE
5
7F
100
AcDbEntity
8
1
62
256
6
ByLayer
370
18
48
1
60
0
100
AcDbLine
10
0
20
1.5
30
0
11
0
21
0
31
0
39
0
210
0
220
0
230
1
0
LINE
5
80
100
AcDbEntity
8
1
62
256
6
ByLayer
370
18
48
1
60
0
100
AcDbLine
10
0
20
0
30
0
11
0
21
-1.5
31
0
39
0
210
0
220
0
230
1
0
LINE
5
81
100
AcDbEntity
8
1
62
256
6
ByLayer
370
18
48
1
60
0
100
AcDbLine
10
14.276492
20
0.461685
30
0
11
14.276492
21
-0.871484
31
0
39
0
210
0
220
0
230
1
0
LINE
5
82
100
AcDbEntity
8
1
62
256
6
ByLayer
370
18
48
1
60
0
100
AcDbLine
10
4.507394
20
0.883652
30
0
11
4.507394
21
0.408942
31
0
39
0
210
0
220
0
230
1
0
LINE
5
83
100
AcDbEntity
8
1
62
256
6
ByLayer
370
13
48
1
60
0
100
AcDbLine
10
1.298544
20
0.905
30
0
11
1.298544
21
-0.905
31
0
39
0
210
0
220
0
230
1
0
LINE
5
84
100
AcDbEntity
8
1
62
256
6
ByLayer
370
18
48
1
60
0
100
AcDbLine
10
2.5E-05
20
1.5
30
0
11
2.5E-05
21
-1.5
31
0
39
0
210
0
220
0
230
1
0
LINE
5
85
100
AcDbEntity
8
1
62
256
6
ByLayer
370
13
48
1
60
0
100
AcDbLine
10
0.798544
20
1.038975
30
0
11
0.798544
21
-1.038975
31
0
39
0
210
0
220
0
230
1
0
LINE
5
86
100
AcDbEntity
8
SK1
62
256
6
ByLayer
370
18
48
1
60
0
100
AcDbLine
10
-23.3015
20
1.326795
30
0
11
-23.3015
21
-1.326795
31
0
39
0
210
0
220
0
230
1
0
LINE
5
88
100
AcDbEntity
8
SK1
62
256
6
ByLayer
370
18
48
1
60
0
100
AcDbLine
10
0
20
1.5
30
0
11
0
21
0
31
0
39
0
210
0
220
0
230
1
0
LINE
5
89
100
AcDbEntity
8
SK1
62
256
6
ByLayer
370
18
48
1
60
0
100
AcDbLine
10
0
20
0
30
0
11
0
21
-1.5
31
0
39
0
210
0
220
0
230
1
0
LINE
5
8A
100
AcDbEntity
8
SK1
62
256
6
ByLayer
370
18
48
1
60
0
100
AcDbLine
10
-23.0015
20
1.5
30
0
11
-23.0015
21
-1.5
31
0
39
0
210
0
220
0
230
1
0
LINE
5
8B
100
AcDbEntity
8
1
62
256
6
ByLayer
370
18
48
1
60
0
100
AcDbLine
10
0
20
-1.5
30
0
11
2.5E-05
21
-1.5
31
0
39
0
210
0
220
0
230
1
0
LINE
5
8C
100
AcDbEntity
8
1
62
256
6
ByLayer
370
18
48
1
60
0
100
AcDbLine
10
2.5E-05
20
1.5
30
0
11
0
21
1.5
31
0
39
0
210
0
220
0
230
1
0
LINE
5
8D
100
AcDbEntity
8
1
62
256
6
ByLayer
370
18
48
1
60
0
100
AcDbLine
10
14.6985
20
0
30
0
11
14.532734
21
0.355487
31
0
39
0
210
0
220
0
230
1
0
LINE
5
8E
100
AcDbEntity
8
1
62
256
6
ByLayer
370
18
48
1
60
0
100
AcDbLine
10
14.532734
20
-0.355487
30
0
11
14.6985
21
0
31
0
39
0
210
0
220
0
230
1
0
LINE
5
8F
100
AcDbEntity
8
1
62
256
6
ByLayer
370
18
48
1
60
0
100
AcDbLine
10
1.298544
20
-0.905
30
0
11
3.505905
21
-0.905
31
0
39
0
210
0
220
0
230
1
0
LINE
5
90
100
AcDbEntity
8
1
62
256
6
ByLayer
370
18
48
1
60
0
100
AcDbLine
10
4.848947
20
-0.905
30
0
11
7.722113
21
-0.905
31
0
39
0
210
0
220
0
230
1
0
LINE
5
91
100
AcDbEntity
8
1
62
256
6
ByLayer
370
18
48
1
60
0
100
AcDbLine
10
9.77327
20
-0.905
30
0
11
12.647461
21
-0.905
31
0
39
0
210
0
220
0
230
1
0
LINE
5
92
100
AcDbEntity
8
1
62
256
6
ByLayer
370
18
48
1
60
0
100
AcDbLine
10
12.647461
20
0.905
30
0
11
9.77327
21
0.905
31
0
39
0
210
0
220
0
230
1
0
LINE
5
93
100
AcDbEntity
8
1
62
256
6
ByLayer
370
18
48
1
60
0
100
AcDbLine
10
7.722113
20
0.905
30
0
11
4.848947
21
0.905
31
0
39
0
210
0
220
0
230
1
0
LINE
5
94
100
AcDbEntity
8
1
62
256
6
ByLayer
370
18
48
1
60
0
100
AcDbLine
10
3.505905
20
0.905
30
0
11
1.298544
21
0.905
31
0
39
0
210
0
220
0
230
1
0
LINE
5
95
100
AcDbEntity
8
1
62
256
6
ByLayer
370
18
48
1
60
0
100
AcDbLine
10
0.798544
20
1.038975
30
0
11
2.5E-05
21
1.5
31
0
39
0
210
0
220
0
230
1
0
LINE
5
96
100
AcDbEntity
8
1
62
256
6
ByLayer
370
18
48
1
60
0
100
AcDbLine
10
2.5E-05
20
-1.5
30
0
11
0.798544
21
-1.038975
31
0
39
0
210
0
220
0
230
1
0
LINE
5
97
100
AcDbEntity
8
SK1
62
256
6
ByLayer
370
18
48
1
60
0
100
AcDbLine
10
-23.3015
20
-1.326795
30
0
11
-23.0015
21
-1.5
31
0
39
0
210
0
220
0
230
1
0
LINE
5
98
100
AcDbEntity
8
SK1
62
256
6
ByLayer
370
18
48
1
60
0
100
AcDbLine
10
-23.0015
20
1.5
30
0
11
-23.3015
21
1.326795
31
0
39
0
210
0
220
0
230
1
0
LINE
5
99
100
AcDbEntity
8
SK1
62
256
6
ByLayer
370
18
48
1
60
0
100
AcDbLine
10
-23.0015
20
-1.5
30
0
11
0
21
-1.5
31
0
39
0
210
0
220
0
230
1
0
LINE
5
9A
100
AcDbEntity
8
SK1
62
256
6
ByLayer
370
18
48
1
60
0
100
AcDbLine
10
0
20
1.5
30
0
11
-23.0015
21
1.5
31
0
39
0
210
0
220
0
230
1
0
LINE
5
9B
100
AcDbEntity
8
4
62
256
6
ByLayer
370
18
48
0.05
60
0
100
AcDbLine
10
0
20
0
30
0
11
14.6985
21
0
31
0
39
0
210
0
220
0
230
1
0
LINE
5
9D
100
AcDbEntity
8
81
62
256
6
ByLayer
370
18
48
1
60
0
100
AcDbLine
10
14.6985
20
0
30
0
11
17.6985
21
0
31
0
39
0
210
0
220
0
230
1
0
LINE
5
9E
100
AcDbEntity
8
80
62
256
6
ByLayer
370
18
48
1
60
0
100
AcDbLine
10
0
20
0
30
0
11
-3
21
0
31
0
39
0
210
0
220
0
230
1
0
LINE
5
9F
100
AcDbEntity
8
SK4
62
256
6
ByLayer
370
18
48
0.05
60
0
100
AcDbLine
10
-26.3015
20
0
30
0
11
17.6985
21
0
31
0
39
0
210
0
220
0
230
1
0
LINE
5
A1
100
AcDbEntity
8
SK2
62
256
6
ByLayer
370
13
48
1
60
0
100
AcDbLine
10
-27.8015
20
-9
30
0
11
-27.8015
21
21.782741
31
0
39
0
210
0
220
0
230
1
0
LINE
5
A3
100
AcDbEntity
8
SK2
62
256
6
ByLayer
370
13
48
1
60
0
100
AcDbLine
10
-24.889
20
-1.5
30
0
11
-29.8015
21
-1.5
31
0
39
0
210
0
220
0
230
1
0
LINE
5
A4
100
AcDbEntity
8
SK2
62
256
6
ByLayer
370
13
48
1
60
0
100
AcDbLine
10
-24.889
20
1.5
30
0
11
-29.8015
21
1.5
31
0
39
0
210
0
220
0
230
1
0
LINE
5
A5
100
AcDbEntity
8
1
62
256
6
ByLayer
370
18
48
1
60
1
100
AcDbLine
10
-27.8015
20
-1.5
30
0
11
-27.340716
21
-4.999998
31
0
39
0
210
0
220
0
230
1
0
LINE
5
A6
100
AcDbEntity
8
1
62
256
6
ByLayer
370
18
48
1
60
1
100
AcDbLine
10
-27.340716
20
-4.999998
30
0
11
-28.262284
21
-5.000002
31
0
39
0
210
0
220
0
230
1
0
LINE
5
A7
100
AcDbEntity
8
1
62
256
6
ByLayer
370
18
48
1
60
1
100
AcDbLine
10
-28.262284
20
-5.000002
30
0
11
-27.8015
21
-1.5
31
0
39
0
210
0
220
0
230
1
0
LINE
5
A8
100
AcDbEntity
8
1
62
256
6
ByLayer
370
18
48
1
60
1
100
AcDbLine
10
-27.8015
20
1.5
30
0
11
-28.262284
21
4.999998
31
0
39
0
210
0
220
0
230
1
0
LINE
5
A9
100
AcDbEntity
8
1
62
256
6
ByLayer
370
18
48
1
60
1
100
AcDbLine
10
-28.262284
20
4.999998
30
0
11
-27.340716
21
5.000002
31
0
39
0
210
0
220
0
230
1
0
LINE
5
AA
100
AcDbEntity
8
1
62
256
6
ByLayer
370
18
48
1
60
1
100
AcDbLine
10
-27.340716
20
5.000002
30
0
11
-27.8015
21
1.5
31
0
39
0
210
0
220
0
230
1
0
LINE
5
AB
100
AcDbEntity
8
2
62
256
6
ByLayer
370
13
48
1
60
0
100
AcDbLine
10
20.1985
20
-8.405
30
0
11
20.1985
21
28.37797
31
0
39
0
210
0
220
0
230
1
0
LINE
5
AD
100
AcDbEntity
8
2
62
256
6
ByLayer
370
13
48
1
60
0
100
AcDbLine
10
16.286
20
-0.905
30
0
11
22.1985
21
-0.905
31
0
39
0
210
0
220
0
230
1
0
LINE
5
AE
100
AcDbEntity
8
2
62
256
6
ByLayer
370
13
48
1
60
0
100
AcDbLine
10
16.286
20
0.905
30
0
11
22.1985
21
0.905
31
0
39
0
210
0
220
0
230
1
0
LINE
5
AF
100
AcDbEntity
8
1
62
256
6
ByLayer
370
18
48
1
60
1
100
AcDbLine
10
20.1985
20
-0.905
30
0
11
20.659284
21
-4.404998
31
0
39
0
210
0
220
0
230
1
0
LINE
5
B0
100
AcDbEntity
8
1
62
256
6
ByLayer
370
18
48
1
60
1
100
AcDbLine
10
20.659284
20
-4.404998
30
0
11
19.737716
21
-4.405002
31
0
39
0
210
0
220
0
230
1
0
LINE
5
B1
100
AcDbEntity
8
1
62
256
6
ByLayer
370
18
48
1
60
1
100
AcDbLine
10
19.737716
20
-4.405002
30
0
11
20.1985
21
-0.905
31
0
39
0
210
0
220
0
230
1
0
LINE
5
B2
100
AcDbEntity
8
1
62
256
6
ByLayer
370
18
48
1
60
1
100
AcDbLine
10
20.1985
20
0.905
30
0
11
19.737716
21
4.404998
31
0
39
0
210
0
220
0
230
1
0
LINE
5
B3
100
AcDbEntity
8
1
62
256
6
ByLayer
370
18
48
1
60
1
100
AcDbLine
10
19.737716
20
4.404998
30
0
11
20.659284
21
4.405002
31
0
39
0
210
0
220
0
230
1
0
LINE
5
B4
100
AcDbEntity
8
1
62
256
6
ByLayer
370
18
48
1
60
1
100
AcDbLine
10
20.659284
20
4.405002
30
0
11
20.1985
21
0.905
31
0
39
0
210
0
220
0
230
1
0
LINE
5
B5
100
AcDbEntity
8
SK2
62
256
6
ByLayer
370
13
48
1
60
0
100
AcDbLine
10
15.369406
20
-1.438764
30
0
11
22.453545
21
-16.630748
31
0
39
0
210
0
220
0
230
1
0
LINE
5
B6
100
AcDbEntity
8
SK2
62
256
6
ByLayer
370
13
48
1
60
0
100
AcDbLine
10
15.369406
20
1.438764
30
0
11
22.453545
21
16.630748
31
0
39
0
210
0
220
0
230
1
0
LINE
5
B7
100
AcDbEntity
8
1
62
256
6
ByLayer
370
18
48
1
60
1
100
AcDbLine
10
21.608309
20
-14.818132
30
0
11
24.480342
21
-12.765394
31
0
39
0
210
0
220
0
230
1
0
LINE
5
B8
100
AcDbEntity
8
1
62
256
6
ByLayer
370
18
48
1
60
1
100
AcDbLine
10
24.480342
20
-12.765394
30
0
11
24.913771
21
-13.578675
31
0
39
0
210
0
220
0
230
1
0
LINE
5
B9
100
AcDbEntity
8
1
62
256
6
ByLayer
370
18
48
1
60
1
100
AcDbLine
10
24.913771
20
-13.578675
30
0
11
21.608309
21
-14.818132
31
0
39
0
210
0
220
0
230
1
0
LINE
5
BA
100
AcDbEntity
8
1
62
256
6
ByLayer
370
18
48
1
60
1
100
AcDbLine
10
21.608309
20
14.818132
30
0
11
24.913768
21
13.578677
31
0
39
0
210
0
220
0
230
1
0
LINE
5
BB
100
AcDbEntity
8
1
62
256
6
ByLayer
370
18
48
1
60
1
100
AcDbLine
10
24.913768
20
13.578677
30
0
11
24.480345
21
12.765392
31
0
39
0
210
0
220
0
230
1
0
LINE
5
BC
100
AcDbEntity
8
1
62
256
6
ByLayer
370
18
48
1
60
1
100
AcDbLine
10
24.480345
20
12.765392
30
0
11
21.608309
21
14.818132
31
0
39
0
210
0
220
0
230
1
0
LINE
5
D6
100
AcDbEntity
8
1
62
256
6
ByLayer
370
18
48
1
60
1
100
AcDbLine
10
-27.8015
20
-1.5
30
0
11
-27.340716
21
-4.999998
31
0
39
0
210
0
220
0
230
1
0
LINE
5
D7
100
AcDbEntity
8
1
62
256
6
ByLayer
370
18
48
1
60
1
100
AcDbLine
10
-27.340716
20
-4.999998
30
0
11
-28.262284
21
-5.000002
31
0
39
0
210
0
220
0
230
1
0
LINE
5
D8
100
AcDbEntity
8
1
62
256
6
ByLayer
370
18
48
1
60
1
100
AcDbLine
10
-28.262284
20
-5.000002
30
0
11
-27.8015
21
-1.5
31
0
39
0
210
0
220
0
230
1
0
LINE
5
DA
100
AcDbEntity
8
1
62
256
6
ByLayer
370
18
48
1
60
1
100
AcDbLine
10
-27.8015
20
1.5
30
0
11
-28.262284
21
4.999998
31
0
39
0
210
0
220
0
230
1
0
LINE
5
DB
100
AcDbEntity
8
1
62
256
6
ByLayer
370
18
48
1
60
1
100
AcDbLine
10
-28.262284
20
4.999998
30
0
11
-27.340716
21
5.000002
31
0
39
0
210
0
220
0
230
1
0
LINE
5
DC
100
AcDbEntity
8
1
62
256
6
ByLayer
370
18
48
1
60
1
100
AcDbLine
10
-27.340716
20
5.000002
30
0
11
-27.8015
21
1.5
31
0
39
0
210
0
220
0
230
1
0
LINE
5
E0
100
AcDbEntity
8
1
62
256
6
ByLayer
370
18
48
1
60
1
100
AcDbLine
10
20.1985
20
-0.905
30
0
11
20.659284
21
-4.404998
31
0
39
0
210
0
220
0
230
1
0
LINE
5
E1
100
AcDbEntity
8
1
62
256
6
ByLayer
370
18
48
1
60
1
100
AcDbLine
10
20.659284
20
-4.404998
30
0
11
19.737716
21
-4.405002
31
0
39
0
210
0
220
0
230
1
0
LINE
5
E2
100
AcDbEntity
8
1
62
256
6
ByLayer
370
18
48
1
60
1
100
AcDbLine
10
19.737716
20
-4.405002
30
0
11
20.1985
21
-0.905
31
0
39
0
210
0
220
0
230
1
0
LINE
5
E4
100
AcDbEntity
8
1
62
256
6
ByLayer
370
18
48
1
60
1
100
AcDbLine
10
20.1985
20
0.905
30
0
11
19.737716
21
4.404998
31
0
39
0
210
0
220
0
230
1
0
LINE
5
E5
100
AcDbEntity
8
1
62
256
6
ByLayer
370
18
48
1
60
1
100
AcDbLine
10
19.737716
20
4.404998
30
0
11
20.659284
21
4.405002
31
0
39
0
210
0
220
0
230
1
0
LINE
5
E6
100
AcDbEntity
8
1
62
256
6
ByLayer
370
18
48
1
60
1
100
AcDbLine
10
20.659284
20
4.405002
30
0
11
20.1985
21
0.905
31
0
39
0
210
0
220
0
230
1
0
LINE
5
E9
100
AcDbEntity
8
1
62
256
6
ByLayer
370
18
48
1
60
1
100
AcDbLine
10
21.608309
20
-14.818132
30
0
11
24.480342
21
-12.765394
31
0
39
0
210
0
220
0
230
1
0
LINE
5
EA
100
AcDbEntity
8
1
62
256
6
ByLayer
370
18
48
1
60
1
100
AcDbLine
10
24.480342
20
-12.765394
30
0
11
24.913771
21
-13.578675
31
0
39
0
210
0
220
0
230
1
0
LINE
5
EB
100
AcDbEntity
8
1
62
256
6
ByLayer
370
18
48
1
60
1
100
AcDbLine
10
24.913771
20
-13.578675
30
0
11
21.608309
21
-14.818132
31
0
39
0
210
0
220
0
230
1
0
LINE
5
ED
100
AcDbEntity
8
1
62
256
6
ByLayer
370
18
48
1
60
1
100
AcDbLine
10
21.608309
20
14.818132
30
0
11
24.913768
21
13.578677
31
0
39
0
210
0
220
0
230
1
0
LINE
5
EE
100
AcDbEntity
8
1
62
256
6
ByLayer
370
18
48
1
60
1
100
AcDbLine
10
24.913768
20
13.578677
30
0
11
24.480345
21
12.765392
31
0
39
0
210
0
220
0
230
1
0
LINE
5
EF
100
AcDbEntity
8
1
62
256
6
ByLayer
370
18
48
1
60
1
100
AcDbLine
10
24.480345
20
12.765392
30
0
11
21.608309
21
14.818132
31
0
39
0
210
0
220
0
230
1
0
MTEXT
5
D2
100
AcDbEntity
8
SK2
62
256
6
ByLayer
370
18
48
1
60
0
100
AcDbMText
10
-29.142614
20
6.658437
30
0
210
0
220
0
230
1
1
%%c
40
3
41
0
44
1.084337
50
90
71
7
72
5
7
iso_b_vert
0
MTEXT
5
D5
100
AcDbEntity
8
SK2
62
256
6
ByLayer
370
18
48
1
60
0
100
AcDbMText
10
-29.142614
20
12.635
30
0
210
0
220
0
230
1
1
\W0.7468;3.000
40
3
41
0
44
1.084337
50
90
71
7
72
5
7
iso_b_vert
0
MTEXT
5
DE
100
AcDbEntity
8
2
62
256
6
ByLayer
370
18
48
1
60
0
100
AcDbMText
10
18.857386
20
14.753437
30
0
210
0
220
0
230
1
1
%%c
40
3
41
0
44
1.084337
50
90
71
7
72
5
7
iso_b_vert
0
MTEXT
5
DF
100
AcDbEntity
8
2
62
256
6
ByLayer
370
18
48
1
60
0
100
AcDbMText
10
18.857386
20
20.73
30
0
210
0
220
0
230
1
1
\W0.6261;1.810
40
3
41
0
44
1.084337
50
90
71
7
72
5
7
iso_b_vert
0
MTEXT
5
E8
100
AcDbEntity
8
SK2
62
256
6
ByLayer
370
18
48
1
60
0
100
AcDbMText
10
27.765786
20
-2.114886
30
0
210
0
220
0
230
1
1
\W0.6747;130%%d
40
3
41
0
44
1.084337
50
0
71
7
72
5
7
iso_b_vert
0
MTEXT
5
F1
100
AcDbEntity
8
SK6
62
256
6
ByLayer
370
18
48
1
60
0
100
AcDbMText
10
-31.733153
20
-48.114886
30
0
210
0
220
0
230
1
1
\W0.7563;462.1-0181-008A0-XM X0BM
40
3
41
0
44
1.084337
50
0
71
7
72
5
7
iso_b_vert
0
HATCH
5
D9
100
AcDbEntity
8
SK2
62
256
6
ByLayer
370
13
48
1
60
0
100
AcDbHatch
10
0
20
0
30
0
210
0
220
0
230
1
2
ANSI31
70
0
71
0
91
1
92
5
93
3
72
1
10
-27.8015
20
-1.5
11
-27.3407162584472
21
-4.99999830744682
72
1
10
-27.3407162584472
20
-4.99999830744682
11
-28.2622837415528
21
-5.00000169255318
72
1
10
-28.2622837415528
20
-5.00000169255318
11
-27.8015
21
-1.5
97
0
75
0
76
1
52
0
41
0.0062
77
0
78
1
53
45
43
0
44
0
45
-0.0139193969876572
46
0.0139193969876572
79
0
47
0
98
1
10
0
20
0
0
HATCH
5
DD
100
AcDbEntity
8
SK2
62
256
6
ByLayer
370
13
48
1
60
0
100
AcDbHatch
10
0
20
0
30
0
210
0
220
0
230
1
2
ANSI31
70
0
71
0
91
1
92
5
93
3
72
1
10
-27.8015
20
1.5
11
-28.2622837415528
21
4.99999830744682
72
1
10
-28.2622837415528
20
4.99999830744682
11
-27.3407162584472
21
5.00000169255318
72
1
10
-27.3407162584472
20
5.00000169255318
11
-27.8015
21
1.5
97
0
75
0
76
1
52
0
41
0.0062
77
0
78
1
53
45
43
0
44
0
45
-0.0139193969876572
46
0.0139193969876572
79
0
47
0
98
1
10
0
20
0
0
HATCH
5
E3
100
AcDbEntity
8
2
62
256
6
ByLayer
370
13
48
1
60
0
100
AcDbHatch
10
0
20
0
30
0
210
0
220
0
230
1
2
ANSI31
70
0
71
0
91
1
92
5
93
3
72
1
10
20.1985
20
-0.905000000000001
11
20.6592837415528
21
-4.40499830744682
72
1
10
20.6592837415528
20
-4.40499830744682
11
19.7377162584472
21
-4.40500169255319
72
1
10
19.7377162584472
20
-4.40500169255319
11
20.1985
21
-0.905000000000001
97
0
75
0
76
1
52
0
41
0.0062
77
0
78
1
53
45
43
0
44
0
45
-0.0139193969876572
46
0.0139193969876572
79
0
47
0
98
1
10
0
20
0
0
HATCH
5
E7
100
AcDbEntity
8
2
62
256
6
ByLayer
370
13
48
1
60
0
100
AcDbHatch
10
0
20
0
30
0
210
0
220
0
230
1
2
ANSI31
70
0
71
0
91
1
92
5
93
3
72
1
10
20.1985
20
0.905000000000001
11
19.7377162584472
21
4.40499830744682
72
1
10
19.7377162584472
20
4.40499830744682
11
20.6592837415528
21
4.40500169255319
72
1
10
20.6592837415528
20
4.40500169255319
11
20.1985
21
0.905000000000001
97
0
75
0
76
1
52
0
41
0.0062
77
0
78
1
53
45
43
0
44
0
45
-0.0139193969876572
46
0.0139193969876572
79
0
47
0
98
1
10
0
20
0
0
HATCH
5
EC
100
AcDbEntity
8
SK2
62
256
6
ByLayer
370
13
48
1
60
0
100
AcDbHatch
10
0
20
0
30
0
210
0
220
0
230
1
2
ANSI31
70
0
71
0
91
1
92
5
93
3
72
1
10
21.6083085794604
20
-14.8181323180492
11
24.4803418553693
21
-12.765393983365
72
1
10
24.4803418553693
20
-12.765393983365
11
24.9137706127348
21
-13.5786750775861
72
1
10
24.9137706127348
20
-13.5786750775861
11
21.6083085794604
21
-14.8181323180492
97
0
75
0
76
1
52
0
41
0.0062
77
0
78
1
53
45
43
0
44
0
45
-0.0139193969876572
46
0.0139193969876572
79
0
47
0
98
1
10
0
20
0
0
HATCH
5
F0
100
AcDbEntity
8
SK2
62
256
6
ByLayer
370
13
48
1
60
0
100
AcDbHatch
10
0
20
0
30
0
210
0
220
0
230
1
2
ANSI31
70
0
71
0
91
1
92
5
93
3
72
1
10
21.6083085794604
20
14.8181323180492
11
24.9137676253807
21
13.5786766696479
72
1
10
24.9137676253807
20
13.5786766696479
11
24.4803448427234
21
12.7653923913032
72
1
10
24.4803448427234
20
12.7653923913032
11
21.6083085794604
21
14.8181323180492
97
0
75
0
76
1
52
0
41
0.0062
77
0
78
1
53
45
43
0
44
0
45
-0.0139193969876572
46
0.0139193969876572
79
0
47
0
98
1
10
0
20
0
0
DIMENSION
5
F4
100
AcDbEntity
8
SK2
62
256
6
ByLayer
370
18
48
1
60
0
100
AcDbDimension
2
_U0
10
14.6985
20
-38.867786
30
0
11
-4.3015
21
-38.867786
31
0
70
32
71
1
72
1
41
1
210
0
220
0
230
1
3
Standard
100
AcDbAlignedDimension
13
-23.3015
23
1.5
33
0
14
14.6985
24
0.905
34
0
50
0
100
AcDbRotatedDimension
1001
ACAD
1000
DSTYLE
1002
{
1070
   371
1070
    13
1070
   372
1070
    13
1070
     3
1000

1070
   170
1070
     0
1070
   144
1040
1.0
1070
   277
1070
     2
1070
   284
1070
     8
1070
   278
1070
    46
1070
   146
1040
1.166667
1070
   345
1005
16
1070
   347
1005
16
1070
   346
1005
16
1070
   344
1005
0
1070
   343
1005
0
1070
   172
1070
     1
1070
    76
1070
     0
1070
    75
1070
     0
1070
   282
1070
     0
1070
   281
1070
     0
1070
    71
1070
     0
1070
    74
1070
     0
1070
   279
1070
     0
1070
   173
1070
     1
1070
   340
1005
D3
1070
   271
1070
     2
1070
   272
1070
     2
1070
    77
1070
     1
1070
    73
1070
     1
1070
   171
1070
     3
1070
   274
1070
     4
1070
   177
1070
     2
1070
   176
1070
     2
1070
   178
1070
     2
1070
    78
1070
     8
1070
    48
1040
-0.1
1070
    41
1040
3.5
1070
   147
1040
1.5
1070
    42
1040
1.5875
1070
    44
1040
2.0
1070
   140
1040
3.0
1002
}
1001
ACAD_DSTYLE_DIM_LINETYPE
1070
   380
1005
16
1001
ACAD_DSTYLE_DIM_EXT1_LINETYPE
1070
   381
1005
16
1001
ACAD_DSTYLE_DIM_EXT2_LINETYPE
1070
   382
1005
16
0
DIMENSION
5
10D
100
AcDbEntity
8
SK2
62
256
6
ByLayer
370
18
48
1
60
0
100
AcDbDimension
2
_U1
10
6.2135
20
-22.405
30
0
11
30.6985
21
-22.405
31
0
70
32
71
1
72
1
41
1
210
0
220
0
230
1
3
Standard
100
AcDbAlignedDimension
13
14.6985
23
0.905
33
0
14
6.2135
24
0
34
0
50
0
100
AcDbRotatedDimension
1001
ACAD
1000
DSTYLE
1002
{
1070
   371
1070
    13
1070
   372
1070
    13
1070
     3
1000

1070
   170
1070
     0
1070
   144
1040
1.0
1070
   277
1070
     2
1070
   284
1070
     8
1070
   278
1070
    46
1070
   146
1040
1.166667
1070
   345
1005
16
1070
   347
1005
16
1070
   346
1005
16
1070
   344
1005
0
1070
   343
1005
0
1070
   172
1070
     1
1070
    76
1070
     0
1070
    75
1070
     0
1070
   282
1070
     0
1070
   281
1070
     0
1070
    71
1070
     0
1070
    74
1070
     0
1070
   279
1070
     0
1070
   173
1070
     1
1070
   340
1005
D3
1070
   271
1070
     2
1070
   272
1070
     2
1070
    77
1070
     1
1070
    73
1070
     1
1070
   171
1070
     3
1070
   274
1070
     4
1070
   177
1070
     2
1070
   176
1070
     2
1070
   178
1070
     2
1070
    78
1070
     8
1070
    48
1040
-0.1
1070
    41
1040
3.5
1070
   147
1040
1.5
1070
    42
1040
1.5875
1070
    44
1040
2.0
1070
   140
1040
3.0
1002
}
1001
ACAD_DSTYLE_DIM_LINETYPE
1070
   380
1005
16
1001
ACAD_DSTYLE_DIM_EXT1_LINETYPE
1070
   381
1005
16
1001
ACAD_DSTYLE_DIM_EXT2_LINETYPE
1070
   382
1005
16
0
DIMENSION
5
127
100
AcDbEntity
8
SK2
62
256
6
ByLayer
370
18
48
1
60
0
100
AcDbDimension
2
_U2
10
3.4985
20
-30.367786
30
0
11
9.0985
21
-30.367786
31
0
70
32
71
1
72
1
41
1
210
0
220
0
230
1
3
Standard
100
AcDbAlignedDimension
13
14.6985
23
0.905
33
0
14
3.4985
24
0
34
0
50
0
100
AcDbRotatedDimension
1001
ACAD
1000
DSTYLE
1002
{
1070
   371
1070
    13
1070
   372
1070
    13
1070
     3
1000

1070
   170
1070
     0
1070
   144
1040
1.0
1070
   277
1070
     2
1070
   284
1070
     8
1070
   278
1070
    46
1070
   146
1040
1.166667
1070
   345
1005
16
1070
   347
1005
16
1070
   346
1005
16
1070
   344
1005
0
1070
   343
1005
0
1070
   172
1070
     1
1070
    76
1070
     0
1070
    75
1070
     0
1070
   282
1070
     0
1070
   281
1070
     0
1070
    71
1070
     0
1070
    74
1070
     0
1070
   279
1070
     0
1070
   173
1070
     1
1070
   340
1005
D3
1070
   271
1070
     2
1070
   272
1070
     2
1070
    77
1070
     1
1070
    73
1070
     1
1070
   171
1070
     3
1070
   274
1070
     4
1070
   177
1070
     2
1070
   176
1070
     2
1070
   178
1070
     2
1070
    78
1070
     8
1070
    48
1040
-0.1
1070
    41
1040
3.5
1070
   147
1040
1.5
1070
    42
1040
1.5875
1070
    44
1040
2.0
1070
   140
1040
3.0
1002
}
1001
ACAD_DSTYLE_DIM_LINETYPE
1070
   380
1005
16
1001
ACAD_DSTYLE_DIM_EXT1_LINETYPE
1070
   381
1005
16
1001
ACAD_DSTYLE_DIM_EXT2_LINETYPE
1070
   382
1005
16
0
DIMENSION
5
140
100
AcDbEntity
8
SK2
62
256
6
ByLayer
370
18
48
1
60
0
100
AcDbDimension
2
_U3
10
0
20
11.367786
30
0
11
-11.65075
21
11.367786
31
0
70
32
71
1
72
1
41
1
210
0
220
0
230
1
3
Standard
100
AcDbAlignedDimension
13
-23.3015
23
0
33
0
14
0
24
0
34
0
50
0
100
AcDbRotatedDimension
1001
ACAD
1000
DSTYLE
1002
{
1070
   371
1070
    13
1070
   372
1070
    13
1070
     3
1000

1070
   170
1070
     0
1070
   144
1040
1.0
1070
   277
1070
     2
1070
   284
1070
     8
1070
   278
1070
    46
1070
   146
1040
1.166667
1070
   345
1005
16
1070
   347
1005
16
1070
   346
1005
16
1070
   344
1005
0
1070
   343
1005
0
1070
   172
1070
     1
1070
    76
1070
     0
1070
    75
1070
     0
1070
   282
1070
     0
1070
   281
1070
     0
1070
    71
1070
     0
1070
    74
1070
     0
1070
   279
1070
     0
1070
   173
1070
     1
1070
   340
1005
D3
1070
   271
1070
     2
1070
   272
1070
     2
1070
    77
1070
     1
1070
    73
1070
     1
1070
   171
1070
     3
1070
   274
1070
     4
1070
   177
1070
     2
1070
   176
1070
     2
1070
   178
1070
     2
1070
    78
1070
     8
1070
    48
1040
-0.1
1070
    41
1040
3.5
1070
   147
1040
1.5
1070
    42
1040
1.5875
1070
    44
1040
2.0
1070
   140
1040
3.0
1002
}
1001
ACAD_DSTYLE_DIM_LINETYPE
1070
   380
1005
16
1001
ACAD_DSTYLE_DIM_EXT1_LINETYPE
1070
   381
1005
16
1001
ACAD_DSTYLE_DIM_EXT2_LINETYPE
1070
   382
1005
16
0
DIMENSION
5
158
100
AcDbEntity
8
2
62
256
6
ByLayer
370
18
48
1
60
0
100
AcDbDimension
2
_U4
10
0
20
11.367786
30
0
11
7.34925
21
11.367786
31
0
70
32
71
1
72
1
41
1
210
0
220
0
230
1
3
Standard
100
AcDbAlignedDimension
13
14.6985
23
0.905
33
0
14
0
24
0
34
0
50
0
100
AcDbRotatedDimension
1001
ACAD
1000
DSTYLE
1002
{
1070
   371
1070
    13
1070
   372
1070
    13
1070
     3
1000

1070
   170
1070
     0
1070
   144
1040
1.0
1070
   277
1070
     2
1070
   284
1070
     8
1070
   278
1070
    46
1070
   146
1040
1.166667
1070
   345
1005
16
1070
   347
1005
16
1070
   346
1005
16
1070
   344
1005
0
1070
   343
1005
0
1070
   172
1070
     1
1070
    76
1070
     0
1070
    75
1070
     0
1070
   282
1070
     0
1070
   281
1070
     0
1070
    71
1070
     0
1070
    74
1070
     0
1070
   279
1070
     0
1070
   173
1070
     1
1070
   340
1005
D3
1070
   271
1070
     2
1070
   272
1070
     2
1070
    77
1070
     1
1070
    73
1070
     1
1070
   171
1070
     3
1070
   274
1070
     4
1070
   177
1070
     2
1070
   176
1070
     2
1070
   178
1070
     2
1070
    78
1070
     8
1070
    48
1040
-0.1
1070
    41
1040
3.5
1070
   147
1040
1.5
1070
    42
1040
1.5875
1070
    44
1040
2.0
1070
   140
1040
3.0
1002
}
1001
ACAD_DSTYLE_DIM_LINETYPE
1070
   380
1005
16
1001
ACAD_DSTYLE_DIM_EXT1_LINETYPE
1070
   381
1005
16
1001
ACAD_DSTYLE_DIM_EXT2_LINETYPE
1070
   382
1005
16
0
ENDSEC
0
SECTION
2
OBJECTS
0
DICTIONARY
5
1e1
330
0
100
AcDbDictionary
280
0
281
1
3
ACAD_GROUP
350
1e2
3
ACAD_MLINESTYLE
350
1e3
0
DICTIONARY
5
1e2
330
0
100
AcDbDictionary
280
0
281
1
0
DICTIONARY
5
1e3
330
0
100
AcDbDictionary
280
0
281
1
3
Standard
350
18
0
MLINESTYLE
5
18
330
1e3
100
AcDbMlineStyle
2
Standard
70
0
3

62
256
51
90
52
90
71
2
49
-0.5
62
256
6
ByLayer
49
0.5
62
256
6
ByLayer
0
RASTERVARIABLES
5
1cf
330

100
AcDbRasterVariables
90
0
70
1
71
1
72
1
0
ENDSEC
0
EOF
