0
SECTION
2
HEADER
9
$ACADVER
1
AC1015
9
$DWGCODEPAGE
3
ANSI_1252
9
$HANDSEED
5
1eb
9
$ANGBASE
50
0
9
$ANGDIR
70
0
9
$ATTMODE
70
1
9
$AUNITS
70
0
9
$AUPREC
70
0
9
$CECOLOR
62
256
9
$CELTSCALE
40
1
9
$CELTYPE
6
ByLayer
9
$CELWEIGHT
370
18
9
$CLAYER
8
0
9
$CMLJUST
70
0
9
$CMLSCALE
40
1
9
$CMLSTYLE
2
Standard
9
$DIMSTYLE
2
Standard
9
$TEXTSIZE
40
0.2
9
$TEXTSTYLE
7
Standard
9
$LUNITS
70
2
9
$LUPREC
70
4
9
$EXTNAMES
290
1
9
$INSUNITS
70
4
9
$LTSCALE
40
1
9
$LWDISPLAY
290
1
9
$PDMODE
70
0
9
$PDSIZE
40
0
9
$PLINEGEN
70
0
0
ENDSEC
0
SECTION
2
CLASSES
0
CLASS
1
RASTERVARIABLES
2
AcDbRasterVariables
3
ISM
90
0
280
0
281
0
0
ENDSEC
0
SECTION
2
TABLES
0
TABLE
2
VPORT
5
1e1
100
AcDbSymbolTable
0
VPORT
5
1
100
AcDbSymbolTableRecord
100
AcDbViewportTableRecord
2
*Active
70
0
10
0
20
0
11
1
21
1
12
-1
22
1
13
0
23
0
14
0.5
24
0.5
15
10
25
10
16
0
26
0
36
1
17
0
27
0
37
0
0
ENDTAB
0
TABLE
2
LTYPE
5
1e2
100
AcDbSymbolTable
0
LTYPE
5
14
100
AcDbSymbolTableRecord
100
AcDbLinetypeTableRecord
70
0
2
ByBlock
3

72
65
73
0
40
0
0
LTYPE
5
15
100
AcDbSymbolTableRecord
100
AcDbLinetypeTableRecord
70
0
2
ByLayer
3

72
65
73
0
40
0
0
LTYPE
5
16
100
AcDbSymbolTableRecord
100
AcDbLinetypeTableRecord
70
0
2
Continuous
3
Solid line
72
65
73
0
40
0
0
LTYPE
5
6E
100
AcDbSymbolTableRecord
100
AcDbLinetypeTableRecord
70
0
2
CENTER
3
____ _ ____ _ ____ _ ____
72
65
73
4
40
47.5
49
22
74
0
49
-8.5
74
0
49
8.5
74
0
49
-8.5
74
0
0
LTYPE
5
6F
100
AcDbSymbolTableRecord
100
AcDbLinetypeTableRecord
70
0
2
DASHED
3
__ __ __ __ __ __ __ __ __
72
65
73
2
40
25.72
49
12.86
74
0
49
-12.86
74
0
0
ENDTAB
0
TABLE
2
LAYER
5
1e3
100
AcDbSymbolTable
0
LAYER
5
10
100
AcDbSymbolTableRecord
100
AcDbLayerTableRecord
2
0
70
0
62
7
6
Continuous
290
1
370
-3
390
0
0
LAYER
5
71
100
AcDbSymbolTableRecord
100
AcDbLayerTableRecord
2
80
70
0
62
-6
6
Continuous
290
1
370
-3
390
0
0
LAYER
5
73
100
AcDbSymbolTableRecord
100
AcDbLayerTableRecord
2
81
70
0
62
-3
6
Continuous
290
1
370
-3
390
0
0
LAYER
5
75
100
AcDbSymbolTableRecord
100
AcDbLayerTableRecord
2
1
70
0
62
4
6
Continuous
290
1
370
-3
390
0
0
LAYER
5
9C
100
AcDbSymbolTableRecord
100
AcDbLayerTableRecord
2
4
70
0
62
-2
6
CENTER
290
1
370
-3
390
0
0
LAYER
5
AC
100
AcDbSymbolTableRecord
100
AcDbLayerTableRecord
2
2
70
0
62
7
6
Continuous
290
1
370
-3
390
0
0
LAYER
5
F4
100
AcDbSymbolTableRecord
100
AcDbLayerTableRecord
2
Defpoints
70
0
62
7
6
Continuous
290
0
370
-3
390
0
0
LAYER
5
1cd
100
AcDbSymbolTableRecord
100
AcDbLayerTableRecord
2
SK1
70
0
62
4
6
Continuous
290
1
370
-3
390
0
0
LAYER
5
1ce
100
AcDbSymbolTableRecord
100
AcDbLayerTableRecord
2
SK4
70
0
62
2
6
CENTER
290
1
370
-3
390
0
0
LAYER
5
1cf
100
AcDbSymbolTableRecord
100
AcDbLayerTableRecord
2
SK2
70
0
62
7
6
Continuous
290
1
370
-3
390
0
0
LAYER
5
1d0
100
AcDbSymbolTableRecord
100
AcDbLayerTableRecord
2
SK6
70
0
62
5
6
Continuous
290
1
370
-3
390
0
0
ENDTAB
0
TABLE
2
STYLE
5
1e4
100
AcDbSymbolTable
0
STYLE
5
11
100
AcDbSymbolTableRecord
100
AcDbTextStyleTableRecord
2
Standard
3
txt
70
0
71
0
40
0
41
1
42
0
50
0
0
STYLE
5
D0
100
AcDbSymbolTableRecord
100
AcDbTextStyleTableRecord
2
iso_b_vert
3
simplex.shx
70
0
71
0
40
0
41
1
42
0
50
0
0
STYLE
5
D1
100
AcDbSymbolTableRecord
100
AcDbTextStyleTableRecord
2
DWGDirectTextStyle
3
simplex
70
0
71
0
40
0
41
1
42
0
50
0
0
ENDTAB
0
TABLE
2
DIMSTYLE
5
1e5
100
AcDbSymbolTable
100
AcDbDimStyleTable
0
DIMSTYLE
105
27
100
AcDbSymbolTableRecord
100
AcDbDimStyleTableRecord
2
Standard
70
0
3
<>
41
0.18
42
0.0625
44
0.18
140
0.18
147
0.09
73
0
74
0
77
1
271
2
275
0
278
52
280
0
340
11
0
ENDTAB
0
TABLE
2
VIEW
5
1e6
100
AcDbSymbolTable
0
ENDTAB
0
TABLE
2
UCS
5
1e7
100
AcDbSymbolTable
0
ENDTAB
0
TABLE
2
APPID
5
1e8
100
AcDbSymbolTable
0
APPID
5
12
100
AcDbSymbolTableRecord
100
AcDbRegAppTableRecord
2
ACAD
70
0
0
APPID
5
F0
100
AcDbSymbolTableRecord
100
AcDbRegAppTableRecord
2
ACAD_DSTYLE_DIMBREAK
70
0
0
APPID
5
18C
100
AcDbSymbolTableRecord
100
AcDbRegAppTableRecord
2
ACAD_DSTYLE_DIM_LINETYPE
70
0
0
APPID
5
18D
100
AcDbSymbolTableRecord
100
AcDbRegAppTableRecord
2
ACAD_DSTYLE_DIM_EXT1_LINETYPE
70
0
0
APPID
5
18E
100
AcDbSymbolTableRecord
100
AcDbRegAppTableRecord
2
ACAD_DSTYLE_DIM_EXT2_LINETYPE
70
0
0
APPID
5
1C9
100
AcDbSymbolTableRecord
100
AcDbRegAppTableRecord
2
ACAD_MLEADERVER
70
0
0
ENDTAB
0
TABLE
2
BLOCK_RECORD
5
1e9
100
AcDbSymbolTable
0
BLOCK_RECORD
5
1F
100
AcDbSymbolTableRecord
100
AcDbBlockTableRecord
2
*Model_Space
340
0
70
0
0
BLOCK_RECORD
5
1B
100
AcDbSymbolTableRecord
100
AcDbBlockTableRecord
2
*Paper_Space
340
0
70
0
0
BLOCK_RECORD
5
23
100
AcDbSymbolTableRecord
100
AcDbBlockTableRecord
2
*Paper_Space0
340
0
70
0
0
BLOCK_RECORD
5
F5
100
AcDbSymbolTableRecord
100
AcDbBlockTableRecord
2
*D1
340
0
70
0
0
BLOCK_RECORD
5
101
100
AcDbSymbolTableRecord
100
AcDbBlockTableRecord
2
_U0
340
0
70
0
0
BLOCK_RECORD
5
10D
100
AcDbSymbolTableRecord
100
AcDbBlockTableRecord
2
*D3
340
0
70
0
0
BLOCK_RECORD
5
11B
100
AcDbSymbolTableRecord
100
AcDbBlockTableRecord
2
_U1
340
0
70
0
0
BLOCK_RECORD
5
127
100
AcDbSymbolTableRecord
100
AcDbBlockTableRecord
2
*D5
340
0
70
0
0
BLOCK_RECORD
5
134
100
AcDbSymbolTableRecord
100
AcDbBlockTableRecord
2
_U2
340
0
70
0
0
BLOCK_RECORD
5
140
100
AcDbSymbolTableRecord
100
AcDbBlockTableRecord
2
*D7
340
0
70
0
0
BLOCK_RECORD
5
14C
100
AcDbSymbolTableRecord
100
AcDbBlockTableRecord
2
_U3
340
0
70
0
0
BLOCK_RECORD
5
158
100
AcDbSymbolTableRecord
100
AcDbBlockTableRecord
2
*D9
340
0
70
0
0
BLOCK_RECORD
5
165
100
AcDbSymbolTableRecord
100
AcDbBlockTableRecord
2
_U4
340
0
70
0
0
ENDTAB
0
ENDSEC
0
SECTION
2
BLOCKS
0
BLOCK
5
20
100
AcDbEntity
8
0
100
AcDbBlockBegin
2
*Model_Space
70
0
10
0
20
0
30
0
3
*Model_Space
0
ENDBLK
5
21
100
AcDbEntity
8
0
100
AcDbBlockEnd
0
BLOCK
5
1C
100
AcDbEntity
8
0
100
AcDbBlockBegin
2
*Paper_Space
70
0
10
0
20
0
30
0
3
*Paper_Space
0
ENDBLK
5
1D
100
AcDbEntity
8
0
100
AcDbBlockEnd
0
BLOCK
5
24
100
AcDbEntity
8
0
100
AcDbBlockBegin
2
*Paper_Space0
70
0
10
0
20
0
30
0
3
*Paper_Space0
0
ENDBLK
5
25
100
AcDbEntity
8
0
100
AcDbBlockEnd
0
BLOCK
5
F6
100
AcDbEntity
8
0
100
AcDbBlockBegin
2
*D1
70
1
10
0
20
0
30
0
3
*D1
0
LINE
5
F8
100
AcDbEntity
8
0
62
256
6
ByLayer
370
-2
48
1
60
0
100
AcDbLine
10
-22.9613
20
-0.0875
30
0
11
-22.9613
21
-41.153504
31
0
39
0
210
0
220
0
230
1
0
LINE
5
F9
100
AcDbEntity
8
0
62
256
6
ByLayer
370
-2
48
1
60
0
100
AcDbLine
10
15.0387
20
-0.5325
30
0
11
15.0387
21
-41.153504
31
0
39
0
210
0
220
0
230
1
0
LINE
5
FA
100
AcDbEntity
8
0
62
256
6
ByLayer
370
-2
48
1
60
0
100
AcDbLine
10
-19.4613
20
-39.153504
30
0
11
11.5387
21
-39.153504
31
0
39
0
210
0
220
0
230
1
0
SOLID
5
FB
100
AcDbEntity
8
0
62
256
6
ByLayer
370
-1
48
1
60
0
100
AcDbTrace
10
-19.4613
20
-38.57017
30
0
11
-19.4613
21
-39.736837
31
0
12
-22.9613
22
-39.153504
32
0
13
-22.9613
23
-39.153504
33
0
39
0
210
0
220
0
230
1
0
SOLID
5
FC
100
AcDbEntity
8
0
62
256
6
ByLayer
370
-1
48
1
60
0
100
AcDbTrace
10
11.5387
20
-39.736837
30
0
11
11.5387
21
-38.57017
31
0
12
15.0387
22
-39.153504
32
0
13
15.0387
23
-39.153504
33
0
39
0
210
0
220
0
230
1
0
MTEXT
5
FD
100
AcDbEntity
8
0
62
256
6
ByLayer
370
18
48
1
60
0
100
AcDbMText
10
-3.9613
20
-33.153504
30
0
210
0
220
0
230
1
1
\A1;38
40
3
41
0
44
1
50
0
71
5
72
5
7
iso_b_vert
0
POINT
5
FE
100
AcDbEntity
8
Defpoints
62
0
6
ByLayer
370
-1
48
1
60
0
100
AcDbPoint
10
-22.9613
20
1.5
30
0
39
0
210
0
220
0
230
1
50
360
0
POINT
5
FF
100
AcDbEntity
8
Defpoints
62
0
6
ByLayer
370
-1
48
1
60
0
100
AcDbPoint
10
15.0387
20
1.055
30
0
39
0
210
0
220
0
230
1
50
360
0
POINT
5
100
100
AcDbEntity
8
Defpoints
62
0
6
ByLayer
370
-1
48
1
60
0
100
AcDbPoint
10
15.0387
20
-39.153504
30
0
39
0
210
0
220
0
230
1
50
360
0
ENDBLK
5
F7
100
AcDbEntity
8
0
100
AcDbBlockEnd
0
BLOCK
5
108
100
AcDbEntity
8
0
100
AcDbBlockBegin
2
_U0
70
0
10
0
20
0
30
0
3
_U0
0
MTEXT
5
102
100
AcDbEntity
8
SK2
62
256
6
ByLayer
370
18
48
1
60
0
100
AcDbMText
10
-8.44367
20
-38.268389
30
0
210
0
220
0
230
1
1
\W0.7468;38.00
40
3
41
0
44
1.084337
50
0
71
7
72
5
7
iso_b_vert
0
LINE
5
103
100
AcDbEntity
8
SK2
62
256
6
ByLayer
370
13
48
1
60
0
100
AcDbLine
10
-22.9613
20
-0.0875
30
0
11
-22.9613
21
-41.153504
31
0
39
0
210
0
220
0
230
1
0
LINE
5
104
100
AcDbEntity
8
SK2
62
256
6
ByLayer
370
13
48
1
60
0
100
AcDbLine
10
15.0387
20
-0.5325
30
0
11
15.0387
21
-41.153504
31
0
39
0
210
0
220
0
230
1
0
LINE
5
105
100
AcDbEntity
8
SK2
62
256
6
ByLayer
370
13
48
1
60
0
100
AcDbLine
10
-22.9613
20
-39.153504
30
0
11
15.0387
21
-39.153504
31
0
39
0
210
0
220
0
230
1
0
SOLID
5
106
100
AcDbEntity
8
SK2
62
256
6
ByLayer
370
18
48
1
60
0
100
AcDbTrace
10
-22.9613
20
-39.153504
30
0
11
-19.461302
21
-38.69272
31
0
12
-19.461298
22
-39.614287
32
0
13
-19.461298
23
-39.614287
33
0
39
0
210
0
220
0
230
1
0
SOLID
5
107
100
AcDbEntity
8
SK2
62
256
6
ByLayer
370
18
48
1
60
0
100
AcDbTrace
10
15.0387
20
-39.153504
30
0
11
11.538702
21
-39.614287
31
0
12
11.538698
22
-38.69272
32
0
13
11.538698
23
-38.69272
33
0
39
0
210
0
220
0
230
1
0
ENDBLK
5
109
100
AcDbEntity
8
0
100
AcDbBlockEnd
0
BLOCK
5
10E
100
AcDbEntity
8
0
100
AcDbBlockBegin
2
*D3
70
1
10
0
20
0
30
0
3
*D3
0
LINE
5
110
100
AcDbEntity
8
0
62
256
6
ByLayer
370
-2
48
1
60
0
100
AcDbLine
10
15.0387
20
-0.5325
30
0
11
15.0387
21
-24.555
31
0
39
0
210
0
220
0
230
1
0
LINE
5
111
100
AcDbEntity
8
0
62
256
6
ByLayer
370
-2
48
1
60
0
100
AcDbLine
10
5.7037
20
-1.5875
30
0
11
5.7037
21
-24.555
31
0
39
0
210
0
220
0
230
1
0
LINE
5
112
100
AcDbEntity
8
0
62
256
6
ByLayer
370
-2
48
1
60
0
100
AcDbLine
10
15.0387
20
-22.555
30
0
11
40.324414
21
-22.555
31
0
39
0
210
0
220
0
230
1
0
LINE
5
113
100
AcDbEntity
8
0
62
256
6
ByLayer
370
-2
48
1
60
0
100
AcDbLine
10
18.5387
20
-22.555
30
0
11
22.0387
21
-22.555
31
0
39
0
210
0
220
0
230
1
0
LINE
5
114
100
AcDbEntity
8
0
62
256
6
ByLayer
370
-2
48
1
60
0
100
AcDbLine
10
2.2037
20
-22.555
30
0
11
-1.2963
21
-22.555
31
0
39
0
210
0
220
0
230
1
0
SOLID
5
115
100
AcDbEntity
8
0
62
256
6
ByLayer
370
-1
48
1
60
0
100
AcDbTrace
10
18.5387
20
-21.971667
30
0
11
18.5387
21
-23.138333
31
0
12
15.0387
22
-22.555
32
0
13
15.0387
23
-22.555
33
0
39
0
210
0
220
0
230
1
0
SOLID
5
116
100
AcDbEntity
8
0
62
256
6
ByLayer
370
-1
48
1
60
0
100
AcDbTrace
10
2.2037
20
-23.138333
30
0
11
2.2037
21
-21.971667
31
0
12
5.7037
22
-22.555
32
0
13
5.7037
23
-22.555
33
0
39
0
210
0
220
0
230
1
0
MTEXT
5
117
100
AcDbEntity
8
0
62
256
6
ByLayer
370
18
48
1
60
0
100
AcDbMText
10
31.181557
20
-16.555
30
0
210
0
220
0
230
1
1
\A1;9.34
40
3
41
0
44
1
50
0
71
5
72
5
7
iso_b_vert
0
POINT
5
118
100
AcDbEntity
8
Defpoints
62
0
6
ByLayer
370
-1
48
1
60
0
100
AcDbPoint
10
15.0387
20
1.055
30
0
39
0
210
0
220
0
230
1
50
360
0
POINT
5
119
100
AcDbEntity
8
Defpoints
62
0
6
ByLayer
370
-1
48
1
60
0
100
AcDbPoint
10
5.7037
20
0
30
0
39
0
210
0
220
0
230
1
50
360
0
POINT
5
11A
100
AcDbEntity
8
Defpoints
62
0
6
ByLayer
370
-1
48
1
60
0
100
AcDbPoint
10
5.7037
20
-22.555
30
0
39
0
210
0
220
0
230
1
50
360
0
ENDBLK
5
10F
100
AcDbEntity
8
0
100
AcDbBlockEnd
0
BLOCK
5
122
100
AcDbEntity
8
0
100
AcDbBlockBegin
2
_U1
70
0
10
0
20
0
30
0
3
_U1
0
MTEXT
5
11C
100
AcDbEntity
8
SK2
62
256
6
ByLayer
370
18
48
1
60
0
100
AcDbMText
10
19.1977
20
-21.669886
30
0
210
0
220
0
230
1
1
\W0.7261;(9.34)
40
3
41
0
44
1.084337
50
0
71
7
72
5
7
iso_b_vert
0
LINE
5
11D
100
AcDbEntity
8
SK2
62
256
6
ByLayer
370
13
48
1
60
0
100
AcDbLine
10
15.0387
20
-0.5325
30
0
11
15.0387
21
-24.555
31
0
39
0
210
0
220
0
230
1
0
LINE
5
11E
100
AcDbEntity
8
SK2
62
256
6
ByLayer
370
13
48
1
60
0
100
AcDbLine
10
5.7037
20
-1.5875
30
0
11
5.7037
21
-24.555
31
0
39
0
210
0
220
0
230
1
0
LINE
5
11F
100
AcDbEntity
8
SK2
62
256
6
ByLayer
370
13
48
1
60
0
100
AcDbLine
10
5.7037
20
-22.555
30
0
11
28.826355
21
-22.555
31
0
39
0
210
0
220
0
230
1
0
SOLID
5
120
100
AcDbEntity
8
SK2
62
256
6
ByLayer
370
18
48
1
60
0
100
AcDbTrace
10
15.0387
20
-22.555
30
0
11
11.538702
21
-23.015784
31
0
12
11.538698
22
-22.094216
32
0
13
11.538698
23
-22.094216
33
0
39
0
210
0
220
0
230
1
0
SOLID
5
121
100
AcDbEntity
8
SK2
62
256
6
ByLayer
370
18
48
1
60
0
100
AcDbTrace
10
5.7037
20
-22.555
30
0
11
9.203698
21
-22.094216
31
0
12
9.203702
22
-23.015784
32
0
13
9.203702
23
-23.015784
33
0
39
0
210
0
220
0
230
1
0
ENDBLK
5
123
100
AcDbEntity
8
0
100
AcDbBlockEnd
0
BLOCK
5
128
100
AcDbEntity
8
0
100
AcDbBlockBegin
2
*D5
70
1
10
0
20
0
30
0
3
*D5
0
LINE
5
12A
100
AcDbEntity
8
0
62
256
6
ByLayer
370
-2
48
1
60
0
100
AcDbLine
10
15.0387
20
-0.5325
30
0
11
15.0387
21
-32.653504
31
0
39
0
210
0
220
0
230
1
0
LINE
5
12B
100
AcDbEntity
8
0
62
256
6
ByLayer
370
-2
48
1
60
0
100
AcDbLine
10
2.5387
20
-1.5875
30
0
11
2.5387
21
-32.653504
31
0
39
0
210
0
220
0
230
1
0
LINE
5
12C
100
AcDbEntity
8
0
62
256
6
ByLayer
370
-2
48
1
60
0
100
AcDbLine
10
18.5387
20
-30.653504
30
0
11
22.0387
21
-30.653504
31
0
39
0
210
0
220
0
230
1
0
LINE
5
12D
100
AcDbEntity
8
0
62
256
6
ByLayer
370
-2
48
1
60
0
100
AcDbLine
10
-0.9613
20
-30.653504
30
0
11
-4.4613
21
-30.653504
31
0
39
0
210
0
220
0
230
1
0
SOLID
5
12E
100
AcDbEntity
8
0
62
256
6
ByLayer
370
-1
48
1
60
0
100
AcDbTrace
10
18.5387
20
-30.07017
30
0
11
18.5387
21
-31.236837
31
0
12
15.0387
22
-30.653504
32
0
13
15.0387
23
-30.653504
33
0
39
0
210
0
220
0
230
1
0
SOLID
5
12F
100
AcDbEntity
8
0
62
256
6
ByLayer
370
-1
48
1
60
0
100
AcDbTrace
10
-0.9613
20
-31.236837
30
0
11
-0.9613
21
-30.07017
31
0
12
2.5387
22
-30.653504
32
0
13
2.5387
23
-30.653504
33
0
39
0
210
0
220
0
230
1
0
MTEXT
5
130
100
AcDbEntity
8
0
62
256
6
ByLayer
370
18
48
1
60
0
100
AcDbMText
10
8.7887
20
-24.653504
30
0
210
0
220
0
230
1
1
\A1;12.5
40
3
41
0
44
1
50
0
71
5
72
5
7
iso_b_vert
0
POINT
5
131
100
AcDbEntity
8
Defpoints
62
0
6
ByLayer
370
-1
48
1
60
0
100
AcDbPoint
10
15.0387
20
1.055
30
0
39
0
210
0
220
0
230
1
50
360
0
POINT
5
132
100
AcDbEntity
8
Defpoints
62
0
6
ByLayer
370
-1
48
1
60
0
100
AcDbPoint
10
2.5387
20
0
30
0
39
0
210
0
220
0
230
1
50
360
0
POINT
5
133
100
AcDbEntity
8
Defpoints
62
0
6
ByLayer
370
-1
48
1
60
0
100
AcDbPoint
10
2.5387
20
-30.653504
30
0
39
0
210
0
220
0
230
1
50
360
0
ENDBLK
5
129
100
AcDbEntity
8
0
100
AcDbBlockEnd
0
BLOCK
5
13B
100
AcDbEntity
8
0
100
AcDbBlockBegin
2
_U2
70
0
10
0
20
0
30
0
3
_U2
0
MTEXT
5
135
100
AcDbEntity
8
SK2
62
256
6
ByLayer
370
18
48
1
60
0
100
AcDbMText
10
4.681272
20
-29.768389
30
0
210
0
220
0
230
1
1
\W0.6864;12.50
40
3
41
0
44
1.084337
50
0
71
7
72
5
7
iso_b_vert
0
LINE
5
136
100
AcDbEntity
8
SK2
62
256
6
ByLayer
370
13
48
1
60
0
100
AcDbLine
10
15.0387
20
-0.5325
30
0
11
15.0387
21
-32.653504
31
0
39
0
210
0
220
0
230
1
0
LINE
5
137
100
AcDbEntity
8
SK2
62
256
6
ByLayer
370
13
48
1
60
0
100
AcDbLine
10
2.5387
20
-1.5875
30
0
11
2.5387
21
-32.653504
31
0
39
0
210
0
220
0
230
1
0
LINE
5
138
100
AcDbEntity
8
SK2
62
256
6
ByLayer
370
13
48
1
60
0
100
AcDbLine
10
15.0387
20
-30.653504
30
0
11
2.5387
21
-30.653504
31
0
39
0
210
0
220
0
230
1
0
SOLID
5
139
100
AcDbEntity
8
SK2
62
256
6
ByLayer
370
18
48
1
60
0
100
AcDbTrace
10
15.0387
20
-30.653504
30
0
11
11.538702
21
-31.114287
31
0
12
11.538698
22
-30.19272
32
0
13
11.538698
23
-30.19272
33
0
39
0
210
0
220
0
230
1
0
SOLID
5
13A
100
AcDbEntity
8
SK2
62
256
6
ByLayer
370
18
48
1
60
0
100
AcDbTrace
10
2.5387
20
-30.653504
30
0
11
6.038698
21
-30.19272
31
0
12
6.038702
22
-31.114287
32
0
13
6.038702
23
-31.114287
33
0
39
0
210
0
220
0
230
1
0
ENDBLK
5
13C
100
AcDbEntity
8
0
100
AcDbBlockEnd
0
BLOCK
5
141
100
AcDbEntity
8
0
100
AcDbBlockBegin
2
*D7
70
1
10
0
20
0
30
0
3
*D7
0
LINE
5
143
100
AcDbEntity
8
0
62
256
6
ByLayer
370
-2
48
1
60
0
100
AcDbLine
10
-22.9613
20
1.5875
30
0
11
-22.9613
21
13.653504
31
0
39
0
210
0
220
0
230
1
0
LINE
5
144
100
AcDbEntity
8
0
62
256
6
ByLayer
370
-2
48
1
60
0
100
AcDbLine
10
0
20
1.5875
30
0
11
0
21
13.653504
31
0
39
0
210
0
220
0
230
1
0
LINE
5
145
100
AcDbEntity
8
0
62
256
6
ByLayer
370
-2
48
1
60
0
100
AcDbLine
10
-19.4613
20
11.653504
30
0
11
-3.5
21
11.653504
31
0
39
0
210
0
220
0
230
1
0
SOLID
5
146
100
AcDbEntity
8
0
62
256
6
ByLayer
370
-1
48
1
60
0
100
AcDbTrace
10
-19.4613
20
12.236837
30
0
11
-19.4613
21
11.07017
31
0
12
-22.9613
22
11.653504
32
0
13
-22.9613
23
11.653504
33
0
39
0
210
0
220
0
230
1
0
SOLID
5
147
100
AcDbEntity
8
0
62
256
6
ByLayer
370
-1
48
1
60
0
100
AcDbTrace
10
-3.5
20
11.07017
30
0
11
-3.5
21
12.236837
31
0
12
0
22
11.653504
32
0
13
0
23
11.653504
33
0
39
0
210
0
220
0
230
1
0
MTEXT
5
148
100
AcDbEntity
8
0
62
256
6
ByLayer
370
18
48
1
60
0
100
AcDbMText
10
-11.48065
20
17.653504
30
0
210
0
220
0
230
1
1
\A1;22.96
40
3
41
0
44
1
50
0
71
5
72
5
7
iso_b_vert
0
POINT
5
149
100
AcDbEntity
8
Defpoints
62
0
6
ByLayer
370
-1
48
1
60
0
100
AcDbPoint
10
-22.9613
20
0
30
0
39
0
210
0
220
0
230
1
50
360
0
POINT
5
14A
100
AcDbEntity
8
Defpoints
62
0
6
ByLayer
370
-1
48
1
60
0
100
AcDbPoint
10
0
20
0
30
0
39
0
210
0
220
0
230
1
50
360
0
POINT
5
14B
100
AcDbEntity
8
Defpoints
62
0
6
ByLayer
370
-1
48
1
60
0
100
AcDbPoint
10
0
20
11.653504
30
0
39
0
210
0
220
0
230
1
50
360
0
ENDBLK
5
142
100
AcDbEntity
8
0
100
AcDbBlockEnd
0
BLOCK
5
153
100
AcDbEntity
8
0
100
AcDbBlockBegin
2
_U3
70
0
10
0
20
0
30
0
3
_U3
0
MTEXT
5
14D
100
AcDbEntity
8
SK2
62
256
6
ByLayer
370
18
48
1
60
0
100
AcDbMText
10
-15.96302
20
12.538618
30
0
210
0
220
0
230
1
1
\W0.7468;22.96
40
3
41
0
44
1.084337
50
0
71
7
72
5
7
iso_b_vert
0
LINE
5
14E
100
AcDbEntity
8
SK2
62
256
6
ByLayer
370
13
48
1
60
0
100
AcDbLine
10
-22.9613
20
1.5875
30
0
11
-22.9613
21
13.653504
31
0
39
0
210
0
220
0
230
1
0
LINE
5
14F
100
AcDbEntity
8
SK2
62
256
6
ByLayer
370
13
48
1
60
0
100
AcDbLine
10
0
20
1.5875
30
0
11
0
21
13.653504
31
0
39
0
210
0
220
0
230
1
0
LINE
5
150
100
AcDbEntity
8
SK2
62
256
6
ByLayer
370
13
48
1
60
0
100
AcDbLine
10
-22.9613
20
11.653504
30
0
11
0
21
11.653504
31
0
39
0
210
0
220
0
230
1
0
SOLID
5
151
100
AcDbEntity
8
SK2
62
256
6
ByLayer
370
18
48
1
60
0
100
AcDbTrace
10
-22.9613
20
11.653504
30
0
11
-19.461302
21
12.114287
31
0
12
-19.461298
22
11.19272
32
0
13
-19.461298
23
11.19272
33
0
39
0
210
0
220
0
230
1
0
SOLID
5
152
100
AcDbEntity
8
SK2
62
256
6
ByLayer
370
18
48
1
60
0
100
AcDbTrace
10
0
20
11.653504
30
0
11
-3.499998
21
11.19272
31
0
12
-3.500002
22
12.114287
32
0
13
-3.500002
23
12.114287
33
0
39
0
210
0
220
0
230
1
0
ENDBLK
5
154
100
AcDbEntity
8
0
100
AcDbBlockEnd
0
BLOCK
5
159
100
AcDbEntity
8
0
100
AcDbBlockBegin
2
*D9
70
1
10
0
20
0
30
0
3
*D9
0
LINE
5
15B
100
AcDbEntity
8
0
62
256
6
ByLayer
370
-2
48
1
60
0
100
AcDbLine
10
15.0387
20
2.6425
30
0
11
15.0387
21
13.653504
31
0
39
0
210
0
220
0
230
1
0
LINE
5
15C
100
AcDbEntity
8
0
62
256
6
ByLayer
370
-2
48
1
60
0
100
AcDbLine
10
0
20
1.5875
30
0
11
0
21
13.653504
31
0
39
0
210
0
220
0
230
1
0
LINE
5
15D
100
AcDbEntity
8
0
62
256
6
ByLayer
370
-2
48
1
60
0
100
AcDbLine
10
18.5387
20
11.653504
30
0
11
22.0387
21
11.653504
31
0
39
0
210
0
220
0
230
1
0
LINE
5
15E
100
AcDbEntity
8
0
62
256
6
ByLayer
370
-2
48
1
60
0
100
AcDbLine
10
-3.5
20
11.653504
30
0
11
-7
21
11.653504
31
0
39
0
210
0
220
0
230
1
0
SOLID
5
15F
100
AcDbEntity
8
0
62
256
6
ByLayer
370
-1
48
1
60
0
100
AcDbTrace
10
18.5387
20
12.236837
30
0
11
18.5387
21
11.07017
31
0
12
15.0387
22
11.653504
32
0
13
15.0387
23
11.653504
33
0
39
0
210
0
220
0
230
1
0
SOLID
5
160
100
AcDbEntity
8
0
62
256
6
ByLayer
370
-1
48
1
60
0
100
AcDbTrace
10
-3.5
20
11.07017
30
0
11
-3.5
21
12.236837
31
0
12
0
22
11.653504
32
0
13
0
23
11.653504
33
0
39
0
210
0
220
0
230
1
0
MTEXT
5
161
100
AcDbEntity
8
0
62
256
6
ByLayer
370
18
48
1
60
0
100
AcDbMText
10
7.51935
20
17.653504
30
0
210
0
220
0
230
1
1
\A1;15.04
40
3
41
0
44
1
50
0
71
5
72
5
7
iso_b_vert
0
POINT
5
162
100
AcDbEntity
8
Defpoints
62
0
6
ByLayer
370
-1
48
1
60
0
100
AcDbPoint
10
15.0387
20
1.055
30
0
39
0
210
0
220
0
230
1
50
360
0
POINT
5
163
100
AcDbEntity
8
Defpoints
62
0
6
ByLayer
370
-1
48
1
60
0
100
AcDbPoint
10
0
20
0
30
0
39
0
210
0
220
0
230
1
50
360
0
POINT
5
164
100
AcDbEntity
8
Defpoints
62
0
6
ByLayer
370
-1
48
1
60
0
100
AcDbPoint
10
0
20
11.653504
30
0
39
0
210
0
220
0
230
1
50
360
0
ENDBLK
5
15A
100
AcDbEntity
8
0
100
AcDbBlockEnd
0
BLOCK
5
16C
100
AcDbEntity
8
0
100
AcDbBlockBegin
2
_U4
70
0
10
0
20
0
30
0
3
_U4
0
MTEXT
5
166
100
AcDbEntity
8
2
62
256
6
ByLayer
370
18
48
1
60
0
100
AcDbMText
10
3.253979
20
12.538618
30
0
210
0
220
0
230
1
1
\W0.7010;15.04
40
3
41
0
44
1.084337
50
0
71
7
72
5
7
iso_b_vert
0
LINE
5
167
100
AcDbEntity
8
2
62
256
6
ByLayer
370
13
48
1
60
0
100
AcDbLine
10
15.0387
20
2.6425
30
0
11
15.0387
21
13.653504
31
0
39
0
210
0
220
0
230
1
0
LINE
5
168
100
AcDbEntity
8
2
62
256
6
ByLayer
370
13
48
1
60
0
100
AcDbLine
10
0
20
1.5875
30
0
11
0
21
13.653504
31
0
39
0
210
0
220
0
230
1
0
LINE
5
169
100
AcDbEntity
8
2
62
256
6
ByLayer
370
13
48
1
60
0
100
AcDbLine
10
15.0387
20
11.653504
30
0
11
0
21
11.653504
31
0
39
0
210
0
220
0
230
1
0
SOLID
5
16A
100
AcDbEntity
8
2
62
256
6
ByLayer
370
18
48
1
60
0
100
AcDbTrace
10
15.0387
20
11.653504
30
0
11
11.538702
21
11.19272
31
0
12
11.538698
22
12.114287
32
0
13
11.538698
23
12.114287
33
0
39
0
210
0
220
0
230
1
0
SOLID
5
16B
100
AcDbEntity
8
2
62
256
6
ByLayer
370
18
48
1
60
0
100
AcDbTrace
10
0
20
11.653504
30
0
11
3.499998
21
12.114287
31
0
12
3.500002
22
11.19272
32
0
13
3.500002
23
11.19272
33
0
39
0
210
0
220
0
230
1
0
ENDBLK
5
16D
100
AcDbEntity
8
0
100
AcDbBlockEnd
0
ENDSEC
0
SECTION
2
ENTITIES
0
ARC
5
BD
100
AcDbEntity
8
1
62
256
6
ByLayer
370
18
48
1
60
0
100
AcDbCircle
39
0
10
1.038744
20
-2.055
30
0
40
1
210
0
220
0
230
1
100
AcDbArc
50
90
51
120
0
ARC
5
BE
100
AcDbEntity
8
1
62
256
6
ByLayer
370
18
48
1
60
0
100
AcDbCircle
39
0
10
1.038744
20
2.055
30
0
40
1
210
0
220
0
230
1
100
AcDbArc
50
240
51
270
0
ARC
5
BF
100
AcDbEntity
8
SK2
62
256
6
ByLayer
370
13
48
1
60
0
100
AcDbCircle
39
0
10
15.0387
20
0
30
0
40
16.35
210
0
220
0
230
1
100
AcDbArc
50
10.57289
51
65
0
ARC
5
C0
100
AcDbEntity
8
SK2
62
256
6
ByLayer
370
13
48
1
60
0
100
AcDbCircle
39
0
10
15.0387
20
0
30
0
40
16.35
210
0
220
0
230
1
100
AcDbArc
50
295
51
349.42711
0
ELLIPSE
5
C1
100
AcDbEntity
8
1
62
256
6
ByLayer
370
18
48
1
60
0
100
AcDbEllipse
10
3.714814
20
1.557155
30
0
11
-1.40285647508822
21
1.20024870880054
31
0
210
0
220
0
230
1
40
0.63912
41
1.27250324333678
42
2.07119066343452
0
POINT
5
70
100
AcDbEntity
8
80
62
256
6
ByLayer
370
18
48
1
60
0
100
AcDbPoint
10
0
20
0
30
0
39
0
210
0
220
0
230
1
50
360
0
POINT
5
72
100
AcDbEntity
8
81
62
256
6
ByLayer
370
18
48
1
60
0
100
AcDbPoint
10
15.0387
20
0
30
0
39
0
210
0
220
0
230
1
50
360
0
POINT
5
74
100
AcDbEntity
8
1
62
256
6
ByLayer
370
18
48
1
60
1
100
AcDbPoint
10
-22.9613
20
1.5
30
0
39
0
210
0
220
0
230
1
50
360
0
POINT
5
76
100
AcDbEntity
8
1
62
256
6
ByLayer
370
18
48
1
60
1
100
AcDbPoint
10
15.0387
20
1.055
30
0
39
0
210
0
220
0
230
1
50
360
0
POINT
5
77
100
AcDbEntity
8
1
62
256
6
ByLayer
370
18
48
1
60
1
100
AcDbPoint
10
15.0387
20
1.055
30
0
39
0
210
0
220
0
230
1
50
360
0
POINT
5
78
100
AcDbEntity
8
1
62
256
6
ByLayer
370
18
48
1
60
1
100
AcDbPoint
10
5.7037
20
0
30
0
39
0
210
0
220
0
230
1
50
360
0
POINT
5
79
100
AcDbEntity
8
1
62
256
6
ByLayer
370
18
48
1
60
1
100
AcDbPoint
10
15.0387
20
1.055
30
0
39
0
210
0
220
0
230
1
50
360
0
POINT
5
7A
100
AcDbEntity
8
1
62
256
6
ByLayer
370
18
48
1
60
1
100
AcDbPoint
10
2.5387
20
0
30
0
39
0
210
0
220
0
230
1
50
360
0
POINT
5
7B
100
AcDbEntity
8
1
62
256
6
ByLayer
370
18
48
1
60
1
100
AcDbPoint
10
-22.9613
20
0
30
0
39
0
210
0
220
0
230
1
50
360
0
POINT
5
7C
100
AcDbEntity
8
1
62
256
6
ByLayer
370
18
48
1
60
1
100
AcDbPoint
10
0
20
0
30
0
39
0
210
0
220
0
230
1
50
360
0
POINT
5
7D
100
AcDbEntity
8
1
62
256
6
ByLayer
370
18
48
1
60
1
100
AcDbPoint
10
15.0387
20
1.055
30
0
39
0
210
0
220
0
230
1
50
360
0
POINT
5
7E
100
AcDbEntity
8
1
62
256
6
ByLayer
370
18
48
1
60
1
100
AcDbPoint
10
0
20
0
30
0
39
0
210
0
220
0
230
1
50
360
0
SPLINE
5
C2
100
AcDbEntity
8
1
62
256
6
ByLayer
370
18
48
1
60
0
100
AcDbSpline
70
4
71
3
72
18
73
14
40
0
40
0
40
0
40
0
40
0.25
40
0.25
40
0.5
40
0.5
40
0.625
40
0.625
40
0.687499999999996
40
0.687499999999996
40
0.749999999999991
40
0.749999999999991
40
1
40
1
40
1
40
1
41
1
10
2.56930294692788
20
1.05289630932995
30
0
41
1
10
2.66376570363957
20
1.05436420858482
30
0
41
1
10
2.7586990829671
20
1.05471781009203
30
0
41
1
10
2.94947627163987
20
1.05503865097739
30
0
41
1
10
3.04532017944081
20
1.05500127294368
30
0
41
1
10
3.1897771842155
20
1.05499228358403
30
0
41
1
10
3.23804502400463
20
1.05498683113129
30
0
41
1
10
3.31062404261752
20
1.0549213488292
30
0
41
1
10
3.33483483769987
20
1.05488921606695
30
0
41
1
10
3.38303599138257
20
1.05478773408285
30
0
41
1
10
3.40706085447135
20
1.05471835873701
30
0
41
1
10
3.52680939261191
20
1.05422359732822
30
0
41
1
10
3.62140992821625
20
1.05340727528676
30
0
41
1
10
3.71481400003176
20
1.0510567380698
30
0
0
SPLINE
5
C3
100
AcDbEntity
8
1
62
256
6
ByLayer
370
18
48
1
60
0
100
AcDbSpline
70
4
71
3
72
78
73
74
40
0
40
0
40
0
40
0
40
0.0032844606289537
40
0.0032844606289537
40
0.0065689212579074
40
0.0065689212579074
40
0.0131378425158172
40
0.0131378425158172
40
0.0262756850316367
40
0.0262756850316367
40
0.0394135275474563
40
0.0394135275474563
40
0.0459824488053661
40
0.0459824488053661
40
0.0525513700632759
40
0.0525513700632759
40
0.0788270550949102
40
0.0788270550949102
40
0.105102740126544
40
0.105102740126544
40
0.157654110189813
40
0.157654110189813
40
0.183929795221447
40
0.183929795221447
40
0.210205480253082
40
0.210205480253082
40
0.262756850316348
40
0.262756850316348
40
0.289032535347982
40
0.289032535347982
40
0.315308220379616
40
0.315308220379616
40
0.367859590442883
40
0.367859590442883
40
0.394135275474517
40
0.394135275474517
40
0.420410960506152
40
0.420410960506152
40
0.472962330569418
40
0.472962330569418
40
0.499238015601052
40
0.499238015601052
40
0.525513700632686
40
0.525513700632686
40
0.551789385664321
40
0.551789385664321
40
0.578065070695955
40
0.578065070695955
40
0.630616440759224
40
0.630616440759224
40
0.656892125790858
40
0.656892125790858
40
0.683167810822492
40
0.683167810822492
40
0.735719180885761
40
0.735719180885761
40
0.761994865917395
40
0.761994865917395
40
0.78827055094903
40
0.78827055094903
40
0.840821921012298
40
0.840821921012298
40
0.867097606043933
40
0.867097606043933
40
0.893373291075567
40
0.893373291075567
40
0.945924661138833
40
0.945924661138833
40
0.972200346170465
40
0.972200346170465
40
0.998476031202098
40
0.998476031202098
40
1
40
1
40
1
40
1
41
1
10
14.5467454206566
20
-1.01689817479118
30
0
41
1
10
14.5390351294022
20
-1.01610895048861
30
0
41
1
10
14.5316441619224
20
-1.0151586588573
30
0
41
1
10
14.5172047930921
20
-1.01305246546215
30
0
41
1
10
14.5101596489748
20
-1.01189506754878
30
0
41
1
10
14.4892613854596
20
-1.00822901275603
30
0
41
1
10
14.4756475612899
20
-1.00551961204857
30
0
41
1
10
14.4339791161873
20
-0.997517539026717
30
0
41
1
10
14.4051781394751
20
-0.992375981745766
30
0
41
1
10
14.3482806452697
20
-0.981036485914927
30
0
41
1
10
14.3202182576363
20
-0.974760672929051
30
0
41
1
10
14.2779126912577
20
-0.964973636616236
30
0
41
1
10
14.2637622910408
20
-0.961661160250713
30
0
41
1
10
14.2354695892521
20
-0.954867001149523
30
0
41
1
10
14.2213368861947
20
-0.951377670860325
30
0
41
1
10
14.1507243282015
20
-0.933478109167396
30
0
41
1
10
14.0942918580576
20
-0.917787713436951
30
0
41
1
10
13.981319985847
20
-0.883851524998249
30
0
41
1
10
13.924759439171
20
-0.865563278880558
30
0
41
1
10
13.7552029433933
20
-0.807057629816995
30
0
41
1
10
13.6425071273554
20
-0.76338474852497
30
0
41
1
10
13.4733876423296
20
-0.691609420070591
30
0
41
1
10
13.416981488715
20
-0.66666467837058
30
0
41
1
10
13.3040002538286
20
-0.614864881786445
30
0
41
1
10
13.2473995412116
20
-0.587985316910363
30
0
41
1
10
13.0780475920291
20
-0.505098815115787
30
0
41
1
10
12.965402411362
20
-0.446829951009334
30
0
41
1
10
12.7962065381603
20
-0.35587110212407
30
0
41
1
10
12.7397525342859
20
-0.324986303204184
30
0
41
1
10
12.6266191712074
20
-0.262268161810113
30
0
41
1
10
12.5701578989721
20
-0.230534626086353
30
0
41
1
10
12.4009472012523
20
-0.134549328786306
30
0
41
1
10
12.2882953194822
20
-0.0696028531616264
30
0
41
1
10
12.1189399965853
20
0.028196064545341
30
0
41
1
10
12.0623388359191
20
0.0608711434649365
30
0
41
1
10
11.9493475769395
20
0.125819135327674
30
0
41
1
10
11.8929404503583
20
0.158116991209624
30
0
41
1
10
11.7238197250249
20
0.254200582019223
30
0
41
1
10
11.6111359803735
20
0.31705658409021
30
0
41
1
10
11.441595362943
20
0.408501370986727
30
0
41
1
10
11.3850427566298
20
0.438439301003115
30
0
41
1
10
11.2721744248982
20
0.496836108817689
30
0
41
1
10
11.215806000223
20
0.525342903408131
30
0
41
1
10
11.1030848257861
20
0.580798583960956
30
0
41
1
10
11.0467130953048
20
0.607719490440331
30
0
41
1
10
10.9338419643636
20
0.659794556522655
30
0
41
1
10
10.877290346851
20
0.684986056120891
30
0
41
1
10
10.7077321683672
20
0.757489627458909
30
0
41
1
10
10.595041811758
20
0.801542524422672
30
0
41
1
10
10.4259181452927
20
0.860532903876361
30
0
41
1
10
10.369513875804
20
0.878997620583988
30
0
41
1
10
10.2565304138877
20
0.913405102735823
30
0
41
1
10
10.1999336417952
20
0.929358248185196
30
0
41
1
10
10.030589377108
20
0.973050991764751
30
0
41
1
10
9.91794488265336
20
0.996672846518294
30
0
41
1
10
9.74874568578548
20
1.02348157699521
30
0
41
1
10
9.69228387782303
20
1.03096914025349
30
0
41
1
10
9.57914635974331
20
1.04298673629589
30
0
41
1
10
9.52268837219731
20
1.04749541919841
30
0
41
1
10
9.35348070681215
20
1.05651135042581
30
0
41
1
10
9.24082028602248
20
1.05650502818995
30
0
41
1
10
9.0714656270936
20
1.04744521654226
30
0
41
1
10
9.0148615648352
20
1.04290940208256
30
0
41
1
10
8.90187954467243
20
1.03088092779856
30
0
41
1
10
8.84547676902085
20
1.02338901316207
30
0
41
1
10
8.67636452940152
20
0.996563533099931
30
0
41
1
10
8.56367911244621
20
0.972921778802714
30
0
41
1
10
8.39412822343419
20
0.929136409562886
30
0
41
1
10
8.33758075281037
20
0.913185153152568
30
0
41
1
10
8.22471552696987
20
0.878793507251231
30
0
41
1
10
8.16834717567366
20
0.860330291312323
30
0
41
1
10
8.10871347081411
20
0.839520561709207
30
0
41
1
10
8.10544433941914
20
0.838375767248351
30
0
41
1
10
8.10217516772138
20
0.837226973454733
30
0
0
SPLINE
5
C4
100
AcDbEntity
8
1
62
256
6
ByLayer
370
18
48
1
60
0
100
AcDbSpline
70
4
71
3
72
22
73
18
40
0
40
0
40
0
40
0
40
0.0244294661131493
40
0.0244294661131493
40
0.187024555094293
40
0.187024555094293
40
0.349619644075437
40
0.349619644075437
40
0.51221473305658
40
0.51221473305658
40
0.674809822037724
40
0.674809822037724
40
0.75610736652829
40
0.75610736652829
40
0.837404911018856
40
0.837404911018856
40
1
40
1
40
1
40
1
41
1
10
14.8459946195432
20
-0.413256540673672
30
0
41
1
10
14.8437819065479
20
-0.417981525190299
30
0
41
1
10
14.8415543057743
20
-0.422710275482188
30
0
41
1
10
14.8244042763358
20
-0.458945705006442
30
0
41
1
10
14.8089081767948
20
-0.490638349807
30
0
41
1
10
14.7773804029663
20
-0.554438342168339
30
0
41
1
10
14.7613270402029
20
-0.586577579213923
30
0
41
1
10
14.7289452666576
20
-0.651190538331406
30
0
41
1
10
14.7126275475798
20
-0.683596105039612
30
0
41
1
10
14.6797893809004
20
-0.748854352457926
30
0
41
1
10
14.6632709198426
20
-0.781711647866047
30
0
41
1
10
14.6383738993055
20
-0.83174364834295
30
0
41
1
10
14.6300504876742
20
-0.848570736135031
30
0
41
1
10
14.6133779253232
20
-0.882401879780957
30
0
41
1
10
14.6050294302624
20
-0.899400330473924
30
0
41
1
10
14.5799900175155
20
-0.950326604378745
30
0
41
1
10
14.5633092581173
20
-0.984186140176291
30
0
41
1
10
14.5467454206489
20
-1.01689817478174
30
0
0
SPLINE
5
C5
100
AcDbEntity
8
1
62
256
6
ByLayer
370
18
48
1
60
0
100
AcDbSpline
70
4
71
3
72
26
73
22
40
0
40
0
40
0
40
0
40
0.0300480774630708
40
0.0300480774630708
40
0.0600961549261417
40
0.0600961549261417
40
0.120192309852262
40
0.120192309852262
40
0.240384619704502
40
0.240384619704502
40
0.360576929556741
40
0.360576929556741
40
0.42067308448285
40
0.42067308448285
40
0.480769239408959
40
0.480769239408959
40
0.721153859113394
40
0.721153859113394
40
0.96153847881783
40
0.96153847881783
40
1
40
1
40
1
40
1
41
1
10
14.5467454206572
20
1.01689817479149
30
0
41
1
10
14.5390351294028
20
1.01610895048896
30
0
41
1
10
14.5316441619225
20
1.01515865885733
30
0
41
1
10
14.5172047930923
20
1.01305246546218
30
0
41
1
10
14.510159648975
20
1.01189506754881
30
0
41
1
10
14.4892613854598
20
1.00822901275606
30
0
41
1
10
14.4756475612901
20
1.00551961204863
30
0
41
1
10
14.4339791161876
20
0.997517539026774
30
0
41
1
10
14.4051781394753
20
0.992375981745795
30
0
41
1
10
14.3482806452698
20
0.981036485914956
30
0
41
1
10
14.3202182576364
20
0.974760672929079
30
0
41
1
10
14.2779126912578
20
0.964973636616293
30
0
41
1
10
14.263762291041
20
0.961661160250742
30
0
41
1
10
14.2354695892522
20
0.954867001149552
30
0
41
1
10
14.2213368861948
20
0.951377670860381
30
0
41
1
10
14.1507243282016
20
0.933478109167424
30
0
41
1
10
14.0942918580577
20
0.917787713436979
30
0
41
1
10
13.981319985847
20
0.883851524998249
30
0
41
1
10
13.9247594391708
20
0.865563278880501
30
0
41
1
10
13.8591975983621
20
0.842941096033854
30
0
41
1
10
13.8501567773032
20
0.839790913898696
30
0
41
1
10
13.8411179431827
20
0.836611101243648
30
0
0
SPLINE
5
C6
100
AcDbEntity
8
1
62
256
6
ByLayer
370
18
48
1
60
0
100
AcDbSpline
70
4
71
3
72
56
73
52
40
0
40
0
40
0
40
0
40
0.0303029939259363
40
0.0303029939259363
40
0.0606060253657531
40
0.0606060253657531
40
0.0909090568055698
40
0.0909090568055698
40
0.1515151196852
40
0.1515151196852
40
0.181818151125017
40
0.181818151125017
40
0.212121182564832
40
0.212121182564832
40
0.242424214004648
40
0.242424214004648
40
0.272727245444463
40
0.272727245444463
40
0.333333308324092
40
0.333333308324092
40
0.363636339763907
40
0.363636339763907
40
0.393939371203722
40
0.393939371203722
40
0.454545434083351
40
0.454545434083351
40
0.484848465523165
40
0.484848465523165
40
0.51515149696298
40
0.51515149696298
40
0.575757559842611
40
0.575757559842611
40
0.606060591282426
40
0.606060591282426
40
0.636363622722241
40
0.636363622722241
40
0.696969685601872
40
0.696969685601872
40
0.727272717041687
40
0.727272717041687
40
0.757575748481502
40
0.757575748481502
40
0.787878779921316
40
0.787878779921316
40
0.803030295641223
40
0.803030295641223
40
0.818181811361129
40
0.818181811361129
40
0.878787874240753
40
0.878787874240753
40
1
40
1
40
1
40
1
41
1
10
9.29713803757153
20
-1.05500187738215
30
0
41
1
10
9.24075947511199
20
-1.05499663639847
30
0
41
1
10
9.18436866316083
20
-1.05348508723546
30
0
41
1
10
9.07146562709266
20
-1.0474452165422
30
0
41
1
10
9.01486156483421
20
-1.04290940208247
30
0
41
1
10
8.90187954467163
20
-1.03088092779848
30
0
41
1
10
8.84547676902008
20
-1.02338901316196
30
0
41
1
10
8.67636452940079
20
-0.996563533099788
30
0
41
1
10
8.56367911244536
20
-0.972921778802544
30
0
41
1
10
8.39412822343297
20
-0.929136409562545
30
0
41
1
10
8.33758075280934
20
-0.913185153152256
30
0
41
1
10
8.22471552696899
20
-0.878793507250947
30
0
41
1
10
8.16834717567281
20
-0.860330291312039
30
0
41
1
10
8.05561797006706
20
-0.820992398545513
30
0
41
1
10
7.99924464577572
20
-0.800131017214056
30
0
41
1
10
7.88636815787746
20
-0.756145455020828
30
0
41
1
10
7.82980942007109
20
-0.732984398892228
30
0
41
1
10
7.66025863390806
20
-0.660458909195654
30
0
41
1
10
7.54757324585657
20
-0.608251532048229
30
0
41
1
10
7.37845652175773
20
-0.525041293492734
30
0
41
1
10
7.32205117045189
20
-0.496514239682881
30
0
41
1
10
7.20906269010919
20
-0.438043212693287
30
0
41
1
10
7.15246835543593
20
-0.408073574624609
30
0
41
1
10
6.98313772165909
20
-0.316723060779992
30
0
41
1
10
6.87048938755214
20
-0.25388941550753
30
0
41
1
10
6.70127851769078
20
-0.157745019333703
30
0
41
1
10
6.64480523559857
20
-0.125411244982388
30
0
41
1
10
6.53167176087379
20
-0.0603782243942135
30
0
41
1
10
6.47521656411664
20
-0.0277829700453651
30
0
41
1
10
6.30600752684143
20
0.0699295481774129
30
0
41
1
10
6.19335417667284
20
0.134876336045096
30
0
41
1
10
6.02399160988821
20
0.230942446604558
30
0
41
1
10
5.96739001386231
20
0.262746858774619
30
0
41
1
10
5.85441523069127
20
0.325369578956156
30
0
41
1
10
5.79801685933273
20
0.356224014589685
30
0
41
1
10
5.62890659248154
20
0.447122146083643
30
0
41
1
10
5.5162205747821
20
0.505408183619352
30
0
41
1
10
5.34665461488183
20
0.588377843522437
30
0
41
1
10
5.29011189586549
20
0.615217838537291
30
0
41
1
10
5.17724791701841
20
0.666948353990875
30
0
41
1
10
5.12087591276455
20
0.691872915107012
30
0
41
1
10
5.0081459594924
20
0.739702162247113
30
0
41
1
10
4.95176863182559
20
0.762582148210015
30
0
41
1
10
4.86710782285351
20
0.795254488391919
30
0
41
1
10
4.83887191185065
20
0.805870809266366
30
0
41
1
10
4.7823582696978
20
0.826540052716382
30
0
41
1
10
4.75406111089475
20
0.836601297414944
30
0
41
1
10
4.61287078996406
20
0.885289298060798
30
0
41
1
10
4.50056607183524
20
0.919113574670376
30
0
41
1
10
4.16439793690722
20
1.00449361166918
30
0
41
1
10
3.94103780347137
20
1.03976740497248
30
0
41
1
10
3.71481399999999
20
1.05105673807046
30
0
0
SPLINE
5
C7
100
AcDbEntity
8
1
62
256
6
ByLayer
370
18
48
1
60
0
100
AcDbSpline
70
4
71
3
72
26
73
22
40
0
40
0
40
0
40
0
40
0.0625000000000026
40
0.0625000000000026
40
0.125000000000005
40
0.125000000000005
40
0.250000000000003
40
0.250000000000003
40
0.375000000000001
40
0.375000000000001
40
0.499999999999999
40
0.499999999999999
40
0.624999999999997
40
0.624999999999997
40
0.749999999999995
40
0.749999999999995
40
0.812499999999994
40
0.812499999999994
40
0.874999999999993
40
0.874999999999993
40
1
40
1
40
1
40
1
41
1
10
14.9157111371209
20
0.239108532435921
30
0
41
1
10
14.911222035826
20
0.25494072582373
30
0
41
1
10
14.9059694407186
20
0.270668373276266
30
0
41
1
10
14.8944819092252
20
0.30204261576597
30
0
41
1
10
14.8882450513415
20
0.317688970437302
30
0
41
1
10
14.8685772452728
20
0.364632988213941
30
0
41
1
10
14.8542240030682
20
0.395941113071558
30
0
41
1
10
14.8244042763358
20
0.458945705006414
30
0
41
1
10
14.8089081767948
20
0.490638349807
30
0
41
1
10
14.7773804029663
20
0.554438342168311
30
0
41
1
10
14.7613270402029
20
0.586577579213895
30
0
41
1
10
14.7289452666576
20
0.651190538331377
30
0
41
1
10
14.7126275475798
20
0.683596105039584
30
0
41
1
10
14.6797893809004
20
0.748854352457869
30
0
41
1
10
14.6632709198426
20
0.78171164786599
30
0
41
1
10
14.6383738993055
20
0.831743648342893
30
0
41
1
10
14.6300504876742
20
0.848570736134974
30
0
41
1
10
14.6133779253232
20
0.8824018797809
30
0
41
1
10
14.6050294302624
20
0.899400330473867
30
0
41
1
10
14.5799900175155
20
0.950326604378688
30
0
41
1
10
14.5633092581174
20
0.984186140176206
30
0
41
1
10
14.546745420649
20
1.01689817478169
30
0
0
SPLINE
5
C8
100
AcDbEntity
8
1
62
256
6
ByLayer
370
18
48
1
60
0
100
AcDbSpline
70
4
71
3
72
70
73
66
40
0
40
0
40
0
40
0
40
0.0278943387345471
40
0.0278943387345471
40
0.0522988683434877
40
0.0522988683434877
40
0.0767033979524283
40
0.0767033979524283
40
0.125512457170311
40
0.125512457170311
40
0.149916986779252
40
0.149916986779252
40
0.174321516388194
40
0.174321516388194
40
0.198726045997136
40
0.198726045997136
40
0.223130575606078
40
0.223130575606078
40
0.271939634823963
40
0.271939634823963
40
0.296344164432908
40
0.296344164432908
40
0.320748694041852
40
0.320748694041852
40
0.369557753259737
40
0.369557753259737
40
0.393962282868679
40
0.393962282868679
40
0.418366812477621
40
0.418366812477621
40
0.467175871695506
40
0.467175871695506
40
0.491580401304449
40
0.491580401304449
40
0.515984930913392
40
0.515984930913392
40
0.56479399013128
40
0.56479399013128
40
0.589198519740225
40
0.589198519740225
40
0.61360304934917
40
0.61360304934917
40
0.638007578958115
40
0.638007578958115
40
0.66241210856706
40
0.66241210856706
40
0.711221167784952
40
0.711221167784952
40
0.735625697393897
40
0.735625697393897
40
0.760030227002843
40
0.760030227002843
40
0.808839286220733
40
0.808839286220733
40
0.833243815829677
40
0.833243815829677
40
0.857648345438621
40
0.857648345438621
40
0.906457404656509
40
0.906457404656509
40
0.930861934265452
40
0.930861934265452
40
0.955266463874394
40
0.955266463874394
40
1
40
1
40
1
40
1
41
1
10
6.90663711761437
20
1.05500161618457
30
0
41
1
10
6.97104598272722
20
1.05500018428106
30
0
41
1
10
7.03546094174865
20
1.05303190913582
30
0
41
1
10
7.15638249621284
20
1.04565045045217
30
0
41
1
10
7.21295971385032
20
1.0406911407604
30
0
41
1
10
7.32589589371224
20
1.02782926167958
30
0
41
1
10
7.38227595228429
20
1.01992580434069
30
0
41
1
10
7.55132476491056
20
0.991887574430905
30
0
41
1
10
7.66397130482281
20
0.96746646105376
30
0
41
1
10
7.83347383487089
20
0.922578938787808
30
0
41
1
10
7.89000222228279
20
0.906268724173401
30
0
41
1
10
8.00282951620466
20
0.871183732384367
30
0
41
1
10
8.05917920133362
20
0.852386148096116
30
0
41
1
10
8.17186557782927
20
0.812399250207164
30
0
41
1
10
8.22821476501815
20
0.791223227284604
30
0
41
1
10
8.3410434127716
20
0.746635830560422
30
0
41
1
10
8.39757786334403
20
0.723187009230799
30
0
41
1
10
8.5670491440689
20
0.64983072961175
30
0
41
1
10
8.67968900869937
20
0.597141060599398
30
0
41
1
10
8.84874053842768
20
0.513314826474641
30
0
41
1
10
8.90512537649724
20
0.484601585342062
30
0
41
1
10
9.01807275984422
20
0.425794355616148
30
0
41
1
10
9.07465186228023
20
0.395681206045253
30
0
41
1
10
9.2439319549901
20
0.303948134057094
30
0
41
1
10
9.35654884329335
20
0.24093932289631
30
0
41
1
10
9.52569899998662
20
0.14462603601433
30
0
41
1
10
9.5821469269242
20
0.112250560693013
30
0
41
1
10
9.69523656709981
20
0.0471693952671615
30
0
41
1
10
9.75167034362238
20
0.014570501488862
30
0
41
1
10
9.92079940156938
20
-0.0831218166668179
30
0
41
1
10
10.0334021151338
20
-0.147972439659554
30
0
41
1
10
10.2026916312211
20
-0.243773934727074
30
0
41
1
10
10.259269711847
20
-0.275470751978219
30
0
41
1
10
10.3722034233287
20
-0.337840023067059
30
0
41
1
10
10.4285837230026
20
-0.368545454389192
30
0
41
1
10
10.5976402475921
20
-0.458943570026719
30
0
41
1
10
10.7102911842808
20
-0.51682598673392
30
0
41
1
10
10.8797963375384
20
-0.599104305976084
30
0
41
1
10
10.9363199065498
20
-0.625705196165683
30
0
41
1
10
11.0491436472228
20
-0.676926291363941
30
0
41
1
10
11.1054923824263
20
-0.701586005355068
30
0
41
1
10
11.2181707111394
20
-0.748863720673285
30
0
41
1
10
11.2745195739597
20
-0.771457263820224
30
0
41
1
10
11.3873496669677
20
-0.814414622848318
30
0
41
1
10
11.4438864580563
20
-0.834810483958876
30
0
41
1
10
11.6133524745563
20
-0.892298889034976
30
0
41
1
10
11.7259911360323
20
-0.925556088952675
30
0
41
1
10
11.8950509486395
20
-0.967360971226071
30
0
41
1
10
11.9514390387143
20
-0.97993429944276
30
0
41
1
10
12.0643935838312
20
-1.0022740295762
30
0
41
1
10
12.1209704284109
20
-1.01204243163141
30
0
41
1
10
12.2902544865231
20
-1.0368986249631
30
0
41
1
10
12.4028630771706
20
-1.04757955090327
30
0
41
1
10
12.5720147844021
20
-1.05460883562981
30
0
41
1
10
12.6284647178809
20
-1.05544928841149
30
0
41
1
10
12.7415478531189
20
-1.0540994046313
30
0
41
1
10
12.7979776433582
20
-1.05191180446533
30
0
41
1
10
12.9671047658742
20
-1.04085892908657
30
0
41
1
10
13.0797086811827
20
-1.02752440109933
30
0
41
1
10
13.2490035894179
20
-0.998766215486569
30
0
41
1
10
13.3055852708212
20
-0.98771157134027
30
0
41
1
10
13.4185156454046
20
-0.962858861848559
30
0
41
1
10
13.4748955474126
20
-0.949055121112764
30
0
41
1
10
13.6345254478218
20
-0.906171196833043
30
0
41
1
10
13.7377642218182
20
-0.874004347249013
30
0
41
1
10
13.8412600760738
20
-0.837672073801173
30
0
0
SPLINE
5
C9
100
AcDbEntity
8
1
62
256
6
ByLayer
370
18
48
1
60
0
100
AcDbSpline
70
4
71
3
72
45
73
41
40
0
40
0
40
0
40
0
40
0.0147419162418873
40
0.0438952792244331
40
0.0584719607157062
40
0.087625323698252
40
0.116778686680798
40
0.145932049663343
40
0.175085412645889
40
0.204238775628435
40
0.226103797865344
40
0.247968820102253
40
0.277122183084799
40
0.306275546067345
40
0.335428909049891
40
0.364582272032437
40
0.393735635014982
40
0.408312316506255
40
0.437465679488801
40
0.466619042471347
40
0.495772405453892
40
0.524925768436438
40
0.554079131418984
40
0.568655812910257
40
0.597809175892802
40
0.626962538875348
40
0.656115901857894
40
0.68526926484044
40
0.714422627822985
40
0.736287650059895
40
0.758152672296804
40
0.78730603527935
40
0.816459398261896
40
0.845612761244442
40
0.874766124226987
40
0.896631146463897
40
0.918496168700806
40
0.947649531683352
40
0.976802894665897
40
1
40
1
40
1
40
1
41
1
10
9.46472706887368
20
0.193744510296938
30
0
41
1
10
9.47963889820303
20
0.192283577215761
30
0
41
1
10
9.52404010774967
20
0.187875815848827
30
0
41
1
10
9.58318600741476
20
0.181784809230038
30
0
41
1
10
9.65690945789182
20
0.173928482891682
30
0
41
1
10
9.73063290867345
20
0.165818762434839
30
0
41
1
10
9.81910104868234
20
0.155683449347265
30
0
41
1
10
9.90756919114781
20
0.14518809216176
30
0
41
1
10
9.99603732522814
20
0.134359170989256
30
0
41
0.999999999999999
10
10.0771331487047
20
0.124141978288151
30
0
41
1
10
10.1508564701461
20
0.114636284089016
30
0
41
1
10
10.2245796969011
20
0.10496387662576
30
0
41
1
10
10.3056751218373
20
0.0941322315303523
30
0
41
1
10
10.3941427303627
20
0.0820972477995383
30
0
41
1
10
10.4826102338563
20
0.0698624397839467
30
0
41
1
10
10.5710776559665
20
0.0574620386632034
30
0
41
1
10
10.644800459417
20
0.0470266715851722
30
0
41
1
10
10.7185232413204
20
0.0365237331232322
30
0
41
1
10
10.7922460090042
20
0.0259620826790297
30
0
41
1
10
10.8807133309472
20
0.0132173558152431
30
0
41
1
10
10.9691806770794
20
0.0004532280379692
30
0
41
1
10
11.0576480708808
20
-0.0123100766734296
30
0
41
1
10
11.1313709582937
20
-0.0229293462546991
30
0
41
1
10
11.2050939049807
20
-0.0335180235301493
30
0
41
1
10
11.2788169175422
20
-0.0440543247331106
30
0
41
1
10
11.3672846642295
20
-0.0565878049107198
30
0
41
1
10
11.4557525593704
20
-0.0689933928940434
30
0
41
1
10
11.5442206479244
20
-0.0812484160770168
30
0
41
1
10
11.6253163746142
20
-0.0922962980040723
30
0
41
1
10
11.6990397697397
20
-0.102179289536593
30
0
41
1
10
11.7727631625987
20
-0.111911916688029
30
0
41
1
10
11.8538588952983
20
-0.122419403076606
30
0
41
1
10
11.9423269672107
20
-0.133587643650799
30
0
41
1
10
12.0307950391517
20
-0.144437161358752
30
0
41
1
10
12.1118907717564
20
-0.154073300345885
30
0
41
1
10
12.1856141650359
20
-0.162575552804441
30
0
41
0.999999999999999
10
12.2593375583146
20
-0.170837175776143
30
0
41
1
10
12.3404332909216
20
-0.179600930109728
30
0
41
1
10
12.422876458966
20
-0.18811753554823
30
0
41
1
10
12.4758302697002
20
-0.193354571205361
30
0
41
1
10
12.4992947231216
20
-0.195626970101131
30
0
0
SPLINE
5
CA
100
AcDbEntity
8
1
62
256
6
ByLayer
370
18
48
1
60
0
100
AcDbSpline
70
4
71
3
72
46
73
42
40
0
40
0
40
0
40
0
40
0.0771575213048809
40
0.0771575213048809
40
0.115736281957322
40
0.115736281957322
40
0.154315042609764
40
0.154315042609764
40
0.231472563914646
40
0.231472563914646
40
0.270051324567087
40
0.270051324567087
40
0.308630085219527
40
0.308630085219527
40
0.347208845871968
40
0.347208845871968
40
0.385787606524408
40
0.385787606524408
40
0.462945127829287
40
0.462945127829287
40
0.501523888481727
40
0.501523888481727
40
0.540102649134166
40
0.540102649134166
40
0.617260170439047
40
0.617260170439047
40
0.655838931091488
40
0.655838931091488
40
0.694417691743928
40
0.694417691743928
40
0.771575213048809
40
0.771575213048809
40
0.810153973701249
40
0.810153973701249
40
0.848732734353688
40
0.848732734353688
40
0.925890255658567
40
0.925890255658567
40
0.964469016311008
40
0.964469016311008
40
1
40
1
40
1
40
1
41
1
10
3.71481400000002
20
0.184587555866329
30
0
41
1
10
3.82788260806723
20
0.120272840155025
30
0
41
1
10
3.94068562324858
20
0.0551603311814404
30
0
41
1
10
4.11007840362498
20
-0.0426877986522811
30
0
41
1
10
4.16665089941989
20
-0.0753368295873145
30
0
41
1
10
4.27958603993161
20
-0.140182141241638
30
0
41
1
10
4.33596591660515
20
-0.17240883321773
30
0
41
1
10
4.50500922402
20
-0.268216956019273
30
0
41
1
10
4.61765442525768
20
-0.330794831241065
30
0
41
1
10
4.78714543463667
20
-0.421704525149352
30
0
41
1
10
4.84367843315587
20
-0.451441083607875
30
0
41
1
10
4.95650825345575
20
-0.509408266536155
30
0
41
1
10
5.01286092500959
20
-0.537678688185338
30
0
41
1
10
5.12554814474157
20
-0.592634408599935
30
0
41
1
10
5.18190141802546
20
-0.619292235834877
30
0
41
1
10
5.2947304017512
20
-0.67081821829558
30
0
41
1
10
5.35126271915777
20
-0.695719100803018
30
0
41
1
10
5.52074541096152
20
-0.767313040235024
30
0
41
1
10
5.63338388464541
20
-0.810708727822259
30
0
41
1
10
5.80243469473393
20
-0.868638816327433
30
0
41
1
10
5.85881597522018
20
-0.886737528461254
30
0
41
1
10
5.97175846019354
20
-0.920388812832925
30
0
41
1
10
6.02833455440648
20
-0.935951920561564
30
0
41
1
10
6.1976192583378
20
-0.978452833225106
30
0
41
1
10
6.31022918949327
20
-1.00125052582263
30
0
41
1
10
6.47938207183196
20
-1.02679725946072
30
0
41
1
10
6.53582504142369
20
-1.03386273225632
30
0
41
1
10
6.64892137072837
20
-1.04502857022368
30
0
41
1
10
6.70535871066039
20
-1.04911026090494
30
0
41
1
10
6.87449652861744
20
-1.05684497361221
30
0
41
1
10
6.987103480256
20
-1.05598381134743
30
0
41
1
10
7.15638249621284
20
-1.04565045045217
30
0
41
1
10
7.21295971385035
20
-1.0406911407604
30
0
41
1
10
7.32589589371224
20
-1.02782926167958
30
0
41
1
10
7.38227595228432
20
-1.01992580434069
30
0
41
1
10
7.55132476491056
20
-0.991887574430905
30
0
41
1
10
7.66397130482281
20
-0.96746646105376
30
0
41
1
10
7.83347383487092
20
-0.922578938787808
30
0
41
1
10
7.89000222228276
20
-0.90626872417343
30
0
41
1
10
7.99837275785566
20
-0.872569614511349
30
0
41
1
10
8.05027539158687
20
-0.855348386597854
30
0
41
1
10
8.10216866357061
20
-0.837108811682214
30
0
0
SPLINE
5
CB
100
AcDbEntity
8
1
62
256
6
ByLayer
370
18
48
1
60
0
100
AcDbSpline
70
4
71
3
72
36
73
32
40
0
40
0
40
0
40
0
40
0.019695293232843
40
0.019695293232843
40
0.108813902938946
40
0.108813902938946
40
0.28705112235115
40
0.28705112235115
40
0.376169732057257
40
0.376169732057257
40
0.465288341763363
40
0.465288341763363
40
0.643525561175576
40
0.643525561175576
40
0.732644170881683
40
0.732644170881683
40
0.821762780587789
40
0.821762780587789
40
0.844042433014316
40
0.844042433014316
40
0.866322085440842
40
0.866322085440842
40
0.910881390293895
40
0.910881390293895
40
0.955440695146948
40
0.955440695146948
40
0.977720347573474
40
0.977720347573474
40
0.988860173786737
40
0.988860173786737
40
1
40
1
40
1
40
1
41
1
10
12.6475322232307
20
1.05499993048585
30
0
41
1
10
12.6600192860204
20
1.0549986580599
30
0
41
1
10
12.6725105479903
20
1.0549235092887
30
0
41
1
10
12.7415478531189
20
1.0540994046313
30
0
41
1
10
12.7979776433582
20
1.05191180446533
30
0
41
1
10
12.9671047658742
20
1.04085892908657
30
0
41
1
10
13.0797086811827
20
1.02752440109933
30
0
41
1
10
13.2490035894179
20
0.998766215486569
30
0
41
1
10
13.3055852708212
20
0.98771157134027
30
0
41
1
10
13.4185156454046
20
0.962858861848531
30
0
41
1
10
13.4748955474126
20
0.949055121112764
30
0
41
1
10
13.6439352474513
20
0.90364329238804
30
0
41
1
10
13.7565753318356
20
0.868106429209945
30
0
41
1
10
13.926043620284
20
0.807404094105976
30
0
41
1
10
13.9825844009308
20
0.785972158009258
30
0
41
1
10
14.0954050899095
20
0.741038264688626
30
0
41
1
10
14.1517221624665
20
0.717473508043554
30
0
41
1
10
14.2221432519751
20
0.686828574291525
30
0
41
1
10
14.2362355011314
20
0.680649176526657
30
0
41
1
10
14.2644409474404
20
0.668197488501534
30
0
41
1
10
14.2785439097518
20
0.66191193319932
30
0
41
1
10
14.32070188556
20
0.642664563555854
30
0
41
1
10
14.3486561176787
20
0.629369043177491
30
0
41
1
10
14.4053852919244
20
0.603452250204953
30
0
41
1
10
14.4341114072025
20
0.590795211010175
30
0
41
1
10
14.4757119618933
20
0.569243915503677
30
0
41
1
10
14.4893120344917
20
0.561593218597352
30
0
41
1
10
14.5101931090106
20
0.550729514120206
30
0
41
1
10
14.5172330875945
20
0.547210527185854
30
0
41
1
10
14.5316606159385
20
0.540671111391418
30
0
41
1
10
14.5390450041333
20
0.537645843230109
30
0
41
1
10
14.5467454206465
20
0.535094354350576
30
0
0
SPLINE
5
CC
100
AcDbEntity
8
1
62
256
6
ByLayer
370
18
48
1
60
0
100
AcDbSpline
70
4
71
3
72
26
73
22
40
0
40
0
40
0
40
0
40
0.125000000000009
40
0.125000000000009
40
0.187500000000009
40
0.187500000000009
40
0.250000000000009
40
0.250000000000009
40
0.375000000000009
40
0.375000000000009
40
0.500000000000009
40
0.500000000000009
40
0.625000000000008
40
0.625000000000008
40
0.750000000000008
40
0.750000000000008
40
0.812500000000008
40
0.812500000000008
40
0.875000000000008
40
0.875000000000008
40
1
40
1
40
1
40
1
41
1
10
14.5467454206465
20
0.535094354350576
30
0
41
1
10
14.5632361227678
20
0.511148640262292
30
0
41
1
10
14.5797407177559
20
0.491528381232911
30
0
41
1
10
14.6045383790266
20
0.464743553506622
30
0
41
1
10
14.6128091477599
20
0.456258155979725
30
0
41
1
10
14.6293540311215
20
0.439657832367175
30
0
41
1
10
14.6376279545072
20
0.431531982949309
30
0
41
1
10
14.6624480182438
20
0.407179025689885
30
0
41
1
10
14.6789876621567
20
0.391190388341897
30
0
41
1
10
14.7118487058467
20
0.36140208756936
30
0
41
1
10
14.7281743989941
20
0.347645389380944
30
0
41
1
10
14.7604753667422
20
0.322897396143503
30
0
41
1
10
14.7764658658039
20
0.311755021640067
30
0
41
1
10
14.8079587288377
20
0.291421857013887
30
0
41
1
10
14.823472045909
20
0.282240509274288
30
0
41
1
10
14.8459825631715
20
0.27009923217102
30
0
41
1
10
14.8533564545138
20
0.266323242210149
30
0
41
1
10
14.8677093167109
20
0.259328605990078
30
0
41
1
10
14.8747005553096
20
0.256105202008115
30
0
41
1
10
14.8946592405531
20
0.247317192645227
30
0
41
1
10
14.9067073574306
20
0.242633199609912
30
0
41
1
10
14.9157111371209
20
0.239108532435921
30
0
0
SPLINE
5
CD
100
AcDbEntity
8
1
62
256
6
ByLayer
370
18
48
1
60
0
100
AcDbSpline
70
4
71
3
72
44
73
40
40
0
40
0
40
0
40
0
40
0.0579026558032927
40
0.0796161517295275
40
0.101329647655762
40
0.130280975557409
40
0.159232303459055
40
0.188183631360701
40
0.217134959262348
40
0.246086287163994
40
0.260561951114817
40
0.289513279016464
40
0.31846460691811
40
0.347415934819756
40
0.376367262721403
40
0.405318590623049
40
0.427032086549284
40
0.448745582475518
40
0.477696910377165
40
0.506648238278811
40
0.535599566180458
40
0.564550894082104
40
0.586264390008339
40
0.607977885934574
40
0.63692921383622
40
0.665880541737866
40
0.694831869639513
40
0.723783197541159
40
0.752734525442805
40
0.767210189393629
40
0.796161517295275
40
0.825112845196921
40
0.854064173098568
40
0.883015501000214
40
0.91196682890186
40
0.926442492852683
40
0.95539382075433
40
0.984345148655976
40
1
40
1
40
1
40
1
41
1
10
3.71481399999999
20
0.194645313647925
30
0
41
1
10
3.77379167674462
20
0.188897163582794
30
0
41
1
10
3.85488521756207
20
0.180582644252013
30
0
41
1
10
3.95809577072066
20
0.169336081001916
30
0
41
1
10
4.03181796106074
20
0.161051329489254
30
0
41
1
10
4.11291371998991
20
0.1516279268088
30
0
41
1
10
4.20138195813971
20
0.141001359699828
30
0
41
0.999999999999999
10
4.28985016619524
20
0.130046867458532
30
0
41
1
10
4.37831838276796
20
0.118780643376112
30
0
41
1
10
4.45204189398109
20
0.109154842210671
30
0
41
1
10
4.52576540618778
20
0.0993808607343567
30
0
41
1
10
4.59948891815006
20
0.0894626301385415
30
0
41
1
10
4.68795713256523
20
0.0773475256045799
30
0
41
1
10
4.77642534696827
20
0.0650405539709595
30
0
41
1
10
4.86489356137443
20
0.0525938905408054
30
0
41
1
10
4.9459894245791
20
0.0410734204505445
30
0
41
1
10
5.0197129365838
20
0.0305299625255771
30
0
41
1
10
5.09343644858799
20
0.0199326242603206
30
0
41
1
10
5.17453231179391
20
0.0082433776917128
30
0
41
1
10
5.26300052619661
20
-0.004523481971944
30
0
41
1
10
5.35146874061138
20
-0.0172817431197814
30
0
41
1
10
5.43256460377816
20
-0.0289517367682777
30
0
41
1
10
5.50628811595319
20
-0.0395027492076849
30
0
41
1
10
5.58001162721803
20
-0.0499933171489602
30
0
41
1
10
5.66110749279142
20
-0.0614388350844024
30
0
41
1
10
5.7495756952236
20
-0.0737929112492566
30
0
41
1
10
5.83804388383237
20
-0.0859718550490243
30
0
41
1
10
5.92651206014179
20
-0.0979391657720328
30
0
41
1
10
6.00023553125754
20
-0.107722555072883
30
0
41
1
10
6.07395899638752
20
-0.117349423404789
30
0
41
1
10
6.14768245595618
20
-0.126809973591946
30
0
41
1
10
6.23615059991692
20
-0.137854786326699
30
0
41
1
10
6.32461873773016
20
-0.148575413056023
30
0
41
1
10
6.41308687077026
20
-0.158953226644542
30
0
41
1
10
6.48681031213897
20
-0.167294849509176
30
0
41
1
10
6.56053375223957
20
-0.175381735259208
30
0
41
1
10
6.63425719151644
20
-0.183213909960529
30
0
41
1
10
6.70918173287234
20
-0.190812464037464
30
0
41
1
10
6.75461689911137
20
-0.1952453373396
30
0
41
1
10
6.77056268935189
20
-0.196778585080864
30
0
0
SPLINE
5
CE
100
AcDbEntity
8
1
62
256
6
ByLayer
370
18
48
1
60
0
100
AcDbSpline
70
4
71
3
72
45
73
41
40
0
40
0
40
0
40
0
40
0.124999999999997
40
0.124999999999997
40
0.187499999999995
40
0.187499999999995
40
0.249999999999993
40
0.249999999999993
40
0.312499999999992
40
0.312499999999992
40
0.37499999999999
40
0.37499999999999
40
0.499999999999991
40
0.499999999999991
40
0.531249999999992
40
0.531249999999992
40
0.562499999999993
40
0.562499999999993
40
0.624999999999995
40
0.624999999999995
40
0.687499999999997
40
0.687499999999997
40
0.703124999999998
40
0.703124999999998
40
0.718749999999999
40
0.75
40
0.75
40
0.812500000000002
40
0.812500000000002
40
0.828125000000002
40
0.828125000000002
40
0.843750000000002
40
0.843750000000002
40
0.875000000000002
40
0.875000000000002
40
0.937500000000001
40
0.937500000000001
40
0.968750000000001
40
0.968750000000001
40
1
40
1
40
1
40
1
41
1
10
3.71481400000002
20
0.184587555866329
30
0
41
1
10
3.63442310680287
20
0.2076468750017
30
0
41
1
10
3.55565121437269
20
0.234939521362122
30
0
41
1
10
3.43991964933727
20
0.281872390690353
30
0
41
1
10
3.40176557206817
20
0.298514057232353
30
0
41
1
10
3.32670801489664
20
0.333539929136265
30
0
41
1
10
3.28975098285034
20
0.35194497679575
30
0
41
1
10
3.21700113590933
20
0.390457320173681
30
0
41
1
10
3.18111247627815
20
0.410625259613568
30
0
41
1
10
3.11127243394429
20
0.452145322286299
30
0
41
1
10
3.07726676557047
20
0.473519475540939
30
0
41
1
10
2.97806713486966
20
0.539231695199106
30
0
41
1
10
2.91565466720476
20
0.585160565045527
30
0
41
1
10
2.84293014293371
20
0.644403723558469
30
0
41
1
10
2.8286526529902
20
0.656343874702884
30
0
41
1
10
2.80066302504679
20
0.680385792914706
30
0
41
1
10
2.78690576739046
20
0.692528983292164
30
0
41
1
10
2.74690822040006
20
0.728831635046362
30
0
41
1
10
2.72200000759634
20
0.752797026296378
30
0
41
1
10
2.67593820194847
20
0.799891488382087
30
0
41
1
10
2.65478010205348
20
0.823022712591978
30
0
41
1
10
2.63097384025696
20
0.851141090002386
30
0
41
1
10
2.6263459444809
20
0.856724874216866
30
0
41
1
10
2.61744871092131
20
0.867700236573626
30
0
41
1
10
2.60460677536568
20
0.883914755315402
30
0
41
1
10
2.59328035121428
20
0.899359223749428
30
0
41
1
10
2.57268722667999
20
0.92914730316005
30
0
41
1
10
2.56168967931526
20
0.94754436956265
30
0
41
1
10
2.55167755639709
20
0.968396126131722
30
0
41
1
10
2.54986305847822
20
0.97245876748849
30
0
41
1
10
2.546623275955
20
0.980358450053103
30
0
41
1
10
2.54519910798371
20
0.984196060395334
30
0
41
1
10
2.54157235983121
20
0.995214650176877
30
0
41
1
10
2.53999148065037
20
1.00195442099866
30
0
41
1
10
2.5377056723496
20
1.0203808168516
30
0
41
1
10
2.53944242574374
20
1.03028074229397
30
0
41
1
10
2.54700140168623
20
1.0415391624754
30
0
41
1
10
2.5503689123511
20
1.04469588509232
30
0
41
1
10
2.55866738327558
20
1.04972274703783
30
0
41
1
10
2.56360143042238
20
1.05160889149513
30
0
41
1
10
2.56930294692791
20
1.05289630932995
30
0
0
LINE
5
7F
100
AcDbEntity
8
1
62
256
6
ByLayer
370
18
48
1
60
0
100
AcDbLine
10
0
20
1.5
30
0
11
0
21
0
31
0
39
0
210
0
220
0
230
1
0
LINE
5
80
100
AcDbEntity
8
1
62
256
6
ByLayer
370
18
48
1
60
0
100
AcDbLine
10
0
20
0
30
0
11
0
21
-1.5
31
0
39
0
210
0
220
0
230
1
0
LINE
5
81
100
AcDbEntity
8
1
62
256
6
ByLayer
370
18
48
1
60
0
100
AcDbLine
10
14.546745
20
0.535094
30
0
11
14.546745
21
-1.016898
31
0
39
0
210
0
220
0
230
1
0
LINE
5
82
100
AcDbEntity
8
1
62
256
6
ByLayer
370
18
48
1
60
0
100
AcDbLine
10
3.714814
20
1.051057
30
0
11
3.714814
21
0.194645
31
0
39
0
210
0
220
0
230
1
0
LINE
5
83
100
AcDbEntity
8
1
62
256
6
ByLayer
370
13
48
1
60
0
100
AcDbLine
10
1.038744
20
1.055
30
0
11
1.038744
21
-1.055
31
0
39
0
210
0
220
0
230
1
0
LINE
5
84
100
AcDbEntity
8
1
62
256
6
ByLayer
370
18
48
1
60
0
100
AcDbLine
10
3.2E-05
20
1.5
30
0
11
3.2E-05
21
-1.5
31
0
39
0
210
0
220
0
230
1
0
LINE
5
85
100
AcDbEntity
8
1
62
256
6
ByLayer
370
13
48
1
60
0
100
AcDbLine
10
0.538744
20
1.188975
30
0
11
0.538744
21
-1.188975
31
0
39
0
210
0
220
0
230
1
0
LINE
5
86
100
AcDbEntity
8
SK1
62
256
6
ByLayer
370
18
48
1
60
0
100
AcDbLine
10
-22.9613
20
1.326795
30
0
11
-22.9613
21
-1.326795
31
0
39
0
210
0
220
0
230
1
0
LINE
5
88
100
AcDbEntity
8
SK1
62
256
6
ByLayer
370
18
48
1
60
0
100
AcDbLine
10
0
20
1.5
30
0
11
0
21
0
31
0
39
0
210
0
220
0
230
1
0
LINE
5
89
100
AcDbEntity
8
SK1
62
256
6
ByLayer
370
18
48
1
60
0
100
AcDbLine
10
0
20
0
30
0
11
0
21
-1.5
31
0
39
0
210
0
220
0
230
1
0
LINE
5
8A
100
AcDbEntity
8
SK1
62
256
6
ByLayer
370
18
48
1
60
0
100
AcDbLine
10
-22.6613
20
1.5
30
0
11
-22.6613
21
-1.5
31
0
39
0
210
0
220
0
230
1
0
LINE
5
8B
100
AcDbEntity
8
1
62
256
6
ByLayer
370
18
48
1
60
0
100
AcDbLine
10
15.0387
20
0
30
0
11
14.845473
21
0.414376
31
0
39
0
210
0
220
0
230
1
0
LINE
5
8C
100
AcDbEntity
8
1
62
256
6
ByLayer
370
18
48
1
60
0
100
AcDbLine
10
14.845473
20
-0.414376
30
0
11
15.0387
21
0
31
0
39
0
210
0
220
0
230
1
0
LINE
5
8D
100
AcDbEntity
8
1
62
256
6
ByLayer
370
18
48
1
60
0
100
AcDbLine
10
1.038744
20
-1.055
30
0
11
3.097417
21
-1.055
31
0
39
0
210
0
220
0
230
1
0
LINE
5
8E
100
AcDbEntity
8
1
62
256
6
ByLayer
370
18
48
1
60
0
100
AcDbLine
10
3.097417
20
-1.055
30
0
11
6.906566
21
-1.055
31
0
39
0
210
0
220
0
230
1
0
LINE
5
8F
100
AcDbEntity
8
1
62
256
6
ByLayer
370
18
48
1
60
0
100
AcDbLine
10
6.906566
20
1.055
30
0
11
3.097417
21
1.055
31
0
39
0
210
0
220
0
230
1
0
LINE
5
90
100
AcDbEntity
8
1
62
256
6
ByLayer
370
18
48
1
60
0
100
AcDbLine
10
3.097417
20
1.055
30
0
11
1.038744
21
1.055
31
0
39
0
210
0
220
0
230
1
0
LINE
5
91
100
AcDbEntity
8
1
62
256
6
ByLayer
370
18
48
1
60
0
100
AcDbLine
10
0
20
-1.5
30
0
11
3.2E-05
21
-1.5
31
0
39
0
210
0
220
0
230
1
0
LINE
5
92
100
AcDbEntity
8
1
62
256
6
ByLayer
370
18
48
1
60
0
100
AcDbLine
10
3.2E-05
20
1.5
30
0
11
0
21
1.5
31
0
39
0
210
0
220
0
230
1
0
LINE
5
93
100
AcDbEntity
8
1
62
256
6
ByLayer
370
18
48
1
60
0
100
AcDbLine
10
9.297281
20
-1.055
30
0
11
12.647467
21
-1.055
31
0
39
0
210
0
220
0
230
1
0
LINE
5
94
100
AcDbEntity
8
1
62
256
6
ByLayer
370
18
48
1
60
0
100
AcDbLine
10
12.647467
20
1.055
30
0
11
9.297281
21
1.055
31
0
39
0
210
0
220
0
230
1
0
LINE
5
95
100
AcDbEntity
8
1
62
256
6
ByLayer
370
18
48
1
60
0
100
AcDbLine
10
0.538744
20
1.188975
30
0
11
3.2E-05
21
1.5
31
0
39
0
210
0
220
0
230
1
0
LINE
5
96
100
AcDbEntity
8
1
62
256
6
ByLayer
370
18
48
1
60
0
100
AcDbLine
10
3.2E-05
20
-1.5
30
0
11
0.538744
21
-1.188975
31
0
39
0
210
0
220
0
230
1
0
LINE
5
97
100
AcDbEntity
8
SK1
62
256
6
ByLayer
370
18
48
1
60
0
100
AcDbLine
10
-22.9613
20
-1.326795
30
0
11
-22.6613
21
-1.5
31
0
39
0
210
0
220
0
230
1
0
LINE
5
98
100
AcDbEntity
8
SK1
62
256
6
ByLayer
370
18
48
1
60
0
100
AcDbLine
10
-22.6613
20
1.5
30
0
11
-22.9613
21
1.326795
31
0
39
0
210
0
220
0
230
1
0
LINE
5
99
100
AcDbEntity
8
SK1
62
256
6
ByLayer
370
18
48
1
60
0
100
AcDbLine
10
-22.6613
20
-1.5
30
0
11
0
21
-1.5
31
0
39
0
210
0
220
0
230
1
0
LINE
5
9A
100
AcDbEntity
8
SK1
62
256
6
ByLayer
370
18
48
1
60
0
100
AcDbLine
10
0
20
1.5
30
0
11
-22.6613
21
1.5
31
0
39
0
210
0
220
0
230
1
0
LINE
5
9B
100
AcDbEntity
8
4
62
256
6
ByLayer
370
18
48
0.05
60
0
100
AcDbLine
10
0
20
0
30
0
11
15.0387
21
0
31
0
39
0
210
0
220
0
230
1
0
LINE
5
9D
100
AcDbEntity
8
81
62
256
6
ByLayer
370
18
48
1
60
0
100
AcDbLine
10
15.0387
20
0
30
0
11
18.0387
21
0
31
0
39
0
210
0
220
0
230
1
0
LINE
5
9E
100
AcDbEntity
8
80
62
256
6
ByLayer
370
18
48
1
60
0
100
AcDbLine
10
0
20
0
30
0
11
-3
21
0
31
0
39
0
210
0
220
0
230
1
0
LINE
5
9F
100
AcDbEntity
8
SK4
62
256
6
ByLayer
370
18
48
0.05
60
0
100
AcDbLine
10
-25.9613
20
0
30
0
11
18.0387
21
0
31
0
39
0
210
0
220
0
230
1
0
LINE
5
A1
100
AcDbEntity
8
SK2
62
256
6
ByLayer
370
13
48
1
60
0
100
AcDbLine
10
-27.4613
20
-9
30
0
11
-27.4613
21
21.782741
31
0
39
0
210
0
220
0
230
1
0
LINE
5
A3
100
AcDbEntity
8
SK2
62
256
6
ByLayer
370
13
48
1
60
0
100
AcDbLine
10
-24.5488
20
-1.5
30
0
11
-29.4613
21
-1.5
31
0
39
0
210
0
220
0
230
1
0
LINE
5
A4
100
AcDbEntity
8
SK2
62
256
6
ByLayer
370
13
48
1
60
0
100
AcDbLine
10
-24.5488
20
1.5
30
0
11
-29.4613
21
1.5
31
0
39
0
210
0
220
0
230
1
0
LINE
5
A5
100
AcDbEntity
8
1
62
256
6
ByLayer
370
18
48
1
60
1
100
AcDbLine
10
-27.4613
20
-1.5
30
0
11
-27.000516
21
-4.999998
31
0
39
0
210
0
220
0
230
1
0
LINE
5
A6
100
AcDbEntity
8
1
62
256
6
ByLayer
370
18
48
1
60
1
100
AcDbLine
10
-27.000516
20
-4.999998
30
0
11
-27.922084
21
-5.000002
31
0
39
0
210
0
220
0
230
1
0
LINE
5
A7
100
AcDbEntity
8
1
62
256
6
ByLayer
370
18
48
1
60
1
100
AcDbLine
10
-27.922084
20
-5.000002
30
0
11
-27.4613
21
-1.5
31
0
39
0
210
0
220
0
230
1
0
LINE
5
A8
100
AcDbEntity
8
1
62
256
6
ByLayer
370
18
48
1
60
1
100
AcDbLine
10
-27.4613
20
1.5
30
0
11
-27.922084
21
4.999998
31
0
39
0
210
0
220
0
230
1
0
LINE
5
A9
100
AcDbEntity
8
1
62
256
6
ByLayer
370
18
48
1
60
1
100
AcDbLine
10
-27.922084
20
4.999998
30
0
11
-27.000516
21
5.000002
31
0
39
0
210
0
220
0
230
1
0
LINE
5
AA
100
AcDbEntity
8
1
62
256
6
ByLayer
370
18
48
1
60
1
100
AcDbLine
10
-27.000516
20
5.000002
30
0
11
-27.4613
21
1.5
31
0
39
0
210
0
220
0
230
1
0
LINE
5
AB
100
AcDbEntity
8
2
62
256
6
ByLayer
370
13
48
1
60
0
100
AcDbLine
10
20.5387
20
-8.555
30
0
11
20.5387
21
28.22797
31
0
39
0
210
0
220
0
230
1
0
LINE
5
AD
100
AcDbEntity
8
2
62
256
6
ByLayer
370
13
48
1
60
0
100
AcDbLine
10
16.6262
20
-1.055
30
0
11
22.5387
21
-1.055
31
0
39
0
210
0
220
0
230
1
0
LINE
5
AE
100
AcDbEntity
8
2
62
256
6
ByLayer
370
13
48
1
60
0
100
AcDbLine
10
16.6262
20
1.055
30
0
11
22.5387
21
1.055
31
0
39
0
210
0
220
0
230
1
0
LINE
5
AF
100
AcDbEntity
8
1
62
256
6
ByLayer
370
18
48
1
60
1
100
AcDbLine
10
20.5387
20
-1.055
30
0
11
20.999484
21
-4.554998
31
0
39
0
210
0
220
0
230
1
0
LINE
5
B0
100
AcDbEntity
8
1
62
256
6
ByLayer
370
18
48
1
60
1
100
AcDbLine
10
20.999484
20
-4.554998
30
0
11
20.077916
21
-4.555002
31
0
39
0
210
0
220
0
230
1
0
LINE
5
B1
100
AcDbEntity
8
1
62
256
6
ByLayer
370
18
48
1
60
1
100
AcDbLine
10
20.077916
20
-4.555002
30
0
11
20.5387
21
-1.055
31
0
39
0
210
0
220
0
230
1
0
LINE
5
B2
100
AcDbEntity
8
1
62
256
6
ByLayer
370
18
48
1
60
1
100
AcDbLine
10
20.5387
20
1.055
30
0
11
20.077916
21
4.554998
31
0
39
0
210
0
220
0
230
1
0
LINE
5
B3
100
AcDbEntity
8
1
62
256
6
ByLayer
370
18
48
1
60
1
100
AcDbLine
10
20.077916
20
4.554998
30
0
11
20.999484
21
4.555002
31
0
39
0
210
0
220
0
230
1
0
LINE
5
B4
100
AcDbEntity
8
1
62
256
6
ByLayer
370
18
48
1
60
1
100
AcDbLine
10
20.999484
20
4.555002
30
0
11
20.5387
21
1.055
31
0
39
0
210
0
220
0
230
1
0
LINE
5
B5
100
AcDbEntity
8
SK2
62
256
6
ByLayer
370
13
48
1
60
0
100
AcDbLine
10
15.709606
20
-1.438764
30
0
11
22.793745
21
-16.630748
31
0
39
0
210
0
220
0
230
1
0
LINE
5
B6
100
AcDbEntity
8
SK2
62
256
6
ByLayer
370
13
48
1
60
0
100
AcDbLine
10
15.709606
20
1.438764
30
0
11
22.793745
21
16.630748
31
0
39
0
210
0
220
0
230
1
0
LINE
5
B7
100
AcDbEntity
8
1
62
256
6
ByLayer
370
18
48
1
60
1
100
AcDbLine
10
21.948509
20
-14.818132
30
0
11
24.820542
21
-12.765394
31
0
39
0
210
0
220
0
230
1
0
LINE
5
B8
100
AcDbEntity
8
1
62
256
6
ByLayer
370
18
48
1
60
1
100
AcDbLine
10
24.820542
20
-12.765394
30
0
11
25.253971
21
-13.578675
31
0
39
0
210
0
220
0
230
1
0
LINE
5
B9
100
AcDbEntity
8
1
62
256
6
ByLayer
370
18
48
1
60
1
100
AcDbLine
10
25.253971
20
-13.578675
30
0
11
21.948509
21
-14.818132
31
0
39
0
210
0
220
0
230
1
0
LINE
5
BA
100
AcDbEntity
8
1
62
256
6
ByLayer
370
18
48
1
60
1
100
AcDbLine
10
21.948509
20
14.818132
30
0
11
25.253968
21
13.578677
31
0
39
0
210
0
220
0
230
1
0
LINE
5
BB
100
AcDbEntity
8
1
62
256
6
ByLayer
370
18
48
1
60
1
100
AcDbLine
10
25.253968
20
13.578677
30
0
11
24.820545
21
12.765392
31
0
39
0
210
0
220
0
230
1
0
LINE
5
BC
100
AcDbEntity
8
1
62
256
6
ByLayer
370
18
48
1
60
1
100
AcDbLine
10
24.820545
20
12.765392
30
0
11
21.948509
21
14.818132
31
0
39
0
210
0
220
0
230
1
0
LINE
5
D3
100
AcDbEntity
8
1
62
256
6
ByLayer
370
18
48
1
60
1
100
AcDbLine
10
-27.4613
20
-1.5
30
0
11
-27.000516
21
-4.999998
31
0
39
0
210
0
220
0
230
1
0
LINE
5
D4
100
AcDbEntity
8
1
62
256
6
ByLayer
370
18
48
1
60
1
100
AcDbLine
10
-27.000516
20
-4.999998
30
0
11
-27.922084
21
-5.000002
31
0
39
0
210
0
220
0
230
1
0
LINE
5
D5
100
AcDbEntity
8
1
62
256
6
ByLayer
370
18
48
1
60
1
100
AcDbLine
10
-27.922084
20
-5.000002
30
0
11
-27.4613
21
-1.5
31
0
39
0
210
0
220
0
230
1
0
LINE
5
D7
100
AcDbEntity
8
1
62
256
6
ByLayer
370
18
48
1
60
1
100
AcDbLine
10
-27.4613
20
1.5
30
0
11
-27.922084
21
4.999998
31
0
39
0
210
0
220
0
230
1
0
LINE
5
D8
100
AcDbEntity
8
1
62
256
6
ByLayer
370
18
48
1
60
1
100
AcDbLine
10
-27.922084
20
4.999998
30
0
11
-27.000516
21
5.000002
31
0
39
0
210
0
220
0
230
1
0
LINE
5
D9
100
AcDbEntity
8
1
62
256
6
ByLayer
370
18
48
1
60
1
100
AcDbLine
10
-27.000516
20
5.000002
30
0
11
-27.4613
21
1.5
31
0
39
0
210
0
220
0
230
1
0
LINE
5
DD
100
AcDbEntity
8
1
62
256
6
ByLayer
370
18
48
1
60
1
100
AcDbLine
10
20.5387
20
-1.055
30
0
11
20.999484
21
-4.554998
31
0
39
0
210
0
220
0
230
1
0
LINE
5
DE
100
AcDbEntity
8
1
62
256
6
ByLayer
370
18
48
1
60
1
100
AcDbLine
10
20.999484
20
-4.554998
30
0
11
20.077916
21
-4.555002
31
0
39
0
210
0
220
0
230
1
0
LINE
5
DF
100
AcDbEntity
8
1
62
256
6
ByLayer
370
18
48
1
60
1
100
AcDbLine
10
20.077916
20
-4.555002
30
0
11
20.5387
21
-1.055
31
0
39
0
210
0
220
0
230
1
0
LINE
5
E1
100
AcDbEntity
8
1
62
256
6
ByLayer
370
18
48
1
60
1
100
AcDbLine
10
20.5387
20
1.055
30
0
11
20.077916
21
4.554998
31
0
39
0
210
0
220
0
230
1
0
LINE
5
E2
100
AcDbEntity
8
1
62
256
6
ByLayer
370
18
48
1
60
1
100
AcDbLine
10
20.077916
20
4.554998
30
0
11
20.999484
21
4.555002
31
0
39
0
210
0
220
0
230
1
0
LINE
5
E3
100
AcDbEntity
8
1
62
256
6
ByLayer
370
18
48
1
60
1
100
AcDbLine
10
20.999484
20
4.555002
30
0
11
20.5387
21
1.055
31
0
39
0
210
0
220
0
230
1
0
LINE
5
E6
100
AcDbEntity
8
1
62
256
6
ByLayer
370
18
48
1
60
1
100
AcDbLine
10
21.948509
20
-14.818132
30
0
11
24.820542
21
-12.765394
31
0
39
0
210
0
220
0
230
1
0
LINE
5
E7
100
AcDbEntity
8
1
62
256
6
ByLayer
370
18
48
1
60
1
100
AcDbLine
10
24.820542
20
-12.765394
30
0
11
25.253971
21
-13.578675
31
0
39
0
210
0
220
0
230
1
0
LINE
5
E8
100
AcDbEntity
8
1
62
256
6
ByLayer
370
18
48
1
60
1
100
AcDbLine
10
25.253971
20
-13.578675
30
0
11
21.948509
21
-14.818132
31
0
39
0
210
0
220
0
230
1
0
LINE
5
EA
100
AcDbEntity
8
1
62
256
6
ByLayer
370
18
48
1
60
1
100
AcDbLine
10
21.948509
20
14.818132
30
0
11
25.253968
21
13.578677
31
0
39
0
210
0
220
0
230
1
0
LINE
5
EB
100
AcDbEntity
8
1
62
256
6
ByLayer
370
18
48
1
60
1
100
AcDbLine
10
25.253968
20
13.578677
30
0
11
24.820545
21
12.765392
31
0
39
0
210
0
220
0
230
1
0
LINE
5
EC
100
AcDbEntity
8
1
62
256
6
ByLayer
370
18
48
1
60
1
100
AcDbLine
10
24.820545
20
12.765392
30
0
11
21.948509
21
14.818132
31
0
39
0
210
0
220
0
230
1
0
MTEXT
5
CF
100
AcDbEntity
8
SK2
62
256
6
ByLayer
370
18
48
1
60
0
100
AcDbMText
10
-28.802414
20
6.658437
30
0
210
0
220
0
230
1
1
%%c
40
3
41
0
44
1.084337
50
90
71
7
72
5
7
iso_b_vert
0
MTEXT
5
D2
100
AcDbEntity
8
SK2
62
256
6
ByLayer
370
18
48
1
60
0
100
AcDbMText
10
-28.802414
20
12.635
30
0
210
0
220
0
230
1
1
\W0.7468;3.000
40
3
41
0
44
1.084337
50
90
71
7
72
5
7
iso_b_vert
0
MTEXT
5
DB
100
AcDbEntity
8
2
62
256
6
ByLayer
370
18
48
1
60
0
100
AcDbMText
10
19.197586
20
14.603437
30
0
210
0
220
0
230
1
1
%%c
40
3
41
0
44
1.084337
50
90
71
7
72
5
7
iso_b_vert
0
MTEXT
5
DC
100
AcDbEntity
8
2
62
256
6
ByLayer
370
18
48
1
60
0
100
AcDbMText
10
19.197586
20
20.58
30
0
210
0
220
0
230
1
1
\W0.6261;2.110
40
3
41
0
44
1.084337
50
90
71
7
72
5
7
iso_b_vert
0
MTEXT
5
E5
100
AcDbEntity
8
SK2
62
256
6
ByLayer
370
18
48
1
60
0
100
AcDbMText
10
28.105986
20
-2.114886
30
0
210
0
220
0
230
1
1
\W0.6747;130%%d
40
3
41
0
44
1.084337
50
0
71
7
72
5
7
iso_b_vert
0
MTEXT
5
EE
100
AcDbEntity
8
SK6
62
256
6
ByLayer
370
18
48
1
60
0
100
AcDbMText
10
-31.392953
20
-48.114886
30
0
210
0
220
0
230
1
1
\W0.7563;462.1-0211-009A0-XM X0BM
40
3
41
0
44
1.084337
50
0
71
7
72
5
7
iso_b_vert
0
HATCH
5
D6
100
AcDbEntity
8
SK2
62
256
6
ByLayer
370
13
48
1
60
0
100
AcDbHatch
10
0
20
0
30
0
210
0
220
0
230
1
2
ANSI31
70
0
71
0
91
1
92
5
93
3
72
1
10
-27.4613
20
-1.5
11
-27.0005162584472
21
-4.99999830744682
72
1
10
-27.0005162584472
20
-4.99999830744682
11
-27.9220837415528
21
-5.00000169255318
72
1
10
-27.9220837415528
20
-5.00000169255318
11
-27.4613
21
-1.5
97
0
75
0
76
1
52
0
41
0.0062
77
0
78
1
53
45
43
0
44
0
45
-0.0139193969876572
46
0.0139193969876572
79
0
47
0
98
1
10
0
20
0
0
HATCH
5
DA
100
AcDbEntity
8
SK2
62
256
6
ByLayer
370
13
48
1
60
0
100
AcDbHatch
10
0
20
0
30
0
210
0
220
0
230
1
2
ANSI31
70
0
71
0
91
1
92
5
93
3
72
1
10
-27.4613
20
1.5
11
-27.9220837415528
21
4.99999830744682
72
1
10
-27.9220837415528
20
4.99999830744682
11
-27.0005162584472
21
5.00000169255318
72
1
10
-27.0005162584472
20
5.00000169255318
11
-27.4613
21
1.5
97
0
75
0
76
1
52
0
41
0.0062
77
0
78
1
53
45
43
0
44
0
45
-0.0139193969876572
46
0.0139193969876572
79
0
47
0
98
1
10
0
20
0
0
HATCH
5
E0
100
AcDbEntity
8
2
62
256
6
ByLayer
370
13
48
1
60
0
100
AcDbHatch
10
0
20
0
30
0
210
0
220
0
230
1
2
ANSI31
70
0
71
0
91
1
92
5
93
3
72
1
10
20.5387
20
-1.05500000000001
11
20.9994837415528
21
-4.55499830744682
72
1
10
20.9994837415528
20
-4.55499830744682
11
20.0779162584472
21
-4.55500169255319
72
1
10
20.0779162584472
20
-4.55500169255319
11
20.5387
21
-1.05500000000001
97
0
75
0
76
1
52
0
41
0.0062
77
0
78
1
53
45
43
0
44
0
45
-0.0139193969876572
46
0.0139193969876572
79
0
47
0
98
1
10
0
20
0
0
HATCH
5
E4
100
AcDbEntity
8
2
62
256
6
ByLayer
370
13
48
1
60
0
100
AcDbHatch
10
0
20
0
30
0
210
0
220
0
230
1
2
ANSI31
70
0
71
0
91
1
92
5
93
3
72
1
10
20.5387
20
1.05500000000001
11
20.0779162584472
21
4.55499830744682
72
1
10
20.0779162584472
20
4.55499830744682
11
20.9994837415528
21
4.55500169255319
72
1
10
20.9994837415528
20
4.55500169255319
11
20.5387
21
1.05500000000001
97
0
75
0
76
1
52
0
41
0.0062
77
0
78
1
53
45
43
0
44
0
45
-0.0139193969876572
46
0.0139193969876572
79
0
47
0
98
1
10
0
20
0
0
HATCH
5
E9
100
AcDbEntity
8
SK2
62
256
6
ByLayer
370
13
48
1
60
0
100
AcDbHatch
10
0
20
0
30
0
210
0
220
0
230
1
2
ANSI31
70
0
71
0
91
1
92
5
93
3
72
1
10
21.9485085794605
20
-14.8181323180492
11
24.8205418553693
21
-12.765393983365
72
1
10
24.8205418553693
20
-12.765393983365
11
25.2539706127348
21
-13.5786750775861
72
1
10
25.2539706127348
20
-13.5786750775861
11
21.9485085794605
21
-14.8181323180492
97
0
75
0
76
1
52
0
41
0.0062
77
0
78
1
53
45
43
0
44
0
45
-0.0139193969876572
46
0.0139193969876572
79
0
47
0
98
1
10
0
20
0
0
HATCH
5
ED
100
AcDbEntity
8
SK2
62
256
6
ByLayer
370
13
48
1
60
0
100
AcDbHatch
10
0
20
0
30
0
210
0
220
0
230
1
2
ANSI31
70
0
71
0
91
1
92
5
93
3
72
1
10
21.9485085794605
20
14.8181323180492
11
25.2539676253807
21
13.5786766696479
72
1
10
25.2539676253807
20
13.5786766696479
11
24.8205448427234
21
12.7653923913032
72
1
10
24.8205448427234
20
12.7653923913032
11
21.9485085794605
21
14.8181323180492
97
0
75
0
76
1
52
0
41
0.0062
77
0
78
1
53
45
43
0
44
0
45
-0.0139193969876572
46
0.0139193969876572
79
0
47
0
98
1
10
0
20
0
0
DIMENSION
5
F1
100
AcDbEntity
8
SK2
62
256
6
ByLayer
370
18
48
1
60
0
100
AcDbDimension
2
_U0
10
15.0387
20
-39.153504
30
0
11
-3.9613
21
-39.153504
31
0
70
32
71
1
72
1
41
1
210
0
220
0
230
1
3
Standard
100
AcDbAlignedDimension
13
-22.9613
23
1.5
33
0
14
15.0387
24
1.055
34
0
50
0
100
AcDbRotatedDimension
1001
ACAD
1000
DSTYLE
1002
{
1070
   371
1070
    13
1070
   372
1070
    13
1070
     3
1000

1070
   170
1070
     0
1070
   144
1040
1.0
1070
   277
1070
     2
1070
   284
1070
     8
1070
   278
1070
    46
1070
   146
1040
1.166667
1070
   345
1005
16
1070
   347
1005
16
1070
   346
1005
16
1070
   344
1005
0
1070
   343
1005
0
1070
   172
1070
     1
1070
    76
1070
     0
1070
    75
1070
     0
1070
   282
1070
     0
1070
   281
1070
     0
1070
    71
1070
     0
1070
    74
1070
     0
1070
   279
1070
     0
1070
   173
1070
     1
1070
   340
1005
D0
1070
   271
1070
     2
1070
   272
1070
     2
1070
    77
1070
     1
1070
    73
1070
     1
1070
   171
1070
     3
1070
   274
1070
     4
1070
   177
1070
     2
1070
   176
1070
     2
1070
   178
1070
     2
1070
    78
1070
     8
1070
    48
1040
-0.1
1070
    41
1040
3.5
1070
   147
1040
1.5
1070
    42
1040
1.5875
1070
    44
1040
2.0
1070
   140
1040
3.0
1002
}
1001
ACAD_DSTYLE_DIM_LINETYPE
1070
   380
1005
16
1001
ACAD_DSTYLE_DIM_EXT1_LINETYPE
1070
   381
1005
16
1001
ACAD_DSTYLE_DIM_EXT2_LINETYPE
1070
   382
1005
16
0
DIMENSION
5
10A
100
AcDbEntity
8
SK2
62
256
6
ByLayer
370
18
48
1
60
0
100
AcDbDimension
2
_U1
10
5.7037
20
-22.555
30
0
11
31.181557
21
-22.555
31
0
70
32
71
1
72
1
41
1
210
0
220
0
230
1
3
Standard
100
AcDbAlignedDimension
13
15.0387
23
1.055
33
0
14
5.7037
24
0
34
0
50
0
100
AcDbRotatedDimension
1001
ACAD
1000
DSTYLE
1002
{
1070
   371
1070
    13
1070
   372
1070
    13
1070
     3
1000

1070
   170
1070
     0
1070
   144
1040
1.0
1070
   277
1070
     2
1070
   284
1070
     8
1070
   278
1070
    46
1070
   146
1040
1.166667
1070
   345
1005
16
1070
   347
1005
16
1070
   346
1005
16
1070
   344
1005
0
1070
   343
1005
0
1070
   172
1070
     1
1070
    76
1070
     0
1070
    75
1070
     0
1070
   282
1070
     0
1070
   281
1070
     0
1070
    71
1070
     0
1070
    74
1070
     0
1070
   279
1070
     0
1070
   173
1070
     1
1070
   340
1005
D0
1070
   271
1070
     2
1070
   272
1070
     2
1070
    77
1070
     1
1070
    73
1070
     1
1070
   171
1070
     3
1070
   274
1070
     4
1070
   177
1070
     2
1070
   176
1070
     2
1070
   178
1070
     2
1070
    78
1070
     8
1070
    48
1040
-0.1
1070
    41
1040
3.5
1070
   147
1040
1.5
1070
    42
1040
1.5875
1070
    44
1040
2.0
1070
   140
1040
3.0
1002
}
1001
ACAD_DSTYLE_DIM_LINETYPE
1070
   380
1005
16
1001
ACAD_DSTYLE_DIM_EXT1_LINETYPE
1070
   381
1005
16
1001
ACAD_DSTYLE_DIM_EXT2_LINETYPE
1070
   382
1005
16
0
DIMENSION
5
124
100
AcDbEntity
8
SK2
62
256
6
ByLayer
370
18
48
1
60
0
100
AcDbDimension
2
_U2
10
2.5387
20
-30.653504
30
0
11
8.7887
21
-30.653504
31
0
70
32
71
1
72
1
41
1
210
0
220
0
230
1
3
Standard
100
AcDbAlignedDimension
13
15.0387
23
1.055
33
0
14
2.5387
24
0
34
0
50
0
100
AcDbRotatedDimension
1001
ACAD
1000
DSTYLE
1002
{
1070
   371
1070
    13
1070
   372
1070
    13
1070
     3
1000

1070
   170
1070
     0
1070
   144
1040
1.0
1070
   277
1070
     2
1070
   284
1070
     8
1070
   278
1070
    46
1070
   146
1040
1.166667
1070
   345
1005
16
1070
   347
1005
16
1070
   346
1005
16
1070
   344
1005
0
1070
   343
1005
0
1070
   172
1070
     1
1070
    76
1070
     0
1070
    75
1070
     0
1070
   282
1070
     0
1070
   281
1070
     0
1070
    71
1070
     0
1070
    74
1070
     0
1070
   279
1070
     0
1070
   173
1070
     1
1070
   340
1005
D0
1070
   271
1070
     2
1070
   272
1070
     2
1070
    77
1070
     1
1070
    73
1070
     1
1070
   171
1070
     3
1070
   274
1070
     4
1070
   177
1070
     2
1070
   176
1070
     2
1070
   178
1070
     2
1070
    78
1070
     8
1070
    48
1040
-0.1
1070
    41
1040
3.5
1070
   147
1040
1.5
1070
    42
1040
1.5875
1070
    44
1040
2.0
1070
   140
1040
3.0
1002
}
1001
ACAD_DSTYLE_DIM_LINETYPE
1070
   380
1005
16
1001
ACAD_DSTYLE_DIM_EXT1_LINETYPE
1070
   381
1005
16
1001
ACAD_DSTYLE_DIM_EXT2_LINETYPE
1070
   382
1005
16
0
DIMENSION
5
13D
100
AcDbEntity
8
SK2
62
256
6
ByLayer
370
18
48
1
60
0
100
AcDbDimension
2
_U3
10
0
20
11.653504
30
0
11
-11.48065
21
11.653504
31
0
70
32
71
1
72
1
41
1
210
0
220
0
230
1
3
Standard
100
AcDbAlignedDimension
13
-22.9613
23
0
33
0
14
0
24
0
34
0
50
0
100
AcDbRotatedDimension
1001
ACAD
1000
DSTYLE
1002
{
1070
   371
1070
    13
1070
   372
1070
    13
1070
     3
1000

1070
   170
1070
     0
1070
   144
1040
1.0
1070
   277
1070
     2
1070
   284
1070
     8
1070
   278
1070
    46
1070
   146
1040
1.166667
1070
   345
1005
16
1070
   347
1005
16
1070
   346
1005
16
1070
   344
1005
0
1070
   343
1005
0
1070
   172
1070
     1
1070
    76
1070
     0
1070
    75
1070
     0
1070
   282
1070
     0
1070
   281
1070
     0
1070
    71
1070
     0
1070
    74
1070
     0
1070
   279
1070
     0
1070
   173
1070
     1
1070
   340
1005
D0
1070
   271
1070
     2
1070
   272
1070
     2
1070
    77
1070
     1
1070
    73
1070
     1
1070
   171
1070
     3
1070
   274
1070
     4
1070
   177
1070
     2
1070
   176
1070
     2
1070
   178
1070
     2
1070
    78
1070
     8
1070
    48
1040
-0.1
1070
    41
1040
3.5
1070
   147
1040
1.5
1070
    42
1040
1.5875
1070
    44
1040
2.0
1070
   140
1040
3.0
1002
}
1001
ACAD_DSTYLE_DIM_LINETYPE
1070
   380
1005
16
1001
ACAD_DSTYLE_DIM_EXT1_LINETYPE
1070
   381
1005
16
1001
ACAD_DSTYLE_DIM_EXT2_LINETYPE
1070
   382
1005
16
0
DIMENSION
5
155
100
AcDbEntity
8
2
62
256
6
ByLayer
370
18
48
1
60
0
100
AcDbDimension
2
_U4
10
0
20
11.653504
30
0
11
7.51935
21
11.653504
31
0
70
32
71
1
72
1
41
1
210
0
220
0
230
1
3
Standard
100
AcDbAlignedDimension
13
15.0387
23
1.055
33
0
14
0
24
0
34
0
50
0
100
AcDbRotatedDimension
1001
ACAD
1000
DSTYLE
1002
{
1070
   371
1070
    13
1070
   372
1070
    13
1070
     3
1000

1070
   170
1070
     0
1070
   144
1040
1.0
1070
   277
1070
     2
1070
   284
1070
     8
1070
   278
1070
    46
1070
   146
1040
1.166667
1070
   345
1005
16
1070
   347
1005
16
1070
   346
1005
16
1070
   344
1005
0
1070
   343
1005
0
1070
   172
1070
     1
1070
    76
1070
     0
1070
    75
1070
     0
1070
   282
1070
     0
1070
   281
1070
     0
1070
    71
1070
     0
1070
    74
1070
     0
1070
   279
1070
     0
1070
   173
1070
     1
1070
   340
1005
D0
1070
   271
1070
     2
1070
   272
1070
     2
1070
    77
1070
     1
1070
    73
1070
     1
1070
   171
1070
     3
1070
   274
1070
     4
1070
   177
1070
     2
1070
   176
1070
     2
1070
   178
1070
     2
1070
    78
1070
     8
1070
    48
1040
-0.1
1070
    41
1040
3.5
1070
   147
1040
1.5
1070
    42
1040
1.5875
1070
    44
1040
2.0
1070
   140
1040
3.0
1002
}
1001
ACAD_DSTYLE_DIM_LINETYPE
1070
   380
1005
16
1001
ACAD_DSTYLE_DIM_EXT1_LINETYPE
1070
   381
1005
16
1001
ACAD_DSTYLE_DIM_EXT2_LINETYPE
1070
   382
1005
16
0
ENDSEC
0
SECTION
2
OBJECTS
0
DICTIONARY
5
1de
330
0
100
AcDbDictionary
280
0
281
1
3
ACAD_GROUP
350
1df
3
ACAD_MLINESTYLE
350
1e0
0
DICTIONARY
5
1df
330
0
100
AcDbDictionary
280
0
281
1
0
DICTIONARY
5
1e0
330
0
100
AcDbDictionary
280
0
281
1
3
Standard
350
18
0
MLINESTYLE
5
18
330
1e0
100
AcDbMlineStyle
2
Standard
70
0
3

62
256
51
90
52
90
71
2
49
-0.5
62
256
6
ByLayer
49
0.5
62
256
6
ByLayer
0
RASTERVARIABLES
5
1cc
330

100
AcDbRasterVariables
90
0
70
1
71
1
72
1
0
ENDSEC
0
EOF
