0
SECTION
2
HEADER
9
$ACADVER
1
AC1015
9
$DWGCODEPAGE
3
ANSI_1252
9
$HANDSEED
5
1e6
9
$ANGBASE
50
0
9
$ANGDIR
70
0
9
$ATTMODE
70
1
9
$AUNITS
70
0
9
$AUPREC
70
0
9
$CECOLOR
62
256
9
$CELTSCALE
40
1
9
$CELTYPE
6
ByLayer
9
$CELWEIGHT
370
18
9
$CLAYER
8
0
9
$CMLJUST
70
0
9
$CMLSCALE
40
1
9
$CMLSTYLE
2
Standard
9
$DIMSTYLE
2
Standard
9
$TEXTSIZE
40
0.2
9
$TEXTSTYLE
7
Standard
9
$LUNITS
70
2
9
$LUPREC
70
4
9
$EXTNAMES
290
1
9
$INSUNITS
70
4
9
$LTSCALE
40
1
9
$LWDISPLAY
290
1
9
$PDMODE
70
0
9
$PDSIZE
40
0
9
$PLINEGEN
70
0
0
ENDSEC
0
SECTION
2
CLASSES
0
CLASS
1
RASTERVARIABLES
2
AcDbRasterVariables
3
ISM
90
0
280
0
281
0
0
ENDSEC
0
SECTION
2
TABLES
0
TABLE
2
VPORT
5
1dc
100
AcDbSymbolTable
0
VPORT
5
1
100
AcDbSymbolTableRecord
100
AcDbViewportTableRecord
2
*Active
70
0
10
0
20
0
11
1
21
1
12
-1
22
1
13
0
23
0
14
0.5
24
0.5
15
10
25
10
16
0
26
0
36
1
17
0
27
0
37
0
0
ENDTAB
0
TABLE
2
LTYPE
5
1dd
100
AcDbSymbolTable
0
LTYPE
5
14
100
AcDbSymbolTableRecord
100
AcDbLinetypeTableRecord
70
0
2
ByBlock
3

72
65
73
0
40
0
0
LTYPE
5
15
100
AcDbSymbolTableRecord
100
AcDbLinetypeTableRecord
70
0
2
ByLayer
3

72
65
73
0
40
0
0
LTYPE
5
16
100
AcDbSymbolTableRecord
100
AcDbLinetypeTableRecord
70
0
2
Continuous
3
Solid line
72
65
73
0
40
0
0
LTYPE
5
6E
100
AcDbSymbolTableRecord
100
AcDbLinetypeTableRecord
70
0
2
CENTER
3
____ _ ____ _ ____ _ ____
72
65
73
4
40
47.5
49
22
74
0
49
-8.5
74
0
49
8.5
74
0
49
-8.5
74
0
0
LTYPE
5
6F
100
AcDbSymbolTableRecord
100
AcDbLinetypeTableRecord
70
0
2
DASHED
3
__ __ __ __ __ __ __ __ __
72
65
73
2
40
25.72
49
12.86
74
0
49
-12.86
74
0
0
ENDTAB
0
TABLE
2
LAYER
5
1de
100
AcDbSymbolTable
0
LAYER
5
10
100
AcDbSymbolTableRecord
100
AcDbLayerTableRecord
2
0
70
0
62
7
6
Continuous
290
1
370
-3
390
0
0
LAYER
5
71
100
AcDbSymbolTableRecord
100
AcDbLayerTableRecord
2
80
70
0
62
-6
6
Continuous
290
1
370
-3
390
0
0
LAYER
5
73
100
AcDbSymbolTableRecord
100
AcDbLayerTableRecord
2
81
70
0
62
-3
6
Continuous
290
1
370
-3
390
0
0
LAYER
5
75
100
AcDbSymbolTableRecord
100
AcDbLayerTableRecord
2
1
70
0
62
4
6
Continuous
290
1
370
-3
390
0
0
LAYER
5
97
100
AcDbSymbolTableRecord
100
AcDbLayerTableRecord
2
4
70
0
62
-2
6
CENTER
290
1
370
-3
390
0
0
LAYER
5
A7
100
AcDbSymbolTableRecord
100
AcDbLayerTableRecord
2
2
70
0
62
7
6
Continuous
290
1
370
-3
390
0
0
LAYER
5
EF
100
AcDbSymbolTableRecord
100
AcDbLayerTableRecord
2
Defpoints
70
0
62
7
6
Continuous
290
0
370
-3
390
0
0
LAYER
5
1c8
100
AcDbSymbolTableRecord
100
AcDbLayerTableRecord
2
SK1
70
0
62
4
6
Continuous
290
1
370
-3
390
0
0
LAYER
5
1c9
100
AcDbSymbolTableRecord
100
AcDbLayerTableRecord
2
SK4
70
0
62
2
6
CENTER
290
1
370
-3
390
0
0
LAYER
5
1ca
100
AcDbSymbolTableRecord
100
AcDbLayerTableRecord
2
SK2
70
0
62
7
6
Continuous
290
1
370
-3
390
0
0
LAYER
5
1cb
100
AcDbSymbolTableRecord
100
AcDbLayerTableRecord
2
SK6
70
0
62
5
6
Continuous
290
1
370
-3
390
0
0
ENDTAB
0
TABLE
2
STYLE
5
1df
100
AcDbSymbolTable
0
STYLE
5
11
100
AcDbSymbolTableRecord
100
AcDbTextStyleTableRecord
2
Standard
3
txt
70
0
71
0
40
0
41
1
42
0
50
0
0
STYLE
5
CB
100
AcDbSymbolTableRecord
100
AcDbTextStyleTableRecord
2
iso_b_vert
3
simplex.shx
70
0
71
0
40
0
41
1
42
0
50
0
0
STYLE
5
CC
100
AcDbSymbolTableRecord
100
AcDbTextStyleTableRecord
2
DWGDirectTextStyle
3
simplex
70
0
71
0
40
0
41
1
42
0
50
0
0
ENDTAB
0
TABLE
2
DIMSTYLE
5
1e0
100
AcDbSymbolTable
100
AcDbDimStyleTable
0
DIMSTYLE
105
27
100
AcDbSymbolTableRecord
100
AcDbDimStyleTableRecord
2
Standard
70
0
3
<>
41
0.18
42
0.0625
44
0.18
140
0.18
147
0.09
73
0
74
0
77
1
271
2
275
0
278
52
280
0
340
11
0
ENDTAB
0
TABLE
2
VIEW
5
1e1
100
AcDbSymbolTable
0
ENDTAB
0
TABLE
2
UCS
5
1e2
100
AcDbSymbolTable
0
ENDTAB
0
TABLE
2
APPID
5
1e3
100
AcDbSymbolTable
0
APPID
5
12
100
AcDbSymbolTableRecord
100
AcDbRegAppTableRecord
2
ACAD
70
0
0
APPID
5
EB
100
AcDbSymbolTableRecord
100
AcDbRegAppTableRecord
2
ACAD_DSTYLE_DIMBREAK
70
0
0
APPID
5
187
100
AcDbSymbolTableRecord
100
AcDbRegAppTableRecord
2
ACAD_DSTYLE_DIM_LINETYPE
70
0
0
APPID
5
188
100
AcDbSymbolTableRecord
100
AcDbRegAppTableRecord
2
ACAD_DSTYLE_DIM_EXT1_LINETYPE
70
0
0
APPID
5
189
100
AcDbSymbolTableRecord
100
AcDbRegAppTableRecord
2
ACAD_DSTYLE_DIM_EXT2_LINETYPE
70
0
0
APPID
5
1C4
100
AcDbSymbolTableRecord
100
AcDbRegAppTableRecord
2
ACAD_MLEADERVER
70
0
0
ENDTAB
0
TABLE
2
BLOCK_RECORD
5
1e4
100
AcDbSymbolTable
0
BLOCK_RECORD
5
1F
100
AcDbSymbolTableRecord
100
AcDbBlockTableRecord
2
*Model_Space
340
0
70
0
0
BLOCK_RECORD
5
1B
100
AcDbSymbolTableRecord
100
AcDbBlockTableRecord
2
*Paper_Space
340
0
70
0
0
BLOCK_RECORD
5
23
100
AcDbSymbolTableRecord
100
AcDbBlockTableRecord
2
*Paper_Space0
340
0
70
0
0
BLOCK_RECORD
5
F0
100
AcDbSymbolTableRecord
100
AcDbBlockTableRecord
2
*D1
340
0
70
0
0
BLOCK_RECORD
5
FC
100
AcDbSymbolTableRecord
100
AcDbBlockTableRecord
2
_U0
340
0
70
0
0
BLOCK_RECORD
5
108
100
AcDbSymbolTableRecord
100
AcDbBlockTableRecord
2
*D3
340
0
70
0
0
BLOCK_RECORD
5
116
100
AcDbSymbolTableRecord
100
AcDbBlockTableRecord
2
_U1
340
0
70
0
0
BLOCK_RECORD
5
122
100
AcDbSymbolTableRecord
100
AcDbBlockTableRecord
2
*D5
340
0
70
0
0
BLOCK_RECORD
5
12F
100
AcDbSymbolTableRecord
100
AcDbBlockTableRecord
2
_U2
340
0
70
0
0
BLOCK_RECORD
5
13B
100
AcDbSymbolTableRecord
100
AcDbBlockTableRecord
2
*D7
340
0
70
0
0
BLOCK_RECORD
5
147
100
AcDbSymbolTableRecord
100
AcDbBlockTableRecord
2
_U3
340
0
70
0
0
BLOCK_RECORD
5
153
100
AcDbSymbolTableRecord
100
AcDbBlockTableRecord
2
*D9
340
0
70
0
0
BLOCK_RECORD
5
160
100
AcDbSymbolTableRecord
100
AcDbBlockTableRecord
2
_U4
340
0
70
0
0
ENDTAB
0
ENDSEC
0
SECTION
2
BLOCKS
0
BLOCK
5
20
100
AcDbEntity
8
0
100
AcDbBlockBegin
2
*Model_Space
70
0
10
0
20
0
30
0
3
*Model_Space
0
ENDBLK
5
21
100
AcDbEntity
8
0
100
AcDbBlockEnd
0
BLOCK
5
1C
100
AcDbEntity
8
0
100
AcDbBlockBegin
2
*Paper_Space
70
0
10
0
20
0
30
0
3
*Paper_Space
0
ENDBLK
5
1D
100
AcDbEntity
8
0
100
AcDbBlockEnd
0
BLOCK
5
24
100
AcDbEntity
8
0
100
AcDbBlockBegin
2
*Paper_Space0
70
0
10
0
20
0
30
0
3
*Paper_Space0
0
ENDBLK
5
25
100
AcDbEntity
8
0
100
AcDbBlockEnd
0
BLOCK
5
F1
100
AcDbEntity
8
0
100
AcDbBlockBegin
2
*D1
70
1
10
0
20
0
30
0
3
*D1
0
LINE
5
F3
100
AcDbEntity
8
0
62
256
6
ByLayer
370
-2
48
1
60
0
100
AcDbLine
10
-22.97
20
-0.0875
30
0
11
-22.97
21
-41.158815
31
0
39
0
210
0
220
0
230
1
0
LINE
5
F4
100
AcDbEntity
8
0
62
256
6
ByLayer
370
-2
48
1
60
0
100
AcDbLine
10
15.03
20
-0.5275
30
0
11
15.03
21
-41.158815
31
0
39
0
210
0
220
0
230
1
0
LINE
5
F5
100
AcDbEntity
8
0
62
256
6
ByLayer
370
-2
48
1
60
0
100
AcDbLine
10
-19.47
20
-39.158815
30
0
11
11.53
21
-39.158815
31
0
39
0
210
0
220
0
230
1
0
SOLID
5
F6
100
AcDbEntity
8
0
62
256
6
ByLayer
370
-1
48
1
60
0
100
AcDbTrace
10
-19.47
20
-38.575482
30
0
11
-19.47
21
-39.742148
31
0
12
-22.97
22
-39.158815
32
0
13
-22.97
23
-39.158815
33
0
39
0
210
0
220
0
230
1
0
SOLID
5
F7
100
AcDbEntity
8
0
62
256
6
ByLayer
370
-1
48
1
60
0
100
AcDbTrace
10
11.53
20
-39.742148
30
0
11
11.53
21
-38.575482
31
0
12
15.03
22
-39.158815
32
0
13
15.03
23
-39.158815
33
0
39
0
210
0
220
0
230
1
0
MTEXT
5
F8
100
AcDbEntity
8
0
62
256
6
ByLayer
370
18
48
1
60
0
100
AcDbMText
10
-3.97
20
-33.158815
30
0
210
0
220
0
230
1
1
\A1;38
40
3
41
0
44
1
50
0
71
5
72
5
7
iso_b_vert
0
POINT
5
F9
100
AcDbEntity
8
Defpoints
62
0
6
ByLayer
370
-1
48
1
60
0
100
AcDbPoint
10
-22.97
20
1.5
30
0
39
0
210
0
220
0
230
1
50
360
0
POINT
5
FA
100
AcDbEntity
8
Defpoints
62
0
6
ByLayer
370
-1
48
1
60
0
100
AcDbPoint
10
15.03
20
1.06
30
0
39
0
210
0
220
0
230
1
50
360
0
POINT
5
FB
100
AcDbEntity
8
Defpoints
62
0
6
ByLayer
370
-1
48
1
60
0
100
AcDbPoint
10
15.03
20
-39.158815
30
0
39
0
210
0
220
0
230
1
50
360
0
ENDBLK
5
F2
100
AcDbEntity
8
0
100
AcDbBlockEnd
0
BLOCK
5
103
100
AcDbEntity
8
0
100
AcDbBlockBegin
2
_U0
70
0
10
0
20
0
30
0
3
_U0
0
MTEXT
5
FD
100
AcDbEntity
8
SK2
62
256
6
ByLayer
370
18
48
1
60
0
100
AcDbMText
10
-8.45237
20
-38.273701
30
0
210
0
220
0
230
1
1
\W0.7468;38.00
40
3
41
0
44
1.084337
50
0
71
7
72
5
7
iso_b_vert
0
LINE
5
FE
100
AcDbEntity
8
SK2
62
256
6
ByLayer
370
13
48
1
60
0
100
AcDbLine
10
-22.97
20
-0.0875
30
0
11
-22.97
21
-41.158815
31
0
39
0
210
0
220
0
230
1
0
LINE
5
FF
100
AcDbEntity
8
SK2
62
256
6
ByLayer
370
13
48
1
60
0
100
AcDbLine
10
15.03
20
-0.5275
30
0
11
15.03
21
-41.158815
31
0
39
0
210
0
220
0
230
1
0
LINE
5
100
100
AcDbEntity
8
SK2
62
256
6
ByLayer
370
13
48
1
60
0
100
AcDbLine
10
-22.97
20
-39.158815
30
0
11
15.03
21
-39.158815
31
0
39
0
210
0
220
0
230
1
0
SOLID
5
101
100
AcDbEntity
8
SK2
62
256
6
ByLayer
370
18
48
1
60
0
100
AcDbTrace
10
-22.97
20
-39.158815
30
0
11
-19.470002
21
-38.698031
31
0
12
-19.469998
22
-39.619599
32
0
13
-19.469998
23
-39.619599
33
0
39
0
210
0
220
0
230
1
0
SOLID
5
102
100
AcDbEntity
8
SK2
62
256
6
ByLayer
370
18
48
1
60
0
100
AcDbTrace
10
15.03
20
-39.158815
30
0
11
11.530002
21
-39.619599
31
0
12
11.529998
22
-38.698031
32
0
13
11.529998
23
-38.698031
33
0
39
0
210
0
220
0
230
1
0
ENDBLK
5
104
100
AcDbEntity
8
0
100
AcDbBlockEnd
0
BLOCK
5
109
100
AcDbEntity
8
0
100
AcDbBlockBegin
2
*D3
70
1
10
0
20
0
30
0
3
*D3
0
LINE
5
10B
100
AcDbEntity
8
0
62
256
6
ByLayer
370
-2
48
1
60
0
100
AcDbLine
10
15.03
20
-0.5275
30
0
11
15.03
21
-24.56
31
0
39
0
210
0
220
0
230
1
0
LINE
5
10C
100
AcDbEntity
8
0
62
256
6
ByLayer
370
-2
48
1
60
0
100
AcDbLine
10
5.71
20
-1.5875
30
0
11
5.71
21
-24.56
31
0
39
0
210
0
220
0
230
1
0
LINE
5
10D
100
AcDbEntity
8
0
62
256
6
ByLayer
370
-2
48
1
60
0
100
AcDbLine
10
15.03
20
-22.56
30
0
11
40.172857
21
-22.56
31
0
39
0
210
0
220
0
230
1
0
LINE
5
10E
100
AcDbEntity
8
0
62
256
6
ByLayer
370
-2
48
1
60
0
100
AcDbLine
10
18.53
20
-22.56
30
0
11
22.03
21
-22.56
31
0
39
0
210
0
220
0
230
1
0
LINE
5
10F
100
AcDbEntity
8
0
62
256
6
ByLayer
370
-2
48
1
60
0
100
AcDbLine
10
2.21
20
-22.56
30
0
11
-1.29
21
-22.56
31
0
39
0
210
0
220
0
230
1
0
SOLID
5
110
100
AcDbEntity
8
0
62
256
6
ByLayer
370
-1
48
1
60
0
100
AcDbTrace
10
18.53
20
-21.976667
30
0
11
18.53
21
-23.143333
31
0
12
15.03
22
-22.56
32
0
13
15.03
23
-22.56
33
0
39
0
210
0
220
0
230
1
0
SOLID
5
111
100
AcDbEntity
8
0
62
256
6
ByLayer
370
-1
48
1
60
0
100
AcDbTrace
10
2.21
20
-23.143333
30
0
11
2.21
21
-21.976667
31
0
12
5.71
22
-22.56
32
0
13
5.71
23
-22.56
33
0
39
0
210
0
220
0
230
1
0
MTEXT
5
112
100
AcDbEntity
8
0
62
256
6
ByLayer
370
18
48
1
60
0
100
AcDbMText
10
31.101429
20
-16.56
30
0
210
0
220
0
230
1
1
\A1;9.32
40
3
41
0
44
1
50
0
71
5
72
5
7
iso_b_vert
0
POINT
5
113
100
AcDbEntity
8
Defpoints
62
0
6
ByLayer
370
-1
48
1
60
0
100
AcDbPoint
10
15.03
20
1.06
30
0
39
0
210
0
220
0
230
1
50
360
0
POINT
5
114
100
AcDbEntity
8
Defpoints
62
0
6
ByLayer
370
-1
48
1
60
0
100
AcDbPoint
10
5.71
20
0
30
0
39
0
210
0
220
0
230
1
50
360
0
POINT
5
115
100
AcDbEntity
8
Defpoints
62
0
6
ByLayer
370
-1
48
1
60
0
100
AcDbPoint
10
5.71
20
-22.56
30
0
39
0
210
0
220
0
230
1
50
360
0
ENDBLK
5
10A
100
AcDbEntity
8
0
100
AcDbBlockEnd
0
BLOCK
5
11D
100
AcDbEntity
8
0
100
AcDbBlockBegin
2
_U1
70
0
10
0
20
0
30
0
3
_U1
0
MTEXT
5
117
100
AcDbEntity
8
SK2
62
256
6
ByLayer
370
18
48
1
60
0
100
AcDbMText
10
19.189
20
-21.674886
30
0
210
0
220
0
230
1
1
\W0.7051;(9.32)
40
3
41
0
44
1.084337
50
0
71
7
72
5
7
iso_b_vert
0
LINE
5
118
100
AcDbEntity
8
SK2
62
256
6
ByLayer
370
13
48
1
60
0
100
AcDbLine
10
15.03
20
-0.5275
30
0
11
15.03
21
-24.56
31
0
39
0
210
0
220
0
230
1
0
LINE
5
119
100
AcDbEntity
8
SK2
62
256
6
ByLayer
370
13
48
1
60
0
100
AcDbLine
10
5.71
20
-1.5875
30
0
11
5.71
21
-24.56
31
0
39
0
210
0
220
0
230
1
0
LINE
5
11A
100
AcDbEntity
8
SK2
62
256
6
ByLayer
370
13
48
1
60
0
100
AcDbLine
10
5.71
20
-22.56
30
0
11
28.501769
21
-22.56
31
0
39
0
210
0
220
0
230
1
0
SOLID
5
11B
100
AcDbEntity
8
SK2
62
256
6
ByLayer
370
18
48
1
60
0
100
AcDbTrace
10
15.03
20
-22.56
30
0
11
11.530002
21
-23.020784
31
0
12
11.529998
22
-22.099216
32
0
13
11.529998
23
-22.099216
33
0
39
0
210
0
220
0
230
1
0
SOLID
5
11C
100
AcDbEntity
8
SK2
62
256
6
ByLayer
370
18
48
1
60
0
100
AcDbTrace
10
5.71
20
-22.56
30
0
11
9.209998
21
-22.099216
31
0
12
9.210002
22
-23.020784
32
0
13
9.210002
23
-23.020784
33
0
39
0
210
0
220
0
230
1
0
ENDBLK
5
11E
100
AcDbEntity
8
0
100
AcDbBlockEnd
0
BLOCK
5
123
100
AcDbEntity
8
0
100
AcDbBlockBegin
2
*D5
70
1
10
0
20
0
30
0
3
*D5
0
LINE
5
125
100
AcDbEntity
8
0
62
256
6
ByLayer
370
-2
48
1
60
0
100
AcDbLine
10
15.03
20
-0.5275
30
0
11
15.03
21
-32.658815
31
0
39
0
210
0
220
0
230
1
0
LINE
5
126
100
AcDbEntity
8
0
62
256
6
ByLayer
370
-2
48
1
60
0
100
AcDbLine
10
2.53
20
-1.5875
30
0
11
2.53
21
-32.658815
31
0
39
0
210
0
220
0
230
1
0
LINE
5
127
100
AcDbEntity
8
0
62
256
6
ByLayer
370
-2
48
1
60
0
100
AcDbLine
10
18.53
20
-30.658815
30
0
11
22.03
21
-30.658815
31
0
39
0
210
0
220
0
230
1
0
LINE
5
128
100
AcDbEntity
8
0
62
256
6
ByLayer
370
-2
48
1
60
0
100
AcDbLine
10
-0.97
20
-30.658815
30
0
11
-4.47
21
-30.658815
31
0
39
0
210
0
220
0
230
1
0
SOLID
5
129
100
AcDbEntity
8
0
62
256
6
ByLayer
370
-1
48
1
60
0
100
AcDbTrace
10
18.53
20
-30.075482
30
0
11
18.53
21
-31.242148
31
0
12
15.03
22
-30.658815
32
0
13
15.03
23
-30.658815
33
0
39
0
210
0
220
0
230
1
0
SOLID
5
12A
100
AcDbEntity
8
0
62
256
6
ByLayer
370
-1
48
1
60
0
100
AcDbTrace
10
-0.97
20
-31.242148
30
0
11
-0.97
21
-30.075482
31
0
12
2.53
22
-30.658815
32
0
13
2.53
23
-30.658815
33
0
39
0
210
0
220
0
230
1
0
MTEXT
5
12B
100
AcDbEntity
8
0
62
256
6
ByLayer
370
18
48
1
60
0
100
AcDbMText
10
8.78
20
-24.658815
30
0
210
0
220
0
230
1
1
\A1;12.5
40
3
41
0
44
1
50
0
71
5
72
5
7
iso_b_vert
0
POINT
5
12C
100
AcDbEntity
8
Defpoints
62
0
6
ByLayer
370
-1
48
1
60
0
100
AcDbPoint
10
15.03
20
1.06
30
0
39
0
210
0
220
0
230
1
50
360
0
POINT
5
12D
100
AcDbEntity
8
Defpoints
62
0
6
ByLayer
370
-1
48
1
60
0
100
AcDbPoint
10
2.53
20
0
30
0
39
0
210
0
220
0
230
1
50
360
0
POINT
5
12E
100
AcDbEntity
8
Defpoints
62
0
6
ByLayer
370
-1
48
1
60
0
100
AcDbPoint
10
2.53
20
-30.658815
30
0
39
0
210
0
220
0
230
1
50
360
0
ENDBLK
5
124
100
AcDbEntity
8
0
100
AcDbBlockEnd
0
BLOCK
5
136
100
AcDbEntity
8
0
100
AcDbBlockBegin
2
_U2
70
0
10
0
20
0
30
0
3
_U2
0
MTEXT
5
130
100
AcDbEntity
8
SK2
62
256
6
ByLayer
370
18
48
1
60
0
100
AcDbMText
10
4.672572
20
-29.773701
30
0
210
0
220
0
230
1
1
\W0.6864;12.50
40
3
41
0
44
1.084337
50
0
71
7
72
5
7
iso_b_vert
0
LINE
5
131
100
AcDbEntity
8
SK2
62
256
6
ByLayer
370
13
48
1
60
0
100
AcDbLine
10
15.03
20
-0.5275
30
0
11
15.03
21
-32.658815
31
0
39
0
210
0
220
0
230
1
0
LINE
5
132
100
AcDbEntity
8
SK2
62
256
6
ByLayer
370
13
48
1
60
0
100
AcDbLine
10
2.53
20
-1.5875
30
0
11
2.53
21
-32.658815
31
0
39
0
210
0
220
0
230
1
0
LINE
5
133
100
AcDbEntity
8
SK2
62
256
6
ByLayer
370
13
48
1
60
0
100
AcDbLine
10
15.03
20
-30.658815
30
0
11
2.53
21
-30.658815
31
0
39
0
210
0
220
0
230
1
0
SOLID
5
134
100
AcDbEntity
8
SK2
62
256
6
ByLayer
370
18
48
1
60
0
100
AcDbTrace
10
15.03
20
-30.658815
30
0
11
11.530002
21
-31.119599
31
0
12
11.529998
22
-30.198031
32
0
13
11.529998
23
-30.198031
33
0
39
0
210
0
220
0
230
1
0
SOLID
5
135
100
AcDbEntity
8
SK2
62
256
6
ByLayer
370
18
48
1
60
0
100
AcDbTrace
10
2.53
20
-30.658815
30
0
11
6.029998
21
-30.198031
31
0
12
6.030002
22
-31.119599
32
0
13
6.030002
23
-31.119599
33
0
39
0
210
0
220
0
230
1
0
ENDBLK
5
137
100
AcDbEntity
8
0
100
AcDbBlockEnd
0
BLOCK
5
13C
100
AcDbEntity
8
0
100
AcDbBlockBegin
2
*D7
70
1
10
0
20
0
30
0
3
*D7
0
LINE
5
13E
100
AcDbEntity
8
0
62
256
6
ByLayer
370
-2
48
1
60
0
100
AcDbLine
10
-22.97
20
1.5875
30
0
11
-22.97
21
13.658815
31
0
39
0
210
0
220
0
230
1
0
LINE
5
13F
100
AcDbEntity
8
0
62
256
6
ByLayer
370
-2
48
1
60
0
100
AcDbLine
10
0
20
1.5875
30
0
11
0
21
13.658815
31
0
39
0
210
0
220
0
230
1
0
LINE
5
140
100
AcDbEntity
8
0
62
256
6
ByLayer
370
-2
48
1
60
0
100
AcDbLine
10
-19.47
20
11.658815
30
0
11
-3.5
21
11.658815
31
0
39
0
210
0
220
0
230
1
0
SOLID
5
141
100
AcDbEntity
8
0
62
256
6
ByLayer
370
-1
48
1
60
0
100
AcDbTrace
10
-19.47
20
12.242148
30
0
11
-19.47
21
11.075482
31
0
12
-22.97
22
11.658815
32
0
13
-22.97
23
11.658815
33
0
39
0
210
0
220
0
230
1
0
SOLID
5
142
100
AcDbEntity
8
0
62
256
6
ByLayer
370
-1
48
1
60
0
100
AcDbTrace
10
-3.5
20
11.075482
30
0
11
-3.5
21
12.242148
31
0
12
0
22
11.658815
32
0
13
0
23
11.658815
33
0
39
0
210
0
220
0
230
1
0
MTEXT
5
143
100
AcDbEntity
8
0
62
256
6
ByLayer
370
18
48
1
60
0
100
AcDbMText
10
-11.485
20
17.658815
30
0
210
0
220
0
230
1
1
\A1;22.97
40
3
41
0
44
1
50
0
71
5
72
5
7
iso_b_vert
0
POINT
5
144
100
AcDbEntity
8
Defpoints
62
0
6
ByLayer
370
-1
48
1
60
0
100
AcDbPoint
10
-22.97
20
0
30
0
39
0
210
0
220
0
230
1
50
360
0
POINT
5
145
100
AcDbEntity
8
Defpoints
62
0
6
ByLayer
370
-1
48
1
60
0
100
AcDbPoint
10
0
20
0
30
0
39
0
210
0
220
0
230
1
50
360
0
POINT
5
146
100
AcDbEntity
8
Defpoints
62
0
6
ByLayer
370
-1
48
1
60
0
100
AcDbPoint
10
0
20
11.658815
30
0
39
0
210
0
220
0
230
1
50
360
0
ENDBLK
5
13D
100
AcDbEntity
8
0
100
AcDbBlockEnd
0
BLOCK
5
14E
100
AcDbEntity
8
0
100
AcDbBlockBegin
2
_U3
70
0
10
0
20
0
30
0
3
_U3
0
MTEXT
5
148
100
AcDbEntity
8
SK2
62
256
6
ByLayer
370
18
48
1
60
0
100
AcDbMText
10
-15.96737
20
12.54393
30
0
210
0
220
0
230
1
1
\W0.7468;22.97
40
3
41
0
44
1.084337
50
0
71
7
72
5
7
iso_b_vert
0
LINE
5
149
100
AcDbEntity
8
SK2
62
256
6
ByLayer
370
13
48
1
60
0
100
AcDbLine
10
-22.97
20
1.5875
30
0
11
-22.97
21
13.658815
31
0
39
0
210
0
220
0
230
1
0
LINE
5
14A
100
AcDbEntity
8
SK2
62
256
6
ByLayer
370
13
48
1
60
0
100
AcDbLine
10
0
20
1.5875
30
0
11
0
21
13.658815
31
0
39
0
210
0
220
0
230
1
0
LINE
5
14B
100
AcDbEntity
8
SK2
62
256
6
ByLayer
370
13
48
1
60
0
100
AcDbLine
10
-22.97
20
11.658815
30
0
11
0
21
11.658815
31
0
39
0
210
0
220
0
230
1
0
SOLID
5
14C
100
AcDbEntity
8
SK2
62
256
6
ByLayer
370
18
48
1
60
0
100
AcDbTrace
10
-22.97
20
11.658815
30
0
11
-19.470002
21
12.119599
31
0
12
-19.469998
22
11.198031
32
0
13
-19.469998
23
11.198031
33
0
39
0
210
0
220
0
230
1
0
SOLID
5
14D
100
AcDbEntity
8
SK2
62
256
6
ByLayer
370
18
48
1
60
0
100
AcDbTrace
10
0
20
11.658815
30
0
11
-3.499998
21
11.198031
31
0
12
-3.500002
22
12.119599
32
0
13
-3.500002
23
12.119599
33
0
39
0
210
0
220
0
230
1
0
ENDBLK
5
14F
100
AcDbEntity
8
0
100
AcDbBlockEnd
0
BLOCK
5
154
100
AcDbEntity
8
0
100
AcDbBlockBegin
2
*D9
70
1
10
0
20
0
30
0
3
*D9
0
LINE
5
156
100
AcDbEntity
8
0
62
256
6
ByLayer
370
-2
48
1
60
0
100
AcDbLine
10
15.03
20
2.6475
30
0
11
15.03
21
13.658815
31
0
39
0
210
0
220
0
230
1
0
LINE
5
157
100
AcDbEntity
8
0
62
256
6
ByLayer
370
-2
48
1
60
0
100
AcDbLine
10
0
20
1.5875
30
0
11
0
21
13.658815
31
0
39
0
210
0
220
0
230
1
0
LINE
5
158
100
AcDbEntity
8
0
62
256
6
ByLayer
370
-2
48
1
60
0
100
AcDbLine
10
18.53
20
11.658815
30
0
11
22.03
21
11.658815
31
0
39
0
210
0
220
0
230
1
0
LINE
5
159
100
AcDbEntity
8
0
62
256
6
ByLayer
370
-2
48
1
60
0
100
AcDbLine
10
-3.5
20
11.658815
30
0
11
-7
21
11.658815
31
0
39
0
210
0
220
0
230
1
0
SOLID
5
15A
100
AcDbEntity
8
0
62
256
6
ByLayer
370
-1
48
1
60
0
100
AcDbTrace
10
18.53
20
12.242148
30
0
11
18.53
21
11.075482
31
0
12
15.03
22
11.658815
32
0
13
15.03
23
11.658815
33
0
39
0
210
0
220
0
230
1
0
SOLID
5
15B
100
AcDbEntity
8
0
62
256
6
ByLayer
370
-1
48
1
60
0
100
AcDbTrace
10
-3.5
20
11.075482
30
0
11
-3.5
21
12.242148
31
0
12
0
22
11.658815
32
0
13
0
23
11.658815
33
0
39
0
210
0
220
0
230
1
0
MTEXT
5
15C
100
AcDbEntity
8
0
62
256
6
ByLayer
370
18
48
1
60
0
100
AcDbMText
10
7.515
20
17.658815
30
0
210
0
220
0
230
1
1
\A1;15.03
40
3
41
0
44
1
50
0
71
5
72
5
7
iso_b_vert
0
POINT
5
15D
100
AcDbEntity
8
Defpoints
62
0
6
ByLayer
370
-1
48
1
60
0
100
AcDbPoint
10
15.03
20
1.06
30
0
39
0
210
0
220
0
230
1
50
360
0
POINT
5
15E
100
AcDbEntity
8
Defpoints
62
0
6
ByLayer
370
-1
48
1
60
0
100
AcDbPoint
10
0
20
0
30
0
39
0
210
0
220
0
230
1
50
360
0
POINT
5
15F
100
AcDbEntity
8
Defpoints
62
0
6
ByLayer
370
-1
48
1
60
0
100
AcDbPoint
10
0
20
11.658815
30
0
39
0
210
0
220
0
230
1
50
360
0
ENDBLK
5
155
100
AcDbEntity
8
0
100
AcDbBlockEnd
0
BLOCK
5
167
100
AcDbEntity
8
0
100
AcDbBlockBegin
2
_U4
70
0
10
0
20
0
30
0
3
_U4
0
MTEXT
5
161
100
AcDbEntity
8
2
62
256
6
ByLayer
370
18
48
1
60
0
100
AcDbMText
10
3.407572
20
12.54393
30
0
210
0
220
0
230
1
1
\W0.6864;15.03
40
3
41
0
44
1.084337
50
0
71
7
72
5
7
iso_b_vert
0
LINE
5
162
100
AcDbEntity
8
2
62
256
6
ByLayer
370
13
48
1
60
0
100
AcDbLine
10
15.03
20
2.6475
30
0
11
15.03
21
13.658815
31
0
39
0
210
0
220
0
230
1
0
LINE
5
163
100
AcDbEntity
8
2
62
256
6
ByLayer
370
13
48
1
60
0
100
AcDbLine
10
0
20
1.5875
30
0
11
0
21
13.658815
31
0
39
0
210
0
220
0
230
1
0
LINE
5
164
100
AcDbEntity
8
2
62
256
6
ByLayer
370
13
48
1
60
0
100
AcDbLine
10
15.03
20
11.658815
30
0
11
0
21
11.658815
31
0
39
0
210
0
220
0
230
1
0
SOLID
5
165
100
AcDbEntity
8
2
62
256
6
ByLayer
370
18
48
1
60
0
100
AcDbTrace
10
15.03
20
11.658815
30
0
11
11.530002
21
11.198031
31
0
12
11.529998
22
12.119599
32
0
13
11.529998
23
12.119599
33
0
39
0
210
0
220
0
230
1
0
SOLID
5
166
100
AcDbEntity
8
2
62
256
6
ByLayer
370
18
48
1
60
0
100
AcDbTrace
10
0
20
11.658815
30
0
11
3.499998
21
12.119599
31
0
12
3.500002
22
11.198031
32
0
13
3.500002
23
11.198031
33
0
39
0
210
0
220
0
230
1
0
ENDBLK
5
168
100
AcDbEntity
8
0
100
AcDbBlockEnd
0
ENDSEC
0
SECTION
2
ENTITIES
0
ARC
5
B8
100
AcDbEntity
8
1
62
256
6
ByLayer
370
18
48
1
60
0
100
AcDbCircle
39
0
10
1.030044
20
-2.06
30
0
40
0.999999999999999
210
0
220
0
230
1
100
AcDbArc
50
90
51
120
0
ARC
5
B9
100
AcDbEntity
8
1
62
256
6
ByLayer
370
18
48
1
60
0
100
AcDbCircle
39
0
10
1.030044
20
2.06
30
0
40
0.999999999999999
210
0
220
0
230
1
100
AcDbArc
50
240
51
270
0
ARC
5
BA
100
AcDbEntity
8
SK2
62
256
6
ByLayer
370
13
48
1
60
0
100
AcDbCircle
39
0
10
15.03
20
0
30
0
40
16.35
210
0
220
0
230
1
100
AcDbArc
50
10.57289
51
65
0
ARC
5
BB
100
AcDbEntity
8
SK2
62
256
6
ByLayer
370
13
48
1
60
0
100
AcDbCircle
39
0
10
15.03
20
0
30
0
40
16.35
210
0
220
0
230
1
100
AcDbArc
50
295
51
349.42711
0
ELLIPSE
5
BC
100
AcDbEntity
8
1
62
256
6
ByLayer
370
18
48
1
60
0
100
AcDbEllipse
10
3.711688
20
1.517572
30
0
11
-1.42960125708014
21
1.18204445588787
31
0
210
0
220
0
230
1
40
0.619935
41
1.24577281968341
42
2.04446023978115
0
POINT
5
70
100
AcDbEntity
8
80
62
256
6
ByLayer
370
18
48
1
60
0
100
AcDbPoint
10
0
20
0
30
0
39
0
210
0
220
0
230
1
50
360
0
POINT
5
72
100
AcDbEntity
8
81
62
256
6
ByLayer
370
18
48
1
60
0
100
AcDbPoint
10
15.03
20
0
30
0
39
0
210
0
220
0
230
1
50
360
0
POINT
5
74
100
AcDbEntity
8
1
62
256
6
ByLayer
370
18
48
1
60
1
100
AcDbPoint
10
-22.97
20
1.5
30
0
39
0
210
0
220
0
230
1
50
360
0
POINT
5
76
100
AcDbEntity
8
1
62
256
6
ByLayer
370
18
48
1
60
1
100
AcDbPoint
10
15.03
20
1.06
30
0
39
0
210
0
220
0
230
1
50
360
0
POINT
5
77
100
AcDbEntity
8
1
62
256
6
ByLayer
370
18
48
1
60
1
100
AcDbPoint
10
15.03
20
1.06
30
0
39
0
210
0
220
0
230
1
50
360
0
POINT
5
78
100
AcDbEntity
8
1
62
256
6
ByLayer
370
18
48
1
60
1
100
AcDbPoint
10
5.71
20
0
30
0
39
0
210
0
220
0
230
1
50
360
0
POINT
5
79
100
AcDbEntity
8
1
62
256
6
ByLayer
370
18
48
1
60
1
100
AcDbPoint
10
15.03
20
1.06
30
0
39
0
210
0
220
0
230
1
50
360
0
POINT
5
7A
100
AcDbEntity
8
1
62
256
6
ByLayer
370
18
48
1
60
1
100
AcDbPoint
10
2.53
20
0
30
0
39
0
210
0
220
0
230
1
50
360
0
POINT
5
7B
100
AcDbEntity
8
1
62
256
6
ByLayer
370
18
48
1
60
1
100
AcDbPoint
10
-22.97
20
0
30
0
39
0
210
0
220
0
230
1
50
360
0
POINT
5
7C
100
AcDbEntity
8
1
62
256
6
ByLayer
370
18
48
1
60
1
100
AcDbPoint
10
0
20
0
30
0
39
0
210
0
220
0
230
1
50
360
0
POINT
5
7D
100
AcDbEntity
8
1
62
256
6
ByLayer
370
18
48
1
60
1
100
AcDbPoint
10
15.03
20
1.06
30
0
39
0
210
0
220
0
230
1
50
360
0
POINT
5
7E
100
AcDbEntity
8
1
62
256
6
ByLayer
370
18
48
1
60
1
100
AcDbPoint
10
0
20
0
30
0
39
0
210
0
220
0
230
1
50
360
0
SPLINE
5
BD
100
AcDbEntity
8
1
62
256
6
ByLayer
370
18
48
1
60
0
100
AcDbSpline
70
4
71
3
72
18
73
14
40
0
40
0
40
0
40
0
40
0.250000000000007
40
0.250000000000007
40
0.500000000000013
40
0.500000000000013
40
0.625000000000017
40
0.625000000000017
40
0.687500000000014
40
0.687500000000014
40
0.750000000000011
40
0.750000000000011
40
1
40
1
40
1
40
1
41
1
10
2.56074798459105
20
1.05517742966154
30
0
41
1
10
2.65565843209285
20
1.05740377932878
30
0
41
1
10
2.75104173264938
20
1.05830323397555
30
0
41
1
10
2.94272307861445
20
1.05930980634545
30
0
41
1
10
3.03902122294525
20
1.05941224904871
30
0
41
1
10
3.1841628580743
20
1.05930581895495
30
0
41
1
10
3.23265945539802
20
1.05921652031825
30
0
41
1
10
3.30558245040243
20
1.05894627992399
30
0
41
1
10
3.32990798858941
20
1.0588327043474
30
0
41
1
10
3.37833758375876
20
1.05854284856764
30
0
41
1
10
3.40247630875794
20
1.0583664539019
30
0
41
1
10
3.52279237551525
20
1.05727276194199
30
0
41
1
10
3.61784125489001
20
1.05577387261013
30
0
41
1
10
3.71168800003164
20
1.05253474042109
30
0
0
SPLINE
5
BE
100
AcDbEntity
8
1
62
256
6
ByLayer
370
18
48
1
60
0
100
AcDbSpline
70
4
71
3
72
76
73
72
40
0
40
0
40
0
40
0
40
0.0065306550427548
40
0.0065306550427548
40
0.0130613100855095
40
0.0130613100855095
40
0.0261226201710167
40
0.0261226201710167
40
0.0391839302565239
40
0.0391839302565239
40
0.0457145852992775
40
0.0457145852992775
40
0.052245240342031
40
0.052245240342031
40
0.078367860513043
40
0.078367860513043
40
0.104490480684055
40
0.104490480684055
40
0.130613100855067
40
0.130613100855067
40
0.156735721026079
40
0.156735721026079
40
0.208980961368105
40
0.208980961368105
40
0.261226201710131
40
0.261226201710131
40
0.287348821881145
40
0.287348821881145
40
0.300410131966651
40
0.300410131966651
40
0.313471442052158
40
0.313471442052158
40
0.417961922736198
40
0.417961922736198
40
0.444084542907208
40
0.444084542907208
40
0.457145852992712
40
0.457145852992712
40
0.470207163078216
40
0.470207163078216
40
0.522452403420229
40
0.522452403420229
40
0.548575023591234
40
0.548575023591234
40
0.574697643762239
40
0.574697643762239
40
0.626942884104247
40
0.626942884104247
40
0.653065504275251
40
0.653065504275251
40
0.679188124446256
40
0.679188124446256
40
0.731433364788266
40
0.731433364788266
40
0.757555984959272
40
0.757555984959272
40
0.783678605130279
40
0.783678605130279
40
0.835923845472292
40
0.835923845472292
40
0.862046465643298
40
0.862046465643298
40
0.888169085814305
40
0.888169085814305
40
0.914291705985311
40
0.914291705985311
40
0.940414326156318
40
0.940414326156318
40
0.992659566498328
40
0.992659566498328
40
1
40
1
40
1
40
1
41
1
10
14.5357138823586
20
-1.02156251351064
30
0
41
1
10
14.5203626859348
20
-1.01995126251515
30
0
41
1
10
14.506130804127
20
-1.0177607697305
30
0
41
1
10
14.4781649273955
20
-1.01292238816393
30
0
41
1
10
14.4644682494995
20
-1.01025753164228
30
0
41
1
10
14.422607121797
20
-1.00237304597232
30
0
41
1
10
14.3938923614492
20
-0.997202213962112
30
0
41
1
10
14.3371302363467
20
-0.985815188716373
30
0
41
1
10
14.3090611185703
20
-0.979571898296882
30
0
41
1
10
14.2667174652014
20
-0.969817515020424
30
0
41
1
10
14.2525562978331
20
-0.966507735440132
30
0
41
1
10
14.2242612775255
20
-0.959715047430024
30
0
41
1
10
14.2101295089827
20
-0.956227397436095
30
0
41
1
10
14.139520875794
20
-0.938350772346865
30
0
41
1
10
14.0831198300063
20
-0.922703483436578
30
0
41
1
10
13.970304789806
20
-0.888885107259824
30
0
41
1
10
13.9139139493067
20
-0.870694730167287
30
0
41
1
10
13.8010533057702
20
-0.831851329304044
30
0
41
1
10
13.7445156069589
20
-0.811194935449009
30
0
41
1
10
13.631461030558
20
-0.767661436477169
30
0
41
1
10
13.575022539564
20
-0.744801510244372
30
0
41
1
10
13.4058073121266
20
-0.67315644176054
30
0
41
1
10
13.2930590070676
20
-0.621402491063265
30
0
41
1
10
13.0668869138645
20
-0.510954838855412
30
0
41
1
10
12.9541314012013
20
-0.452739009826388
30
0
41
1
10
12.7849311994802
20
-0.361932006383597
30
0
41
1
10
12.7285005243351
20
-0.331107275154977
30
0
41
1
10
12.6437233919846
20
-0.284173684345404
30
0
41
1
10
12.6154310289891
20
-0.268404775193886
30
0
41
1
10
12.5589832712812
20
-0.236750518439095
30
0
41
1
10
12.5308054116221
20
-0.220854237453835
30
0
41
1
10
12.2775274031439
20
-0.0773264670001481
30
0
41
1
10
12.05460254124
20
0.053386776698801
30
0
41
1
10
11.7742840451829
20
0.212916488576923
30
0
41
1
10
11.7181255279072
20
0.244608812887094
30
0
41
1
10
11.6336622618692
20
0.291680623397213
30
0
41
1
10
11.6054708701055
20
0.307294514750282
30
0
41
1
10
11.5490023998409
20
0.33834817331558
30
0
41
1
10
11.5207117139425
20
0.353798364583213
30
0
41
1
10
11.3794887856915
20
0.430280349418212
30
0
41
1
10
11.2668369391829
20
0.489099132958359
30
0
41
1
10
11.0977601235502
20
0.572882149364943
30
0
41
1
10
11.0413634245345
20
0.600036291967257
30
0
41
1
10
10.9283874881529
20
0.652636520816571
30
0
41
1
10
10.8718045243128
20
0.678096420422861
30
0
41
1
10
10.702500428525
20
0.751319299710474
30
0
41
1
10
10.5898721946445
20
0.795984218172123
30
0
41
1
10
10.4206891037118
20
0.856052698571261
30
0
41
1
10
10.3642309546004
20
0.874906695770022
30
0
41
1
10
10.2511260802252
20
0.91012514099549
30
0
41
1
10
10.1946850723054
20
0.926435936539121
30
0
41
1
10
10.025524268085
20
0.971348452978759
30
0
41
1
10
9.91290182502834
20
0.995885029238394
30
0
41
1
10
9.74359075238871
20
1.02416273031159
30
0
41
1
10
9.68700182583748
20
1.03216177211007
30
0
41
1
10
9.57404247845864
20
1.0451751911074
30
0
41
1
10
9.51764836858925
20
1.05019983095107
30
0
41
1
10
9.3485616086711
20
1.06080265698429
30
0
41
1
10
9.23588646259066
20
1.06190358550629
30
0
41
1
10
9.06637115869665
20
1.05451805168221
30
0
41
1
10
9.00982421238484
20
1.05055008687941
30
0
41
1
10
8.89697496804311
20
1.0396723820019
30
0
41
1
10
8.8406148648979
20
1.03275889774017
30
0
41
1
10
8.72791429419593
20
1.01602659455762
30
0
41
1
10
8.67155706021245
20
1.00621528165806
30
0
41
1
10
8.55871956403368
20
0.983755670021708
30
0
41
1
10
8.50218951837601
20
0.971088982757408
30
0
41
1
10
8.33266717152082
20
0.928986832596195
30
0
41
1
10
8.22000132095849
20
0.895607243056105
30
0
41
1
10
8.09144247925269
20
0.851940202685313
30
0
41
1
10
8.07560282635473
20
0.846465062536453
30
0
41
1
10
8.05975958736238
20
0.840895450464018
30
0
0
SPLINE
5
BF
100
AcDbEntity
8
1
62
256
6
ByLayer
370
18
48
1
60
0
100
AcDbSpline
70
4
71
3
72
22
73
18
40
0
40
0
40
0
40
0
40
0.024430247744593
40
0.024430247744593
40
0.187025206453825
40
0.187025206453825
40
0.349620165163058
40
0.349620165163058
40
0.512215123872291
40
0.512215123872291
40
0.674810082581523
40
0.674810082581523
40
0.837405041290755
40
0.837405041290755
40
0.918702520645378
40
0.918702520645378
40
1
40
1
40
1
40
1
41
1
10
14.8363816486627
20
-0.415214405322104
30
0
41
1
10
14.8341583568233
20
-0.419961982518259
30
0
41
1
10
14.8319201012539
20
-0.424713355429645
30
0
41
1
10
14.8146884923932
20
-0.461121206804364
30
0
41
1
10
14.7991185079635
20
-0.492965381832534
30
0
41
1
10
14.7674412095237
20
-0.55706837309674
30
0
41
1
10
14.751312828143
20
-0.589356662870586
30
0
41
1
10
14.7187801856171
20
-0.654265381240123
30
0
41
1
10
14.7023861436648
20
-0.686818942612291
30
0
41
1
10
14.6693882055374
20
-0.752403440924837
30
0
41
1
10
14.6527876881476
20
-0.785434538973249
30
0
41
1
10
14.6194248067827
20
-0.852505361291264
30
0
41
1
10
14.6026442729323
20
-0.88667022007732
30
0
41
1
10
14.5774892043858
20
-0.937780834599124
30
0
41
1
10
14.5691071612348
20
-0.954786877659529
30
0
41
1
10
14.5523780943937
20
-0.988482371385373
30
0
41
1
10
14.5440329632255
20
-1.00515715674243
30
0
41
1
10
14.5357138823565
20
-1.02156251350715
30
0
0
SPLINE
5
C0
100
AcDbEntity
8
1
62
256
6
ByLayer
370
18
48
1
60
0
100
AcDbSpline
70
4
71
3
72
24
73
20
40
0
40
0
40
0
40
0
40
0.0598659271380533
40
0.0598659271380533
40
0.119731854276107
40
0.119731854276107
40
0.239463708552213
40
0.239463708552213
40
0.35919556282832
40
0.35919556282832
40
0.419061489966362
40
0.419061489966362
40
0.478927417104404
40
0.478927417104404
40
0.718391125656551
40
0.718391125656551
40
0.957854834208698
40
0.957854834208698
40
1
40
1
40
1
40
1
41
1
10
14.5357138823586
20
1.02156251351076
30
0
41
1
10
14.5203626859348
20
1.01995126251526
30
0
41
1
10
14.506130804127
20
1.0177607697305
30
0
41
1
10
14.4781649273955
20
1.01292238816393
30
0
41
1
10
14.4644682494995
20
1.01025753164228
30
0
41
1
10
14.422607121797
20
1.00237304597232
30
0
41
1
10
14.3938923614492
20
0.997202213962112
30
0
41
1
10
14.3371302363466
20
0.985815188716373
30
0
41
1
10
14.3090611185703
20
0.979571898296882
30
0
41
1
10
14.2667174652014
20
0.969817515020424
30
0
41
1
10
14.2525562978331
20
0.966507735440132
30
0
41
1
10
14.2242612775255
20
0.959715047430024
30
0
41
1
10
14.2101295089827
20
0.956227397436095
30
0
41
1
10
14.139520875794
20
0.938350772346865
30
0
41
1
10
14.0831198300063
20
0.922703483436578
30
0
41
1
10
13.970304789806
20
0.888885107259824
30
0
41
1
10
13.9139139493067
20
0.870694730167287
30
0
41
1
10
13.8475519962238
20
0.847854846706667
30
0
41
1
10
13.8376170388684
20
0.844398418625275
30
0
41
1
10
13.8276793976038
20
0.840904423331722
30
0
0
SPLINE
5
C1
100
AcDbEntity
8
1
62
256
6
ByLayer
370
18
48
1
60
0
100
AcDbSpline
70
4
71
3
72
54
73
50
40
0
40
0
40
0
40
0
40
0.0248065219681055
40
0.0248065219681055
40
0.0552813181566036
40
0.0552813181566036
40
0.0857561143451015
40
0.0857561143451015
40
0.1162309105336
40
0.1162309105336
40
0.146705706722098
40
0.146705706722098
40
0.207655299099094
40
0.207655299099094
40
0.238130095287591
40
0.238130095287591
40
0.268604891476089
40
0.268604891476089
40
0.329554483853083
40
0.329554483853083
40
0.360029280041581
40
0.360029280041581
40
0.390504076230078
40
0.390504076230078
40
0.451453668607073
40
0.451453668607073
40
0.48192846479557
40
0.48192846479557
40
0.512403260984066
40
0.512403260984066
40
0.573352853361059
40
0.573352853361059
40
0.603827649549554
40
0.603827649549554
40
0.63430244573805
40
0.63430244573805
40
0.664777241926546
40
0.664777241926546
40
0.695252038115042
40
0.695252038115042
40
0.756201630492034
40
0.756201630492034
40
0.786676426680529
40
0.786676426680529
40
0.817151222869024
40
0.817151222869024
40
0.878100815246017
40
0.878100815246017
40
1
40
1
40
1
40
1
41
1
10
9.26072133936719
20
-1.06000164775878
30
0
41
1
10
9.21481120339826
20
-1.05998981047995
30
0
41
1
10
9.16887148266969
20
-1.05898384086049
30
0
41
1
10
9.06637115869694
20
-1.05451805168224
30
0
41
1
10
9.0098242123851
20
-1.05055008687944
30
0
41
1
10
8.89697496804334
20
-1.03967238200192
30
0
41
1
10
8.84061486489813
20
-1.03275889774019
30
0
41
1
10
8.72791429419618
20
-1.01602659455767
30
0
41
1
10
8.67155706021268
20
-1.00621528165809
30
0
41
1
10
8.55871956403394
20
-0.983755670021765
30
0
41
1
10
8.5021895183763
20
-0.971088982757493
30
0
41
1
10
8.33266717152105
20
-0.928986832596252
30
0
41
1
10
8.22000132095869
20
-0.895607243056162
30
0
41
1
10
8.0509190445554
20
-0.838175778275371
30
0
41
1
10
7.99452879260122
20
-0.817819414298015
30
0
41
1
10
7.88157597001663
20
-0.774796172621365
30
0
41
1
10
7.82498311287034
20
-0.752101744628362
30
0
41
1
10
7.65564337040939
20
-0.681056343458266
30
0
41
1
10
7.54301306528572
20
-0.629732968936764
30
0
41
1
10
7.37385958804944
20
-0.547646357912299
30
0
41
1
10
7.31742235768283
20
-0.519459303034722
30
0
41
1
10
7.20433077254953
20
-0.461593322903951
30
0
41
1
10
7.14785825940774
20
-0.431989808982848
30
0
41
1
10
6.97868252567628
20
-0.341542727675772
30
0
41
1
10
6.8660590343915
20
-0.279151396381991
30
0
41
1
10
6.69677289860149
20
-0.183405013971821
30
0
41
1
10
6.64019302965156
20
-0.151122620169161
30
0
41
1
10
6.52720560581457
20
-0.0863285924907018
30
0
41
1
10
6.47080377873183
20
-0.0538069178250282
30
0
41
1
10
6.30169859487685
20
0.0438268481965736
30
0
41
1
10
6.18903987892972
20
0.10891092648896
30
0
41
1
10
6.01956384007451
20
0.205476373253305
30
0
41
1
10
5.96299882904677
20
0.237444647832376
30
0
41
1
10
5.85013302474164
20
0.300455429529791
30
0
41
1
10
5.79377111026926
20
0.331553958418198
30
0
41
1
10
5.68106980435999
20
0.392740462691052
30
0
41
1
10
5.624717647072
20
0.422807614407304
30
0
41
1
10
5.51189658178353
20
0.481705962843336
30
0
41
1
10
5.45539706274715
20
0.51056847593992
30
0
41
1
10
5.28582698031158
20
0.594930985402044
30
0
41
1
10
5.17314351276687
20
0.647840687767086
30
0
41
1
10
5.00406884199103
20
0.721420430610777
30
0
41
1
10
4.94768220367988
20
0.744955345019264
30
0
41
1
10
4.8347511599064
20
0.789908643175607
30
0
41
1
10
4.77813363141445
20
0.811357305652734
30
0
41
1
10
4.60900944498027
20
0.871934175615422
30
0
41
1
10
4.49686744037265
20
0.907343590732978
30
0
41
1
10
4.16108990548432
20
0.99785891055879
30
0
41
1
10
3.93786526419595
20
1.03705403864595
30
0
41
1
10
3.71168800000001
20
1.05253474042206
30
0
0
SPLINE
5
C2
100
AcDbEntity
8
1
62
256
6
ByLayer
370
18
48
1
60
0
100
AcDbSpline
70
4
71
3
72
26
73
22
40
0
40
0
40
0
40
0
40
0.0624999999999994
40
0.0624999999999994
40
0.124999999999999
40
0.124999999999999
40
0.249999999999998
40
0.249999999999998
40
0.374999999999996
40
0.374999999999996
40
0.499999999999995
40
0.499999999999995
40
0.624999999999994
40
0.624999999999994
40
0.749999999999993
40
0.749999999999993
40
0.874999999999992
40
0.874999999999992
40
0.937499999999996
40
0.937499999999996
40
1
40
1
40
1
40
1
41
1
10
14.9064282648856
20
0.240242076680431
30
0
41
1
10
14.9019179073419
20
0.256149214884516
30
0
41
1
10
14.8966404444587
20
0.271951306300082
30
0
41
1
10
14.8850985228867
20
0.303474054462356
30
0
41
1
10
14.8788321335385
20
0.319194469619248
30
0
41
1
10
14.8590711774617
20
0.366360735512728
30
0
41
1
10
14.8446499375302
20
0.397817086432468
30
0
41
1
10
14.8146884923932
20
0.461121206804364
30
0
41
1
10
14.7991185079634
20
0.492965381832534
30
0
41
1
10
14.7674412095237
20
0.55706837309674
30
0
41
1
10
14.751312828143
20
0.589356662870586
30
0
41
1
10
14.7187801856171
20
0.654265381240123
30
0
41
1
10
14.7023861436647
20
0.686818942612291
30
0
41
1
10
14.6693882055374
20
0.752403440924837
30
0
41
1
10
14.6527876881476
20
0.785434538973249
30
0
41
1
10
14.6194248067827
20
0.852505361291293
30
0
41
1
10
14.6026442729323
20
0.886670220077349
30
0
41
1
10
14.5774892043858
20
0.937780834599153
30
0
41
1
10
14.5691071612348
20
0.954786877659558
30
0
41
1
10
14.5523780943937
20
0.988482371385373
30
0
41
1
10
14.5440329632255
20
1.00515715674243
30
0
41
1
10
14.5357138823565
20
1.02156251350715
30
0
0
SPLINE
5
C3
100
AcDbEntity
8
1
62
256
6
ByLayer
370
18
48
1
60
0
100
AcDbSpline
70
4
71
3
72
46
73
42
40
0
40
0
40
0
40
0
40
0.0777937624399912
40
0.0777937624399912
40
0.116690643659986
40
0.116690643659986
40
0.155587524879981
40
0.155587524879981
40
0.233381287319972
40
0.233381287319972
40
0.272278168539967
40
0.272278168539967
40
0.311175049759963
40
0.311175049759963
40
0.350071930979959
40
0.350071930979959
40
0.388968812199954
40
0.388968812199954
40
0.466762574639945
40
0.466762574639945
40
0.505659455859941
40
0.505659455859941
40
0.544556337079937
40
0.544556337079937
40
0.62235009951993
40
0.62235009951993
40
0.661246980739926
40
0.661246980739926
40
0.700143861959923
40
0.700143861959923
40
0.777937624399918
40
0.777937624399918
40
0.816834505619914
40
0.816834505619914
40
0.85573138683991
40
0.85573138683991
40
0.933525149279902
40
0.933525149279902
40
0.972422030499898
40
0.972422030499898
40
1
40
1
40
1
40
1
41
1
10
3.71168800000001
20
0.151698926585738
30
0
41
1
10
3.82466825743074
20
0.0870989787518113
30
0
41
1
10
3.93738379279108
20
0.0218979461148763
30
0
41
1
10
4.10664133036312
20
-0.0757961457882175
30
0
41
1
10
4.16316859723048
20
-0.108346668141593
30
0
41
1
10
4.27602126189856
20
-0.172909600995723
30
0
41
1
10
4.33235962663031
20
-0.204949789082463
30
0
41
1
10
4.50127561193173
20
-0.300067921236291
30
0
41
1
10
4.61383133263686
20
-0.362014406445894
30
0
41
1
10
4.78317285702144
20
-0.451742136875311
30
0
41
1
10
4.83967378737236
20
-0.481057507580004
30
0
41
1
10
4.95242526510128
20
-0.538109955844845
30
0
41
1
10
5.00873661552492
20
-0.565888991724421
30
0
41
1
10
5.12133562292465
20
-0.61979884856737
30
0
41
1
10
5.17764191142948
20
-0.645902833816876
30
0
41
1
10
5.2903701839995
20
-0.696264001639889
30
0
41
1
10
5.34683755497139
20
-0.72054840936724
30
0
41
1
10
5.5162192913036
20
-0.79026216138999
30
0
41
1
10
5.62877970983479
20
-0.832311121800245
30
0
41
1
10
5.7976904856335
20
-0.888117280294495
30
0
41
1
10
5.85402109550299
20
-0.905491445597818
30
0
41
1
10
5.96685267716214
20
-0.937667518257854
30
0
41
1
10
6.02339101611665
20
-0.952485452372912
30
0
41
1
10
6.19257968278981
20
-0.992735035795192
30
0
41
1
10
6.30510834043844
20
-1.01400205724258
30
0
41
1
10
6.47410547735598
20
-1.03724534596878
30
0
41
1
10
6.53048701670801
20
-1.04354219074619
30
0
41
1
10
6.6434618200843
20
-1.05317767865645
30
0
41
1
10
6.69990252583204
20
-1.05650372113192
30
0
41
1
10
6.86893739516935
20
-1.06198248451733
30
0
41
1
10
6.98145297732088
20
-1.05964654732236
30
0
41
1
10
7.15055430433583
20
-1.0471805329463
30
0
41
1
10
7.20706769492458
20
-1.04152414074375
30
0
41
1
10
7.31995623352216
20
-1.02729284753576
30
0
41
1
10
7.37630631106671
20
-1.01872145615837
30
0
41
1
10
7.54524397473276
20
-0.988737722533926
30
0
41
1
10
7.65778837507835
20
-0.963099797341584
30
0
41
1
10
7.82708565972635
20
-0.916535247438162
30
0
41
1
10
7.88360856554871
20
-0.89967099272252
30
0
41
1
10
7.97997373920688
20
-0.86879467745365
30
0
41
1
10
8.01991594942544
20
-0.855367385663669
30
0
41
1
10
8.05984234873139
20
-0.841344132166711
30
0
0
SPLINE
5
C4
100
AcDbEntity
8
1
62
256
6
ByLayer
370
18
48
1
60
0
100
AcDbSpline
70
4
71
3
72
34
73
30
40
0
40
0
40
0
40
0
40
0.0245633647389922
40
0.0245633647389922
40
0.113239422489988
40
0.113239422489988
40
0.290591537991981
40
0.290591537991981
40
0.379267595742977
40
0.379267595742977
40
0.467943653493973
40
0.467943653493973
40
0.645295768995974
40
0.645295768995974
40
0.733971826746974
40
0.733971826746974
40
0.822647884497975
40
0.822647884497975
40
0.844816898935725
40
0.844816898935725
40
0.866985913373476
40
0.866985913373476
40
0.911323942248984
40
0.911323942248984
40
0.955661971124492
40
0.955661971124492
40
0.977830985562246
40
0.977830985562246
40
1
40
1
40
1
40
1
41
1
10
12.6279100117537
20
1.05999991488233
30
0
41
1
10
12.6435332501864
20
1.05999626949904
30
0
41
1
10
12.6591626424924
20
1.05987751206487
30
0
41
1
10
12.7312498113331
20
1.05879840218219
30
0
41
1
10
12.7877546809197
20
1.05644615693666
30
0
41
1
10
12.9568488578224
20
1.04492954288835
30
0
41
1
10
13.0693598938963
20
1.03132503199501
30
0
41
1
10
13.2384047621645
20
1.0022577746002
30
0
41
1
10
13.2948576731959
20
0.991123153985626
30
0
41
1
10
13.4078196990788
20
0.966068889861845
30
0
41
1
10
13.4642021352708
20
0.952175241250586
30
0
41
1
10
13.6332078854099
20
0.906531368969695
30
0
41
1
10
13.7457695226064
20
0.870889895708387
30
0
41
1
10
13.9150289139773
20
0.81012458580804
30
0
41
1
10
13.9715611168386
20
0.788659127160514
30
0
41
1
10
14.0843549306443
20
0.743673713328889
30
0
41
1
10
14.1406610800073
20
0.720100186721794
30
0
41
1
10
14.2110483669229
20
0.689436024875477
30
0
41
1
10
14.2251308790991
20
0.683249729341043
30
0
41
1
10
14.2533161155814
20
0.670784880733692
30
0
41
1
10
14.2674133088999
20
0.66449933123684
30
0
41
1
10
14.3095818107229
20
0.645293271558472
30
0
41
1
10
14.3375543499197
20
0.63204710993395
30
0
41
1
10
14.3941488428555
20
0.605992411881829
30
0
41
1
10
14.4227860456261
20
0.593232980119154
30
0
41
1
10
14.464565096173
20
0.571997742448559
30
0
41
1
10
14.4782419400996
20
0.564481348851871
30
0
41
1
10
14.5061720334625
20
0.550173894574527
30
0
41
1
10
14.5203886022349
20
0.543326538730355
30
0
41
1
10
14.5357138823557
20
0.538131830908867
30
0
0
SPLINE
5
C5
100
AcDbEntity
8
1
62
256
6
ByLayer
370
18
48
1
60
0
100
AcDbSpline
70
4
71
3
72
26
73
22
40
0
40
0
40
0
40
0
40
0.0624999999999962
40
0.0624999999999962
40
0.124999999999992
40
0.124999999999992
40
0.249999999999995
40
0.249999999999995
40
0.374999999999997
40
0.374999999999997
40
0.499999999999999
40
0.499999999999999
40
0.625000000000001
40
0.625000000000001
40
0.750000000000003
40
0.750000000000003
40
0.812500000000004
40
0.812500000000004
40
0.875000000000005
40
0.875000000000005
40
1
40
1
40
1
40
1
41
1
10
14.5357138823557
20
0.538131830908867
30
0
41
1
10
14.5439964292744
20
0.526033497145477
30
0
41
1
10
14.5522794710608
20
0.514973496611645
30
0
41
1
10
14.5688597574685
20
0.494461184573822
30
0
41
1
10
14.577156359428
20
0.484973465209521
30
0
41
1
10
14.6020620311883
20
0.457898228166499
30
0
41
1
10
14.6186853128188
20
0.441634574229141
30
0
41
1
10
14.6519258633833
20
0.409107168648632
30
0
41
1
10
14.6685483979952
20
0.393076028760845
30
0
41
1
10
14.7015737033427
20
0.36317261999281
30
0
41
1
10
14.7179840853776
20
0.34933218855852
30
0
41
1
10
14.750454044345
20
0.32443145682322
30
0
41
1
10
14.7665284484198
20
0.313223655121078
30
0
41
1
10
14.7981854492332
20
0.292786174911299
30
0
41
1
10
14.8137795851456
20
0.283560791875175
30
0
41
1
10
14.8364076283515
20
0.27135957281493
30
0
41
1
10
14.8438200294462
20
0.267564884588239
30
0
41
1
10
14.8582476394128
20
0.260535498505703
30
0
41
1
10
14.8652707033831
20
0.25729835226079
30
0
41
1
10
14.8852943107854
20
0.248483233932944
30
0
41
1
10
14.8973863879599
20
0.243781800008122
30
0
41
1
10
14.9064282648856
20
0.240242076680431
30
0
0
SPLINE
5
C6
100
AcDbEntity
8
1
62
256
6
ByLayer
370
18
48
1
60
0
100
AcDbSpline
70
4
71
3
72
43
73
39
40
0
40
0
40
0
40
0
40
0.0588394571136618
40
0.0809042535312849
40
0.102969049948908
40
0.132388778505739
40
0.16180850706257
40
0.191228235619401
40
0.220647964176232
40
0.250067692733063
40
0.264777557011478
40
0.294197285568309
40
0.32361701412514
40
0.353036742681971
40
0.382456471238801
40
0.411876199795632
40
0.433940996213255
40
0.456005792630879
40
0.485425521187709
40
0.51484524974454
40
0.544264978301371
40
0.573684706858202
40
0.595749503275825
40
0.617814299693448
40
0.647234028250279
40
0.67665375680711
40
0.706073485363941
40
0.735493213920772
40
0.764912942477603
40
0.779622806756018
40
0.809042535312849
40
0.83846226386968
40
0.867881992426511
40
0.897301720983342
40
0.926721449540173
40
0.941431313818588
40
0.970851042375419
40
1
40
1
40
1
40
1
41
1
10
3.71168800000001
20
0.189697343296416
30
0
41
1
10
3.77063643813693
20
0.18375229501973
30
0
41
1
10
3.85168973924078
20
0.175182020632718
30
0
41
1
10
3.95484889069513
20
0.163637301704512
30
0
41
1
10
4.02853436693326
20
0.15515036653315
30
0
41
1
10
4.10958939068678
20
0.145518728995512
30
0
41
1
10
4.19801427410462
20
0.134682920548727
30
0
41
0.999999999999999
10
4.28643890272221
20
0.12353740143115
30
0
41
1
10
4.37486360345326
20
0.11209847453128
30
0
41
1
10
4.44855083206988
20
0.102344211624256
30
0
41
1
10
4.52223806909893
20
0.0924533986593019
30
0
41
1
10
4.59592530405851
20
0.0824299346290047
30
0
41
1
10
4.68434998652193
20
0.0702070166435362
30
0
41
1
10
4.77277466888225
20
0.0578107329547777
30
0
41
1
10
4.86119935126945
20
0.045292990661494
30
0
41
1
10
4.94225531011605
20
0.0337238302246305
30
0
41
1
10
5.01594254543417
20
0.0231490363414935
30
0
41
1
10
5.08962978075104
20
0.0125314697301917
30
0
41
1
10
5.17068573960088
20
0.00083402411056
30
0
41
1
10
5.25911042197924
20
-0.0119245612401642
30
0
41
1
10
5.34753510436817
20
-0.0246575212962341
30
0
41
1
10
5.42859106318352
20
-0.0362888159229726
30
0
41
1
10
5.50227829865124
20
-0.0467926946454611
30
0
41
1
10
5.57596553331587
20
-0.0572261844353079
30
0
41
1
10
5.65702149426008
20
-0.0685963535299834
30
0
41
1
10
5.74544616484244
20
-0.0808528352598899
30
0
41
1
10
5.83387082256149
20
-0.0929193261130195
30
0
41
1
10
5.92229546874378
20
-0.104760342191156
30
0
41
1
10
5.99598266536535
20
-0.114427216529577
30
0
41
1
10
6.06966985640733
20
-0.123929508159307
30
0
41
1
10
6.14335704227724
20
-0.133257426401457
30
0
41
1
10
6.23178165835273
20
-0.144131605372138
30
0
41
1
10
6.32020626876622
20
-0.154670569640132
30
0
41
1
10
6.40863087482401
20
-0.164856303072895
30
0
41
1
10
6.48231804399882
20
-0.173029583682308
30
0
41
1
10
6.55600521208078
20
-0.180942777783912
30
0
41
1
10
6.62942110108549
20
-0.188567685849762
30
0
41
1
10
6.68809955672239
20
-0.194374959940404
30
0
41
1
10
6.71730314560043
20
-0.197191571264256
30
0
0
SPLINE
5
C7
100
AcDbEntity
8
1
62
256
6
ByLayer
370
18
48
1
60
0
100
AcDbSpline
70
4
71
3
72
66
73
62
40
0
40
0
40
0
40
0
40
0.0337765613817206
40
0.0337765613817206
40
0.0580413371788274
40
0.0580413371788274
40
0.0823061129759341
40
0.0823061129759341
40
0.130835664570146
40
0.130835664570146
40
0.155100440367253
40
0.155100440367253
40
0.17936521616436
40
0.17936521616436
40
0.227894767758572
40
0.227894767758572
40
0.276424319352785
40
0.276424319352785
40
0.300689095149891
40
0.300689095149891
40
0.324953870946997
40
0.324953870946997
40
0.373483422541207
40
0.373483422541207
40
0.397748198338313
40
0.397748198338313
40
0.422012974135419
40
0.422012974135419
40
0.470542525729631
40
0.470542525729631
40
0.494807301526738
40
0.494807301526738
40
0.519072077323844
40
0.519072077323844
40
0.567601628918054
40
0.567601628918054
40
0.591866404715158
40
0.591866404715158
40
0.616131180512262
40
0.616131180512262
40
0.66466073210647
40
0.66466073210647
40
0.713190283700678
40
0.713190283700678
40
0.73745505949778
40
0.73745505949778
40
0.761719835294883
40
0.761719835294883
40
0.810249386889089
40
0.810249386889089
40
0.834514162686192
40
0.834514162686192
40
0.858778938483294
40
0.858778938483294
40
0.907308490077502
40
0.907308490077502
40
0.931573265874605
40
0.931573265874605
40
0.955838041671708
40
0.955838041671708
40
1
40
1
40
1
40
1
41
1
10
6.85898343561843
20
1.06000116412028
30
0
41
1
10
6.93736710485638
20
1.06001007210114
30
0
41
1
10
7.01572419476008
20
1.05712010062427
30
0
41
1
10
7.15055430433583
20
1.0471805329463
30
0
41
1
10
7.20706769492458
20
1.04152414074375
30
0
41
1
10
7.31995623352216
20
1.02729284753576
30
0
41
1
10
7.37630631106671
20
1.01872145615837
30
0
41
1
10
7.54524397473276
20
0.988737722533926
30
0
41
1
10
7.65778837507833
20
0.963099797341584
30
0
41
1
10
7.82708565972635
20
0.916535247438162
30
0
41
1
10
7.88360856554871
20
0.89967099272252
30
0
41
1
10
7.99638218362898
20
0.863537256293938
30
0
41
1
10
8.05269706994312
20
0.844241296232553
30
0
41
1
10
8.2215972002775
20
0.782850339037253
30
0
41
1
10
8.3342489087988
20
0.737302361663922
30
0
41
1
10
8.56015783165336
20
0.637977130170952
30
0
41
1
10
8.67273621292017
20
0.584650100059633
30
0
41
1
10
8.84163753906552
20
0.500060829848906
30
0
41
1
10
8.89796207392865
20
0.471124884905691
30
0
41
1
10
9.01076759588955
20
0.411937642975971
30
0
41
1
10
9.06730879490851
20
0.381643950847746
30
0
41
1
10
9.2365384994192
20
0.289411757488551
30
0
41
1
10
9.34908033848228
20
0.226193347242059
30
0
41
1
10
9.51804947850226
20
0.12974756632201
30
0
41
1
10
9.5744182119806
20
0.0973626322255541
30
0
41
1
10
9.6873543147139
20
0.0323031625080432
30
0
41
1
10
9.74383235027298
20
-0.0003310970342625
30
0
41
1
10
9.91289171141364
20
-0.0979515521070198
30
0
41
1
10
10.0254021080989
20
-0.162644123064666
30
0
41
1
10
10.1944761870673
20
-0.258061468056411
30
0
41
1
10
10.2509635763206
20
-0.28960287643838
30
0
41
1
10
10.3638861140279
20
-0.351725592360253
30
0
41
1
10
10.4202484305599
20
-0.382285450993436
30
0
41
1
10
10.5892127569166
20
-0.472185707766641
30
0
41
1
10
10.7017497236589
20
-0.529657669208262
30
0
41
1
10
10.8709976804742
20
-0.611230015836298
30
0
41
1
10
10.9275329988843
20
-0.637635017747954
30
0
41
1
10
11.040330348618
20
-0.688424870423091
30
0
41
1
10
11.096652319413
20
-0.712855219902195
30
0
41
1
10
11.2655465708469
20
-0.783052004661641
30
0
41
1
10
11.3781325227175
20
-0.825622722153639
30
0
41
1
10
11.6040689250731
20
-0.901332221437116
30
0
41
1
10
11.7166891458573
20
-0.934108038942981
30
0
41
1
10
11.8855897128944
20
-0.975177921461494
30
0
41
1
10
11.9419090061337
20
-0.987506286945091
30
0
41
1
10
12.0546921632639
20
-1.00936375294117
30
0
41
1
10
12.1112216755031
20
-1.01890530445925
30
0
41
1
10
12.2805032563605
20
-1.0431166672266
30
0
41
1
10
12.3930459499963
20
-1.05337728104757
30
0
41
1
10
12.5619954203333
20
-1.05983059110781
30
0
41
1
10
12.6183490951927
20
-1.06048847103224
30
0
41
1
10
12.7312498113331
20
-1.05879840218219
30
0
41
1
10
12.7877546809197
20
-1.05644615693666
30
0
41
1
10
12.9568488578224
20
-1.04492954288835
30
0
41
1
10
13.0693598938963
20
-1.03132503199501
30
0
41
1
10
13.2384047621644
20
-1.0022577746002
30
0
41
1
10
13.2948576731959
20
-0.991123153985626
30
0
41
1
10
13.4078196990788
20
-0.966068889861845
30
0
41
1
10
13.4642021352708
20
-0.952175241250586
30
0
41
1
10
13.6230676945097
20
-0.909269959686156
30
0
41
1
10
13.7255078540666
20
-0.877263045656406
30
0
41
1
10
13.828149361597
20
-0.841198721645327
30
0
0
SPLINE
5
C8
100
AcDbEntity
8
1
62
256
6
ByLayer
370
18
48
1
60
0
100
AcDbSpline
70
4
71
3
72
45
73
41
40
0
40
0
40
0
40
0
40
0.0242445710124702
40
0.0532523847233139
40
0.0677562915787358
40
0.0967641052895791
40
0.125771919000423
40
0.154779732711266
40
0.18378754642211
40
0.212795360132954
40
0.234551220416086
40
0.256307080699219
40
0.285314894410063
40
0.314322708120906
40
0.34333052183175
40
0.372338335542593
40
0.401346149253437
40
0.415850056108859
40
0.444857869819702
40
0.473865683530545
40
0.502873497241389
40
0.531881310952233
40
0.560889124663076
40
0.575393031518498
40
0.604400845229342
40
0.633408658940185
40
0.662416472651029
40
0.691424286361872
40
0.720432100072716
40
0.742187960355849
40
0.763943820638981
40
0.792951634349825
40
0.821959448060669
40
0.850967261771512
40
0.879975075482356
40
0.901730935765488
40
0.923486796048621
40
0.952494609759465
40
0.981502423470308
40
1
40
1
40
1
40
1
41
1
10
9.42957834267776
20
0.194667356378801
30
0
41
1
10
9.45421327808176
20
0.19225415185187
30
0
41
1
10
9.50832308506073
20
0.186836560254022
30
0
41
1
10
9.57717032783009
20
0.179638516731615
30
0
41
1
10
9.65085750675416
20
0.171676142449513
30
0
41
1
10
9.72454468574202
20
0.163466093969532
30
0
41
1
10
9.81296930033292
20
0.153220003706934
30
0
41
1
10
9.90139391543803
20
0.142623636735465
30
0
41
1
10
9.9898185287881
20
0.131703115835592
30
0
41
0.999999999999999
10
10.0708744314549
20
0.121410561250514
30
0
41
1
10
10.1445614528183
20
0.11184310629946
30
0
41
1
10
10.2182483805517
20
0.102115202500102
30
0
41
1
10
10.299303880886
20
0.0912296582438046
30
0
41
1
10
10.3877279398484
20
0.0791448918745914
30
0
41
1
10
10.4761518983258
20
0.066868902297017
30
0
41
1
10
10.5645757798026
20
0.0544366043856996
30
0
41
1
10
10.6382623029426
20
0.0439812545008351
30
0
41
1
10
10.7119488071133
20
0.0334634247917052
30
0
41
1
10
10.7856352996023
20
0.0228915579916134
30
0
41
1
10
10.8740590952381
20
0.01014282623143
30
0
41
1
10
10.9624829188616
20
-0.0026180682321524
30
0
41
1
10
11.0509067938066
20
-0.0153712664093177
30
0
41
1
10
11.1245934184939
20
-0.0259764428068081
30
0
41
1
10
11.1982801043655
20
-0.0365467237683958
30
0
41
1
10
11.2719668590454
20
-0.0470606494287722
30
0
41
1
10
11.3603910968571
20
-0.059561485520959
30
0
41
1
10
11.4488154931919
20
-0.0719291033078377
30
0
41
1
10
11.5372400617057
20
-0.084140618585252
30
0
41
1
10
11.6182958816899
20
-0.0951441699418183
30
0
41
1
10
11.6919830025792
20
-0.104983921588172
30
0
41
1
10
11.7656701197632
20
-0.114670843801434
30
0
41
1
10
11.8467259495725
20
-0.12512500358352
30
0
41
1
10
11.9351504909805
20
-0.136231427462235
30
0
41
1
10
12.0235750324353
20
-0.147016645584273
30
0
41
1
10
12.1046308620893
20
-0.156591676454212
30
0
41
1
10
12.1783179799608
20
-0.165036930640696
30
0
41
0.999999999999999
10
12.252005097831
20
-0.17324011687893
30
0
41
1
10
12.3330609274887
20
-0.181938762976784
30
0
41
1
10
12.4108060141661
20
-0.189910721654769
30
0
41
1
10
12.4590762536964
20
-0.194666075723035
30
0
41
1
10
12.4778716460778
20
-0.196487010440137
30
0
0
SPLINE
5
C9
100
AcDbEntity
8
1
62
256
6
ByLayer
370
18
48
1
60
0
100
AcDbSpline
70
4
71
3
72
45
73
41
40
0
40
0
40
0
40
0
40
0.124999999999994
40
0.124999999999994
40
0.187499999999993
40
0.187499999999993
40
0.249999999999992
40
0.249999999999992
40
0.312499999999991
40
0.312499999999991
40
0.37499999999999
40
0.37499999999999
40
0.499999999999989
40
0.499999999999989
40
0.531249999999988
40
0.531249999999988
40
0.562499999999988
40
0.562499999999988
40
0.624999999999991
40
0.624999999999991
40
0.687499999999993
40
0.687499999999993
40
0.703124999999993
40
0.703124999999993
40
0.718749999999992
40
0.749999999999993
40
0.749999999999993
40
0.812499999999996
40
0.812499999999996
40
0.828124999999996
40
0.828124999999996
40
0.843749999999996
40
0.843749999999996
40
0.874999999999997
40
0.874999999999997
40
0.937499999999998
40
0.937499999999998
40
0.968749999999999
40
0.968749999999999
40
1
40
1
40
1
40
1
41
1
10
3.71168800000001
20
0.151698926585738
30
0
41
1
10
3.63091610730905
20
0.174988289345578
30
0
41
1
10
3.55177088837448
20
0.202577925615316
30
0
41
1
10
3.43549083250949
20
0.25010538947609
30
0
41
1
10
3.39715593022964
20
0.266970319074204
30
0
41
1
10
3.32174265003834
20
0.302500307905945
30
0
41
1
10
3.28461046618139
20
0.321186444446255
30
0
41
1
10
3.21151583323592
20
0.360330370881712
30
0
41
1
10
3.17545708517048
20
0.380849992694664
30
0
41
1
10
3.1052860473753
20
0.423148099744679
30
0
41
1
10
3.07111921469638
20
0.444948825797468
30
0
41
1
10
2.97144944356575
20
0.512070959919839
30
0
41
1
10
2.90874118221512
20
0.559110689562061
30
0
41
1
10
2.83567199195227
20
0.620042191688299
30
0
41
1
10
2.82132683617974
20
0.632335213642477
30
0
41
1
10
2.79320455597119
20
0.657116539456467
30
0
41
1
10
2.77938209804162
20
0.669647663520777
30
0
41
1
10
2.73919498921711
20
0.707159293941601
30
0
41
1
10
2.71416872801149
20
0.731987957775914
30
0
41
1
10
2.66788861996719
20
0.7809398413427
30
0
41
1
10
2.64663024471722
20
0.805065028032402
30
0
41
1
10
2.62271115703541
20
0.834523216179974
30
0
41
1
10
2.61806132810403
20
0.840379915988478
30
0
41
1
10
2.60912192756075
20
0.851906054903822
30
0
41
1
10
2.59621912975129
20
0.868956029348254
30
0
41
1
10
2.5848390258646
20
0.885264205359761
30
0
41
1
10
2.56414830358369
20
0.916818840521671
30
0
41
1
10
2.5530986351414
20
0.93644553753839
30
0
41
1
10
2.5430390614037
20
0.958907337707075
30
0
41
1
10
2.54121596396865
20
0.963295658496634
30
0
41
1
10
2.53796082702587
20
0.97185433686883
30
0
41
1
10
2.53652990944332
20
0.976025432751243
30
0
41
1
10
2.53288597291095
20
0.988043158368811
30
0
41
1
10
2.53129760141175
20
0.995451514992396
30
0
41
1
10
2.52900095989628
20
1.01589105755573
30
0
41
1
10
2.53074594434915
20
1.02714290972756
30
0
41
1
10
2.53834074482222
20
1.04044401135954
30
0
41
1
10
2.54172421525325
20
1.04428624292149
30
0
41
1
10
2.55006201542381
20
1.05066753617544
30
0
41
1
10
2.55501944668032
20
1.05322481454937
30
0
41
1
10
2.56074798459105
20
1.05517742966154
30
0
0
LINE
5
7F
100
AcDbEntity
8
1
62
256
6
ByLayer
370
18
48
1
60
0
100
AcDbLine
10
0
20
1.5
30
0
11
0
21
0
31
0
39
0
210
0
220
0
230
1
0
LINE
5
80
100
AcDbEntity
8
1
62
256
6
ByLayer
370
18
48
1
60
0
100
AcDbLine
10
0
20
0
30
0
11
0
21
-1.5
31
0
39
0
210
0
220
0
230
1
0
LINE
5
81
100
AcDbEntity
8
1
62
256
6
ByLayer
370
18
48
1
60
0
100
AcDbLine
10
14.535714
20
0.538132
30
0
11
14.535714
21
-1.021563
31
0
39
0
210
0
220
0
230
1
0
LINE
5
82
100
AcDbEntity
8
1
62
256
6
ByLayer
370
18
48
1
60
0
100
AcDbLine
10
3.711688
20
1.052535
30
0
11
3.711688
21
0.189697
31
0
39
0
210
0
220
0
230
1
0
LINE
5
83
100
AcDbEntity
8
1
62
256
6
ByLayer
370
13
48
1
60
0
100
AcDbLine
10
1.030044
20
1.06
30
0
11
1.030044
21
-1.06
31
0
39
0
210
0
220
0
230
1
0
LINE
5
84
100
AcDbEntity
8
1
62
256
6
ByLayer
370
13
48
1
60
0
100
AcDbLine
10
0.530044
20
1.193975
30
0
11
0.530044
21
-1.193975
31
0
39
0
210
0
220
0
230
1
0
LINE
5
85
100
AcDbEntity
8
SK1
62
256
6
ByLayer
370
18
48
1
60
0
100
AcDbLine
10
-22.97
20
1.326795
30
0
11
-22.97
21
-1.326795
31
0
39
0
210
0
220
0
230
1
0
LINE
5
87
100
AcDbEntity
8
SK1
62
256
6
ByLayer
370
18
48
1
60
0
100
AcDbLine
10
0
20
1.5
30
0
11
0
21
0
31
0
39
0
210
0
220
0
230
1
0
LINE
5
88
100
AcDbEntity
8
SK1
62
256
6
ByLayer
370
18
48
1
60
0
100
AcDbLine
10
0
20
0
30
0
11
0
21
-1.5
31
0
39
0
210
0
220
0
230
1
0
LINE
5
89
100
AcDbEntity
8
SK1
62
256
6
ByLayer
370
18
48
1
60
0
100
AcDbLine
10
-22.67
20
1.5
30
0
11
-22.67
21
-1.5
31
0
39
0
210
0
220
0
230
1
0
LINE
5
8A
100
AcDbEntity
8
1
62
256
6
ByLayer
370
18
48
1
60
0
100
AcDbLine
10
15.03
20
0
30
0
11
14.835856
21
0.416343
31
0
39
0
210
0
220
0
230
1
0
LINE
5
8B
100
AcDbEntity
8
1
62
256
6
ByLayer
370
18
48
1
60
0
100
AcDbLine
10
14.835856
20
-0.416343
30
0
11
15.03
21
0
31
0
39
0
210
0
220
0
230
1
0
LINE
5
8C
100
AcDbEntity
8
1
62
256
6
ByLayer
370
18
48
1
60
0
100
AcDbLine
10
1.030044
20
-1.06
30
0
11
6.85907
21
-1.06
31
0
39
0
210
0
220
0
230
1
0
LINE
5
8D
100
AcDbEntity
8
1
62
256
6
ByLayer
370
18
48
1
60
0
100
AcDbLine
10
9.261037
20
-1.06
30
0
11
12.62769
21
-1.06
31
0
39
0
210
0
220
0
230
1
0
LINE
5
8E
100
AcDbEntity
8
1
62
256
6
ByLayer
370
18
48
1
60
0
100
AcDbLine
10
12.62769
20
1.06
30
0
11
9.261037
21
1.06
31
0
39
0
210
0
220
0
230
1
0
LINE
5
8F
100
AcDbEntity
8
1
62
256
6
ByLayer
370
18
48
1
60
0
100
AcDbLine
10
6.85907
20
1.06
30
0
11
1.030044
21
1.06
31
0
39
0
210
0
220
0
230
1
0
LINE
5
90
100
AcDbEntity
8
1
62
256
6
ByLayer
370
18
48
1
60
0
100
AcDbLine
10
0.530044
20
1.193975
30
0
11
0
21
1.5
31
0
39
0
210
0
220
0
230
1
0
LINE
5
91
100
AcDbEntity
8
1
62
256
6
ByLayer
370
18
48
1
60
0
100
AcDbLine
10
0
20
-1.5
30
0
11
0.530044
21
-1.193975
31
0
39
0
210
0
220
0
230
1
0
LINE
5
92
100
AcDbEntity
8
SK1
62
256
6
ByLayer
370
18
48
1
60
0
100
AcDbLine
10
-22.97
20
-1.326795
30
0
11
-22.67
21
-1.5
31
0
39
0
210
0
220
0
230
1
0
LINE
5
93
100
AcDbEntity
8
SK1
62
256
6
ByLayer
370
18
48
1
60
0
100
AcDbLine
10
-22.67
20
1.5
30
0
11
-22.97
21
1.326795
31
0
39
0
210
0
220
0
230
1
0
LINE
5
94
100
AcDbEntity
8
SK1
62
256
6
ByLayer
370
18
48
1
60
0
100
AcDbLine
10
-22.67
20
-1.5
30
0
11
0
21
-1.5
31
0
39
0
210
0
220
0
230
1
0
LINE
5
95
100
AcDbEntity
8
SK1
62
256
6
ByLayer
370
18
48
1
60
0
100
AcDbLine
10
0
20
1.5
30
0
11
-22.67
21
1.5
31
0
39
0
210
0
220
0
230
1
0
LINE
5
96
100
AcDbEntity
8
4
62
256
6
ByLayer
370
18
48
0.05
60
0
100
AcDbLine
10
0
20
0
30
0
11
15.03
21
0
31
0
39
0
210
0
220
0
230
1
0
LINE
5
98
100
AcDbEntity
8
81
62
256
6
ByLayer
370
18
48
1
60
0
100
AcDbLine
10
15.03
20
0
30
0
11
18.03
21
0
31
0
39
0
210
0
220
0
230
1
0
LINE
5
99
100
AcDbEntity
8
80
62
256
6
ByLayer
370
18
48
1
60
0
100
AcDbLine
10
0
20
0
30
0
11
-3
21
0
31
0
39
0
210
0
220
0
230
1
0
LINE
5
9A
100
AcDbEntity
8
SK4
62
256
6
ByLayer
370
18
48
0.05
60
0
100
AcDbLine
10
-25.97
20
0
30
0
11
18.03
21
0
31
0
39
0
210
0
220
0
230
1
0
LINE
5
9C
100
AcDbEntity
8
SK2
62
256
6
ByLayer
370
13
48
1
60
0
100
AcDbLine
10
-27.47
20
-9
30
0
11
-27.47
21
21.782741
31
0
39
0
210
0
220
0
230
1
0
LINE
5
9E
100
AcDbEntity
8
SK2
62
256
6
ByLayer
370
13
48
1
60
0
100
AcDbLine
10
-24.5575
20
-1.5
30
0
11
-29.47
21
-1.5
31
0
39
0
210
0
220
0
230
1
0
LINE
5
9F
100
AcDbEntity
8
SK2
62
256
6
ByLayer
370
13
48
1
60
0
100
AcDbLine
10
-24.5575
20
1.5
30
0
11
-29.47
21
1.5
31
0
39
0
210
0
220
0
230
1
0
LINE
5
A0
100
AcDbEntity
8
1
62
256
6
ByLayer
370
18
48
1
60
1
100
AcDbLine
10
-27.47
20
-1.5
30
0
11
-27.009216
21
-4.999998
31
0
39
0
210
0
220
0
230
1
0
LINE
5
A1
100
AcDbEntity
8
1
62
256
6
ByLayer
370
18
48
1
60
1
100
AcDbLine
10
-27.009216
20
-4.999998
30
0
11
-27.930784
21
-5.000002
31
0
39
0
210
0
220
0
230
1
0
LINE
5
A2
100
AcDbEntity
8
1
62
256
6
ByLayer
370
18
48
1
60
1
100
AcDbLine
10
-27.930784
20
-5.000002
30
0
11
-27.47
21
-1.5
31
0
39
0
210
0
220
0
230
1
0
LINE
5
A3
100
AcDbEntity
8
1
62
256
6
ByLayer
370
18
48
1
60
1
100
AcDbLine
10
-27.47
20
1.5
30
0
11
-27.930784
21
4.999998
31
0
39
0
210
0
220
0
230
1
0
LINE
5
A4
100
AcDbEntity
8
1
62
256
6
ByLayer
370
18
48
1
60
1
100
AcDbLine
10
-27.930784
20
4.999998
30
0
11
-27.009216
21
5.000002
31
0
39
0
210
0
220
0
230
1
0
LINE
5
A5
100
AcDbEntity
8
1
62
256
6
ByLayer
370
18
48
1
60
1
100
AcDbLine
10
-27.009216
20
5.000002
30
0
11
-27.47
21
1.5
31
0
39
0
210
0
220
0
230
1
0
LINE
5
A6
100
AcDbEntity
8
2
62
256
6
ByLayer
370
13
48
1
60
0
100
AcDbLine
10
20.53
20
-8.56
30
0
11
20.53
21
28.972855
31
0
39
0
210
0
220
0
230
1
0
LINE
5
A8
100
AcDbEntity
8
2
62
256
6
ByLayer
370
13
48
1
60
0
100
AcDbLine
10
16.6175
20
-1.06
30
0
11
22.53
21
-1.06
31
0
39
0
210
0
220
0
230
1
0
LINE
5
A9
100
AcDbEntity
8
2
62
256
6
ByLayer
370
13
48
1
60
0
100
AcDbLine
10
16.6175
20
1.06
30
0
11
22.53
21
1.06
31
0
39
0
210
0
220
0
230
1
0
LINE
5
AA
100
AcDbEntity
8
1
62
256
6
ByLayer
370
18
48
1
60
1
100
AcDbLine
10
20.53
20
-1.06
30
0
11
20.990784
21
-4.559998
31
0
39
0
210
0
220
0
230
1
0
LINE
5
AB
100
AcDbEntity
8
1
62
256
6
ByLayer
370
18
48
1
60
1
100
AcDbLine
10
20.990784
20
-4.559998
30
0
11
20.069216
21
-4.560002
31
0
39
0
210
0
220
0
230
1
0
LINE
5
AC
100
AcDbEntity
8
1
62
256
6
ByLayer
370
18
48
1
60
1
100
AcDbLine
10
20.069216
20
-4.560002
30
0
11
20.53
21
-1.06
31
0
39
0
210
0
220
0
230
1
0
LINE
5
AD
100
AcDbEntity
8
1
62
256
6
ByLayer
370
18
48
1
60
1
100
AcDbLine
10
20.53
20
1.06
30
0
11
20.069216
21
4.559998
31
0
39
0
210
0
220
0
230
1
0
LINE
5
AE
100
AcDbEntity
8
1
62
256
6
ByLayer
370
18
48
1
60
1
100
AcDbLine
10
20.069216
20
4.559998
30
0
11
20.990784
21
4.560002
31
0
39
0
210
0
220
0
230
1
0
LINE
5
AF
100
AcDbEntity
8
1
62
256
6
ByLayer
370
18
48
1
60
1
100
AcDbLine
10
20.990784
20
4.560002
30
0
11
20.53
21
1.06
31
0
39
0
210
0
220
0
230
1
0
LINE
5
B0
100
AcDbEntity
8
SK2
62
256
6
ByLayer
370
13
48
1
60
0
100
AcDbLine
10
15.700906
20
-1.438764
30
0
11
22.785045
21
-16.630748
31
0
39
0
210
0
220
0
230
1
0
LINE
5
B1
100
AcDbEntity
8
SK2
62
256
6
ByLayer
370
13
48
1
60
0
100
AcDbLine
10
15.700906
20
1.438764
30
0
11
22.785045
21
16.630748
31
0
39
0
210
0
220
0
230
1
0
LINE
5
B2
100
AcDbEntity
8
1
62
256
6
ByLayer
370
18
48
1
60
1
100
AcDbLine
10
21.939809
20
-14.818132
30
0
11
24.811842
21
-12.765394
31
0
39
0
210
0
220
0
230
1
0
LINE
5
B3
100
AcDbEntity
8
1
62
256
6
ByLayer
370
18
48
1
60
1
100
AcDbLine
10
24.811842
20
-12.765394
30
0
11
25.245271
21
-13.578675
31
0
39
0
210
0
220
0
230
1
0
LINE
5
B4
100
AcDbEntity
8
1
62
256
6
ByLayer
370
18
48
1
60
1
100
AcDbLine
10
25.245271
20
-13.578675
30
0
11
21.939809
21
-14.818132
31
0
39
0
210
0
220
0
230
1
0
LINE
5
B5
100
AcDbEntity
8
1
62
256
6
ByLayer
370
18
48
1
60
1
100
AcDbLine
10
21.939809
20
14.818132
30
0
11
25.245268
21
13.578677
31
0
39
0
210
0
220
0
230
1
0
LINE
5
B6
100
AcDbEntity
8
1
62
256
6
ByLayer
370
18
48
1
60
1
100
AcDbLine
10
25.245268
20
13.578677
30
0
11
24.811845
21
12.765392
31
0
39
0
210
0
220
0
230
1
0
LINE
5
B7
100
AcDbEntity
8
1
62
256
6
ByLayer
370
18
48
1
60
1
100
AcDbLine
10
24.811845
20
12.765392
30
0
11
21.939809
21
14.818132
31
0
39
0
210
0
220
0
230
1
0
LINE
5
CE
100
AcDbEntity
8
1
62
256
6
ByLayer
370
18
48
1
60
1
100
AcDbLine
10
-27.47
20
-1.5
30
0
11
-27.009216
21
-4.999998
31
0
39
0
210
0
220
0
230
1
0
LINE
5
CF
100
AcDbEntity
8
1
62
256
6
ByLayer
370
18
48
1
60
1
100
AcDbLine
10
-27.009216
20
-4.999998
30
0
11
-27.930784
21
-5.000002
31
0
39
0
210
0
220
0
230
1
0
LINE
5
D0
100
AcDbEntity
8
1
62
256
6
ByLayer
370
18
48
1
60
1
100
AcDbLine
10
-27.930784
20
-5.000002
30
0
11
-27.47
21
-1.5
31
0
39
0
210
0
220
0
230
1
0
LINE
5
D2
100
AcDbEntity
8
1
62
256
6
ByLayer
370
18
48
1
60
1
100
AcDbLine
10
-27.47
20
1.5
30
0
11
-27.930784
21
4.999998
31
0
39
0
210
0
220
0
230
1
0
LINE
5
D3
100
AcDbEntity
8
1
62
256
6
ByLayer
370
18
48
1
60
1
100
AcDbLine
10
-27.930784
20
4.999998
30
0
11
-27.009216
21
5.000002
31
0
39
0
210
0
220
0
230
1
0
LINE
5
D4
100
AcDbEntity
8
1
62
256
6
ByLayer
370
18
48
1
60
1
100
AcDbLine
10
-27.009216
20
5.000002
30
0
11
-27.47
21
1.5
31
0
39
0
210
0
220
0
230
1
0
LINE
5
D8
100
AcDbEntity
8
1
62
256
6
ByLayer
370
18
48
1
60
1
100
AcDbLine
10
20.53
20
-1.06
30
0
11
20.990784
21
-4.559998
31
0
39
0
210
0
220
0
230
1
0
LINE
5
D9
100
AcDbEntity
8
1
62
256
6
ByLayer
370
18
48
1
60
1
100
AcDbLine
10
20.990784
20
-4.559998
30
0
11
20.069216
21
-4.560002
31
0
39
0
210
0
220
0
230
1
0
LINE
5
DA
100
AcDbEntity
8
1
62
256
6
ByLayer
370
18
48
1
60
1
100
AcDbLine
10
20.069216
20
-4.560002
30
0
11
20.53
21
-1.06
31
0
39
0
210
0
220
0
230
1
0
LINE
5
DC
100
AcDbEntity
8
1
62
256
6
ByLayer
370
18
48
1
60
1
100
AcDbLine
10
20.53
20
1.06
30
0
11
20.069216
21
4.559998
31
0
39
0
210
0
220
0
230
1
0
LINE
5
DD
100
AcDbEntity
8
1
62
256
6
ByLayer
370
18
48
1
60
1
100
AcDbLine
10
20.069216
20
4.559998
30
0
11
20.990784
21
4.560002
31
0
39
0
210
0
220
0
230
1
0
LINE
5
DE
100
AcDbEntity
8
1
62
256
6
ByLayer
370
18
48
1
60
1
100
AcDbLine
10
20.990784
20
4.560002
30
0
11
20.53
21
1.06
31
0
39
0
210
0
220
0
230
1
0
LINE
5
E1
100
AcDbEntity
8
1
62
256
6
ByLayer
370
18
48
1
60
1
100
AcDbLine
10
21.939809
20
-14.818132
30
0
11
24.811842
21
-12.765394
31
0
39
0
210
0
220
0
230
1
0
LINE
5
E2
100
AcDbEntity
8
1
62
256
6
ByLayer
370
18
48
1
60
1
100
AcDbLine
10
24.811842
20
-12.765394
30
0
11
25.245271
21
-13.578675
31
0
39
0
210
0
220
0
230
1
0
LINE
5
E3
100
AcDbEntity
8
1
62
256
6
ByLayer
370
18
48
1
60
1
100
AcDbLine
10
25.245271
20
-13.578675
30
0
11
21.939809
21
-14.818132
31
0
39
0
210
0
220
0
230
1
0
LINE
5
E5
100
AcDbEntity
8
1
62
256
6
ByLayer
370
18
48
1
60
1
100
AcDbLine
10
21.939809
20
14.818132
30
0
11
25.245268
21
13.578677
31
0
39
0
210
0
220
0
230
1
0
LINE
5
E6
100
AcDbEntity
8
1
62
256
6
ByLayer
370
18
48
1
60
1
100
AcDbLine
10
25.245268
20
13.578677
30
0
11
24.811845
21
12.765392
31
0
39
0
210
0
220
0
230
1
0
LINE
5
E7
100
AcDbEntity
8
1
62
256
6
ByLayer
370
18
48
1
60
1
100
AcDbLine
10
24.811845
20
12.765392
30
0
11
21.939809
21
14.818132
31
0
39
0
210
0
220
0
230
1
0
MTEXT
5
CA
100
AcDbEntity
8
SK2
62
256
6
ByLayer
370
18
48
1
60
0
100
AcDbMText
10
-28.811114
20
6.658437
30
0
210
0
220
0
230
1
1
%%c
40
3
41
0
44
1.084337
50
90
71
7
72
5
7
iso_b_vert
0
MTEXT
5
CD
100
AcDbEntity
8
SK2
62
256
6
ByLayer
370
18
48
1
60
0
100
AcDbMText
10
-28.811114
20
12.635
30
0
210
0
220
0
230
1
1
\W0.7468;3.000
40
3
41
0
44
1.084337
50
90
71
7
72
5
7
iso_b_vert
0
MTEXT
5
D6
100
AcDbEntity
8
2
62
256
6
ByLayer
370
18
48
1
60
0
100
AcDbMText
10
19.188886
20
14.598437
30
0
210
0
220
0
230
1
1
%%c
40
3
41
0
44
1.084337
50
90
71
7
72
5
7
iso_b_vert
0
MTEXT
5
D7
100
AcDbEntity
8
2
62
256
6
ByLayer
370
18
48
1
60
0
100
AcDbMText
10
19.188886
20
20.575
30
0
210
0
220
0
230
1
1
\W0.6864;2.120
40
3
41
0
44
1.084337
50
90
71
7
72
5
7
iso_b_vert
0
MTEXT
5
E0
100
AcDbEntity
8
SK2
62
256
6
ByLayer
370
18
48
1
60
0
100
AcDbMText
10
28.097286
20
-2.114886
30
0
210
0
220
0
230
1
1
\W0.6747;130%%d
40
3
41
0
44
1.084337
50
0
71
7
72
5
7
iso_b_vert
0
MTEXT
5
E9
100
AcDbEntity
8
SK6
62
256
6
ByLayer
370
18
48
1
60
0
100
AcDbMText
10
-31.776596
20
-48.114886
30
0
210
0
220
0
230
1
1
\W0.7670;462.1-0212-009A0-XM X0BM
40
3
41
0
44
1.084337
50
0
71
7
72
5
7
iso_b_vert
0
HATCH
5
D1
100
AcDbEntity
8
SK2
62
256
6
ByLayer
370
13
48
1
60
0
100
AcDbHatch
10
0
20
0
30
0
210
0
220
0
230
1
2
ANSI31
70
0
71
0
91
1
92
5
93
3
72
1
10
-27.47
20
-1.5
11
-27.0092162584472
21
-4.99999830744682
72
1
10
-27.0092162584472
20
-4.99999830744682
11
-27.9307837415528
21
-5.00000169255318
72
1
10
-27.9307837415528
20
-5.00000169255318
11
-27.47
21
-1.5
97
0
75
0
76
1
52
0
41
0.0062
77
0
78
1
53
45
43
0
44
0
45
-0.0139193969876572
46
0.0139193969876572
79
0
47
0
98
1
10
0
20
0
0
HATCH
5
D5
100
AcDbEntity
8
SK2
62
256
6
ByLayer
370
13
48
1
60
0
100
AcDbHatch
10
0
20
0
30
0
210
0
220
0
230
1
2
ANSI31
70
0
71
0
91
1
92
5
93
3
72
1
10
-27.47
20
1.5
11
-27.9307837415528
21
4.99999830744682
72
1
10
-27.9307837415528
20
4.99999830744682
11
-27.0092162584472
21
5.00000169255318
72
1
10
-27.0092162584472
20
5.00000169255318
11
-27.47
21
1.5
97
0
75
0
76
1
52
0
41
0.0062
77
0
78
1
53
45
43
0
44
0
45
-0.0139193969876572
46
0.0139193969876572
79
0
47
0
98
1
10
0
20
0
0
HATCH
5
DB
100
AcDbEntity
8
2
62
256
6
ByLayer
370
13
48
1
60
0
100
AcDbHatch
10
0
20
0
30
0
210
0
220
0
230
1
2
ANSI31
70
0
71
0
91
1
92
5
93
3
72
1
10
20.53
20
-1.06
11
20.9907837415528
21
-4.55999830744682
72
1
10
20.9907837415528
20
-4.55999830744682
11
20.0692162584472
21
-4.56000169255319
72
1
10
20.0692162584472
20
-4.56000169255319
11
20.53
21
-1.06
97
0
75
0
76
1
52
0
41
0.0062
77
0
78
1
53
45
43
0
44
0
45
-0.0139193969876572
46
0.0139193969876572
79
0
47
0
98
1
10
0
20
0
0
HATCH
5
DF
100
AcDbEntity
8
2
62
256
6
ByLayer
370
13
48
1
60
0
100
AcDbHatch
10
0
20
0
30
0
210
0
220
0
230
1
2
ANSI31
70
0
71
0
91
1
92
5
93
3
72
1
10
20.53
20
1.06
11
20.0692162584472
21
4.55999830744682
72
1
10
20.0692162584472
20
4.55999830744682
11
20.9907837415528
21
4.56000169255319
72
1
10
20.9907837415528
20
4.56000169255319
11
20.53
21
1.06
97
0
75
0
76
1
52
0
41
0.0062
77
0
78
1
53
45
43
0
44
0
45
-0.0139193969876572
46
0.0139193969876572
79
0
47
0
98
1
10
0
20
0
0
HATCH
5
E4
100
AcDbEntity
8
SK2
62
256
6
ByLayer
370
13
48
1
60
0
100
AcDbHatch
10
0
20
0
30
0
210
0
220
0
230
1
2
ANSI31
70
0
71
0
91
1
92
5
93
3
72
1
10
21.9398085794605
20
-14.8181323180492
11
24.8118418553693
21
-12.765393983365
72
1
10
24.8118418553693
20
-12.765393983365
11
25.2452706127348
21
-13.5786750775861
72
1
10
25.2452706127348
20
-13.5786750775861
11
21.9398085794605
21
-14.8181323180492
97
0
75
0
76
1
52
0
41
0.0062
77
0
78
1
53
45
43
0
44
0
45
-0.0139193969876572
46
0.0139193969876572
79
0
47
0
98
1
10
0
20
0
0
HATCH
5
E8
100
AcDbEntity
8
SK2
62
256
6
ByLayer
370
13
48
1
60
0
100
AcDbHatch
10
0
20
0
30
0
210
0
220
0
230
1
2
ANSI31
70
0
71
0
91
1
92
5
93
3
72
1
10
21.9398085794605
20
14.8181323180492
11
25.2452676253807
21
13.5786766696479
72
1
10
25.2452676253807
20
13.5786766696479
11
24.8118448427234
21
12.7653923913032
72
1
10
24.8118448427234
20
12.7653923913032
11
21.9398085794605
21
14.8181323180492
97
0
75
0
76
1
52
0
41
0.0062
77
0
78
1
53
45
43
0
44
0
45
-0.0139193969876572
46
0.0139193969876572
79
0
47
0
98
1
10
0
20
0
0
DIMENSION
5
EC
100
AcDbEntity
8
SK2
62
256
6
ByLayer
370
18
48
1
60
0
100
AcDbDimension
2
_U0
10
15.03
20
-39.158815
30
0
11
-3.97
21
-39.158815
31
0
70
32
71
1
72
1
41
1
210
0
220
0
230
1
3
Standard
100
AcDbAlignedDimension
13
-22.97
23
1.5
33
0
14
15.03
24
1.06
34
0
50
0
100
AcDbRotatedDimension
1001
ACAD
1000
DSTYLE
1002
{
1070
   371
1070
    13
1070
   372
1070
    13
1070
     3
1000

1070
   170
1070
     0
1070
   144
1040
1.0
1070
   277
1070
     2
1070
   284
1070
     8
1070
   278
1070
    46
1070
   146
1040
1.166667
1070
   345
1005
16
1070
   347
1005
16
1070
   346
1005
16
1070
   344
1005
0
1070
   343
1005
0
1070
   172
1070
     1
1070
    76
1070
     0
1070
    75
1070
     0
1070
   282
1070
     0
1070
   281
1070
     0
1070
    71
1070
     0
1070
    74
1070
     0
1070
   279
1070
     0
1070
   173
1070
     1
1070
   340
1005
CB
1070
   271
1070
     2
1070
   272
1070
     2
1070
    77
1070
     1
1070
    73
1070
     1
1070
   171
1070
     3
1070
   274
1070
     4
1070
   177
1070
     2
1070
   176
1070
     2
1070
   178
1070
     2
1070
    78
1070
     8
1070
    48
1040
-0.1
1070
    41
1040
3.5
1070
   147
1040
1.5
1070
    42
1040
1.5875
1070
    44
1040
2.0
1070
   140
1040
3.0
1002
}
1001
ACAD_DSTYLE_DIM_LINETYPE
1070
   380
1005
16
1001
ACAD_DSTYLE_DIM_EXT1_LINETYPE
1070
   381
1005
16
1001
ACAD_DSTYLE_DIM_EXT2_LINETYPE
1070
   382
1005
16
0
DIMENSION
5
105
100
AcDbEntity
8
SK2
62
256
6
ByLayer
370
18
48
1
60
0
100
AcDbDimension
2
_U1
10
5.71
20
-22.56
30
0
11
31.101429
21
-22.56
31
0
70
32
71
1
72
1
41
1
210
0
220
0
230
1
3
Standard
100
AcDbAlignedDimension
13
15.03
23
1.06
33
0
14
5.71
24
0
34
0
50
0
100
AcDbRotatedDimension
1001
ACAD
1000
DSTYLE
1002
{
1070
   371
1070
    13
1070
   372
1070
    13
1070
     3
1000

1070
   170
1070
     0
1070
   144
1040
1.0
1070
   277
1070
     2
1070
   284
1070
     8
1070
   278
1070
    46
1070
   146
1040
1.166667
1070
   345
1005
16
1070
   347
1005
16
1070
   346
1005
16
1070
   344
1005
0
1070
   343
1005
0
1070
   172
1070
     1
1070
    76
1070
     0
1070
    75
1070
     0
1070
   282
1070
     0
1070
   281
1070
     0
1070
    71
1070
     0
1070
    74
1070
     0
1070
   279
1070
     0
1070
   173
1070
     1
1070
   340
1005
CB
1070
   271
1070
     2
1070
   272
1070
     2
1070
    77
1070
     1
1070
    73
1070
     1
1070
   171
1070
     3
1070
   274
1070
     4
1070
   177
1070
     2
1070
   176
1070
     2
1070
   178
1070
     2
1070
    78
1070
     8
1070
    48
1040
-0.1
1070
    41
1040
3.5
1070
   147
1040
1.5
1070
    42
1040
1.5875
1070
    44
1040
2.0
1070
   140
1040
3.0
1002
}
1001
ACAD_DSTYLE_DIM_LINETYPE
1070
   380
1005
16
1001
ACAD_DSTYLE_DIM_EXT1_LINETYPE
1070
   381
1005
16
1001
ACAD_DSTYLE_DIM_EXT2_LINETYPE
1070
   382
1005
16
0
DIMENSION
5
11F
100
AcDbEntity
8
SK2
62
256
6
ByLayer
370
18
48
1
60
0
100
AcDbDimension
2
_U2
10
2.53
20
-30.658815
30
0
11
8.78
21
-30.658815
31
0
70
32
71
1
72
1
41
1
210
0
220
0
230
1
3
Standard
100
AcDbAlignedDimension
13
15.03
23
1.06
33
0
14
2.53
24
0
34
0
50
0
100
AcDbRotatedDimension
1001
ACAD
1000
DSTYLE
1002
{
1070
   371
1070
    13
1070
   372
1070
    13
1070
     3
1000

1070
   170
1070
     0
1070
   144
1040
1.0
1070
   277
1070
     2
1070
   284
1070
     8
1070
   278
1070
    46
1070
   146
1040
1.166667
1070
   345
1005
16
1070
   347
1005
16
1070
   346
1005
16
1070
   344
1005
0
1070
   343
1005
0
1070
   172
1070
     1
1070
    76
1070
     0
1070
    75
1070
     0
1070
   282
1070
     0
1070
   281
1070
     0
1070
    71
1070
     0
1070
    74
1070
     0
1070
   279
1070
     0
1070
   173
1070
     1
1070
   340
1005
CB
1070
   271
1070
     2
1070
   272
1070
     2
1070
    77
1070
     1
1070
    73
1070
     1
1070
   171
1070
     3
1070
   274
1070
     4
1070
   177
1070
     2
1070
   176
1070
     2
1070
   178
1070
     2
1070
    78
1070
     8
1070
    48
1040
-0.1
1070
    41
1040
3.5
1070
   147
1040
1.5
1070
    42
1040
1.5875
1070
    44
1040
2.0
1070
   140
1040
3.0
1002
}
1001
ACAD_DSTYLE_DIM_LINETYPE
1070
   380
1005
16
1001
ACAD_DSTYLE_DIM_EXT1_LINETYPE
1070
   381
1005
16
1001
ACAD_DSTYLE_DIM_EXT2_LINETYPE
1070
   382
1005
16
0
DIMENSION
5
138
100
AcDbEntity
8
SK2
62
256
6
ByLayer
370
18
48
1
60
0
100
AcDbDimension
2
_U3
10
0
20
11.658815
30
0
11
-11.485
21
11.658815
31
0
70
32
71
1
72
1
41
1
210
0
220
0
230
1
3
Standard
100
AcDbAlignedDimension
13
-22.97
23
0
33
0
14
0
24
0
34
0
50
0
100
AcDbRotatedDimension
1001
ACAD
1000
DSTYLE
1002
{
1070
   371
1070
    13
1070
   372
1070
    13
1070
     3
1000

1070
   170
1070
     0
1070
   144
1040
1.0
1070
   277
1070
     2
1070
   284
1070
     8
1070
   278
1070
    46
1070
   146
1040
1.166667
1070
   345
1005
16
1070
   347
1005
16
1070
   346
1005
16
1070
   344
1005
0
1070
   343
1005
0
1070
   172
1070
     1
1070
    76
1070
     0
1070
    75
1070
     0
1070
   282
1070
     0
1070
   281
1070
     0
1070
    71
1070
     0
1070
    74
1070
     0
1070
   279
1070
     0
1070
   173
1070
     1
1070
   340
1005
CB
1070
   271
1070
     2
1070
   272
1070
     2
1070
    77
1070
     1
1070
    73
1070
     1
1070
   171
1070
     3
1070
   274
1070
     4
1070
   177
1070
     2
1070
   176
1070
     2
1070
   178
1070
     2
1070
    78
1070
     8
1070
    48
1040
-0.1
1070
    41
1040
3.5
1070
   147
1040
1.5
1070
    42
1040
1.5875
1070
    44
1040
2.0
1070
   140
1040
3.0
1002
}
1001
ACAD_DSTYLE_DIM_LINETYPE
1070
   380
1005
16
1001
ACAD_DSTYLE_DIM_EXT1_LINETYPE
1070
   381
1005
16
1001
ACAD_DSTYLE_DIM_EXT2_LINETYPE
1070
   382
1005
16
0
DIMENSION
5
150
100
AcDbEntity
8
2
62
256
6
ByLayer
370
18
48
1
60
0
100
AcDbDimension
2
_U4
10
0
20
11.658815
30
0
11
7.515
21
11.658815
31
0
70
32
71
1
72
1
41
1
210
0
220
0
230
1
3
Standard
100
AcDbAlignedDimension
13
15.03
23
1.06
33
0
14
0
24
0
34
0
50
0
100
AcDbRotatedDimension
1001
ACAD
1000
DSTYLE
1002
{
1070
   371
1070
    13
1070
   372
1070
    13
1070
     3
1000

1070
   170
1070
     0
1070
   144
1040
1.0
1070
   277
1070
     2
1070
   284
1070
     8
1070
   278
1070
    46
1070
   146
1040
1.166667
1070
   345
1005
16
1070
   347
1005
16
1070
   346
1005
16
1070
   344
1005
0
1070
   343
1005
0
1070
   172
1070
     1
1070
    76
1070
     0
1070
    75
1070
     0
1070
   282
1070
     0
1070
   281
1070
     0
1070
    71
1070
     0
1070
    74
1070
     0
1070
   279
1070
     0
1070
   173
1070
     1
1070
   340
1005
CB
1070
   271
1070
     2
1070
   272
1070
     2
1070
    77
1070
     1
1070
    73
1070
     1
1070
   171
1070
     3
1070
   274
1070
     4
1070
   177
1070
     2
1070
   176
1070
     2
1070
   178
1070
     2
1070
    78
1070
     8
1070
    48
1040
-0.1
1070
    41
1040
3.5
1070
   147
1040
1.5
1070
    42
1040
1.5875
1070
    44
1040
2.0
1070
   140
1040
3.0
1002
}
1001
ACAD_DSTYLE_DIM_LINETYPE
1070
   380
1005
16
1001
ACAD_DSTYLE_DIM_EXT1_LINETYPE
1070
   381
1005
16
1001
ACAD_DSTYLE_DIM_EXT2_LINETYPE
1070
   382
1005
16
0
ENDSEC
0
SECTION
2
OBJECTS
0
DICTIONARY
5
1d9
330
0
100
AcDbDictionary
280
0
281
1
3
ACAD_GROUP
350
1da
3
ACAD_MLINESTYLE
350
1db
0
DICTIONARY
5
1da
330
0
100
AcDbDictionary
280
0
281
1
0
DICTIONARY
5
1db
330
0
100
AcDbDictionary
280
0
281
1
3
Standard
350
18
0
MLINESTYLE
5
18
330
1db
100
AcDbMlineStyle
2
Standard
70
0
3

62
256
51
90
52
90
71
2
49
-0.5
62
256
6
ByLayer
49
0.5
62
256
6
ByLayer
0
RASTERVARIABLES
5
1c7
330

100
AcDbRasterVariables
90
0
70
1
71
1
72
1
0
ENDSEC
0
EOF
