0
SECTION
2
HEADER
9
$ACADVER
1
AC1015
9
$DWGCODEPAGE
3
ANSI_1252
9
$HANDSEED
5
1ea
9
$ANGBASE
50
0
9
$ANGDIR
70
0
9
$ATTMODE
70
1
9
$AUNITS
70
0
9
$AUPREC
70
0
9
$CECOLOR
62
256
9
$CELTSCALE
40
1
9
$CELTYPE
6
ByLayer
9
$CELWEIGHT
370
18
9
$CLAYER
8
0
9
$CMLJUST
70
0
9
$CMLSCALE
40
1
9
$CMLSTYLE
2
Standard
9
$DIMSTYLE
2
Standard
9
$TEXTSIZE
40
0.2
9
$TEXTSTYLE
7
Standard
9
$LUNITS
70
2
9
$LUPREC
70
4
9
$EXTNAMES
290
1
9
$INSUNITS
70
4
9
$LTSCALE
40
1
9
$LWDISPLAY
290
1
9
$PDMODE
70
0
9
$PDSIZE
40
0
9
$PLINEGEN
70
0
0
ENDSEC
0
SECTION
2
CLASSES
0
CLASS
1
RASTERVARIABLES
2
AcDbRasterVariables
3
ISM
90
0
280
0
281
0
0
ENDSEC
0
SECTION
2
TABLES
0
TABLE
2
VPORT
5
1e0
100
AcDbSymbolTable
0
VPORT
5
1
100
AcDbSymbolTableRecord
100
AcDbViewportTableRecord
2
*Active
70
0
10
0
20
0
11
1
21
1
12
-1
22
1
13
0
23
0
14
0.5
24
0.5
15
10
25
10
16
0
26
0
36
1
17
0
27
0
37
0
0
ENDTAB
0
TABLE
2
LTYPE
5
1e1
100
AcDbSymbolTable
0
LTYPE
5
14
100
AcDbSymbolTableRecord
100
AcDbLinetypeTableRecord
70
0
2
ByBlock
3

72
65
73
0
40
0
0
LTYPE
5
15
100
AcDbSymbolTableRecord
100
AcDbLinetypeTableRecord
70
0
2
ByLayer
3

72
65
73
0
40
0
0
LTYPE
5
16
100
AcDbSymbolTableRecord
100
AcDbLinetypeTableRecord
70
0
2
Continuous
3
Solid line
72
65
73
0
40
0
0
LTYPE
5
6E
100
AcDbSymbolTableRecord
100
AcDbLinetypeTableRecord
70
0
2
CENTER
3
____ _ ____ _ ____ _ ____
72
65
73
4
40
47.5
49
22
74
0
49
-8.5
74
0
49
8.5
74
0
49
-8.5
74
0
0
LTYPE
5
6F
100
AcDbSymbolTableRecord
100
AcDbLinetypeTableRecord
70
0
2
DASHED
3
__ __ __ __ __ __ __ __ __
72
65
73
2
40
25.72
49
12.86
74
0
49
-12.86
74
0
0
ENDTAB
0
TABLE
2
LAYER
5
1e2
100
AcDbSymbolTable
0
LAYER
5
10
100
AcDbSymbolTableRecord
100
AcDbLayerTableRecord
2
0
70
0
62
7
6
Continuous
290
1
370
-3
390
0
0
LAYER
5
71
100
AcDbSymbolTableRecord
100
AcDbLayerTableRecord
2
80
70
0
62
-6
6
Continuous
290
1
370
-3
390
0
0
LAYER
5
73
100
AcDbSymbolTableRecord
100
AcDbLayerTableRecord
2
81
70
0
62
-3
6
Continuous
290
1
370
-3
390
0
0
LAYER
5
75
100
AcDbSymbolTableRecord
100
AcDbLayerTableRecord
2
1
70
0
62
4
6
Continuous
290
1
370
-3
390
0
0
LAYER
5
9B
100
AcDbSymbolTableRecord
100
AcDbLayerTableRecord
2
4
70
0
62
-2
6
CENTER
290
1
370
-3
390
0
0
LAYER
5
AB
100
AcDbSymbolTableRecord
100
AcDbLayerTableRecord
2
2
70
0
62
7
6
Continuous
290
1
370
-3
390
0
0
LAYER
5
F3
100
AcDbSymbolTableRecord
100
AcDbLayerTableRecord
2
Defpoints
70
0
62
7
6
Continuous
290
0
370
-3
390
0
0
LAYER
5
1cc
100
AcDbSymbolTableRecord
100
AcDbLayerTableRecord
2
SK1
70
0
62
4
6
Continuous
290
1
370
-3
390
0
0
LAYER
5
1cd
100
AcDbSymbolTableRecord
100
AcDbLayerTableRecord
2
SK4
70
0
62
2
6
CENTER
290
1
370
-3
390
0
0
LAYER
5
1ce
100
AcDbSymbolTableRecord
100
AcDbLayerTableRecord
2
SK2
70
0
62
7
6
Continuous
290
1
370
-3
390
0
0
LAYER
5
1cf
100
AcDbSymbolTableRecord
100
AcDbLayerTableRecord
2
SK6
70
0
62
5
6
Continuous
290
1
370
-3
390
0
0
ENDTAB
0
TABLE
2
STYLE
5
1e3
100
AcDbSymbolTable
0
STYLE
5
11
100
AcDbSymbolTableRecord
100
AcDbTextStyleTableRecord
2
Standard
3
txt
70
0
71
0
40
0
41
1
42
0
50
0
0
STYLE
5
CF
100
AcDbSymbolTableRecord
100
AcDbTextStyleTableRecord
2
iso_b_vert
3
simplex.shx
70
0
71
0
40
0
41
1
42
0
50
0
0
STYLE
5
D0
100
AcDbSymbolTableRecord
100
AcDbTextStyleTableRecord
2
DWGDirectTextStyle
3
simplex
70
0
71
0
40
0
41
1
42
0
50
0
0
ENDTAB
0
TABLE
2
DIMSTYLE
5
1e4
100
AcDbSymbolTable
100
AcDbDimStyleTable
0
DIMSTYLE
105
27
100
AcDbSymbolTableRecord
100
AcDbDimStyleTableRecord
2
Standard
70
0
3
<>
41
0.18
42
0.0625
44
0.18
140
0.18
147
0.09
73
0
74
0
77
1
271
2
275
0
278
52
280
0
340
11
0
ENDTAB
0
TABLE
2
VIEW
5
1e5
100
AcDbSymbolTable
0
ENDTAB
0
TABLE
2
UCS
5
1e6
100
AcDbSymbolTable
0
ENDTAB
0
TABLE
2
APPID
5
1e7
100
AcDbSymbolTable
0
APPID
5
12
100
AcDbSymbolTableRecord
100
AcDbRegAppTableRecord
2
ACAD
70
0
0
APPID
5
EF
100
AcDbSymbolTableRecord
100
AcDbRegAppTableRecord
2
ACAD_DSTYLE_DIMBREAK
70
0
0
APPID
5
18B
100
AcDbSymbolTableRecord
100
AcDbRegAppTableRecord
2
ACAD_DSTYLE_DIM_LINETYPE
70
0
0
APPID
5
18C
100
AcDbSymbolTableRecord
100
AcDbRegAppTableRecord
2
ACAD_DSTYLE_DIM_EXT1_LINETYPE
70
0
0
APPID
5
18D
100
AcDbSymbolTableRecord
100
AcDbRegAppTableRecord
2
ACAD_DSTYLE_DIM_EXT2_LINETYPE
70
0
0
APPID
5
1C8
100
AcDbSymbolTableRecord
100
AcDbRegAppTableRecord
2
ACAD_MLEADERVER
70
0
0
ENDTAB
0
TABLE
2
BLOCK_RECORD
5
1e8
100
AcDbSymbolTable
0
BLOCK_RECORD
5
1F
100
AcDbSymbolTableRecord
100
AcDbBlockTableRecord
2
*Model_Space
340
0
70
0
0
BLOCK_RECORD
5
1B
100
AcDbSymbolTableRecord
100
AcDbBlockTableRecord
2
*Paper_Space
340
0
70
0
0
BLOCK_RECORD
5
23
100
AcDbSymbolTableRecord
100
AcDbBlockTableRecord
2
*Paper_Space0
340
0
70
0
0
BLOCK_RECORD
5
F4
100
AcDbSymbolTableRecord
100
AcDbBlockTableRecord
2
*D1
340
0
70
0
0
BLOCK_RECORD
5
100
100
AcDbSymbolTableRecord
100
AcDbBlockTableRecord
2
_U0
340
0
70
0
0
BLOCK_RECORD
5
10C
100
AcDbSymbolTableRecord
100
AcDbBlockTableRecord
2
*D3
340
0
70
0
0
BLOCK_RECORD
5
11A
100
AcDbSymbolTableRecord
100
AcDbBlockTableRecord
2
_U1
340
0
70
0
0
BLOCK_RECORD
5
126
100
AcDbSymbolTableRecord
100
AcDbBlockTableRecord
2
*D5
340
0
70
0
0
BLOCK_RECORD
5
133
100
AcDbSymbolTableRecord
100
AcDbBlockTableRecord
2
_U2
340
0
70
0
0
BLOCK_RECORD
5
13F
100
AcDbSymbolTableRecord
100
AcDbBlockTableRecord
2
*D7
340
0
70
0
0
BLOCK_RECORD
5
14B
100
AcDbSymbolTableRecord
100
AcDbBlockTableRecord
2
_U3
340
0
70
0
0
BLOCK_RECORD
5
157
100
AcDbSymbolTableRecord
100
AcDbBlockTableRecord
2
*D9
340
0
70
0
0
BLOCK_RECORD
5
164
100
AcDbSymbolTableRecord
100
AcDbBlockTableRecord
2
_U4
340
0
70
0
0
ENDTAB
0
ENDSEC
0
SECTION
2
BLOCKS
0
BLOCK
5
20
100
AcDbEntity
8
0
100
AcDbBlockBegin
2
*Model_Space
70
0
10
0
20
0
30
0
3
*Model_Space
0
ENDBLK
5
21
100
AcDbEntity
8
0
100
AcDbBlockEnd
0
BLOCK
5
1C
100
AcDbEntity
8
0
100
AcDbBlockBegin
2
*Paper_Space
70
0
10
0
20
0
30
0
3
*Paper_Space
0
ENDBLK
5
1D
100
AcDbEntity
8
0
100
AcDbBlockEnd
0
BLOCK
5
24
100
AcDbEntity
8
0
100
AcDbBlockBegin
2
*Paper_Space0
70
0
10
0
20
0
30
0
3
*Paper_Space0
0
ENDBLK
5
25
100
AcDbEntity
8
0
100
AcDbBlockEnd
0
BLOCK
5
F5
100
AcDbEntity
8
0
100
AcDbBlockBegin
2
*D1
70
1
10
0
20
0
30
0
3
*D1
0
LINE
5
F7
100
AcDbEntity
8
0
62
256
6
ByLayer
370
-2
48
1
60
0
100
AcDbLine
10
-22.9787
20
-0.0875
30
0
11
-22.9787
21
-41.162244
31
0
39
0
210
0
220
0
230
1
0
LINE
5
F8
100
AcDbEntity
8
0
62
256
6
ByLayer
370
-2
48
1
60
0
100
AcDbLine
10
15.0213
20
-0.5225
30
0
11
15.0213
21
-41.162244
31
0
39
0
210
0
220
0
230
1
0
LINE
5
F9
100
AcDbEntity
8
0
62
256
6
ByLayer
370
-2
48
1
60
0
100
AcDbLine
10
-19.4787
20
-39.162244
30
0
11
11.5213
21
-39.162244
31
0
39
0
210
0
220
0
230
1
0
SOLID
5
FA
100
AcDbEntity
8
0
62
256
6
ByLayer
370
-1
48
1
60
0
100
AcDbTrace
10
-19.4787
20
-38.578911
30
0
11
-19.4787
21
-39.745578
31
0
12
-22.9787
22
-39.162244
32
0
13
-22.9787
23
-39.162244
33
0
39
0
210
0
220
0
230
1
0
SOLID
5
FB
100
AcDbEntity
8
0
62
256
6
ByLayer
370
-1
48
1
60
0
100
AcDbTrace
10
11.5213
20
-39.745578
30
0
11
11.5213
21
-38.578911
31
0
12
15.0213
22
-39.162244
32
0
13
15.0213
23
-39.162244
33
0
39
0
210
0
220
0
230
1
0
MTEXT
5
FC
100
AcDbEntity
8
0
62
256
6
ByLayer
370
18
48
1
60
0
100
AcDbMText
10
-3.9787
20
-33.162244
30
0
210
0
220
0
230
1
1
\A1;38
40
3
41
0
44
1
50
0
71
5
72
5
7
iso_b_vert
0
POINT
5
FD
100
AcDbEntity
8
Defpoints
62
0
6
ByLayer
370
-1
48
1
60
0
100
AcDbPoint
10
-22.9787
20
1.5
30
0
39
0
210
0
220
0
230
1
50
360
0
POINT
5
FE
100
AcDbEntity
8
Defpoints
62
0
6
ByLayer
370
-1
48
1
60
0
100
AcDbPoint
10
15.0213
20
1.065
30
0
39
0
210
0
220
0
230
1
50
360
0
POINT
5
FF
100
AcDbEntity
8
Defpoints
62
0
6
ByLayer
370
-1
48
1
60
0
100
AcDbPoint
10
15.0213
20
-39.162244
30
0
39
0
210
0
220
0
230
1
50
360
0
ENDBLK
5
F6
100
AcDbEntity
8
0
100
AcDbBlockEnd
0
BLOCK
5
107
100
AcDbEntity
8
0
100
AcDbBlockBegin
2
_U0
70
0
10
0
20
0
30
0
3
_U0
0
MTEXT
5
101
100
AcDbEntity
8
SK2
62
256
6
ByLayer
370
18
48
1
60
0
100
AcDbMText
10
-8.46107
20
-38.27713
30
0
210
0
220
0
230
1
1
\W0.7468;38.00
40
3
41
0
44
1.084337
50
0
71
7
72
5
7
iso_b_vert
0
LINE
5
102
100
AcDbEntity
8
SK2
62
256
6
ByLayer
370
13
48
1
60
0
100
AcDbLine
10
-22.9787
20
-0.0875
30
0
11
-22.9787
21
-41.162244
31
0
39
0
210
0
220
0
230
1
0
LINE
5
103
100
AcDbEntity
8
SK2
62
256
6
ByLayer
370
13
48
1
60
0
100
AcDbLine
10
15.0213
20
-0.5225
30
0
11
15.0213
21
-41.162244
31
0
39
0
210
0
220
0
230
1
0
LINE
5
104
100
AcDbEntity
8
SK2
62
256
6
ByLayer
370
13
48
1
60
0
100
AcDbLine
10
-22.9787
20
-39.162244
30
0
11
15.0213
21
-39.162244
31
0
39
0
210
0
220
0
230
1
0
SOLID
5
105
100
AcDbEntity
8
SK2
62
256
6
ByLayer
370
18
48
1
60
0
100
AcDbTrace
10
-22.9787
20
-39.162244
30
0
11
-19.478702
21
-38.70146
31
0
12
-19.478698
22
-39.623028
32
0
13
-19.478698
23
-39.623028
33
0
39
0
210
0
220
0
230
1
0
SOLID
5
106
100
AcDbEntity
8
SK2
62
256
6
ByLayer
370
18
48
1
60
0
100
AcDbTrace
10
15.0213
20
-39.162244
30
0
11
11.521302
21
-39.623028
31
0
12
11.521298
22
-38.70146
32
0
13
11.521298
23
-38.70146
33
0
39
0
210
0
220
0
230
1
0
ENDBLK
5
108
100
AcDbEntity
8
0
100
AcDbBlockEnd
0
BLOCK
5
10D
100
AcDbEntity
8
0
100
AcDbBlockBegin
2
*D3
70
1
10
0
20
0
30
0
3
*D3
0
LINE
5
10F
100
AcDbEntity
8
0
62
256
6
ByLayer
370
-2
48
1
60
0
100
AcDbLine
10
15.0213
20
-0.5225
30
0
11
15.0213
21
-24.565
31
0
39
0
210
0
220
0
230
1
0
LINE
5
110
100
AcDbEntity
8
0
62
256
6
ByLayer
370
-2
48
1
60
0
100
AcDbLine
10
5.7163
20
-1.5875
30
0
11
5.7163
21
-24.565
31
0
39
0
210
0
220
0
230
1
0
LINE
5
111
100
AcDbEntity
8
0
62
256
6
ByLayer
370
-2
48
1
60
0
100
AcDbLine
10
15.0213
20
-22.565
30
0
11
39.307014
21
-22.565
31
0
39
0
210
0
220
0
230
1
0
LINE
5
112
100
AcDbEntity
8
0
62
256
6
ByLayer
370
-2
48
1
60
0
100
AcDbLine
10
18.5213
20
-22.565
30
0
11
22.0213
21
-22.565
31
0
39
0
210
0
220
0
230
1
0
LINE
5
113
100
AcDbEntity
8
0
62
256
6
ByLayer
370
-2
48
1
60
0
100
AcDbLine
10
2.2163
20
-22.565
30
0
11
-1.2837
21
-22.565
31
0
39
0
210
0
220
0
230
1
0
SOLID
5
114
100
AcDbEntity
8
0
62
256
6
ByLayer
370
-1
48
1
60
0
100
AcDbTrace
10
18.5213
20
-21.981667
30
0
11
18.5213
21
-23.148333
31
0
12
15.0213
22
-22.565
32
0
13
15.0213
23
-22.565
33
0
39
0
210
0
220
0
230
1
0
SOLID
5
115
100
AcDbEntity
8
0
62
256
6
ByLayer
370
-1
48
1
60
0
100
AcDbTrace
10
2.2163
20
-23.148333
30
0
11
2.2163
21
-21.981667
31
0
12
5.7163
22
-22.565
32
0
13
5.7163
23
-22.565
33
0
39
0
210
0
220
0
230
1
0
MTEXT
5
116
100
AcDbEntity
8
0
62
256
6
ByLayer
370
18
48
1
60
0
100
AcDbMText
10
30.664157
20
-16.565
30
0
210
0
220
0
230
1
1
\A1;9.31
40
3
41
0
44
1
50
0
71
5
72
5
7
iso_b_vert
0
POINT
5
117
100
AcDbEntity
8
Defpoints
62
0
6
ByLayer
370
-1
48
1
60
0
100
AcDbPoint
10
15.0213
20
1.065
30
0
39
0
210
0
220
0
230
1
50
360
0
POINT
5
118
100
AcDbEntity
8
Defpoints
62
0
6
ByLayer
370
-1
48
1
60
0
100
AcDbPoint
10
5.7163
20
0
30
0
39
0
210
0
220
0
230
1
50
360
0
POINT
5
119
100
AcDbEntity
8
Defpoints
62
0
6
ByLayer
370
-1
48
1
60
0
100
AcDbPoint
10
5.7163
20
-22.565
30
0
39
0
210
0
220
0
230
1
50
360
0
ENDBLK
5
10E
100
AcDbEntity
8
0
100
AcDbBlockEnd
0
BLOCK
5
121
100
AcDbEntity
8
0
100
AcDbBlockBegin
2
_U1
70
0
10
0
20
0
30
0
3
_U1
0
MTEXT
5
11B
100
AcDbEntity
8
SK2
62
256
6
ByLayer
370
18
48
1
60
0
100
AcDbMText
10
19.1803
20
-21.679886
30
0
210
0
220
0
230
1
1
\W0.7051;(9.30)
40
3
41
0
44
1.084337
50
0
71
7
72
5
7
iso_b_vert
0
LINE
5
11C
100
AcDbEntity
8
SK2
62
256
6
ByLayer
370
13
48
1
60
0
100
AcDbLine
10
15.0213
20
-0.5225
30
0
11
15.0213
21
-24.565
31
0
39
0
210
0
220
0
230
1
0
LINE
5
11D
100
AcDbEntity
8
SK2
62
256
6
ByLayer
370
13
48
1
60
0
100
AcDbLine
10
5.7163
20
-1.5875
30
0
11
5.7163
21
-24.565
31
0
39
0
210
0
220
0
230
1
0
LINE
5
11E
100
AcDbEntity
8
SK2
62
256
6
ByLayer
370
13
48
1
60
0
100
AcDbLine
10
5.7163
20
-22.565
30
0
11
28.493069
21
-22.565
31
0
39
0
210
0
220
0
230
1
0
SOLID
5
11F
100
AcDbEntity
8
SK2
62
256
6
ByLayer
370
18
48
1
60
0
100
AcDbTrace
10
15.0213
20
-22.565
30
0
11
11.521302
21
-23.025784
31
0
12
11.521298
22
-22.104216
32
0
13
11.521298
23
-22.104216
33
0
39
0
210
0
220
0
230
1
0
SOLID
5
120
100
AcDbEntity
8
SK2
62
256
6
ByLayer
370
18
48
1
60
0
100
AcDbTrace
10
5.7163
20
-22.565
30
0
11
9.216298
21
-22.104216
31
0
12
9.216302
22
-23.025784
32
0
13
9.216302
23
-23.025784
33
0
39
0
210
0
220
0
230
1
0
ENDBLK
5
122
100
AcDbEntity
8
0
100
AcDbBlockEnd
0
BLOCK
5
127
100
AcDbEntity
8
0
100
AcDbBlockBegin
2
*D5
70
1
10
0
20
0
30
0
3
*D5
0
LINE
5
129
100
AcDbEntity
8
0
62
256
6
ByLayer
370
-2
48
1
60
0
100
AcDbLine
10
15.0213
20
-0.5225
30
0
11
15.0213
21
-32.662244
31
0
39
0
210
0
220
0
230
1
0
LINE
5
12A
100
AcDbEntity
8
0
62
256
6
ByLayer
370
-2
48
1
60
0
100
AcDbLine
10
2.5213
20
-1.5875
30
0
11
2.5213
21
-32.662244
31
0
39
0
210
0
220
0
230
1
0
LINE
5
12B
100
AcDbEntity
8
0
62
256
6
ByLayer
370
-2
48
1
60
0
100
AcDbLine
10
18.5213
20
-30.662244
30
0
11
22.0213
21
-30.662244
31
0
39
0
210
0
220
0
230
1
0
LINE
5
12C
100
AcDbEntity
8
0
62
256
6
ByLayer
370
-2
48
1
60
0
100
AcDbLine
10
-0.9787
20
-30.662244
30
0
11
-4.4787
21
-30.662244
31
0
39
0
210
0
220
0
230
1
0
SOLID
5
12D
100
AcDbEntity
8
0
62
256
6
ByLayer
370
-1
48
1
60
0
100
AcDbTrace
10
18.5213
20
-30.078911
30
0
11
18.5213
21
-31.245578
31
0
12
15.0213
22
-30.662244
32
0
13
15.0213
23
-30.662244
33
0
39
0
210
0
220
0
230
1
0
SOLID
5
12E
100
AcDbEntity
8
0
62
256
6
ByLayer
370
-1
48
1
60
0
100
AcDbTrace
10
-0.9787
20
-31.245578
30
0
11
-0.9787
21
-30.078911
31
0
12
2.5213
22
-30.662244
32
0
13
2.5213
23
-30.662244
33
0
39
0
210
0
220
0
230
1
0
MTEXT
5
12F
100
AcDbEntity
8
0
62
256
6
ByLayer
370
18
48
1
60
0
100
AcDbMText
10
8.7713
20
-24.662244
30
0
210
0
220
0
230
1
1
\A1;12.5
40
3
41
0
44
1
50
0
71
5
72
5
7
iso_b_vert
0
POINT
5
130
100
AcDbEntity
8
Defpoints
62
0
6
ByLayer
370
-1
48
1
60
0
100
AcDbPoint
10
15.0213
20
1.065
30
0
39
0
210
0
220
0
230
1
50
360
0
POINT
5
131
100
AcDbEntity
8
Defpoints
62
0
6
ByLayer
370
-1
48
1
60
0
100
AcDbPoint
10
2.5213
20
0
30
0
39
0
210
0
220
0
230
1
50
360
0
POINT
5
132
100
AcDbEntity
8
Defpoints
62
0
6
ByLayer
370
-1
48
1
60
0
100
AcDbPoint
10
2.5213
20
-30.662244
30
0
39
0
210
0
220
0
230
1
50
360
0
ENDBLK
5
128
100
AcDbEntity
8
0
100
AcDbBlockEnd
0
BLOCK
5
13A
100
AcDbEntity
8
0
100
AcDbBlockBegin
2
_U2
70
0
10
0
20
0
30
0
3
_U2
0
MTEXT
5
134
100
AcDbEntity
8
SK2
62
256
6
ByLayer
370
18
48
1
60
0
100
AcDbMText
10
4.663872
20
-29.77713
30
0
210
0
220
0
230
1
1
\W0.6864;12.50
40
3
41
0
44
1.084337
50
0
71
7
72
5
7
iso_b_vert
0
LINE
5
135
100
AcDbEntity
8
SK2
62
256
6
ByLayer
370
13
48
1
60
0
100
AcDbLine
10
15.0213
20
-0.5225
30
0
11
15.0213
21
-32.662244
31
0
39
0
210
0
220
0
230
1
0
LINE
5
136
100
AcDbEntity
8
SK2
62
256
6
ByLayer
370
13
48
1
60
0
100
AcDbLine
10
2.5213
20
-1.5875
30
0
11
2.5213
21
-32.662244
31
0
39
0
210
0
220
0
230
1
0
LINE
5
137
100
AcDbEntity
8
SK2
62
256
6
ByLayer
370
13
48
1
60
0
100
AcDbLine
10
15.0213
20
-30.662244
30
0
11
2.5213
21
-30.662244
31
0
39
0
210
0
220
0
230
1
0
SOLID
5
138
100
AcDbEntity
8
SK2
62
256
6
ByLayer
370
18
48
1
60
0
100
AcDbTrace
10
15.0213
20
-30.662244
30
0
11
11.521302
21
-31.123028
31
0
12
11.521298
22
-30.20146
32
0
13
11.521298
23
-30.20146
33
0
39
0
210
0
220
0
230
1
0
SOLID
5
139
100
AcDbEntity
8
SK2
62
256
6
ByLayer
370
18
48
1
60
0
100
AcDbTrace
10
2.5213
20
-30.662244
30
0
11
6.021298
21
-30.20146
31
0
12
6.021302
22
-31.123028
32
0
13
6.021302
23
-31.123028
33
0
39
0
210
0
220
0
230
1
0
ENDBLK
5
13B
100
AcDbEntity
8
0
100
AcDbBlockEnd
0
BLOCK
5
140
100
AcDbEntity
8
0
100
AcDbBlockBegin
2
*D7
70
1
10
0
20
0
30
0
3
*D7
0
LINE
5
142
100
AcDbEntity
8
0
62
256
6
ByLayer
370
-2
48
1
60
0
100
AcDbLine
10
-22.9787
20
1.5875
30
0
11
-22.9787
21
13.662244
31
0
39
0
210
0
220
0
230
1
0
LINE
5
143
100
AcDbEntity
8
0
62
256
6
ByLayer
370
-2
48
1
60
0
100
AcDbLine
10
0
20
1.5875
30
0
11
0
21
13.662244
31
0
39
0
210
0
220
0
230
1
0
LINE
5
144
100
AcDbEntity
8
0
62
256
6
ByLayer
370
-2
48
1
60
0
100
AcDbLine
10
-19.4787
20
11.662244
30
0
11
-3.5
21
11.662244
31
0
39
0
210
0
220
0
230
1
0
SOLID
5
145
100
AcDbEntity
8
0
62
256
6
ByLayer
370
-1
48
1
60
0
100
AcDbTrace
10
-19.4787
20
12.245578
30
0
11
-19.4787
21
11.078911
31
0
12
-22.9787
22
11.662244
32
0
13
-22.9787
23
11.662244
33
0
39
0
210
0
220
0
230
1
0
SOLID
5
146
100
AcDbEntity
8
0
62
256
6
ByLayer
370
-1
48
1
60
0
100
AcDbTrace
10
-3.5
20
11.078911
30
0
11
-3.5
21
12.245578
31
0
12
0
22
11.662244
32
0
13
0
23
11.662244
33
0
39
0
210
0
220
0
230
1
0
MTEXT
5
147
100
AcDbEntity
8
0
62
256
6
ByLayer
370
18
48
1
60
0
100
AcDbMText
10
-11.48935
20
17.662244
30
0
210
0
220
0
230
1
1
\A1;22.98
40
3
41
0
44
1
50
0
71
5
72
5
7
iso_b_vert
0
POINT
5
148
100
AcDbEntity
8
Defpoints
62
0
6
ByLayer
370
-1
48
1
60
0
100
AcDbPoint
10
-22.9787
20
0
30
0
39
0
210
0
220
0
230
1
50
360
0
POINT
5
149
100
AcDbEntity
8
Defpoints
62
0
6
ByLayer
370
-1
48
1
60
0
100
AcDbPoint
10
0
20
0
30
0
39
0
210
0
220
0
230
1
50
360
0
POINT
5
14A
100
AcDbEntity
8
Defpoints
62
0
6
ByLayer
370
-1
48
1
60
0
100
AcDbPoint
10
0
20
11.662244
30
0
39
0
210
0
220
0
230
1
50
360
0
ENDBLK
5
141
100
AcDbEntity
8
0
100
AcDbBlockEnd
0
BLOCK
5
152
100
AcDbEntity
8
0
100
AcDbBlockBegin
2
_U3
70
0
10
0
20
0
30
0
3
_U3
0
MTEXT
5
14C
100
AcDbEntity
8
SK2
62
256
6
ByLayer
370
18
48
1
60
0
100
AcDbMText
10
-15.97172
20
12.547359
30
0
210
0
220
0
230
1
1
\W0.7468;22.98
40
3
41
0
44
1.084337
50
0
71
7
72
5
7
iso_b_vert
0
LINE
5
14D
100
AcDbEntity
8
SK2
62
256
6
ByLayer
370
13
48
1
60
0
100
AcDbLine
10
-22.9787
20
1.5875
30
0
11
-22.9787
21
13.662244
31
0
39
0
210
0
220
0
230
1
0
LINE
5
14E
100
AcDbEntity
8
SK2
62
256
6
ByLayer
370
13
48
1
60
0
100
AcDbLine
10
0
20
1.5875
30
0
11
0
21
13.662244
31
0
39
0
210
0
220
0
230
1
0
LINE
5
14F
100
AcDbEntity
8
SK2
62
256
6
ByLayer
370
13
48
1
60
0
100
AcDbLine
10
-22.9787
20
11.662244
30
0
11
0
21
11.662244
31
0
39
0
210
0
220
0
230
1
0
SOLID
5
150
100
AcDbEntity
8
SK2
62
256
6
ByLayer
370
18
48
1
60
0
100
AcDbTrace
10
-22.9787
20
11.662244
30
0
11
-19.478702
21
12.123028
31
0
12
-19.478698
22
11.20146
32
0
13
-19.478698
23
11.20146
33
0
39
0
210
0
220
0
230
1
0
SOLID
5
151
100
AcDbEntity
8
SK2
62
256
6
ByLayer
370
18
48
1
60
0
100
AcDbTrace
10
0
20
11.662244
30
0
11
-3.499998
21
11.20146
31
0
12
-3.500002
22
12.123028
32
0
13
-3.500002
23
12.123028
33
0
39
0
210
0
220
0
230
1
0
ENDBLK
5
153
100
AcDbEntity
8
0
100
AcDbBlockEnd
0
BLOCK
5
158
100
AcDbEntity
8
0
100
AcDbBlockBegin
2
*D9
70
1
10
0
20
0
30
0
3
*D9
0
LINE
5
15A
100
AcDbEntity
8
0
62
256
6
ByLayer
370
-2
48
1
60
0
100
AcDbLine
10
15.0213
20
2.6525
30
0
11
15.0213
21
13.662244
31
0
39
0
210
0
220
0
230
1
0
LINE
5
15B
100
AcDbEntity
8
0
62
256
6
ByLayer
370
-2
48
1
60
0
100
AcDbLine
10
0
20
1.5875
30
0
11
0
21
13.662244
31
0
39
0
210
0
220
0
230
1
0
LINE
5
15C
100
AcDbEntity
8
0
62
256
6
ByLayer
370
-2
48
1
60
0
100
AcDbLine
10
18.5213
20
11.662244
30
0
11
22.0213
21
11.662244
31
0
39
0
210
0
220
0
230
1
0
LINE
5
15D
100
AcDbEntity
8
0
62
256
6
ByLayer
370
-2
48
1
60
0
100
AcDbLine
10
-3.5
20
11.662244
30
0
11
-7
21
11.662244
31
0
39
0
210
0
220
0
230
1
0
SOLID
5
15E
100
AcDbEntity
8
0
62
256
6
ByLayer
370
-1
48
1
60
0
100
AcDbTrace
10
18.5213
20
12.245578
30
0
11
18.5213
21
11.078911
31
0
12
15.0213
22
11.662244
32
0
13
15.0213
23
11.662244
33
0
39
0
210
0
220
0
230
1
0
SOLID
5
15F
100
AcDbEntity
8
0
62
256
6
ByLayer
370
-1
48
1
60
0
100
AcDbTrace
10
-3.5
20
11.078911
30
0
11
-3.5
21
12.245578
31
0
12
0
22
11.662244
32
0
13
0
23
11.662244
33
0
39
0
210
0
220
0
230
1
0
MTEXT
5
160
100
AcDbEntity
8
0
62
256
6
ByLayer
370
18
48
1
60
0
100
AcDbMText
10
7.51065
20
17.662244
30
0
210
0
220
0
230
1
1
\A1;15.02
40
3
41
0
44
1
50
0
71
5
72
5
7
iso_b_vert
0
POINT
5
161
100
AcDbEntity
8
Defpoints
62
0
6
ByLayer
370
-1
48
1
60
0
100
AcDbPoint
10
15.0213
20
1.065
30
0
39
0
210
0
220
0
230
1
50
360
0
POINT
5
162
100
AcDbEntity
8
Defpoints
62
0
6
ByLayer
370
-1
48
1
60
0
100
AcDbPoint
10
0
20
0
30
0
39
0
210
0
220
0
230
1
50
360
0
POINT
5
163
100
AcDbEntity
8
Defpoints
62
0
6
ByLayer
370
-1
48
1
60
0
100
AcDbPoint
10
0
20
11.662244
30
0
39
0
210
0
220
0
230
1
50
360
0
ENDBLK
5
159
100
AcDbEntity
8
0
100
AcDbBlockEnd
0
BLOCK
5
16B
100
AcDbEntity
8
0
100
AcDbBlockBegin
2
_U4
70
0
10
0
20
0
30
0
3
_U4
0
MTEXT
5
165
100
AcDbEntity
8
2
62
256
6
ByLayer
370
18
48
1
60
0
100
AcDbMText
10
3.403222
20
12.547359
30
0
210
0
220
0
230
1
1
\W0.6864;15.02
40
3
41
0
44
1.084337
50
0
71
7
72
5
7
iso_b_vert
0
LINE
5
166
100
AcDbEntity
8
2
62
256
6
ByLayer
370
13
48
1
60
0
100
AcDbLine
10
15.0213
20
2.6525
30
0
11
15.0213
21
13.662244
31
0
39
0
210
0
220
0
230
1
0
LINE
5
167
100
AcDbEntity
8
2
62
256
6
ByLayer
370
13
48
1
60
0
100
AcDbLine
10
0
20
1.5875
30
0
11
0
21
13.662244
31
0
39
0
210
0
220
0
230
1
0
LINE
5
168
100
AcDbEntity
8
2
62
256
6
ByLayer
370
13
48
1
60
0
100
AcDbLine
10
15.0213
20
11.662244
30
0
11
0
21
11.662244
31
0
39
0
210
0
220
0
230
1
0
SOLID
5
169
100
AcDbEntity
8
2
62
256
6
ByLayer
370
18
48
1
60
0
100
AcDbTrace
10
15.0213
20
11.662244
30
0
11
11.521302
21
11.20146
31
0
12
11.521298
22
12.123028
32
0
13
11.521298
23
12.123028
33
0
39
0
210
0
220
0
230
1
0
SOLID
5
16A
100
AcDbEntity
8
2
62
256
6
ByLayer
370
18
48
1
60
0
100
AcDbTrace
10
0
20
11.662244
30
0
11
3.499998
21
12.123028
31
0
12
3.500002
22
11.20146
32
0
13
3.500002
23
11.20146
33
0
39
0
210
0
220
0
230
1
0
ENDBLK
5
16C
100
AcDbEntity
8
0
100
AcDbBlockEnd
0
ENDSEC
0
SECTION
2
ENTITIES
0
ARC
5
BC
100
AcDbEntity
8
1
62
256
6
ByLayer
370
18
48
1
60
0
100
AcDbCircle
39
0
10
1.021344
20
-2.065
30
0
40
1
210
0
220
0
230
1
100
AcDbArc
50
90
51
120
0
ARC
5
BD
100
AcDbEntity
8
1
62
256
6
ByLayer
370
18
48
1
60
0
100
AcDbCircle
39
0
10
1.021344
20
2.065
30
0
40
1
210
0
220
0
230
1
100
AcDbArc
50
240
51
270
0
ARC
5
BE
100
AcDbEntity
8
SK2
62
256
6
ByLayer
370
13
48
1
60
0
100
AcDbCircle
39
0
10
15.0213
20
0
30
0
40
16.35
210
0
220
0
230
1
100
AcDbArc
50
10.57289
51
65
0
ARC
5
BF
100
AcDbEntity
8
SK2
62
256
6
ByLayer
370
13
48
1
60
0
100
AcDbCircle
39
0
10
15.0213
20
0
30
0
40
16.35
210
0
220
0
230
1
100
AcDbArc
50
295
51
349.42711
0
ELLIPSE
5
C0
100
AcDbEntity
8
1
62
256
6
ByLayer
370
18
48
1
60
0
100
AcDbEllipse
10
3.708562
20
1.476412
30
0
11
-1.45462864352478
21
1.16515367228317
31
0
210
0
220
0
230
1
40
0.600289
41
1.22030329446299
42
2.01899071456072
0
POINT
5
70
100
AcDbEntity
8
80
62
256
6
ByLayer
370
18
48
1
60
0
100
AcDbPoint
10
0
20
0
30
0
39
0
210
0
220
0
230
1
50
360
0
POINT
5
72
100
AcDbEntity
8
81
62
256
6
ByLayer
370
18
48
1
60
0
100
AcDbPoint
10
15.0213
20
0
30
0
39
0
210
0
220
0
230
1
50
360
0
POINT
5
74
100
AcDbEntity
8
1
62
256
6
ByLayer
370
18
48
1
60
1
100
AcDbPoint
10
-22.9787
20
1.5
30
0
39
0
210
0
220
0
230
1
50
360
0
POINT
5
76
100
AcDbEntity
8
1
62
256
6
ByLayer
370
18
48
1
60
1
100
AcDbPoint
10
15.0213
20
1.065
30
0
39
0
210
0
220
0
230
1
50
360
0
POINT
5
77
100
AcDbEntity
8
1
62
256
6
ByLayer
370
18
48
1
60
1
100
AcDbPoint
10
15.0213
20
1.065
30
0
39
0
210
0
220
0
230
1
50
360
0
POINT
5
78
100
AcDbEntity
8
1
62
256
6
ByLayer
370
18
48
1
60
1
100
AcDbPoint
10
5.7163
20
0
30
0
39
0
210
0
220
0
230
1
50
360
0
POINT
5
79
100
AcDbEntity
8
1
62
256
6
ByLayer
370
18
48
1
60
1
100
AcDbPoint
10
15.0213
20
1.065
30
0
39
0
210
0
220
0
230
1
50
360
0
POINT
5
7A
100
AcDbEntity
8
1
62
256
6
ByLayer
370
18
48
1
60
1
100
AcDbPoint
10
2.5213
20
0
30
0
39
0
210
0
220
0
230
1
50
360
0
POINT
5
7B
100
AcDbEntity
8
1
62
256
6
ByLayer
370
18
48
1
60
1
100
AcDbPoint
10
-22.9787
20
0
30
0
39
0
210
0
220
0
230
1
50
360
0
POINT
5
7C
100
AcDbEntity
8
1
62
256
6
ByLayer
370
18
48
1
60
1
100
AcDbPoint
10
0
20
0
30
0
39
0
210
0
220
0
230
1
50
360
0
POINT
5
7D
100
AcDbEntity
8
1
62
256
6
ByLayer
370
18
48
1
60
1
100
AcDbPoint
10
15.0213
20
1.065
30
0
39
0
210
0
220
0
230
1
50
360
0
POINT
5
7E
100
AcDbEntity
8
1
62
256
6
ByLayer
370
18
48
1
60
1
100
AcDbPoint
10
0
20
0
30
0
39
0
210
0
220
0
230
1
50
360
0
SPLINE
5
C1
100
AcDbEntity
8
1
62
256
6
ByLayer
370
18
48
1
60
0
100
AcDbSpline
70
4
71
3
72
18
73
14
40
0
40
0
40
0
40
0
40
0.250000000000007
40
0.250000000000007
40
0.500000000000013
40
0.500000000000013
40
0.625000000000017
40
0.625000000000017
40
0.687500000000018
40
0.687500000000018
40
0.75000000000002
40
0.75000000000002
40
1
40
1
40
1
40
1
41
1
10
2.55219302225421
20
1.05636950952572
30
0
41
1
10
2.6475511605461
20
1.05935218901581
30
0
41
1
10
2.74338438233173
20
1.06079669637546
30
0
41
1
10
2.93596988558903
20
1.06248812208415
30
0
41
1
10
3.0327222664497
20
1.0627303126191
30
0
41
1
10
3.17854853193316
20
1.06252652877905
30
0
41
1
10
3.22727388679138
20
1.06235345645274
30
0
41
1
10
3.30054085818733
20
1.06187868887034
30
0
41
1
10
3.32498113947898
20
1.06168376860731
30
0
41
1
10
3.37363917613499
20
1.06120579404339
30
0
41
1
10
3.3978917630445
20
1.06092253703866
30
0
41
1
10
3.51877535841862
20
1.05923090304333
30
0
41
1
10
3.61427258156323
20
1.05705083367766
30
0
41
1
10
3.70856200003101
20
1.05292624230404
30
0
0
SPLINE
5
C2
100
AcDbEntity
8
1
62
256
6
ByLayer
370
18
48
1
60
0
100
AcDbSpline
70
4
71
3
72
72
73
68
40
0
40
0
40
0
40
0
40
0.006486094128158
40
0.006486094128158
40
0.012972188256316
40
0.012972188256316
40
0.0259443765126321
40
0.0259443765126321
40
0.0389165647689481
40
0.0389165647689481
40
0.0518887530252641
40
0.0518887530252641
40
0.103777506050528
40
0.103777506050528
40
0.129721882563162
40
0.129721882563162
40
0.155666259075795
40
0.155666259075795
40
0.207555012101061
40
0.207555012101061
40
0.233499388613693
40
0.233499388613693
40
0.259443765126326
40
0.259443765126326
40
0.311332518151587
40
0.311332518151587
40
0.337276894664218
40
0.337276894664218
40
0.363221271176849
40
0.363221271176849
40
0.415110024202111
40
0.415110024202111
40
0.441054400714741
40
0.441054400714741
40
0.46699877722737
40
0.46699877722737
40
0.518887530252629
40
0.518887530252629
40
0.544831906765258
40
0.544831906765258
40
0.570776283277886
40
0.570776283277886
40
0.596720659790515
40
0.596720659790515
40
0.622665036303143
40
0.622665036303143
40
0.674553789328403
40
0.674553789328403
40
0.700498165841031
40
0.700498165841031
40
0.72644254235366
40
0.72644254235366
40
0.778331295378914
40
0.778331295378914
40
0.804275671891543
40
0.804275671891543
40
0.830220048404171
40
0.830220048404171
40
0.882108801429426
40
0.882108801429426
40
0.908053177942054
40
0.908053177942054
40
0.933997554454683
40
0.933997554454683
40
0.985886307479942
40
0.985886307479942
40
1
40
1
40
1
40
1
41
1
10
14.5246823440655
20
-1.02622923279935
30
0
41
1
10
14.5094173494807
20
-1.02459131673203
30
0
41
1
10
14.4951723139739
20
-1.02241747755292
30
0
41
1
10
14.4671485537978
20
-1.0176354283112
30
0
41
1
10
14.4533913900409
20
-1.01501822292161
30
0
41
1
10
14.411447018442
20
-1.00723729601901
30
0
41
1
10
14.3828790835791
20
-1.00203304235876
30
0
41
1
10
14.3263118915765
20
-0.990630394090005
30
0
41
1
10
14.2982600036945
20
-0.984433165844848
30
0
41
1
10
14.2418798489722
20
-0.971508891332405
30
0
41
1
10
14.2135848287038
20
-0.96476359160178
30
0
41
1
10
14.0724231291168
20
-0.929155327264482
30
0
41
1
10
13.9599349455643
20
-0.895388523364488
30
0
41
1
10
13.7912270696
20
-0.837403973533895
30
0
41
1
10
13.7349592148955
20
-0.816889443731355
30
0
41
1
10
13.622235008461
20
-0.773628621379345
30
0
41
1
10
13.5657218545904
20
-0.750842052097539
30
0
41
1
10
13.3965274190086
20
-0.679568131201222
30
0
41
1
10
13.2840759083416
20
-0.628108996040879
30
0
41
1
10
13.1153162849534
20
-0.545813457730873
30
0
41
1
10
13.0590109300492
20
-0.517585800080383
30
0
41
1
10
12.94617755219
20
-0.459715675303158
30
0
41
1
10
12.8897118566876
20
-0.430094469691625
30
0
41
1
10
12.7206862466309
20
-0.339752042572911
30
0
41
1
10
12.6082603060258
20
-0.277399772768604
30
0
41
1
10
12.4393930709541
20
-0.181693011339206
30
0
41
1
10
12.382986178642
20
-0.14945348306307
30
0
41
1
10
12.2701145645702
20
-0.084716256265267
30
0
41
1
10
12.2137656385963
20
-0.0522610948700333
30
0
41
1
10
12.0448341579148
20
0.0451119735605232
30
0
41
1
10
11.9323820919992
20
0.110064222692983
30
0
41
1
10
11.763374157449
20
0.206530429470661
30
0
41
1
10
11.7068922180202
20
0.238488101032999
30
0
41
1
10
11.5941558377686
20
0.301435030271762
30
0
41
1
10
11.5378524822298
20
0.332466443146615
30
0
41
1
10
11.3689981640798
20
0.424014963513599
30
0
41
1
10
11.2565110694459
20
0.483001872652096
30
0
41
1
10
11.087319951895
20
0.567437810252756
30
0
41
1
10
11.0309147569813
20
0.594782392064531
30
0
41
1
10
10.9182705260586
20
0.647586750918663
30
0
41
1
10
10.8619919578248
20
0.67307799051656
30
0
41
1
10
10.74942630278
20
0.722117476897807
30
0
41
1
10
10.6931415780157
20
0.74566879421252
30
0
41
1
10
10.5804705447059
20
0.790700664848458
30
0
41
1
10
10.5240322911609
20
0.812219579209767
30
0
41
1
10
10.3548804226647
20
0.873238322452721
30
0
41
1
10
10.2424118701997
20
0.909020222553352
30
0
41
1
10
10.073543441339
20
0.954868891050722
30
0
41
1
10
10.0172311856208
20
0.968850745177349
30
0
41
1
10
9.90446252677179
20
0.994118315843224
30
0
41
1
10
9.84798709953762
20
1.00540972397869
30
0
41
1
10
9.67903156882321
20
1.03494229695392
30
0
41
1
10
9.56659112658588
20
1.04883590334501
30
0
41
1
10
9.39763664041618
20
1.06086181954169
30
0
41
1
10
9.34127205181704
20
1.06340063718764
30
0
41
1
10
9.22835880553168
20
1.06549683610641
30
0
41
1
10
9.17199619624904
20
1.06504966704813
30
0
41
1
10
9.00316915184214
20
1.05923450327214
30
0
41
1
10
8.89072416658249
20
1.04942176604308
30
0
41
1
10
8.7216527186884
20
1.0259979822122
30
0
41
1
10
8.66515831764156
20
1.01672200856314
30
0
41
1
10
8.55236384982189
20
0.995359460618175
30
0
41
1
10
8.49607684187794
20
0.983271505288059
30
0
41
1
10
8.32733690246621
20
0.942926617417299
30
0
41
1
10
8.21487730964148
20
0.91068897465405
30
0
41
1
10
8.07135828111166
20
0.863340847807223
30
0
41
1
10
8.04064559123611
20
0.852845712268191
30
0
41
1
10
8.00994630535149
20
0.842004040138448
30
0
0
SPLINE
5
C3
100
AcDbEntity
8
1
62
256
6
ByLayer
370
18
48
1
60
0
100
AcDbSpline
70
4
71
3
72
22
73
18
40
0
40
0
40
0
40
0
40
0.0239734945560922
40
0.0239734945560922
40
0.186644578796744
40
0.186644578796744
40
0.349315663037395
40
0.349315663037395
40
0.511986747278046
40
0.511986747278046
40
0.674657831518698
40
0.674657831518698
40
0.837328915759349
40
0.837328915759349
40
0.918664457879675
40
0.918664457879675
40
1
40
1
40
1
40
1
41
1
10
14.8266408940301
20
-0.417446214811861
30
0
41
1
10
14.8244493684247
20
-0.42212612272607
30
0
41
1
10
14.8222434201284
20
-0.426809686219855
30
0
41
1
10
14.8049740359059
20
-0.463306430636237
30
0
41
1
10
14.7893306266591
20
-0.495307591292743
30
0
41
1
10
14.7575046152485
20
-0.559721423191547
30
0
41
1
10
14.7413014895064
20
-0.592161414757868
30
0
41
1
10
14.7086182406923
20
-0.657369532734492
30
0
41
1
10
14.6921476516755
20
-0.690073066398924
30
0
41
1
10
14.6589899064421
20
-0.755983727433176
30
0
41
1
10
14.6423073200642
20
-0.789187000705198
30
0
41
1
10
14.6087769635772
20
-0.856612556346505
30
0
41
1
10
14.5919150633048
20
-0.890928311339223
30
0
41
1
10
14.5666437836546
20
-0.942215103794837
30
0
41
1
10
14.558223840309
20
-0.959272785040156
30
0
41
1
10
14.5414203060554
20
-0.993061189775744
30
0
41
1
10
14.5330393022836
20
-1.00977111419607
30
0
41
1
10
14.524682344065
20
-1.02622923279887
30
0
0
SPLINE
5
C4
100
AcDbEntity
8
1
62
256
6
ByLayer
370
18
48
1
60
0
100
AcDbSpline
70
4
71
3
72
46
73
42
40
0
40
0
40
0
40
0
40
0.0785854617544516
40
0.0785854617544516
40
0.117878192631676
40
0.117878192631676
40
0.157170923508901
40
0.157170923508901
40
0.235756385263351
40
0.235756385263351
40
0.275049116140577
40
0.275049116140577
40
0.314341847017803
40
0.314341847017803
40
0.353634577895029
40
0.353634577895029
40
0.392927308772254
40
0.392927308772254
40
0.471512770526706
40
0.471512770526706
40
0.510805501403933
40
0.510805501403933
40
0.55009823228116
40
0.55009823228116
40
0.628683694035613
40
0.628683694035613
40
0.667976424912839
40
0.667976424912839
40
0.707269155790064
40
0.707269155790064
40
0.785854617544514
40
0.785854617544514
40
0.825147348421739
40
0.825147348421739
40
0.864440079298964
40
0.864440079298964
40
0.943025541053414
40
0.943025541053414
40
0.982318271930638
40
0.982318271930638
40
1
40
1
40
1
40
1
41
1
10
3.708562
20
0.118645919539489
30
0
41
1
10
3.82139872485195
20
0.0537339471459291
30
0
41
1
10
3.93403227659519
20
-0.011481911453501
30
0
41
1
10
4.10322828207947
20
-0.108806440343699
30
0
41
1
10
4.15972705794499
20
-0.14120028097588
30
0
41
1
10
4.27249687295196
20
-0.20542210702888
30
0
41
1
10
4.32877875094192
20
-0.237273952560656
30
0
41
1
10
4.49749794665743
20
-0.331740577112186
30
0
41
1
10
4.60996505822391
20
-0.393005712481852
30
0
41
1
10
4.77923559333652
20
-0.481373275662548
30
0
41
1
10
4.83571640746331
20
-0.510223956448158
30
0
41
1
10
4.94838813785941
20
-0.566326754335364
30
0
41
1
10
5.00464175819408
20
-0.593622458352428
30
0
41
1
10
5.11710293937563
20
-0.646525292999371
30
0
41
1
10
5.17334789658602
20
-0.672079642708866
30
0
41
1
10
5.28597709343092
20
-0.721248108185364
30
0
41
1
10
5.34239440759245
20
-0.744881570915055
30
0
41
1
10
5.51174648013708
20
-0.812594534395032
30
0
41
1
10
5.62422646058079
20
-0.853296266907307
30
0
41
1
10
5.79293116116008
20
-0.907028467224904
30
0
41
1
10
5.84919547939467
20
-0.923686812644206
30
0
41
1
10
5.96191959097169
20
-0.954378721618582
30
0
41
1
10
6.01842978887541
20
-0.968433612867017
30
0
41
1
10
6.18759420441893
20
-1.00638225063509
30
0
41
1
10
6.30004357355736
20
-1.02613648943711
30
0
41
1
10
6.46881660740945
20
-1.04711480466284
30
0
41
1
10
6.52512401812251
20
-1.05265055235887
30
0
41
1
10
6.63797296947328
20
-1.06076244164711
30
0
41
1
10
6.69442485604691
20
-1.06333234569794
30
0
41
1
10
6.86343412318914
20
-1.06657083782596
30
0
41
1
10
6.97586242621688
20
-1.06279246041402
30
0
41
1
10
7.14471734849542
20
-1.04820354752388
30
0
41
1
10
7.20113750352226
20
-1.04185440380627
30
0
41
1
10
7.31398256413689
20
-1.0262696125551
30
0
41
1
10
7.3703202892527
20
-1.01704569732721
30
0
41
1
10
7.5392261274053
20
-0.985190697133874
30
0
41
1
10
7.65166884127456
20
-0.958370488946372
30
0
41
1
10
7.82069747257455
20
-0.910103503249331
30
0
41
1
10
7.87717762011417
20
-0.892685168820549
30
0
41
1
10
7.95890323897035
20
-0.865741683822336
30
0
41
1
10
7.98425351609683
20
-0.857139683773624
30
0
41
1
10
8.00959526914332
20
-0.848302719318639
30
0
0
SPLINE
5
C5
100
AcDbEntity
8
1
62
256
6
ByLayer
370
18
48
1
60
0
100
AcDbSpline
70
4
71
3
72
32
73
28
40
0
40
0
40
0
40
0
40
0.0297258316332679
40
0.0297258316332679
40
0.117932574212057
40
0.117932574212057
40
0.294346059369634
40
0.294346059369634
40
0.382552801948427
40
0.382552801948427
40
0.47075954452722
40
0.47075954452722
40
0.647173029684806
40
0.647173029684806
40
0.735379772263598
40
0.735379772263598
40
0.823586514842391
40
0.823586514842391
40
0.867689886131791
40
0.867689886131791
40
0.911793257421192
40
0.911793257421192
40
0.955896628710592
40
0.955896628710592
40
0.977948314355296
40
0.977948314355296
40
1
40
1
40
1
40
1
41
1
10
12.6076965946051
20
1.06499982579288
30
0
41
1
10
12.626670974628
20
1.06499568069256
30
0
41
1
10
12.6456537017324
20
1.06482230949993
30
0
41
1
10
12.7210085649796
20
1.06346291656689
30
0
41
1
10
12.7775160085877
20
1.06094939864135
30
0
41
1
10
12.9466711023432
20
1.04898635739286
30
0
41
1
10
13.0591127757367
20
1.03512726456287
30
0
41
1
10
13.2278752071571
20
1.00570692992454
30
0
41
1
10
13.2841816969639
20
0.994477970891552
30
0
41
1
10
13.3970313716387
20
0.969251426528388
30
0
41
1
10
13.4534869796476
20
0.95526480669912
30
0
41
1
10
13.6225431299755
20
0.90944895333277
30
0
41
1
10
13.7350384739333
20
0.873714687916362
30
0
41
1
10
13.9040410082404
20
0.812800574891384
30
0
41
1
10
13.9605176458005
20
0.791294493806618
30
0
41
1
10
14.0732804046287
20
0.746257506357495
30
0
41
1
10
14.1295881431921
20
0.722692534485077
30
0
41
1
10
14.2140483729355
20
0.685924226209579
30
0
41
1
10
14.242256630136
20
0.673506722865767
30
0
41
1
10
14.298500782851
20
0.647964382778611
30
0
41
1
10
14.3264982627748
20
0.634778186555991
30
0
41
1
10
14.3829758411065
20
0.608613711714924
30
0
41
1
10
14.4115065189391
20
0.595728674880945
30
0
41
1
10
14.453418345622
20
0.574742786954545
30
0
41
1
10
14.4671692693179
20
0.567356337138023
30
0
41
1
10
14.4951834924643
20
0.55321915307357
30
0
41
1
10
14.5094255307844
20
0.546435186235442
30
0
41
1
10
14.5246823440649
20
0.54116044786764
30
0
0
SPLINE
5
C6
100
AcDbEntity
8
1
62
256
6
ByLayer
370
18
48
1
60
0
100
AcDbSpline
70
4
71
3
72
28
73
24
40
0
40
0
40
0
40
0
40
0.0624999999999935
40
0.0624999999999935
40
0.124999999999987
40
0.124999999999987
40
0.249999999999984
40
0.249999999999984
40
0.37499999999998
40
0.37499999999998
40
0.437499999999979
40
0.437499999999979
40
0.499999999999977
40
0.499999999999977
40
0.624999999999983
40
0.624999999999983
40
0.749999999999988
40
0.749999999999988
40
0.874999999999994
40
0.874999999999994
40
0.937499999999997
40
0.937499999999997
40
1
40
1
40
1
40
1
41
1
10
14.5246823440649
20
0.541160447867611
30
0
41
1
10
14.5330538337162
20
0.528867335963042
30
0
41
1
10
14.5414123270655
20
0.51759812476044
30
0
41
1
10
14.5581226536609
20
0.496753977793674
30
0
41
1
10
14.5664744075436
20
0.487127651831457
30
0
41
1
10
14.5915282039139
20
0.459707748451478
30
0
41
1
10
14.6082280275474
20
0.443316990338929
30
0
41
1
10
14.6416212693963
20
0.410698122245691
30
0
41
1
10
14.6583162715744
20
0.394626575359751
30
0
41
1
10
14.6833345649932
20
0.372005330426134
30
0
41
1
10
14.6916748180636
20
0.364704479116028
30
0
41
1
10
14.7082434097736
20
0.350793593301972
30
0
41
1
10
14.7164801129036
20
0.344185567633531
30
0
41
1
10
14.7410263490925
20
0.325378620045086
30
0
41
1
10
14.7571850938189
20
0.314131088007628
30
0
41
1
10
14.7889351828056
20
0.293678864448651
30
0
41
1
10
14.8045377252526
20
0.28447738245427
30
0
41
1
10
14.8346453136039
20
0.268287578406671
30
0
41
1
10
14.8491782434472
20
0.26130313281331
30
0
41
1
10
14.8691514762824
20
0.252530117011133
30
0
41
1
10
14.8754964272403
20
0.249888350898601
30
0
41
1
10
14.8872006676903
20
0.245173669986542
30
0
41
1
10
14.8925623024519
20
0.243100687418291
30
0
41
1
10
14.8971453910259
20
0.241316024073115
30
0
0
SPLINE
5
C7
100
AcDbEntity
8
1
62
256
6
ByLayer
370
18
48
1
60
0
100
AcDbSpline
70
4
71
3
72
20
73
16
40
0
40
0
40
0
40
0
40
0.0600528320514158
40
0.0600528320514158
40
0.120105664102832
40
0.120105664102832
40
0.240211328205663
40
0.240211328205663
40
0.360316992308495
40
0.360316992308495
40
0.480422656411326
40
0.480422656411326
40
0.96084531282263
40
0.96084531282263
40
1
40
1
40
1
40
1
41
1
10
14.5246823440654
20
1.02622923279935
30
0
41
1
10
14.5094173494805
20
1.02459131673203
30
0
41
1
10
14.4951723139738
20
1.02241747755292
30
0
41
1
10
14.4671485537977
20
1.01763542831117
30
0
41
1
10
14.4533913900408
20
1.01501822292161
30
0
41
1
10
14.4114470184419
20
1.00723729601901
30
0
41
1
10
14.382879083579
20
1.00203304235876
30
0
41
1
10
14.3263118915765
20
0.990630394089976
30
0
41
1
10
14.2982600036944
20
0.98443316584482
30
0
41
1
10
14.2418798489721
20
0.971508891332405
30
0
41
1
10
14.2135848287037
20
0.964763591601752
30
0
41
1
10
14.0724231291167
20
0.929155327264482
30
0
41
1
10
13.9599349455642
20
0.89538852336446
30
0
41
1
10
13.8382965106483
20
0.853581643570749
30
0
41
1
10
13.8291291455854
20
0.850399609902382
30
0
41
1
10
13.8199606630282
20
0.847186360978043
30
0
0
SPLINE
5
C8
100
AcDbEntity
8
1
62
256
6
ByLayer
370
18
48
1
60
0
100
AcDbSpline
70
4
71
3
72
54
73
50
40
0
40
0
40
0
40
0
40
0.0199681787978925
40
0.0199681787978925
40
0.0812201676230188
40
0.0812201676230188
40
0.111846162035583
40
0.111846162035583
40
0.142472156448148
40
0.142472156448148
40
0.20372414527328
40
0.20372414527328
40
0.234350139685845
40
0.234350139685845
40
0.26497613409841
40
0.26497613409841
40
0.326228122923541
40
0.326228122923541
40
0.387480111748671
40
0.387480111748671
40
0.418106106161236
40
0.418106106161236
40
0.448732100573801
40
0.448732100573801
40
0.509984089398933
40
0.509984089398933
40
0.5406100838115
40
0.5406100838115
40
0.571236078224067
40
0.571236078224067
40
0.632488067049199
40
0.632488067049199
40
0.663114061461764
40
0.663114061461764
40
0.693740055874329
40
0.693740055874329
40
0.754992044699461
40
0.754992044699461
40
0.785618039112028
40
0.785618039112028
40
0.816244033524595
40
0.816244033524595
40
0.877496022349729
40
0.877496022349729
40
0.908122016762297
40
0.908122016762297
40
0.938748011174864
40
0.938748011174864
40
1
40
1
40
1
40
1
41
1
10
9.22590873999491
20
-1.06499987413267
30
0
41
1
10
9.1891410687607
20
-1.06500501579271
30
0
41
1
10
9.15241231503339
20
-1.06437510997677
30
0
41
1
10
9.00316915184209
20
-1.05923450327214
30
0
41
1
10
8.89072416658246
20
-1.04942176604305
30
0
41
1
10
8.72165271868835
20
-1.0259979822122
30
0
41
1
10
8.66515831764153
20
-1.01672200856314
30
0
41
1
10
8.55236384982186
20
-0.995359460618175
30
0
41
1
10
8.49607684187794
20
-0.983271505288059
30
0
41
1
10
8.32733690246619
20
-0.942926617417299
30
0
41
1
10
8.21487730964145
20
-0.910688974654022
30
0
41
1
10
8.04563304836566
20
-0.85485387854817
30
0
41
1
10
7.98914000395814
20
-0.834990528707095
30
0
41
1
10
7.87645169019871
20
-0.793057065308261
30
0
41
1
10
7.82019327984162
20
-0.770954677238649
30
0
41
1
10
7.65148175359451
20
-0.70146527328103
30
0
41
1
10
7.53891437405377
20
-0.651044826314262
30
0
41
1
10
7.31306014803738
20
-0.543205835357099
30
0
41
1
10
7.20055719049233
20
-0.486128401709976
30
0
41
1
10
7.03186106870177
20
-0.39666273089702
30
0
41
1
10
6.97559680711566
20
-0.366265130157075
30
0
41
1
10
6.86288199520163
20
-0.30451886616666
30
0
41
1
10
6.80637345106751
20
-0.273117867742911
30
0
41
1
10
6.63718683024013
20
-0.178098190742702
30
0
41
1
10
6.52473547447806
20
-0.113568618950524
30
0
41
1
10
6.3559624009653
20
-0.0160423560519121
30
0
41
1
10
6.29965352390934
20
0.0165273290882624
30
0
41
1
10
6.18681046969206
20
0.0815739871330834
30
0
41
1
10
6.13034149959097
20
0.114027546115068
30
0
41
1
10
5.96130603631849
20
0.210565258045847
30
0
41
1
10
5.84887580506197
20
0.273999624162087
30
0
41
1
10
5.68001197022915
20
0.366718427422882
30
0
41
1
10
5.62360665361757
20
0.397192524650308
30
0
41
1
10
5.51074465797745
20
0.456870468248923
30
0
41
1
10
5.45440129448349
20
0.486040888710079
30
0
41
1
10
5.28548358513294
20
0.571332776915909
30
0
41
1
10
5.17303404259252
20
0.625257508867122
30
0
41
1
10
5.0040225350119
20
0.700847718121906
30
0
41
1
10
4.9475368438801
20
0.725123919417086
30
0
41
1
10
4.83479958977483
20
0.771416631508373
30
0
41
1
10
4.77849621840926
20
0.793467446316043
30
0
41
1
10
4.60964703549917
20
0.856199113942978
30
0
41
1
10
4.49717385838738
20
0.893476320484695
30
0
41
1
10
4.32801045460366
20
0.941869189495691
30
0
41
1
10
4.27158591765991
20
0.956684635512033
30
0
41
1
10
4.15894894796219
20
0.98351182911631
30
0
41
1
10
4.10268378191898
20
0.995547131217961
30
0
41
1
10
3.93390231459836
20
1.02744752084692
30
0
41
1
10
3.82140423411076
20
1.04311814176637
30
0
41
1
10
3.708562
20
1.05292624230529
30
0
0
SPLINE
5
C9
100
AcDbEntity
8
1
62
256
6
ByLayer
370
18
48
1
60
0
100
AcDbSpline
70
4
71
3
72
43
73
39
40
0
40
0
40
0
40
0
40
0.0597680876616426
40
0.0821811205347586
40
0.104594153407874
40
0.134478197238696
40
0.164362241069517
40
0.194246284900338
40
0.22413032873116
40
0.254014372561981
40
0.268956394477392
40
0.298840438308213
40
0.328724482139034
40
0.358608525969856
40
0.388492569800677
40
0.418376613631498
40
0.440789646504614
40
0.46320267937773
40
0.493086723208552
40
0.522970767039373
40
0.552854810870194
40
0.582738854701015
40
0.605151887574131
40
0.627564920447247
40
0.657448964278069
40
0.68733300810889
40
0.717217051939711
40
0.747101095770533
40
0.776985139601354
40
0.791927161516764
40
0.821811205347586
40
0.851695249178407
40
0.881579293009228
40
0.91146333684005
40
0.941347380670871
40
0.956289402586282
40
0.986173446417103
40
1
40
1
40
1
40
1
41
1
10
3.708562
20
0.184552327899354
30
0
41
1
10
3.76748126124593
20
0.178406343178267
30
0
41
1
10
3.84849439628272
20
0.169582243598541
30
0
41
1
10
3.95160236270584
20
0.1577578837217
30
0
41
1
10
4.02525131555026
20
0.149089357964186
30
0
41
1
10
4.10626600474893
20
0.139280055216517
30
0
41
1
10
4.19464735328935
20
0.128255606034429
30
0
41
0.999999999999999
10
4.28302845603901
20
0.116929749643418
30
0
41
1
10
4.37140962835224
20
0.105315976819242
30
0
41
1
10
4.445060584065
20
0.0954244631598442
30
0
41
1
10
4.51871154789273
20
0.0854198730472148
30
0
41
1
10
4.59236250972415
20
0.0753006104091583
30
0
41
1
10
4.6807436644157
20
0.0629924519364237
30
0
41
1
10
4.76912481900774
20
0.050544087133602
30
0
41
1
10
4.85750597362579
20
0.0379769365935942
30
0
41
1
10
4.9385220320176
20
0.0263679646173216
30
0
41
1
10
5.01217299419489
20
0.0157606837407229
30
0
41
1
10
5.08582395637097
20
0.0051105185711151
30
0
41
1
10
5.16684001476574
20
-0.0066003422698202
30
0
41
1
10
5.25522116937577
20
-0.0193432440107983
30
0
41
1
10
5.34360232399359
20
-0.0320321033206596
30
0
41
1
10
5.42461838236304
20
-0.0435931750120915
30
0
41
1
10
5.49826934464977
20
-0.0540305061333015
30
0
41
1
10
5.57192030634789
20
-0.0643961993334586
30
0
41
1
10
5.65293636630457
20
-0.0756876044289641
30
0
41
1
10
5.74131750620717
20
-0.0878598936371873
30
0
41
1
10
5.829698632538
20
-0.0998243251970621
30
0
41
1
10
5.91807974640093
20
-0.111534957600924
30
0
41
1
10
5.99173066550747
20
-0.121073939822651
30
0
41
1
10
6.06538157864929
20
-0.130432776733642
30
0
41
1
10
6.139032486285
20
-0.13960645232666
30
0
41
1
10
6.22741356806662
20
-0.150298935807086
30
0
41
1
10
6.31579464390026
20
-0.160655371450929
30
0
41
1
10
6.40417571521814
20
-0.170659489486951
30
0
41
1
10
6.47782660541438
20
-0.17867625540535
30
0
41
1
10
6.55147749457692
20
-0.186417462355308
30
0
41
1
10
6.60929855194124
20
-0.192282568578776
30
0
41
1
10
6.65238943175695
20
-0.196492904079548
30
0
41
1
10
6.66601995606439
20
-0.197808414191485
30
0
0
SPLINE
5
CA
100
AcDbEntity
8
1
62
256
6
ByLayer
370
18
48
1
60
0
100
AcDbSpline
70
4
71
3
72
26
73
22
40
0
40
0
40
0
40
0
40
0.0625
40
0.0625
40
0.125
40
0.125
40
0.25
40
0.25
40
0.375
40
0.375
40
0.5
40
0.5
40
0.625
40
0.625
40
0.75
40
0.75
40
0.875
40
0.875
40
0.9375
40
0.9375
40
1
40
1
40
1
40
1
41
1
10
14.8971453910259
20
0.241316024073086
30
0
41
1
10
14.8926137530244
20
0.257304875460363
30
0
41
1
10
14.8873114227612
20
0.273187799983845
30
0
41
1
10
14.8757151737673
20
0.304871037075856
30
0
41
1
10
14.869419313849
20
0.320671107460584
30
0
41
1
10
14.8495654655286
20
0.368075194228993
30
0
41
1
10
14.8350764848895
20
0.399688563739261
30
0
41
1
10
14.8049740359059
20
0.463306430636237
30
0
41
1
10
14.789330626659
20
0.495307591292743
30
0
41
1
10
14.7575046152485
20
0.559721423191547
30
0
41
1
10
14.7413014895064
20
0.592161414757896
30
0
41
1
10
14.7086182406922
20
0.657369532734492
30
0
41
1
10
14.6921476516755
20
0.690073066398924
30
0
41
1
10
14.6589899064421
20
0.755983727433204
30
0
41
1
10
14.6423073200642
20
0.789187000705198
30
0
41
1
10
14.6087769635772
20
0.856612556346505
30
0
41
1
10
14.5919150633048
20
0.890928311339223
30
0
41
1
10
14.5666437836546
20
0.942215103794837
30
0
41
1
10
14.558223840309
20
0.959272785040184
30
0
41
1
10
14.5414203060554
20
0.993061189775773
30
0
41
1
10
14.5330393022836
20
1.0097711141961
30
0
41
1
10
14.5246823440651
20
1.0262292327989
30
0
0
SPLINE
5
CB
100
AcDbEntity
8
1
62
256
6
ByLayer
370
18
48
1
60
0
100
AcDbSpline
70
4
71
3
72
70
73
66
40
0
40
0
40
0
40
0
40
0.0395621646074911
40
0.0395621646074911
40
0.0636707490569033
40
0.0636707490569033
40
0.0877793335063156
40
0.0877793335063156
40
0.135996502405139
40
0.135996502405139
40
0.16010508685455
40
0.16010508685455
40
0.184213671303962
40
0.184213671303962
40
0.232430840202787
40
0.232430840202787
40
0.256539424652199
40
0.256539424652199
40
0.280648009101611
40
0.280648009101611
40
0.304756593551023
40
0.304756593551023
40
0.328865178000435
40
0.328865178000435
40
0.37708234689926
40
0.37708234689926
40
0.401190931348671
40
0.401190931348671
40
0.425299515798082
40
0.425299515798082
40
0.473516684696902
40
0.473516684696902
40
0.497625269146312
40
0.497625269146312
40
0.521733853595722
40
0.521733853595722
40
0.569951022494544
40
0.569951022494544
40
0.594059606943955
40
0.594059606943955
40
0.618168191393366
40
0.618168191393366
40
0.666385360292186
40
0.666385360292186
40
0.690493944741595
40
0.690493944741595
40
0.714602529191004
40
0.714602529191004
40
0.738711113640413
40
0.738711113640413
40
0.762819698089822
40
0.762819698089822
40
0.811036866988642
40
0.811036866988642
40
0.835145451438053
40
0.835145451438053
40
0.859254035887464
40
0.859254035887464
40
0.907471204786284
40
0.907471204786284
40
0.931579789235693
40
0.931579789235693
40
0.955688373685102
40
0.955688373685102
40
1
40
1
40
1
40
1
41
1
10
6.81141435871453
20
1.06500049199164
30
0
41
1
10
6.90380055264771
20
1.06502276380209
30
0
41
1
10
6.99606878438502
20
1.06104664930493
30
0
41
1
10
7.14471734849542
20
1.04820354752388
30
0
41
1
10
7.20113750352226
20
1.04185440380627
30
0
41
1
10
7.31398256413687
20
1.0262696125551
30
0
41
1
10
7.37032028925267
20
1.01704569732721
30
0
41
1
10
7.5392261274053
20
0.985190697133874
30
0
41
1
10
7.65166884127456
20
0.9583704889464
30
0
41
1
10
7.82069747257455
20
0.910103503249331
30
0
41
1
10
7.87717762011414
20
0.892685168820549
30
0
41
1
10
7.98990261327299
20
0.855521740698464
30
0
41
1
10
8.04620167700534
20
0.835753709926195
30
0
41
1
10
8.21505082714174
20
0.773063991132773
30
0
41
1
10
8.32753626472754
20
0.726741450225006
30
0
41
1
10
8.49675307607893
20
0.651106520007971
30
0
41
1
10
8.55313107657889
20
0.624974463291267
30
0
41
1
10
8.66575630682595
20
0.571183889878199
30
0
41
1
10
8.72202798812708
20
0.543496714795282
30
0
41
1
10
8.83458479530003
20
0.486687025548378
30
0
41
1
10
8.89086920024661
20
0.457563464713388
30
0
41
1
10
9.00354153749788
20
0.398013821433835
30
0
41
1
10
9.05999644417255
20
0.367545368296618
30
0
41
1
10
9.2291088624346
20
0.27471024115107
30
0
41
1
10
9.34158393933916
20
0.211292933582143
30
0
41
1
10
9.51046077181451
20
0.114856891156307
30
0
41
1
10
9.56677788141684
20
0.0824884725814172
30
0
41
1
10
9.67955808924791
20
0.0174686324452296
30
0
41
1
10
9.73602682095711
20
-0.0152020095873127
30
0
41
1
10
9.90495837740536
20
-0.112861227947263
30
0
41
1
10
10.017388061025
20
-0.177386678999966
30
0
41
1
10
10.1863370682922
20
-0.272297708654605
30
0
41
1
10
10.2427015056012
20
-0.303627349222609
30
0
41
1
10
10.3556207891158
20
-0.365501080335008
30
0
41
1
10
10.4119526256102
20
-0.39594347574112
30
0
41
1
10
10.580771032071
20
-0.48545615826032
30
0
41
1
10
10.6932037450636
20
-0.542519026289426
30
0
41
1
10
10.8622912506834
20
-0.623289675513945
30
0
41
1
10
10.9187928391705
20
-0.649446606510026
30
0
41
1
10
11.0315742176725
20
-0.699809969841567
30
0
41
1
10
11.0878612649345
20
-0.724033195967337
30
0
41
1
10
11.2565782526125
20
-0.793609537950402
30
0
41
1
10
11.3690414529453
20
-0.835655185063644
30
0
41
1
10
11.5382938644242
20
-0.891571031267802
30
0
41
1
10
11.5947729638957
20
-0.909004476974445
30
0
41
1
10
11.7074406452369
20
-0.941223312119831
30
0
41
1
10
11.7636920687571
20
-0.956036634032756
30
0
41
1
10
11.8761547063738
20
-0.982967667778581
30
0
41
1
10
11.9323993535536
20
-0.995061483998427
30
0
41
1
10
12.045032453272
20
-1.01643889382487
30
0
41
1
10
12.1014508784169
20
-1.02573063621236
30
0
41
1
10
12.2708191715908
20
-1.04927370449107
30
0
41
1
10
12.3833111738452
20
-1.05913381179633
30
0
41
1
10
12.5520226982517
20
-1.06502267541646
30
0
41
1
10
12.6082864087999
20
-1.0654964111007
30
0
41
1
10
12.7210085649796
20
-1.06346291656689
30
0
41
1
10
12.7775160085876
20
-1.06094939864135
30
0
41
1
10
12.9466711023432
20
-1.04898635739286
30
0
41
1
10
13.0591127757366
20
-1.03512726456287
30
0
41
1
10
13.2278752071571
20
-1.00570692992454
30
0
41
1
10
13.2841816969639
20
-0.994477970891552
30
0
41
1
10
13.3970313716387
20
-0.969251426528388
30
0
41
1
10
13.4534869796476
20
-0.955264806699091
30
0
41
1
10
13.6134142102807
20
-0.911922978946848
30
0
41
1
10
13.7168130830254
20
-0.879469514489557
30
0
41
1
10
13.8203319591783
20
-0.842877121422674
30
0
0
SPLINE
5
CC
100
AcDbEntity
8
1
62
256
6
ByLayer
370
18
48
1
60
0
100
AcDbSpline
70
4
71
3
72
46
73
42
40
0
40
0
40
0
40
0
40
0.0046137756916414
40
0.0334577498659132
40
0.0623017240401846
40
0.0767237111273203
40
0.105567685301592
40
0.134411659475864
40
0.163255633650135
40
0.192099607824407
40
0.220943581998679
40
0.242576562629382
40
0.264209543260086
40
0.293053517434357
40
0.321897491608629
40
0.350741465782901
40
0.379585439957172
40
0.408429414131444
40
0.42285140121858
40
0.451695375392851
40
0.480539349567123
40
0.509383323741395
40
0.538227297915666
40
0.567071272089938
40
0.581493259177073
40
0.610337233351345
40
0.639181207525617
40
0.668025181699889
40
0.69686915587416
40
0.725713130048432
40
0.747346110679135
40
0.768979091309839
40
0.797823065484111
40
0.826667039658382
40
0.855511013832654
40
0.884354988006926
40
0.905987968637629
40
0.927620949268333
40
0.956464923442604
40
0.985308897616876
40
1
40
1
40
1
40
1
41
1
10
9.39498609876702
20
0.195525020074712
30
0
41
1
10
9.39969846925501
20
0.195063943486616
30
0
41
1
10
9.4338711997041
20
0.19170658393574
30
0
41
1
10
9.49750429011566
20
0.185269963521733
30
0
41
1
10
9.57115519000707
20
0.177464599868927
30
0
41
1
10
9.64480608995916
20
0.169400975306416
30
0
41
1
10
9.71845698967315
20
0.161091072918083
30
0
41
1
10
9.8068380700563
20
0.150718258390981
30
0
41
1
10
9.895219148519
20
0.14000981776698
30
0
41
1
10
9.98360023353663
20
0.12899812934387
30
0
41
0.999999999999999
10
10.0646162016329
20
0.118639871652249
30
0
41
1
10
10.1382669114563
20
0.109030278325577
30
0
41
1
10
10.2119175342908
20
0.0992645277712541
30
0
41
1
10
10.2929331022887
20
0.0883338165511702
30
0
41
1
10
10.3813136036154
20
0.0761979068947198
30
0
41
1
10
10.4696940089954
20
0.0638637007519094
30
0
41
1
10
10.5580743418253
20
0.0513807206112631
30
0
41
1
10
10.6317245780005
20
0.0409042561656463
30
0
41
1
10
10.7053747978016
20
0.0303762607957765
30
0
41
1
10
10.7790250084701
20
0.0198078815355984
30
0
41
1
10
10.8674052698544
20
0.0070820667661735
30
0
41
1
10
10.9557855630218
20
-0.0056654860057961
30
0
41
1
10
11.0441659111412
20
-0.0184098956815433
30
0
41
1
10
11.1178162664604
20
-0.0290133571821514
30
0
41
1
10
11.1914666847472
20
-0.0395840837759067
30
0
41
1
10
11.2651171751534
20
-0.0500850039078386
30
0
41
1
10
11.3534978951133
20
-0.0625520480753039
30
0
41
1
10
11.4418787869356
20
-0.0748691981826539
30
0
41
1
10
11.5302598180969
20
-0.0870112935291729
30
0
41
1
10
11.6112757263865
20
-0.097961679800278
30
0
41
1
10
11.684926564768
20
-0.107758129989662
30
0
41
1
10
11.7585773991771
20
-0.117405470038307
30
0
41
1
10
11.8395933179995
20
-0.127826872121346
30
0
41
1
10
11.9279743201343
20
-0.138884481862675
30
0
41
1
10
12.0163553223194
20
-0.149606395687442
30
0
41
1
10
12.0973712409753
20
-0.159112532965736
30
0
41
1
10
12.1710220761214
20
-0.167485056764434
30
0
41
0.999999999999999
10
12.2446729112662
20
-0.175618351592277
30
0
41
1
10
12.3256888299259
20
-0.184248559244423
30
0
41
1
10
12.399614531026
20
-0.191776164757016
30
0
41
1
10
12.444079898069
20
-0.196142701915818
30
0
41
1
10
12.4590849310534
20
-0.197596913807359
30
0
0
SPLINE
5
CD
100
AcDbEntity
8
1
62
256
6
ByLayer
370
18
48
1
60
0
100
AcDbSpline
70
4
71
3
72
45
73
41
40
0
40
0
40
0
40
0
40
0.125000000000006
40
0.125000000000006
40
0.187500000000008
40
0.187500000000008
40
0.250000000000011
40
0.250000000000011
40
0.312500000000014
40
0.312500000000014
40
0.375000000000017
40
0.375000000000017
40
0.500000000000018
40
0.500000000000018
40
0.531250000000019
40
0.531250000000019
40
0.562500000000019
40
0.562500000000019
40
0.62500000000002
40
0.62500000000002
40
0.687500000000021
40
0.687500000000021
40
0.703125000000021
40
0.703125000000021
40
0.718750000000021
40
0.750000000000019
40
0.750000000000019
40
0.812500000000014
40
0.812500000000014
40
0.828125000000013
40
0.828125000000013
40
0.843750000000011
40
0.843750000000011
40
0.875000000000009
40
0.875000000000009
40
0.937500000000005
40
0.937500000000005
40
0.968750000000002
40
0.968750000000002
40
1
40
1
40
1
40
1
41
1
10
3.708562
20
0.118645919539489
30
0
41
1
10
3.62740910781522
20
0.142141331405838
30
0
41
1
10
3.54789056237621
20
0.169999538343575
30
0
41
1
10
3.43106201568167
20
0.218072659660947
30
0
41
1
10
3.39254628839109
20
0.235143490076354
30
0
41
1
10
3.31677728518002
20
0.271141026085218
30
0
41
1
10
3.27946994951242
20
0.29008902228523
30
0
41
1
10
3.20603053056252
20
0.329824260245516
30
0
41
1
10
3.16980169406278
20
0.350674458551566
30
0
41
1
10
3.09929966080634
20
0.393707115875969
30
0
41
1
10
3.06497166382232
20
0.415912003587607
30
0
41
1
10
2.96483175226177
20
0.484375073342619
30
0
41
1
10
2.90182769722554
20
0.532477350732705
30
0
41
1
10
2.82841384097091
20
0.595034675560242
30
0
41
1
10
2.81400101936924
20
0.607667957515929
30
0
41
1
10
2.78574608689559
20
0.633163275582973
30
0
41
1
10
2.77185842869278
20
0.646069484905809
30
0
41
1
10
2.73148175803419
20
0.684751643737968
30
0
41
1
10
2.70633744842672
20
0.710418145051449
30
0
41
1
10
2.65983903798599
20
0.761177339105245
30
0
41
1
10
2.63848038738098
20
0.786271810310893
30
0
41
1
10
2.61444847381389
20
0.817039705693162
30
0
41
1
10
2.60977671172716
20
0.8231633376368
30
0
41
1
10
2.60079514420019
20
0.835228480721213
30
0
41
1
10
2.58783148413693
20
0.853096501501796
30
0
41
1
10
2.57639770051489
20
0.870251748348863
30
0
41
1
10
2.55560938048737
20
0.903540771311128
30
0
41
1
10
2.54450759096756
20
0.924377121535656
30
0
41
1
10
2.53440056641034
20
0.948426149817919
30
0
41
1
10
2.53256886945908
20
0.953135695237165
30
0
41
1
10
2.52929837809674
20
0.962344686675465
30
0
41
1
10
2.52786071090296
20
0.966845039437032
30
0
41
1
10
2.52419958599071
20
0.979849726314683
30
0
41
1
10
2.52260372217313
20
0.987919176076446
30
0
41
1
10
2.52029624744296
20
1.01035123283339
30
0
41
1
10
2.52204946295456
20
1.02294371095456
30
0
41
1
10
2.52968008795815
20
1.03827423962343
30
0
41
1
10
2.53307951815537
20
1.04279817382897
30
0
41
1
10
2.54145664757203
20
1.05052762754227
30
0
41
1
10
2.54643746293823
20
1.05375355699465
30
0
41
1
10
2.55219302225421
20
1.05636950952572
30
0
0
LINE
5
7F
100
AcDbEntity
8
1
62
256
6
ByLayer
370
18
48
1
60
0
100
AcDbLine
10
0
20
-1.499973
30
0
11
0
21
0
31
0
39
0
210
0
220
0
230
1
0
LINE
5
80
100
AcDbEntity
8
1
62
256
6
ByLayer
370
18
48
1
60
0
100
AcDbLine
10
0
20
0
30
0
11
0
21
1.499973
31
0
39
0
210
0
220
0
230
1
0
LINE
5
81
100
AcDbEntity
8
1
62
256
6
ByLayer
370
18
48
1
60
0
100
AcDbLine
10
14.524682
20
0.54116
30
0
11
14.524682
21
-1.026229
31
0
39
0
210
0
220
0
230
1
0
LINE
5
82
100
AcDbEntity
8
1
62
256
6
ByLayer
370
18
48
1
60
0
100
AcDbLine
10
3.708562
20
1.052926
30
0
11
3.708562
21
0.184552
31
0
39
0
210
0
220
0
230
1
0
LINE
5
83
100
AcDbEntity
8
1
62
256
6
ByLayer
370
13
48
1
60
0
100
AcDbLine
10
1.021344
20
1.065
30
0
11
1.021344
21
-1.065
31
0
39
0
210
0
220
0
230
1
0
LINE
5
84
100
AcDbEntity
8
1
62
256
6
ByLayer
370
18
48
1
60
0
100
AcDbLine
10
3.708562
20
0.184552
30
0
11
3.708562
21
0.100809
31
0
39
0
210
0
220
0
230
1
0
LINE
5
85
100
AcDbEntity
8
1
62
256
6
ByLayer
370
13
48
1
60
0
100
AcDbLine
10
0.521344
20
1.198975
30
0
11
0.521344
21
-1.198975
31
0
39
0
210
0
220
0
230
1
0
LINE
5
86
100
AcDbEntity
8
SK1
62
256
6
ByLayer
370
18
48
1
60
0
100
AcDbLine
10
-22.9787
20
1.326795
30
0
11
-22.9787
21
-1.326795
31
0
39
0
210
0
220
0
230
1
0
LINE
5
88
100
AcDbEntity
8
SK1
62
256
6
ByLayer
370
18
48
1
60
0
100
AcDbLine
10
-22.6787
20
1.5
30
0
11
-22.6787
21
-1.5
31
0
39
0
210
0
220
0
230
1
0
LINE
5
89
100
AcDbEntity
8
SK1
62
256
6
ByLayer
370
18
48
1
60
0
100
AcDbLine
10
0
20
-1.499973
30
0
11
0
21
0
31
0
39
0
210
0
220
0
230
1
0
LINE
5
8A
100
AcDbEntity
8
SK1
62
256
6
ByLayer
370
18
48
1
60
0
100
AcDbLine
10
0
20
0
30
0
11
0
21
1.499973
31
0
39
0
210
0
220
0
230
1
0
LINE
5
8B
100
AcDbEntity
8
SK1
62
256
6
ByLayer
370
18
48
1
60
0
100
AcDbLine
10
-4.7E-05
20
1.5
30
0
11
-4.7E-05
21
-1.5
31
0
39
0
210
0
220
0
230
1
0
LINE
5
8C
100
AcDbEntity
8
1
62
256
6
ByLayer
370
18
48
1
60
0
100
AcDbLine
10
15.0213
20
0
30
0
11
14.826117
21
0.418571
31
0
39
0
210
0
220
0
230
1
0
LINE
5
8D
100
AcDbEntity
8
1
62
256
6
ByLayer
370
18
48
1
60
0
100
AcDbLine
10
14.826117
20
-0.418571
30
0
11
15.0213
21
0
31
0
39
0
210
0
220
0
230
1
0
LINE
5
8E
100
AcDbEntity
8
1
62
256
6
ByLayer
370
18
48
1
60
0
100
AcDbLine
10
0.521344
20
1.198975
30
0
11
0
21
1.499973
31
0
39
0
210
0
220
0
230
1
0
LINE
5
8F
100
AcDbEntity
8
1
62
256
6
ByLayer
370
18
48
1
60
0
100
AcDbLine
10
0
20
-1.499973
30
0
11
0.521344
21
-1.198975
31
0
39
0
210
0
220
0
230
1
0
LINE
5
90
100
AcDbEntity
8
1
62
256
6
ByLayer
370
18
48
1
60
0
100
AcDbLine
10
1.021344
20
-1.065
30
0
11
6.811459
21
-1.065
31
0
39
0
210
0
220
0
230
1
0
LINE
5
91
100
AcDbEntity
8
1
62
256
6
ByLayer
370
18
48
1
60
0
100
AcDbLine
10
9.225829
20
-1.065
30
0
11
12.607588
21
-1.065
31
0
39
0
210
0
220
0
230
1
0
LINE
5
92
100
AcDbEntity
8
1
62
256
6
ByLayer
370
18
48
1
60
0
100
AcDbLine
10
12.607588
20
1.065
30
0
11
9.225829
21
1.065
31
0
39
0
210
0
220
0
230
1
0
LINE
5
93
100
AcDbEntity
8
1
62
256
6
ByLayer
370
18
48
1
60
0
100
AcDbLine
10
6.811459
20
1.065
30
0
11
1.021344
21
1.065
31
0
39
0
210
0
220
0
230
1
0
LINE
5
94
100
AcDbEntity
8
SK1
62
256
6
ByLayer
370
18
48
1
60
0
100
AcDbLine
10
-22.9787
20
-1.326795
30
0
11
-22.6787
21
-1.5
31
0
39
0
210
0
220
0
230
1
0
LINE
5
95
100
AcDbEntity
8
SK1
62
256
6
ByLayer
370
18
48
1
60
0
100
AcDbLine
10
-22.6787
20
1.5
30
0
11
-22.9787
21
1.326795
31
0
39
0
210
0
220
0
230
1
0
LINE
5
96
100
AcDbEntity
8
SK1
62
256
6
ByLayer
370
18
48
1
60
0
100
AcDbLine
10
-22.6787
20
-1.5
30
0
11
-4.7E-05
21
-1.5
31
0
39
0
210
0
220
0
230
1
0
LINE
5
97
100
AcDbEntity
8
SK1
62
256
6
ByLayer
370
18
48
1
60
0
100
AcDbLine
10
-4.7E-05
20
1.5
30
0
11
-22.6787
21
1.5
31
0
39
0
210
0
220
0
230
1
0
LINE
5
98
100
AcDbEntity
8
SK1
62
256
6
ByLayer
370
18
48
1
60
0
100
AcDbLine
10
0
20
1.499973
30
0
11
-4.7E-05
21
1.5
31
0
39
0
210
0
220
0
230
1
0
LINE
5
99
100
AcDbEntity
8
SK1
62
256
6
ByLayer
370
18
48
1
60
0
100
AcDbLine
10
-4.7E-05
20
-1.5
30
0
11
0
21
-1.499973
31
0
39
0
210
0
220
0
230
1
0
LINE
5
9A
100
AcDbEntity
8
4
62
256
6
ByLayer
370
18
48
0.05
60
0
100
AcDbLine
10
0
20
0
30
0
11
15.0213
21
0
31
0
39
0
210
0
220
0
230
1
0
LINE
5
9C
100
AcDbEntity
8
81
62
256
6
ByLayer
370
18
48
1
60
0
100
AcDbLine
10
15.0213
20
0
30
0
11
18.0213
21
0
31
0
39
0
210
0
220
0
230
1
0
LINE
5
9D
100
AcDbEntity
8
80
62
256
6
ByLayer
370
18
48
1
60
0
100
AcDbLine
10
0
20
0
30
0
11
-3
21
0
31
0
39
0
210
0
220
0
230
1
0
LINE
5
9E
100
AcDbEntity
8
SK4
62
256
6
ByLayer
370
18
48
0.05
60
0
100
AcDbLine
10
-25.9787
20
0
30
0
11
18.0213
21
0
31
0
39
0
210
0
220
0
230
1
0
LINE
5
A0
100
AcDbEntity
8
SK2
62
256
6
ByLayer
370
13
48
1
60
0
100
AcDbLine
10
-27.4787
20
-9
30
0
11
-27.4787
21
21.782741
31
0
39
0
210
0
220
0
230
1
0
LINE
5
A2
100
AcDbEntity
8
SK2
62
256
6
ByLayer
370
13
48
1
60
0
100
AcDbLine
10
-24.5662
20
-1.5
30
0
11
-29.4787
21
-1.5
31
0
39
0
210
0
220
0
230
1
0
LINE
5
A3
100
AcDbEntity
8
SK2
62
256
6
ByLayer
370
13
48
1
60
0
100
AcDbLine
10
-24.5662
20
1.5
30
0
11
-29.4787
21
1.5
31
0
39
0
210
0
220
0
230
1
0
LINE
5
A4
100
AcDbEntity
8
1
62
256
6
ByLayer
370
18
48
1
60
1
100
AcDbLine
10
-27.4787
20
-1.5
30
0
11
-27.017916
21
-4.999998
31
0
39
0
210
0
220
0
230
1
0
LINE
5
A5
100
AcDbEntity
8
1
62
256
6
ByLayer
370
18
48
1
60
1
100
AcDbLine
10
-27.017916
20
-4.999998
30
0
11
-27.939484
21
-5.000002
31
0
39
0
210
0
220
0
230
1
0
LINE
5
A6
100
AcDbEntity
8
1
62
256
6
ByLayer
370
18
48
1
60
1
100
AcDbLine
10
-27.939484
20
-5.000002
30
0
11
-27.4787
21
-1.5
31
0
39
0
210
0
220
0
230
1
0
LINE
5
A7
100
AcDbEntity
8
1
62
256
6
ByLayer
370
18
48
1
60
1
100
AcDbLine
10
-27.4787
20
1.5
30
0
11
-27.939484
21
4.999998
31
0
39
0
210
0
220
0
230
1
0
LINE
5
A8
100
AcDbEntity
8
1
62
256
6
ByLayer
370
18
48
1
60
1
100
AcDbLine
10
-27.939484
20
4.999998
30
0
11
-27.017916
21
5.000002
31
0
39
0
210
0
220
0
230
1
0
LINE
5
A9
100
AcDbEntity
8
1
62
256
6
ByLayer
370
18
48
1
60
1
100
AcDbLine
10
-27.017916
20
5.000002
30
0
11
-27.4787
21
1.5
31
0
39
0
210
0
220
0
230
1
0
LINE
5
AA
100
AcDbEntity
8
2
62
256
6
ByLayer
370
13
48
1
60
0
100
AcDbLine
10
20.5213
20
-8.565
30
0
11
20.5213
21
28.967855
31
0
39
0
210
0
220
0
230
1
0
LINE
5
AC
100
AcDbEntity
8
2
62
256
6
ByLayer
370
13
48
1
60
0
100
AcDbLine
10
16.6088
20
-1.065
30
0
11
22.5213
21
-1.065
31
0
39
0
210
0
220
0
230
1
0
LINE
5
AD
100
AcDbEntity
8
2
62
256
6
ByLayer
370
13
48
1
60
0
100
AcDbLine
10
16.6088
20
1.065
30
0
11
22.5213
21
1.065
31
0
39
0
210
0
220
0
230
1
0
LINE
5
AE
100
AcDbEntity
8
1
62
256
6
ByLayer
370
18
48
1
60
1
100
AcDbLine
10
20.5213
20
-1.065
30
0
11
20.982084
21
-4.564998
31
0
39
0
210
0
220
0
230
1
0
LINE
5
AF
100
AcDbEntity
8
1
62
256
6
ByLayer
370
18
48
1
60
1
100
AcDbLine
10
20.982084
20
-4.564998
30
0
11
20.060516
21
-4.565002
31
0
39
0
210
0
220
0
230
1
0
LINE
5
B0
100
AcDbEntity
8
1
62
256
6
ByLayer
370
18
48
1
60
1
100
AcDbLine
10
20.060516
20
-4.565002
30
0
11
20.5213
21
-1.065
31
0
39
0
210
0
220
0
230
1
0
LINE
5
B1
100
AcDbEntity
8
1
62
256
6
ByLayer
370
18
48
1
60
1
100
AcDbLine
10
20.5213
20
1.065
30
0
11
20.060516
21
4.564998
31
0
39
0
210
0
220
0
230
1
0
LINE
5
B2
100
AcDbEntity
8
1
62
256
6
ByLayer
370
18
48
1
60
1
100
AcDbLine
10
20.060516
20
4.564998
30
0
11
20.982084
21
4.565002
31
0
39
0
210
0
220
0
230
1
0
LINE
5
B3
100
AcDbEntity
8
1
62
256
6
ByLayer
370
18
48
1
60
1
100
AcDbLine
10
20.982084
20
4.565002
30
0
11
20.5213
21
1.065
31
0
39
0
210
0
220
0
230
1
0
LINE
5
B4
100
AcDbEntity
8
SK2
62
256
6
ByLayer
370
13
48
1
60
0
100
AcDbLine
10
15.692206
20
-1.438764
30
0
11
22.776345
21
-16.630748
31
0
39
0
210
0
220
0
230
1
0
LINE
5
B5
100
AcDbEntity
8
SK2
62
256
6
ByLayer
370
13
48
1
60
0
100
AcDbLine
10
15.692206
20
1.438764
30
0
11
22.776345
21
16.630748
31
0
39
0
210
0
220
0
230
1
0
LINE
5
B6
100
AcDbEntity
8
1
62
256
6
ByLayer
370
18
48
1
60
1
100
AcDbLine
10
21.931109
20
-14.818132
30
0
11
24.803142
21
-12.765394
31
0
39
0
210
0
220
0
230
1
0
LINE
5
B7
100
AcDbEntity
8
1
62
256
6
ByLayer
370
18
48
1
60
1
100
AcDbLine
10
24.803142
20
-12.765394
30
0
11
25.236571
21
-13.578675
31
0
39
0
210
0
220
0
230
1
0
LINE
5
B8
100
AcDbEntity
8
1
62
256
6
ByLayer
370
18
48
1
60
1
100
AcDbLine
10
25.236571
20
-13.578675
30
0
11
21.931109
21
-14.818132
31
0
39
0
210
0
220
0
230
1
0
LINE
5
B9
100
AcDbEntity
8
1
62
256
6
ByLayer
370
18
48
1
60
1
100
AcDbLine
10
21.931109
20
14.818132
30
0
11
25.236568
21
13.578677
31
0
39
0
210
0
220
0
230
1
0
LINE
5
BA
100
AcDbEntity
8
1
62
256
6
ByLayer
370
18
48
1
60
1
100
AcDbLine
10
25.236568
20
13.578677
30
0
11
24.803145
21
12.765392
31
0
39
0
210
0
220
0
230
1
0
LINE
5
BB
100
AcDbEntity
8
1
62
256
6
ByLayer
370
18
48
1
60
1
100
AcDbLine
10
24.803145
20
12.765392
30
0
11
21.931109
21
14.818132
31
0
39
0
210
0
220
0
230
1
0
LINE
5
D2
100
AcDbEntity
8
1
62
256
6
ByLayer
370
18
48
1
60
1
100
AcDbLine
10
-27.4787
20
-1.5
30
0
11
-27.017916
21
-4.999998
31
0
39
0
210
0
220
0
230
1
0
LINE
5
D3
100
AcDbEntity
8
1
62
256
6
ByLayer
370
18
48
1
60
1
100
AcDbLine
10
-27.017916
20
-4.999998
30
0
11
-27.939484
21
-5.000002
31
0
39
0
210
0
220
0
230
1
0
LINE
5
D4
100
AcDbEntity
8
1
62
256
6
ByLayer
370
18
48
1
60
1
100
AcDbLine
10
-27.939484
20
-5.000002
30
0
11
-27.4787
21
-1.5
31
0
39
0
210
0
220
0
230
1
0
LINE
5
D6
100
AcDbEntity
8
1
62
256
6
ByLayer
370
18
48
1
60
1
100
AcDbLine
10
-27.4787
20
1.5
30
0
11
-27.939484
21
4.999998
31
0
39
0
210
0
220
0
230
1
0
LINE
5
D7
100
AcDbEntity
8
1
62
256
6
ByLayer
370
18
48
1
60
1
100
AcDbLine
10
-27.939484
20
4.999998
30
0
11
-27.017916
21
5.000002
31
0
39
0
210
0
220
0
230
1
0
LINE
5
D8
100
AcDbEntity
8
1
62
256
6
ByLayer
370
18
48
1
60
1
100
AcDbLine
10
-27.017916
20
5.000002
30
0
11
-27.4787
21
1.5
31
0
39
0
210
0
220
0
230
1
0
LINE
5
DC
100
AcDbEntity
8
1
62
256
6
ByLayer
370
18
48
1
60
1
100
AcDbLine
10
20.5213
20
-1.065
30
0
11
20.982084
21
-4.564998
31
0
39
0
210
0
220
0
230
1
0
LINE
5
DD
100
AcDbEntity
8
1
62
256
6
ByLayer
370
18
48
1
60
1
100
AcDbLine
10
20.982084
20
-4.564998
30
0
11
20.060516
21
-4.565002
31
0
39
0
210
0
220
0
230
1
0
LINE
5
DE
100
AcDbEntity
8
1
62
256
6
ByLayer
370
18
48
1
60
1
100
AcDbLine
10
20.060516
20
-4.565002
30
0
11
20.5213
21
-1.065
31
0
39
0
210
0
220
0
230
1
0
LINE
5
E0
100
AcDbEntity
8
1
62
256
6
ByLayer
370
18
48
1
60
1
100
AcDbLine
10
20.5213
20
1.065
30
0
11
20.060516
21
4.564998
31
0
39
0
210
0
220
0
230
1
0
LINE
5
E1
100
AcDbEntity
8
1
62
256
6
ByLayer
370
18
48
1
60
1
100
AcDbLine
10
20.060516
20
4.564998
30
0
11
20.982084
21
4.565002
31
0
39
0
210
0
220
0
230
1
0
LINE
5
E2
100
AcDbEntity
8
1
62
256
6
ByLayer
370
18
48
1
60
1
100
AcDbLine
10
20.982084
20
4.565002
30
0
11
20.5213
21
1.065
31
0
39
0
210
0
220
0
230
1
0
LINE
5
E5
100
AcDbEntity
8
1
62
256
6
ByLayer
370
18
48
1
60
1
100
AcDbLine
10
21.931109
20
-14.818132
30
0
11
24.803142
21
-12.765394
31
0
39
0
210
0
220
0
230
1
0
LINE
5
E6
100
AcDbEntity
8
1
62
256
6
ByLayer
370
18
48
1
60
1
100
AcDbLine
10
24.803142
20
-12.765394
30
0
11
25.236571
21
-13.578675
31
0
39
0
210
0
220
0
230
1
0
LINE
5
E7
100
AcDbEntity
8
1
62
256
6
ByLayer
370
18
48
1
60
1
100
AcDbLine
10
25.236571
20
-13.578675
30
0
11
21.931109
21
-14.818132
31
0
39
0
210
0
220
0
230
1
0
LINE
5
E9
100
AcDbEntity
8
1
62
256
6
ByLayer
370
18
48
1
60
1
100
AcDbLine
10
21.931109
20
14.818132
30
0
11
25.236568
21
13.578677
31
0
39
0
210
0
220
0
230
1
0
LINE
5
EA
100
AcDbEntity
8
1
62
256
6
ByLayer
370
18
48
1
60
1
100
AcDbLine
10
25.236568
20
13.578677
30
0
11
24.803145
21
12.765392
31
0
39
0
210
0
220
0
230
1
0
LINE
5
EB
100
AcDbEntity
8
1
62
256
6
ByLayer
370
18
48
1
60
1
100
AcDbLine
10
24.803145
20
12.765392
30
0
11
21.931109
21
14.818132
31
0
39
0
210
0
220
0
230
1
0
MTEXT
5
CE
100
AcDbEntity
8
SK2
62
256
6
ByLayer
370
18
48
1
60
0
100
AcDbMText
10
-28.819814
20
6.658437
30
0
210
0
220
0
230
1
1
%%c
40
3
41
0
44
1.084337
50
90
71
7
72
5
7
iso_b_vert
0
MTEXT
5
D1
100
AcDbEntity
8
SK2
62
256
6
ByLayer
370
18
48
1
60
0
100
AcDbMText
10
-28.819814
20
12.635
30
0
210
0
220
0
230
1
1
\W0.7468;3.000
40
3
41
0
44
1.084337
50
90
71
7
72
5
7
iso_b_vert
0
MTEXT
5
DA
100
AcDbEntity
8
2
62
256
6
ByLayer
370
18
48
1
60
0
100
AcDbMText
10
19.180186
20
14.593438
30
0
210
0
220
0
230
1
1
%%c
40
3
41
0
44
1.084337
50
90
71
7
72
5
7
iso_b_vert
0
MTEXT
5
DB
100
AcDbEntity
8
2
62
256
6
ByLayer
370
18
48
1
60
0
100
AcDbMText
10
19.180186
20
20.57
30
0
210
0
220
0
230
1
1
\W0.6864;2.130
40
3
41
0
44
1.084337
50
90
71
7
72
5
7
iso_b_vert
0
MTEXT
5
E4
100
AcDbEntity
8
SK2
62
256
6
ByLayer
370
18
48
1
60
0
100
AcDbMText
10
28.088586
20
-2.114886
30
0
210
0
220
0
230
1
1
\W0.6747;130%%d
40
3
41
0
44
1.084337
50
0
71
7
72
5
7
iso_b_vert
0
MTEXT
5
ED
100
AcDbEntity
8
SK6
62
256
6
ByLayer
370
18
48
1
60
0
100
AcDbMText
10
-31.785296
20
-48.114886
30
0
210
0
220
0
230
1
1
\W0.7670;462.1-0213-009A0-XM X0BM
40
3
41
0
44
1.084337
50
0
71
7
72
5
7
iso_b_vert
0
HATCH
5
D5
100
AcDbEntity
8
SK2
62
256
6
ByLayer
370
13
48
1
60
0
100
AcDbHatch
10
0
20
0
30
0
210
0
220
0
230
1
2
ANSI31
70
0
71
0
91
1
92
5
93
3
72
1
10
-27.4787
20
-1.5
11
-27.0179162584472
21
-4.99999830744682
72
1
10
-27.0179162584472
20
-4.99999830744682
11
-27.9394837415528
21
-5.00000169255318
72
1
10
-27.9394837415528
20
-5.00000169255318
11
-27.4787
21
-1.5
97
0
75
0
76
1
52
0
41
0.0062
77
0
78
1
53
45
43
0
44
0
45
-0.0139193969876572
46
0.0139193969876572
79
0
47
0
98
1
10
0
20
0
0
HATCH
5
D9
100
AcDbEntity
8
SK2
62
256
6
ByLayer
370
13
48
1
60
0
100
AcDbHatch
10
0
20
0
30
0
210
0
220
0
230
1
2
ANSI31
70
0
71
0
91
1
92
5
93
3
72
1
10
-27.4787
20
1.5
11
-27.9394837415528
21
4.99999830744682
72
1
10
-27.9394837415528
20
4.99999830744682
11
-27.0179162584472
21
5.00000169255318
72
1
10
-27.0179162584472
20
5.00000169255318
11
-27.4787
21
1.5
97
0
75
0
76
1
52
0
41
0.0062
77
0
78
1
53
45
43
0
44
0
45
-0.0139193969876572
46
0.0139193969876572
79
0
47
0
98
1
10
0
20
0
0
HATCH
5
DF
100
AcDbEntity
8
2
62
256
6
ByLayer
370
13
48
1
60
0
100
AcDbHatch
10
0
20
0
30
0
210
0
220
0
230
1
2
ANSI31
70
0
71
0
91
1
92
5
93
3
72
1
10
20.5213
20
-1.065
11
20.9820837415528
21
-4.56499830744681
72
1
10
20.9820837415528
20
-4.56499830744681
11
20.0605162584472
21
-4.56500169255318
72
1
10
20.0605162584472
20
-4.56500169255318
11
20.5213
21
-1.065
97
0
75
0
76
1
52
0
41
0.0062
77
0
78
1
53
45
43
0
44
0
45
-0.0139193969876572
46
0.0139193969876572
79
0
47
0
98
1
10
0
20
0
0
HATCH
5
E3
100
AcDbEntity
8
2
62
256
6
ByLayer
370
13
48
1
60
0
100
AcDbHatch
10
0
20
0
30
0
210
0
220
0
230
1
2
ANSI31
70
0
71
0
91
1
92
5
93
3
72
1
10
20.5213
20
1.065
11
20.0605162584472
21
4.56499830744681
72
1
10
20.0605162584472
20
4.56499830744681
11
20.9820837415528
21
4.56500169255318
72
1
10
20.9820837415528
20
4.56500169255318
11
20.5213
21
1.065
97
0
75
0
76
1
52
0
41
0.0062
77
0
78
1
53
45
43
0
44
0
45
-0.0139193969876572
46
0.0139193969876572
79
0
47
0
98
1
10
0
20
0
0
HATCH
5
E8
100
AcDbEntity
8
SK2
62
256
6
ByLayer
370
13
48
1
60
0
100
AcDbHatch
10
0
20
0
30
0
210
0
220
0
230
1
2
ANSI31
70
0
71
0
91
1
92
5
93
3
72
1
10
21.9311085794604
20
-14.8181323180492
11
24.8031418553693
21
-12.765393983365
72
1
10
24.8031418553693
20
-12.765393983365
11
25.2365706127348
21
-13.5786750775861
72
1
10
25.2365706127348
20
-13.5786750775861
11
21.9311085794604
21
-14.8181323180492
97
0
75
0
76
1
52
0
41
0.0062
77
0
78
1
53
45
43
0
44
0
45
-0.0139193969876572
46
0.0139193969876572
79
0
47
0
98
1
10
0
20
0
0
HATCH
5
EC
100
AcDbEntity
8
SK2
62
256
6
ByLayer
370
13
48
1
60
0
100
AcDbHatch
10
0
20
0
30
0
210
0
220
0
230
1
2
ANSI31
70
0
71
0
91
1
92
5
93
3
72
1
10
21.9311085794604
20
14.8181323180492
11
25.2365676253807
21
13.5786766696479
72
1
10
25.2365676253807
20
13.5786766696479
11
24.8031448427234
21
12.7653923913032
72
1
10
24.8031448427234
20
12.7653923913032
11
21.9311085794604
21
14.8181323180492
97
0
75
0
76
1
52
0
41
0.0062
77
0
78
1
53
45
43
0
44
0
45
-0.0139193969876572
46
0.0139193969876572
79
0
47
0
98
1
10
0
20
0
0
DIMENSION
5
F0
100
AcDbEntity
8
SK2
62
256
6
ByLayer
370
18
48
1
60
0
100
AcDbDimension
2
_U0
10
15.0213
20
-39.162244
30
0
11
-3.9787
21
-39.162244
31
0
70
32
71
1
72
1
41
1
210
0
220
0
230
1
3
Standard
100
AcDbAlignedDimension
13
-22.9787
23
1.5
33
0
14
15.0213
24
1.065
34
0
50
0
100
AcDbRotatedDimension
1001
ACAD
1000
DSTYLE
1002
{
1070
   371
1070
    13
1070
   372
1070
    13
1070
     3
1000

1070
   170
1070
     0
1070
   144
1040
1.0
1070
   277
1070
     2
1070
   284
1070
     8
1070
   278
1070
    46
1070
   146
1040
1.166667
1070
   345
1005
16
1070
   347
1005
16
1070
   346
1005
16
1070
   344
1005
0
1070
   343
1005
0
1070
   172
1070
     1
1070
    76
1070
     0
1070
    75
1070
     0
1070
   282
1070
     0
1070
   281
1070
     0
1070
    71
1070
     0
1070
    74
1070
     0
1070
   279
1070
     0
1070
   173
1070
     1
1070
   340
1005
CF
1070
   271
1070
     2
1070
   272
1070
     2
1070
    77
1070
     1
1070
    73
1070
     1
1070
   171
1070
     3
1070
   274
1070
     4
1070
   177
1070
     2
1070
   176
1070
     2
1070
   178
1070
     2
1070
    78
1070
     8
1070
    48
1040
-0.1
1070
    41
1040
3.5
1070
   147
1040
1.5
1070
    42
1040
1.5875
1070
    44
1040
2.0
1070
   140
1040
3.0
1002
}
1001
ACAD_DSTYLE_DIM_LINETYPE
1070
   380
1005
16
1001
ACAD_DSTYLE_DIM_EXT1_LINETYPE
1070
   381
1005
16
1001
ACAD_DSTYLE_DIM_EXT2_LINETYPE
1070
   382
1005
16
0
DIMENSION
5
109
100
AcDbEntity
8
SK2
62
256
6
ByLayer
370
18
48
1
60
0
100
AcDbDimension
2
_U1
10
5.7163
20
-22.565
30
0
11
30.664157
21
-22.565
31
0
70
32
71
1
72
1
41
1
210
0
220
0
230
1
3
Standard
100
AcDbAlignedDimension
13
15.0213
23
1.065
33
0
14
5.7163
24
0
34
0
50
0
100
AcDbRotatedDimension
1001
ACAD
1000
DSTYLE
1002
{
1070
   371
1070
    13
1070
   372
1070
    13
1070
     3
1000

1070
   170
1070
     0
1070
   144
1040
1.0
1070
   277
1070
     2
1070
   284
1070
     8
1070
   278
1070
    46
1070
   146
1040
1.166667
1070
   345
1005
16
1070
   347
1005
16
1070
   346
1005
16
1070
   344
1005
0
1070
   343
1005
0
1070
   172
1070
     1
1070
    76
1070
     0
1070
    75
1070
     0
1070
   282
1070
     0
1070
   281
1070
     0
1070
    71
1070
     0
1070
    74
1070
     0
1070
   279
1070
     0
1070
   173
1070
     1
1070
   340
1005
CF
1070
   271
1070
     2
1070
   272
1070
     2
1070
    77
1070
     1
1070
    73
1070
     1
1070
   171
1070
     3
1070
   274
1070
     4
1070
   177
1070
     2
1070
   176
1070
     2
1070
   178
1070
     2
1070
    78
1070
     8
1070
    48
1040
-0.1
1070
    41
1040
3.5
1070
   147
1040
1.5
1070
    42
1040
1.5875
1070
    44
1040
2.0
1070
   140
1040
3.0
1002
}
1001
ACAD_DSTYLE_DIM_LINETYPE
1070
   380
1005
16
1001
ACAD_DSTYLE_DIM_EXT1_LINETYPE
1070
   381
1005
16
1001
ACAD_DSTYLE_DIM_EXT2_LINETYPE
1070
   382
1005
16
0
DIMENSION
5
123
100
AcDbEntity
8
SK2
62
256
6
ByLayer
370
18
48
1
60
0
100
AcDbDimension
2
_U2
10
2.5213
20
-30.662244
30
0
11
8.7713
21
-30.662244
31
0
70
32
71
1
72
1
41
1
210
0
220
0
230
1
3
Standard
100
AcDbAlignedDimension
13
15.0213
23
1.065
33
0
14
2.5213
24
0
34
0
50
0
100
AcDbRotatedDimension
1001
ACAD
1000
DSTYLE
1002
{
1070
   371
1070
    13
1070
   372
1070
    13
1070
     3
1000

1070
   170
1070
     0
1070
   144
1040
1.0
1070
   277
1070
     2
1070
   284
1070
     8
1070
   278
1070
    46
1070
   146
1040
1.166667
1070
   345
1005
16
1070
   347
1005
16
1070
   346
1005
16
1070
   344
1005
0
1070
   343
1005
0
1070
   172
1070
     1
1070
    76
1070
     0
1070
    75
1070
     0
1070
   282
1070
     0
1070
   281
1070
     0
1070
    71
1070
     0
1070
    74
1070
     0
1070
   279
1070
     0
1070
   173
1070
     1
1070
   340
1005
CF
1070
   271
1070
     2
1070
   272
1070
     2
1070
    77
1070
     1
1070
    73
1070
     1
1070
   171
1070
     3
1070
   274
1070
     4
1070
   177
1070
     2
1070
   176
1070
     2
1070
   178
1070
     2
1070
    78
1070
     8
1070
    48
1040
-0.1
1070
    41
1040
3.5
1070
   147
1040
1.5
1070
    42
1040
1.5875
1070
    44
1040
2.0
1070
   140
1040
3.0
1002
}
1001
ACAD_DSTYLE_DIM_LINETYPE
1070
   380
1005
16
1001
ACAD_DSTYLE_DIM_EXT1_LINETYPE
1070
   381
1005
16
1001
ACAD_DSTYLE_DIM_EXT2_LINETYPE
1070
   382
1005
16
0
DIMENSION
5
13C
100
AcDbEntity
8
SK2
62
256
6
ByLayer
370
18
48
1
60
0
100
AcDbDimension
2
_U3
10
0
20
11.662244
30
0
11
-11.48935
21
11.662244
31
0
70
32
71
1
72
1
41
1
210
0
220
0
230
1
3
Standard
100
AcDbAlignedDimension
13
-22.9787
23
0
33
0
14
0
24
0
34
0
50
0
100
AcDbRotatedDimension
1001
ACAD
1000
DSTYLE
1002
{
1070
   371
1070
    13
1070
   372
1070
    13
1070
     3
1000

1070
   170
1070
     0
1070
   144
1040
1.0
1070
   277
1070
     2
1070
   284
1070
     8
1070
   278
1070
    46
1070
   146
1040
1.166667
1070
   345
1005
16
1070
   347
1005
16
1070
   346
1005
16
1070
   344
1005
0
1070
   343
1005
0
1070
   172
1070
     1
1070
    76
1070
     0
1070
    75
1070
     0
1070
   282
1070
     0
1070
   281
1070
     0
1070
    71
1070
     0
1070
    74
1070
     0
1070
   279
1070
     0
1070
   173
1070
     1
1070
   340
1005
CF
1070
   271
1070
     2
1070
   272
1070
     2
1070
    77
1070
     1
1070
    73
1070
     1
1070
   171
1070
     3
1070
   274
1070
     4
1070
   177
1070
     2
1070
   176
1070
     2
1070
   178
1070
     2
1070
    78
1070
     8
1070
    48
1040
-0.1
1070
    41
1040
3.5
1070
   147
1040
1.5
1070
    42
1040
1.5875
1070
    44
1040
2.0
1070
   140
1040
3.0
1002
}
1001
ACAD_DSTYLE_DIM_LINETYPE
1070
   380
1005
16
1001
ACAD_DSTYLE_DIM_EXT1_LINETYPE
1070
   381
1005
16
1001
ACAD_DSTYLE_DIM_EXT2_LINETYPE
1070
   382
1005
16
0
DIMENSION
5
154
100
AcDbEntity
8
2
62
256
6
ByLayer
370
18
48
1
60
0
100
AcDbDimension
2
_U4
10
0
20
11.662244
30
0
11
7.51065
21
11.662244
31
0
70
32
71
1
72
1
41
1
210
0
220
0
230
1
3
Standard
100
AcDbAlignedDimension
13
15.0213
23
1.065
33
0
14
0
24
0
34
0
50
0
100
AcDbRotatedDimension
1001
ACAD
1000
DSTYLE
1002
{
1070
   371
1070
    13
1070
   372
1070
    13
1070
     3
1000

1070
   170
1070
     0
1070
   144
1040
1.0
1070
   277
1070
     2
1070
   284
1070
     8
1070
   278
1070
    46
1070
   146
1040
1.166667
1070
   345
1005
16
1070
   347
1005
16
1070
   346
1005
16
1070
   344
1005
0
1070
   343
1005
0
1070
   172
1070
     1
1070
    76
1070
     0
1070
    75
1070
     0
1070
   282
1070
     0
1070
   281
1070
     0
1070
    71
1070
     0
1070
    74
1070
     0
1070
   279
1070
     0
1070
   173
1070
     1
1070
   340
1005
CF
1070
   271
1070
     2
1070
   272
1070
     2
1070
    77
1070
     1
1070
    73
1070
     1
1070
   171
1070
     3
1070
   274
1070
     4
1070
   177
1070
     2
1070
   176
1070
     2
1070
   178
1070
     2
1070
    78
1070
     8
1070
    48
1040
-0.1
1070
    41
1040
3.5
1070
   147
1040
1.5
1070
    42
1040
1.5875
1070
    44
1040
2.0
1070
   140
1040
3.0
1002
}
1001
ACAD_DSTYLE_DIM_LINETYPE
1070
   380
1005
16
1001
ACAD_DSTYLE_DIM_EXT1_LINETYPE
1070
   381
1005
16
1001
ACAD_DSTYLE_DIM_EXT2_LINETYPE
1070
   382
1005
16
0
ENDSEC
0
SECTION
2
OBJECTS
0
DICTIONARY
5
1dd
330
0
100
AcDbDictionary
280
0
281
1
3
ACAD_GROUP
350
1de
3
ACAD_MLINESTYLE
350
1df
0
DICTIONARY
5
1de
330
0
100
AcDbDictionary
280
0
281
1
0
DICTIONARY
5
1df
330
0
100
AcDbDictionary
280
0
281
1
3
Standard
350
18
0
MLINESTYLE
5
18
330
1df
100
AcDbMlineStyle
2
Standard
70
0
3

62
256
51
90
52
90
71
2
49
-0.5
62
256
6
ByLayer
49
0.5
62
256
6
ByLayer
0
RASTERVARIABLES
5
1cb
330

100
AcDbRasterVariables
90
0
70
1
71
1
72
1
0
ENDSEC
0
EOF
