0
SECTION
2
HEADER
9
$ACADVER
1
AC1015
9
$DWGCODEPAGE
3
ANSI_1252
9
$HANDSEED
5
1e7
9
$ANGBASE
50
0
9
$ANGDIR
70
0
9
$ATTMODE
70
1
9
$AUNITS
70
0
9
$AUPREC
70
0
9
$CECOLOR
62
256
9
$CELTSCALE
40
1
9
$CELTYPE
6
ByLayer
9
$CELWEIGHT
370
18
9
$CLAYER
8
0
9
$CMLJUST
70
0
9
$CMLSCALE
40
1
9
$CMLSTYLE
2
Standard
9
$DIMSTYLE
2
Standard
9
$TEXTSIZE
40
0.2
9
$TEXTSTYLE
7
Standard
9
$LUNITS
70
2
9
$LUPREC
70
4
9
$EXTNAMES
290
1
9
$INSUNITS
70
4
9
$LTSCALE
40
1
9
$LWDISPLAY
290
1
9
$PDMODE
70
0
9
$PDSIZE
40
0
9
$PLINEGEN
70
0
0
ENDSEC
0
SECTION
2
CLASSES
0
CLASS
1
RASTERVARIABLES
2
AcDbRasterVariables
3
ISM
90
0
280
0
281
0
0
ENDSEC
0
SECTION
2
TABLES
0
TABLE
2
VPORT
5
1dd
100
AcDbSymbolTable
0
VPORT
5
1
100
AcDbSymbolTableRecord
100
AcDbViewportTableRecord
2
*Active
70
0
10
0
20
0
11
1
21
1
12
-1
22
1
13
0
23
0
14
0.5
24
0.5
15
10
25
10
16
0
26
0
36
1
17
0
27
0
37
0
0
ENDTAB
0
TABLE
2
LTYPE
5
1de
100
AcDbSymbolTable
0
LTYPE
5
14
100
AcDbSymbolTableRecord
100
AcDbLinetypeTableRecord
70
0
2
ByBlock
3

72
65
73
0
40
0
0
LTYPE
5
15
100
AcDbSymbolTableRecord
100
AcDbLinetypeTableRecord
70
0
2
ByLayer
3

72
65
73
0
40
0
0
LTYPE
5
16
100
AcDbSymbolTableRecord
100
AcDbLinetypeTableRecord
70
0
2
Continuous
3
Solid line
72
65
73
0
40
0
0
LTYPE
5
6E
100
AcDbSymbolTableRecord
100
AcDbLinetypeTableRecord
70
0
2
CENTER
3
____ _ ____ _ ____ _ ____
72
65
73
4
40
47.5
49
22
74
0
49
-8.5
74
0
49
8.5
74
0
49
-8.5
74
0
0
LTYPE
5
6F
100
AcDbSymbolTableRecord
100
AcDbLinetypeTableRecord
70
0
2
DASHED
3
__ __ __ __ __ __ __ __ __
72
65
73
2
40
25.72
49
12.86
74
0
49
-12.86
74
0
0
ENDTAB
0
TABLE
2
LAYER
5
1df
100
AcDbSymbolTable
0
LAYER
5
10
100
AcDbSymbolTableRecord
100
AcDbLayerTableRecord
2
0
70
0
62
7
6
Continuous
290
1
370
-3
390
0
0
LAYER
5
71
100
AcDbSymbolTableRecord
100
AcDbLayerTableRecord
2
80
70
0
62
-6
6
Continuous
290
1
370
-3
390
0
0
LAYER
5
73
100
AcDbSymbolTableRecord
100
AcDbLayerTableRecord
2
81
70
0
62
-3
6
Continuous
290
1
370
-3
390
0
0
LAYER
5
75
100
AcDbSymbolTableRecord
100
AcDbLayerTableRecord
2
1
70
0
62
4
6
Continuous
290
1
370
-3
390
0
0
LAYER
5
98
100
AcDbSymbolTableRecord
100
AcDbLayerTableRecord
2
4
70
0
62
-2
6
CENTER
290
1
370
-3
390
0
0
LAYER
5
A8
100
AcDbSymbolTableRecord
100
AcDbLayerTableRecord
2
2
70
0
62
7
6
Continuous
290
1
370
-3
390
0
0
LAYER
5
F0
100
AcDbSymbolTableRecord
100
AcDbLayerTableRecord
2
Defpoints
70
0
62
7
6
Continuous
290
0
370
-3
390
0
0
LAYER
5
1c9
100
AcDbSymbolTableRecord
100
AcDbLayerTableRecord
2
SK1
70
0
62
4
6
Continuous
290
1
370
-3
390
0
0
LAYER
5
1ca
100
AcDbSymbolTableRecord
100
AcDbLayerTableRecord
2
SK4
70
0
62
2
6
CENTER
290
1
370
-3
390
0
0
LAYER
5
1cb
100
AcDbSymbolTableRecord
100
AcDbLayerTableRecord
2
SK2
70
0
62
7
6
Continuous
290
1
370
-3
390
0
0
LAYER
5
1cc
100
AcDbSymbolTableRecord
100
AcDbLayerTableRecord
2
SK6
70
0
62
5
6
Continuous
290
1
370
-3
390
0
0
ENDTAB
0
TABLE
2
STYLE
5
1e0
100
AcDbSymbolTable
0
STYLE
5
11
100
AcDbSymbolTableRecord
100
AcDbTextStyleTableRecord
2
Standard
3
txt
70
0
71
0
40
0
41
1
42
0
50
0
0
STYLE
5
CC
100
AcDbSymbolTableRecord
100
AcDbTextStyleTableRecord
2
iso_b_vert
3
simplex.shx
70
0
71
0
40
0
41
1
42
0
50
0
0
STYLE
5
CD
100
AcDbSymbolTableRecord
100
AcDbTextStyleTableRecord
2
DWGDirectTextStyle
3
simplex
70
0
71
0
40
0
41
1
42
0
50
0
0
ENDTAB
0
TABLE
2
DIMSTYLE
5
1e1
100
AcDbSymbolTable
100
AcDbDimStyleTable
0
DIMSTYLE
105
27
100
AcDbSymbolTableRecord
100
AcDbDimStyleTableRecord
2
Standard
70
0
3
<>
41
0.18
42
0.0625
44
0.18
140
0.18
147
0.09
73
0
74
0
77
1
271
2
275
0
278
52
280
0
340
11
0
ENDTAB
0
TABLE
2
VIEW
5
1e2
100
AcDbSymbolTable
0
ENDTAB
0
TABLE
2
UCS
5
1e3
100
AcDbSymbolTable
0
ENDTAB
0
TABLE
2
APPID
5
1e4
100
AcDbSymbolTable
0
APPID
5
12
100
AcDbSymbolTableRecord
100
AcDbRegAppTableRecord
2
ACAD
70
0
0
APPID
5
EC
100
AcDbSymbolTableRecord
100
AcDbRegAppTableRecord
2
ACAD_DSTYLE_DIMBREAK
70
0
0
APPID
5
188
100
AcDbSymbolTableRecord
100
AcDbRegAppTableRecord
2
ACAD_DSTYLE_DIM_LINETYPE
70
0
0
APPID
5
189
100
AcDbSymbolTableRecord
100
AcDbRegAppTableRecord
2
ACAD_DSTYLE_DIM_EXT1_LINETYPE
70
0
0
APPID
5
18A
100
AcDbSymbolTableRecord
100
AcDbRegAppTableRecord
2
ACAD_DSTYLE_DIM_EXT2_LINETYPE
70
0
0
APPID
5
1C5
100
AcDbSymbolTableRecord
100
AcDbRegAppTableRecord
2
ACAD_MLEADERVER
70
0
0
ENDTAB
0
TABLE
2
BLOCK_RECORD
5
1e5
100
AcDbSymbolTable
0
BLOCK_RECORD
5
1F
100
AcDbSymbolTableRecord
100
AcDbBlockTableRecord
2
*Model_Space
340
0
70
0
0
BLOCK_RECORD
5
1B
100
AcDbSymbolTableRecord
100
AcDbBlockTableRecord
2
*Paper_Space
340
0
70
0
0
BLOCK_RECORD
5
23
100
AcDbSymbolTableRecord
100
AcDbBlockTableRecord
2
*Paper_Space0
340
0
70
0
0
BLOCK_RECORD
5
F1
100
AcDbSymbolTableRecord
100
AcDbBlockTableRecord
2
*D1
340
0
70
0
0
BLOCK_RECORD
5
FD
100
AcDbSymbolTableRecord
100
AcDbBlockTableRecord
2
_U0
340
0
70
0
0
BLOCK_RECORD
5
109
100
AcDbSymbolTableRecord
100
AcDbBlockTableRecord
2
*D3
340
0
70
0
0
BLOCK_RECORD
5
117
100
AcDbSymbolTableRecord
100
AcDbBlockTableRecord
2
_U1
340
0
70
0
0
BLOCK_RECORD
5
123
100
AcDbSymbolTableRecord
100
AcDbBlockTableRecord
2
*D5
340
0
70
0
0
BLOCK_RECORD
5
130
100
AcDbSymbolTableRecord
100
AcDbBlockTableRecord
2
_U2
340
0
70
0
0
BLOCK_RECORD
5
13C
100
AcDbSymbolTableRecord
100
AcDbBlockTableRecord
2
*D7
340
0
70
0
0
BLOCK_RECORD
5
148
100
AcDbSymbolTableRecord
100
AcDbBlockTableRecord
2
_U3
340
0
70
0
0
BLOCK_RECORD
5
154
100
AcDbSymbolTableRecord
100
AcDbBlockTableRecord
2
*D9
340
0
70
0
0
BLOCK_RECORD
5
161
100
AcDbSymbolTableRecord
100
AcDbBlockTableRecord
2
_U4
340
0
70
0
0
ENDTAB
0
ENDSEC
0
SECTION
2
BLOCKS
0
BLOCK
5
20
100
AcDbEntity
8
0
100
AcDbBlockBegin
2
*Model_Space
70
0
10
0
20
0
30
0
3
*Model_Space
0
ENDBLK
5
21
100
AcDbEntity
8
0
100
AcDbBlockEnd
0
BLOCK
5
1C
100
AcDbEntity
8
0
100
AcDbBlockBegin
2
*Paper_Space
70
0
10
0
20
0
30
0
3
*Paper_Space
0
ENDBLK
5
1D
100
AcDbEntity
8
0
100
AcDbBlockEnd
0
BLOCK
5
24
100
AcDbEntity
8
0
100
AcDbBlockBegin
2
*Paper_Space0
70
0
10
0
20
0
30
0
3
*Paper_Space0
0
ENDBLK
5
25
100
AcDbEntity
8
0
100
AcDbBlockEnd
0
BLOCK
5
F2
100
AcDbEntity
8
0
100
AcDbBlockBegin
2
*D1
70
1
10
0
20
0
30
0
3
*D1
0
LINE
5
F4
100
AcDbEntity
8
0
62
256
6
ByLayer
370
-2
48
1
60
0
100
AcDbLine
10
-23.0566
20
-0.0875
30
0
11
-23.0566
21
-41.1496
31
0
39
0
210
0
220
0
230
1
0
LINE
5
F5
100
AcDbEntity
8
0
62
256
6
ByLayer
370
-2
48
1
60
0
100
AcDbLine
10
14.9434
20
-0.4775
30
0
11
14.9434
21
-41.1496
31
0
39
0
210
0
220
0
230
1
0
LINE
5
F6
100
AcDbEntity
8
0
62
256
6
ByLayer
370
-2
48
1
60
0
100
AcDbLine
10
-19.5566
20
-39.1496
30
0
11
11.4434
21
-39.1496
31
0
39
0
210
0
220
0
230
1
0
SOLID
5
F7
100
AcDbEntity
8
0
62
256
6
ByLayer
370
-1
48
1
60
0
100
AcDbTrace
10
-19.5566
20
-38.566267
30
0
11
-19.5566
21
-39.732933
31
0
12
-23.0566
22
-39.1496
32
0
13
-23.0566
23
-39.1496
33
0
39
0
210
0
220
0
230
1
0
SOLID
5
F8
100
AcDbEntity
8
0
62
256
6
ByLayer
370
-1
48
1
60
0
100
AcDbTrace
10
11.4434
20
-39.732933
30
0
11
11.4434
21
-38.566267
31
0
12
14.9434
22
-39.1496
32
0
13
14.9434
23
-39.1496
33
0
39
0
210
0
220
0
230
1
0
MTEXT
5
F9
100
AcDbEntity
8
0
62
256
6
ByLayer
370
18
48
1
60
0
100
AcDbMText
10
-4.0566
20
-33.1496
30
0
210
0
220
0
230
1
1
\A1;38
40
3
41
0
44
1
50
0
71
5
72
5
7
iso_b_vert
0
POINT
5
FA
100
AcDbEntity
8
Defpoints
62
0
6
ByLayer
370
-1
48
1
60
0
100
AcDbPoint
10
-23.0566
20
1.5
30
0
39
0
210
0
220
0
230
1
50
360
0
POINT
5
FB
100
AcDbEntity
8
Defpoints
62
0
6
ByLayer
370
-1
48
1
60
0
100
AcDbPoint
10
14.9434
20
1.11
30
0
39
0
210
0
220
0
230
1
50
360
0
POINT
5
FC
100
AcDbEntity
8
Defpoints
62
0
6
ByLayer
370
-1
48
1
60
0
100
AcDbPoint
10
14.9434
20
-39.1496
30
0
39
0
210
0
220
0
230
1
50
360
0
ENDBLK
5
F3
100
AcDbEntity
8
0
100
AcDbBlockEnd
0
BLOCK
5
104
100
AcDbEntity
8
0
100
AcDbBlockBegin
2
_U0
70
0
10
0
20
0
30
0
3
_U0
0
MTEXT
5
FE
100
AcDbEntity
8
SK2
62
256
6
ByLayer
370
18
48
1
60
0
100
AcDbMText
10
-8.53897
20
-38.264486
30
0
210
0
220
0
230
1
1
\W0.7468;38.00
40
3
41
0
44
1.084337
50
0
71
7
72
5
7
iso_b_vert
0
LINE
5
FF
100
AcDbEntity
8
SK2
62
256
6
ByLayer
370
13
48
1
60
0
100
AcDbLine
10
-23.0566
20
-0.0875
30
0
11
-23.0566
21
-41.1496
31
0
39
0
210
0
220
0
230
1
0
LINE
5
100
100
AcDbEntity
8
SK2
62
256
6
ByLayer
370
13
48
1
60
0
100
AcDbLine
10
14.9434
20
-0.4775
30
0
11
14.9434
21
-41.1496
31
0
39
0
210
0
220
0
230
1
0
LINE
5
101
100
AcDbEntity
8
SK2
62
256
6
ByLayer
370
13
48
1
60
0
100
AcDbLine
10
-23.0566
20
-39.1496
30
0
11
14.9434
21
-39.1496
31
0
39
0
210
0
220
0
230
1
0
SOLID
5
102
100
AcDbEntity
8
SK2
62
256
6
ByLayer
370
18
48
1
60
0
100
AcDbTrace
10
-23.0566
20
-39.1496
30
0
11
-19.556602
21
-38.688816
31
0
12
-19.556598
22
-39.610384
32
0
13
-19.556598
23
-39.610384
33
0
39
0
210
0
220
0
230
1
0
SOLID
5
103
100
AcDbEntity
8
SK2
62
256
6
ByLayer
370
18
48
1
60
0
100
AcDbTrace
10
14.9434
20
-39.1496
30
0
11
11.443402
21
-39.610384
31
0
12
11.443398
22
-38.688816
32
0
13
11.443398
23
-38.688816
33
0
39
0
210
0
220
0
230
1
0
ENDBLK
5
105
100
AcDbEntity
8
0
100
AcDbBlockEnd
0
BLOCK
5
10A
100
AcDbEntity
8
0
100
AcDbBlockBegin
2
*D3
70
1
10
0
20
0
30
0
3
*D3
0
LINE
5
10C
100
AcDbEntity
8
0
62
256
6
ByLayer
370
-2
48
1
60
0
100
AcDbLine
10
14.9434
20
-0.4775
30
0
11
14.9434
21
-24.61
31
0
39
0
210
0
220
0
230
1
0
LINE
5
10D
100
AcDbEntity
8
0
62
256
6
ByLayer
370
-2
48
1
60
0
100
AcDbLine
10
5.7734
20
-1.5875
30
0
11
5.7734
21
-24.61
31
0
39
0
210
0
220
0
230
1
0
LINE
5
10E
100
AcDbEntity
8
0
62
256
6
ByLayer
370
-2
48
1
60
0
100
AcDbLine
10
14.9434
20
-22.61
30
0
11
40.086257
21
-22.61
31
0
39
0
210
0
220
0
230
1
0
LINE
5
10F
100
AcDbEntity
8
0
62
256
6
ByLayer
370
-2
48
1
60
0
100
AcDbLine
10
18.4434
20
-22.61
30
0
11
21.9434
21
-22.61
31
0
39
0
210
0
220
0
230
1
0
LINE
5
110
100
AcDbEntity
8
0
62
256
6
ByLayer
370
-2
48
1
60
0
100
AcDbLine
10
2.2734
20
-22.61
30
0
11
-1.2266
21
-22.61
31
0
39
0
210
0
220
0
230
1
0
SOLID
5
111
100
AcDbEntity
8
0
62
256
6
ByLayer
370
-1
48
1
60
0
100
AcDbTrace
10
18.4434
20
-22.026667
30
0
11
18.4434
21
-23.193333
31
0
12
14.9434
22
-22.61
32
0
13
14.9434
23
-22.61
33
0
39
0
210
0
220
0
230
1
0
SOLID
5
112
100
AcDbEntity
8
0
62
256
6
ByLayer
370
-1
48
1
60
0
100
AcDbTrace
10
2.2734
20
-23.193333
30
0
11
2.2734
21
-22.026667
31
0
12
5.7734
22
-22.61
32
0
13
5.7734
23
-22.61
33
0
39
0
210
0
220
0
230
1
0
MTEXT
5
113
100
AcDbEntity
8
0
62
256
6
ByLayer
370
18
48
1
60
0
100
AcDbMText
10
31.014829
20
-16.61
30
0
210
0
220
0
230
1
1
\A1;9.17
40
3
41
0
44
1
50
0
71
5
72
5
7
iso_b_vert
0
POINT
5
114
100
AcDbEntity
8
Defpoints
62
0
6
ByLayer
370
-1
48
1
60
0
100
AcDbPoint
10
14.9434
20
1.11
30
0
39
0
210
0
220
0
230
1
50
360
0
POINT
5
115
100
AcDbEntity
8
Defpoints
62
0
6
ByLayer
370
-1
48
1
60
0
100
AcDbPoint
10
5.7734
20
0
30
0
39
0
210
0
220
0
230
1
50
360
0
POINT
5
116
100
AcDbEntity
8
Defpoints
62
0
6
ByLayer
370
-1
48
1
60
0
100
AcDbPoint
10
5.7734
20
-22.61
30
0
39
0
210
0
220
0
230
1
50
360
0
ENDBLK
5
10B
100
AcDbEntity
8
0
100
AcDbBlockEnd
0
BLOCK
5
11E
100
AcDbEntity
8
0
100
AcDbBlockBegin
2
_U1
70
0
10
0
20
0
30
0
3
_U1
0
MTEXT
5
118
100
AcDbEntity
8
SK2
62
256
6
ByLayer
370
18
48
1
60
0
100
AcDbMText
10
19.1024
20
-21.724886
30
0
210
0
220
0
230
1
1
\W0.6493;(9.17)
40
3
41
0
44
1.084337
50
0
71
7
72
5
7
iso_b_vert
0
LINE
5
119
100
AcDbEntity
8
SK2
62
256
6
ByLayer
370
13
48
1
60
0
100
AcDbLine
10
14.9434
20
-0.4775
30
0
11
14.9434
21
-24.61
31
0
39
0
210
0
220
0
230
1
0
LINE
5
11A
100
AcDbEntity
8
SK2
62
256
6
ByLayer
370
13
48
1
60
0
100
AcDbLine
10
5.7734
20
-1.5875
30
0
11
5.7734
21
-24.61
31
0
39
0
210
0
220
0
230
1
0
LINE
5
11B
100
AcDbEntity
8
SK2
62
256
6
ByLayer
370
13
48
1
60
0
100
AcDbLine
10
5.7734
20
-22.61
30
0
11
27.665283
21
-22.61
31
0
39
0
210
0
220
0
230
1
0
SOLID
5
11C
100
AcDbEntity
8
SK2
62
256
6
ByLayer
370
18
48
1
60
0
100
AcDbTrace
10
14.9434
20
-22.61
30
0
11
11.443402
21
-23.070784
31
0
12
11.443398
22
-22.149216
32
0
13
11.443398
23
-22.149216
33
0
39
0
210
0
220
0
230
1
0
SOLID
5
11D
100
AcDbEntity
8
SK2
62
256
6
ByLayer
370
18
48
1
60
0
100
AcDbTrace
10
5.7734
20
-22.61
30
0
11
9.273398
21
-22.149216
31
0
12
9.273402
22
-23.070784
32
0
13
9.273402
23
-23.070784
33
0
39
0
210
0
220
0
230
1
0
ENDBLK
5
11F
100
AcDbEntity
8
0
100
AcDbBlockEnd
0
BLOCK
5
124
100
AcDbEntity
8
0
100
AcDbBlockBegin
2
*D5
70
1
10
0
20
0
30
0
3
*D5
0
LINE
5
126
100
AcDbEntity
8
0
62
256
6
ByLayer
370
-2
48
1
60
0
100
AcDbLine
10
14.9434
20
-0.4775
30
0
11
14.9434
21
-32.6496
31
0
39
0
210
0
220
0
230
1
0
LINE
5
127
100
AcDbEntity
8
0
62
256
6
ByLayer
370
-2
48
1
60
0
100
AcDbLine
10
2.4434
20
-1.5875
30
0
11
2.4434
21
-32.6496
31
0
39
0
210
0
220
0
230
1
0
LINE
5
128
100
AcDbEntity
8
0
62
256
6
ByLayer
370
-2
48
1
60
0
100
AcDbLine
10
18.4434
20
-30.6496
30
0
11
21.9434
21
-30.6496
31
0
39
0
210
0
220
0
230
1
0
LINE
5
129
100
AcDbEntity
8
0
62
256
6
ByLayer
370
-2
48
1
60
0
100
AcDbLine
10
-1.0566
20
-30.6496
30
0
11
-4.5566
21
-30.6496
31
0
39
0
210
0
220
0
230
1
0
SOLID
5
12A
100
AcDbEntity
8
0
62
256
6
ByLayer
370
-1
48
1
60
0
100
AcDbTrace
10
18.4434
20
-30.066267
30
0
11
18.4434
21
-31.232933
31
0
12
14.9434
22
-30.6496
32
0
13
14.9434
23
-30.6496
33
0
39
0
210
0
220
0
230
1
0
SOLID
5
12B
100
AcDbEntity
8
0
62
256
6
ByLayer
370
-1
48
1
60
0
100
AcDbTrace
10
-1.0566
20
-31.232933
30
0
11
-1.0566
21
-30.066267
31
0
12
2.4434
22
-30.6496
32
0
13
2.4434
23
-30.6496
33
0
39
0
210
0
220
0
230
1
0
MTEXT
5
12C
100
AcDbEntity
8
0
62
256
6
ByLayer
370
18
48
1
60
0
100
AcDbMText
10
8.6934
20
-24.6496
30
0
210
0
220
0
230
1
1
\A1;12.5
40
3
41
0
44
1
50
0
71
5
72
5
7
iso_b_vert
0
POINT
5
12D
100
AcDbEntity
8
Defpoints
62
0
6
ByLayer
370
-1
48
1
60
0
100
AcDbPoint
10
14.9434
20
1.11
30
0
39
0
210
0
220
0
230
1
50
360
0
POINT
5
12E
100
AcDbEntity
8
Defpoints
62
0
6
ByLayer
370
-1
48
1
60
0
100
AcDbPoint
10
2.4434
20
0
30
0
39
0
210
0
220
0
230
1
50
360
0
POINT
5
12F
100
AcDbEntity
8
Defpoints
62
0
6
ByLayer
370
-1
48
1
60
0
100
AcDbPoint
10
2.4434
20
-30.6496
30
0
39
0
210
0
220
0
230
1
50
360
0
ENDBLK
5
125
100
AcDbEntity
8
0
100
AcDbBlockEnd
0
BLOCK
5
137
100
AcDbEntity
8
0
100
AcDbBlockBegin
2
_U2
70
0
10
0
20
0
30
0
3
_U2
0
MTEXT
5
131
100
AcDbEntity
8
SK2
62
256
6
ByLayer
370
18
48
1
60
0
100
AcDbMText
10
4.585972
20
-29.764486
30
0
210
0
220
0
230
1
1
\W0.6864;12.50
40
3
41
0
44
1.084337
50
0
71
7
72
5
7
iso_b_vert
0
LINE
5
132
100
AcDbEntity
8
SK2
62
256
6
ByLayer
370
13
48
1
60
0
100
AcDbLine
10
14.9434
20
-0.4775
30
0
11
14.9434
21
-32.6496
31
0
39
0
210
0
220
0
230
1
0
LINE
5
133
100
AcDbEntity
8
SK2
62
256
6
ByLayer
370
13
48
1
60
0
100
AcDbLine
10
2.4434
20
-1.5875
30
0
11
2.4434
21
-32.6496
31
0
39
0
210
0
220
0
230
1
0
LINE
5
134
100
AcDbEntity
8
SK2
62
256
6
ByLayer
370
13
48
1
60
0
100
AcDbLine
10
14.9434
20
-30.6496
30
0
11
2.4434
21
-30.6496
31
0
39
0
210
0
220
0
230
1
0
SOLID
5
135
100
AcDbEntity
8
SK2
62
256
6
ByLayer
370
18
48
1
60
0
100
AcDbTrace
10
14.9434
20
-30.6496
30
0
11
11.443402
21
-31.110384
31
0
12
11.443398
22
-30.188816
32
0
13
11.443398
23
-30.188816
33
0
39
0
210
0
220
0
230
1
0
SOLID
5
136
100
AcDbEntity
8
SK2
62
256
6
ByLayer
370
18
48
1
60
0
100
AcDbTrace
10
2.4434
20
-30.6496
30
0
11
5.943398
21
-30.188816
31
0
12
5.943402
22
-31.110384
32
0
13
5.943402
23
-31.110384
33
0
39
0
210
0
220
0
230
1
0
ENDBLK
5
138
100
AcDbEntity
8
0
100
AcDbBlockEnd
0
BLOCK
5
13D
100
AcDbEntity
8
0
100
AcDbBlockBegin
2
*D7
70
1
10
0
20
0
30
0
3
*D7
0
LINE
5
13F
100
AcDbEntity
8
0
62
256
6
ByLayer
370
-2
48
1
60
0
100
AcDbLine
10
-23.0566
20
1.5875
30
0
11
-23.0566
21
13.6496
31
0
39
0
210
0
220
0
230
1
0
LINE
5
140
100
AcDbEntity
8
0
62
256
6
ByLayer
370
-2
48
1
60
0
100
AcDbLine
10
0
20
1.5875
30
0
11
0
21
13.6496
31
0
39
0
210
0
220
0
230
1
0
LINE
5
141
100
AcDbEntity
8
0
62
256
6
ByLayer
370
-2
48
1
60
0
100
AcDbLine
10
-19.5566
20
11.6496
30
0
11
-3.5
21
11.6496
31
0
39
0
210
0
220
0
230
1
0
SOLID
5
142
100
AcDbEntity
8
0
62
256
6
ByLayer
370
-1
48
1
60
0
100
AcDbTrace
10
-19.5566
20
12.232933
30
0
11
-19.5566
21
11.066267
31
0
12
-23.0566
22
11.6496
32
0
13
-23.0566
23
11.6496
33
0
39
0
210
0
220
0
230
1
0
SOLID
5
143
100
AcDbEntity
8
0
62
256
6
ByLayer
370
-1
48
1
60
0
100
AcDbTrace
10
-3.5
20
11.066267
30
0
11
-3.5
21
12.232933
31
0
12
0
22
11.6496
32
0
13
0
23
11.6496
33
0
39
0
210
0
220
0
230
1
0
MTEXT
5
144
100
AcDbEntity
8
0
62
256
6
ByLayer
370
18
48
1
60
0
100
AcDbMText
10
-11.5283
20
17.6496
30
0
210
0
220
0
230
1
1
\A1;23.06
40
3
41
0
44
1
50
0
71
5
72
5
7
iso_b_vert
0
POINT
5
145
100
AcDbEntity
8
Defpoints
62
0
6
ByLayer
370
-1
48
1
60
0
100
AcDbPoint
10
-23.0566
20
0
30
0
39
0
210
0
220
0
230
1
50
360
0
POINT
5
146
100
AcDbEntity
8
Defpoints
62
0
6
ByLayer
370
-1
48
1
60
0
100
AcDbPoint
10
0
20
0
30
0
39
0
210
0
220
0
230
1
50
360
0
POINT
5
147
100
AcDbEntity
8
Defpoints
62
0
6
ByLayer
370
-1
48
1
60
0
100
AcDbPoint
10
0
20
11.6496
30
0
39
0
210
0
220
0
230
1
50
360
0
ENDBLK
5
13E
100
AcDbEntity
8
0
100
AcDbBlockEnd
0
BLOCK
5
14F
100
AcDbEntity
8
0
100
AcDbBlockBegin
2
_U3
70
0
10
0
20
0
30
0
3
_U3
0
MTEXT
5
149
100
AcDbEntity
8
SK2
62
256
6
ByLayer
370
18
48
1
60
0
100
AcDbMText
10
-16.01067
20
12.534714
30
0
210
0
220
0
230
1
1
\W0.7468;23.06
40
3
41
0
44
1.084337
50
0
71
7
72
5
7
iso_b_vert
0
LINE
5
14A
100
AcDbEntity
8
SK2
62
256
6
ByLayer
370
13
48
1
60
0
100
AcDbLine
10
-23.0566
20
1.5875
30
0
11
-23.0566
21
13.6496
31
0
39
0
210
0
220
0
230
1
0
LINE
5
14B
100
AcDbEntity
8
SK2
62
256
6
ByLayer
370
13
48
1
60
0
100
AcDbLine
10
0
20
1.5875
30
0
11
0
21
13.6496
31
0
39
0
210
0
220
0
230
1
0
LINE
5
14C
100
AcDbEntity
8
SK2
62
256
6
ByLayer
370
13
48
1
60
0
100
AcDbLine
10
-23.0566
20
11.6496
30
0
11
0
21
11.6496
31
0
39
0
210
0
220
0
230
1
0
SOLID
5
14D
100
AcDbEntity
8
SK2
62
256
6
ByLayer
370
18
48
1
60
0
100
AcDbTrace
10
-23.0566
20
11.6496
30
0
11
-19.556602
21
12.110384
31
0
12
-19.556598
22
11.188816
32
0
13
-19.556598
23
11.188816
33
0
39
0
210
0
220
0
230
1
0
SOLID
5
14E
100
AcDbEntity
8
SK2
62
256
6
ByLayer
370
18
48
1
60
0
100
AcDbTrace
10
0
20
11.6496
30
0
11
-3.499998
21
11.188816
31
0
12
-3.500002
22
12.110384
32
0
13
-3.500002
23
12.110384
33
0
39
0
210
0
220
0
230
1
0
ENDBLK
5
150
100
AcDbEntity
8
0
100
AcDbBlockEnd
0
BLOCK
5
155
100
AcDbEntity
8
0
100
AcDbBlockBegin
2
*D9
70
1
10
0
20
0
30
0
3
*D9
0
LINE
5
157
100
AcDbEntity
8
0
62
256
6
ByLayer
370
-2
48
1
60
0
100
AcDbLine
10
14.9434
20
2.6975
30
0
11
14.9434
21
13.6496
31
0
39
0
210
0
220
0
230
1
0
LINE
5
158
100
AcDbEntity
8
0
62
256
6
ByLayer
370
-2
48
1
60
0
100
AcDbLine
10
0
20
1.5875
30
0
11
0
21
13.6496
31
0
39
0
210
0
220
0
230
1
0
LINE
5
159
100
AcDbEntity
8
0
62
256
6
ByLayer
370
-2
48
1
60
0
100
AcDbLine
10
18.4434
20
11.6496
30
0
11
21.9434
21
11.6496
31
0
39
0
210
0
220
0
230
1
0
LINE
5
15A
100
AcDbEntity
8
0
62
256
6
ByLayer
370
-2
48
1
60
0
100
AcDbLine
10
-3.5
20
11.6496
30
0
11
-7
21
11.6496
31
0
39
0
210
0
220
0
230
1
0
SOLID
5
15B
100
AcDbEntity
8
0
62
256
6
ByLayer
370
-1
48
1
60
0
100
AcDbTrace
10
18.4434
20
12.232933
30
0
11
18.4434
21
11.066267
31
0
12
14.9434
22
11.6496
32
0
13
14.9434
23
11.6496
33
0
39
0
210
0
220
0
230
1
0
SOLID
5
15C
100
AcDbEntity
8
0
62
256
6
ByLayer
370
-1
48
1
60
0
100
AcDbTrace
10
-3.5
20
11.066267
30
0
11
-3.5
21
12.232933
31
0
12
0
22
11.6496
32
0
13
0
23
11.6496
33
0
39
0
210
0
220
0
230
1
0
MTEXT
5
15D
100
AcDbEntity
8
0
62
256
6
ByLayer
370
18
48
1
60
0
100
AcDbMText
10
7.4717
20
17.6496
30
0
210
0
220
0
230
1
1
\A1;14.94
40
3
41
0
44
1
50
0
71
5
72
5
7
iso_b_vert
0
POINT
5
15E
100
AcDbEntity
8
Defpoints
62
0
6
ByLayer
370
-1
48
1
60
0
100
AcDbPoint
10
14.9434
20
1.11
30
0
39
0
210
0
220
0
230
1
50
360
0
POINT
5
15F
100
AcDbEntity
8
Defpoints
62
0
6
ByLayer
370
-1
48
1
60
0
100
AcDbPoint
10
0
20
0
30
0
39
0
210
0
220
0
230
1
50
360
0
POINT
5
160
100
AcDbEntity
8
Defpoints
62
0
6
ByLayer
370
-1
48
1
60
0
100
AcDbPoint
10
0
20
11.6496
30
0
39
0
210
0
220
0
230
1
50
360
0
ENDBLK
5
156
100
AcDbEntity
8
0
100
AcDbBlockEnd
0
BLOCK
5
168
100
AcDbEntity
8
0
100
AcDbBlockBegin
2
_U4
70
0
10
0
20
0
30
0
3
_U4
0
MTEXT
5
162
100
AcDbEntity
8
2
62
256
6
ByLayer
370
18
48
1
60
0
100
AcDbMText
10
3.048387
20
12.534714
30
0
210
0
220
0
230
1
1
\W0.7271;14.94
40
3
41
0
44
1.084337
50
0
71
7
72
5
7
iso_b_vert
0
LINE
5
163
100
AcDbEntity
8
2
62
256
6
ByLayer
370
13
48
1
60
0
100
AcDbLine
10
14.9434
20
2.6975
30
0
11
14.9434
21
13.6496
31
0
39
0
210
0
220
0
230
1
0
LINE
5
164
100
AcDbEntity
8
2
62
256
6
ByLayer
370
13
48
1
60
0
100
AcDbLine
10
0
20
1.5875
30
0
11
0
21
13.6496
31
0
39
0
210
0
220
0
230
1
0
LINE
5
165
100
AcDbEntity
8
2
62
256
6
ByLayer
370
13
48
1
60
0
100
AcDbLine
10
14.9434
20
11.6496
30
0
11
0
21
11.6496
31
0
39
0
210
0
220
0
230
1
0
SOLID
5
166
100
AcDbEntity
8
2
62
256
6
ByLayer
370
18
48
1
60
0
100
AcDbTrace
10
14.9434
20
11.6496
30
0
11
11.443402
21
11.188816
31
0
12
11.443398
22
12.110384
32
0
13
11.443398
23
12.110384
33
0
39
0
210
0
220
0
230
1
0
SOLID
5
167
100
AcDbEntity
8
2
62
256
6
ByLayer
370
18
48
1
60
0
100
AcDbTrace
10
0
20
11.6496
30
0
11
3.499998
21
12.110384
31
0
12
3.500002
22
11.188816
32
0
13
3.500002
23
11.188816
33
0
39
0
210
0
220
0
230
1
0
ENDBLK
5
169
100
AcDbEntity
8
0
100
AcDbBlockEnd
0
ENDSEC
0
SECTION
2
ENTITIES
0
ARC
5
B9
100
AcDbEntity
8
1
62
256
6
ByLayer
370
18
48
1
60
0
100
AcDbCircle
39
0
10
0.943444
20
-2.11
30
0
40
1
210
0
220
0
230
1
100
AcDbArc
50
90
51
120
0
ARC
5
BA
100
AcDbEntity
8
1
62
256
6
ByLayer
370
18
48
1
60
0
100
AcDbCircle
39
0
10
0.943444
20
2.11
30
0
40
1
210
0
220
0
230
1
100
AcDbArc
50
240
51
270
0
ARC
5
BB
100
AcDbEntity
8
SK2
62
256
6
ByLayer
370
13
48
1
60
0
100
AcDbCircle
39
0
10
14.9434
20
0
30
0
40
16.35
210
0
220
0
230
1
100
AcDbArc
50
10.57289
51
65
0
ARC
5
BC
100
AcDbEntity
8
SK2
62
256
6
ByLayer
370
13
48
1
60
0
100
AcDbCircle
39
0
10
14.9434
20
0
30
0
40
16.35
210
0
220
0
230
1
100
AcDbArc
50
295
51
349.42711
0
ELLIPSE
5
BD
100
AcDbEntity
8
1
62
256
6
ByLayer
370
18
48
1
60
0
100
AcDbEllipse
10
3.680828
20
1.046315
30
0
11
-1.62522999126307
21
1.06390511072315
31
0
210
0
220
0
230
1
40
0.408171
41
1.03320546935886
42
1.83189288945659
0
POINT
5
70
100
AcDbEntity
8
80
62
256
6
ByLayer
370
18
48
1
60
0
100
AcDbPoint
10
0
20
0
30
0
39
0
210
0
220
0
230
1
50
360
0
POINT
5
72
100
AcDbEntity
8
81
62
256
6
ByLayer
370
18
48
1
60
0
100
AcDbPoint
10
14.9434
20
0
30
0
39
0
210
0
220
0
230
1
50
360
0
POINT
5
74
100
AcDbEntity
8
1
62
256
6
ByLayer
370
18
48
1
60
1
100
AcDbPoint
10
-23.0566
20
1.5
30
0
39
0
210
0
220
0
230
1
50
360
0
POINT
5
76
100
AcDbEntity
8
1
62
256
6
ByLayer
370
18
48
1
60
1
100
AcDbPoint
10
14.9434
20
1.11
30
0
39
0
210
0
220
0
230
1
50
360
0
POINT
5
77
100
AcDbEntity
8
1
62
256
6
ByLayer
370
18
48
1
60
1
100
AcDbPoint
10
14.9434
20
1.11
30
0
39
0
210
0
220
0
230
1
50
360
0
POINT
5
78
100
AcDbEntity
8
1
62
256
6
ByLayer
370
18
48
1
60
1
100
AcDbPoint
10
5.7734
20
0
30
0
39
0
210
0
220
0
230
1
50
360
0
POINT
5
79
100
AcDbEntity
8
1
62
256
6
ByLayer
370
18
48
1
60
1
100
AcDbPoint
10
14.9434
20
1.11
30
0
39
0
210
0
220
0
230
1
50
360
0
POINT
5
7A
100
AcDbEntity
8
1
62
256
6
ByLayer
370
18
48
1
60
1
100
AcDbPoint
10
2.4434
20
0
30
0
39
0
210
0
220
0
230
1
50
360
0
POINT
5
7B
100
AcDbEntity
8
1
62
256
6
ByLayer
370
18
48
1
60
1
100
AcDbPoint
10
-23.0566
20
0
30
0
39
0
210
0
220
0
230
1
50
360
0
POINT
5
7C
100
AcDbEntity
8
1
62
256
6
ByLayer
370
18
48
1
60
1
100
AcDbPoint
10
0
20
0
30
0
39
0
210
0
220
0
230
1
50
360
0
POINT
5
7D
100
AcDbEntity
8
1
62
256
6
ByLayer
370
18
48
1
60
1
100
AcDbPoint
10
14.9434
20
1.11
30
0
39
0
210
0
220
0
230
1
50
360
0
POINT
5
7E
100
AcDbEntity
8
1
62
256
6
ByLayer
370
18
48
1
60
1
100
AcDbPoint
10
0
20
0
30
0
39
0
210
0
220
0
230
1
50
360
0
SPLINE
5
BE
100
AcDbEntity
8
1
62
256
6
ByLayer
370
18
48
1
60
0
100
AcDbSpline
70
4
71
3
72
30
73
26
40
0
40
0
40
0
40
0
40
0.0625000000000031
40
0.0625000000000031
40
0.125000000000006
40
0.125000000000006
40
0.250000000000012
40
0.250000000000012
40
0.312500000000011
40
0.312500000000011
40
0.375000000000009
40
0.375000000000009
40
0.437500000000008
40
0.437500000000008
40
0.500000000000006
40
0.500000000000006
40
0.625000000000003
40
0.625000000000003
40
0.749999999999999
40
0.749999999999999
40
0.874999999999996
40
0.874999999999996
40
0.937499999999998
40
0.937499999999998
40
1
40
1
40
1
40
1
41
1
10
14.425798499448
20
0.56730482531745
30
0
41
1
10
14.434502014166
20
0.554576437122336
30
0
41
1
10
14.4431963452642
20
0.54254871796357
30
0
41
1
10
14.4605806850502
20
0.519921846416764
30
0
41
1
10
14.4692708688824
20
0.509354704230162
30
0
41
1
10
14.4953454163765
20
0.479367260667772
30
0
41
1
10
14.5127342933629
20
0.46156752869598
30
0
41
1
10
14.5388175593913
20
0.436109813653275
30
0
41
1
10
14.5475116686288
20
0.42782653514621
30
0
41
1
10
14.5648968022612
20
0.411526701035484
30
0
41
1
10
14.573587953959
20
0.403539732110517
30
0
41
1
10
14.5909628851929
20
0.388018751720409
30
0
41
1
10
14.599651632001
20
0.380481391282331
30
0
41
1
10
14.6169246801107
20
0.366032662665845
30
0
41
1
10
14.6255184010097
20
0.359112678670016
30
0
41
1
10
14.6511358274431
20
0.339364150076079
30
0
41
1
10
14.6680021033859
20
0.327539219505042
30
0
41
1
10
14.7011274153454
20
0.306148094449441
30
0
41
1
10
14.7173992077555
20
0.296570028481284
30
0
41
1
10
14.7488023292234
20
0.279690511952566
30
0
41
1
10
14.7639617834687
20
0.272402477246402
30
0
41
1
10
14.7847973025301
20
0.263243266014342
30
0
41
1
10
14.7914163155587
20
0.260484575782073
30
0
41
1
10
14.8036259788664
20
0.25556046866771
30
0
41
1
10
14.8092190841323
20
0.253394979642593
30
0
41
1
10
14.8139995337548
20
0.251530354817476
30
0
0
SPLINE
5
BF
100
AcDbEntity
8
1
62
256
6
ByLayer
370
18
48
1
60
0
100
AcDbSpline
70
4
71
3
72
38
73
34
40
0
40
0
40
0
40
0
40
0.0845737518950715
40
0.0845737518950715
40
0.126860627842608
40
0.126860627842608
40
0.169147503790145
40
0.169147503790145
40
0.253721255685217
40
0.253721255685217
40
0.338295007580288
40
0.338295007580288
40
0.42286875947536
40
0.42286875947536
40
0.444012197449127
40
0.444012197449127
40
0.465155635422894
40
0.465155635422894
40
0.507442511370425
40
0.507442511370425
40
0.676590015160553
40
0.676590015160553
40
0.761163767055617
40
0.761163767055617
40
0.803450643003149
40
0.803450643003149
40
0.845737518950682
40
0.845737518950682
40
0.930311270845746
40
0.930311270845746
40
0.972598146793277
40
0.972598146793277
40
1
40
1
40
1
40
1
41
1
10
3.68082800000002
20
-0.180610066921048
30
0
41
1
10
3.79327653449712
20
-0.244822795614624
30
0
41
1
10
3.90544482577167
20
-0.307714417299024
30
0
41
1
10
4.07377912511032
20
-0.399267640643188
30
0
41
1
10
4.12990320259703
20
-0.429322379233497
30
0
41
1
10
4.24226435497681
20
-0.488358891097448
30
0
41
1
10
4.29857305595306
20
-0.517390085237224
30
0
41
1
10
4.46677606808728
20
-0.602104475257107
30
0
41
1
10
4.57833304461568
20
-0.655335307883831
30
0
41
1
10
4.80099421930066
20
-0.754512599721039
30
0
41
1
10
4.91208191498038
20
-0.800481178271639
30
0
41
1
10
5.13445486685978
20
-0.884268474822392
30
0
41
1
10
5.24590310142668
20
-0.921899671082997
30
0
41
1
10
5.38597579432593
20
-0.963089911938425
30
0
41
1
10
5.41402844562745
20
-0.971035233494746
30
0
41
1
10
5.47021948807384
20
-0.986327129283353
30
0
41
1
10
5.49837377006017
20
-0.993677875222517
30
0
41
1
10
5.5826019662837
20
-1.01471095706131
30
0
41
1
10
5.63854687164652
20
-1.02741991284199
30
0
41
1
10
5.91752523020901
20
-1.08428018640831
30
0
41
1
10
6.13886456702565
20
-1.10817071100624
30
0
41
1
10
6.472077484924
20
-1.11076392067733
30
0
41
1
10
6.58348790370863
20
-1.10605606935766
30
0
41
1
10
6.75168559142566
20
-1.09054263051488
30
0
41
1
10
6.80801556844003
20
-1.08394522155589
30
0
41
1
10
6.92037388936899
20
-1.06801408368059
30
0
41
1
10
6.97646063323938
20
-1.05867667818751
30
0
41
1
10
7.1445883408289
20
-1.02662172843242
30
0
41
1
10
7.25666015868055
20
-0.99996117636735
30
0
41
1
10
7.42527910229882
20
-0.952426356301572
30
0
41
1
10
7.48158460532039
20
-0.935312056241372
30
0
41
1
10
7.57413200306991
20
-0.905222490397563
30
0
41
1
10
7.6104860523063
20
-0.892901179237128
30
0
41
1
10
7.64681891777585
20
-0.880104999704457
30
0
0
SPLINE
5
C0
100
AcDbEntity
8
1
62
256
6
ByLayer
370
18
48
1
60
0
100
AcDbSpline
70
4
71
3
72
36
73
32
40
0
40
0
40
0
40
0
40
0.0715732334320396
40
0.0715732334320396
40
0.1559756667564
40
0.1559756667564
40
0.324780533405128
40
0.324780533405128
40
0.409182966729488
40
0.409182966729488
40
0.493585400053848
40
0.493585400053848
40
0.662390266702576
40
0.662390266702576
40
0.746792700026936
40
0.746792700026936
40
0.831195133351296
40
0.831195133351296
40
0.873396350013472
40
0.873396350013472
40
0.89449695834456
40
0.89449695834456
40
0.915597566675648
40
0.915597566675648
40
0.936698175006736
40
0.936698175006736
40
0.957798783337824
40
0.957798783337824
40
0.978899391668912
40
0.978899391668912
40
1
40
1
40
1
40
1
41
1
10
12.4277429977114
20
1.10999993436539
30
0
41
1
10
12.4752939132186
20
1.10999194013672
30
0
41
1
10
12.522886848805
20
1.10896182168358
30
0
41
1
10
12.6267764394356
20
1.10449037873283
30
0
41
1
10
12.6830414619634
20
1.10064847593784
30
0
41
1
10
12.8514780687485
20
1.08495358416175
30
0
41
1
10
12.9635214825731
20
1.06892390495688
30
0
41
1
10
13.1317590979659
20
1.03672291970983
30
0
41
1
10
13.187893732932
20
1.02464295822418
30
0
41
1
10
13.3004088377509
20
0.997870317743576
30
0
41
1
10
13.3566059242403
20
0.983212971395858
30
0
41
1
10
13.5250490055286
20
0.935584677565146
30
0
41
1
10
13.6371819752318
20
0.898948047932549
30
0
41
1
10
13.8056461599067
20
0.8370923307331
30
0
41
1
10
13.8619210367209
20
0.815341166580708
30
0
41
1
10
13.9742819881464
20
0.769947440381401
30
0
41
1
10
14.0304028129846
20
0.746267822141107
30
0
41
1
10
14.1145884884626
20
0.709405527534813
30
0
41
1
10
14.1426220966405
20
0.696855166694803
30
0
41
1
10
14.1846581259147
20
0.677669272835061
30
0
41
1
10
14.1986955185874
20
0.671252574909801
30
0
41
1
10
14.2268449049638
20
0.658414230028939
30
0
41
1
10
14.2409399352672
20
0.651969153501625
30
0
41
1
10
14.2690425781794
20
0.638841913184621
30
0
41
1
10
14.2830346815472
20
0.632136936963661
30
0
41
1
10
14.3108854817983
20
0.618412434042938
30
0
41
1
10
14.3247758495674
20
0.611437973340799
30
0
41
1
10
14.3527977544928
20
0.597730910055162
30
0
41
1
10
14.3669266509842
20
0.590994270037726
30
0
41
1
10
14.395785954935
20
0.578334531402561
30
0
41
1
10
14.4105107843353
20
0.572402815743828
30
0
41
1
10
14.425798499448
20
0.56730482531745
30
0
0
SPLINE
5
C1
100
AcDbEntity
8
1
62
256
6
ByLayer
370
18
48
1
60
0
100
AcDbSpline
70
4
71
3
72
18
73
14
40
0
40
0
40
0
40
0
40
0.249999999999992
40
0.249999999999992
40
0.499999999999983
40
0.499999999999983
40
0.624999999999983
40
0.624999999999983
40
0.687499999999983
40
0.687499999999983
40
0.749999999999983
40
0.749999999999983
40
1
40
1
40
1
40
1
41
1
10
2.47559836122272
20
1.02130710259064
30
0
41
1
10
2.57498571662552
20
1.03089113172598
30
0
41
1
10
2.67486822947248
20
1.03712341171291
30
0
41
1
10
2.8755911483604
20
1.0448359692536
30
0
41
1
10
2.97643165798985
20
1.04631125359626
30
0
41
1
10
3.12841959666275
20
1.04524996485634
30
0
41
1
10
3.17920376933188
20
1.04433890379562
30
0
41
1
10
3.25556652825156
20
1.04206464982903
30
0
41
1
10
3.28103949748515
20
1.04115430019343
30
0
41
1
10
3.33175350752097
20
1.03902299023804
30
0
41
1
10
3.35703085162387
20
1.03780105075205
30
0
41
1
10
3.483022204549
20
1.03086168561253
30
0
41
1
10
3.5825545216297
20
1.02271429745613
30
0
41
1
10
3.68082800003276
20
1.01088865036078
30
0
0
SPLINE
5
C2
100
AcDbEntity
8
1
62
256
6
ByLayer
370
18
48
1
60
0
100
AcDbSpline
70
4
71
3
72
68
73
64
40
0
40
0
40
0
40
0
40
0.0424939294462497
40
0.0424939294462497
40
0.0655009457254062
40
0.0655009457254062
40
0.0885079620045627
40
0.0885079620045627
40
0.134521994562876
40
0.134521994562876
40
0.157529010842032
40
0.157529010842032
40
0.180536027121189
40
0.180536027121189
40
0.226550059679502
40
0.226550059679502
40
0.238053567819079
40
0.238053567819079
40
0.249557075958657
40
0.249557075958657
40
0.272564092237813
40
0.272564092237813
40
0.318578124796124
40
0.318578124796124
40
0.364592157354435
40
0.364592157354435
40
0.410606189912745
40
0.410606189912745
40
0.456620222471056
40
0.456620222471056
40
0.479627238750213
40
0.479627238750213
40
0.502634255029369
40
0.502634255029369
40
0.548648287587682
40
0.548648287587682
40
0.57165530386684
40
0.57165530386684
40
0.594662320145998
40
0.594662320145998
40
0.640676352704313
40
0.640676352704313
40
0.686690385262628
40
0.686690385262628
40
0.732704417820943
40
0.732704417820943
40
0.7557114341001
40
0.7557114341001
40
0.778718450379258
40
0.778718450379258
40
0.824732482937575
40
0.824732482937575
40
0.847739499216733
40
0.847739499216733
40
0.87074651549589
40
0.87074651549589
40
0.916760548054206
40
0.916760548054206
40
0.939767564333362
40
0.939767564333362
40
0.962774580612519
40
0.962774580612519
40
1
40
1
40
1
40
1
41
1
10
6.38650364567832
20
1.11000003949488
30
0
41
1
10
6.48912764416446
20
1.11001063865041
30
0
41
1
10
6.5920660579666
20
1.10526487731892
30
0
41
1
10
6.75168559142566
20
1.09054263051485
30
0
41
1
10
6.80801556844006
20
1.08394522155589
30
0
41
1
10
6.92037388936902
20
1.06801408368059
30
0
41
1
10
6.97646063323938
20
1.05867667818751
30
0
41
1
10
7.1445883408289
20
1.02662172843242
30
0
41
1
10
7.25666015868049
20
0.999961176367322
30
0
41
1
10
7.42527910229882
20
0.952426356301601
30
0
41
1
10
7.48158460532039
20
0.935312056241372
30
0
41
1
10
7.59389947676078
20
0.898795570617523
30
0
41
1
10
7.64997138601748
20
0.879370419071364
30
0
41
1
10
7.81809292925965
20
0.817760941087357
30
0
41
1
10
7.93018627434901
20
0.772399447054312
30
0
41
1
10
8.0707771416383
20
0.71088751115829
30
0
41
1
10
8.0989234542073
20
0.698340919754884
30
0
41
1
10
8.15506873250422
20
0.672869616798209
30
0
41
1
10
8.18309303779256
20
0.659934033057567
30
0
41
1
10
8.26703950324247
20
0.620557897330912
30
0
41
1
10
8.32282609027553
20
0.593534238344205
30
0
41
1
10
8.4898310002269
20
0.510429158660486
30
0
41
1
10
8.6008087187077
20
0.452492445961156
30
0
41
1
10
8.82277337409212
20
0.332788551752174
30
0
41
1
10
8.9337395746964
20
0.270988279518775
30
0
41
1
10
9.15629906194911
20
0.144548413430897
30
0
41
1
10
9.26808267859022
20
0.0801383852031279
30
0
41
1
10
9.49314518526251
20
-0.0496387753663043
30
0
41
1
10
9.60526965781099
20
-0.114378373962694
30
0
41
1
10
9.77336158084879
20
-0.210370660308684
30
0
41
1
10
9.82941239592159
20
-0.242119751455363
30
0
41
1
10
9.94167338668376
20
-0.304919008958052
30
0
41
1
10
9.99793277238601
20
-0.336014912474638
30
0
41
1
10
10.1666374579215
20
-0.427839741239438
30
0
41
1
10
10.2787373961693
20
-0.486990456045447
30
0
41
1
10
10.4468691283205
20
-0.571771190785768
30
0
41
1
10
10.5029393200066
20
-0.599328340324973
30
0
41
1
10
10.6152576900392
20
-0.652850893173394
30
0
41
1
10
10.6715956389781
20
-0.67887264731246
30
0
41
1
10
10.8399617432595
20
-0.753941926772313
30
0
41
1
10
10.9514697240558
20
-0.800085874330478
30
0
41
1
10
11.1737081834652
20
-0.883867182572601
30
0
41
1
10
11.284589974334
20
-0.921327376327298
30
0
41
1
10
11.5065938496913
20
-0.986767233318801
30
0
41
1
10
11.6177006486768
20
-1.01476377057355
30
0
41
1
10
11.7850112584073
20
-1.04912625604447
30
0
41
1
10
11.8409245478716
20
-1.05928384595143
30
0
41
1
10
11.9531533023865
20
-1.07691114328966
30
0
41
1
10
12.009492763615
20
-1.08438190236703
30
0
41
1
10
12.1780031522397
20
-1.10254259946771
30
0
41
1
10
12.2900611983423
20
-1.10906032891401
30
0
41
1
10
12.4582347966125
20
-1.11032840226716
30
0
41
1
10
12.5143417958961
20
-1.10932960363712
30
0
41
1
10
12.6267764394356
20
-1.10449037873283
30
0
41
1
10
12.6830414619634
20
-1.10064847593784
30
0
41
1
10
12.8514780687485
20
-1.08495358416175
30
0
41
1
10
12.9635214825731
20
-1.06892390495688
30
0
41
1
10
13.1317590979659
20
-1.03672291970983
30
0
41
1
10
13.187893732932
20
-1.02464295822418
30
0
41
1
10
13.3004088377509
20
-0.997870317743548
30
0
41
1
10
13.3566059242403
20
-0.983212971395858
30
0
41
1
10
13.5036007501387
20
-0.941649300712953
30
0
41
1
10
13.5943415825126
20
-0.912764947375848
30
0
41
1
10
13.6851555576349
20
-0.880834142079095
30
0
0
SPLINE
5
C3
100
AcDbEntity
8
1
62
256
6
ByLayer
370
18
48
1
60
0
100
AcDbSpline
70
4
71
3
72
82
73
78
40
0
40
0
40
0
40
0
40
0.0061945584083432
40
0.0061945584083432
40
0.0123891168166865
40
0.0123891168166865
40
0.0185836752250297
40
0.0185836752250297
40
0.0247782336333729
40
0.0247782336333729
40
0.0309727920417162
40
0.0309727920417162
40
0.0371673504500594
40
0.0371673504500594
40
0.0495564672667436
40
0.0495564672667436
40
0.0743347009001142
40
0.0743347009001142
40
0.0991129345334849
40
0.0991129345334849
40
0.148669401800228
40
0.148669401800228
40
0.1734476354336
40
0.1734476354336
40
0.198225869066972
40
0.198225869066972
40
0.223004102700344
40
0.223004102700344
40
0.247782336333716
40
0.247782336333716
40
0.297338803600459
40
0.297338803600459
40
0.309727920417144
40
0.309727920417144
40
0.32211703723383
40
0.32211703723383
40
0.346895270867201
40
0.346895270867201
40
0.396451738133944
40
0.396451738133944
40
0.446008205400688
40
0.446008205400688
40
0.47078643903406
40
0.47078643903406
40
0.495564672667433
40
0.495564672667433
40
0.545121139934182
40
0.545121139934182
40
0.569899373567555
40
0.569899373567555
40
0.594677607200927
40
0.594677607200927
40
0.644234074467676
40
0.644234074467676
40
0.66901230810105
40
0.66901230810105
40
0.693790541734424
40
0.693790541734424
40
0.74334700900117
40
0.74334700900117
40
0.768125242634544
40
0.768125242634544
40
0.792903476267918
40
0.792903476267918
40
0.842459943534663
40
0.842459943534663
40
0.867238177168035
40
0.867238177168035
40
0.892016410801407
40
0.892016410801407
40
0.94157287806815
40
0.94157287806815
40
0.966351111701522
40
0.966351111701522
40
0.991129345334894
40
0.991129345334894
40
1
40
1
40
1
40
1
41
1
10
14.425798499448
20
-1.06856581177033
30
0
41
1
10
14.4105464881056
20
-1.06696417046055
30
0
41
1
10
14.3958549847754
20
-1.06504577578522
30
0
41
1
10
14.3670598346846
20
-1.0607650666569
30
0
41
1
10
14.3529616245089
20
-1.05840018553064
30
0
41
1
10
14.3250006901732
20
-1.05337186049286
30
0
41
1
10
14.3111406172806
20
-1.05070709362741
30
0
41
1
10
14.2833517545714
20
-1.04524338128005
30
0
41
1
10
14.2693914260802
20
-1.04246485833386
30
0
41
1
10
14.2413492957722
20
-1.03682263062217
30
0
41
1
10
14.2272834559778
20
-1.03394967979526
30
0
41
1
10
14.1991897741453
20
-1.02802180064691
30
0
41
1
10
14.1851786690015
20
-1.02495502800687
30
0
41
1
10
14.1432231963868
20
-1.01545653013744
30
0
41
1
10
14.1152432719882
20
-1.00880509902964
30
0
41
1
10
14.0312079683355
20
-0.987953787671927
30
0
41
1
10
13.9751782265354
20
-0.972765539721735
30
0
41
1
10
13.8629831395567
20
-0.939896169674597
30
0
41
1
10
13.8068894409827
20
-0.922215563955831
30
0
41
1
10
13.6389085184247
20
-0.865755804409986
30
0
41
1
10
13.5269963834995
20
-0.82365526326663
30
0
41
1
10
13.3587330410015
20
-0.754419257968777
30
0
41
1
10
13.3025727089622
20
-0.730317197001881
30
0
41
1
10
13.1904894367084
20
-0.680373350195339
30
0
41
1
10
13.1345193632398
20
-0.654496546420006
30
0
41
1
10
13.0225923306998
20
-0.601109790747813
30
0
41
1
10
12.9666136754913
20
-0.573631104265246
30
0
41
1
10
12.8545086700494
20
-0.517278850766303
30
0
41
1
10
12.7983431977726
20
-0.48837068876
30
0
41
1
10
12.6301387724291
20
-0.400041624576545
30
0
41
1
10
12.5182487629372
20
-0.338927773253602
30
0
41
1
10
12.378241567102
20
-0.260479052620298
30
0
41
1
10
12.3502275727996
20
-0.244695269246336
30
0
41
1
10
12.2941452729508
20
-0.212989189672129
30
0
41
1
10
12.2660746711271
20
-0.197060460053194
30
0
41
1
10
12.1820314101913
20
-0.149216741149559
30
0
41
1
10
12.1261445155562
20
-0.117194966429963
30
0
41
1
10
11.9587768711935
20
-0.0209825559864214
30
0
41
1
10
11.8475988746649
20
0.04337289728727
30
0
41
1
10
11.6253642782926
20
0.171317763255729
30
0
41
1
10
11.5141451705981
20
0.234623247181304
30
0
41
1
10
11.3466573670372
20
0.327698845228156
30
0
41
1
10
11.2907197467631
20
0.358412733874587
30
0
41
1
10
11.1785403404116
20
0.419063820425834
30
0
41
1
10
11.1224705180025
20
0.44892030395431
30
0
41
1
10
10.9546126096222
20
0.536563679380151
30
0
41
1
10
10.8428412196684
20
0.592310591307893
30
0
41
1
10
10.6748587640076
20
0.671152330819353
30
0
41
1
10
10.6187900861164
20
0.696649358350953
30
0
41
1
10
10.5065576541795
20
0.745878647751312
30
0
41
1
10
10.450558463904
20
0.769553755458475
30
0
41
1
10
10.2827307663852
20
0.837537454852253
30
0
41
1
10
10.1709533973161
20
0.878665348462448
30
0
41
1
10
10.0029071630209
20
0.933496680564247
30
0
41
1
10
9.94676906471557
20
0.950650723038763
30
0
41
1
10
9.83461031640434
20
0.982479059153718
30
0
41
1
10
9.77863774270529
20
0.997150821452891
30
0
41
1
10
9.61087354533757
20
1.03731105848226
30
0
41
1
10
9.49908789556758
20
1.05884568231815
30
0
41
1
10
9.33097080908044
20
1.08301382042166
30
0
41
1
10
9.27479796356036
20
1.08971778217787
30
0
41
1
10
9.16269880057152
20
1.1003123987912
30
0
41
1
10
9.10674526527632
20
1.10421205568599
30
0
41
1
10
8.9389996870554
20
1.11168454503479
30
0
41
1
10
8.82718539659035
20
1.11102182111523
30
0
41
1
10
8.65897599795025
20
1.10158001536953
30
0
41
1
10
8.60280692048303
20
1.09701682265055
30
0
41
1
10
8.49076093200989
20
1.08512625849932
30
0
41
1
10
8.43482854193826
20
1.07779224268739
30
0
41
1
10
8.26710811257601
20
1.05169876291626
30
0
41
1
10
8.15528721619489
20
1.02890712123326
30
0
41
1
10
7.98699479673672
20
0.986951402727811
30
0
41
1
10
7.93087021750824
20
0.9716810073337
30
0
41
1
10
7.8188762026634
20
0.938754434376477
30
0
41
1
10
7.76295478899712
20
0.921078794500261
30
0
41
1
10
7.68703949159448
20
0.895499702517554
30
0
41
1
10
7.6670245362246
20
0.888612331912725
30
0
41
1
10
7.64700569650248
20
0.881583080069589
30
0
0
SPLINE
5
C4
100
AcDbEntity
8
1
62
256
6
ByLayer
370
18
48
1
60
0
100
AcDbSpline
70
4
71
3
72
48
73
44
40
0
40
0
40
0
40
0
40
0.0055588275816903
40
0.0330142671394133
40
0.0604697066971364
40
0.0879251462548593
40
0.115380585812582
40
0.142836025370305
40
0.156563745149166
40
0.184019184706889
40
0.211474624264612
40
0.238930063822335
40
0.266385503380058
40
0.293840942937781
40
0.314432522606073
40
0.335024102274366
40
0.362479541832089
40
0.389934981389811
40
0.417390420947534
40
0.444845860505257
40
0.47230130006298
40
0.486029019841842
40
0.513484459399565
40
0.540939898957287
40
0.56839533851501
40
0.595850778072733
40
0.623306217630456
40
0.637033937409318
40
0.664489376967041
40
0.691944816524764
40
0.719400256082487
40
0.74685569564021
40
0.774311135197932
40
0.794902714866224
40
0.815494294534517
40
0.84294973409224
40
0.870405173649963
40
0.897860613207686
40
0.925316052765409
40
0.945907632433701
40
0.966499212101993
40
0.993954651659716
40
1
40
1
40
1
40
1
41
1
10
9.07433141506857
20
0.204257301874577
30
0
41
1
10
9.08026972053804
20
0.203676043233742
30
0
41
1
10
9.11553773348561
20
0.20020675265198
30
0
41
1
10
9.1801354539094
20
0.193672497295125
30
0
41
1
10
9.26812457634927
20
0.184375617099931
30
0
41
1
10
9.35611369876628
20
0.174698978481018
30
0
41
1
10
9.44410282126761
20
0.164658591070633
30
0
41
1
10
9.51742708968232
20
0.156001891793949
30
0
41
1
10
9.59075135966998
20
0.147139099726701
30
0
41
1
10
9.66407562349184
20
0.138075595275041
30
0
41
1
10
9.75206475888712
20
0.126883990198877
30
0
41
1
10
9.84005384463472
20
0.115442348900842
30
0
41
1
10
9.92804272600659
20
0.103775695047233
30
0
41
0.999999999999999
10
10.008699073314
20
0.0928885954890007
30
0
41
1
10
10.0820229286391
20
0.0828543042818239
30
0
41
1
10
10.155346714968
20
0.0727114214652715
30
0
41
1
10
10.2360028027069
20
0.0614258069714424
30
0
41
1
10
10.3239911875953
20
0.0489771692422494
30
0
41
1
10
10.4119795194001
20
0.0364002101981668
30
0
41
1
10
10.4999678195852
20
0.0237568138472284
30
0
41
1
10
10.573291394591
20
0.0131960375328219
30
0
41
1
10
10.6466149766427
20
0.0026250095529292
30
0
41
1
10
10.7199385724357
20
-0.0079480003931565
30
0
41
1
10
10.8079269308457
20
-0.0206188217461829
30
0
41
1
10
10.8959153540962
20
-0.0332526322414139
30
0
41
1
10
10.9839038638645
20
-0.0458269927873687
30
0
41
1
10
11.0572277110924
20
-0.0562431617084656
30
0
41
1
10
11.1305516425581
20
-0.066588935479956
30
0
41
1
10
11.2038756477371
20
-0.0768303178608391
30
0
41
1
10
11.2918646578379
20
-0.088949555927627
30
0
41
1
10
11.3798536772088
20
-0.100874622695841
30
0
41
1
10
11.4678426942443
20
-0.112587158442835
30
0
41
1
10
11.5484992938904
20
-0.12311093950342
30
0
41
1
10
11.6218234751479
20
-0.13249539553388
30
0
41
1
10
11.6951476564804
20
-0.141712556868526
30
0
41
1
10
11.7758042559276
20
-0.15163347050941
30
0
41
1
10
11.8637932735107
20
-0.162117752471659
30
0
41
1
10
11.9517822910928
20
-0.172251104026316
30
0
41
1
10
12.0324388905433
20
-0.181203979840802
30
0
41
1
10
12.1057630718617
20
-0.189064671138169
30
0
41
0.999999999999999
10
12.1790872531805
20
-0.196680230172064
30
0
41
1
10
12.2368722113709
20
-0.202448396617683
30
0
41
1
10
12.2726599151664
20
-0.205916850379481
30
0
41
1
10
12.2791179464342
20
-0.206539343199978
30
0
0
SPLINE
5
C5
100
AcDbEntity
8
1
62
256
6
ByLayer
370
18
48
1
60
0
100
AcDbSpline
70
4
71
3
72
24
73
20
40
0
40
0
40
0
40
0
40
0.0240722831347686
40
0.0240722831347686
40
0.186726902612311
40
0.186726902612311
40
0.349381522089853
40
0.349381522089853
40
0.512036141567395
40
0.512036141567395
40
0.593363451306167
40
0.593363451306167
40
0.674690761044938
40
0.674690761044938
40
0.837345380522469
40
0.837345380522469
40
0.918672690261234
40
0.918672690261234
40
1
40
1
40
1
40
1
41
1
10
14.7405417385457
20
-0.435029259623917
30
0
41
1
10
14.7382478154792
20
-0.439927745315345
30
0
41
1
10
14.7359387019985
20
-0.444830145988505
30
0
41
1
10
14.7179273503526
20
-0.482892964724868
30
0
41
1
10
14.7016191600157
20
-0.516256363525429
30
0
41
1
10
14.6684545683186
20
-0.583370658973735
30
0
41
1
10
14.6515775556605
20
-0.617143113944991
30
0
41
1
10
14.6175293010913
20
-0.685036186970962
30
0
41
1
10
14.6003544676496
20
-0.71914333818998
30
0
41
1
10
14.5744035880424
20
-0.770802973457734
30
0
41
1
10
14.5657207204522
20
-0.788108413350272
30
0
41
1
10
14.5483131224611
20
-0.822904431867272
30
0
41
1
10
14.5395840889662
20
-0.840412167367475
30
0
41
1
10
14.5133459346797
20
-0.893194107383124
30
0
41
1
10
14.4957895836802
20
-0.92871893000185
30
0
41
1
10
14.4694929891354
20
-0.981651356907264
30
0
41
1
10
14.4607345993675
20
-0.999226275651722
30
0
41
1
10
14.4432482923499
20
-1.03408847395551
30
0
41
1
10
14.4345184448523
20
-1.05138909116678
30
0
41
1
10
14.4257984994479
20
-1.06856581177033
30
0
0
SPLINE
5
C6
100
AcDbEntity
8
1
62
256
6
ByLayer
370
18
48
1
60
0
100
AcDbSpline
70
4
71
3
72
26
73
22
40
0
40
0
40
0
40
0
40
0.0569216481058922
40
0.0569216481058922
40
0.113843296211785
40
0.113843296211785
40
0.170764944317677
40
0.170764944317677
40
0.227686592423569
40
0.227686592423569
40
0.284608240529461
40
0.284608240529461
40
0.341529888635353
40
0.341529888635353
40
0.455373184847138
40
0.455373184847138
40
0.683059777270686
40
0.683059777270686
40
0.910746369694235
40
0.910746369694235
40
1
40
1
40
1
40
1
41
1
10
14.425798499448
20
1.06856581177033
30
0
41
1
10
14.4105464881056
20
1.06696417046055
30
0
41
1
10
14.3958549847754
20
1.06504577578522
30
0
41
1
10
14.3670598346846
20
1.0607650666569
30
0
41
1
10
14.3529616245089
20
1.05840018553064
30
0
41
1
10
14.3250006901732
20
1.05337186049286
30
0
41
1
10
14.3111406172806
20
1.05070709362741
30
0
41
1
10
14.2833517545714
20
1.04524338128005
30
0
41
1
10
14.2693914260803
20
1.04246485833386
30
0
41
1
10
14.2413492957722
20
1.03682263062217
30
0
41
1
10
14.2272834559778
20
1.03394967979526
30
0
41
1
10
14.1991897741453
20
1.02802180064688
30
0
41
1
10
14.1851786690015
20
1.02495502800687
30
0
41
1
10
14.1432231963868
20
1.01545653013744
30
0
41
1
10
14.1152432719882
20
1.00880509902964
30
0
41
1
10
14.0312079683355
20
0.987953787671955
30
0
41
1
10
13.9751782265354
20
0.972765539721735
30
0
41
1
10
13.8629831395567
20
0.939896169674597
30
0
41
1
10
13.8068894409827
20
0.922215563955859
30
0
41
1
10
13.728946173378
20
0.896018195348972
30
0
41
1
10
13.7069994334962
20
0.888469382417412
30
0
41
1
10
13.6850530311412
20
0.880752246585018
30
0
0
SPLINE
5
C7
100
AcDbEntity
8
1
62
256
6
ByLayer
370
18
48
1
60
0
100
AcDbSpline
70
4
71
3
72
52
73
48
40
0
40
0
40
0
40
0
40
0.0358037512124315
40
0.0358037512124315
40
0.0679436261720194
40
0.0679436261720194
40
0.100083501131607
40
0.100083501131607
40
0.164363251050781
40
0.164363251050781
40
0.196503126010367
40
0.196503126010367
40
0.228643000969952
40
0.228643000969952
40
0.292922750889125
40
0.292922750889125
40
0.357202500808299
40
0.357202500808299
40
0.389342375767884
40
0.389342375767884
40
0.42148225072747
40
0.42148225072747
40
0.48576200064664
40
0.48576200064664
40
0.517901875606225
40
0.517901875606225
40
0.55004175056581
40
0.55004175056581
40
0.614321500484979
40
0.614321500484979
40
0.646461375444564
40
0.646461375444564
40
0.678601250404148
40
0.678601250404148
40
0.742881000323315
40
0.742881000323315
40
0.7750208752829
40
0.7750208752829
40
0.791090812762692
40
0.791090812762692
40
0.807160750242485
40
0.807160750242485
40
0.871440500161657
40
0.871440500161657
40
0.935720250080828
40
0.935720250080828
40
1
40
1
40
1
40
1
41
1
10
8.90218692220051
20
-1.11000148996908
30
0
41
1
10
8.83986814213486
20
-1.10999212709731
30
0
41
1
10
8.77750743295832
20
-1.10823333434664
30
0
41
1
10
8.65897599795019
20
-1.10158001536953
30
0
41
1
10
8.602806920483
20
-1.09701682265055
30
0
41
1
10
8.49076093200986
20
-1.08512625849932
30
0
41
1
10
8.43482854193826
20
-1.07779224268739
30
0
41
1
10
8.26710811257598
20
-1.05169876291626
30
0
41
1
10
8.15528721619489
20
-1.02890712123326
30
0
41
1
10
7.9869947967367
20
-0.986951402727811
30
0
41
1
10
7.93087021750824
20
-0.9716810073337
30
0
41
1
10
7.81887620266335
20
-0.938754434376449
30
0
41
1
10
7.76295478899709
20
-0.921078794500232
30
0
41
1
10
7.59524818079919
20
-0.86457130649751
30
0
41
1
10
7.48338570348457
20
-0.822402084441336
30
0
41
1
10
7.2588389379809
20
-0.729844991690754
30
0
41
1
10
7.146953471024
20
-0.679757528091699
30
0
41
1
10
6.97925473966535
20
-0.599660052343921
30
0
41
1
10
6.92333288869315
20
-0.572188052258383
30
0
41
1
10
6.81134474444571
20
-0.515849694307803
30
0
41
1
10
6.75523360842035
20
-0.48694820793466
30
0
41
1
10
6.58692049860204
20
-0.398503338682133
30
0
41
1
10
6.47510059140421
20
-0.337376658539682
30
0
41
1
10
6.30738294533424
20
-0.243385498551106
30
0
41
1
10
6.25144952996416
20
-0.211721088803046
30
0
41
1
10
6.13941259502235
20
-0.147921236284077
30
0
41
1
10
6.08324786845384
20
-0.115735738053388
30
0
41
1
10
5.91501835305078
20
-0.019017748201577
30
0
41
1
10
5.80320553238872
20
0.0457101253664689
30
0
41
1
10
5.6354645266523
20
0.142248357368914
30
0
41
1
10
5.579512168544
20
0.174274631629203
30
0
41
1
10
5.46742163537201
20
0.237833436306261
30
0
41
1
10
5.41124798557181
20
0.269403540493897
30
0
41
1
10
5.24311530930532
20
0.362743907593455
30
0
41
1
10
5.13133092601808
20
0.423301487627668
30
0
41
1
10
4.96357559479898
20
0.510752691358135
30
0
41
1
10
4.90760452771664
20
0.539276300439951
30
0
41
1
10
4.82349522503776
20
0.581007222804431
30
0
41
1
10
4.79541295213471
20
0.594752896002291
30
0
41
1
10
4.73935126460003
20
0.621800094851466
30
0
41
1
10
4.71135999223597
20
0.635107832320926
30
0
41
1
10
4.57157537359186
20
0.700540027059503
30
0
41
1
10
4.4603060481956
20
0.749362340397795
30
0
41
1
10
4.23817466739899
20
0.839104746270266
30
0
41
1
10
4.1271631684308
20
0.879842176656609
30
0
41
1
10
3.90457527646055
20
0.952321037295036
30
0
41
1
10
3.79300682912486
20
0.984072135712211
30
0
41
1
10
3.68082800000002
20
1.01088865036459
30
0
0
SPLINE
5
C8
100
AcDbEntity
8
1
62
256
6
ByLayer
370
18
48
1
60
0
100
AcDbSpline
70
4
71
3
72
38
73
34
40
0
40
0
40
0
40
0
40
0.0693652650916379
40
0.0953772395010021
40
0.121389213910366
40
0.156071846456185
40
0.190754479002004
40
0.225437111547823
40
0.260119744093642
40
0.294802376639461
40
0.31214369291237
40
0.346826325458189
40
0.381508958004008
40
0.416191590549827
40
0.450874223095646
40
0.485556855641465
40
0.511568830050829
40
0.537580804460194
40
0.572263437006013
40
0.606946069551832
40
0.64162870209765
40
0.676311334643469
40
0.702323309052834
40
0.728335283462198
40
0.763017916008017
40
0.797700548553836
40
0.832383181099655
40
0.867065813645474
40
0.901748446191293
40
0.919089762464202
40
0.953772395010021
40
0.98845502755584
40
1
40
1
40
1
40
1
41
1
10
3.68082799999999
20
0.130789933698793
30
0
41
1
10
3.73948533226371
20
0.123304669769283
30
0
41
1
10
3.82014081313093
20
0.11277924801351
30
0
41
1
10
3.92279508002318
20
0.0990380405764881
30
0
41
1
10
3.99611930455052
20
0.0890976451875929
30
0
41
1
10
4.07677600920673
20
0.0780145294322381
30
0
41
1
10
4.16476512944985
20
0.0657572135912972
30
0
41
0.999999999999999
10
4.25275425234327
20
0.0533552471397059
30
0
41
1
10
4.34074337448658
20
0.0408223205466527
30
0
41
1
10
4.4140676431681
20
0.0302961685580101
30
0
41
1
10
4.48739191176213
20
0.019753083515468
30
0
41
1
10
4.56071618037771
20
0.0091908893804771
30
0
41
1
10
4.64870530271102
20
-0.003497409465723
30
0
41
1
10
4.73669442504541
20
-0.0161761526071871
30
0
41
1
10
4.82468354737966
20
-0.0288252660630235
30
0
41
1
10
4.90534024285225
20
-0.0403743016333351
30
0
41
1
10
4.97866451146621
20
-0.050820660441218
30
0
41
1
10
5.05198878006795
20
-0.0612178530184622
30
0
41
1
10
5.13264547557549
20
-0.0725378731030162
30
0
41
1
10
5.22063459780699
20
-0.0847194082718659
30
0
41
1
10
5.30862372050021
20
-0.096714506473603
30
0
41
1
10
5.38928041450026
20
-0.107521408007386
30
0
41
1
10
5.46260467662841
20
-0.117181364343793
30
0
41
1
10
5.53592893591108
20
-0.12669349794453
30
0
41
1
10
5.61658561727353
20
-0.136947192598171
30
0
41
1
10
5.70457472006405
20
-0.147873760709814
30
0
41
1
10
5.79256381921567
20
-0.158479805862697
30
0
41
1
10
5.88055291526541
20
-0.168736044895013
30
0
41
1
10
5.95387715983077
20
-0.176983861653213
30
0
41
1
10
6.02720140312209
20
-0.184996071841112
30
0
41
1
10
6.10052564530514
20
-0.192768649681255
30
0
41
1
10
6.16894815343784
20
-0.199711676792276
30
0
41
1
10
6.20804096490014
20
-0.20355578298205
30
0
41
1
10
6.21780408005054
20
-0.204508085394025
30
0
0
SPLINE
5
C9
100
AcDbEntity
8
1
62
256
6
ByLayer
370
18
48
1
60
0
100
AcDbSpline
70
4
71
3
72
28
73
24
40
0
40
0
40
0
40
0
40
0.0625000000000001
40
0.0625000000000001
40
0.125
40
0.125
40
0.25
40
0.25
40
0.375
40
0.375
40
0.5
40
0.5
40
0.625
40
0.625
40
0.6875
40
0.6875
40
0.75
40
0.75
40
0.875
40
0.875
40
0.9375
40
0.9375
40
1
40
1
40
1
40
1
41
1
10
14.8139995337548
20
0.251530354817476
30
0
41
1
10
14.80927642885
20
0.268192932046645
30
0
41
1
10
14.8037500657981
20
0.284745135261915
30
0
41
1
10
14.7916637632322
20
0.317763674607846
30
0
41
1
10
14.7851017997454
20
0.334229757382104
30
0
41
1
10
14.7644084939794
20
0.383632899840336
30
0
41
1
10
14.749306112676
20
0.416581220555315
30
0
41
1
10
14.7179273503526
20
0.482892964724868
30
0
41
1
10
14.7016191600157
20
0.516256363525429
30
0
41
1
10
14.6684545683186
20
0.583370658973735
30
0
41
1
10
14.6515775556605
20
0.617143113944991
30
0
41
1
10
14.6175293010913
20
0.685036186970962
30
0
41
1
10
14.6003544676496
20
0.71914333818998
30
0
41
1
10
14.5744035880424
20
0.770802973457734
30
0
41
1
10
14.5657207204522
20
0.788108413350272
30
0
41
1
10
14.5483131224612
20
0.822904431867272
30
0
41
1
10
14.5395840889662
20
0.840412167367475
30
0
41
1
10
14.5133459346796
20
0.893194107383096
30
0
41
1
10
14.4957895836802
20
0.92871893000185
30
0
41
1
10
14.4694929891354
20
0.981651356907264
30
0
41
1
10
14.4607345993675
20
0.999226275651722
30
0
41
1
10
14.4432482923499
20
1.03408847395551
30
0
41
1
10
14.4345184448524
20
1.05138909116678
30
0
41
1
10
14.425798499448
20
1.06856581177033
30
0
0
SPLINE
5
CA
100
AcDbEntity
8
1
62
256
6
ByLayer
370
18
48
1
60
0
100
AcDbSpline
70
4
71
3
72
45
73
41
40
0
40
0
40
0
40
0
40
0.125000000000003
40
0.125000000000003
40
0.187500000000004
40
0.187500000000004
40
0.250000000000006
40
0.250000000000006
40
0.312500000000007
40
0.312500000000007
40
0.375000000000008
40
0.375000000000008
40
0.500000000000007
40
0.500000000000007
40
0.531250000000006
40
0.531250000000006
40
0.562500000000005
40
0.562500000000005
40
0.625000000000006
40
0.625000000000006
40
0.687500000000007
40
0.687500000000007
40
0.703125000000007
40
0.703125000000007
40
0.718750000000007
40
0.750000000000006
40
0.750000000000006
40
0.812500000000002
40
0.812500000000002
40
0.828125000000002
40
0.828125000000002
40
0.843750000000002
40
0.843750000000002
40
0.875000000000001
40
0.875000000000001
40
0.9375
40
0.9375
40
0.96875
40
0.96875
40
1
40
1
40
1
40
1
41
1
10
3.68082799999999
20
-0.180610066921048
30
0
41
1
10
3.59624611237078
20
-0.156296882939586
30
0
41
1
10
3.5133676283921
20
-0.127253165343092
30
0
41
1
10
3.39160266423158
20
-0.0764027965118714
30
0
41
1
10
3.35145951184424
20
-0.0582377580190041
30
0
41
1
10
3.27248900145523
20
-0.0196359823158616
30
0
41
1
10
3.23360529949179
20
0.0008230231163111
30
0
41
1
10
3.15706280650176
20
0.0441022411231131
30
0
41
1
10
3.11930317409357
20
0.0669926960782448
30
0
41
1
10
3.04582218168545
20
0.114701404178987
30
0
41
1
10
3.01004370595564
20
0.139542788206086
30
0
41
1
10
2.90567253052637
20
0.216978469369337
30
0
41
1
10
2.84000633231969
20
0.272456350116329
30
0
41
1
10
2.76349048213879
20
0.346776716009714
30
0
41
1
10
2.74846866807502
20
0.361891668584889
30
0
41
1
10
2.7190198652151
20
0.39263829533229
30
0
41
1
10
2.70454540455302
20
0.40832427287549
30
0
41
1
10
2.66246267738774
20
0.455750177561214
30
0
41
1
10
2.63625593216295
20
0.487762639808778
30
0
41
1
10
2.58779280015432
20
0.552409939432067
30
0
41
1
10
2.56553167135485
20
0.585044801064754
30
0
41
1
10
2.54048432482011
20
0.626137102723959
30
0
41
1
10
2.53561516433535
20
0.634371320931024
30
0
41
1
10
2.52625409395515
20
0.650711248283443
30
0
41
1
10
2.51274267360751
20
0.675086269558818
30
0
41
1
10
2.50082577236765
20
0.699037610765828
30
0
41
1
10
2.47915907262066
20
0.746321119430348
30
0
41
1
10
2.46758819340278
20
0.777020904962086
30
0
41
1
10
2.45705411146991
20
0.814154374082307
30
0
41
1
10
2.45514501887283
20
0.821518770236452
30
0
41
1
10
2.45173633773464
20
0.836116523544376
30
0
41
1
10
2.4502379240397
20
0.843352247149426
30
0
41
1
10
2.44642210370864
20
0.864577303954547
30
0
41
1
10
2.4447588090255
20
0.878180709567488
30
0
41
1
10
2.44235383536309
20
0.91737360567393
30
0
41
1
10
2.44418113040336
20
0.94135140667845
30
0
41
1
10
2.45213417618177
20
0.97407827063202
30
0
41
1
10
2.45567724427463
20
0.984472841246543
30
0
41
1
10
2.46440833690605
20
1.00386490902085
30
0
41
1
10
2.46959960925957
20
1.01290145077397
30
0
41
1
10
2.47559836122272
20
1.02130710259064
30
0
0
LINE
5
7F
100
AcDbEntity
8
1
62
256
6
ByLayer
370
18
48
1
60
0
100
AcDbLine
10
0
20
1.5
30
0
11
0
21
0
31
0
39
0
210
0
220
0
230
1
0
LINE
5
80
100
AcDbEntity
8
1
62
256
6
ByLayer
370
18
48
1
60
0
100
AcDbLine
10
0
20
0
30
0
11
0
21
-1.5
31
0
39
0
210
0
220
0
230
1
0
LINE
5
81
100
AcDbEntity
8
1
62
256
6
ByLayer
370
18
48
1
60
0
100
AcDbLine
10
14.425798
20
0.567305
30
0
11
14.425798
21
-1.068566
31
0
39
0
210
0
220
0
230
1
0
LINE
5
82
100
AcDbEntity
8
1
62
256
6
ByLayer
370
18
48
1
60
0
100
AcDbLine
10
3.680828
20
1.010889
30
0
11
3.680828
21
0.13079
31
0
39
0
210
0
220
0
230
1
0
LINE
5
83
100
AcDbEntity
8
1
62
256
6
ByLayer
370
13
48
1
60
0
100
AcDbLine
10
0.943444
20
1.11
30
0
11
0.943444
21
-1.11
31
0
39
0
210
0
220
0
230
1
0
LINE
5
84
100
AcDbEntity
8
1
62
256
6
ByLayer
370
18
48
1
60
0
100
AcDbLine
10
3.680828
20
0.13079
30
0
11
3.680828
21
-0.18061
31
0
39
0
210
0
220
0
230
1
0
LINE
5
85
100
AcDbEntity
8
1
62
256
6
ByLayer
370
13
48
1
60
0
100
AcDbLine
10
0.443444
20
1.243975
30
0
11
0.443444
21
-1.243975
31
0
39
0
210
0
220
0
230
1
0
LINE
5
86
100
AcDbEntity
8
SK1
62
256
6
ByLayer
370
18
48
1
60
0
100
AcDbLine
10
-23.0566
20
1.326795
30
0
11
-23.0566
21
-1.326795
31
0
39
0
210
0
220
0
230
1
0
LINE
5
88
100
AcDbEntity
8
SK1
62
256
6
ByLayer
370
18
48
1
60
0
100
AcDbLine
10
0
20
1.5
30
0
11
0
21
0
31
0
39
0
210
0
220
0
230
1
0
LINE
5
89
100
AcDbEntity
8
SK1
62
256
6
ByLayer
370
18
48
1
60
0
100
AcDbLine
10
0
20
0
30
0
11
0
21
-1.5
31
0
39
0
210
0
220
0
230
1
0
LINE
5
8A
100
AcDbEntity
8
SK1
62
256
6
ByLayer
370
18
48
1
60
0
100
AcDbLine
10
-22.7566
20
1.5
30
0
11
-22.7566
21
-1.5
31
0
39
0
210
0
220
0
230
1
0
LINE
5
8B
100
AcDbEntity
8
1
62
256
6
ByLayer
370
18
48
1
60
0
100
AcDbLine
10
14.9434
20
0
30
0
11
14.739992
21
0.436209
31
0
39
0
210
0
220
0
230
1
0
LINE
5
8C
100
AcDbEntity
8
1
62
256
6
ByLayer
370
18
48
1
60
0
100
AcDbLine
10
14.739992
20
-0.436209
30
0
11
14.9434
21
0
31
0
39
0
210
0
220
0
230
1
0
LINE
5
8D
100
AcDbEntity
8
1
62
256
6
ByLayer
370
18
48
1
60
0
100
AcDbLine
10
0.943444
20
-1.11
30
0
11
6.386607
21
-1.11
31
0
39
0
210
0
220
0
230
1
0
LINE
5
8E
100
AcDbEntity
8
1
62
256
6
ByLayer
370
18
48
1
60
0
100
AcDbLine
10
8.902168
20
-1.11
30
0
11
12.427612
21
-1.11
31
0
39
0
210
0
220
0
230
1
0
LINE
5
8F
100
AcDbEntity
8
1
62
256
6
ByLayer
370
18
48
1
60
0
100
AcDbLine
10
12.427612
20
1.11
30
0
11
8.902168
21
1.11
31
0
39
0
210
0
220
0
230
1
0
LINE
5
90
100
AcDbEntity
8
1
62
256
6
ByLayer
370
18
48
1
60
0
100
AcDbLine
10
6.386607
20
1.11
30
0
11
0.943444
21
1.11
31
0
39
0
210
0
220
0
230
1
0
LINE
5
91
100
AcDbEntity
8
1
62
256
6
ByLayer
370
18
48
1
60
0
100
AcDbLine
10
0.443444
20
1.243975
30
0
11
0
21
1.5
31
0
39
0
210
0
220
0
230
1
0
LINE
5
92
100
AcDbEntity
8
1
62
256
6
ByLayer
370
18
48
1
60
0
100
AcDbLine
10
0
20
-1.5
30
0
11
0.443444
21
-1.243975
31
0
39
0
210
0
220
0
230
1
0
LINE
5
93
100
AcDbEntity
8
SK1
62
256
6
ByLayer
370
18
48
1
60
0
100
AcDbLine
10
-23.0566
20
-1.326795
30
0
11
-22.7566
21
-1.5
31
0
39
0
210
0
220
0
230
1
0
LINE
5
94
100
AcDbEntity
8
SK1
62
256
6
ByLayer
370
18
48
1
60
0
100
AcDbLine
10
-22.7566
20
1.5
30
0
11
-23.0566
21
1.326795
31
0
39
0
210
0
220
0
230
1
0
LINE
5
95
100
AcDbEntity
8
SK1
62
256
6
ByLayer
370
18
48
1
60
0
100
AcDbLine
10
-22.7566
20
-1.5
30
0
11
0
21
-1.5
31
0
39
0
210
0
220
0
230
1
0
LINE
5
96
100
AcDbEntity
8
SK1
62
256
6
ByLayer
370
18
48
1
60
0
100
AcDbLine
10
0
20
1.5
30
0
11
-22.7566
21
1.5
31
0
39
0
210
0
220
0
230
1
0
LINE
5
97
100
AcDbEntity
8
4
62
256
6
ByLayer
370
18
48
0.05
60
0
100
AcDbLine
10
0
20
0
30
0
11
14.9434
21
0
31
0
39
0
210
0
220
0
230
1
0
LINE
5
99
100
AcDbEntity
8
81
62
256
6
ByLayer
370
18
48
1
60
0
100
AcDbLine
10
14.9434
20
0
30
0
11
17.9434
21
0
31
0
39
0
210
0
220
0
230
1
0
LINE
5
9A
100
AcDbEntity
8
80
62
256
6
ByLayer
370
18
48
1
60
0
100
AcDbLine
10
0
20
0
30
0
11
-3
21
0
31
0
39
0
210
0
220
0
230
1
0
LINE
5
9B
100
AcDbEntity
8
SK4
62
256
6
ByLayer
370
18
48
0.05
60
0
100
AcDbLine
10
-26.0566
20
0
30
0
11
17.9434
21
0
31
0
39
0
210
0
220
0
230
1
0
LINE
5
9D
100
AcDbEntity
8
SK2
62
256
6
ByLayer
370
13
48
1
60
0
100
AcDbLine
10
-27.5566
20
-9
30
0
11
-27.5566
21
21.782741
31
0
39
0
210
0
220
0
230
1
0
LINE
5
9F
100
AcDbEntity
8
SK2
62
256
6
ByLayer
370
13
48
1
60
0
100
AcDbLine
10
-24.6441
20
-1.5
30
0
11
-29.5566
21
-1.5
31
0
39
0
210
0
220
0
230
1
0
LINE
5
A0
100
AcDbEntity
8
SK2
62
256
6
ByLayer
370
13
48
1
60
0
100
AcDbLine
10
-24.6441
20
1.5
30
0
11
-29.5566
21
1.5
31
0
39
0
210
0
220
0
230
1
0
LINE
5
A1
100
AcDbEntity
8
1
62
256
6
ByLayer
370
18
48
1
60
1
100
AcDbLine
10
-27.5566
20
-1.5
30
0
11
-27.095816
21
-4.999998
31
0
39
0
210
0
220
0
230
1
0
LINE
5
A2
100
AcDbEntity
8
1
62
256
6
ByLayer
370
18
48
1
60
1
100
AcDbLine
10
-27.095816
20
-4.999998
30
0
11
-28.017384
21
-5.000002
31
0
39
0
210
0
220
0
230
1
0
LINE
5
A3
100
AcDbEntity
8
1
62
256
6
ByLayer
370
18
48
1
60
1
100
AcDbLine
10
-28.017384
20
-5.000002
30
0
11
-27.5566
21
-1.5
31
0
39
0
210
0
220
0
230
1
0
LINE
5
A4
100
AcDbEntity
8
1
62
256
6
ByLayer
370
18
48
1
60
1
100
AcDbLine
10
-27.5566
20
1.5
30
0
11
-28.017384
21
4.999998
31
0
39
0
210
0
220
0
230
1
0
LINE
5
A5
100
AcDbEntity
8
1
62
256
6
ByLayer
370
18
48
1
60
1
100
AcDbLine
10
-28.017384
20
4.999998
30
0
11
-27.095816
21
5.000002
31
0
39
0
210
0
220
0
230
1
0
LINE
5
A6
100
AcDbEntity
8
1
62
256
6
ByLayer
370
18
48
1
60
1
100
AcDbLine
10
-27.095816
20
5.000002
30
0
11
-27.5566
21
1.5
31
0
39
0
210
0
220
0
230
1
0
LINE
5
A7
100
AcDbEntity
8
2
62
256
6
ByLayer
370
13
48
1
60
0
100
AcDbLine
10
20.4434
20
-8.61
30
0
11
20.4434
21
29.672741
31
0
39
0
210
0
220
0
230
1
0
LINE
5
A9
100
AcDbEntity
8
2
62
256
6
ByLayer
370
13
48
1
60
0
100
AcDbLine
10
16.5309
20
-1.11
30
0
11
22.4434
21
-1.11
31
0
39
0
210
0
220
0
230
1
0
LINE
5
AA
100
AcDbEntity
8
2
62
256
6
ByLayer
370
13
48
1
60
0
100
AcDbLine
10
16.5309
20
1.11
30
0
11
22.4434
21
1.11
31
0
39
0
210
0
220
0
230
1
0
LINE
5
AB
100
AcDbEntity
8
1
62
256
6
ByLayer
370
18
48
1
60
1
100
AcDbLine
10
20.4434
20
-1.11
30
0
11
20.904184
21
-4.609998
31
0
39
0
210
0
220
0
230
1
0
LINE
5
AC
100
AcDbEntity
8
1
62
256
6
ByLayer
370
18
48
1
60
1
100
AcDbLine
10
20.904184
20
-4.609998
30
0
11
19.982616
21
-4.610002
31
0
39
0
210
0
220
0
230
1
0
LINE
5
AD
100
AcDbEntity
8
1
62
256
6
ByLayer
370
18
48
1
60
1
100
AcDbLine
10
19.982616
20
-4.610002
30
0
11
20.4434
21
-1.11
31
0
39
0
210
0
220
0
230
1
0
LINE
5
AE
100
AcDbEntity
8
1
62
256
6
ByLayer
370
18
48
1
60
1
100
AcDbLine
10
20.4434
20
1.11
30
0
11
19.982616
21
4.609998
31
0
39
0
210
0
220
0
230
1
0
LINE
5
AF
100
AcDbEntity
8
1
62
256
6
ByLayer
370
18
48
1
60
1
100
AcDbLine
10
19.982616
20
4.609998
30
0
11
20.904184
21
4.610002
31
0
39
0
210
0
220
0
230
1
0
LINE
5
B0
100
AcDbEntity
8
1
62
256
6
ByLayer
370
18
48
1
60
1
100
AcDbLine
10
20.904184
20
4.610002
30
0
11
20.4434
21
1.11
31
0
39
0
210
0
220
0
230
1
0
LINE
5
B1
100
AcDbEntity
8
SK2
62
256
6
ByLayer
370
13
48
1
60
0
100
AcDbLine
10
15.614306
20
-1.438764
30
0
11
22.698445
21
-16.630748
31
0
39
0
210
0
220
0
230
1
0
LINE
5
B2
100
AcDbEntity
8
SK2
62
256
6
ByLayer
370
13
48
1
60
0
100
AcDbLine
10
15.614306
20
1.438764
30
0
11
22.698445
21
16.630748
31
0
39
0
210
0
220
0
230
1
0
LINE
5
B3
100
AcDbEntity
8
1
62
256
6
ByLayer
370
18
48
1
60
1
100
AcDbLine
10
21.853209
20
-14.818132
30
0
11
24.725242
21
-12.765394
31
0
39
0
210
0
220
0
230
1
0
LINE
5
B4
100
AcDbEntity
8
1
62
256
6
ByLayer
370
18
48
1
60
1
100
AcDbLine
10
24.725242
20
-12.765394
30
0
11
25.158671
21
-13.578675
31
0
39
0
210
0
220
0
230
1
0
LINE
5
B5
100
AcDbEntity
8
1
62
256
6
ByLayer
370
18
48
1
60
1
100
AcDbLine
10
25.158671
20
-13.578675
30
0
11
21.853209
21
-14.818132
31
0
39
0
210
0
220
0
230
1
0
LINE
5
B6
100
AcDbEntity
8
1
62
256
6
ByLayer
370
18
48
1
60
1
100
AcDbLine
10
21.853209
20
14.818132
30
0
11
25.158668
21
13.578677
31
0
39
0
210
0
220
0
230
1
0
LINE
5
B7
100
AcDbEntity
8
1
62
256
6
ByLayer
370
18
48
1
60
1
100
AcDbLine
10
25.158668
20
13.578677
30
0
11
24.725245
21
12.765392
31
0
39
0
210
0
220
0
230
1
0
LINE
5
B8
100
AcDbEntity
8
1
62
256
6
ByLayer
370
18
48
1
60
1
100
AcDbLine
10
24.725245
20
12.765392
30
0
11
21.853209
21
14.818132
31
0
39
0
210
0
220
0
230
1
0
LINE
5
CF
100
AcDbEntity
8
1
62
256
6
ByLayer
370
18
48
1
60
1
100
AcDbLine
10
-27.5566
20
-1.5
30
0
11
-27.095816
21
-4.999998
31
0
39
0
210
0
220
0
230
1
0
LINE
5
D0
100
AcDbEntity
8
1
62
256
6
ByLayer
370
18
48
1
60
1
100
AcDbLine
10
-27.095816
20
-4.999998
30
0
11
-28.017384
21
-5.000002
31
0
39
0
210
0
220
0
230
1
0
LINE
5
D1
100
AcDbEntity
8
1
62
256
6
ByLayer
370
18
48
1
60
1
100
AcDbLine
10
-28.017384
20
-5.000002
30
0
11
-27.5566
21
-1.5
31
0
39
0
210
0
220
0
230
1
0
LINE
5
D3
100
AcDbEntity
8
1
62
256
6
ByLayer
370
18
48
1
60
1
100
AcDbLine
10
-27.5566
20
1.5
30
0
11
-28.017384
21
4.999998
31
0
39
0
210
0
220
0
230
1
0
LINE
5
D4
100
AcDbEntity
8
1
62
256
6
ByLayer
370
18
48
1
60
1
100
AcDbLine
10
-28.017384
20
4.999998
30
0
11
-27.095816
21
5.000002
31
0
39
0
210
0
220
0
230
1
0
LINE
5
D5
100
AcDbEntity
8
1
62
256
6
ByLayer
370
18
48
1
60
1
100
AcDbLine
10
-27.095816
20
5.000002
30
0
11
-27.5566
21
1.5
31
0
39
0
210
0
220
0
230
1
0
LINE
5
D9
100
AcDbEntity
8
1
62
256
6
ByLayer
370
18
48
1
60
1
100
AcDbLine
10
20.4434
20
-1.11
30
0
11
20.904184
21
-4.609998
31
0
39
0
210
0
220
0
230
1
0
LINE
5
DA
100
AcDbEntity
8
1
62
256
6
ByLayer
370
18
48
1
60
1
100
AcDbLine
10
20.904184
20
-4.609998
30
0
11
19.982616
21
-4.610002
31
0
39
0
210
0
220
0
230
1
0
LINE
5
DB
100
AcDbEntity
8
1
62
256
6
ByLayer
370
18
48
1
60
1
100
AcDbLine
10
19.982616
20
-4.610002
30
0
11
20.4434
21
-1.11
31
0
39
0
210
0
220
0
230
1
0
LINE
5
DD
100
AcDbEntity
8
1
62
256
6
ByLayer
370
18
48
1
60
1
100
AcDbLine
10
20.4434
20
1.11
30
0
11
19.982616
21
4.609998
31
0
39
0
210
0
220
0
230
1
0
LINE
5
DE
100
AcDbEntity
8
1
62
256
6
ByLayer
370
18
48
1
60
1
100
AcDbLine
10
19.982616
20
4.609998
30
0
11
20.904184
21
4.610002
31
0
39
0
210
0
220
0
230
1
0
LINE
5
DF
100
AcDbEntity
8
1
62
256
6
ByLayer
370
18
48
1
60
1
100
AcDbLine
10
20.904184
20
4.610002
30
0
11
20.4434
21
1.11
31
0
39
0
210
0
220
0
230
1
0
LINE
5
E2
100
AcDbEntity
8
1
62
256
6
ByLayer
370
18
48
1
60
1
100
AcDbLine
10
21.853209
20
-14.818132
30
0
11
24.725242
21
-12.765394
31
0
39
0
210
0
220
0
230
1
0
LINE
5
E3
100
AcDbEntity
8
1
62
256
6
ByLayer
370
18
48
1
60
1
100
AcDbLine
10
24.725242
20
-12.765394
30
0
11
25.158671
21
-13.578675
31
0
39
0
210
0
220
0
230
1
0
LINE
5
E4
100
AcDbEntity
8
1
62
256
6
ByLayer
370
18
48
1
60
1
100
AcDbLine
10
25.158671
20
-13.578675
30
0
11
21.853209
21
-14.818132
31
0
39
0
210
0
220
0
230
1
0
LINE
5
E6
100
AcDbEntity
8
1
62
256
6
ByLayer
370
18
48
1
60
1
100
AcDbLine
10
21.853209
20
14.818132
30
0
11
25.158668
21
13.578677
31
0
39
0
210
0
220
0
230
1
0
LINE
5
E7
100
AcDbEntity
8
1
62
256
6
ByLayer
370
18
48
1
60
1
100
AcDbLine
10
25.158668
20
13.578677
30
0
11
24.725245
21
12.765392
31
0
39
0
210
0
220
0
230
1
0
LINE
5
E8
100
AcDbEntity
8
1
62
256
6
ByLayer
370
18
48
1
60
1
100
AcDbLine
10
24.725245
20
12.765392
30
0
11
21.853209
21
14.818132
31
0
39
0
210
0
220
0
230
1
0
MTEXT
5
CB
100
AcDbEntity
8
SK2
62
256
6
ByLayer
370
18
48
1
60
0
100
AcDbMText
10
-28.897714
20
6.658437
30
0
210
0
220
0
230
1
1
%%c
40
3
41
0
44
1.084337
50
90
71
7
72
5
7
iso_b_vert
0
MTEXT
5
CE
100
AcDbEntity
8
SK2
62
256
6
ByLayer
370
18
48
1
60
0
100
AcDbMText
10
-28.897714
20
12.635
30
0
210
0
220
0
230
1
1
\W0.7468;3.000
40
3
41
0
44
1.084337
50
90
71
7
72
5
7
iso_b_vert
0
MTEXT
5
D7
100
AcDbEntity
8
2
62
256
6
ByLayer
370
18
48
1
60
0
100
AcDbMText
10
19.102286
20
14.548437
30
0
210
0
220
0
230
1
1
%%c
40
3
41
0
44
1.084337
50
90
71
7
72
5
7
iso_b_vert
0
MTEXT
5
D8
100
AcDbEntity
8
2
62
256
6
ByLayer
370
18
48
1
60
0
100
AcDbMText
10
19.102286
20
20.525
30
0
210
0
220
0
230
1
1
\W0.7468;2.220
40
3
41
0
44
1.084337
50
90
71
7
72
5
7
iso_b_vert
0
MTEXT
5
E1
100
AcDbEntity
8
SK2
62
256
6
ByLayer
370
18
48
1
60
0
100
AcDbMText
10
28.010686
20
-2.114886
30
0
210
0
220
0
230
1
1
\W0.6747;130%%d
40
3
41
0
44
1.084337
50
0
71
7
72
5
7
iso_b_vert
0
MTEXT
5
EA
100
AcDbEntity
8
SK6
62
256
6
ByLayer
370
18
48
1
60
0
100
AcDbMText
10
-32.238139
20
-48.114886
30
0
210
0
220
0
230
1
1
\W0.7776;462.1-0222-009A0-XM X0BM
40
3
41
0
44
1.084337
50
0
71
7
72
5
7
iso_b_vert
0
HATCH
5
D2
100
AcDbEntity
8
SK2
62
256
6
ByLayer
370
13
48
1
60
0
100
AcDbHatch
10
0
20
0
30
0
210
0
220
0
230
1
2
ANSI31
70
0
71
0
91
1
92
5
93
3
72
1
10
-27.5566
20
-1.5
11
-27.0958162584472
21
-4.99999830744682
72
1
10
-27.0958162584472
20
-4.99999830744682
11
-28.0173837415528
21
-5.00000169255318
72
1
10
-28.0173837415528
20
-5.00000169255318
11
-27.5566
21
-1.5
97
0
75
0
76
1
52
0
41
0.0062
77
0
78
1
53
45
43
0
44
0
45
-0.0139193969876572
46
0.0139193969876572
79
0
47
0
98
1
10
0
20
0
0
HATCH
5
D6
100
AcDbEntity
8
SK2
62
256
6
ByLayer
370
13
48
1
60
0
100
AcDbHatch
10
0
20
0
30
0
210
0
220
0
230
1
2
ANSI31
70
0
71
0
91
1
92
5
93
3
72
1
10
-27.5566
20
1.5
11
-28.0173837415528
21
4.99999830744682
72
1
10
-28.0173837415528
20
4.99999830744682
11
-27.0958162584472
21
5.00000169255318
72
1
10
-27.0958162584472
20
5.00000169255318
11
-27.5566
21
1.5
97
0
75
0
76
1
52
0
41
0.0062
77
0
78
1
53
45
43
0
44
0
45
-0.0139193969876572
46
0.0139193969876572
79
0
47
0
98
1
10
0
20
0
0
HATCH
5
DC
100
AcDbEntity
8
2
62
256
6
ByLayer
370
13
48
1
60
0
100
AcDbHatch
10
0
20
0
30
0
210
0
220
0
230
1
2
ANSI31
70
0
71
0
91
1
92
5
93
3
72
1
10
20.4434
20
-1.11000000000001
11
20.9041837415528
21
-4.60999830744683
72
1
10
20.9041837415528
20
-4.60999830744683
11
19.9826162584472
21
-4.6100016925532
72
1
10
19.9826162584472
20
-4.6100016925532
11
20.4434
21
-1.11000000000001
97
0
75
0
76
1
52
0
41
0.0062
77
0
78
1
53
45
43
0
44
0
45
-0.0139193969876572
46
0.0139193969876572
79
0
47
0
98
1
10
0
20
0
0
HATCH
5
E0
100
AcDbEntity
8
2
62
256
6
ByLayer
370
13
48
1
60
0
100
AcDbHatch
10
0
20
0
30
0
210
0
220
0
230
1
2
ANSI31
70
0
71
0
91
1
92
5
93
3
72
1
10
20.4434
20
1.11000000000001
11
19.9826162584472
21
4.60999830744683
72
1
10
19.9826162584472
20
4.60999830744683
11
20.9041837415528
21
4.6100016925532
72
1
10
20.9041837415528
20
4.6100016925532
11
20.4434
21
1.11000000000001
97
0
75
0
76
1
52
0
41
0.0062
77
0
78
1
53
45
43
0
44
0
45
-0.0139193969876572
46
0.0139193969876572
79
0
47
0
98
1
10
0
20
0
0
HATCH
5
E5
100
AcDbEntity
8
SK2
62
256
6
ByLayer
370
13
48
1
60
0
100
AcDbHatch
10
0
20
0
30
0
210
0
220
0
230
1
2
ANSI31
70
0
71
0
91
1
92
5
93
3
72
1
10
21.8532085794604
20
-14.8181323180492
11
24.7252418553693
21
-12.765393983365
72
1
10
24.7252418553693
20
-12.765393983365
11
25.1586706127348
21
-13.5786750775861
72
1
10
25.1586706127348
20
-13.5786750775861
11
21.8532085794604
21
-14.8181323180492
97
0
75
0
76
1
52
0
41
0.0062
77
0
78
1
53
45
43
0
44
0
45
-0.0139193969876572
46
0.0139193969876572
79
0
47
0
98
1
10
0
20
0
0
HATCH
5
E9
100
AcDbEntity
8
SK2
62
256
6
ByLayer
370
13
48
1
60
0
100
AcDbHatch
10
0
20
0
30
0
210
0
220
0
230
1
2
ANSI31
70
0
71
0
91
1
92
5
93
3
72
1
10
21.8532085794604
20
14.8181323180492
11
25.1586676253807
21
13.5786766696479
72
1
10
25.1586676253807
20
13.5786766696479
11
24.7252448427234
21
12.7653923913032
72
1
10
24.7252448427234
20
12.7653923913032
11
21.8532085794604
21
14.8181323180492
97
0
75
0
76
1
52
0
41
0.0062
77
0
78
1
53
45
43
0
44
0
45
-0.0139193969876572
46
0.0139193969876572
79
0
47
0
98
1
10
0
20
0
0
DIMENSION
5
ED
100
AcDbEntity
8
SK2
62
256
6
ByLayer
370
18
48
1
60
0
100
AcDbDimension
2
_U0
10
14.9434
20
-39.1496
30
0
11
-4.0566
21
-39.1496
31
0
70
32
71
1
72
1
41
1
210
0
220
0
230
1
3
Standard
100
AcDbAlignedDimension
13
-23.0566
23
1.5
33
0
14
14.9434
24
1.11
34
0
50
0
100
AcDbRotatedDimension
1001
ACAD
1000
DSTYLE
1002
{
1070
   371
1070
    13
1070
   372
1070
    13
1070
     3
1000

1070
   170
1070
     0
1070
   144
1040
1.0
1070
   277
1070
     2
1070
   284
1070
     8
1070
   278
1070
    46
1070
   146
1040
1.166667
1070
   345
1005
16
1070
   347
1005
16
1070
   346
1005
16
1070
   344
1005
0
1070
   343
1005
0
1070
   172
1070
     1
1070
    76
1070
     0
1070
    75
1070
     0
1070
   282
1070
     0
1070
   281
1070
     0
1070
    71
1070
     0
1070
    74
1070
     0
1070
   279
1070
     0
1070
   173
1070
     1
1070
   340
1005
CC
1070
   271
1070
     2
1070
   272
1070
     2
1070
    77
1070
     1
1070
    73
1070
     1
1070
   171
1070
     3
1070
   274
1070
     4
1070
   177
1070
     2
1070
   176
1070
     2
1070
   178
1070
     2
1070
    78
1070
     8
1070
    48
1040
-0.1
1070
    41
1040
3.5
1070
   147
1040
1.5
1070
    42
1040
1.5875
1070
    44
1040
2.0
1070
   140
1040
3.0
1002
}
1001
ACAD_DSTYLE_DIM_LINETYPE
1070
   380
1005
16
1001
ACAD_DSTYLE_DIM_EXT1_LINETYPE
1070
   381
1005
16
1001
ACAD_DSTYLE_DIM_EXT2_LINETYPE
1070
   382
1005
16
0
DIMENSION
5
106
100
AcDbEntity
8
SK2
62
256
6
ByLayer
370
18
48
1
60
0
100
AcDbDimension
2
_U1
10
5.7734
20
-22.61
30
0
11
31.014829
21
-22.61
31
0
70
32
71
1
72
1
41
1
210
0
220
0
230
1
3
Standard
100
AcDbAlignedDimension
13
14.9434
23
1.11
33
0
14
5.7734
24
0
34
0
50
0
100
AcDbRotatedDimension
1001
ACAD
1000
DSTYLE
1002
{
1070
   371
1070
    13
1070
   372
1070
    13
1070
     3
1000

1070
   170
1070
     0
1070
   144
1040
1.0
1070
   277
1070
     2
1070
   284
1070
     8
1070
   278
1070
    46
1070
   146
1040
1.166667
1070
   345
1005
16
1070
   347
1005
16
1070
   346
1005
16
1070
   344
1005
0
1070
   343
1005
0
1070
   172
1070
     1
1070
    76
1070
     0
1070
    75
1070
     0
1070
   282
1070
     0
1070
   281
1070
     0
1070
    71
1070
     0
1070
    74
1070
     0
1070
   279
1070
     0
1070
   173
1070
     1
1070
   340
1005
CC
1070
   271
1070
     2
1070
   272
1070
     2
1070
    77
1070
     1
1070
    73
1070
     1
1070
   171
1070
     3
1070
   274
1070
     4
1070
   177
1070
     2
1070
   176
1070
     2
1070
   178
1070
     2
1070
    78
1070
     8
1070
    48
1040
-0.1
1070
    41
1040
3.5
1070
   147
1040
1.5
1070
    42
1040
1.5875
1070
    44
1040
2.0
1070
   140
1040
3.0
1002
}
1001
ACAD_DSTYLE_DIM_LINETYPE
1070
   380
1005
16
1001
ACAD_DSTYLE_DIM_EXT1_LINETYPE
1070
   381
1005
16
1001
ACAD_DSTYLE_DIM_EXT2_LINETYPE
1070
   382
1005
16
0
DIMENSION
5
120
100
AcDbEntity
8
SK2
62
256
6
ByLayer
370
18
48
1
60
0
100
AcDbDimension
2
_U2
10
2.4434
20
-30.6496
30
0
11
8.6934
21
-30.6496
31
0
70
32
71
1
72
1
41
1
210
0
220
0
230
1
3
Standard
100
AcDbAlignedDimension
13
14.9434
23
1.11
33
0
14
2.4434
24
0
34
0
50
0
100
AcDbRotatedDimension
1001
ACAD
1000
DSTYLE
1002
{
1070
   371
1070
    13
1070
   372
1070
    13
1070
     3
1000

1070
   170
1070
     0
1070
   144
1040
1.0
1070
   277
1070
     2
1070
   284
1070
     8
1070
   278
1070
    46
1070
   146
1040
1.166667
1070
   345
1005
16
1070
   347
1005
16
1070
   346
1005
16
1070
   344
1005
0
1070
   343
1005
0
1070
   172
1070
     1
1070
    76
1070
     0
1070
    75
1070
     0
1070
   282
1070
     0
1070
   281
1070
     0
1070
    71
1070
     0
1070
    74
1070
     0
1070
   279
1070
     0
1070
   173
1070
     1
1070
   340
1005
CC
1070
   271
1070
     2
1070
   272
1070
     2
1070
    77
1070
     1
1070
    73
1070
     1
1070
   171
1070
     3
1070
   274
1070
     4
1070
   177
1070
     2
1070
   176
1070
     2
1070
   178
1070
     2
1070
    78
1070
     8
1070
    48
1040
-0.1
1070
    41
1040
3.5
1070
   147
1040
1.5
1070
    42
1040
1.5875
1070
    44
1040
2.0
1070
   140
1040
3.0
1002
}
1001
ACAD_DSTYLE_DIM_LINETYPE
1070
   380
1005
16
1001
ACAD_DSTYLE_DIM_EXT1_LINETYPE
1070
   381
1005
16
1001
ACAD_DSTYLE_DIM_EXT2_LINETYPE
1070
   382
1005
16
0
DIMENSION
5
139
100
AcDbEntity
8
SK2
62
256
6
ByLayer
370
18
48
1
60
0
100
AcDbDimension
2
_U3
10
0
20
11.6496
30
0
11
-11.5283
21
11.6496
31
0
70
32
71
1
72
1
41
1
210
0
220
0
230
1
3
Standard
100
AcDbAlignedDimension
13
-23.0566
23
0
33
0
14
0
24
0
34
0
50
0
100
AcDbRotatedDimension
1001
ACAD
1000
DSTYLE
1002
{
1070
   371
1070
    13
1070
   372
1070
    13
1070
     3
1000

1070
   170
1070
     0
1070
   144
1040
1.0
1070
   277
1070
     2
1070
   284
1070
     8
1070
   278
1070
    46
1070
   146
1040
1.166667
1070
   345
1005
16
1070
   347
1005
16
1070
   346
1005
16
1070
   344
1005
0
1070
   343
1005
0
1070
   172
1070
     1
1070
    76
1070
     0
1070
    75
1070
     0
1070
   282
1070
     0
1070
   281
1070
     0
1070
    71
1070
     0
1070
    74
1070
     0
1070
   279
1070
     0
1070
   173
1070
     1
1070
   340
1005
CC
1070
   271
1070
     2
1070
   272
1070
     2
1070
    77
1070
     1
1070
    73
1070
     1
1070
   171
1070
     3
1070
   274
1070
     4
1070
   177
1070
     2
1070
   176
1070
     2
1070
   178
1070
     2
1070
    78
1070
     8
1070
    48
1040
-0.1
1070
    41
1040
3.5
1070
   147
1040
1.5
1070
    42
1040
1.5875
1070
    44
1040
2.0
1070
   140
1040
3.0
1002
}
1001
ACAD_DSTYLE_DIM_LINETYPE
1070
   380
1005
16
1001
ACAD_DSTYLE_DIM_EXT1_LINETYPE
1070
   381
1005
16
1001
ACAD_DSTYLE_DIM_EXT2_LINETYPE
1070
   382
1005
16
0
DIMENSION
5
151
100
AcDbEntity
8
2
62
256
6
ByLayer
370
18
48
1
60
0
100
AcDbDimension
2
_U4
10
0
20
11.6496
30
0
11
7.4717
21
11.6496
31
0
70
32
71
1
72
1
41
1
210
0
220
0
230
1
3
Standard
100
AcDbAlignedDimension
13
14.9434
23
1.11
33
0
14
0
24
0
34
0
50
0
100
AcDbRotatedDimension
1001
ACAD
1000
DSTYLE
1002
{
1070
   371
1070
    13
1070
   372
1070
    13
1070
     3
1000

1070
   170
1070
     0
1070
   144
1040
1.0
1070
   277
1070
     2
1070
   284
1070
     8
1070
   278
1070
    46
1070
   146
1040
1.166667
1070
   345
1005
16
1070
   347
1005
16
1070
   346
1005
16
1070
   344
1005
0
1070
   343
1005
0
1070
   172
1070
     1
1070
    76
1070
     0
1070
    75
1070
     0
1070
   282
1070
     0
1070
   281
1070
     0
1070
    71
1070
     0
1070
    74
1070
     0
1070
   279
1070
     0
1070
   173
1070
     1
1070
   340
1005
CC
1070
   271
1070
     2
1070
   272
1070
     2
1070
    77
1070
     1
1070
    73
1070
     1
1070
   171
1070
     3
1070
   274
1070
     4
1070
   177
1070
     2
1070
   176
1070
     2
1070
   178
1070
     2
1070
    78
1070
     8
1070
    48
1040
-0.1
1070
    41
1040
3.5
1070
   147
1040
1.5
1070
    42
1040
1.5875
1070
    44
1040
2.0
1070
   140
1040
3.0
1002
}
1001
ACAD_DSTYLE_DIM_LINETYPE
1070
   380
1005
16
1001
ACAD_DSTYLE_DIM_EXT1_LINETYPE
1070
   381
1005
16
1001
ACAD_DSTYLE_DIM_EXT2_LINETYPE
1070
   382
1005
16
0
ENDSEC
0
SECTION
2
OBJECTS
0
DICTIONARY
5
1da
330
0
100
AcDbDictionary
280
0
281
1
3
ACAD_GROUP
350
1db
3
ACAD_MLINESTYLE
350
1dc
0
DICTIONARY
5
1db
330
0
100
AcDbDictionary
280
0
281
1
0
DICTIONARY
5
1dc
330
0
100
AcDbDictionary
280
0
281
1
3
Standard
350
18
0
MLINESTYLE
5
18
330
1dc
100
AcDbMlineStyle
2
Standard
70
0
3

62
256
51
90
52
90
71
2
49
-0.5
62
256
6
ByLayer
49
0.5
62
256
6
ByLayer
0
RASTERVARIABLES
5
1c8
330

100
AcDbRasterVariables
90
0
70
1
71
1
72
1
0
ENDSEC
0
EOF
