0
SECTION
2
HEADER
9
$ACADVER
1
AC1015
9
$DWGCODEPAGE
3
ANSI_1252
9
$HANDSEED
5
1e4
9
$ANGBASE
50
0
9
$ANGDIR
70
0
9
$ATTMODE
70
1
9
$AUNITS
70
0
9
$AUPREC
70
0
9
$CECOLOR
62
256
9
$CELTSCALE
40
1
9
$CELTYPE
6
ByLayer
9
$CELWEIGHT
370
18
9
$CLAYER
8
0
9
$CMLJUST
70
0
9
$CMLSCALE
40
1
9
$CMLSTYLE
2
Standard
9
$DIMSTYLE
2
Standard
9
$TEXTSIZE
40
0.2
9
$TEXTSTYLE
7
Standard
9
$LUNITS
70
2
9
$LUPREC
70
4
9
$EXTNAMES
290
1
9
$INSUNITS
70
4
9
$LTSCALE
40
1
9
$LWDISPLAY
290
1
9
$PDMODE
70
0
9
$PDSIZE
40
0
9
$PLINEGEN
70
0
0
ENDSEC
0
SECTION
2
CLASSES
0
CLASS
1
RASTERVARIABLES
2
AcDbRasterVariables
3
ISM
90
0
280
0
281
0
0
ENDSEC
0
SECTION
2
TABLES
0
TABLE
2
VPORT
5
1da
100
AcDbSymbolTable
0
VPORT
5
1
100
AcDbSymbolTableRecord
100
AcDbViewportTableRecord
2
*Active
70
0
10
0
20
0
11
1
21
1
12
-1
22
1
13
0
23
0
14
0.5
24
0.5
15
10
25
10
16
0
26
0
36
1
17
0
27
0
37
0
0
ENDTAB
0
TABLE
2
LTYPE
5
1db
100
AcDbSymbolTable
0
LTYPE
5
14
100
AcDbSymbolTableRecord
100
AcDbLinetypeTableRecord
70
0
2
ByBlock
3

72
65
73
0
40
0
0
LTYPE
5
15
100
AcDbSymbolTableRecord
100
AcDbLinetypeTableRecord
70
0
2
ByLayer
3

72
65
73
0
40
0
0
LTYPE
5
16
100
AcDbSymbolTableRecord
100
AcDbLinetypeTableRecord
70
0
2
Continuous
3
Solid line
72
65
73
0
40
0
0
LTYPE
5
6E
100
AcDbSymbolTableRecord
100
AcDbLinetypeTableRecord
70
0
2
CENTER
3
____ _ ____ _ ____ _ ____
72
65
73
4
40
47.5
49
22
74
0
49
-8.5
74
0
49
8.5
74
0
49
-8.5
74
0
0
LTYPE
5
6F
100
AcDbSymbolTableRecord
100
AcDbLinetypeTableRecord
70
0
2
DASHED
3
__ __ __ __ __ __ __ __ __
72
65
73
2
40
25.72
49
12.86
74
0
49
-12.86
74
0
0
ENDTAB
0
TABLE
2
LAYER
5
1dc
100
AcDbSymbolTable
0
LAYER
5
10
100
AcDbSymbolTableRecord
100
AcDbLayerTableRecord
2
0
70
0
62
7
6
Continuous
290
1
370
-3
390
0
0
LAYER
5
71
100
AcDbSymbolTableRecord
100
AcDbLayerTableRecord
2
80
70
0
62
-6
6
Continuous
290
1
370
-3
390
0
0
LAYER
5
73
100
AcDbSymbolTableRecord
100
AcDbLayerTableRecord
2
81
70
0
62
-3
6
Continuous
290
1
370
-3
390
0
0
LAYER
5
75
100
AcDbSymbolTableRecord
100
AcDbLayerTableRecord
2
1
70
0
62
4
6
Continuous
290
1
370
-3
390
0
0
LAYER
5
94
100
AcDbSymbolTableRecord
100
AcDbLayerTableRecord
2
4
70
0
62
-2
6
CENTER
290
1
370
-3
390
0
0
LAYER
5
A4
100
AcDbSymbolTableRecord
100
AcDbLayerTableRecord
2
2
70
0
62
7
6
Continuous
290
1
370
-3
390
0
0
LAYER
5
EE
100
AcDbSymbolTableRecord
100
AcDbLayerTableRecord
2
Defpoints
70
0
62
7
6
Continuous
290
0
370
-3
390
0
0
LAYER
5
1c6
100
AcDbSymbolTableRecord
100
AcDbLayerTableRecord
2
SK1
70
0
62
4
6
Continuous
290
1
370
-3
390
0
0
LAYER
5
1c7
100
AcDbSymbolTableRecord
100
AcDbLayerTableRecord
2
SK4
70
0
62
2
6
CENTER
290
1
370
-3
390
0
0
LAYER
5
1c8
100
AcDbSymbolTableRecord
100
AcDbLayerTableRecord
2
SK2
70
0
62
7
6
Continuous
290
1
370
-3
390
0
0
LAYER
5
1c9
100
AcDbSymbolTableRecord
100
AcDbLayerTableRecord
2
SK6
70
0
62
5
6
Continuous
290
1
370
-3
390
0
0
ENDTAB
0
TABLE
2
STYLE
5
1dd
100
AcDbSymbolTable
0
STYLE
5
11
100
AcDbSymbolTableRecord
100
AcDbTextStyleTableRecord
2
Standard
3
txt
70
0
71
0
40
0
41
1
42
0
50
0
0
STYLE
5
CA
100
AcDbSymbolTableRecord
100
AcDbTextStyleTableRecord
2
iso_b_vert
3
simplex.shx
70
0
71
0
40
0
41
1
42
0
50
0
0
STYLE
5
CB
100
AcDbSymbolTableRecord
100
AcDbTextStyleTableRecord
2
DWGDirectTextStyle
3
simplex
70
0
71
0
40
0
41
1
42
0
50
0
0
ENDTAB
0
TABLE
2
DIMSTYLE
5
1de
100
AcDbSymbolTable
100
AcDbDimStyleTable
0
DIMSTYLE
105
27
100
AcDbSymbolTableRecord
100
AcDbDimStyleTableRecord
2
Standard
70
0
3
<>
41
0.18
42
0.0625
44
0.18
140
0.18
147
0.09
73
0
74
0
77
1
271
2
275
0
278
52
280
0
340
11
0
ENDTAB
0
TABLE
2
VIEW
5
1df
100
AcDbSymbolTable
0
ENDTAB
0
TABLE
2
UCS
5
1e0
100
AcDbSymbolTable
0
ENDTAB
0
TABLE
2
APPID
5
1e1
100
AcDbSymbolTable
0
APPID
5
12
100
AcDbSymbolTableRecord
100
AcDbRegAppTableRecord
2
ACAD
70
0
0
APPID
5
EA
100
AcDbSymbolTableRecord
100
AcDbRegAppTableRecord
2
ACAD_DSTYLE_DIMBREAK
70
0
0
APPID
5
185
100
AcDbSymbolTableRecord
100
AcDbRegAppTableRecord
2
ACAD_DSTYLE_DIM_LINETYPE
70
0
0
APPID
5
186
100
AcDbSymbolTableRecord
100
AcDbRegAppTableRecord
2
ACAD_DSTYLE_DIM_EXT1_LINETYPE
70
0
0
APPID
5
187
100
AcDbSymbolTableRecord
100
AcDbRegAppTableRecord
2
ACAD_DSTYLE_DIM_EXT2_LINETYPE
70
0
0
APPID
5
1C2
100
AcDbSymbolTableRecord
100
AcDbRegAppTableRecord
2
ACAD_MLEADERVER
70
0
0
ENDTAB
0
TABLE
2
BLOCK_RECORD
5
1e2
100
AcDbSymbolTable
0
BLOCK_RECORD
5
1F
100
AcDbSymbolTableRecord
100
AcDbBlockTableRecord
2
*Model_Space
340
0
70
0
0
BLOCK_RECORD
5
1B
100
AcDbSymbolTableRecord
100
AcDbBlockTableRecord
2
*Paper_Space
340
0
70
0
0
BLOCK_RECORD
5
23
100
AcDbSymbolTableRecord
100
AcDbBlockTableRecord
2
*Paper_Space0
340
0
70
0
0
BLOCK_RECORD
5
EF
100
AcDbSymbolTableRecord
100
AcDbBlockTableRecord
2
*D1
340
0
70
0
0
BLOCK_RECORD
5
FB
100
AcDbSymbolTableRecord
100
AcDbBlockTableRecord
2
_U0
340
0
70
0
0
BLOCK_RECORD
5
107
100
AcDbSymbolTableRecord
100
AcDbBlockTableRecord
2
*D3
340
0
70
0
0
BLOCK_RECORD
5
115
100
AcDbSymbolTableRecord
100
AcDbBlockTableRecord
2
_U1
340
0
70
0
0
BLOCK_RECORD
5
121
100
AcDbSymbolTableRecord
100
AcDbBlockTableRecord
2
*D5
340
0
70
0
0
BLOCK_RECORD
5
12E
100
AcDbSymbolTableRecord
100
AcDbBlockTableRecord
2
_U2
340
0
70
0
0
BLOCK_RECORD
5
13A
100
AcDbSymbolTableRecord
100
AcDbBlockTableRecord
2
*D7
340
0
70
0
0
BLOCK_RECORD
5
146
100
AcDbSymbolTableRecord
100
AcDbBlockTableRecord
2
_U3
340
0
70
0
0
BLOCK_RECORD
5
152
100
AcDbSymbolTableRecord
100
AcDbBlockTableRecord
2
*D9
340
0
70
0
0
BLOCK_RECORD
5
15E
100
AcDbSymbolTableRecord
100
AcDbBlockTableRecord
2
_U4
340
0
70
0
0
ENDTAB
0
ENDSEC
0
SECTION
2
BLOCKS
0
BLOCK
5
20
100
AcDbEntity
8
0
100
AcDbBlockBegin
2
*Model_Space
70
0
10
0
20
0
30
0
3
*Model_Space
0
ENDBLK
5
21
100
AcDbEntity
8
0
100
AcDbBlockEnd
0
BLOCK
5
1C
100
AcDbEntity
8
0
100
AcDbBlockBegin
2
*Paper_Space
70
0
10
0
20
0
30
0
3
*Paper_Space
0
ENDBLK
5
1D
100
AcDbEntity
8
0
100
AcDbBlockEnd
0
BLOCK
5
24
100
AcDbEntity
8
0
100
AcDbBlockBegin
2
*Paper_Space0
70
0
10
0
20
0
30
0
3
*Paper_Space0
0
ENDBLK
5
25
100
AcDbEntity
8
0
100
AcDbBlockEnd
0
BLOCK
5
F0
100
AcDbEntity
8
0
100
AcDbBlockBegin
2
*D1
70
1
10
0
20
0
30
0
3
*D1
0
LINE
5
F2
100
AcDbEntity
8
0
62
256
6
ByLayer
370
-2
48
1
60
0
100
AcDbLine
10
-20.4498
20
-0.0875
30
0
11
-20.4498
21
-41.018731
31
0
39
0
210
0
220
0
230
1
0
LINE
5
F3
100
AcDbEntity
8
0
62
256
6
ByLayer
370
-2
48
1
60
0
100
AcDbLine
10
17.5502
20
-0.2525
30
0
11
17.5502
21
-41.018731
31
0
39
0
210
0
220
0
230
1
0
LINE
5
F4
100
AcDbEntity
8
0
62
256
6
ByLayer
370
-2
48
1
60
0
100
AcDbLine
10
-16.9498
20
-39.018731
30
0
11
14.0502
21
-39.018731
31
0
39
0
210
0
220
0
230
1
0
SOLID
5
F5
100
AcDbEntity
8
0
62
256
6
ByLayer
370
-1
48
1
60
0
100
AcDbTrace
10
-16.9498
20
-38.435397
30
0
11
-16.9498
21
-39.602064
31
0
12
-20.4498
22
-39.018731
32
0
13
-20.4498
23
-39.018731
33
0
39
0
210
0
220
0
230
1
0
SOLID
5
F6
100
AcDbEntity
8
0
62
256
6
ByLayer
370
-1
48
1
60
0
100
AcDbTrace
10
14.0502
20
-39.602064
30
0
11
14.0502
21
-38.435397
31
0
12
17.5502
22
-39.018731
32
0
13
17.5502
23
-39.018731
33
0
39
0
210
0
220
0
230
1
0
MTEXT
5
F7
100
AcDbEntity
8
0
62
256
6
ByLayer
370
18
48
1
60
0
100
AcDbMText
10
-1.4498
20
-33.018731
30
0
210
0
220
0
230
1
1
\A1;38
40
3
41
0
44
1
50
0
71
5
72
5
7
iso_b_vert
0
POINT
5
F8
100
AcDbEntity
8
Defpoints
62
0
6
ByLayer
370
-1
48
1
60
0
100
AcDbPoint
10
-20.4498
20
1.5
30
0
39
0
210
0
220
0
230
1
50
360
0
POINT
5
F9
100
AcDbEntity
8
Defpoints
62
0
6
ByLayer
370
-1
48
1
60
0
100
AcDbPoint
10
17.5502
20
1.335
30
0
39
0
210
0
220
0
230
1
50
360
0
POINT
5
FA
100
AcDbEntity
8
Defpoints
62
0
6
ByLayer
370
-1
48
1
60
0
100
AcDbPoint
10
17.5502
20
-39.018731
30
0
39
0
210
0
220
0
230
1
50
360
0
ENDBLK
5
F1
100
AcDbEntity
8
0
100
AcDbBlockEnd
0
BLOCK
5
102
100
AcDbEntity
8
0
100
AcDbBlockBegin
2
_U0
70
0
10
0
20
0
30
0
3
_U0
0
MTEXT
5
FC
100
AcDbEntity
8
SK2
62
256
6
ByLayer
370
18
48
1
60
0
100
AcDbMText
10
-5.93217
20
-38.133616
30
0
210
0
220
0
230
1
1
\W0.7468;38.00
40
3
41
0
44
1.084337
50
0
71
7
72
5
7
iso_b_vert
0
LINE
5
FD
100
AcDbEntity
8
SK2
62
256
6
ByLayer
370
13
48
1
60
0
100
AcDbLine
10
-20.4498
20
-0.0875
30
0
11
-20.4498
21
-41.018731
31
0
39
0
210
0
220
0
230
1
0
LINE
5
FE
100
AcDbEntity
8
SK2
62
256
6
ByLayer
370
13
48
1
60
0
100
AcDbLine
10
17.5502
20
-0.2525
30
0
11
17.5502
21
-41.018731
31
0
39
0
210
0
220
0
230
1
0
LINE
5
FF
100
AcDbEntity
8
SK2
62
256
6
ByLayer
370
13
48
1
60
0
100
AcDbLine
10
-20.4498
20
-39.018731
30
0
11
17.5502
21
-39.018731
31
0
39
0
210
0
220
0
230
1
0
SOLID
5
100
100
AcDbEntity
8
SK2
62
256
6
ByLayer
370
18
48
1
60
0
100
AcDbTrace
10
-20.4498
20
-39.018731
30
0
11
-16.949802
21
-38.557947
31
0
12
-16.949798
22
-39.479515
32
0
13
-16.949798
23
-39.479515
33
0
39
0
210
0
220
0
230
1
0
SOLID
5
101
100
AcDbEntity
8
SK2
62
256
6
ByLayer
370
18
48
1
60
0
100
AcDbTrace
10
17.5502
20
-39.018731
30
0
11
14.050202
21
-39.479515
31
0
12
14.050198
22
-38.557947
32
0
13
14.050198
23
-38.557947
33
0
39
0
210
0
220
0
230
1
0
ENDBLK
5
103
100
AcDbEntity
8
0
100
AcDbBlockEnd
0
BLOCK
5
108
100
AcDbEntity
8
0
100
AcDbBlockBegin
2
*D3
70
1
10
0
20
0
30
0
3
*D3
0
LINE
5
10A
100
AcDbEntity
8
0
62
256
6
ByLayer
370
-2
48
1
60
0
100
AcDbLine
10
17.5502
20
-0.2525
30
0
11
17.5502
21
-24.835
31
0
39
0
210
0
220
0
230
1
0
LINE
5
10B
100
AcDbEntity
8
0
62
256
6
ByLayer
370
-2
48
1
60
0
100
AcDbLine
10
7.5552
20
-1.5875
30
0
11
7.5552
21
-24.835
31
0
39
0
210
0
220
0
230
1
0
LINE
5
10C
100
AcDbEntity
8
0
62
256
6
ByLayer
370
-2
48
1
60
0
100
AcDbLine
10
17.5502
20
-22.835
30
0
11
37.978771
21
-22.835
31
0
39
0
210
0
220
0
230
1
0
LINE
5
10D
100
AcDbEntity
8
0
62
256
6
ByLayer
370
-2
48
1
60
0
100
AcDbLine
10
21.0502
20
-22.835
30
0
11
24.5502
21
-22.835
31
0
39
0
210
0
220
0
230
1
0
LINE
5
10E
100
AcDbEntity
8
0
62
256
6
ByLayer
370
-2
48
1
60
0
100
AcDbLine
10
4.0552
20
-22.835
30
0
11
0.5552
21
-22.835
31
0
39
0
210
0
220
0
230
1
0
SOLID
5
10F
100
AcDbEntity
8
0
62
256
6
ByLayer
370
-1
48
1
60
0
100
AcDbTrace
10
21.0502
20
-22.251667
30
0
11
21.0502
21
-23.418333
31
0
12
17.5502
22
-22.835
32
0
13
17.5502
23
-22.835
33
0
39
0
210
0
220
0
230
1
0
SOLID
5
110
100
AcDbEntity
8
0
62
256
6
ByLayer
370
-1
48
1
60
0
100
AcDbTrace
10
4.0552
20
-23.418333
30
0
11
4.0552
21
-22.251667
31
0
12
7.5552
22
-22.835
32
0
13
7.5552
23
-22.835
33
0
39
0
210
0
220
0
230
1
0
MTEXT
5
111
100
AcDbEntity
8
0
62
256
6
ByLayer
370
18
48
1
60
0
100
AcDbMText
10
31.264486
20
-16.835
30
0
210
0
220
0
230
1
1
\A1;10
40
3
41
0
44
1
50
0
71
5
72
5
7
iso_b_vert
0
POINT
5
112
100
AcDbEntity
8
Defpoints
62
0
6
ByLayer
370
-1
48
1
60
0
100
AcDbPoint
10
17.5502
20
1.335
30
0
39
0
210
0
220
0
230
1
50
360
0
POINT
5
113
100
AcDbEntity
8
Defpoints
62
0
6
ByLayer
370
-1
48
1
60
0
100
AcDbPoint
10
7.5552
20
0
30
0
39
0
210
0
220
0
230
1
50
360
0
POINT
5
114
100
AcDbEntity
8
Defpoints
62
0
6
ByLayer
370
-1
48
1
60
0
100
AcDbPoint
10
7.5552
20
-22.835
30
0
39
0
210
0
220
0
230
1
50
360
0
ENDBLK
5
109
100
AcDbEntity
8
0
100
AcDbBlockEnd
0
BLOCK
5
11C
100
AcDbEntity
8
0
100
AcDbBlockBegin
2
_U1
70
0
10
0
20
0
30
0
3
_U1
0
MTEXT
5
116
100
AcDbEntity
8
SK2
62
256
6
ByLayer
370
18
48
1
60
0
100
AcDbMText
10
21.7092
20
-21.949886
30
0
210
0
220
0
230
1
1
\W0.6706;(10.00)
40
3
41
0
44
1.084337
50
0
71
7
72
5
7
iso_b_vert
0
LINE
5
117
100
AcDbEntity
8
SK2
62
256
6
ByLayer
370
13
48
1
60
0
100
AcDbLine
10
17.5502
20
-0.2525
30
0
11
17.5502
21
-24.835
31
0
39
0
210
0
220
0
230
1
0
LINE
5
118
100
AcDbEntity
8
SK2
62
256
6
ByLayer
370
13
48
1
60
0
100
AcDbLine
10
7.5552
20
-1.5875
30
0
11
7.5552
21
-24.835
31
0
39
0
210
0
220
0
230
1
0
LINE
5
119
100
AcDbEntity
8
SK2
62
256
6
ByLayer
370
13
48
1
60
0
100
AcDbLine
10
7.5552
20
-22.835
30
0
11
32.513911
21
-22.835
31
0
39
0
210
0
220
0
230
1
0
SOLID
5
11A
100
AcDbEntity
8
SK2
62
256
6
ByLayer
370
18
48
1
60
0
100
AcDbTrace
10
17.5502
20
-22.835
30
0
11
14.050202
21
-23.295784
31
0
12
14.050198
22
-22.374216
32
0
13
14.050198
23
-22.374216
33
0
39
0
210
0
220
0
230
1
0
SOLID
5
11B
100
AcDbEntity
8
SK2
62
256
6
ByLayer
370
18
48
1
60
0
100
AcDbTrace
10
7.5552
20
-22.835
30
0
11
11.055198
21
-22.374216
31
0
12
11.055202
22
-23.295784
32
0
13
11.055202
23
-23.295784
33
0
39
0
210
0
220
0
230
1
0
ENDBLK
5
11D
100
AcDbEntity
8
0
100
AcDbBlockEnd
0
BLOCK
5
122
100
AcDbEntity
8
0
100
AcDbBlockBegin
2
*D5
70
1
10
0
20
0
30
0
3
*D5
0
LINE
5
124
100
AcDbEntity
8
0
62
256
6
ByLayer
370
-2
48
1
60
0
100
AcDbLine
10
17.5502
20
-0.2525
30
0
11
17.5502
21
-32.518731
31
0
39
0
210
0
220
0
230
1
0
LINE
5
125
100
AcDbEntity
8
0
62
256
6
ByLayer
370
-2
48
1
60
0
100
AcDbLine
10
3.5502
20
-1.5875
30
0
11
3.5502
21
-32.518731
31
0
39
0
210
0
220
0
230
1
0
LINE
5
126
100
AcDbEntity
8
0
62
256
6
ByLayer
370
-2
48
1
60
0
100
AcDbLine
10
21.0502
20
-30.518731
30
0
11
24.5502
21
-30.518731
31
0
39
0
210
0
220
0
230
1
0
LINE
5
127
100
AcDbEntity
8
0
62
256
6
ByLayer
370
-2
48
1
60
0
100
AcDbLine
10
0.0502
20
-30.518731
30
0
11
-3.4498
21
-30.518731
31
0
39
0
210
0
220
0
230
1
0
SOLID
5
128
100
AcDbEntity
8
0
62
256
6
ByLayer
370
-1
48
1
60
0
100
AcDbTrace
10
21.0502
20
-29.935397
30
0
11
21.0502
21
-31.102064
31
0
12
17.5502
22
-30.518731
32
0
13
17.5502
23
-30.518731
33
0
39
0
210
0
220
0
230
1
0
SOLID
5
129
100
AcDbEntity
8
0
62
256
6
ByLayer
370
-1
48
1
60
0
100
AcDbTrace
10
0.0502
20
-31.102064
30
0
11
0.0502
21
-29.935397
31
0
12
3.5502
22
-30.518731
32
0
13
3.5502
23
-30.518731
33
0
39
0
210
0
220
0
230
1
0
MTEXT
5
12A
100
AcDbEntity
8
0
62
256
6
ByLayer
370
18
48
1
60
0
100
AcDbMText
10
10.5502
20
-24.518731
30
0
210
0
220
0
230
1
1
\A1;14
40
3
41
0
44
1
50
0
71
5
72
5
7
iso_b_vert
0
POINT
5
12B
100
AcDbEntity
8
Defpoints
62
0
6
ByLayer
370
-1
48
1
60
0
100
AcDbPoint
10
17.5502
20
1.335
30
0
39
0
210
0
220
0
230
1
50
360
0
POINT
5
12C
100
AcDbEntity
8
Defpoints
62
0
6
ByLayer
370
-1
48
1
60
0
100
AcDbPoint
10
3.5502
20
0
30
0
39
0
210
0
220
0
230
1
50
360
0
POINT
5
12D
100
AcDbEntity
8
Defpoints
62
0
6
ByLayer
370
-1
48
1
60
0
100
AcDbPoint
10
3.5502
20
-30.518731
30
0
39
0
210
0
220
0
230
1
50
360
0
ENDBLK
5
123
100
AcDbEntity
8
0
100
AcDbBlockEnd
0
BLOCK
5
135
100
AcDbEntity
8
0
100
AcDbBlockBegin
2
_U2
70
0
10
0
20
0
30
0
3
_U2
0
MTEXT
5
12F
100
AcDbEntity
8
SK2
62
256
6
ByLayer
370
18
48
1
60
0
100
AcDbMText
10
6.284829
20
-29.633616
30
0
210
0
220
0
230
1
1
\W0.7091;14.00
40
3
41
0
44
1.084337
50
0
71
7
72
5
7
iso_b_vert
0
LINE
5
130
100
AcDbEntity
8
SK2
62
256
6
ByLayer
370
13
48
1
60
0
100
AcDbLine
10
17.5502
20
-0.2525
30
0
11
17.5502
21
-32.518731
31
0
39
0
210
0
220
0
230
1
0
LINE
5
131
100
AcDbEntity
8
SK2
62
256
6
ByLayer
370
13
48
1
60
0
100
AcDbLine
10
3.5502
20
-1.5875
30
0
11
3.5502
21
-32.518731
31
0
39
0
210
0
220
0
230
1
0
LINE
5
132
100
AcDbEntity
8
SK2
62
256
6
ByLayer
370
13
48
1
60
0
100
AcDbLine
10
17.5502
20
-30.518731
30
0
11
3.5502
21
-30.518731
31
0
39
0
210
0
220
0
230
1
0
SOLID
5
133
100
AcDbEntity
8
SK2
62
256
6
ByLayer
370
18
48
1
60
0
100
AcDbTrace
10
17.5502
20
-30.518731
30
0
11
14.050202
21
-30.979515
31
0
12
14.050198
22
-30.057947
32
0
13
14.050198
23
-30.057947
33
0
39
0
210
0
220
0
230
1
0
SOLID
5
134
100
AcDbEntity
8
SK2
62
256
6
ByLayer
370
18
48
1
60
0
100
AcDbTrace
10
3.5502
20
-30.518731
30
0
11
7.050198
21
-30.057947
31
0
12
7.050202
22
-30.979515
32
0
13
7.050202
23
-30.979515
33
0
39
0
210
0
220
0
230
1
0
ENDBLK
5
136
100
AcDbEntity
8
0
100
AcDbBlockEnd
0
BLOCK
5
13B
100
AcDbEntity
8
0
100
AcDbBlockBegin
2
*D7
70
1
10
0
20
0
30
0
3
*D7
0
LINE
5
13D
100
AcDbEntity
8
0
62
256
6
ByLayer
370
-2
48
1
60
0
100
AcDbLine
10
-20.4498
20
1.5875
30
0
11
-20.4498
21
13.518731
31
0
39
0
210
0
220
0
230
1
0
LINE
5
13E
100
AcDbEntity
8
0
62
256
6
ByLayer
370
-2
48
1
60
0
100
AcDbLine
10
0
20
1.5875
30
0
11
0
21
13.518731
31
0
39
0
210
0
220
0
230
1
0
LINE
5
13F
100
AcDbEntity
8
0
62
256
6
ByLayer
370
-2
48
1
60
0
100
AcDbLine
10
-16.9498
20
11.518731
30
0
11
-3.5
21
11.518731
31
0
39
0
210
0
220
0
230
1
0
SOLID
5
140
100
AcDbEntity
8
0
62
256
6
ByLayer
370
-1
48
1
60
0
100
AcDbTrace
10
-16.9498
20
12.102064
30
0
11
-16.9498
21
10.935397
31
0
12
-20.4498
22
11.518731
32
0
13
-20.4498
23
11.518731
33
0
39
0
210
0
220
0
230
1
0
SOLID
5
141
100
AcDbEntity
8
0
62
256
6
ByLayer
370
-1
48
1
60
0
100
AcDbTrace
10
-3.5
20
10.935397
30
0
11
-3.5
21
12.102064
31
0
12
0
22
11.518731
32
0
13
0
23
11.518731
33
0
39
0
210
0
220
0
230
1
0
MTEXT
5
142
100
AcDbEntity
8
0
62
256
6
ByLayer
370
18
48
1
60
0
100
AcDbMText
10
-10.2249
20
17.518731
30
0
210
0
220
0
230
1
1
\A1;20.45
40
3
41
0
44
1
50
0
71
5
72
5
7
iso_b_vert
0
POINT
5
143
100
AcDbEntity
8
Defpoints
62
0
6
ByLayer
370
-1
48
1
60
0
100
AcDbPoint
10
-20.4498
20
0
30
0
39
0
210
0
220
0
230
1
50
360
0
POINT
5
144
100
AcDbEntity
8
Defpoints
62
0
6
ByLayer
370
-1
48
1
60
0
100
AcDbPoint
10
0
20
0
30
0
39
0
210
0
220
0
230
1
50
360
0
POINT
5
145
100
AcDbEntity
8
Defpoints
62
0
6
ByLayer
370
-1
48
1
60
0
100
AcDbPoint
10
0
20
11.518731
30
0
39
0
210
0
220
0
230
1
50
360
0
ENDBLK
5
13C
100
AcDbEntity
8
0
100
AcDbBlockEnd
0
BLOCK
5
14D
100
AcDbEntity
8
0
100
AcDbBlockBegin
2
_U3
70
0
10
0
20
0
30
0
3
_U3
0
MTEXT
5
147
100
AcDbEntity
8
SK2
62
256
6
ByLayer
370
18
48
1
60
0
100
AcDbMText
10
-14.865213
20
12.403845
30
0
210
0
220
0
230
1
1
\W0.7694;20.45
40
3
41
0
44
1.084337
50
0
71
7
72
5
7
iso_b_vert
0
LINE
5
148
100
AcDbEntity
8
SK2
62
256
6
ByLayer
370
13
48
1
60
0
100
AcDbLine
10
-20.4498
20
1.5875
30
0
11
-20.4498
21
13.518731
31
0
39
0
210
0
220
0
230
1
0
LINE
5
149
100
AcDbEntity
8
SK2
62
256
6
ByLayer
370
13
48
1
60
0
100
AcDbLine
10
0
20
1.5875
30
0
11
0
21
13.518731
31
0
39
0
210
0
220
0
230
1
0
LINE
5
14A
100
AcDbEntity
8
SK2
62
256
6
ByLayer
370
13
48
1
60
0
100
AcDbLine
10
-20.4498
20
11.518731
30
0
11
0
21
11.518731
31
0
39
0
210
0
220
0
230
1
0
SOLID
5
14B
100
AcDbEntity
8
SK2
62
256
6
ByLayer
370
18
48
1
60
0
100
AcDbTrace
10
-20.4498
20
11.518731
30
0
11
-16.949802
21
11.979515
31
0
12
-16.949798
22
11.057947
32
0
13
-16.949798
23
11.057947
33
0
39
0
210
0
220
0
230
1
0
SOLID
5
14C
100
AcDbEntity
8
SK2
62
256
6
ByLayer
370
18
48
1
60
0
100
AcDbTrace
10
0
20
11.518731
30
0
11
-3.499998
21
11.057947
31
0
12
-3.500002
22
11.979515
32
0
13
-3.500002
23
11.979515
33
0
39
0
210
0
220
0
230
1
0
ENDBLK
5
14E
100
AcDbEntity
8
0
100
AcDbBlockEnd
0
BLOCK
5
153
100
AcDbEntity
8
0
100
AcDbBlockBegin
2
*D9
70
1
10
0
20
0
30
0
3
*D9
0
LINE
5
155
100
AcDbEntity
8
0
62
256
6
ByLayer
370
-2
48
1
60
0
100
AcDbLine
10
17.5502
20
2.9225
30
0
11
17.5502
21
13.518731
31
0
39
0
210
0
220
0
230
1
0
LINE
5
156
100
AcDbEntity
8
0
62
256
6
ByLayer
370
-2
48
1
60
0
100
AcDbLine
10
0
20
1.5875
30
0
11
0
21
13.518731
31
0
39
0
210
0
220
0
230
1
0
LINE
5
157
100
AcDbEntity
8
0
62
256
6
ByLayer
370
-2
48
1
60
0
100
AcDbLine
10
14.0502
20
11.518731
30
0
11
3.5
21
11.518731
31
0
39
0
210
0
220
0
230
1
0
SOLID
5
158
100
AcDbEntity
8
0
62
256
6
ByLayer
370
-1
48
1
60
0
100
AcDbTrace
10
14.0502
20
10.935397
30
0
11
14.0502
21
12.102064
31
0
12
17.5502
22
11.518731
32
0
13
17.5502
23
11.518731
33
0
39
0
210
0
220
0
230
1
0
SOLID
5
159
100
AcDbEntity
8
0
62
256
6
ByLayer
370
-1
48
1
60
0
100
AcDbTrace
10
3.5
20
12.102064
30
0
11
3.5
21
10.935397
31
0
12
0
22
11.518731
32
0
13
0
23
11.518731
33
0
39
0
210
0
220
0
230
1
0
MTEXT
5
15A
100
AcDbEntity
8
0
62
256
6
ByLayer
370
18
48
1
60
0
100
AcDbMText
10
8.7751
20
17.518731
30
0
210
0
220
0
230
1
1
\A1;17.55
40
3
41
0
44
1
50
0
71
5
72
5
7
iso_b_vert
0
POINT
5
15B
100
AcDbEntity
8
Defpoints
62
0
6
ByLayer
370
-1
48
1
60
0
100
AcDbPoint
10
17.5502
20
1.335
30
0
39
0
210
0
220
0
230
1
50
360
0
POINT
5
15C
100
AcDbEntity
8
Defpoints
62
0
6
ByLayer
370
-1
48
1
60
0
100
AcDbPoint
10
0
20
0
30
0
39
0
210
0
220
0
230
1
50
360
0
POINT
5
15D
100
AcDbEntity
8
Defpoints
62
0
6
ByLayer
370
-1
48
1
60
0
100
AcDbPoint
10
0
20
11.518731
30
0
39
0
210
0
220
0
230
1
50
360
0
ENDBLK
5
154
100
AcDbEntity
8
0
100
AcDbBlockEnd
0
BLOCK
5
165
100
AcDbEntity
8
0
100
AcDbBlockBegin
2
_U4
70
0
10
0
20
0
30
0
3
_U4
0
MTEXT
5
15F
100
AcDbEntity
8
2
62
256
6
ByLayer
370
18
48
1
60
0
100
AcDbMText
10
4.667672
20
12.403845
30
0
210
0
220
0
230
1
1
\W0.6864;17.55
40
3
41
0
44
1.084337
50
0
71
7
72
5
7
iso_b_vert
0
LINE
5
160
100
AcDbEntity
8
2
62
256
6
ByLayer
370
13
48
1
60
0
100
AcDbLine
10
17.5502
20
2.9225
30
0
11
17.5502
21
13.518731
31
0
39
0
210
0
220
0
230
1
0
LINE
5
161
100
AcDbEntity
8
2
62
256
6
ByLayer
370
13
48
1
60
0
100
AcDbLine
10
0
20
1.5875
30
0
11
0
21
13.518731
31
0
39
0
210
0
220
0
230
1
0
LINE
5
162
100
AcDbEntity
8
2
62
256
6
ByLayer
370
13
48
1
60
0
100
AcDbLine
10
17.5502
20
11.518731
30
0
11
0
21
11.518731
31
0
39
0
210
0
220
0
230
1
0
SOLID
5
163
100
AcDbEntity
8
2
62
256
6
ByLayer
370
18
48
1
60
0
100
AcDbTrace
10
17.5502
20
11.518731
30
0
11
14.050202
21
11.057947
31
0
12
14.050198
22
11.979515
32
0
13
14.050198
23
11.979515
33
0
39
0
210
0
220
0
230
1
0
SOLID
5
164
100
AcDbEntity
8
2
62
256
6
ByLayer
370
18
48
1
60
0
100
AcDbTrace
10
0
20
11.518731
30
0
11
3.499998
21
11.979515
31
0
12
3.500002
22
11.057947
32
0
13
3.500002
23
11.057947
33
0
39
0
210
0
220
0
230
1
0
ENDBLK
5
166
100
AcDbEntity
8
0
100
AcDbBlockEnd
0
ENDSEC
0
SECTION
2
ENTITIES
0
ARC
5
B5
100
AcDbEntity
8
1
62
256
6
ByLayer
370
18
48
1
60
0
100
AcDbCircle
39
0
10
0.546756
20
-2.335
30
0
40
0.999999999999999
210
0
220
0
230
1
100
AcDbArc
50
90
51
123.14477
0
ARC
5
B6
100
AcDbEntity
8
1
62
256
6
ByLayer
370
18
48
1
60
0
100
AcDbCircle
39
0
10
0.546756
20
2.335
30
0
40
0.999999999999999
210
0
220
0
230
1
100
AcDbArc
50
236.85523
51
270
0
ARC
5
B7
100
AcDbEntity
8
SK1
62
256
6
ByLayer
370
18
48
1
60
0
100
AcDbCircle
39
0
10
0.546756
20
-2.335
30
0
40
0.999999999999999
210
0
220
0
230
1
100
AcDbArc
50
123.14477
51
123.384162
0
ARC
5
B8
100
AcDbEntity
8
SK1
62
256
6
ByLayer
370
18
48
1
60
0
100
AcDbCircle
39
0
10
0.546756
20
2.335
30
0
40
0.999999999999999
210
0
220
0
230
1
100
AcDbArc
50
236.615838
51
236.85523
0
ARC
5
B9
100
AcDbEntity
8
SK2
62
256
6
ByLayer
370
13
48
1
60
0
100
AcDbCircle
39
0
10
17.5502
20
0
30
0
40
16.35
210
0
220
0
230
1
100
AcDbArc
50
10.57289
51
65
0
ARC
5
BA
100
AcDbEntity
8
SK2
62
256
6
ByLayer
370
13
48
1
60
0
100
AcDbCircle
39
0
10
17.5502
20
0
30
0
40
16.35
210
0
220
0
230
1
100
AcDbArc
50
295
51
349.42711
0
ELLIPSE
5
BB
100
AcDbEntity
8
1
62
256
6
ByLayer
370
18
48
1
60
0
100
AcDbEllipse
10
5.038458
20
0.117725
30
0
11
-2.02274877248948
21
1.16897139640409
31
0
210
0
220
0
230
1
40
0.038185
41
0.794172728915344
42
1.59286014901309
0
POINT
5
70
100
AcDbEntity
8
80
62
256
6
ByLayer
370
18
48
1
60
0
100
AcDbPoint
10
0
20
0
30
0
39
0
210
0
220
0
230
1
50
360
0
POINT
5
72
100
AcDbEntity
8
81
62
256
6
ByLayer
370
18
48
1
60
0
100
AcDbPoint
10
17.5502
20
0
30
0
39
0
210
0
220
0
230
1
50
360
0
POINT
5
74
100
AcDbEntity
8
1
62
256
6
ByLayer
370
18
48
1
60
1
100
AcDbPoint
10
-20.4498
20
1.5
30
0
39
0
210
0
220
0
230
1
50
360
0
POINT
5
76
100
AcDbEntity
8
1
62
256
6
ByLayer
370
18
48
1
60
1
100
AcDbPoint
10
17.5502
20
1.335
30
0
39
0
210
0
220
0
230
1
50
360
0
POINT
5
77
100
AcDbEntity
8
1
62
256
6
ByLayer
370
18
48
1
60
1
100
AcDbPoint
10
17.5502
20
1.335
30
0
39
0
210
0
220
0
230
1
50
360
0
POINT
5
78
100
AcDbEntity
8
1
62
256
6
ByLayer
370
18
48
1
60
1
100
AcDbPoint
10
7.5552
20
0
30
0
39
0
210
0
220
0
230
1
50
360
0
POINT
5
79
100
AcDbEntity
8
1
62
256
6
ByLayer
370
18
48
1
60
1
100
AcDbPoint
10
17.5502
20
1.335
30
0
39
0
210
0
220
0
230
1
50
360
0
POINT
5
7A
100
AcDbEntity
8
1
62
256
6
ByLayer
370
18
48
1
60
1
100
AcDbPoint
10
3.5502
20
0
30
0
39
0
210
0
220
0
230
1
50
360
0
POINT
5
7B
100
AcDbEntity
8
1
62
256
6
ByLayer
370
18
48
1
60
1
100
AcDbPoint
10
-20.4498
20
0
30
0
39
0
210
0
220
0
230
1
50
360
0
POINT
5
7C
100
AcDbEntity
8
1
62
256
6
ByLayer
370
18
48
1
60
1
100
AcDbPoint
10
0
20
0
30
0
39
0
210
0
220
0
230
1
50
360
0
POINT
5
7D
100
AcDbEntity
8
1
62
256
6
ByLayer
370
18
48
1
60
1
100
AcDbPoint
10
17.5502
20
1.335
30
0
39
0
210
0
220
0
230
1
50
360
0
POINT
5
7E
100
AcDbEntity
8
1
62
256
6
ByLayer
370
18
48
1
60
1
100
AcDbPoint
10
0
20
0
30
0
39
0
210
0
220
0
230
1
50
360
0
SPLINE
5
BC
100
AcDbEntity
8
1
62
256
6
ByLayer
370
18
48
1
60
0
100
AcDbSpline
70
4
71
3
72
26
73
22
40
0
40
0
40
0
40
0
40
0.124999999999999
40
0.124999999999999
40
0.187500000000001
40
0.187500000000001
40
0.250000000000004
40
0.250000000000004
40
0.375000000000003
40
0.375000000000003
40
0.500000000000001
40
0.500000000000001
40
0.624999999999999
40
0.624999999999999
40
0.749999999999998
40
0.749999999999998
40
0.874999999999996
40
0.874999999999996
40
0.937499999999998
40
0.937499999999998
40
1
40
1
40
1
40
1
41
1
10
16.9276792763631
20
0.677935448791118
30
0
41
1
10
16.9485865746524
20
0.648701728183823
30
0
41
1
10
16.9694940485385
20
0.624339977365111
30
0
41
1
10
17.0008794935398
20
0.589916671076708
30
0
41
1
10
17.0113435184296
20
0.578791266158106
30
0
41
1
10
17.0322729381367
20
0.556764065198934
30
0
41
1
10
17.0427387560977
20
0.545924922861389
30
0
41
1
10
17.0741396819476
20
0.514172991787092
30
0
41
1
10
17.0951280925635
20
0.494005677456869
30
0
41
1
10
17.1367441586767
20
0.456958336779081
30
0
41
1
10
17.1573929335334
20
0.439979458811536
30
0
41
1
10
17.1982924804974
20
0.408720351753317
30
0
41
1
10
17.2185496418072
20
0.394423656100003
30
0
41
1
10
17.2584077857682
20
0.368497336304216
30
0
41
1
10
17.2780181948362
20
0.356895513199163
30
0
41
1
10
17.3159216737125
20
0.336501803022855
30
0
41
1
10
17.3342542517581
20
0.327697627575617
30
0
41
1
10
17.3595003990291
20
0.316603536842138
30
0
41
1
10
17.3675057737815
20
0.313268341984212
30
0
41
1
10
17.3821888743348
20
0.307345858413726
30
0
41
1
10
17.3888770558827
20
0.304754646151366
30
0
41
1
10
17.3945698648176
20
0.302531670813124
30
0
0
SPLINE
5
BD
100
AcDbEntity
8
1
62
256
6
ByLayer
370
18
48
1
60
0
100
AcDbSpline
70
4
71
3
72
36
73
32
40
0
40
0
40
0
40
0
40
0.0992063378489907
40
0.0992063378489907
40
0.148809506773486
40
0.148809506773486
40
0.198412675697981
40
0.198412675697981
40
0.297619013546972
40
0.297619013546972
40
0.347222182471467
40
0.347222182471467
40
0.396825351395963
40
0.396825351395963
40
0.496031689244951
40
0.496031689244951
40
0.545634858169445
40
0.545634858169445
40
0.595238027093938
40
0.595238027093938
40
0.694444364942922
40
0.694444364942922
40
0.744047533867414
40
0.744047533867414
40
0.793650702791907
40
0.793650702791907
40
0.892857040640891
40
0.892857040640891
40
0.992063378489876
40
0.992063378489876
40
1
40
1
40
1
40
1
41
1
10
5.03845799999999
20
-0.764902259537536
30
0
41
1
10
5.16273875458128
20
-0.82382053080093
30
0
41
1
10
5.28680887658189
20
-0.879146568865849
30
0
41
1
10
5.47306453747072
20
-0.95618601689273
30
0
41
1
10
5.5351824611989
20
-0.980877241346917
30
0
41
1
10
5.65951603032951
20
-1.02815043078831
30
0
41
1
10
5.72156309150731
20
-1.05067840545152
30
0
41
1
10
5.90750609927542
20
-1.11477066020484
30
0
41
1
10
6.03133265800588
20
-1.15271491589022
30
0
41
1
10
6.21737317066547
20
-1.20204067010849
30
0
41
1
10
6.27943458042631
20
-1.21721846444973
30
0
41
1
10
6.40373125618353
20
-1.24496697521019
30
0
41
1
10
6.4658508343135
20
-1.25751287638238
30
0
41
1
10
6.65185667701948
20
-1.29099488967762
30
0
41
1
10
6.77570453088879
20
-1.30774458080549
30
0
41
1
10
6.96171595330216
20
-1.32438602366523
30
0
41
1
10
7.0237583203116
20
-1.32851821512406
30
0
41
1
10
7.14800312485872
20
-1.33391346240825
30
0
41
1
10
7.21016371115465
20
-1.3351721061648
30
0
41
1
10
7.39621724131445
20
-1.3345989781933
30
0
41
1
10
7.52005859895047
20
-1.3284428601998
30
0
41
1
10
7.70602672350486
20
-1.31069954652344
30
0
41
1
10
7.76804803059795
20
-1.30336508205289
30
0
41
1
10
7.8922367746317
20
-1.28586486118334
30
0
41
1
10
7.95443784762662
20
-1.27568141153029
30
0
41
1
10
8.14019272937111
20
-1.24115925994639
30
0
41
1
10
8.26338895625108
20
-1.21286800353857
30
0
41
1
10
8.50917961413782
20
-1.14651177643631
30
0
41
1
10
8.63175601773486
20
-1.10843275382422
30
0
41
1
10
8.76412681937305
20
-1.0623281428596
30
0
41
1
10
8.77393310216183
20
-1.05888447032885
30
0
41
1
10
8.78374045392394
20
-1.0554125013812
30
0
0
SPLINE
5
BE
100
AcDbEntity
8
1
62
256
6
ByLayer
370
18
48
1
60
0
100
AcDbSpline
70
4
71
3
72
44
73
40
40
0
40
0
40
0
40
0
40
0.070344141478939
40
0.070344141478939
40
0.147815463022369
40
0.147815463022369
40
0.225286784565799
40
0.225286784565799
40
0.380229427652658
40
0.380229427652658
40
0.457700749196085
40
0.457700749196085
40
0.535172070739512
40
0.535172070739512
40
0.690114713826359
40
0.690114713826359
40
0.767586035369782
40
0.767586035369782
40
0.845057356913205
40
0.845057356913205
40
0.883793017684914
40
0.883793017684914
40
0.903160848070765
40
0.903160848070765
40
0.912844763263694
40
0.912844763263694
40
0.922528678456622
40
0.922528678456622
40
0.941896508842473
40
0.941896508842473
40
0.951580424035396
40
0.951580424035396
40
0.961264339228317
40
0.961264339228317
40
0.980632169614155
40
0.980632169614155
40
0.990316084807078
40
0.990316084807078
40
1
40
1
40
1
40
1
41
1
10
14.5240732158984
20
1.33500128266249
30
0
41
1
10
14.5803295063495
20
1.33500409157611
30
0
41
1
10
14.6365793430549
20
1.33382105481252
30
0
41
1
10
14.7548283529861
20
1.32883529995794
30
0
41
1
10
14.8168626723044
20
1.324780806766
30
0
41
1
10
14.9411729290266
20
1.31380551231945
30
0
41
1
10
15.0032937748651
20
1.30689402004612
30
0
41
1
10
15.1893973243007
20
1.28199417638416
30
0
41
1
10
15.3132349873438
20
1.25983305444518
30
0
41
1
10
15.499129149093
20
1.21847578963136
30
0
41
1
10
15.5611518614703
20
1.20335925371529
30
0
41
1
10
15.6854138217866
20
1.1705335376347
30
0
41
1
10
15.7476019407829
20
1.15283220059123
30
0
41
1
10
15.9338625785973
20
1.09614394319976
30
0
41
1
10
16.0578468232667
20
1.05351040075521
30
0
41
1
10
16.2440367037335
20
0.982761648668657
30
0
41
1
10
16.3062190286696
20
0.958056204990896
30
0
41
1
10
16.4304414896783
20
0.906743002506687
30
0
41
1
10
16.4924709614185
20
0.880080441730485
30
0
41
1
10
16.5855671535085
20
0.838815952903815
30
0
41
1
10
16.616652708077
20
0.824912959903941
30
0
41
1
10
16.6630728855505
20
0.803434106242918
30
0
41
1
10
16.6784757785528
20
0.796119218038086
30
0
41
1
10
16.7016393084704
20
0.785142975729315
30
0
41
1
10
16.7093784387494
20
0.781495066233333
30
0
41
1
10
16.7249559651076
20
0.77431276751247
30
0
41
1
10
16.7328001860858
20
0.770786893447678
30
0
41
1
10
16.7563941104927
20
0.760258778345957
30
0
41
1
10
16.7722003766918
20
0.753300958665676
30
0
41
1
10
16.795569692421
20
0.742291387404663
30
0
41
1
10
16.8033031102368
20
0.738526114613364
30
0
41
1
10
16.818593699922
20
0.730707202936713
30
0
41
1
10
16.8261354436373
20
0.726630611448456
30
0
41
1
10
16.8486456691446
20
0.714179193110851
30
0
41
1
10
16.8635109032029
20
0.705595749124768
30
0
41
1
10
16.8865950443471
20
0.693802144683417
30
0
41
1
10
16.8944214281496
20
0.690053045307621
30
0
41
1
10
16.9105849777174
20
0.683303657766857
30
0
41
1
10
16.9189505725338
20
0.680346625234591
30
0
41
1
10
16.9276792763631
20
0.677935448791146
30
0
0
SPLINE
5
BF
100
AcDbEntity
8
1
62
256
6
ByLayer
370
18
48
1
60
0
100
AcDbSpline
70
4
71
3
72
89
73
85
40
0
40
0
40
0
40
0
40
0.0028521882618103
40
0.0028521882618103
40
0.0057043765236205
40
0.0057043765236205
40
0.0114087530472392
40
0.0114087530472392
40
0.0142609413090485
40
0.0142609413090485
40
0.0171131295708578
40
0.0228175060944745
40
0.0228175060944745
40
0.0256696943562839
40
0.0256696943562839
40
0.0285218826180932
40
0.0285218826180932
40
0.0342262591417118
40
0.0342262591417118
40
0.0456350121889491
40
0.0456350121889491
40
0.0684525182834237
40
0.0684525182834237
40
0.0912700243778982
40
0.0912700243778982
40
0.114087530472373
40
0.114087530472373
40
0.136905036566847
40
0.136905036566847
40
0.182540048755796
40
0.182540048755796
40
0.205357554850271
40
0.205357554850271
40
0.228175060944745
40
0.228175060944745
40
0.273810073133695
40
0.273810073133695
40
0.296627579228168
40
0.296627579228168
40
0.319445085322642
40
0.319445085322642
40
0.365080097511587
40
0.365080097511587
40
0.387897603606059
40
0.387897603606059
40
0.410715109700531
40
0.410715109700531
40
0.456350121889476
40
0.456350121889476
40
0.479167627983948
40
0.479167627983948
40
0.501985134078419
40
0.501985134078419
40
0.547620146267363
40
0.547620146267363
40
0.570437652361835
40
0.570437652361835
40
0.593255158456306
40
0.593255158456306
40
0.638890170645248
40
0.638890170645248
40
0.661707676739718
40
0.661707676739718
40
0.684525182834189
40
0.684525182834189
40
0.730160195023131
40
0.730160195023131
40
0.752977701117601
40
0.752977701117601
40
0.775795207212073
40
0.775795207212073
40
0.821430219401017
40
0.821430219401017
40
0.84424772549549
40
0.84424772549549
40
0.867065231589962
40
0.867065231589962
40
0.912700243778906
40
0.912700243778906
40
0.935517749873379
40
0.935517749873379
40
0.958335255967851
40
0.958335255967851
40
1
40
1
40
1
40
1
41
1
10
16.9276792763631
20
-1.28653003092535
30
0
41
1
10
16.918961128326
20
-1.28578379452864
30
0
41
1
10
16.910606004081
20
-1.28485915501986
30
0
41
1
10
16.8944628637018
20
-1.28270405116962
30
0
41
1
10
16.8866463910917
20
-1.28148678879492
30
0
41
1
10
16.8635906667514
20
-1.27756984557084
30
0
41
1
10
16.8487425782282
20
-1.27460077775226
30
0
41
1
10
16.8262554022911
20
-1.2700946374012
30
0
41
1
10
16.818721130975
20
-1.26858690149822
30
0
41
1
10
16.8034436534809
20
-1.26563932929798
30
0
41
1
10
16.7802606407558
20
-1.261294548275
30
0
41
1
10
16.7565582427767
20
-1.25706455875215
30
0
41
1
10
16.7329653549461
20
-1.25265642269693
30
0
41
1
10
16.7251204233026
20
-1.25115606287926
30
0
41
1
10
16.7095399965844
20
-1.24804670958701
30
0
41
1
10
16.7017989816305
20
-1.24644075199566
30
0
41
1
10
16.6786282302295
20
-1.24152353292527
30
0
41
1
10
16.6632173025592
20
-1.23813249667361
30
0
41
1
10
16.6167709481169
20
-1.22784579412516
30
0
41
1
10
16.5856818601171
20
-1.22075301730266
30
0
41
1
10
16.4926204837315
20
-1.19839260959856
30
0
41
1
10
16.430674804684
20
-1.1821538662675
30
0
41
1
10
16.3067391551684
20
-1.14719107970882
30
0
41
1
10
16.244785761614
20
-1.12843845214402
30
0
41
1
10
16.120792319735
20
-1.08847776020559
30
0
41
1
10
16.0587182614986
20
-1.06728881885906
30
0
41
1
10
15.9347960638025
20
-1.02278628158416
30
0
41
1
10
15.8728955452612
20
-0.999448376464869
30
0
41
1
10
15.6872574775113
20
-0.926328398297841
30
0
41
1
10
15.563593641925
20
-0.873431282330671
30
0
41
1
10
15.3777520739932
20
-0.788416799753605
30
0
41
1
10
15.3156554839057
20
-0.759155265223114
30
0
41
1
10
15.1916907497214
20
-0.699217802810807
30
0
41
1
10
15.1297772194379
20
-0.668517386617083
30
0
41
1
10
14.9441263727135
20
-0.574408812430221
30
0
41
1
10
14.8204876832633
20
-0.508981331539331
30
0
41
1
10
14.6347185234096
20
-0.407571804839108
30
0
41
1
10
14.5726399843919
20
-0.373241553611933
30
0
41
1
10
14.4486253515309
20
-0.304001712574859
30
0
41
1
10
14.3866944894522
20
-0.269082442615399
30
0
41
1
10
14.2010072123647
20
-0.163642351270454
30
0
41
1
10
14.0773720705078
20
-0.0924122521340109
30
0
41
1
10
13.8916405638703
20
0.0149564745956923
30
0
41
1
10
13.8295990287019
20
0.0508155280317339
30
0
41
1
10
13.7055257899519
20
0.122266948778645
30
0
41
1
10
13.6435729587828
20
0.1578272433687
30
0
41
1
10
13.4578484270428
20
0.263814946745328
30
0
41
1
10
13.3342176194865
20
0.333562118018961
30
0
41
1
10
13.1485611538552
20
0.435972969187304
30
0
41
1
10
13.0865871828102
20
0.469687139165984
30
0
41
1
10
12.9624658956399
20
0.536061378895056
30
0
41
1
10
12.9004964454739
20
0.568634347016939
30
0
41
1
10
12.7147401134241
20
0.664337122166472
30
0
41
1
10
12.5911141538665
20
0.725466927944382
30
0
41
1
10
12.405496222164
20
0.812391255850372
30
0
41
1
10
12.3435580242968
20
0.840519734916597
30
0
41
1
10
12.2194560170705
20
0.894950455610427
30
0
41
1
10
12.1574208539486
20
0.92120016293822
30
0
41
1
10
11.9716026798562
20
0.996781506867961
30
0
41
1
10
11.8479667914046
20
1.04302375434173
30
0
41
1
10
11.6623877605066
20
1.10558750774385
30
0
41
1
10
11.6004713720258
20
1.12527116454746
30
0
41
1
10
11.4764290167535
20
1.16219972203683
30
0
41
1
10
11.4143447085027
20
1.17943499916075
30
0
41
1
10
11.2284847965102
20
1.22717623006577
30
0
41
1
10
11.1048565719453
20
1.25381130833841
30
0
41
1
10
10.9193090063582
20
1.28561621760608
30
0
41
1
10
10.8574140293629
20
1.2948440082879
30
0
41
1
10
10.7334222214806
20
1.31049877371362
30
0
41
1
10
10.6713063503372
20
1.31692741914878
30
0
41
1
10
10.4853741098292
20
1.33190216950894
30
0
41
1
10
10.3617161787731
20
1.33618313253479
30
0
41
1
10
10.1761855260223
20
1.33398988057894
30
0
41
1
10
10.1143040520772
20
1.33182210583212
30
0
41
1
10
9.99035105278412
20
1.32462407592757
30
0
41
1
10
9.92823001964788
20
1.31958451584129
30
0
41
1
10
9.74223258416592
20
1.30025034893083
30
0
41
1
10
9.61856784378907
20
1.28174407826333
30
0
41
1
10
9.43307517090486
20
1.24577846557037
30
0
41
1
10
9.37120900660599
20
1.23244187808453
30
0
41
1
10
9.24731187953105
20
1.20313441925327
30
0
41
1
10
9.18521443468339
20
1.18714269594622
30
0
41
1
10
9.00994107928508
20
1.13843929564433
30
0
41
1
10
8.89698717413816
20
1.10285003082163
30
0
41
1
10
8.78407990631669
20
1.06338763989126
30
0
0
SPLINE
5
C0
100
AcDbEntity
8
1
62
256
6
ByLayer
370
18
48
1
60
0
100
AcDbSpline
70
4
71
3
72
22
73
18
40
0
40
0
40
0
40
0
40
0.0240724664518797
40
0.0240724664518797
40
0.186727055376566
40
0.186727055376566
40
0.349381644301253
40
0.349381644301253
40
0.51203623322594
40
0.51203623322594
40
0.674690822150627
40
0.674690822150627
40
0.75601811661297
40
0.75601811661297
40
0.837345411075313
40
0.837345411075313
40
1
40
1
40
1
40
1
41
1
10
17.3062300275534
20
-0.523193388382026
30
0
41
1
10
17.3034714305673
20
-0.529084178271717
30
0
41
1
10
17.3006946455075
20
-0.534979533304863
30
0
41
1
10
17.2790363523943
20
-0.580749926739344
30
0
41
1
10
17.2594356258223
20
-0.620846782719752
30
0
41
1
10
17.2195814309539
20
-0.701469297724657
30
0
41
1
10
17.1992963564315
20
-0.742038167297409
30
0
41
1
10
17.1583210200949
20
-0.823803740888252
30
0
41
1
10
17.1376291882322
20
-0.864991349000576
30
0
41
1
10
17.0960179251725
20
-0.947871828550234
30
0
41
1
10
17.0751107394755
20
-0.989511262491845
30
0
41
1
10
17.0436451204645
20
-1.05248753283064
30
0
41
1
10
17.0331371847961
20
-1.07357092546593
30
0
41
1
10
17.0120811627217
20
-1.1159883933642
30
0
41
1
10
17.0015298565864
20
-1.13734872884149
30
0
41
1
10
16.9698491386174
20
-1.20160906755512
30
0
41
1
10
16.9486990511945
20
-1.24467378402736
30
0
41
1
10
16.9276792763629
20
-1.28653003092555
30
0
0
SPLINE
5
C1
100
AcDbEntity
8
1
62
256
6
ByLayer
370
18
48
1
60
0
100
AcDbSpline
70
4
71
3
72
31
73
27
40
0
40
0
40
0
40
0
40
0.0259605486195306
40
0.0259605486195306
40
0.0519210972390612
40
0.0519210972390612
40
0.103842194478122
40
0.103842194478122
40
0.129802743097661
40
0.129802743097661
40
0.1557632917172
40
0.207684388956278
40
0.207684388956278
40
0.233644937575817
40
0.233644937575817
40
0.259605486195356
40
0.259605486195356
40
0.311526583434451
40
0.311526583434451
40
0.415368777912642
40
0.415368777912642
40
0.62305316686904
40
0.62305316686904
40
0.830737555825438
40
0.830737555825438
40
1
40
1
40
1
40
1
41
1
10
16.9276792763631
20
1.28653003092535
30
0
41
1
10
16.918961128326
20
1.28578379452864
30
0
41
1
10
16.910606004081
20
1.28485915501986
30
0
41
1
10
16.8944628637019
20
1.28270405116965
30
0
41
1
10
16.8866463910917
20
1.28148678879492
30
0
41
1
10
16.8635906667515
20
1.27756984557084
30
0
41
1
10
16.8487425782282
20
1.27460077775228
30
0
41
1
10
16.8262554022911
20
1.2700946374012
30
0
41
1
10
16.818721130975
20
1.26858690149822
30
0
41
1
10
16.8034436534809
20
1.26563932929798
30
0
41
1
10
16.7802606407558
20
1.261294548275
30
0
41
1
10
16.7565582427768
20
1.25706455875215
30
0
41
1
10
16.7329653549461
20
1.25265642269693
30
0
41
1
10
16.7251204233026
20
1.25115606287926
30
0
41
1
10
16.7095399965844
20
1.24804670958701
30
0
41
1
10
16.7017989816305
20
1.24644075199566
30
0
41
1
10
16.6786282302295
20
1.2415235329253
30
0
41
1
10
16.6632173025592
20
1.23813249667364
30
0
41
1
10
16.6167709481169
20
1.22784579412516
30
0
41
1
10
16.5856818601171
20
1.22075301730266
30
0
41
1
10
16.4926204837315
20
1.19839260959856
30
0
41
1
10
16.4306748046841
20
1.1821538662675
30
0
41
1
10
16.3067391551684
20
1.14719107970885
30
0
41
1
10
16.2447857616141
20
1.12843845214405
30
0
41
1
10
16.1322618124618
20
1.09217415622945
30
0
41
1
10
16.081683215085
20
1.07508743017661
30
0
41
1
10
16.0311562637863
20
1.05727710880873
30
0
0
SPLINE
5
C2
100
AcDbEntity
8
1
62
256
6
ByLayer
370
18
48
1
60
0
100
AcDbSpline
70
4
71
3
72
46
73
42
40
0
40
0
40
0
40
0
40
0.0089899603143305
40
0.0089899603143305
40
0.0443831760173902
40
0.0443831760173902
40
0.0797763917204499
40
0.0797763917204499
40
0.150562823126571
40
0.150562823126571
40
0.185956038829631
40
0.185956038829631
40
0.221349254532691
40
0.221349254532691
40
0.29213568593881
40
0.29213568593881
40
0.327528901641871
40
0.327528901641871
40
0.362922117344931
40
0.362922117344931
40
0.433708548751052
40
0.433708548751052
40
0.504494980157173
40
0.504494980157173
40
0.575281411563295
40
0.575281411563295
40
0.646067842969416
40
0.646067842969416
40
0.681461058672476
40
0.681461058672476
40
0.716854274375537
40
0.716854274375537
40
0.787640705781656
40
0.787640705781656
40
0.805337313633186
40
0.805337313633186
40
0.823033921484715
40
0.823033921484715
40
0.858427137187773
40
0.858427137187773
40
1
40
1
40
1
40
1
41
1
10
10.2851535569941
20
-1.33500024153031
30
0
41
1
10
10.2694454221946
20
-1.33499972599827
30
0
41
1
10
10.253737484819
20
-1.3349066616218
30
0
41
1
10
10.1761855260223
20
-1.33398988057894
30
0
41
1
10
10.1143040520772
20
-1.33182210583212
30
0
41
1
10
9.99035105278412
20
-1.32462407592757
30
0
41
1
10
9.92823001964786
20
-1.31958451584129
30
0
41
1
10
9.74223258416595
20
-1.30025034893083
30
0
41
1
10
9.61856784378904
20
-1.28174407826333
30
0
41
1
10
9.43307517090486
20
-1.24577846557037
30
0
41
1
10
9.37120900660599
20
-1.23244187808453
30
0
41
1
10
9.24731187953105
20
-1.20313441925327
30
0
41
1
10
9.18521443468339
20
-1.18714269594625
30
0
41
1
10
8.99914923780457
20
-1.13544055476652
30
0
41
1
10
8.87546293414266
20
-1.09602995924547
30
0
41
1
10
8.68997434809242
20
-1.02998672018154
30
0
41
1
10
8.628115320771
20
-1.00685551855284
30
0
41
1
10
8.50424519967706
20
-0.958467409489884
30
0
41
1
10
8.44218885218626
20
-0.933184151289709
30
0
41
1
10
8.25603087145598
20
-0.854402060410251
30
0
41
1
10
8.1323231801575
20
-0.798114626182269
30
0
41
1
10
7.88500776359851
20
-0.678978874048852
30
0
41
1
10
7.76126197576318
20
-0.616313829141887
30
0
41
1
10
7.51295175194551
20
-0.485844714181269
30
0
41
1
10
7.38921675445297
20
-0.418435588593525
30
0
41
1
10
7.14191259597916
20
-0.280389612542422
30
0
41
1
10
7.01819547758276
20
-0.210001382750818
30
0
41
1
10
6.83202569057238
20
-0.103217251836753
30
0
41
1
10
6.76997717380885
20
-0.0674788942295663
30
0
41
1
10
6.6461125442282
20
0.0039838078797629
30
0
41
1
10
6.58425451263355
20
0.0397392524197357
30
0
41
1
10
6.39876305575663
20
0.146833121615117
30
0
41
1
10
6.2750659242825
20
0.2177452432488
30
0
41
1
10
6.11999818782684
20
0.305086734086814
30
0
41
1
10
6.08894411352696
20
0.32250113403569
30
0
41
1
10
6.02692471959139
20
0.357103191966786
30
0
41
1
10
5.99594879367666
20
0.374296288416502
30
0
41
1
10
5.90310814359893
20
0.425529795535397
30
0
41
1
10
5.84134225846247
20
0.459243919143177
30
0
41
1
10
5.53283831275033
20
0.625095432110385
30
0
41
1
10
5.28661331097933
20
0.748378955731852
30
0
41
1
10
5.03845799999999
20
0.858320019888453
30
0
0
SPLINE
5
C3
100
AcDbEntity
8
1
62
256
6
ByLayer
370
18
48
1
60
0
100
AcDbSpline
70
4
71
3
72
29
73
25
40
0
40
0
40
0
40
0
40
0.0962269038634777
40
0.132311992812282
40
0.168397081761086
40
0.216510533692825
40
0.264623985624564
40
0.312737437556303
40
0.360850889488041
40
0.40896434141978
40
0.43302106738565
40
0.481134519317388
40
0.529247971249127
40
0.577361423180866
40
0.625474875112605
40
0.673588327044344
40
0.709673415993148
40
0.745758504941952
40
0.793871956873691
40
0.84198540880543
40
0.890098860737169
40
0.938212312668908
40
0.974297401617712
40
1
40
1
40
1
40
1
41
1
10
5.03845799999999
20
0.0147156664153272
30
0
41
1
10
5.10362266575112
20
0.0053014803684164
30
0
41
1
10
5.19322386346014
20
-0.0076474252941239
30
0
41
1
10
5.3072615865552
20
-0.0240737620543143
30
0
41
1
10
5.38871707037805
20
-0.035776748742876
30
0
41
1
10
5.47831810115233
20
-0.0485994138398382
30
0
41
1
10
5.57606474578247
20
-0.0625059778768673
30
0
41
0.999999999999999
10
5.67381152325223
20
-0.0763089412838554
30
0
41
1
10
5.77155850132033
20
-0.0899942775984072
30
0
41
1
10
5.853014538032
20
-0.101272866375211
30
0
41
1
10
5.93447079080087
20
-0.112417004116821
30
0
41
1
10
6.01592724641017
20
-0.123429170649786
30
0
41
1
10
6.11367551687706
20
-0.136417813923231
30
0
41
1
10
6.2114237678515
20
-0.149160089594375
30
0
41
1
10
6.30917202391111
20
-0.161638821786028
30
0
41
1
10
6.39877459039604
20
-0.17282000967856
30
0
41
1
10
6.48023146957368
20
-0.18276643360403
30
0
41
1
10
6.56168834857152
20
-0.192521143796739
30
0
41
1
10
6.65129091551492
20
-0.202962116630317
30
0
41
1
10
6.74903917035164
20
-0.213978236812977
30
0
41
1
10
6.84678742519099
20
-0.22460632336464
30
0
41
1
10
6.93638999212627
20
-0.233980116646848
30
0
41
1
10
7.01081577906967
20
-0.241489127872796
30
0
41
1
10
7.0526588143999
20
-0.245593046312052
30
0
41
1
10
7.0700647860206
20
-0.247279522798067
30
0
0
SPLINE
5
C4
100
AcDbEntity
8
1
62
256
6
ByLayer
370
18
48
1
60
0
100
AcDbSpline
70
4
71
3
72
26
73
22
40
0
40
0
40
0
40
0
40
0.0625
40
0.0625
40
0.125
40
0.125
40
0.25
40
0.25
40
0.375
40
0.375
40
0.5
40
0.5
40
0.625
40
0.625
40
0.75
40
0.75
40
0.8125
40
0.8125
40
0.875
40
0.875
40
1
40
1
40
1
40
1
41
1
10
17.3945698648177
20
0.302531670813124
30
0
41
1
10
17.3888902597264
20
0.322566855060245
30
0
41
1
10
17.3822448139959
20
0.342469466376059
30
0
41
1
10
17.3677106992812
20
0.38217235850513
30
0
41
1
10
17.3598195939187
20
0.401972337848633
30
0
41
1
10
17.3349336586212
20
0.461381205077316
30
0
41
1
10
17.3167686537583
20
0.501010389113191
30
0
41
1
10
17.2790363523943
20
0.580749926739315
30
0
41
1
10
17.2594356258223
20
0.620846782719724
30
0
41
1
10
17.2195814309539
20
0.701469297724628
30
0
41
1
10
17.1992963564315
20
0.742038167297352
30
0
41
1
10
17.1583210200949
20
0.823803740888224
30
0
41
1
10
17.1376291882322
20
0.864991349000519
30
0
41
1
10
17.0960179251725
20
0.947871828550177
30
0
41
1
10
17.0751107394756
20
0.98951126249176
30
0
41
1
10
17.0436451204645
20
1.05248753283055
30
0
41
1
10
17.0331371847961
20
1.07357092546584
30
0
41
1
10
17.0120811627217
20
1.11598839336412
30
0
41
1
10
17.0015298565865
20
1.1373487288414
30
0
41
1
10
16.9698491386175
20
1.20160906755501
30
0
41
1
10
16.9486990511947
20
1.24467378402727
30
0
41
1
10
16.927679276363
20
1.28653003092543
30
0
0
SPLINE
5
C5
100
AcDbEntity
8
1
62
256
6
ByLayer
370
18
48
1
60
0
100
AcDbSpline
70
4
71
3
72
74
73
70
40
0
40
0
40
0
40
0
40
0.001481186144751
40
0.001481186144751
40
0.043801165374566
40
0.043801165374566
40
0.064961154989474
40
0.064961154989474
40
0.086121144604382
40
0.086121144604382
40
0.128441123834197
40
0.128441123834197
40
0.170761103064012
40
0.170761103064012
40
0.213081082293827
40
0.213081082293827
40
0.234241071908735
40
0.234241071908735
40
0.24482106671619
40
0.24482106671619
40
0.255401061523644
40
0.255401061523644
40
0.340041019983279
40
0.340041019983279
40
0.382360999213096
40
0.382360999213096
40
0.424680978442913
40
0.424680978442913
40
0.445840968057823
40
0.445840968057823
40
0.467000957672732
40
0.467000957672732
40
0.509320936902553
40
0.509320936902553
40
0.519900931710009
40
0.519900931710009
40
0.530480926517465
40
0.530480926517465
40
0.551640916132378
40
0.551640916132378
40
0.593960895362206
40
0.593960895362206
40
0.678600853821864
40
0.678600853821864
40
0.68918084862932
40
0.68918084862932
40
0.699760843436776
40
0.699760843436776
40
0.720920833051688
40
0.720920833051688
40
0.763240812281512
40
0.763240812281512
40
0.784400801896426
40
0.784400801896426
40
0.805560791511339
40
0.805560791511339
40
0.847880770741167
40
0.847880770741167
40
0.86904076035608
40
0.86904076035608
40
0.890200749970993
40
0.890200749970993
40
0.932520729200817
40
0.932520729200817
40
0.953680718815729
40
0.953680718815729
40
0.97484070843064
40
0.97484070843064
40
1
40
1
40
1
40
1
41
1
10
7.25915588663591
20
1.3349998757698
30
0
41
1
10
7.26349843399467
20
1.33500070590509
30
0
41
1
10
7.26784034398187
20
1.33499443637513
30
0
41
1
10
7.39621724131442
20
1.3345989781933
30
0
41
1
10
7.52005859895047
20
1.3284428601998
30
0
41
1
10
7.70602672350483
20
1.31069954652341
30
0
41
1
10
7.76804803059795
20
1.30336508205289
30
0
41
1
10
7.8922367746317
20
1.28586486118334
30
0
41
1
10
7.95443784762662
20
1.27568141153029
30
0
41
1
10
8.14019272937105
20
1.24115925994639
30
0
41
1
10
8.26338895625105
20
1.21286800353857
30
0
41
1
10
8.50917961413779
20
1.14651177643631
30
0
41
1
10
8.63175601773483
20
1.10843275382422
30
0
41
1
10
8.87688686995708
20
1.02305393585777
30
0
41
1
10
8.99959405162664
20
0.975916131876147
30
0
41
1
10
9.1843412013319
20
0.899046964987633
30
0
41
1
10
9.24603701302362
20
0.87239471452645
30
0
41
1
10
9.33880846994819
20
0.83092348217113
30
0
41
1
10
9.36977143934749
20
0.816852561270821
30
0
41
1
10
9.43178273864726
20
0.788220210010394
30
0
41
1
10
9.46285331070484
20
0.773642703259384
30
0
41
1
10
9.74236870209216
20
0.640621497663233
30
0
41
1
10
9.98959168294991
20
0.510476490521739
30
0
41
1
10
10.3624258972678
20
0.30345745564037
30
0
41
1
10
10.4864198490351
20
0.233162512304659
30
0
41
1
10
10.7343111865185
20
0.0912539971551496
30
0
41
1
10
10.8582200933828
20
0.0195887393931002
30
0
41
1
10
11.0445463197584
20
-0.088087230317484
30
0
41
1
10
11.1066797406042
20
-0.123913358251485
30
0
41
1
10
11.2307493966952
20
-0.195025103805932
30
0
41
1
10
11.2927328400995
20
-0.230354324674408
30
0
41
1
10
11.4786480078169
20
-0.335462246169641
30
0
41
1
10
11.6025374261118
20
-0.404374396143027
30
0
41
1
10
11.7577448380025
20
-0.488352253176885
30
0
41
1
10
11.7888350232514
20
-0.505043852627466
30
0
41
1
10
11.8509196161245
20
-0.538061370374237
30
0
41
1
10
11.8819175710035
20
-0.554393674861473
30
0
41
1
10
11.9747910524272
20
-0.602848515512079
30
0
41
1
10
12.0365439431972
20
-0.634432890665806
30
0
41
1
10
12.2214363425116
20
-0.726879032410096
30
0
41
1
10
12.3442025781239
20
-0.785448118130233
30
0
41
1
10
12.7119513956126
20
-0.950687804689494
30
0
41
1
10
12.9569962062757
20
-1.04610723931071
30
0
41
1
10
13.2353306357267
20
-1.1330853442789
30
0
41
1
10
13.2663002971594
20
-1.14245867137802
30
0
41
1
10
13.3283492924394
20
-1.16059865638704
30
0
41
1
10
13.3594491617324
20
-1.16937256654882
30
0
41
1
10
13.4526391641231
20
-1.19469651069673
30
0
41
1
10
13.5146846740406
20
-1.21026973246958
30
0
41
1
10
13.70069837996
20
-1.25300407021078
30
0
41
1
10
13.8245340080445
20
-1.27619084516098
30
0
41
1
10
14.0105222712895
20
-1.3026821129958
30
0
41
1
10
14.072606401931
20
-1.3101200403955
30
0
41
1
10
14.1969313217194
20
-1.32214141110489
30
0
41
1
10
14.2590031666833
20
-1.32671403405848
30
0
41
1
10
14.4450677162598
20
-1.33612899680335
30
0
41
1
10
14.5689024650595
20
-1.33667452752403
30
0
41
1
10
14.7548283529861
20
-1.32883529995794
30
0
41
1
10
14.8168626723043
20
-1.324780806766
30
0
41
1
10
14.9411729290265
20
-1.31380551231945
30
0
41
1
10
15.0032937748651
20
-1.30689402004612
30
0
41
1
10
15.1893973243006
20
-1.28199417638416
30
0
41
1
10
15.3132349873438
20
-1.25983305444521
30
0
41
1
10
15.4991291490929
20
-1.21847578963136
30
0
41
1
10
15.5611518614703
20
-1.20335925371532
30
0
41
1
10
15.6854138217866
20
-1.17053353763473
30
0
41
1
10
15.7476019407829
20
-1.15283220059123
30
0
41
1
10
15.8835103070518
20
-1.11146861170249
30
0
41
1
10
15.9572648137732
20
-1.08729001300693
30
0
41
1
10
16.0310220684739
20
-1.06146526102475
30
0
0
SPLINE
5
C6
100
AcDbEntity
8
1
62
256
6
ByLayer
370
18
48
1
60
0
100
AcDbSpline
70
4
71
3
72
51
73
47
40
0
40
0
40
0
40
0
40
0.0114345209014105
40
0.0366410198633977
40
0.0618475188253849
40
0.0870540177873719
40
0.112260516749359
40
0.137467015711346
40
0.15007026519234
40
0.175276764154327
40
0.200483263116314
40
0.225689762078301
40
0.250896261040288
40
0.276102760002276
40
0.288706009483269
40
0.313912508445256
40
0.339119007407243
40
0.364325506369231
40
0.389532005331218
40
0.414738504293205
40
0.433643378514695
40
0.452548252736185
40
0.477754751698173
40
0.50296125066016
40
0.528167749622147
40
0.553374248584134
40
0.578580747546121
40
0.591183997027115
40
0.616390495989102
40
0.641596994951089
40
0.666803493913076
40
0.692009992875063
40
0.717216491837051
40
0.729819741318044
40
0.755026240280031
40
0.780232739242019
40
0.805439238204006
40
0.830645737165993
40
0.85585223612798
40
0.87475711034947
40
0.89366198457096
40
0.918868483532948
40
0.944074982494935
40
0.969281481456922
40
0.994487980418909
40
1
40
1
40
1
40
1
41
1
10
10.4679991660982
20
0.247974930451249
30
0
41
1
10
10.4827798344537
20
0.246548063305227
30
0
41
1
10
10.5301433197696
20
0.241927632542684
30
0
41
1
10
10.610089622046
20
0.233872478524575
30
0
41
1
10
10.7078380729276
20
0.223606158626296
30
0
41
1
10
10.8055865238079
20
0.212936092492185
30
0
41
1
10
10.9033349746933
20
0.201876996211666
30
0
41
1
10
10.9847920170761
20
0.192345454622171
30
0
41
1
10
11.0662490595695
20
0.182601398271231
30
0
41
1
10
11.1477061015904
20
0.172662587653178
30
0
41
1
10
11.2454545535548
20
0.160437067839808
30
0
41
1
10
11.3432030011226
20
0.147930992277509
30
0
41
1
10
11.44095146496
20
0.135161933278738
30
0
41
1
10
11.5224083441841
20
0.124316532497886
30
0
41
1
10
11.6038651288251
20
0.113329769194507
30
0
41
1
10
11.6853218151442
20
0.102205486685591
30
0
41
1
10
11.7830697038666
20
0.0886539706382621
30
0
41
1
10
11.8808174762885
20
0.0749671129999569
30
0
41
1
10
11.9785651515904
20
0.0611612267154555
30
0
41
0.999999999999999
10
12.0681671157185
20
0.0484100807607604
30
0
41
1
10
12.1496234037336
20
0.0367584144265436
30
0
41
1
10
12.2310796638222
20
0.0250636930934434
30
0
41
1
10
12.3206815255569
20
0.0121553105813064
30
0
41
1
10
12.4184289997867
20
-0.00196036198912
30
0
41
1
10
12.516176481794
20
-0.016097378007089
30
0
41
1
10
12.6139239906531
20
-0.0301828926821201
30
0
41
1
10
12.6953802863145
20
-0.0418666840874096
30
0
41
1
10
12.7768366225791
20
-0.053496301755672
30
0
41
1
10
12.8582930055404
20
-0.0650664788526285
30
0
41
1
10
12.9560407583601
20
-0.0788355102587843
30
0
41
1
10
13.0537886248942
20
-0.0924712999140809
30
0
41
1
10
13.1515366193861
20
-0.105950163359353
30
0
41
1
10
13.2329934225737
20
-0.117046393993064
30
0
41
1
10
13.3144502108574
20
-0.12799609600728
30
0
41
1
10
13.3959069961139
20
-0.138794001192025
30
0
41
1
10
13.4936551313542
20
-0.151493889809274
30
0
41
1
10
13.5914032614814
20
-0.163918090715782
30
0
41
1
10
13.6891513877755
20
-0.176049810968465
30
0
41
1
10
13.7787538346705
20
-0.186887083626999
30
0
41
1
10
13.8602106038275
20
-0.196500967805122
30
0
41
1
10
13.9416673729999
20
-0.205905516000484
30
0
41
1
10
14.031269819947
20
-0.21596154793383
30
0
41
1
10
14.1290179463526
20
-0.226527827682759
30
0
41
1
10
14.2267660766154
20
-0.23668268216835
30
0
41
1
10
14.2990565098351
20
-0.24387775221993
30
0
41
1
10
14.3387642328614
20
-0.247721228162021
30
0
41
1
10
14.3458892427553
20
-0.248407367814821
30
0
0
SPLINE
5
C7
100
AcDbEntity
8
1
62
256
6
ByLayer
370
18
48
1
60
0
100
AcDbSpline
70
4
71
3
72
48
73
44
40
0
40
0
40
0
40
0
40
0.124999999999995
40
0.124999999999995
40
0.187499999999992
40
0.187499999999992
40
0.249999999999989
40
0.249999999999989
40
0.312499999999986
40
0.312499999999986
40
0.374999999999984
40
0.374999999999984
40
0.437499999999981
40
0.437499999999981
40
0.499999999999978
40
0.499999999999978
40
0.531249999999975
40
0.546874999999975
40
0.546874999999975
40
0.562499999999975
40
0.562499999999975
40
0.62499999999998
40
0.62499999999998
40
0.687499999999986
40
0.687499999999986
40
0.703124999999987
40
0.703124999999987
40
0.718749999999988
40
0.749999999999989
40
0.749999999999989
40
0.812499999999992
40
0.812499999999992
40
0.828124999999993
40
0.828124999999993
40
0.843749999999994
40
0.843749999999994
40
0.874999999999995
40
0.874999999999995
40
0.937499999999997
40
0.937499999999997
40
0.968749999999999
40
0.968749999999999
40
1
40
1
40
1
40
1
41
1
10
5.03845799999999
20
-0.764902259537536
30
0
41
1
10
4.93673113514865
20
-0.740612706088996
30
0
41
1
10
4.83705295847162
20
-0.71118131015163
30
0
41
1
10
4.69060590698126
20
-0.658253460218788
30
0
41
1
10
4.64232562910996
20
-0.639142742764363
30
0
41
1
10
4.54734758283126
20
-0.597975180213268
30
0
41
1
10
4.50058204938878
20
-0.575895632764542
30
0
41
1
10
4.40852418619804
20
-0.528495400369707
30
0
41
1
10
4.36311057424768
20
-0.5030947266537
30
0
41
1
10
4.27473478608115
20
-0.449309491965721
30
0
41
1
10
4.23170391662231
20
-0.420901973738154
30
0
41
1
10
4.14801892010695
20
-0.360865038138399
30
0
41
1
10
4.10736407724269
20
-0.329236857063421
30
0
41
1
10
4.02854989098998
20
-0.262479709373849
30
0
41
1
10
3.99038917986502
20
-0.22735306368952
30
0
41
1
10
3.93517368797771
20
-0.17172416430941
30
0
41
1
10
3.9080735234167
20
-0.143173058254575
30
0
41
1
10
3.88177826003903
20
-0.113434221730927
30
0
41
1
10
3.86443311830215
20
-0.0933330075250467
30
0
41
1
10
3.85584478223782
20
-0.0831339901317563
30
0
41
1
10
3.81366727415551
20
-0.031775013269197
30
0
41
1
10
3.78214835084464
20
0.0107107323009643
30
0
41
1
10
3.72386161099641
20
0.0986468991535787
30
0
41
1
10
3.69708809122406
20
0.144093845962374
30
0
41
1
10
3.6669635798512
20
0.202972960917805
30
0
41
1
10
3.66110742737629
20
0.214854584519799
30
0
41
1
10
3.6498488427298
20
0.238604941441935
30
0
41
1
10
3.63359862096036
20
0.274293816909932
30
0
41
1
10
3.61926613163135
20
0.310164152411943
30
0
41
1
10
3.593207533287
20
0.382129762792005
30
0
41
1
10
3.57929120557898
20
0.430404343426659
30
0
41
1
10
3.56662183676786
20
0.49109615600986
30
0
41
1
10
3.56432576594162
20
0.50325213842757
30
0
41
1
10
3.56022613592407
20
0.527599588000044
30
0
41
1
10
3.55842398972342
20
0.539796170613982
30
0
41
1
10
3.55383469229821
20
0.575965022626661
30
0
41
1
10
3.55183424328743
20
0.599675214095868
30
0
41
1
10
3.54894177496368
20
0.669615401330475
30
0
41
1
10
3.55113946764726
20
0.714659196722408
30
0
41
1
10
3.56070461729965
20
0.779840084939252
30
0
41
1
10
3.56496587487081
20
0.801230905905982
30
0
41
1
10
3.57546678357619
20
0.842553700289983
30
0
41
1
10
3.58171034086624
20
0.862559211189421
30
0
41
1
10
3.58892505606514
20
0.881935057186013
30
0
0
SPLINE
5
C8
100
AcDbEntity
8
1
62
256
6
ByLayer
370
18
48
1
60
0
100
AcDbSpline
70
4
71
3
72
18
73
14
40
0
40
0
40
0
40
0
40
0.250000000000004
40
0.250000000000004
40
0.500000000000007
40
0.500000000000007
40
0.625000000000009
40
0.625000000000009
40
0.68750000000001
40
0.68750000000001
40
0.75000000000001
40
0.75000000000001
40
1
40
1
40
1
40
1
41
1
10
3.58892505606514
20
0.881935057186013
30
0
41
1
10
3.70845849702258
20
0.904027177654882
30
0
41
1
10
3.82858746517636
20
0.919380115613507
30
0
41
1
10
4.06999746221723
20
0.938571384167972
30
0
41
1
10
4.19127861569046
20
0.942404532133963
30
0
41
1
10
4.37407492031056
20
0.93970596860467
30
0
41
1
10
4.43515318203427
20
0.937385673584657
30
0
41
1
10
4.52699487857285
20
0.931678780488767
30
0
41
1
10
4.5576312875159
20
0.929404121437528
30
0
41
1
10
4.61862516445092
20
0.924121806182086
30
0
41
1
10
4.64902629452058
20
0.921111689511775
30
0
41
1
10
4.8005564352008
20
0.904182820815976
30
0
41
1
10
4.92026422195983
20
0.88469357906871
30
0
41
1
10
5.03845800003921
20
0.858320019879727
30
0
0
LINE
5
7F
100
AcDbEntity
8
1
62
256
6
ByLayer
370
18
48
1
60
0
100
AcDbLine
10
0
20
1.497708
30
0
11
0
21
-1.497708
31
0
39
0
210
0
220
0
230
1
0
LINE
5
80
100
AcDbEntity
8
1
62
256
6
ByLayer
370
18
48
1
60
0
100
AcDbLine
10
16.927679
20
0.677935
30
0
11
16.927679
21
-1.28653
31
0
39
0
210
0
220
0
230
1
0
LINE
5
81
100
AcDbEntity
8
1
62
256
6
ByLayer
370
18
48
1
60
0
100
AcDbLine
10
5.038458
20
0.014716
30
0
11
5.038458
21
-0.764902
31
0
39
0
210
0
220
0
230
1
0
LINE
5
82
100
AcDbEntity
8
1
62
256
6
ByLayer
370
13
48
1
60
0
100
AcDbLine
10
0.546756
20
1.335
30
0
11
0.546756
21
-1.335
31
0
39
0
210
0
220
0
230
1
0
LINE
5
83
100
AcDbEntity
8
1
62
256
6
ByLayer
370
18
48
1
60
0
100
AcDbLine
10
5.038458
20
0.85832
30
0
11
5.038458
21
0.014716
31
0
39
0
210
0
220
0
230
1
0
LINE
5
84
100
AcDbEntity
8
SK1
62
256
6
ByLayer
370
18
48
1
60
0
100
AcDbLine
10
-20.4498
20
1.326795
30
0
11
-20.4498
21
-1.326795
31
0
39
0
210
0
220
0
230
1
0
LINE
5
86
100
AcDbEntity
8
SK1
62
256
6
ByLayer
370
18
48
1
60
0
100
AcDbLine
10
0
20
1.497708
30
0
11
0
21
-1.497708
31
0
39
0
210
0
220
0
230
1
0
LINE
5
87
100
AcDbEntity
8
SK1
62
256
6
ByLayer
370
18
48
1
60
0
100
AcDbLine
10
-0.003494
20
1.5
30
0
11
-0.003494
21
-1.5
31
0
39
0
210
0
220
0
230
1
0
LINE
5
88
100
AcDbEntity
8
SK1
62
256
6
ByLayer
370
18
48
1
60
0
100
AcDbLine
10
-20.1498
20
1.5
30
0
11
-20.1498
21
-1.5
31
0
39
0
210
0
220
0
230
1
0
LINE
5
89
100
AcDbEntity
8
1
62
256
6
ByLayer
370
18
48
1
60
0
100
AcDbLine
10
17.5502
20
0
30
0
11
17.305571
21
0.524608
31
0
39
0
210
0
220
0
230
1
0
LINE
5
8A
100
AcDbEntity
8
1
62
256
6
ByLayer
370
18
48
1
60
0
100
AcDbLine
10
17.305571
20
-0.524608
30
0
11
17.5502
21
0
31
0
39
0
210
0
220
0
230
1
0
LINE
5
8B
100
AcDbEntity
8
1
62
256
6
ByLayer
370
18
48
1
60
0
100
AcDbLine
10
0.546756
20
-1.335
30
0
11
7.259358
21
-1.335
31
0
39
0
210
0
220
0
230
1
0
LINE
5
8C
100
AcDbEntity
8
1
62
256
6
ByLayer
370
18
48
1
60
0
100
AcDbLine
10
10.285167
20
-1.335
30
0
11
14.524054
21
-1.335
31
0
39
0
210
0
220
0
230
1
0
LINE
5
8D
100
AcDbEntity
8
1
62
256
6
ByLayer
370
18
48
1
60
0
100
AcDbLine
10
14.524054
20
1.335
30
0
11
10.285167
21
1.335
31
0
39
0
210
0
220
0
230
1
0
LINE
5
8E
100
AcDbEntity
8
1
62
256
6
ByLayer
370
18
48
1
60
0
100
AcDbLine
10
7.259358
20
1.335
30
0
11
0.546756
21
1.335
31
0
39
0
210
0
220
0
230
1
0
LINE
5
8F
100
AcDbEntity
8
SK1
62
256
6
ByLayer
370
18
48
1
60
0
100
AcDbLine
10
-20.4498
20
-1.326795
30
0
11
-20.1498
21
-1.5
31
0
39
0
210
0
220
0
230
1
0
LINE
5
90
100
AcDbEntity
8
SK1
62
256
6
ByLayer
370
18
48
1
60
0
100
AcDbLine
10
-20.1498
20
1.5
30
0
11
-20.4498
21
1.326795
31
0
39
0
210
0
220
0
230
1
0
LINE
5
91
100
AcDbEntity
8
SK1
62
256
6
ByLayer
370
18
48
1
60
0
100
AcDbLine
10
-20.1498
20
-1.5
30
0
11
-0.003494
21
-1.5
31
0
39
0
210
0
220
0
230
1
0
LINE
5
92
100
AcDbEntity
8
SK1
62
256
6
ByLayer
370
18
48
1
60
0
100
AcDbLine
10
-0.003494
20
1.5
30
0
11
-20.1498
21
1.5
31
0
39
0
210
0
220
0
230
1
0
LINE
5
93
100
AcDbEntity
8
4
62
256
6
ByLayer
370
18
48
0.05
60
0
100
AcDbLine
10
0
20
0
30
0
11
17.5502
21
0
31
0
39
0
210
0
220
0
230
1
0
LINE
5
95
100
AcDbEntity
8
81
62
256
6
ByLayer
370
18
48
1
60
0
100
AcDbLine
10
17.5502
20
0
30
0
11
20.5502
21
0
31
0
39
0
210
0
220
0
230
1
0
LINE
5
96
100
AcDbEntity
8
80
62
256
6
ByLayer
370
18
48
1
60
0
100
AcDbLine
10
0
20
0
30
0
11
-3
21
0
31
0
39
0
210
0
220
0
230
1
0
LINE
5
97
100
AcDbEntity
8
SK4
62
256
6
ByLayer
370
18
48
0.05
60
0
100
AcDbLine
10
-23.4498
20
0
30
0
11
20.5502
21
0
31
0
39
0
210
0
220
0
230
1
0
LINE
5
99
100
AcDbEntity
8
SK2
62
256
6
ByLayer
370
13
48
1
60
0
100
AcDbLine
10
-24.9498
20
-9
30
0
11
-24.9498
21
21.782741
31
0
39
0
210
0
220
0
230
1
0
LINE
5
9B
100
AcDbEntity
8
SK2
62
256
6
ByLayer
370
13
48
1
60
0
100
AcDbLine
10
-22.0373
20
-1.5
30
0
11
-26.9498
21
-1.5
31
0
39
0
210
0
220
0
230
1
0
LINE
5
9C
100
AcDbEntity
8
SK2
62
256
6
ByLayer
370
13
48
1
60
0
100
AcDbLine
10
-22.0373
20
1.5
30
0
11
-26.9498
21
1.5
31
0
39
0
210
0
220
0
230
1
0
LINE
5
9D
100
AcDbEntity
8
1
62
256
6
ByLayer
370
18
48
1
60
1
100
AcDbLine
10
-24.9498
20
-1.5
30
0
11
-24.489016
21
-4.999998
31
0
39
0
210
0
220
0
230
1
0
LINE
5
9E
100
AcDbEntity
8
1
62
256
6
ByLayer
370
18
48
1
60
1
100
AcDbLine
10
-24.489016
20
-4.999998
30
0
11
-25.410584
21
-5.000002
31
0
39
0
210
0
220
0
230
1
0
LINE
5
9F
100
AcDbEntity
8
1
62
256
6
ByLayer
370
18
48
1
60
1
100
AcDbLine
10
-25.410584
20
-5.000002
30
0
11
-24.9498
21
-1.5
31
0
39
0
210
0
220
0
230
1
0
LINE
5
A0
100
AcDbEntity
8
1
62
256
6
ByLayer
370
18
48
1
60
1
100
AcDbLine
10
-24.9498
20
1.5
30
0
11
-25.410584
21
4.999998
31
0
39
0
210
0
220
0
230
1
0
LINE
5
A1
100
AcDbEntity
8
1
62
256
6
ByLayer
370
18
48
1
60
1
100
AcDbLine
10
-25.410584
20
4.999998
30
0
11
-24.489016
21
5.000002
31
0
39
0
210
0
220
0
230
1
0
LINE
5
A2
100
AcDbEntity
8
1
62
256
6
ByLayer
370
18
48
1
60
1
100
AcDbLine
10
-24.489016
20
5.000002
30
0
11
-24.9498
21
1.5
31
0
39
0
210
0
220
0
230
1
0
LINE
5
A3
100
AcDbEntity
8
2
62
256
6
ByLayer
370
13
48
1
60
0
100
AcDbLine
10
23.0502
20
-8.835
30
0
11
23.0502
21
29.447741
31
0
39
0
210
0
220
0
230
1
0
LINE
5
A5
100
AcDbEntity
8
2
62
256
6
ByLayer
370
13
48
1
60
0
100
AcDbLine
10
19.1377
20
-1.335
30
0
11
25.0502
21
-1.335
31
0
39
0
210
0
220
0
230
1
0
LINE
5
A6
100
AcDbEntity
8
2
62
256
6
ByLayer
370
13
48
1
60
0
100
AcDbLine
10
19.1377
20
1.335
30
0
11
25.0502
21
1.335
31
0
39
0
210
0
220
0
230
1
0
LINE
5
A7
100
AcDbEntity
8
1
62
256
6
ByLayer
370
18
48
1
60
1
100
AcDbLine
10
23.0502
20
-1.335
30
0
11
23.510984
21
-4.834998
31
0
39
0
210
0
220
0
230
1
0
LINE
5
A8
100
AcDbEntity
8
1
62
256
6
ByLayer
370
18
48
1
60
1
100
AcDbLine
10
23.510984
20
-4.834998
30
0
11
22.589416
21
-4.835002
31
0
39
0
210
0
220
0
230
1
0
LINE
5
A9
100
AcDbEntity
8
1
62
256
6
ByLayer
370
18
48
1
60
1
100
AcDbLine
10
22.589416
20
-4.835002
30
0
11
23.0502
21
-1.335
31
0
39
0
210
0
220
0
230
1
0
LINE
5
AA
100
AcDbEntity
8
1
62
256
6
ByLayer
370
18
48
1
60
1
100
AcDbLine
10
23.0502
20
1.335
30
0
11
22.589416
21
4.834998
31
0
39
0
210
0
220
0
230
1
0
LINE
5
AB
100
AcDbEntity
8
1
62
256
6
ByLayer
370
18
48
1
60
1
100
AcDbLine
10
22.589416
20
4.834998
30
0
11
23.510984
21
4.835002
31
0
39
0
210
0
220
0
230
1
0
LINE
5
AC
100
AcDbEntity
8
1
62
256
6
ByLayer
370
18
48
1
60
1
100
AcDbLine
10
23.510984
20
4.835002
30
0
11
23.0502
21
1.335
31
0
39
0
210
0
220
0
230
1
0
LINE
5
AD
100
AcDbEntity
8
SK2
62
256
6
ByLayer
370
13
48
1
60
0
100
AcDbLine
10
18.221106
20
-1.438764
30
0
11
25.305245
21
-16.630748
31
0
39
0
210
0
220
0
230
1
0
LINE
5
AE
100
AcDbEntity
8
SK2
62
256
6
ByLayer
370
13
48
1
60
0
100
AcDbLine
10
18.221106
20
1.438764
30
0
11
25.305245
21
16.630748
31
0
39
0
210
0
220
0
230
1
0
LINE
5
AF
100
AcDbEntity
8
1
62
256
6
ByLayer
370
18
48
1
60
1
100
AcDbLine
10
24.460009
20
-14.818132
30
0
11
27.332042
21
-12.765394
31
0
39
0
210
0
220
0
230
1
0
LINE
5
B0
100
AcDbEntity
8
1
62
256
6
ByLayer
370
18
48
1
60
1
100
AcDbLine
10
27.332042
20
-12.765394
30
0
11
27.765471
21
-13.578675
31
0
39
0
210
0
220
0
230
1
0
LINE
5
B1
100
AcDbEntity
8
1
62
256
6
ByLayer
370
18
48
1
60
1
100
AcDbLine
10
27.765471
20
-13.578675
30
0
11
24.460009
21
-14.818132
31
0
39
0
210
0
220
0
230
1
0
LINE
5
B2
100
AcDbEntity
8
1
62
256
6
ByLayer
370
18
48
1
60
1
100
AcDbLine
10
24.460009
20
14.818132
30
0
11
27.765468
21
13.578677
31
0
39
0
210
0
220
0
230
1
0
LINE
5
B3
100
AcDbEntity
8
1
62
256
6
ByLayer
370
18
48
1
60
1
100
AcDbLine
10
27.765468
20
13.578677
30
0
11
27.332045
21
12.765392
31
0
39
0
210
0
220
0
230
1
0
LINE
5
B4
100
AcDbEntity
8
1
62
256
6
ByLayer
370
18
48
1
60
1
100
AcDbLine
10
27.332045
20
12.765392
30
0
11
24.460009
21
14.818132
31
0
39
0
210
0
220
0
230
1
0
LINE
5
CD
100
AcDbEntity
8
1
62
256
6
ByLayer
370
18
48
1
60
1
100
AcDbLine
10
-24.9498
20
-1.5
30
0
11
-24.489016
21
-4.999998
31
0
39
0
210
0
220
0
230
1
0
LINE
5
CE
100
AcDbEntity
8
1
62
256
6
ByLayer
370
18
48
1
60
1
100
AcDbLine
10
-24.489016
20
-4.999998
30
0
11
-25.410584
21
-5.000002
31
0
39
0
210
0
220
0
230
1
0
LINE
5
CF
100
AcDbEntity
8
1
62
256
6
ByLayer
370
18
48
1
60
1
100
AcDbLine
10
-25.410584
20
-5.000002
30
0
11
-24.9498
21
-1.5
31
0
39
0
210
0
220
0
230
1
0
LINE
5
D1
100
AcDbEntity
8
1
62
256
6
ByLayer
370
18
48
1
60
1
100
AcDbLine
10
-24.9498
20
1.5
30
0
11
-25.410584
21
4.999998
31
0
39
0
210
0
220
0
230
1
0
LINE
5
D2
100
AcDbEntity
8
1
62
256
6
ByLayer
370
18
48
1
60
1
100
AcDbLine
10
-25.410584
20
4.999998
30
0
11
-24.489016
21
5.000002
31
0
39
0
210
0
220
0
230
1
0
LINE
5
D3
100
AcDbEntity
8
1
62
256
6
ByLayer
370
18
48
1
60
1
100
AcDbLine
10
-24.489016
20
5.000002
30
0
11
-24.9498
21
1.5
31
0
39
0
210
0
220
0
230
1
0
LINE
5
D7
100
AcDbEntity
8
1
62
256
6
ByLayer
370
18
48
1
60
1
100
AcDbLine
10
23.0502
20
-1.335
30
0
11
23.510984
21
-4.834998
31
0
39
0
210
0
220
0
230
1
0
LINE
5
D8
100
AcDbEntity
8
1
62
256
6
ByLayer
370
18
48
1
60
1
100
AcDbLine
10
23.510984
20
-4.834998
30
0
11
22.589416
21
-4.835002
31
0
39
0
210
0
220
0
230
1
0
LINE
5
D9
100
AcDbEntity
8
1
62
256
6
ByLayer
370
18
48
1
60
1
100
AcDbLine
10
22.589416
20
-4.835002
30
0
11
23.0502
21
-1.335
31
0
39
0
210
0
220
0
230
1
0
LINE
5
DB
100
AcDbEntity
8
1
62
256
6
ByLayer
370
18
48
1
60
1
100
AcDbLine
10
23.0502
20
1.335
30
0
11
22.589416
21
4.834998
31
0
39
0
210
0
220
0
230
1
0
LINE
5
DC
100
AcDbEntity
8
1
62
256
6
ByLayer
370
18
48
1
60
1
100
AcDbLine
10
22.589416
20
4.834998
30
0
11
23.510984
21
4.835002
31
0
39
0
210
0
220
0
230
1
0
LINE
5
DD
100
AcDbEntity
8
1
62
256
6
ByLayer
370
18
48
1
60
1
100
AcDbLine
10
23.510984
20
4.835002
30
0
11
23.0502
21
1.335
31
0
39
0
210
0
220
0
230
1
0
LINE
5
E0
100
AcDbEntity
8
1
62
256
6
ByLayer
370
18
48
1
60
1
100
AcDbLine
10
24.460009
20
-14.818132
30
0
11
27.332042
21
-12.765394
31
0
39
0
210
0
220
0
230
1
0
LINE
5
E1
100
AcDbEntity
8
1
62
256
6
ByLayer
370
18
48
1
60
1
100
AcDbLine
10
27.332042
20
-12.765394
30
0
11
27.765471
21
-13.578675
31
0
39
0
210
0
220
0
230
1
0
LINE
5
E2
100
AcDbEntity
8
1
62
256
6
ByLayer
370
18
48
1
60
1
100
AcDbLine
10
27.765471
20
-13.578675
30
0
11
24.460009
21
-14.818132
31
0
39
0
210
0
220
0
230
1
0
LINE
5
E4
100
AcDbEntity
8
1
62
256
6
ByLayer
370
18
48
1
60
1
100
AcDbLine
10
24.460009
20
14.818132
30
0
11
27.765468
21
13.578677
31
0
39
0
210
0
220
0
230
1
0
LINE
5
E5
100
AcDbEntity
8
1
62
256
6
ByLayer
370
18
48
1
60
1
100
AcDbLine
10
27.765468
20
13.578677
30
0
11
27.332045
21
12.765392
31
0
39
0
210
0
220
0
230
1
0
LINE
5
E6
100
AcDbEntity
8
1
62
256
6
ByLayer
370
18
48
1
60
1
100
AcDbLine
10
27.332045
20
12.765392
30
0
11
24.460009
21
14.818132
31
0
39
0
210
0
220
0
230
1
0
MTEXT
5
C9
100
AcDbEntity
8
SK2
62
256
6
ByLayer
370
18
48
1
60
0
100
AcDbMText
10
-26.290914
20
6.658437
30
0
210
0
220
0
230
1
1
%%c
40
3
41
0
44
1.084337
50
90
71
7
72
5
7
iso_b_vert
0
MTEXT
5
CC
100
AcDbEntity
8
SK2
62
256
6
ByLayer
370
18
48
1
60
0
100
AcDbMText
10
-26.290914
20
12.635
30
0
210
0
220
0
230
1
1
\W0.7468;3.000
40
3
41
0
44
1.084337
50
90
71
7
72
5
7
iso_b_vert
0
MTEXT
5
D5
100
AcDbEntity
8
2
62
256
6
ByLayer
370
18
48
1
60
0
100
AcDbMText
10
21.709086
20
14.323437
30
0
210
0
220
0
230
1
1
%%c
40
3
41
0
44
1.084337
50
90
71
7
72
5
7
iso_b_vert
0
MTEXT
5
D6
100
AcDbEntity
8
2
62
256
6
ByLayer
370
18
48
1
60
0
100
AcDbMText
10
21.709086
20
20.3
30
0
210
0
220
0
230
1
1
\W0.7468;2.670
40
3
41
0
44
1.084337
50
90
71
7
72
5
7
iso_b_vert
0
MTEXT
5
DF
100
AcDbEntity
8
SK2
62
256
6
ByLayer
370
18
48
1
60
0
100
AcDbMText
10
30.617486
20
-2.114886
30
0
210
0
220
0
230
1
1
\W0.6747;130%%d
40
3
41
0
44
1.084337
50
0
71
7
72
5
7
iso_b_vert
0
MTEXT
5
E8
100
AcDbEntity
8
SK6
62
256
6
ByLayer
370
18
48
1
60
0
100
AcDbMText
10
-29.631339
20
-48.114886
30
0
210
0
220
0
230
1
1
\W0.7776;462.1-0267-009A0-XM X0BM
40
3
41
0
44
1.084337
50
0
71
7
72
5
7
iso_b_vert
0
HATCH
5
D0
100
AcDbEntity
8
SK2
62
256
6
ByLayer
370
13
48
1
60
0
100
AcDbHatch
10
0
20
0
30
0
210
0
220
0
230
1
2
ANSI31
70
0
71
0
91
1
92
5
93
3
72
1
10
-24.9498
20
-1.5
11
-24.4890162584472
21
-4.99999830744682
72
1
10
-24.4890162584472
20
-4.99999830744682
11
-25.4105837415528
21
-5.00000169255318
72
1
10
-25.4105837415528
20
-5.00000169255318
11
-24.9498
21
-1.5
97
0
75
0
76
1
52
0
41
0.0062
77
0
78
1
53
45
43
0
44
0
45
-0.0139193969876572
46
0.0139193969876572
79
0
47
0
98
1
10
0
20
0
0
HATCH
5
D4
100
AcDbEntity
8
SK2
62
256
6
ByLayer
370
13
48
1
60
0
100
AcDbHatch
10
0
20
0
30
0
210
0
220
0
230
1
2
ANSI31
70
0
71
0
91
1
92
5
93
3
72
1
10
-24.9498
20
1.5
11
-25.4105837415528
21
4.99999830744682
72
1
10
-25.4105837415528
20
4.99999830744682
11
-24.4890162584472
21
5.00000169255318
72
1
10
-24.4890162584472
20
5.00000169255318
11
-24.9498
21
1.5
97
0
75
0
76
1
52
0
41
0.0062
77
0
78
1
53
45
43
0
44
0
45
-0.0139193969876572
46
0.0139193969876572
79
0
47
0
98
1
10
0
20
0
0
HATCH
5
DA
100
AcDbEntity
8
2
62
256
6
ByLayer
370
13
48
1
60
0
100
AcDbHatch
10
0
20
0
30
0
210
0
220
0
230
1
2
ANSI31
70
0
71
0
91
1
92
5
93
3
72
1
10
23.0502
20
-1.33500000000001
11
23.5109837415528
21
-4.83499830744682
72
1
10
23.5109837415528
20
-4.83499830744682
11
22.5894162584472
21
-4.83500169255319
72
1
10
22.5894162584472
20
-4.83500169255319
11
23.0502
21
-1.33500000000001
97
0
75
0
76
1
52
0
41
0.0062
77
0
78
1
53
45
43
0
44
0
45
-0.0139193969876572
46
0.0139193969876572
79
0
47
0
98
1
10
0
20
0
0
HATCH
5
DE
100
AcDbEntity
8
2
62
256
6
ByLayer
370
13
48
1
60
0
100
AcDbHatch
10
0
20
0
30
0
210
0
220
0
230
1
2
ANSI31
70
0
71
0
91
1
92
5
93
3
72
1
10
23.0502
20
1.33500000000001
11
22.5894162584472
21
4.83499830744682
72
1
10
22.5894162584472
20
4.83499830744682
11
23.5109837415528
21
4.83500169255319
72
1
10
23.5109837415528
20
4.83500169255319
11
23.0502
21
1.33500000000001
97
0
75
0
76
1
52
0
41
0.0062
77
0
78
1
53
45
43
0
44
0
45
-0.0139193969876572
46
0.0139193969876572
79
0
47
0
98
1
10
0
20
0
0
HATCH
5
E3
100
AcDbEntity
8
SK2
62
256
6
ByLayer
370
13
48
1
60
0
100
AcDbHatch
10
0
20
0
30
0
210
0
220
0
230
1
2
ANSI31
70
0
71
0
91
1
92
5
93
3
72
1
10
24.4600085794604
20
-14.8181323180492
11
27.3320418553693
21
-12.765393983365
72
1
10
27.3320418553693
20
-12.765393983365
11
27.7654706127348
21
-13.5786750775861
72
1
10
27.7654706127348
20
-13.5786750775861
11
24.4600085794604
21
-14.8181323180492
97
0
75
0
76
1
52
0
41
0.0062
77
0
78
1
53
45
43
0
44
0
45
-0.0139193969876572
46
0.0139193969876572
79
0
47
0
98
1
10
0
20
0
0
HATCH
5
E7
100
AcDbEntity
8
SK2
62
256
6
ByLayer
370
13
48
1
60
0
100
AcDbHatch
10
0
20
0
30
0
210
0
220
0
230
1
2
ANSI31
70
0
71
0
91
1
92
5
93
3
72
1
10
24.4600085794604
20
14.8181323180492
11
27.7654676253807
21
13.5786766696479
72
1
10
27.7654676253807
20
13.5786766696479
11
27.3320448427234
21
12.7653923913032
72
1
10
27.3320448427234
20
12.7653923913032
11
24.4600085794604
21
14.8181323180492
97
0
75
0
76
1
52
0
41
0.0062
77
0
78
1
53
45
43
0
44
0
45
-0.0139193969876572
46
0.0139193969876572
79
0
47
0
98
1
10
0
20
0
0
DIMENSION
5
EB
100
AcDbEntity
8
SK2
62
256
6
ByLayer
370
18
48
1
60
0
100
AcDbDimension
2
_U0
10
17.5502
20
-39.018731
30
0
11
-1.4498
21
-39.018731
31
0
70
32
71
1
72
1
41
1
210
0
220
0
230
1
3
Standard
100
AcDbAlignedDimension
13
-20.4498
23
1.5
33
0
14
17.5502
24
1.335
34
0
50
0
100
AcDbRotatedDimension
1001
ACAD
1000
DSTYLE
1002
{
1070
   371
1070
    13
1070
   372
1070
    13
1070
     3
1000

1070
   170
1070
     0
1070
   144
1040
1.0
1070
   277
1070
     2
1070
   284
1070
     8
1070
   278
1070
    46
1070
   146
1040
1.166667
1070
   345
1005
16
1070
   347
1005
16
1070
   346
1005
16
1070
   344
1005
0
1070
   343
1005
0
1070
   172
1070
     1
1070
    76
1070
     0
1070
    75
1070
     0
1070
   282
1070
     0
1070
   281
1070
     0
1070
    71
1070
     0
1070
    74
1070
     0
1070
   279
1070
     0
1070
   173
1070
     1
1070
   340
1005
CA
1070
   271
1070
     2
1070
   272
1070
     2
1070
    77
1070
     1
1070
    73
1070
     1
1070
   171
1070
     3
1070
   274
1070
     4
1070
   177
1070
     2
1070
   176
1070
     2
1070
   178
1070
     2
1070
    78
1070
     8
1070
    48
1040
-0.1
1070
    41
1040
3.5
1070
   147
1040
1.5
1070
    42
1040
1.5875
1070
    44
1040
2.0
1070
   140
1040
3.0
1002
}
1001
ACAD_DSTYLE_DIM_LINETYPE
1070
   380
1005
16
1001
ACAD_DSTYLE_DIM_EXT1_LINETYPE
1070
   381
1005
16
1001
ACAD_DSTYLE_DIM_EXT2_LINETYPE
1070
   382
1005
16
0
DIMENSION
5
104
100
AcDbEntity
8
SK2
62
256
6
ByLayer
370
18
48
1
60
0
100
AcDbDimension
2
_U1
10
7.5552
20
-22.835
30
0
11
31.264486
21
-22.835
31
0
70
32
71
1
72
1
41
1
210
0
220
0
230
1
3
Standard
100
AcDbAlignedDimension
13
17.5502
23
1.335
33
0
14
7.5552
24
0
34
0
50
0
100
AcDbRotatedDimension
1001
ACAD
1000
DSTYLE
1002
{
1070
   371
1070
    13
1070
   372
1070
    13
1070
     3
1000

1070
   170
1070
     0
1070
   144
1040
1.0
1070
   277
1070
     2
1070
   284
1070
     8
1070
   278
1070
    46
1070
   146
1040
1.166667
1070
   345
1005
16
1070
   347
1005
16
1070
   346
1005
16
1070
   344
1005
0
1070
   343
1005
0
1070
   172
1070
     1
1070
    76
1070
     0
1070
    75
1070
     0
1070
   282
1070
     0
1070
   281
1070
     0
1070
    71
1070
     0
1070
    74
1070
     0
1070
   279
1070
     0
1070
   173
1070
     1
1070
   340
1005
CA
1070
   271
1070
     2
1070
   272
1070
     2
1070
    77
1070
     1
1070
    73
1070
     1
1070
   171
1070
     3
1070
   274
1070
     4
1070
   177
1070
     2
1070
   176
1070
     2
1070
   178
1070
     2
1070
    78
1070
     8
1070
    48
1040
-0.1
1070
    41
1040
3.5
1070
   147
1040
1.5
1070
    42
1040
1.5875
1070
    44
1040
2.0
1070
   140
1040
3.0
1002
}
1001
ACAD_DSTYLE_DIM_LINETYPE
1070
   380
1005
16
1001
ACAD_DSTYLE_DIM_EXT1_LINETYPE
1070
   381
1005
16
1001
ACAD_DSTYLE_DIM_EXT2_LINETYPE
1070
   382
1005
16
0
DIMENSION
5
11E
100
AcDbEntity
8
SK2
62
256
6
ByLayer
370
18
48
1
60
0
100
AcDbDimension
2
_U2
10
3.5502
20
-30.518731
30
0
11
10.5502
21
-30.518731
31
0
70
32
71
1
72
1
41
1
210
0
220
0
230
1
3
Standard
100
AcDbAlignedDimension
13
17.5502
23
1.335
33
0
14
3.5502
24
0
34
0
50
0
100
AcDbRotatedDimension
1001
ACAD
1000
DSTYLE
1002
{
1070
   371
1070
    13
1070
   372
1070
    13
1070
     3
1000

1070
   170
1070
     0
1070
   144
1040
1.0
1070
   277
1070
     2
1070
   284
1070
     8
1070
   278
1070
    46
1070
   146
1040
1.166667
1070
   345
1005
16
1070
   347
1005
16
1070
   346
1005
16
1070
   344
1005
0
1070
   343
1005
0
1070
   172
1070
     1
1070
    76
1070
     0
1070
    75
1070
     0
1070
   282
1070
     0
1070
   281
1070
     0
1070
    71
1070
     0
1070
    74
1070
     0
1070
   279
1070
     0
1070
   173
1070
     1
1070
   340
1005
CA
1070
   271
1070
     2
1070
   272
1070
     2
1070
    77
1070
     1
1070
    73
1070
     1
1070
   171
1070
     3
1070
   274
1070
     4
1070
   177
1070
     2
1070
   176
1070
     2
1070
   178
1070
     2
1070
    78
1070
     8
1070
    48
1040
-0.1
1070
    41
1040
3.5
1070
   147
1040
1.5
1070
    42
1040
1.5875
1070
    44
1040
2.0
1070
   140
1040
3.0
1002
}
1001
ACAD_DSTYLE_DIM_LINETYPE
1070
   380
1005
16
1001
ACAD_DSTYLE_DIM_EXT1_LINETYPE
1070
   381
1005
16
1001
ACAD_DSTYLE_DIM_EXT2_LINETYPE
1070
   382
1005
16
0
DIMENSION
5
137
100
AcDbEntity
8
SK2
62
256
6
ByLayer
370
18
48
1
60
0
100
AcDbDimension
2
_U3
10
0
20
11.518731
30
0
11
-10.2249
21
11.518731
31
0
70
32
71
1
72
1
41
1
210
0
220
0
230
1
3
Standard
100
AcDbAlignedDimension
13
-20.4498
23
0
33
0
14
0
24
0
34
0
50
0
100
AcDbRotatedDimension
1001
ACAD
1000
DSTYLE
1002
{
1070
   371
1070
    13
1070
   372
1070
    13
1070
     3
1000

1070
   170
1070
     0
1070
   144
1040
1.0
1070
   277
1070
     2
1070
   284
1070
     8
1070
   278
1070
    46
1070
   146
1040
1.166667
1070
   345
1005
16
1070
   347
1005
16
1070
   346
1005
16
1070
   344
1005
0
1070
   343
1005
0
1070
   172
1070
     1
1070
    76
1070
     0
1070
    75
1070
     0
1070
   282
1070
     0
1070
   281
1070
     0
1070
    71
1070
     0
1070
    74
1070
     0
1070
   279
1070
     0
1070
   173
1070
     1
1070
   340
1005
CA
1070
   271
1070
     2
1070
   272
1070
     2
1070
    77
1070
     1
1070
    73
1070
     1
1070
   171
1070
     3
1070
   274
1070
     4
1070
   177
1070
     2
1070
   176
1070
     2
1070
   178
1070
     2
1070
    78
1070
     8
1070
    48
1040
-0.1
1070
    41
1040
3.5
1070
   147
1040
1.5
1070
    42
1040
1.5875
1070
    44
1040
2.0
1070
   140
1040
3.0
1002
}
1001
ACAD_DSTYLE_DIM_LINETYPE
1070
   380
1005
16
1001
ACAD_DSTYLE_DIM_EXT1_LINETYPE
1070
   381
1005
16
1001
ACAD_DSTYLE_DIM_EXT2_LINETYPE
1070
   382
1005
16
0
DIMENSION
5
14F
100
AcDbEntity
8
2
62
256
6
ByLayer
370
18
48
1
60
0
100
AcDbDimension
2
_U4
10
0
20
11.518731
30
0
11
8.7751
21
11.518731
31
0
70
32
71
1
72
1
41
1
210
0
220
0
230
1
3
Standard
100
AcDbAlignedDimension
13
17.5502
23
1.335
33
0
14
0
24
0
34
0
50
0
100
AcDbRotatedDimension
1001
ACAD
1000
DSTYLE
1002
{
1070
   371
1070
    13
1070
   372
1070
    13
1070
     3
1000

1070
   170
1070
     0
1070
   144
1040
1.0
1070
   277
1070
     2
1070
   284
1070
     8
1070
   278
1070
    46
1070
   146
1040
1.166667
1070
   345
1005
16
1070
   347
1005
16
1070
   346
1005
16
1070
   344
1005
0
1070
   343
1005
0
1070
   172
1070
     1
1070
    76
1070
     0
1070
    75
1070
     0
1070
   282
1070
     0
1070
   281
1070
     0
1070
    71
1070
     0
1070
    74
1070
     0
1070
   279
1070
     0
1070
   173
1070
     1
1070
   340
1005
CA
1070
   271
1070
     2
1070
   272
1070
     2
1070
    77
1070
     1
1070
    73
1070
     1
1070
   171
1070
     3
1070
   274
1070
     4
1070
   177
1070
     2
1070
   176
1070
     2
1070
   178
1070
     2
1070
    78
1070
     8
1070
    48
1040
-0.1
1070
    41
1040
3.5
1070
   147
1040
1.5
1070
    42
1040
1.5875
1070
    44
1040
2.0
1070
   140
1040
3.0
1002
}
1001
ACAD_DSTYLE_DIM_LINETYPE
1070
   380
1005
16
1001
ACAD_DSTYLE_DIM_EXT1_LINETYPE
1070
   381
1005
16
1001
ACAD_DSTYLE_DIM_EXT2_LINETYPE
1070
   382
1005
16
0
ENDSEC
0
SECTION
2
OBJECTS
0
DICTIONARY
5
1d7
330
0
100
AcDbDictionary
280
0
281
1
3
ACAD_GROUP
350
1d8
3
ACAD_MLINESTYLE
350
1d9
0
DICTIONARY
5
1d8
330
0
100
AcDbDictionary
280
0
281
1
0
DICTIONARY
5
1d9
330
0
100
AcDbDictionary
280
0
281
1
3
Standard
350
18
0
MLINESTYLE
5
18
330
1d9
100
AcDbMlineStyle
2
Standard
70
0
3

62
256
51
90
52
90
71
2
49
-0.5
62
256
6
ByLayer
49
0.5
62
256
6
ByLayer
0
RASTERVARIABLES
5
1c5
330

100
AcDbRasterVariables
90
0
70
1
71
1
72
1
0
ENDSEC
0
EOF
