0
SECTION
2
HEADER
9
$ACADVER
1
AC1015
9
$DWGCODEPAGE
3
ANSI_1252
9
$HANDSEED
5
1ea
9
$ANGBASE
50
0
9
$ANGDIR
70
0
9
$ATTMODE
70
1
9
$AUNITS
70
0
9
$AUPREC
70
0
9
$CECOLOR
62
256
9
$CELTSCALE
40
1
9
$CELTYPE
6
ByLayer
9
$CELWEIGHT
370
18
9
$CLAYER
8
0
9
$CMLJUST
70
0
9
$CMLSCALE
40
1
9
$CMLSTYLE
2
Standard
9
$DIMSTYLE
2
Standard
9
$TEXTSIZE
40
0.2
9
$TEXTSTYLE
7
Standard
9
$LUNITS
70
2
9
$LUPREC
70
4
9
$EXTNAMES
290
1
9
$INSUNITS
70
4
9
$LTSCALE
40
1
9
$LWDISPLAY
290
1
9
$PDMODE
70
0
9
$PDSIZE
40
0
9
$PLINEGEN
70
0
0
ENDSEC
0
SECTION
2
CLASSES
0
CLASS
1
RASTERVARIABLES
2
AcDbRasterVariables
3
ISM
90
0
280
0
281
0
0
ENDSEC
0
SECTION
2
TABLES
0
TABLE
2
VPORT
5
1e0
100
AcDbSymbolTable
0
VPORT
5
1
100
AcDbSymbolTableRecord
100
AcDbViewportTableRecord
2
*Active
70
0
10
0
20
0
11
1
21
1
12
-1
22
1
13
0
23
0
14
0.5
24
0.5
15
10
25
10
16
0
26
0
36
1
17
0
27
0
37
0
0
ENDTAB
0
TABLE
2
LTYPE
5
1e1
100
AcDbSymbolTable
0
LTYPE
5
14
100
AcDbSymbolTableRecord
100
AcDbLinetypeTableRecord
70
0
2
ByBlock
3

72
65
73
0
40
0
0
LTYPE
5
15
100
AcDbSymbolTableRecord
100
AcDbLinetypeTableRecord
70
0
2
ByLayer
3

72
65
73
0
40
0
0
LTYPE
5
16
100
AcDbSymbolTableRecord
100
AcDbLinetypeTableRecord
70
0
2
Continuous
3
Solid line
72
65
73
0
40
0
0
LTYPE
5
6E
100
AcDbSymbolTableRecord
100
AcDbLinetypeTableRecord
70
0
2
CENTER
3
____ _ ____ _ ____ _ ____
72
65
73
4
40
47.5
49
22
74
0
49
-8.5
74
0
49
8.5
74
0
49
-8.5
74
0
0
LTYPE
5
6F
100
AcDbSymbolTableRecord
100
AcDbLinetypeTableRecord
70
0
2
DASHED
3
__ __ __ __ __ __ __ __ __
72
65
73
2
40
25.72
49
12.86
74
0
49
-12.86
74
0
0
ENDTAB
0
TABLE
2
LAYER
5
1e2
100
AcDbSymbolTable
0
LAYER
5
10
100
AcDbSymbolTableRecord
100
AcDbLayerTableRecord
2
0
70
0
62
7
6
Continuous
290
1
370
-3
390
0
0
LAYER
5
71
100
AcDbSymbolTableRecord
100
AcDbLayerTableRecord
2
80
70
0
62
-6
6
Continuous
290
1
370
-3
390
0
0
LAYER
5
73
100
AcDbSymbolTableRecord
100
AcDbLayerTableRecord
2
81
70
0
62
-3
6
Continuous
290
1
370
-3
390
0
0
LAYER
5
75
100
AcDbSymbolTableRecord
100
AcDbLayerTableRecord
2
1
70
0
62
4
6
Continuous
290
1
370
-3
390
0
0
LAYER
5
9B
100
AcDbSymbolTableRecord
100
AcDbLayerTableRecord
2
4
70
0
62
-2
6
CENTER
290
1
370
-3
390
0
0
LAYER
5
AB
100
AcDbSymbolTableRecord
100
AcDbLayerTableRecord
2
2
70
0
62
7
6
Continuous
290
1
370
-3
390
0
0
LAYER
5
F3
100
AcDbSymbolTableRecord
100
AcDbLayerTableRecord
2
Defpoints
70
0
62
7
6
Continuous
290
0
370
-3
390
0
0
LAYER
5
1cc
100
AcDbSymbolTableRecord
100
AcDbLayerTableRecord
2
SK1
70
0
62
4
6
Continuous
290
1
370
-3
390
0
0
LAYER
5
1cd
100
AcDbSymbolTableRecord
100
AcDbLayerTableRecord
2
SK4
70
0
62
2
6
CENTER
290
1
370
-3
390
0
0
LAYER
5
1ce
100
AcDbSymbolTableRecord
100
AcDbLayerTableRecord
2
SK2
70
0
62
7
6
Continuous
290
1
370
-3
390
0
0
LAYER
5
1cf
100
AcDbSymbolTableRecord
100
AcDbLayerTableRecord
2
SK6
70
0
62
5
6
Continuous
290
1
370
-3
390
0
0
ENDTAB
0
TABLE
2
STYLE
5
1e3
100
AcDbSymbolTable
0
STYLE
5
11
100
AcDbSymbolTableRecord
100
AcDbTextStyleTableRecord
2
Standard
3
txt
70
0
71
0
40
0
41
1
42
0
50
0
0
STYLE
5
CF
100
AcDbSymbolTableRecord
100
AcDbTextStyleTableRecord
2
iso_b_vert
3
simplex.shx
70
0
71
0
40
0
41
1
42
0
50
0
0
STYLE
5
D0
100
AcDbSymbolTableRecord
100
AcDbTextStyleTableRecord
2
DWGDirectTextStyle
3
simplex
70
0
71
0
40
0
41
1
42
0
50
0
0
ENDTAB
0
TABLE
2
DIMSTYLE
5
1e4
100
AcDbSymbolTable
100
AcDbDimStyleTable
0
DIMSTYLE
105
27
100
AcDbSymbolTableRecord
100
AcDbDimStyleTableRecord
2
Standard
70
0
3
<>
41
0.18
42
0.0625
44
0.18
140
0.18
147
0.09
73
0
74
0
77
1
271
2
275
0
278
52
280
0
340
11
0
ENDTAB
0
TABLE
2
VIEW
5
1e5
100
AcDbSymbolTable
0
ENDTAB
0
TABLE
2
UCS
5
1e6
100
AcDbSymbolTable
0
ENDTAB
0
TABLE
2
APPID
5
1e7
100
AcDbSymbolTable
0
APPID
5
12
100
AcDbSymbolTableRecord
100
AcDbRegAppTableRecord
2
ACAD
70
0
0
APPID
5
EF
100
AcDbSymbolTableRecord
100
AcDbRegAppTableRecord
2
ACAD_DSTYLE_DIMBREAK
70
0
0
APPID
5
18B
100
AcDbSymbolTableRecord
100
AcDbRegAppTableRecord
2
ACAD_DSTYLE_DIM_LINETYPE
70
0
0
APPID
5
18C
100
AcDbSymbolTableRecord
100
AcDbRegAppTableRecord
2
ACAD_DSTYLE_DIM_EXT1_LINETYPE
70
0
0
APPID
5
18D
100
AcDbSymbolTableRecord
100
AcDbRegAppTableRecord
2
ACAD_DSTYLE_DIM_EXT2_LINETYPE
70
0
0
APPID
5
1C8
100
AcDbSymbolTableRecord
100
AcDbRegAppTableRecord
2
ACAD_MLEADERVER
70
0
0
ENDTAB
0
TABLE
2
BLOCK_RECORD
5
1e8
100
AcDbSymbolTable
0
BLOCK_RECORD
5
1F
100
AcDbSymbolTableRecord
100
AcDbBlockTableRecord
2
*Model_Space
340
0
70
0
0
BLOCK_RECORD
5
1B
100
AcDbSymbolTableRecord
100
AcDbBlockTableRecord
2
*Paper_Space
340
0
70
0
0
BLOCK_RECORD
5
23
100
AcDbSymbolTableRecord
100
AcDbBlockTableRecord
2
*Paper_Space0
340
0
70
0
0
BLOCK_RECORD
5
F4
100
AcDbSymbolTableRecord
100
AcDbBlockTableRecord
2
*D1
340
0
70
0
0
BLOCK_RECORD
5
100
100
AcDbSymbolTableRecord
100
AcDbBlockTableRecord
2
_U0
340
0
70
0
0
BLOCK_RECORD
5
10C
100
AcDbSymbolTableRecord
100
AcDbBlockTableRecord
2
*D3
340
0
70
0
0
BLOCK_RECORD
5
11A
100
AcDbSymbolTableRecord
100
AcDbBlockTableRecord
2
_U1
340
0
70
0
0
BLOCK_RECORD
5
126
100
AcDbSymbolTableRecord
100
AcDbBlockTableRecord
2
*D5
340
0
70
0
0
BLOCK_RECORD
5
133
100
AcDbSymbolTableRecord
100
AcDbBlockTableRecord
2
_U2
340
0
70
0
0
BLOCK_RECORD
5
13F
100
AcDbSymbolTableRecord
100
AcDbBlockTableRecord
2
*D7
340
0
70
0
0
BLOCK_RECORD
5
14B
100
AcDbSymbolTableRecord
100
AcDbBlockTableRecord
2
_U3
340
0
70
0
0
BLOCK_RECORD
5
157
100
AcDbSymbolTableRecord
100
AcDbBlockTableRecord
2
*D9
340
0
70
0
0
BLOCK_RECORD
5
164
100
AcDbSymbolTableRecord
100
AcDbBlockTableRecord
2
_U4
340
0
70
0
0
ENDTAB
0
ENDSEC
0
SECTION
2
BLOCKS
0
BLOCK
5
20
100
AcDbEntity
8
0
100
AcDbBlockBegin
2
*Model_Space
70
0
10
0
20
0
30
0
3
*Model_Space
0
ENDBLK
5
21
100
AcDbEntity
8
0
100
AcDbBlockEnd
0
BLOCK
5
1C
100
AcDbEntity
8
0
100
AcDbBlockBegin
2
*Paper_Space
70
0
10
0
20
0
30
0
3
*Paper_Space
0
ENDBLK
5
1D
100
AcDbEntity
8
0
100
AcDbBlockEnd
0
BLOCK
5
24
100
AcDbEntity
8
0
100
AcDbBlockBegin
2
*Paper_Space0
70
0
10
0
20
0
30
0
3
*Paper_Space0
0
ENDBLK
5
25
100
AcDbEntity
8
0
100
AcDbBlockEnd
0
BLOCK
5
F5
100
AcDbEntity
8
0
100
AcDbBlockBegin
2
*D1
70
1
10
0
20
0
30
0
3
*D1
0
LINE
5
F7
100
AcDbEntity
8
0
62
256
6
ByLayer
370
-2
48
1
60
0
100
AcDbLine
10
-23.4054
20
-0.0875
30
0
11
-23.4054
21
-40.979306
31
0
39
0
210
0
220
0
230
1
0
LINE
5
F8
100
AcDbEntity
8
0
62
256
6
ByLayer
370
-2
48
1
60
0
100
AcDbLine
10
14.5946
20
-0.6225
30
0
11
14.5946
21
-40.979306
31
0
39
0
210
0
220
0
230
1
0
LINE
5
F9
100
AcDbEntity
8
0
62
256
6
ByLayer
370
-2
48
1
60
0
100
AcDbLine
10
-19.9054
20
-38.979306
30
0
11
11.0946
21
-38.979306
31
0
39
0
210
0
220
0
230
1
0
SOLID
5
FA
100
AcDbEntity
8
0
62
256
6
ByLayer
370
-1
48
1
60
0
100
AcDbTrace
10
-19.9054
20
-38.395973
30
0
11
-19.9054
21
-39.56264
31
0
12
-23.4054
22
-38.979306
32
0
13
-23.4054
23
-38.979306
33
0
39
0
210
0
220
0
230
1
0
SOLID
5
FB
100
AcDbEntity
8
0
62
256
6
ByLayer
370
-1
48
1
60
0
100
AcDbTrace
10
11.0946
20
-39.56264
30
0
11
11.0946
21
-38.395973
31
0
12
14.5946
22
-38.979306
32
0
13
14.5946
23
-38.979306
33
0
39
0
210
0
220
0
230
1
0
MTEXT
5
FC
100
AcDbEntity
8
0
62
256
6
ByLayer
370
18
48
1
60
0
100
AcDbMText
10
-4.4054
20
-32.979306
30
0
210
0
220
0
230
1
1
\A1;38
40
3
41
0
44
1
50
0
71
5
72
5
7
iso_b_vert
0
POINT
5
FD
100
AcDbEntity
8
Defpoints
62
0
6
ByLayer
370
-1
48
1
60
0
100
AcDbPoint
10
-23.4054
20
1.5
30
0
39
0
210
0
220
0
230
1
50
360
0
POINT
5
FE
100
AcDbEntity
8
Defpoints
62
0
6
ByLayer
370
-1
48
1
60
0
100
AcDbPoint
10
14.5946
20
0.965
30
0
39
0
210
0
220
0
230
1
50
360
0
POINT
5
FF
100
AcDbEntity
8
Defpoints
62
0
6
ByLayer
370
-1
48
1
60
0
100
AcDbPoint
10
14.5946
20
-38.979306
30
0
39
0
210
0
220
0
230
1
50
360
0
ENDBLK
5
F6
100
AcDbEntity
8
0
100
AcDbBlockEnd
0
BLOCK
5
107
100
AcDbEntity
8
0
100
AcDbBlockBegin
2
_U0
70
0
10
0
20
0
30
0
3
_U0
0
MTEXT
5
101
100
AcDbEntity
8
SK2
62
256
6
ByLayer
370
18
48
1
60
0
100
AcDbMText
10
-8.88777
20
-38.094192
30
0
210
0
220
0
230
1
1
\W0.7468;38.00
40
3
41
0
44
1.084337
50
0
71
7
72
5
7
iso_b_vert
0
LINE
5
102
100
AcDbEntity
8
SK2
62
256
6
ByLayer
370
13
48
1
60
0
100
AcDbLine
10
-23.4054
20
-0.0875
30
0
11
-23.4054
21
-40.979306
31
0
39
0
210
0
220
0
230
1
0
LINE
5
103
100
AcDbEntity
8
SK2
62
256
6
ByLayer
370
13
48
1
60
0
100
AcDbLine
10
14.5946
20
-0.6225
30
0
11
14.5946
21
-40.979306
31
0
39
0
210
0
220
0
230
1
0
LINE
5
104
100
AcDbEntity
8
SK2
62
256
6
ByLayer
370
13
48
1
60
0
100
AcDbLine
10
-23.4054
20
-38.979306
30
0
11
14.5946
21
-38.979306
31
0
39
0
210
0
220
0
230
1
0
SOLID
5
105
100
AcDbEntity
8
SK2
62
256
6
ByLayer
370
18
48
1
60
0
100
AcDbTrace
10
-23.4054
20
-38.979306
30
0
11
-19.905402
21
-38.518522
31
0
12
-19.905398
22
-39.44009
32
0
13
-19.905398
23
-39.44009
33
0
39
0
210
0
220
0
230
1
0
SOLID
5
106
100
AcDbEntity
8
SK2
62
256
6
ByLayer
370
18
48
1
60
0
100
AcDbTrace
10
14.5946
20
-38.979306
30
0
11
11.094602
21
-39.44009
31
0
12
11.094598
22
-38.518522
32
0
13
11.094598
23
-38.518522
33
0
39
0
210
0
220
0
230
1
0
ENDBLK
5
108
100
AcDbEntity
8
0
100
AcDbBlockEnd
0
BLOCK
5
10D
100
AcDbEntity
8
0
100
AcDbBlockBegin
2
*D3
70
1
10
0
20
0
30
0
3
*D3
0
LINE
5
10F
100
AcDbEntity
8
0
62
256
6
ByLayer
370
-2
48
1
60
0
100
AcDbLine
10
14.5946
20
-0.6225
30
0
11
14.5946
21
-24.465
31
0
39
0
210
0
220
0
230
1
0
LINE
5
110
100
AcDbEntity
8
0
62
256
6
ByLayer
370
-2
48
1
60
0
100
AcDbLine
10
6.2896
20
-1.5875
30
0
11
6.2896
21
-24.465
31
0
39
0
210
0
220
0
230
1
0
LINE
5
111
100
AcDbEntity
8
0
62
256
6
ByLayer
370
-2
48
1
60
0
100
AcDbLine
10
14.5946
20
-22.465
30
0
11
38.880314
21
-22.465
31
0
39
0
210
0
220
0
230
1
0
LINE
5
112
100
AcDbEntity
8
0
62
256
6
ByLayer
370
-2
48
1
60
0
100
AcDbLine
10
18.0946
20
-22.465
30
0
11
21.5946
21
-22.465
31
0
39
0
210
0
220
0
230
1
0
LINE
5
113
100
AcDbEntity
8
0
62
256
6
ByLayer
370
-2
48
1
60
0
100
AcDbLine
10
2.7896
20
-22.465
30
0
11
-0.7104
21
-22.465
31
0
39
0
210
0
220
0
230
1
0
SOLID
5
114
100
AcDbEntity
8
0
62
256
6
ByLayer
370
-1
48
1
60
0
100
AcDbTrace
10
18.0946
20
-21.881667
30
0
11
18.0946
21
-23.048333
31
0
12
14.5946
22
-22.465
32
0
13
14.5946
23
-22.465
33
0
39
0
210
0
220
0
230
1
0
SOLID
5
115
100
AcDbEntity
8
0
62
256
6
ByLayer
370
-1
48
1
60
0
100
AcDbTrace
10
2.7896
20
-23.048333
30
0
11
2.7896
21
-21.881667
31
0
12
6.2896
22
-22.465
32
0
13
6.2896
23
-22.465
33
0
39
0
210
0
220
0
230
1
0
MTEXT
5
116
100
AcDbEntity
8
0
62
256
6
ByLayer
370
18
48
1
60
0
100
AcDbMText
10
30.237457
20
-16.465
30
0
210
0
220
0
230
1
1
\A1;8.31
40
3
41
0
44
1
50
0
71
5
72
5
7
iso_b_vert
0
POINT
5
117
100
AcDbEntity
8
Defpoints
62
0
6
ByLayer
370
-1
48
1
60
0
100
AcDbPoint
10
14.5946
20
0.965
30
0
39
0
210
0
220
0
230
1
50
360
0
POINT
5
118
100
AcDbEntity
8
Defpoints
62
0
6
ByLayer
370
-1
48
1
60
0
100
AcDbPoint
10
6.2896
20
0
30
0
39
0
210
0
220
0
230
1
50
360
0
POINT
5
119
100
AcDbEntity
8
Defpoints
62
0
6
ByLayer
370
-1
48
1
60
0
100
AcDbPoint
10
6.2896
20
-22.465
30
0
39
0
210
0
220
0
230
1
50
360
0
ENDBLK
5
10E
100
AcDbEntity
8
0
100
AcDbBlockEnd
0
BLOCK
5
121
100
AcDbEntity
8
0
100
AcDbBlockBegin
2
_U1
70
0
10
0
20
0
30
0
3
_U1
0
MTEXT
5
11B
100
AcDbEntity
8
SK2
62
256
6
ByLayer
370
18
48
1
60
0
100
AcDbMText
10
18.7536
20
-21.579886
30
0
210
0
220
0
230
1
1
\W0.7051;(8.30)
40
3
41
0
44
1.084337
50
0
71
7
72
5
7
iso_b_vert
0
LINE
5
11C
100
AcDbEntity
8
SK2
62
256
6
ByLayer
370
13
48
1
60
0
100
AcDbLine
10
14.5946
20
-0.6225
30
0
11
14.5946
21
-24.465
31
0
39
0
210
0
220
0
230
1
0
LINE
5
11D
100
AcDbEntity
8
SK2
62
256
6
ByLayer
370
13
48
1
60
0
100
AcDbLine
10
6.2896
20
-1.5875
30
0
11
6.2896
21
-24.465
31
0
39
0
210
0
220
0
230
1
0
LINE
5
11E
100
AcDbEntity
8
SK2
62
256
6
ByLayer
370
13
48
1
60
0
100
AcDbLine
10
6.2896
20
-22.465
30
0
11
28.066369
21
-22.465
31
0
39
0
210
0
220
0
230
1
0
SOLID
5
11F
100
AcDbEntity
8
SK2
62
256
6
ByLayer
370
18
48
1
60
0
100
AcDbTrace
10
14.5946
20
-22.465
30
0
11
11.094602
21
-22.925784
31
0
12
11.094598
22
-22.004216
32
0
13
11.094598
23
-22.004216
33
0
39
0
210
0
220
0
230
1
0
SOLID
5
120
100
AcDbEntity
8
SK2
62
256
6
ByLayer
370
18
48
1
60
0
100
AcDbTrace
10
6.2896
20
-22.465
30
0
11
9.789598
21
-22.004216
31
0
12
9.789602
22
-22.925784
32
0
13
9.789602
23
-22.925784
33
0
39
0
210
0
220
0
230
1
0
ENDBLK
5
122
100
AcDbEntity
8
0
100
AcDbBlockEnd
0
BLOCK
5
127
100
AcDbEntity
8
0
100
AcDbBlockBegin
2
*D5
70
1
10
0
20
0
30
0
3
*D5
0
LINE
5
129
100
AcDbEntity
8
0
62
256
6
ByLayer
370
-2
48
1
60
0
100
AcDbLine
10
14.5946
20
-0.6225
30
0
11
14.5946
21
-32.479306
31
0
39
0
210
0
220
0
230
1
0
LINE
5
12A
100
AcDbEntity
8
0
62
256
6
ByLayer
370
-2
48
1
60
0
100
AcDbLine
10
3.3946
20
-1.5875
30
0
11
3.3946
21
-32.479306
31
0
39
0
210
0
220
0
230
1
0
LINE
5
12B
100
AcDbEntity
8
0
62
256
6
ByLayer
370
-2
48
1
60
0
100
AcDbLine
10
18.0946
20
-30.479306
30
0
11
21.5946
21
-30.479306
31
0
39
0
210
0
220
0
230
1
0
LINE
5
12C
100
AcDbEntity
8
0
62
256
6
ByLayer
370
-2
48
1
60
0
100
AcDbLine
10
-0.1054
20
-30.479306
30
0
11
-3.6054
21
-30.479306
31
0
39
0
210
0
220
0
230
1
0
SOLID
5
12D
100
AcDbEntity
8
0
62
256
6
ByLayer
370
-1
48
1
60
0
100
AcDbTrace
10
18.0946
20
-29.895973
30
0
11
18.0946
21
-31.06264
31
0
12
14.5946
22
-30.479306
32
0
13
14.5946
23
-30.479306
33
0
39
0
210
0
220
0
230
1
0
SOLID
5
12E
100
AcDbEntity
8
0
62
256
6
ByLayer
370
-1
48
1
60
0
100
AcDbTrace
10
-0.1054
20
-31.06264
30
0
11
-0.1054
21
-29.895973
31
0
12
3.3946
22
-30.479306
32
0
13
3.3946
23
-30.479306
33
0
39
0
210
0
220
0
230
1
0
MTEXT
5
12F
100
AcDbEntity
8
0
62
256
6
ByLayer
370
18
48
1
60
0
100
AcDbMText
10
8.9946
20
-24.479306
30
0
210
0
220
0
230
1
1
\A1;11.2
40
3
41
0
44
1
50
0
71
5
72
5
7
iso_b_vert
0
POINT
5
130
100
AcDbEntity
8
Defpoints
62
0
6
ByLayer
370
-1
48
1
60
0
100
AcDbPoint
10
14.5946
20
0.965
30
0
39
0
210
0
220
0
230
1
50
360
0
POINT
5
131
100
AcDbEntity
8
Defpoints
62
0
6
ByLayer
370
-1
48
1
60
0
100
AcDbPoint
10
3.3946
20
0
30
0
39
0
210
0
220
0
230
1
50
360
0
POINT
5
132
100
AcDbEntity
8
Defpoints
62
0
6
ByLayer
370
-1
48
1
60
0
100
AcDbPoint
10
3.3946
20
-30.479306
30
0
39
0
210
0
220
0
230
1
50
360
0
ENDBLK
5
128
100
AcDbEntity
8
0
100
AcDbBlockEnd
0
BLOCK
5
13A
100
AcDbEntity
8
0
100
AcDbBlockBegin
2
_U2
70
0
10
0
20
0
30
0
3
_U2
0
MTEXT
5
134
100
AcDbEntity
8
SK2
62
256
6
ByLayer
370
18
48
1
60
0
100
AcDbMText
10
5.262115
20
-29.594192
30
0
210
0
220
0
230
1
1
\W0.6261;11.20
40
3
41
0
44
1.084337
50
0
71
7
72
5
7
iso_b_vert
0
LINE
5
135
100
AcDbEntity
8
SK2
62
256
6
ByLayer
370
13
48
1
60
0
100
AcDbLine
10
14.5946
20
-0.6225
30
0
11
14.5946
21
-32.479306
31
0
39
0
210
0
220
0
230
1
0
LINE
5
136
100
AcDbEntity
8
SK2
62
256
6
ByLayer
370
13
48
1
60
0
100
AcDbLine
10
3.3946
20
-1.5875
30
0
11
3.3946
21
-32.479306
31
0
39
0
210
0
220
0
230
1
0
LINE
5
137
100
AcDbEntity
8
SK2
62
256
6
ByLayer
370
13
48
1
60
0
100
AcDbLine
10
14.5946
20
-30.479306
30
0
11
3.3946
21
-30.479306
31
0
39
0
210
0
220
0
230
1
0
SOLID
5
138
100
AcDbEntity
8
SK2
62
256
6
ByLayer
370
18
48
1
60
0
100
AcDbTrace
10
14.5946
20
-30.479306
30
0
11
11.094602
21
-30.94009
31
0
12
11.094598
22
-30.018522
32
0
13
11.094598
23
-30.018522
33
0
39
0
210
0
220
0
230
1
0
SOLID
5
139
100
AcDbEntity
8
SK2
62
256
6
ByLayer
370
18
48
1
60
0
100
AcDbTrace
10
3.3946
20
-30.479306
30
0
11
6.894598
21
-30.018522
31
0
12
6.894602
22
-30.94009
32
0
13
6.894602
23
-30.94009
33
0
39
0
210
0
220
0
230
1
0
ENDBLK
5
13B
100
AcDbEntity
8
0
100
AcDbBlockEnd
0
BLOCK
5
140
100
AcDbEntity
8
0
100
AcDbBlockBegin
2
*D7
70
1
10
0
20
0
30
0
3
*D7
0
LINE
5
142
100
AcDbEntity
8
0
62
256
6
ByLayer
370
-2
48
1
60
0
100
AcDbLine
10
-23.4054
20
1.5875
30
0
11
-23.4054
21
13.479306
31
0
39
0
210
0
220
0
230
1
0
LINE
5
143
100
AcDbEntity
8
0
62
256
6
ByLayer
370
-2
48
1
60
0
100
AcDbLine
10
0
20
1.5875
30
0
11
0
21
13.479306
31
0
39
0
210
0
220
0
230
1
0
LINE
5
144
100
AcDbEntity
8
0
62
256
6
ByLayer
370
-2
48
1
60
0
100
AcDbLine
10
-19.9054
20
11.479306
30
0
11
-3.5
21
11.479306
31
0
39
0
210
0
220
0
230
1
0
SOLID
5
145
100
AcDbEntity
8
0
62
256
6
ByLayer
370
-1
48
1
60
0
100
AcDbTrace
10
-19.9054
20
12.06264
30
0
11
-19.9054
21
10.895973
31
0
12
-23.4054
22
11.479306
32
0
13
-23.4054
23
11.479306
33
0
39
0
210
0
220
0
230
1
0
SOLID
5
146
100
AcDbEntity
8
0
62
256
6
ByLayer
370
-1
48
1
60
0
100
AcDbTrace
10
-3.5
20
10.895973
30
0
11
-3.5
21
12.06264
31
0
12
0
22
11.479306
32
0
13
0
23
11.479306
33
0
39
0
210
0
220
0
230
1
0
MTEXT
5
147
100
AcDbEntity
8
0
62
256
6
ByLayer
370
18
48
1
60
0
100
AcDbMText
10
-11.7027
20
17.479306
30
0
210
0
220
0
230
1
1
\A1;23.41
40
3
41
0
44
1
50
0
71
5
72
5
7
iso_b_vert
0
POINT
5
148
100
AcDbEntity
8
Defpoints
62
0
6
ByLayer
370
-1
48
1
60
0
100
AcDbPoint
10
-23.4054
20
0
30
0
39
0
210
0
220
0
230
1
50
360
0
POINT
5
149
100
AcDbEntity
8
Defpoints
62
0
6
ByLayer
370
-1
48
1
60
0
100
AcDbPoint
10
0
20
0
30
0
39
0
210
0
220
0
230
1
50
360
0
POINT
5
14A
100
AcDbEntity
8
Defpoints
62
0
6
ByLayer
370
-1
48
1
60
0
100
AcDbPoint
10
0
20
11.479306
30
0
39
0
210
0
220
0
230
1
50
360
0
ENDBLK
5
141
100
AcDbEntity
8
0
100
AcDbBlockEnd
0
BLOCK
5
152
100
AcDbEntity
8
0
100
AcDbBlockBegin
2
_U3
70
0
10
0
20
0
30
0
3
_U3
0
MTEXT
5
14C
100
AcDbEntity
8
SK2
62
256
6
ByLayer
370
18
48
1
60
0
100
AcDbMText
10
-15.968071
20
12.364421
30
0
210
0
220
0
230
1
1
\W0.7616;23.41
40
3
41
0
44
1.084337
50
0
71
7
72
5
7
iso_b_vert
0
LINE
5
14D
100
AcDbEntity
8
SK2
62
256
6
ByLayer
370
13
48
1
60
0
100
AcDbLine
10
-23.4054
20
1.5875
30
0
11
-23.4054
21
13.479306
31
0
39
0
210
0
220
0
230
1
0
LINE
5
14E
100
AcDbEntity
8
SK2
62
256
6
ByLayer
370
13
48
1
60
0
100
AcDbLine
10
0
20
1.5875
30
0
11
0
21
13.479306
31
0
39
0
210
0
220
0
230
1
0
LINE
5
14F
100
AcDbEntity
8
SK2
62
256
6
ByLayer
370
13
48
1
60
0
100
AcDbLine
10
-23.4054
20
11.479306
30
0
11
0
21
11.479306
31
0
39
0
210
0
220
0
230
1
0
SOLID
5
150
100
AcDbEntity
8
SK2
62
256
6
ByLayer
370
18
48
1
60
0
100
AcDbTrace
10
-23.4054
20
11.479306
30
0
11
-19.905402
21
11.94009
31
0
12
-19.905398
22
11.018522
32
0
13
-19.905398
23
11.018522
33
0
39
0
210
0
220
0
230
1
0
SOLID
5
151
100
AcDbEntity
8
SK2
62
256
6
ByLayer
370
18
48
1
60
0
100
AcDbTrace
10
0
20
11.479306
30
0
11
-3.499998
21
11.018522
31
0
12
-3.500002
22
11.94009
32
0
13
-3.500002
23
11.94009
33
0
39
0
210
0
220
0
230
1
0
ENDBLK
5
153
100
AcDbEntity
8
0
100
AcDbBlockEnd
0
BLOCK
5
158
100
AcDbEntity
8
0
100
AcDbBlockBegin
2
*D9
70
1
10
0
20
0
30
0
3
*D9
0
LINE
5
15A
100
AcDbEntity
8
0
62
256
6
ByLayer
370
-2
48
1
60
0
100
AcDbLine
10
14.5946
20
2.5525
30
0
11
14.5946
21
13.479306
31
0
39
0
210
0
220
0
230
1
0
LINE
5
15B
100
AcDbEntity
8
0
62
256
6
ByLayer
370
-2
48
1
60
0
100
AcDbLine
10
0
20
1.5875
30
0
11
0
21
13.479306
31
0
39
0
210
0
220
0
230
1
0
LINE
5
15C
100
AcDbEntity
8
0
62
256
6
ByLayer
370
-2
48
1
60
0
100
AcDbLine
10
18.0946
20
11.479306
30
0
11
21.5946
21
11.479306
31
0
39
0
210
0
220
0
230
1
0
LINE
5
15D
100
AcDbEntity
8
0
62
256
6
ByLayer
370
-2
48
1
60
0
100
AcDbLine
10
-3.5
20
11.479306
30
0
11
-7
21
11.479306
31
0
39
0
210
0
220
0
230
1
0
SOLID
5
15E
100
AcDbEntity
8
0
62
256
6
ByLayer
370
-1
48
1
60
0
100
AcDbTrace
10
18.0946
20
12.06264
30
0
11
18.0946
21
10.895973
31
0
12
14.5946
22
11.479306
32
0
13
14.5946
23
11.479306
33
0
39
0
210
0
220
0
230
1
0
SOLID
5
15F
100
AcDbEntity
8
0
62
256
6
ByLayer
370
-1
48
1
60
0
100
AcDbTrace
10
-3.5
20
10.895973
30
0
11
-3.5
21
12.06264
31
0
12
0
22
11.479306
32
0
13
0
23
11.479306
33
0
39
0
210
0
220
0
230
1
0
MTEXT
5
160
100
AcDbEntity
8
0
62
256
6
ByLayer
370
18
48
1
60
0
100
AcDbMText
10
7.2973
20
17.479306
30
0
210
0
220
0
230
1
1
\A1;14.59
40
3
41
0
44
1
50
0
71
5
72
5
7
iso_b_vert
0
POINT
5
161
100
AcDbEntity
8
Defpoints
62
0
6
ByLayer
370
-1
48
1
60
0
100
AcDbPoint
10
14.5946
20
0.965
30
0
39
0
210
0
220
0
230
1
50
360
0
POINT
5
162
100
AcDbEntity
8
Defpoints
62
0
6
ByLayer
370
-1
48
1
60
0
100
AcDbPoint
10
0
20
0
30
0
39
0
210
0
220
0
230
1
50
360
0
POINT
5
163
100
AcDbEntity
8
Defpoints
62
0
6
ByLayer
370
-1
48
1
60
0
100
AcDbPoint
10
0
20
11.479306
30
0
39
0
210
0
220
0
230
1
50
360
0
ENDBLK
5
159
100
AcDbEntity
8
0
100
AcDbBlockEnd
0
BLOCK
5
16B
100
AcDbEntity
8
0
100
AcDbBlockBegin
2
_U4
70
0
10
0
20
0
30
0
3
_U4
0
MTEXT
5
165
100
AcDbEntity
8
2
62
256
6
ByLayer
370
18
48
1
60
0
100
AcDbMText
10
3.031929
20
12.364421
30
0
210
0
220
0
230
1
1
\W0.7173;14.59
40
3
41
0
44
1.084337
50
0
71
7
72
5
7
iso_b_vert
0
LINE
5
166
100
AcDbEntity
8
2
62
256
6
ByLayer
370
13
48
1
60
0
100
AcDbLine
10
14.5946
20
2.5525
30
0
11
14.5946
21
13.479306
31
0
39
0
210
0
220
0
230
1
0
LINE
5
167
100
AcDbEntity
8
2
62
256
6
ByLayer
370
13
48
1
60
0
100
AcDbLine
10
0
20
1.5875
30
0
11
0
21
13.479306
31
0
39
0
210
0
220
0
230
1
0
LINE
5
168
100
AcDbEntity
8
2
62
256
6
ByLayer
370
13
48
1
60
0
100
AcDbLine
10
14.5946
20
11.479306
30
0
11
0
21
11.479306
31
0
39
0
210
0
220
0
230
1
0
SOLID
5
169
100
AcDbEntity
8
2
62
256
6
ByLayer
370
18
48
1
60
0
100
AcDbTrace
10
14.5946
20
11.479306
30
0
11
11.094602
21
11.018522
31
0
12
11.094598
22
11.94009
32
0
13
11.094598
23
11.94009
33
0
39
0
210
0
220
0
230
1
0
SOLID
5
16A
100
AcDbEntity
8
2
62
256
6
ByLayer
370
18
48
1
60
0
100
AcDbTrace
10
0
20
11.479306
30
0
11
3.499998
21
11.94009
31
0
12
3.500002
22
11.018522
32
0
13
3.500002
23
11.018522
33
0
39
0
210
0
220
0
230
1
0
ENDBLK
5
16C
100
AcDbEntity
8
0
100
AcDbBlockEnd
0
ENDSEC
0
SECTION
2
ENTITIES
0
ARC
5
BC
100
AcDbEntity
8
1
62
256
6
ByLayer
370
18
48
1
60
0
100
AcDbCircle
39
0
10
1.194644
20
-1.965
30
0
40
0.999999999999996
210
0
220
0
230
1
100
AcDbArc
50
90
51
120
0
ARC
5
BD
100
AcDbEntity
8
1
62
256
6
ByLayer
370
18
48
1
60
0
100
AcDbCircle
39
0
10
1.194644
20
1.965
30
0
40
0.999999999999996
210
0
220
0
230
1
100
AcDbArc
50
240
51
270
0
ARC
5
BE
100
AcDbEntity
8
SK2
62
256
6
ByLayer
370
13
48
1
60
0
100
AcDbCircle
39
0
10
14.5946
20
0
30
0
40
16.35
210
0
220
0
230
1
100
AcDbArc
50
10.57289
51
65
0
ARC
5
BF
100
AcDbEntity
8
SK2
62
256
6
ByLayer
370
13
48
1
60
0
100
AcDbCircle
39
0
10
14.5946
20
0
30
0
40
16.35
210
0
220
0
230
1
100
AcDbArc
50
295
51
349.42711
0
ELLIPSE
5
C0
100
AcDbEntity
8
1
62
256
6
ByLayer
370
18
48
1
60
0
100
AcDbEllipse
10
4.470382
20
1.228881
30
0
11
-1.35180496413966
21
1.01216102509939
31
0
210
0
220
0
230
1
40
0.551423
41
1.16366668490025
42
1.96235410499798
0
POINT
5
70
100
AcDbEntity
8
80
62
256
6
ByLayer
370
18
48
1
60
0
100
AcDbPoint
10
0
20
0
30
0
39
0
210
0
220
0
230
1
50
360
0
POINT
5
72
100
AcDbEntity
8
81
62
256
6
ByLayer
370
18
48
1
60
0
100
AcDbPoint
10
14.5946
20
0
30
0
39
0
210
0
220
0
230
1
50
360
0
POINT
5
74
100
AcDbEntity
8
1
62
256
6
ByLayer
370
18
48
1
60
1
100
AcDbPoint
10
-23.4054
20
1.5
30
0
39
0
210
0
220
0
230
1
50
360
0
POINT
5
76
100
AcDbEntity
8
1
62
256
6
ByLayer
370
18
48
1
60
1
100
AcDbPoint
10
14.5946
20
0.965
30
0
39
0
210
0
220
0
230
1
50
360
0
POINT
5
77
100
AcDbEntity
8
1
62
256
6
ByLayer
370
18
48
1
60
1
100
AcDbPoint
10
14.5946
20
0.965
30
0
39
0
210
0
220
0
230
1
50
360
0
POINT
5
78
100
AcDbEntity
8
1
62
256
6
ByLayer
370
18
48
1
60
1
100
AcDbPoint
10
6.2896
20
0
30
0
39
0
210
0
220
0
230
1
50
360
0
POINT
5
79
100
AcDbEntity
8
1
62
256
6
ByLayer
370
18
48
1
60
1
100
AcDbPoint
10
14.5946
20
0.965
30
0
39
0
210
0
220
0
230
1
50
360
0
POINT
5
7A
100
AcDbEntity
8
1
62
256
6
ByLayer
370
18
48
1
60
1
100
AcDbPoint
10
3.3946
20
0
30
0
39
0
210
0
220
0
230
1
50
360
0
POINT
5
7B
100
AcDbEntity
8
1
62
256
6
ByLayer
370
18
48
1
60
1
100
AcDbPoint
10
-23.4054
20
0
30
0
39
0
210
0
220
0
230
1
50
360
0
POINT
5
7C
100
AcDbEntity
8
1
62
256
6
ByLayer
370
18
48
1
60
1
100
AcDbPoint
10
0
20
0
30
0
39
0
210
0
220
0
230
1
50
360
0
POINT
5
7D
100
AcDbEntity
8
1
62
256
6
ByLayer
370
18
48
1
60
1
100
AcDbPoint
10
14.5946
20
0.965
30
0
39
0
210
0
220
0
230
1
50
360
0
POINT
5
7E
100
AcDbEntity
8
1
62
256
6
ByLayer
370
18
48
1
60
1
100
AcDbPoint
10
0
20
0
30
0
39
0
210
0
220
0
230
1
50
360
0
SPLINE
5
C1
100
AcDbEntity
8
1
62
256
6
ByLayer
370
18
48
1
60
0
100
AcDbSpline
70
4
71
3
72
18
73
14
40
0
40
0
40
0
40
0
40
0.250000000000012
40
0.250000000000012
40
0.500000000000024
40
0.500000000000024
40
0.625000000000026
40
0.625000000000026
40
0.687500000000021
40
0.687500000000021
40
0.750000000000017
40
0.750000000000017
40
1
40
1
40
1
40
1
41
1
10
3.42259226899094
20
0.945184411701462
30
0
41
1
10
3.50899659148078
20
0.949473073717883
30
0
41
1
10
3.59583138868555
20
0.95193465524676
30
0
41
1
10
3.77033374609715
20
0.954917332034938
30
0
41
1
10
3.85800139636055
20
0.955434094989954
30
0
41
1
10
3.99013505475637
20
0.955042809124166
30
0
41
1
10
4.03428525892369
20
0.954708143698241
30
0
41
1
10
4.10067270248902
20
0.953844482189538
30
0
41
1
10
4.12281812168754
20
0.953495547131894
30
0
41
1
10
4.16690732861062
20
0.952664324771888
30
0
41
1
10
4.18888267731268
20
0.952181666752068
30
0
41
1
10
4.29841570035117
20
0.949385783825903
30
0
41
1
10
4.38494604808284
20
0.945974983156617
30
0
41
1
10
4.47038200002785
20
0.940389563128292
30
0
0
SPLINE
5
C2
100
AcDbEntity
8
1
62
256
6
ByLayer
370
18
48
1
60
0
100
AcDbSpline
70
4
71
3
72
76
73
72
40
0
40
0
40
0
40
0
40
0.00642079277772
40
0.00642079277772
40
0.01284158555544
40
0.01284158555544
40
0.0256831711108827
40
0.0256831711108827
40
0.0385247566663254
40
0.0385247566663254
40
0.0513663422217681
40
0.0513663422217681
40
0.0770495133326535
40
0.0770495133326535
40
0.102732684443539
40
0.102732684443539
40
0.128415855554424
40
0.128415855554424
40
0.15409902666531
40
0.15409902666531
40
0.20546536888708
40
0.20546536888708
40
0.231148539997967
40
0.231148539997967
40
0.256831711108854
40
0.256831711108854
40
0.308198053330627
40
0.308198053330627
40
0.333881224441514
40
0.333881224441514
40
0.359564395552401
40
0.359564395552401
40
0.385247566663287
40
0.385247566663287
40
0.410930737774174
40
0.410930737774174
40
0.462297079995947
40
0.462297079995947
40
0.487980251106835
40
0.487980251106835
40
0.513663422217723
40
0.513663422217723
40
0.565029764439502
40
0.565029764439502
40
0.59071293555039
40
0.59071293555039
40
0.616396106661278
40
0.616396106661278
40
0.667762448883051
40
0.667762448883051
40
0.693445619993937
40
0.693445619993937
40
0.719128791104822
40
0.719128791104822
40
0.770495133326596
40
0.770495133326596
40
0.796178304437482
40
0.796178304437482
40
0.821861475548369
40
0.821861475548369
40
0.873227817770145
40
0.873227817770145
40
0.898910988881033
40
0.898910988881033
40
0.924594159991921
40
0.924594159991921
40
0.950277331102809
40
0.950277331102809
40
0.975960502213697
40
0.975960502213697
40
1
40
1
40
1
40
1
41
1
10
14.1446131098768
20
-0.929560094494207
30
0
41
1
10
14.1310168825605
20
-0.928065476887355
30
0
41
1
10
14.1181690020397
20
-0.926165389410329
30
0
41
1
10
14.0928516837208
20
-0.922010539883388
30
0
41
1
10
14.080372205125
20
-0.919763007630337
30
0
41
1
10
14.0426162188094
20
-0.912950001080844
30
0
41
1
10
14.0172848433431
20
-0.908191541365227
30
0
41
1
10
13.9668289406773
20
-0.897949555957723
30
0
41
1
10
13.941664435945
20
-0.892481467655756
30
0
41
1
10
13.8912309971717
20
-0.881000231423826
30
0
41
1
10
13.8659908001669
20
-0.874970690370617
30
0
41
1
10
13.7902855516837
20
-0.855952400112699
30
0
41
1
10
13.7397696246093
20
-0.84207227723644
30
0
41
1
10
13.6388875994361
20
-0.81207608072009
30
0
41
1
10
13.5884907966031
20
-0.795942219056968
30
0
41
1
10
13.4876784322335
20
-0.761494086060139
30
0
41
1
10
13.4371797430758
20
-0.743192644347971
30
0
41
1
10
13.3362818835931
20
-0.704698689907872
30
0
41
1
10
13.2859024295749
20
-0.684506278778741
30
0
41
1
10
13.1348486297347
20
-0.621264354042864
30
0
41
1
10
13.0342758358273
20
-0.575530956943453
30
0
41
1
10
12.8830781950722
20
-0.502233629654626
30
0
41
1
10
12.8325688017932
20
-0.477049886204071
30
0
41
1
10
12.7317680684823
20
-0.42562228501393
30
0
41
1
10
12.6814207394099
20
-0.399342233855549
30
0
41
1
10
12.5304150894361
20
-0.319006220471323
30
0
41
1
10
12.4298065720554
20
-0.263434026151486
30
0
41
1
10
12.2784496523788
20
-0.17789971304461
30
0
41
1
10
12.2280253658401
20
-0.149148748326525
30
0
41
1
10
12.1272881507886
20
-0.0914708822955106
30
0
41
1
10
12.0769560668412
20
-0.0625139078277357
30
0
41
1
10
11.9762822512314
20
-0.0045079730658699
30
0
41
1
10
11.9259415450039
20
0.0245427664133047
30
0
41
1
10
11.8251739833054
20
0.0826034979673693
30
0
41
1
10
11.7746931818016
20
0.111653074470212
30
0
41
1
10
11.6234185339429
20
0.198241856575521
30
0
41
1
10
11.522824287587
20
0.25487782589596
30
0
41
1
10
11.3718033250158
20
0.337361197202739
30
0
41
1
10
11.3214438175231
20
0.364447484914734
30
0
41
1
10
11.2206013089674
20
0.417659744292138
30
0
41
1
10
11.1700920267859
20
0.443819021050672
30
0
41
1
10
11.0189674814219
20
0.520235363153859
30
0
41
1
10
10.9183973373673
20
0.568349105696001
30
0
41
1
10
10.7673144592433
20
0.635613284654511
30
0
41
1
10
10.7169180867479
20
0.657219416366047
30
0
41
1
10
10.6159684802745
20
0.698675087192044
30
0
41
1
10
10.5655254001382
20
0.718495778886961
30
0
41
1
10
10.4144937399297
20
0.774859266263178
30
0
41
1
10
10.313940334088
20
0.808262887384785
30
0
41
1
10
10.1627800468862
20
0.851620969557672
30
0
41
1
10
10.1122918353991
20
0.86496372186059
30
0
41
1
10
10.011367207388
20
0.88925437879854
30
0
41
1
10
9.96100706946186
20
0.90019280739233
30
0
41
1
10
9.8100706659927
20
0.929286145829394
30
0
41
1
10
9.70950205356166
20
0.943647419446478
30
0
41
1
10
9.55822076495139
20
0.957447339538135
30
0
41
1
10
9.50767699817615
20
0.960755841610705
30
0
41
1
10
9.40684401828381
20
0.964732331821835
30
0
41
1
10
9.35651109699347
20
0.965407021971828
30
0
41
1
10
9.20561542826806
20
0.963482201529445
30
0
41
1
10
9.10500525134248
20
0.956947782011895
30
0
41
1
10
8.95357984309038
20
0.939360624331982
30
0
41
1
10
8.90309164259665
20
0.932203395912865
30
0
41
1
10
8.80233983597901
20
0.915392498051602
30
0
41
1
10
8.75203614828033
20
0.905727432343895
30
0
41
1
10
8.65145431055691
20
0.883940959718046
30
0
41
1
10
8.60115108690536
20
0.871836097850974
30
0
41
1
10
8.50040999177884
20
0.845289225910733
30
0
41
1
10
8.44993871346836
20
0.830829449414892
30
0
41
1
10
8.35220375834265
20
0.800673966192107
30
0
41
1
10
8.30503016989726
20
0.785142822254471
30
0
41
1
10
8.25789928659381
20
0.768698536244528
30
0
0
SPLINE
5
C3
100
AcDbEntity
8
1
62
256
6
ByLayer
370
18
48
1
60
0
100
AcDbSpline
70
4
71
3
72
22
73
18
40
0
40
0
40
0
40
0
40
0.0239732987237802
40
0.0239732987237802
40
0.18664441560315
40
0.18664441560315
40
0.34931553248252
40
0.34931553248252
40
0.51198664936189
40
0.51198664936189
40
0.67465776624126
40
0.67465776624126
40
0.83732888312063
40
0.83732888312063
40
0.918664441560315
40
0.918664441560315
40
1
40
1
40
1
40
1
41
1
10
14.4182180766046
20
-0.37825079058436
30
0
41
1
10
14.416232276288
20
-0.382491354838862
30
0
41
1
10
14.4142334001867
20
-0.386735254073074
30
0
41
1
10
14.3985849157435
20
-0.419806348700661
30
0
41
1
10
14.384409236198
20
-0.448805948221263
30
0
41
1
10
14.3555720585756
20
-0.507170235839766
30
0
41
1
10
14.34089275504
20
-0.536556293318313
30
0
41
1
10
14.3112832020115
20
-0.59562135550425
30
0
41
1
10
14.2963592918709
20
-0.625250358357903
30
0
41
1
10
14.2663048636452
20
-0.685014706586344
30
0
41
1
10
14.2511803501045
20
-0.715141600316827
30
0
41
1
10
14.2207803834244
20
-0.776315079295387
30
0
41
1
10
14.2055019461828
20
-0.80737240700671
30
0
41
1
10
14.1826126030351
20
-0.853712188831821
30
0
41
1
10
14.1749876980747
20
-0.869112469488812
30
0
41
1
10
14.1597721268978
20
-0.899605645475333
30
0
41
1
10
14.1521843713764
20
-0.914674096601999
30
0
41
1
10
14.1446131098796
20
-0.929560094494491
30
0
0
SPLINE
5
C4
100
AcDbEntity
8
1
62
256
6
ByLayer
370
18
48
1
60
0
100
AcDbSpline
70
4
71
3
72
70
73
66
40
0
40
0
40
0
40
0
40
0.0056027571637316
40
0.0056027571637316
40
0.0532853811007228
40
0.0532853811007228
40
0.0771266930692186
40
0.0771266930692186
40
0.100968005037714
40
0.100968005037714
40
0.148650628974708
40
0.148650628974708
40
0.172491940943205
40
0.172491940943205
40
0.196333252911702
40
0.196333252911702
40
0.244015876848693
40
0.244015876848693
40
0.267857188817188
40
0.267857188817188
40
0.291698500785684
40
0.291698500785684
40
0.339381124722675
40
0.339381124722675
40
0.363222436691172
40
0.363222436691172
40
0.387063748659669
40
0.387063748659669
40
0.410905060628166
40
0.410905060628166
40
0.434746372596662
40
0.434746372596662
40
0.482428996533656
40
0.482428996533656
40
0.506270308502152
40
0.506270308502152
40
0.530111620470647
40
0.530111620470647
40
0.577794244407638
40
0.577794244407638
40
0.601635556376134
40
0.601635556376134
40
0.625476868344629
40
0.625476868344629
40
0.673159492281623
40
0.673159492281623
40
0.69700080425012
40
0.69700080425012
40
0.720842116218617
40
0.720842116218617
40
0.768524740155613
40
0.768524740155613
40
0.792366052124111
40
0.792366052124111
40
0.816207364092609
40
0.816207364092609
40
0.863889988029602
40
0.863889988029602
40
0.887731299998098
40
0.887731299998098
40
0.911572611966593
40
0.911572611966593
40
0.959255235903582
40
0.959255235903582
40
1
40
1
40
1
40
1
41
1
10
7.15559746742503
20
0.964999550746967
30
0
41
1
10
7.16745473218197
20
0.965001745868875
30
0
41
1
10
7.17930815052006
20
0.964931272473194
30
0
41
1
10
7.29197549155268
20
0.963569774909331
30
0
41
1
10
7.39253310097689
20
0.957108342641931
30
0
41
1
10
7.54347808925348
20
0.939610621664485
30
0
41
1
10
7.59384853473549
20
0.932488217514418
30
0
41
1
10
7.69480359772771
20
0.91570399632576
30
0
41
1
10
7.74525748399509
20
0.906058325778076
30
0
41
1
10
7.89638863886779
20
0.873521010674722
30
0
41
1
10
7.9969420770405
20
0.847003585618523
30
0
41
1
10
8.14799262870642
20
0.800346218673553
30
0
41
1
10
8.19846551358273
20
0.783653261425798
30
0
41
1
10
8.29937767464338
20
0.748227390890463
30
0
41
1
10
8.34976047519788
20
0.729508703899739
30
0
41
1
10
8.50081357842535
20
0.670499421924575
30
0
41
1
10
8.60137643866904
20
0.627344281203335
30
0
41
1
10
8.75253413860531
20
0.5574947164001
30
0
41
1
10
8.80304280204976
20
0.533378762579957
30
0
41
1
10
8.90385797180952
20
0.483930082376048
30
0
41
1
10
8.95420832900732
20
0.458559769507502
30
0
41
1
10
9.10521880038064
20
0.380722310673889
30
0
41
1
10
9.20582861448707
20
0.326516499226614
30
0
41
1
10
9.35714113616368
20
0.242484302191031
30
0
41
1
10
9.40759364726966
20
0.214132479257927
30
0
41
1
10
9.50833882807956
20
0.157080067991018
30
0
41
1
10
9.558671842667
20
0.12834899479185
30
0
41
1
10
9.65933749904292
20
0.0706141746960895
30
0
41
1
10
9.70966940133567
20
0.0416091290807401
30
0
41
1
10
9.81041696335404
20
-0.0165287152095459
30
0
41
1
10
9.8608690948565
20
-0.0457088785952635
30
0
41
1
10
10.0121643733025
20
-0.132994243074222
30
0
41
1
10
10.1127597278112
20
-0.190441580638378
30
0
41
1
10
10.2637686444926
20
-0.27463617128123
30
0
41
1
10
10.3141213167163
20
-0.302376313900112
30
0
41
1
10
10.4149434982687
20
-0.357063043791669
30
0
41
1
10
10.4654546778093
20
-0.384049063641527
30
0
41
1
10
10.6166174134876
20
-0.463182442463392
30
0
41
1
10
10.7171824503739
20
-0.51343970134181
30
0
41
1
10
10.8682455050885
20
-0.584329024275974
30
0
41
1
10
10.9186315072187
20
-0.607214916919645
30
0
41
1
10
11.0195509035333
20
-0.651370376082724
30
0
41
1
10
11.0700179577186
20
-0.672617412271933
30
0
41
1
10
11.2210458738088
20
-0.733448627908984
30
0
41
1
10
11.3215955280808
20
-0.770038407767686
30
0
41
1
10
11.4727280723809
20
-0.818467786337351
30
0
41
1
10
11.5231920250085
20
-0.833545943155599
30
0
41
1
10
11.6241362121795
20
-0.861411760949437
30
0
41
1
10
11.6745048604876
20
-0.874174156937187
30
0
41
1
10
11.8254558764854
20
-0.908838686226886
30
0
41
1
10
11.9260232027812
20
-0.927028764260911
30
0
41
1
10
12.0772769944448
20
-0.94669475484551
30
0
41
1
10
12.1278165356893
20
-0.951982688993127
30
0
41
1
10
12.228664619155
20
-0.959931116090843
30
0
41
1
10
12.2789972969316
20
-0.962600090942431
30
0
41
1
10
12.4298967802164
20
-0.966662862248711
30
0
41
1
10
12.5304790869365
20
-0.964110452439286
30
0
41
1
10
12.6818599045279
20
-0.952428877279459
30
0
41
1
10
12.7323653585806
20
-0.94722379506814
30
0
41
1
10
12.8331256342403
20
-0.934265830477358
30
0
41
1
10
12.8834343922159
20
-0.926506384586844
30
0
41
1
10
13.034307556146
20
-0.899455659825549
30
0
41
1
10
13.1349876607494
20
-0.876452290491073
30
0
41
1
10
13.3222839475698
20
-0.825069867531852
30
0
41
1
10
13.4083665193657
20
-0.798072201327443
30
0
41
1
10
13.4944366619952
20
-0.767943198135043
30
0
0
SPLINE
5
C5
100
AcDbEntity
8
1
62
256
6
ByLayer
370
18
48
1
60
0
100
AcDbSpline
70
4
71
3
72
46
73
42
40
0
40
0
40
0
40
0
40
0.026541204037585
40
0.0549499207953923
40
0.0833586375531996
40
0.0975629959321033
40
0.125971712689911
40
0.154380429447718
40
0.182789146205525
40
0.211197862963333
40
0.23960657972114
40
0.260913117289496
40
0.282219654857851
40
0.310628371615658
40
0.339037088373466
40
0.367445805131273
40
0.39585452188908
40
0.424263238646887
40
0.438467597025791
40
0.466876313783598
40
0.495285030541406
40
0.523693747299213
40
0.55210246405702
40
0.580511180814828
40
0.594715539193731
40
0.623124255951539
40
0.651532972709346
40
0.679941689467153
40
0.708350406224961
40
0.736759122982768
40
0.758065660551124
40
0.779372198119479
40
0.807780914877286
40
0.836189631635094
40
0.864598348392901
40
0.893007065150708
40
0.914313602719064
40
0.935620140287419
40
0.964028857045227
40
0.992437573803034
40
1
40
1
40
1
40
1
41
1
10
9.49815468937555
20
0.177002571654555
30
0
41
1
10
9.52278681246727
20
0.174588876464213
30
0
41
1
10
9.57378424317744
20
0.169474033068695
30
0
41
1
10
9.65114698088342
20
0.161357899588694
30
0
41
1
10
9.71706025192362
20
0.154140190616516
30
0
41
1
10
9.78297351102512
20
0.146705493410735
30
0
41
1
10
9.84888681735274
20
0.139058665596366
30
0
41
1
10
9.92798259754306
20
0.129546065731375
30
0
41
1
10
10.0070781740018
20
0.119753758869081
30
0
41
1
10
10.0861735768689
20
0.109709329047007
30
0
41
0.999999999999999
10
10.158677555646
20
0.100283079499235
30
0
41
1
10
10.2245901686671
20
0.0915548842144744
30
0
41
1
10
10.2905027105913
20
0.0826987151841081
30
0
41
1
10
10.3630064289857
20
0.0728031931236899
30
0
41
1
10
10.4421013199399
20
0.0618373920605961
30
0
41
1
10
10.5211961586805
20
0.0507114441312239
30
0
41
1
10
10.6002909675569
20
0.0394731681279552
30
0
41
1
10
10.6662033020259
20
0.0300542945149118
30
0
41
1
10
10.7321156457667
20
0.0205996851210557
30
0
41
1
10
10.7980280057676
20
0.0111186326149095
30
0
41
1
10
10.8771228861194
20
-0.0002824539857613
30
0
41
1
10
10.9562178372131
20
-0.011688059604694
30
0
41
1
10
11.0353128812552
20
-0.0230764713550684
30
0
41
1
10
11.1012255145926
20
-0.0325400577096957
30
0
41
1
10
11.1671382318625
20
-0.0419645248304334
30
0
41
1
10
11.233051050823
20
-0.0513183829939976
30
0
41
1
10
11.3121465789268
20
-0.0624116889828201
30
0
41
1
10
11.391242081551
20
-0.0733601049314814
30
0
41
1
10
11.4703375905942
20
-0.0841416196653029
30
0
41
1
10
11.5428418053017
20
-0.0938549619703224
30
0
41
1
10
11.6087547284199
20
-0.102536930412157
30
0
41
1
10
11.674667651332
20
-0.111080388156978
30
0
41
1
10
11.7471718665859
20
-0.120300474347431
30
0
41
1
10
11.8262673741242
20
-0.130072170392538
30
0
41
1
10
11.9053628816651
20
-0.139538949087694
30
0
41
1
10
11.9778670969103
20
-0.147924195643469
30
0
41
1
10
12.0437800198606
20
-0.15530331267334
30
0
41
0.999999999999999
10
12.109692942811
20
-0.1624661924034
30
0
41
1
10
12.1821971580564
20
-0.170059790538801
30
0
41
1
10
12.2419459283926
20
-0.176034906285111
30
0
41
1
10
12.2753295295491
20
-0.17927140730751
30
0
41
1
10
12.2823479615253
20
-0.179947204036239
30
0
0
SPLINE
5
C6
100
AcDbEntity
8
1
62
256
6
ByLayer
370
18
48
1
60
0
100
AcDbSpline
70
4
71
3
72
22
73
18
40
0
40
0
40
0
40
0
40
0.0582886642221458
40
0.0582886642221458
40
0.116577328444292
40
0.116577328444292
40
0.233154656888559
40
0.233154656888559
40
0.349731985332827
40
0.349731985332827
40
0.466309313777094
40
0.466309313777094
40
0.699463970665605
40
0.699463970665605
40
0.932618627554116
40
0.932618627554116
40
1
40
1
40
1
40
1
41
1
10
14.1446131098786
20
0.929560094494462
30
0
41
1
10
14.1310168825621
20
0.928065476887639
30
0
41
1
10
14.1181690020401
20
0.926165389410386
30
0
41
1
10
14.0928516837212
20
0.922010539883473
30
0
41
1
10
14.0803722051254
20
0.919763007630394
30
0
41
1
10
14.0426162188098
20
0.91295000108093
30
0
41
1
10
14.0172848433435
20
0.908191541365312
30
0
41
1
10
13.9668289406777
20
0.897949555957808
30
0
41
1
10
13.9416644359454
20
0.892481467655841
30
0
41
1
10
13.8912309971721
20
0.881000231423911
30
0
41
1
10
13.8659908001672
20
0.874970690370702
30
0
41
1
10
13.790285551684
20
0.855952400112784
30
0
41
1
10
13.7397696246097
20
0.842072277236525
30
0
41
1
10
13.6388875994364
20
0.812076080720203
30
0
41
1
10
13.5884907966034
20
0.795942219057054
30
0
41
1
10
13.5235172976826
20
0.773740421231054
30
0
41
1
10
13.5089422547459
20
0.768672707311993
30
0
41
1
10
13.4943629195238
20
0.763518193045627
30
0
0
SPLINE
5
C7
100
AcDbEntity
8
1
62
256
6
ByLayer
370
18
48
1
60
0
100
AcDbSpline
70
4
71
3
72
56
73
52
40
0
40
0
40
0
40
0
40
0.0076596990116784
40
0.0076596990116784
40
0.0696809678234536
40
0.0696809678234536
40
0.100691602229339
40
0.100691602229339
40
0.131702236635225
40
0.131702236635225
40
0.162712871041111
40
0.162712871041111
40
0.193723505446997
40
0.193723505446997
40
0.255744774258769
40
0.255744774258769
40
0.286755408664655
40
0.286755408664655
40
0.317766043070541
40
0.317766043070541
40
0.379787311882309
40
0.379787311882309
40
0.410797946288194
40
0.410797946288194
40
0.44180858069408
40
0.44180858069408
40
0.503829849505851
40
0.503829849505851
40
0.534840483911736
40
0.534840483911736
40
0.565851118317621
40
0.565851118317621
40
0.627872387129392
40
0.627872387129392
40
0.658883021535276
40
0.658883021535276
40
0.68989365594116
40
0.68989365594116
40
0.751914924752927
40
0.751914924752927
40
0.782925559158811
40
0.782925559158811
40
0.813936193564696
40
0.813936193564696
40
0.875957462376464
40
0.875957462376464
40
0.906968096782349
40
0.906968096782349
40
0.937978731188233
40
0.937978731188233
40
1
40
1
40
1
40
1
41
1
10
9.3434911541309
20
-0.964999969183168
30
0
41
1
10
9.33106235873359
20
-0.965002064438409
30
0
41
1
10
9.31863640143428
20
-0.964923893536962
30
0
41
1
10
9.20561542826823
20
-0.963482201529445
30
0
41
1
10
9.10500525134253
20
-0.956947782011923
30
0
41
1
10
8.95357984309027
20
-0.939360624331954
30
0
41
1
10
8.90309164259662
20
-0.932203395912865
30
0
41
1
10
8.80233983597913
20
-0.915392498051602
30
0
41
1
10
8.75203614828041
20
-0.905727432343895
30
0
41
1
10
8.65145431055697
20
-0.883940959718075
30
0
41
1
10
8.60115108690542
20
-0.871836097850974
30
0
41
1
10
8.50040999177875
20
-0.845289225910733
30
0
41
1
10
8.44993871346821
20
-0.830829449414836
30
0
41
1
10
8.29849007052457
20
-0.784100958001204
30
0
41
1
10
8.19788264999946
20
-0.748602893899459
30
0
41
1
10
8.04698543321166
20
-0.689403256244987
30
0
41
1
10
7.99665970445153
20
-0.668710711939951
30
0
41
1
10
7.89583956589323
20
-0.625551021597715
30
0
41
1
10
7.8452979754571
20
-0.603047259091568
30
0
41
1
10
7.6939970871876
20
-0.533307808487081
30
0
41
1
10
7.59342299176876
20
-0.483779863211197
30
0
41
1
10
7.4425002340613
20
-0.405664116686808
30
0
41
1
10
7.39214519846962
20
-0.379045167909624
30
0
41
1
10
7.29123587678751
20
-0.324812203220461
30
0
41
1
10
7.24073263375971
20
-0.297209412863964
30
0
41
1
10
7.08955664376921
20
-0.213491467678125
30
0
41
1
10
6.98900350926831
20
-0.156318741098602
30
0
41
1
10
6.83798730350318
20
-0.0694198770955268
30
0
41
1
10
6.78755943485706
20
-0.0402996265995057
30
0
41
1
10
6.68659188153023
20
0.0179583048629297
30
0
41
1
10
6.63618750106858
20
0.0470312075546246
30
0
41
1
10
6.4850908723387
20
0.133874317313086
30
0
41
1
10
6.3845292412866
20
0.191293986895431
30
0
41
1
10
6.2334130687309
20
0.275791719790732
30
0
41
1
10
6.18290692364238
20
0.303670520062809
30
0
41
1
10
6.08205051366633
20
0.35835272557199
30
0
41
1
10
6.03168700013867
20
0.385186959760205
30
0
41
1
10
5.8806602760751
20
0.463973016670821
30
0
41
1
10
5.78007180083068
20
0.514228052268322
30
0
41
1
10
5.62882397375506
20
0.585390336870262
30
0
41
1
10
5.57833225574208
20
0.608342547700289
30
0
41
1
10
5.47756271397986
20
0.652373619878773
30
0
41
1
10
5.42722623255955
20
0.673488567980087
30
0
41
1
10
5.2762446214264
20
0.734001505517512
30
0
41
1
10
5.17563817639274
20
0.770584062112135
30
0
41
1
10
5.02428552655763
20
0.819151542949157
30
0
41
1
10
4.9738635652775
20
0.8342093230047
30
0
41
1
10
4.87315246731413
20
0.861942778668748
30
0
41
1
10
4.82284089480808
20
0.874633695786486
30
0
41
1
10
4.67191119213629
20
0.909100533562309
30
0
41
1
10
4.57130187601874
20
0.927280281896913
30
0
41
1
10
4.47038200000003
20
0.940389563129997
30
0
0
SPLINE
5
C8
100
AcDbEntity
8
1
62
256
6
ByLayer
370
18
48
1
60
0
100
AcDbSpline
70
4
71
3
72
24
73
20
40
0
40
0
40
0
40
0
40
0.125
40
0.125
40
0.25
40
0.25
40
0.375
40
0.375
40
0.5
40
0.5
40
0.625
40
0.625
40
0.75
40
0.75
40
0.875
40
0.875
40
0.9375
40
0.9375
40
1
40
1
40
1
40
1
41
1
10
14.4821031288681
20
0.218659253352286
30
0
41
1
10
14.4738908693506
20
0.24763393764681
30
0
41
1
10
14.462977000422
20
0.276244627351332
30
0
41
1
10
14.4389906812516
20
0.333514776217925
30
0
41
1
10
14.4258619862482
20
0.362159706746468
30
0
41
1
10
14.3985849157436
20
0.419806348700433
30
0
41
1
10
14.3844092361982
20
0.448805948220979
30
0
41
1
10
14.3555720585757
20
0.507170235839425
30
0
41
1
10
14.3408927550403
20
0.536556293317943
30
0
41
1
10
14.3112832020117
20
0.595621355503795
30
0
41
1
10
14.2963592918712
20
0.62525035835742
30
0
41
1
10
14.2663048636456
20
0.685014706585775
30
0
41
1
10
14.2511803501048
20
0.71514160031623
30
0
41
1
10
14.2207803834247
20
0.776315079294704
30
0
41
1
10
14.2055019461832
20
0.807372407005971
30
0
41
1
10
14.1826126030355
20
0.853712188831025
30
0
41
1
10
14.1749876980751
20
0.869112469488016
30
0
41
1
10
14.1597721268983
20
0.899605645474509
30
0
41
1
10
14.1521843713769
20
0.914674096601146
30
0
41
1
10
14.14461310988
20
0.929560094493638
30
0
0
SPLINE
5
C9
100
AcDbEntity
8
1
62
256
6
ByLayer
370
18
48
1
60
0
100
AcDbSpline
70
4
71
3
72
44
73
40
40
0
40
0
40
0
40
0
40
0.079814835826644
40
0.079814835826644
40
0.119722253739966
40
0.119722253739966
40
0.159629671653288
40
0.159629671653288
40
0.239444507479934
40
0.239444507479934
40
0.279351925393258
40
0.279351925393258
40
0.319259343306582
40
0.319259343306582
40
0.399074179133233
40
0.399074179133233
40
0.478889014959883
40
0.478889014959883
40
0.518796432873209
40
0.518796432873209
40
0.558703850786535
40
0.558703850786535
40
0.638518686613189
40
0.638518686613189
40
0.678426104526516
40
0.678426104526516
40
0.718333522439844
40
0.718333522439844
40
0.798148358266496
40
0.798148358266496
40
0.838055776179823
40
0.838055776179823
40
0.87796319409315
40
0.87796319409315
40
0.957778029919804
40
0.957778029919804
40
0.997685447833136
40
0.997685447833136
40
1
40
1
40
1
40
1
41
1
10
4.470382
20
0.0347603824030216
30
0
41
1
10
4.57129706913429
20
-0.0236179973075537
30
0
41
1
10
4.67203171382431
20
-0.0818655710760936
30
0
41
1
10
4.82334439620575
20
-0.168213953673785
30
0
41
1
10
4.87387050243251
20
-0.196857717294506
30
0
41
1
10
4.97473836876074
20
-0.253467930307636
30
0
41
1
10
5.02507979807436
20
-0.281449619822894
30
0
41
1
10
5.17598555415691
20
-0.364158495278389
30
0
41
1
10
5.27656717714279
20
-0.417428120858489
30
0
41
1
10
5.42791586745278
20
-0.493721233056164
30
0
41
1
10
5.47844568858471
20
-0.518552819151637
30
0
41
1
10
5.57923306915774
20
-0.566650710260632
30
0
41
1
10
5.62954938234753
20
-0.58995545164629
30
0
41
1
10
5.7804207962985
20
-0.657416829482116
30
0
41
1
10
5.88104069706549
20
-0.698934128961213
30
0
41
1
10
6.08303460057044
20
-0.774196882242677
30
0
41
1
10
6.18367877438322
20
-0.807692938407001
30
0
41
1
10
6.33455249508532
20
-0.851182706992319
30
0
41
1
10
6.3848618946721
20
-0.864529800953562
30
0
41
1
10
6.48563515031185
20
-0.888834637341574
30
0
41
1
10
6.53615135851155
20
-0.899811104629663
30
0
41
1
10
6.68752710882259
20
-0.92897378752906
30
0
41
1
10
6.78811643729486
20
-0.943405450944852
30
0
41
1
10
6.93902285360363
20
-0.957311459107103
30
0
41
1
10
6.98935717382108
20
-0.96064651699254
30
0
41
1
10
7.09020947387563
20
-0.96469035633649
30
0
41
1
10
7.14074429995392
20
-0.965397286742416
30
0
41
1
10
7.29197549155279
20
-0.963569774909331
30
0
41
1
10
7.392533100977
20
-0.957108342641931
30
0
41
1
10
7.5434780892536
20
-0.939610621664485
30
0
41
1
10
7.59384853473563
20
-0.93248821751439
30
0
41
1
10
7.69480359772783
20
-0.915703996325732
30
0
41
1
10
7.7452574839952
20
-0.906058325778076
30
0
41
1
10
7.8963886388679
20
-0.873521010674693
30
0
41
1
10
7.99694207704067
20
-0.847003585618523
30
0
41
1
10
8.14799262870656
20
-0.800346218673496
30
0
41
1
10
8.19846551358285
20
-0.783653261425741
30
0
41
1
10
8.25184794807515
20
-0.764913010564925
30
0
41
1
10
8.25477405553988
20
-0.763882311851233
30
0
41
1
10
8.25769992460647
20
-0.762848240684207
30
0
0
SPLINE
5
CA
100
AcDbEntity
8
1
62
256
6
ByLayer
370
18
48
1
60
0
100
AcDbSpline
70
4
71
3
72
30
73
26
40
0
40
0
40
0
40
0
40
0.129223380176609
40
0.129223380176609
40
0.216301042158943
40
0.216301042158943
40
0.303378704141278
40
0.303378704141278
40
0.477534028105957
40
0.477534028105957
40
0.651689352070635
40
0.651689352070635
40
0.738767014052974
40
0.738767014052974
40
0.825844676035313
40
0.825844676035313
40
0.869383507026482
40
0.869383507026482
40
0.912922338017652
40
0.912922338017652
40
0.956461169008821
40
0.956461169008821
40
0.978230584504411
40
0.978230584504411
40
1
40
1
40
1
40
1
41
1
10
12.4071636753731
20
0.965000613545044
30
0
41
1
10
12.4818196149267
20
0.964997341632142
30
0
41
1
10
12.5565165123482
20
0.962101227315827
30
0
41
1
10
12.6818599045282
20
0.952428877279431
30
0
41
1
10
12.732365358581
20
0.947223795068112
30
0
41
1
10
12.8331256342407
20
0.934265830477301
30
0
41
1
10
12.8834343922163
20
0.926506384586816
30
0
41
1
10
13.0343075561463
20
0.899455659825463
30
0
41
1
10
13.1349876607497
20
0.876452290490988
30
0
41
1
10
13.3369788901159
20
0.821038491544215
30
0
41
1
10
13.4376758063121
20
0.788781764239957
30
0
41
1
10
13.5887675912131
20
0.734030651551421
30
0
41
1
10
13.6391929353875
20
0.71474975624335
30
0
41
1
10
13.7401640563076
20
0.674291674775105
30
0
41
1
10
13.7905825508826
20
0.653151975121801
30
0
41
1
10
13.8661786890484
20
0.620174035610887
30
0
41
1
10
13.8913869125163
20
0.608990176282134
30
0
41
1
10
13.9417652409187
20
0.58616225445337
30
0
41
1
10
13.9669071512219
20
0.574476943199812
30
0
41
1
10
14.017325893885
20
0.550887266616826
30
0
41
1
10
14.0426422768705
20
0.539045630235478
30
0
41
1
10
14.080384186345
20
0.520633140869222
30
0
41
1
10
14.0928606261036
20
0.514287094717275
30
0
41
1
10
14.1181733320406
20
0.502030056653894
30
0
41
1
10
14.1310195626924
20
0.496132614919816
30
0
41
1
10
14.1446131098804
20
0.491342192933104
30
0
0
SPLINE
5
CB
100
AcDbEntity
8
1
62
256
6
ByLayer
370
18
48
1
60
0
100
AcDbSpline
70
4
71
3
72
28
73
24
40
0
40
0
40
0
40
0
40
0.0624999999999973
40
0.0624999999999973
40
0.124999999999995
40
0.124999999999995
40
0.249999999999989
40
0.249999999999989
40
0.374999999999984
40
0.374999999999984
40
0.437499999999986
40
0.437499999999986
40
0.499999999999989
40
0.499999999999989
40
0.624999999999993
40
0.624999999999993
40
0.749999999999998
40
0.749999999999998
40
0.875000000000003
40
0.875000000000003
40
0.937500000000002
40
0.937500000000002
40
1
40
1
40
1
40
1
41
1
10
14.1446131098804
20
0.491342192933104
30
0
41
1
10
14.152194506075
20
0.480142077094286
30
0
41
1
10
14.1597636784913
20
0.469749997993745
30
0
41
1
10
14.1748936943218
20
0.450548430565618
30
0
41
1
10
14.1824547635932
20
0.441678517162927
30
0
41
1
10
14.2051358272444
20
0.416473951699345
30
0
41
1
10
14.2202533597069
20
0.401499604832338
30
0
41
1
10
14.250481635861
20
0.372105131358893
30
0
41
1
10
14.2655939325413
20
0.357646267929709
30
0
41
1
10
14.2882400272889
20
0.337230510515468
30
0
41
1
10
14.2957953703886
20
0.330627170377255
30
0
41
1
10
14.3108271079726
20
0.318005096379267
30
0
41
1
10
14.318301247018
20
0.311992999848457
30
0
41
1
10
14.3405723371311
20
0.294890528437975
30
0
41
1
10
14.3552306686106
20
0.284668401620024
30
0
41
1
10
14.3840244890546
20
0.266113877497418
30
0
41
1
10
14.3981709688853
20
0.257776928716339
30
0
41
1
10
14.4254656965953
20
0.243103108669601
30
0
41
1
10
14.4386389031651
20
0.236772222830893
30
0
41
1
10
14.4567399320156
20
0.22882105032005
30
0
41
1
10
14.4624894947309
20
0.226426947693938
30
0
41
1
10
14.4730942477811
20
0.222154576726666
30
0
41
1
10
14.4779515382958
20
0.220276248530695
30
0
41
1
10
14.4821031288681
20
0.218659253352286
30
0
0
SPLINE
5
CC
100
AcDbEntity
8
1
62
256
6
ByLayer
370
18
48
1
60
0
100
AcDbSpline
70
4
71
3
72
42
73
38
40
0
40
0
40
0
40
0
40
0.0620276425468985
40
0.0852880085019855
40
0.108548374457072
40
0.139562195730522
40
0.170576017003971
40
0.20158983827742
40
0.232603659550869
40
0.263617480824319
40
0.279124391461043
40
0.310138212734492
40
0.341152034007942
40
0.372165855281391
40
0.40317967655484
40
0.43419349782829
40
0.457453863783376
40
0.480714229738464
40
0.511728051011913
40
0.542741872285362
40
0.573755693558811
40
0.60476951483226
40
0.628029880787347
40
0.651290246742434
40
0.682304068015884
40
0.713317889289333
40
0.744331710562782
40
0.775345531836231
40
0.806359353109681
40
0.821866263746405
40
0.852880085019855
40
0.883893906293304
40
0.914907727566753
40
0.945921548840202
40
0.976935370113652
40
0.992442280750376
40
1
40
1
40
1
40
1
41
1
10
4.47038200000003
20
0.153610847336637
30
0
41
1
10
4.52311159869214
20
0.147726804881984
30
0
41
1
10
4.59561451342884
20
0.139335106853167
30
0
41
1
10
4.68789077541655
20
0.128182791296268
30
0
41
1
10
4.7538023698865
20
0.120041020846429
30
0
41
1
10
4.82630515671662
20
0.110870155535025
30
0
41
1
10
4.90539924723825
20
0.100614276267521
30
0
41
0.999999999999999
10
4.98449357874071
20
0.090126879554191
30
0
41
1
10
5.06358825263999
20
0.0794202882855756
30
0
41
1
10
5.1295008443557
20
0.0703396414416773
30
0
41
1
10
5.19541379615512
20
0.0611819342846331
30
0
41
1
10
5.26132703739177
20
0.0519455648064593
30
0
41
1
10
5.3404228573635
20
0.0407522925399632
30
0
41
1
10
5.41951869134286
20
0.0294712033670521
30
0
41
1
10
5.49861452166794
20
0.0181210216778425
30
0
41
1
10
5.57111903392726
20
0.0076708597341053
30
0
41
1
10
5.6370322264915
20
-0.0018504383570814
30
0
41
1
10
5.70294541918491
20
-0.0113868359786125
30
0
41
1
10
5.77544993111476
20
-0.0218440959540374
30
0
41
1
10
5.85454576231856
20
-0.0331879772607806
30
0
41
1
10
5.9336415935206
20
-0.0444490941435731
30
0
41
1
10
6.00614610545625
20
-0.0546778818165592
30
0
41
1
10
6.07205929812491
20
-0.0638875987431504
30
0
41
1
10
6.13797249079352
20
-0.073012855551184
30
0
41
1
10
6.21047700272934
20
-0.0829259365270048
30
0
41
1
10
6.28957283393098
20
-0.0935784530950628
30
0
41
1
10
6.3686686651358
20
-0.104015047411963
30
0
41
1
10
6.44776449632812
20
-0.114197917676563
30
0
41
1
10
6.5136776890416
20
-0.122465072365742
30
0
41
1
10
6.57959088149019
20
-0.130555562372024
30
0
41
1
10
6.64550407504214
20
-0.138465189225116
30
0
41
1
10
6.72459990381355
20
-0.14765092652155
30
0
41
1
10
6.80369571702886
20
-0.156513991955905
30
0
41
1
10
6.88279151955549
20
-0.165040845817146
30
0
41
1
10
6.94870468041532
20
-0.171843355628027
30
0
41
1
10
6.99467749203152
20
-0.176409216624847
30
0
41
1
10
7.01428504051975
20
-0.178319397517271
30
0
41
1
10
7.02070995806875
20
-0.178941290860479
30
0
0
SPLINE
5
CD
100
AcDbEntity
8
1
62
256
6
ByLayer
370
18
48
1
60
0
100
AcDbSpline
70
4
71
3
72
44
73
40
40
0
40
0
40
0
40
0
40
0.124999999999999
40
0.124999999999999
40
0.187499999999999
40
0.187499999999999
40
0.249999999999999
40
0.249999999999999
40
0.312499999999998
40
0.312499999999998
40
0.374999999999998
40
0.374999999999998
40
0.499999999999997
40
0.499999999999997
40
0.531249999999997
40
0.531249999999997
40
0.562499999999997
40
0.562499999999997
40
0.624999999999996
40
0.624999999999996
40
0.687499999999996
40
0.687499999999996
40
0.718749999999996
40
0.718749999999996
40
0.749999999999995
40
0.749999999999995
40
0.812499999999997
40
0.812499999999997
40
0.828124999999997
40
0.828124999999997
40
0.843749999999997
40
0.843749999999997
40
0.874999999999998
40
0.874999999999998
40
0.937499999999999
40
0.937499999999999
40
0.968749999999999
40
0.968749999999999
40
1
40
1
40
1
40
1
41
1
10
4.47038200000003
20
0.0347603824030216
30
0
41
1
10
4.39684909769173
20
0.056169102668548
30
0
41
1
10
4.32479708234092
20
0.0816053408244386
30
0
41
1
10
4.21893835223742
20
0.125675874711675
30
0
41
1
10
4.18403912516192
20
0.141351492532038
30
0
41
1
10
4.11538458234622
20
0.174478693124456
30
0
41
1
10
4.08158028289154
20
0.1919497328239
30
0
41
1
10
4.01503658403084
20
0.228678424970667
30
0
41
1
10
3.98220951621653
20
0.247994674320267
30
0
41
1
10
3.91832739218603
20
0.287973881947948
30
0
41
1
10
3.8872226813038
20
0.308657257997908
30
0
41
1
10
3.79648557834054
20
0.372633103484333
30
0
41
1
10
3.73939739701669
20
0.417841684215659
30
0
41
1
10
3.67287686059817
20
0.477160616480603
30
0
41
1
10
3.65981735557872
20
0.489165578844336
30
0
41
1
10
3.63421546840775
20
0.513451637226069
30
0
41
1
10
3.62163181566999
20
0.525775060730126
30
0
41
1
10
3.58504638169296
20
0.562810187990806
30
0
41
1
10
3.5622630401237
20
0.587515435458698
30
0
41
1
10
3.52013067761166
20
0.636697108219323
30
0
41
1
10
3.50077753410579
20
0.661174714953859
30
0
41
1
10
3.47464705907228
20
0.697501712434047
30
0
41
1
10
3.46647664823141
20
0.709475068425206
30
0
41
1
10
3.45143100011933
20
0.732825346749223
30
0
41
1
10
3.44452420750883
20
0.74424557888409
30
0
41
1
10
3.42568784241348
20
0.777681381322594
30
0
41
1
10
3.41562847444479
20
0.798876506674219
30
0
41
1
10
3.40647046627794
20
0.823750678548123
30
0
41
1
10
3.40481075965073
20
0.828644178794974
30
0
41
1
10
3.40184735667924
20
0.838260621442487
30
0
41
1
10
3.40054468171022
20
0.84298473533309
30
0
41
1
10
3.39722732439537
20
0.856712413518693
30
0
41
1
10
3.39578130694349
20
0.865335212272811
30
0
41
1
10
3.39369049650711
20
0.889638454497685
30
0
41
1
10
3.39527909084617
20
0.903759179599774
30
0
41
1
10
3.4021932252391
20
0.921804999045719
30
0
41
1
10
3.40527346011265
20
0.927308401851519
30
0
41
1
10
3.41286400460754
20
0.937105961973856
30
0
41
1
10
3.41737713777974
20
0.941423050048627
30
0
41
1
10
3.42259226899094
20
0.945184411701462
30
0
0
LINE
5
7F
100
AcDbEntity
8
1
62
256
6
ByLayer
370
18
48
1
60
0
100
AcDbLine
10
0
20
1.5
30
0
11
0
21
0
31
0
39
0
210
0
220
0
230
1
0
LINE
5
80
100
AcDbEntity
8
1
62
256
6
ByLayer
370
18
48
1
60
0
100
AcDbLine
10
0
20
0
30
0
11
0
21
-1.5
31
0
39
0
210
0
220
0
230
1
0
LINE
5
81
100
AcDbEntity
8
1
62
256
6
ByLayer
370
18
48
1
60
0
100
AcDbLine
10
14.144613
20
0.491342
30
0
11
14.144613
21
-0.92956
31
0
39
0
210
0
220
0
230
1
0
LINE
5
82
100
AcDbEntity
8
1
62
256
6
ByLayer
370
18
48
1
60
0
100
AcDbLine
10
4.470382
20
0.94039
30
0
11
4.470382
21
0.153611
31
0
39
0
210
0
220
0
230
1
0
LINE
5
83
100
AcDbEntity
8
1
62
256
6
ByLayer
370
13
48
1
60
0
100
AcDbLine
10
1.194644
20
0.965
30
0
11
1.194644
21
-0.965
31
0
39
0
210
0
220
0
230
1
0
LINE
5
84
100
AcDbEntity
8
1
62
256
6
ByLayer
370
18
48
1
60
0
100
AcDbLine
10
4.470382
20
0.153611
30
0
11
4.470382
21
0.032198
31
0
39
0
210
0
220
0
230
1
0
LINE
5
85
100
AcDbEntity
8
1
62
256
6
ByLayer
370
18
48
1
60
0
100
AcDbLine
10
4.8E-05
20
1.5
30
0
11
4.8E-05
21
-1.5
31
0
39
0
210
0
220
0
230
1
0
LINE
5
86
100
AcDbEntity
8
1
62
256
6
ByLayer
370
13
48
1
60
0
100
AcDbLine
10
0.694644
20
1.098975
30
0
11
0.694644
21
-1.098975
31
0
39
0
210
0
220
0
230
1
0
LINE
5
87
100
AcDbEntity
8
SK1
62
256
6
ByLayer
370
18
48
1
60
0
100
AcDbLine
10
-23.4054
20
1.326795
30
0
11
-23.4054
21
-1.326795
31
0
39
0
210
0
220
0
230
1
0
LINE
5
89
100
AcDbEntity
8
SK1
62
256
6
ByLayer
370
18
48
1
60
0
100
AcDbLine
10
0
20
1.5
30
0
11
0
21
0
31
0
39
0
210
0
220
0
230
1
0
LINE
5
8A
100
AcDbEntity
8
SK1
62
256
6
ByLayer
370
18
48
1
60
0
100
AcDbLine
10
0
20
0
30
0
11
0
21
-1.5
31
0
39
0
210
0
220
0
230
1
0
LINE
5
8B
100
AcDbEntity
8
SK1
62
256
6
ByLayer
370
18
48
1
60
0
100
AcDbLine
10
-23.1054
20
1.5
30
0
11
-23.1054
21
-1.5
31
0
39
0
210
0
220
0
230
1
0
LINE
5
8C
100
AcDbEntity
8
1
62
256
6
ByLayer
370
18
48
1
60
0
100
AcDbLine
10
0
20
-1.5
30
0
11
4.8E-05
21
-1.5
31
0
39
0
210
0
220
0
230
1
0
LINE
5
8D
100
AcDbEntity
8
1
62
256
6
ByLayer
370
18
48
1
60
0
100
AcDbLine
10
4.8E-05
20
1.5
30
0
11
0
21
1.5
31
0
39
0
210
0
220
0
230
1
0
LINE
5
8E
100
AcDbEntity
8
1
62
256
6
ByLayer
370
18
48
1
60
0
100
AcDbLine
10
14.5946
20
0
30
0
11
14.417744
21
0.379269
31
0
39
0
210
0
220
0
230
1
0
LINE
5
8F
100
AcDbEntity
8
1
62
256
6
ByLayer
370
18
48
1
60
0
100
AcDbLine
10
14.417744
20
-0.379269
30
0
11
14.5946
21
0
31
0
39
0
210
0
220
0
230
1
0
LINE
5
90
100
AcDbEntity
8
1
62
256
6
ByLayer
370
18
48
1
60
0
100
AcDbLine
10
1.194644
20
-0.965
30
0
11
7.155655
21
-0.965
31
0
39
0
210
0
220
0
230
1
0
LINE
5
91
100
AcDbEntity
8
1
62
256
6
ByLayer
370
18
48
1
60
0
100
AcDbLine
10
9.343374
20
-0.965
30
0
11
12.407232
21
-0.965
31
0
39
0
210
0
220
0
230
1
0
LINE
5
92
100
AcDbEntity
8
1
62
256
6
ByLayer
370
18
48
1
60
0
100
AcDbLine
10
12.407232
20
0.965
30
0
11
9.343374
21
0.965
31
0
39
0
210
0
220
0
230
1
0
LINE
5
93
100
AcDbEntity
8
1
62
256
6
ByLayer
370
18
48
1
60
0
100
AcDbLine
10
7.155655
20
0.965
30
0
11
1.194644
21
0.965
31
0
39
0
210
0
220
0
230
1
0
LINE
5
94
100
AcDbEntity
8
1
62
256
6
ByLayer
370
18
48
1
60
0
100
AcDbLine
10
0.694644
20
1.098975
30
0
11
4.8E-05
21
1.5
31
0
39
0
210
0
220
0
230
1
0
LINE
5
95
100
AcDbEntity
8
1
62
256
6
ByLayer
370
18
48
1
60
0
100
AcDbLine
10
4.8E-05
20
-1.5
30
0
11
0.694644
21
-1.098975
31
0
39
0
210
0
220
0
230
1
0
LINE
5
96
100
AcDbEntity
8
SK1
62
256
6
ByLayer
370
18
48
1
60
0
100
AcDbLine
10
-23.4054
20
-1.326795
30
0
11
-23.1054
21
-1.5
31
0
39
0
210
0
220
0
230
1
0
LINE
5
97
100
AcDbEntity
8
SK1
62
256
6
ByLayer
370
18
48
1
60
0
100
AcDbLine
10
-23.1054
20
1.5
30
0
11
-23.4054
21
1.326795
31
0
39
0
210
0
220
0
230
1
0
LINE
5
98
100
AcDbEntity
8
SK1
62
256
6
ByLayer
370
18
48
1
60
0
100
AcDbLine
10
-23.1054
20
-1.5
30
0
11
0
21
-1.5
31
0
39
0
210
0
220
0
230
1
0
LINE
5
99
100
AcDbEntity
8
SK1
62
256
6
ByLayer
370
18
48
1
60
0
100
AcDbLine
10
0
20
1.5
30
0
11
-23.1054
21
1.5
31
0
39
0
210
0
220
0
230
1
0
LINE
5
9A
100
AcDbEntity
8
4
62
256
6
ByLayer
370
18
48
0.05
60
0
100
AcDbLine
10
0
20
0
30
0
11
14.5946
21
0
31
0
39
0
210
0
220
0
230
1
0
LINE
5
9C
100
AcDbEntity
8
81
62
256
6
ByLayer
370
18
48
1
60
0
100
AcDbLine
10
14.5946
20
0
30
0
11
17.5946
21
0
31
0
39
0
210
0
220
0
230
1
0
LINE
5
9D
100
AcDbEntity
8
80
62
256
6
ByLayer
370
18
48
1
60
0
100
AcDbLine
10
0
20
0
30
0
11
-3
21
0
31
0
39
0
210
0
220
0
230
1
0
LINE
5
9E
100
AcDbEntity
8
SK4
62
256
6
ByLayer
370
18
48
0.05
60
0
100
AcDbLine
10
-26.4054
20
0
30
0
11
17.5946
21
0
31
0
39
0
210
0
220
0
230
1
0
LINE
5
A0
100
AcDbEntity
8
SK2
62
256
6
ByLayer
370
13
48
1
60
0
100
AcDbLine
10
-27.9054
20
-9
30
0
11
-27.9054
21
21.782741
31
0
39
0
210
0
220
0
230
1
0
LINE
5
A2
100
AcDbEntity
8
SK2
62
256
6
ByLayer
370
13
48
1
60
0
100
AcDbLine
10
-24.9929
20
-1.5
30
0
11
-29.9054
21
-1.5
31
0
39
0
210
0
220
0
230
1
0
LINE
5
A3
100
AcDbEntity
8
SK2
62
256
6
ByLayer
370
13
48
1
60
0
100
AcDbLine
10
-24.9929
20
1.5
30
0
11
-29.9054
21
1.5
31
0
39
0
210
0
220
0
230
1
0
LINE
5
A4
100
AcDbEntity
8
1
62
256
6
ByLayer
370
18
48
1
60
1
100
AcDbLine
10
-27.9054
20
-1.5
30
0
11
-27.444616
21
-4.999998
31
0
39
0
210
0
220
0
230
1
0
LINE
5
A5
100
AcDbEntity
8
1
62
256
6
ByLayer
370
18
48
1
60
1
100
AcDbLine
10
-27.444616
20
-4.999998
30
0
11
-28.366184
21
-5.000002
31
0
39
0
210
0
220
0
230
1
0
LINE
5
A6
100
AcDbEntity
8
1
62
256
6
ByLayer
370
18
48
1
60
1
100
AcDbLine
10
-28.366184
20
-5.000002
30
0
11
-27.9054
21
-1.5
31
0
39
0
210
0
220
0
230
1
0
LINE
5
A7
100
AcDbEntity
8
1
62
256
6
ByLayer
370
18
48
1
60
1
100
AcDbLine
10
-27.9054
20
1.5
30
0
11
-28.366184
21
4.999998
31
0
39
0
210
0
220
0
230
1
0
LINE
5
A8
100
AcDbEntity
8
1
62
256
6
ByLayer
370
18
48
1
60
1
100
AcDbLine
10
-28.366184
20
4.999998
30
0
11
-27.444616
21
5.000002
31
0
39
0
210
0
220
0
230
1
0
LINE
5
A9
100
AcDbEntity
8
1
62
256
6
ByLayer
370
18
48
1
60
1
100
AcDbLine
10
-27.444616
20
5.000002
30
0
11
-27.9054
21
1.5
31
0
39
0
210
0
220
0
230
1
0
LINE
5
AA
100
AcDbEntity
8
2
62
256
6
ByLayer
370
13
48
1
60
0
100
AcDbLine
10
20.0946
20
-8.465
30
0
11
20.0946
21
29.067855
31
0
39
0
210
0
220
0
230
1
0
LINE
5
AC
100
AcDbEntity
8
2
62
256
6
ByLayer
370
13
48
1
60
0
100
AcDbLine
10
16.1821
20
-0.965
30
0
11
22.0946
21
-0.965
31
0
39
0
210
0
220
0
230
1
0
LINE
5
AD
100
AcDbEntity
8
2
62
256
6
ByLayer
370
13
48
1
60
0
100
AcDbLine
10
16.1821
20
0.965
30
0
11
22.0946
21
0.965
31
0
39
0
210
0
220
0
230
1
0
LINE
5
AE
100
AcDbEntity
8
1
62
256
6
ByLayer
370
18
48
1
60
1
100
AcDbLine
10
20.0946
20
-0.965
30
0
11
20.555384
21
-4.464998
31
0
39
0
210
0
220
0
230
1
0
LINE
5
AF
100
AcDbEntity
8
1
62
256
6
ByLayer
370
18
48
1
60
1
100
AcDbLine
10
20.555384
20
-4.464998
30
0
11
19.633816
21
-4.465002
31
0
39
0
210
0
220
0
230
1
0
LINE
5
B0
100
AcDbEntity
8
1
62
256
6
ByLayer
370
18
48
1
60
1
100
AcDbLine
10
19.633816
20
-4.465002
30
0
11
20.0946
21
-0.965
31
0
39
0
210
0
220
0
230
1
0
LINE
5
B1
100
AcDbEntity
8
1
62
256
6
ByLayer
370
18
48
1
60
1
100
AcDbLine
10
20.0946
20
0.965
30
0
11
19.633816
21
4.464998
31
0
39
0
210
0
220
0
230
1
0
LINE
5
B2
100
AcDbEntity
8
1
62
256
6
ByLayer
370
18
48
1
60
1
100
AcDbLine
10
19.633816
20
4.464998
30
0
11
20.555384
21
4.465002
31
0
39
0
210
0
220
0
230
1
0
LINE
5
B3
100
AcDbEntity
8
1
62
256
6
ByLayer
370
18
48
1
60
1
100
AcDbLine
10
20.555384
20
4.465002
30
0
11
20.0946
21
0.965
31
0
39
0
210
0
220
0
230
1
0
LINE
5
B4
100
AcDbEntity
8
SK2
62
256
6
ByLayer
370
13
48
1
60
0
100
AcDbLine
10
15.265506
20
-1.438764
30
0
11
22.349645
21
-16.630748
31
0
39
0
210
0
220
0
230
1
0
LINE
5
B5
100
AcDbEntity
8
SK2
62
256
6
ByLayer
370
13
48
1
60
0
100
AcDbLine
10
15.265506
20
1.438764
30
0
11
22.349645
21
16.630748
31
0
39
0
210
0
220
0
230
1
0
LINE
5
B6
100
AcDbEntity
8
1
62
256
6
ByLayer
370
18
48
1
60
1
100
AcDbLine
10
21.504409
20
-14.818132
30
0
11
24.376442
21
-12.765394
31
0
39
0
210
0
220
0
230
1
0
LINE
5
B7
100
AcDbEntity
8
1
62
256
6
ByLayer
370
18
48
1
60
1
100
AcDbLine
10
24.376442
20
-12.765394
30
0
11
24.809871
21
-13.578675
31
0
39
0
210
0
220
0
230
1
0
LINE
5
B8
100
AcDbEntity
8
1
62
256
6
ByLayer
370
18
48
1
60
1
100
AcDbLine
10
24.809871
20
-13.578675
30
0
11
21.504409
21
-14.818132
31
0
39
0
210
0
220
0
230
1
0
LINE
5
B9
100
AcDbEntity
8
1
62
256
6
ByLayer
370
18
48
1
60
1
100
AcDbLine
10
21.504409
20
14.818132
30
0
11
24.809868
21
13.578677
31
0
39
0
210
0
220
0
230
1
0
LINE
5
BA
100
AcDbEntity
8
1
62
256
6
ByLayer
370
18
48
1
60
1
100
AcDbLine
10
24.809868
20
13.578677
30
0
11
24.376445
21
12.765392
31
0
39
0
210
0
220
0
230
1
0
LINE
5
BB
100
AcDbEntity
8
1
62
256
6
ByLayer
370
18
48
1
60
1
100
AcDbLine
10
24.376445
20
12.765392
30
0
11
21.504409
21
14.818132
31
0
39
0
210
0
220
0
230
1
0
LINE
5
D2
100
AcDbEntity
8
1
62
256
6
ByLayer
370
18
48
1
60
1
100
AcDbLine
10
-27.9054
20
-1.5
30
0
11
-27.444616
21
-4.999998
31
0
39
0
210
0
220
0
230
1
0
LINE
5
D3
100
AcDbEntity
8
1
62
256
6
ByLayer
370
18
48
1
60
1
100
AcDbLine
10
-27.444616
20
-4.999998
30
0
11
-28.366184
21
-5.000002
31
0
39
0
210
0
220
0
230
1
0
LINE
5
D4
100
AcDbEntity
8
1
62
256
6
ByLayer
370
18
48
1
60
1
100
AcDbLine
10
-28.366184
20
-5.000002
30
0
11
-27.9054
21
-1.5
31
0
39
0
210
0
220
0
230
1
0
LINE
5
D6
100
AcDbEntity
8
1
62
256
6
ByLayer
370
18
48
1
60
1
100
AcDbLine
10
-27.9054
20
1.5
30
0
11
-28.366184
21
4.999998
31
0
39
0
210
0
220
0
230
1
0
LINE
5
D7
100
AcDbEntity
8
1
62
256
6
ByLayer
370
18
48
1
60
1
100
AcDbLine
10
-28.366184
20
4.999998
30
0
11
-27.444616
21
5.000002
31
0
39
0
210
0
220
0
230
1
0
LINE
5
D8
100
AcDbEntity
8
1
62
256
6
ByLayer
370
18
48
1
60
1
100
AcDbLine
10
-27.444616
20
5.000002
30
0
11
-27.9054
21
1.5
31
0
39
0
210
0
220
0
230
1
0
LINE
5
DC
100
AcDbEntity
8
1
62
256
6
ByLayer
370
18
48
1
60
1
100
AcDbLine
10
20.0946
20
-0.965
30
0
11
20.555384
21
-4.464998
31
0
39
0
210
0
220
0
230
1
0
LINE
5
DD
100
AcDbEntity
8
1
62
256
6
ByLayer
370
18
48
1
60
1
100
AcDbLine
10
20.555384
20
-4.464998
30
0
11
19.633816
21
-4.465002
31
0
39
0
210
0
220
0
230
1
0
LINE
5
DE
100
AcDbEntity
8
1
62
256
6
ByLayer
370
18
48
1
60
1
100
AcDbLine
10
19.633816
20
-4.465002
30
0
11
20.0946
21
-0.965
31
0
39
0
210
0
220
0
230
1
0
LINE
5
E0
100
AcDbEntity
8
1
62
256
6
ByLayer
370
18
48
1
60
1
100
AcDbLine
10
20.0946
20
0.965
30
0
11
19.633816
21
4.464998
31
0
39
0
210
0
220
0
230
1
0
LINE
5
E1
100
AcDbEntity
8
1
62
256
6
ByLayer
370
18
48
1
60
1
100
AcDbLine
10
19.633816
20
4.464998
30
0
11
20.555384
21
4.465002
31
0
39
0
210
0
220
0
230
1
0
LINE
5
E2
100
AcDbEntity
8
1
62
256
6
ByLayer
370
18
48
1
60
1
100
AcDbLine
10
20.555384
20
4.465002
30
0
11
20.0946
21
0.965
31
0
39
0
210
0
220
0
230
1
0
LINE
5
E5
100
AcDbEntity
8
1
62
256
6
ByLayer
370
18
48
1
60
1
100
AcDbLine
10
21.504409
20
-14.818132
30
0
11
24.376442
21
-12.765394
31
0
39
0
210
0
220
0
230
1
0
LINE
5
E6
100
AcDbEntity
8
1
62
256
6
ByLayer
370
18
48
1
60
1
100
AcDbLine
10
24.376442
20
-12.765394
30
0
11
24.809871
21
-13.578675
31
0
39
0
210
0
220
0
230
1
0
LINE
5
E7
100
AcDbEntity
8
1
62
256
6
ByLayer
370
18
48
1
60
1
100
AcDbLine
10
24.809871
20
-13.578675
30
0
11
21.504409
21
-14.818132
31
0
39
0
210
0
220
0
230
1
0
LINE
5
E9
100
AcDbEntity
8
1
62
256
6
ByLayer
370
18
48
1
60
1
100
AcDbLine
10
21.504409
20
14.818132
30
0
11
24.809868
21
13.578677
31
0
39
0
210
0
220
0
230
1
0
LINE
5
EA
100
AcDbEntity
8
1
62
256
6
ByLayer
370
18
48
1
60
1
100
AcDbLine
10
24.809868
20
13.578677
30
0
11
24.376445
21
12.765392
31
0
39
0
210
0
220
0
230
1
0
LINE
5
EB
100
AcDbEntity
8
1
62
256
6
ByLayer
370
18
48
1
60
1
100
AcDbLine
10
24.376445
20
12.765392
30
0
11
21.504409
21
14.818132
31
0
39
0
210
0
220
0
230
1
0
MTEXT
5
CE
100
AcDbEntity
8
SK2
62
256
6
ByLayer
370
18
48
1
60
0
100
AcDbMText
10
-29.246514
20
6.658437
30
0
210
0
220
0
230
1
1
%%c
40
3
41
0
44
1.084337
50
90
71
7
72
5
7
iso_b_vert
0
MTEXT
5
D1
100
AcDbEntity
8
SK2
62
256
6
ByLayer
370
18
48
1
60
0
100
AcDbMText
10
-29.246514
20
12.635
30
0
210
0
220
0
230
1
1
\W0.7468;3.000
40
3
41
0
44
1.084337
50
90
71
7
72
5
7
iso_b_vert
0
MTEXT
5
DA
100
AcDbEntity
8
2
62
256
6
ByLayer
370
18
48
1
60
0
100
AcDbMText
10
18.753486
20
14.693437
30
0
210
0
220
0
230
1
1
%%c
40
3
41
0
44
1.084337
50
90
71
7
72
5
7
iso_b_vert
0
MTEXT
5
DB
100
AcDbEntity
8
2
62
256
6
ByLayer
370
18
48
1
60
0
100
AcDbMText
10
18.753486
20
20.67
30
0
210
0
220
0
230
1
1
\W0.6864;1.930
40
3
41
0
44
1.084337
50
90
71
7
72
5
7
iso_b_vert
0
MTEXT
5
E4
100
AcDbEntity
8
SK2
62
256
6
ByLayer
370
18
48
1
60
0
100
AcDbMText
10
27.661886
20
-2.114886
30
0
210
0
220
0
230
1
1
\W0.6747;130%%d
40
3
41
0
44
1.084337
50
0
71
7
72
5
7
iso_b_vert
0
MTEXT
5
ED
100
AcDbEntity
8
SK6
62
256
6
ByLayer
370
18
48
1
60
0
100
AcDbMText
10
-32.211996
20
-48.114886
30
0
210
0
220
0
230
1
1
\W0.7670;462.1-0193-008A0-XM X0BM
40
3
41
0
44
1.084337
50
0
71
7
72
5
7
iso_b_vert
0
HATCH
5
D5
100
AcDbEntity
8
SK2
62
256
6
ByLayer
370
13
48
1
60
0
100
AcDbHatch
10
0
20
0
30
0
210
0
220
0
230
1
2
ANSI31
70
0
71
0
91
1
92
5
93
3
72
1
10
-27.9054
20
-1.5
11
-27.4446162584472
21
-4.99999830744682
72
1
10
-27.4446162584472
20
-4.99999830744682
11
-28.3661837415528
21
-5.00000169255318
72
1
10
-28.3661837415528
20
-5.00000169255318
11
-27.9054
21
-1.5
97
0
75
0
76
1
52
0
41
0.0062
77
0
78
1
53
45
43
0
44
0
45
-0.0139193969876572
46
0.0139193969876572
79
0
47
0
98
1
10
0
20
0
0
HATCH
5
D9
100
AcDbEntity
8
SK2
62
256
6
ByLayer
370
13
48
1
60
0
100
AcDbHatch
10
0
20
0
30
0
210
0
220
0
230
1
2
ANSI31
70
0
71
0
91
1
92
5
93
3
72
1
10
-27.9054
20
1.5
11
-28.3661837415528
21
4.99999830744682
72
1
10
-28.3661837415528
20
4.99999830744682
11
-27.4446162584472
21
5.00000169255318
72
1
10
-27.4446162584472
20
5.00000169255318
11
-27.9054
21
1.5
97
0
75
0
76
1
52
0
41
0.0062
77
0
78
1
53
45
43
0
44
0
45
-0.0139193969876572
46
0.0139193969876572
79
0
47
0
98
1
10
0
20
0
0
HATCH
5
DF
100
AcDbEntity
8
2
62
256
6
ByLayer
370
13
48
1
60
0
100
AcDbHatch
10
0
20
0
30
0
210
0
220
0
230
1
2
ANSI31
70
0
71
0
91
1
92
5
93
3
72
1
10
20.0946
20
-0.965000000000003
11
20.5553837415528
21
-4.46499830744682
72
1
10
20.5553837415528
20
-4.46499830744682
11
19.6338162584472
21
-4.46500169255319
72
1
10
19.6338162584472
20
-4.46500169255319
11
20.0946
21
-0.965000000000003
97
0
75
0
76
1
52
0
41
0.0062
77
0
78
1
53
45
43
0
44
0
45
-0.0139193969876572
46
0.0139193969876572
79
0
47
0
98
1
10
0
20
0
0
HATCH
5
E3
100
AcDbEntity
8
2
62
256
6
ByLayer
370
13
48
1
60
0
100
AcDbHatch
10
0
20
0
30
0
210
0
220
0
230
1
2
ANSI31
70
0
71
0
91
1
92
5
93
3
72
1
10
20.0946
20
0.965000000000003
11
19.6338162584472
21
4.46499830744682
72
1
10
19.6338162584472
20
4.46499830744682
11
20.5553837415528
21
4.46500169255319
72
1
10
20.5553837415528
20
4.46500169255319
11
20.0946
21
0.965000000000003
97
0
75
0
76
1
52
0
41
0.0062
77
0
78
1
53
45
43
0
44
0
45
-0.0139193969876572
46
0.0139193969876572
79
0
47
0
98
1
10
0
20
0
0
HATCH
5
E8
100
AcDbEntity
8
SK2
62
256
6
ByLayer
370
13
48
1
60
0
100
AcDbHatch
10
0
20
0
30
0
210
0
220
0
230
1
2
ANSI31
70
0
71
0
91
1
92
5
93
3
72
1
10
21.5044085794605
20
-14.8181323180492
11
24.3764418553693
21
-12.765393983365
72
1
10
24.3764418553693
20
-12.765393983365
11
24.8098706127348
21
-13.5786750775861
72
1
10
24.8098706127348
20
-13.5786750775861
11
21.5044085794605
21
-14.8181323180492
97
0
75
0
76
1
52
0
41
0.0062
77
0
78
1
53
45
43
0
44
0
45
-0.0139193969876572
46
0.0139193969876572
79
0
47
0
98
1
10
0
20
0
0
HATCH
5
EC
100
AcDbEntity
8
SK2
62
256
6
ByLayer
370
13
48
1
60
0
100
AcDbHatch
10
0
20
0
30
0
210
0
220
0
230
1
2
ANSI31
70
0
71
0
91
1
92
5
93
3
72
1
10
21.5044085794605
20
14.8181323180492
11
24.8098676253807
21
13.5786766696479
72
1
10
24.8098676253807
20
13.5786766696479
11
24.3764448427234
21
12.7653923913032
72
1
10
24.3764448427234
20
12.7653923913032
11
21.5044085794605
21
14.8181323180492
97
0
75
0
76
1
52
0
41
0.0062
77
0
78
1
53
45
43
0
44
0
45
-0.0139193969876572
46
0.0139193969876572
79
0
47
0
98
1
10
0
20
0
0
DIMENSION
5
F0
100
AcDbEntity
8
SK2
62
256
6
ByLayer
370
18
48
1
60
0
100
AcDbDimension
2
_U0
10
14.5946
20
-38.979306
30
0
11
-4.4054
21
-38.979306
31
0
70
32
71
1
72
1
41
1
210
0
220
0
230
1
3
Standard
100
AcDbAlignedDimension
13
-23.4054
23
1.5
33
0
14
14.5946
24
0.965
34
0
50
0
100
AcDbRotatedDimension
1001
ACAD
1000
DSTYLE
1002
{
1070
   371
1070
    13
1070
   372
1070
    13
1070
     3
1000

1070
   170
1070
     0
1070
   144
1040
1.0
1070
   277
1070
     2
1070
   284
1070
     8
1070
   278
1070
    46
1070
   146
1040
1.166667
1070
   345
1005
16
1070
   347
1005
16
1070
   346
1005
16
1070
   344
1005
0
1070
   343
1005
0
1070
   172
1070
     1
1070
    76
1070
     0
1070
    75
1070
     0
1070
   282
1070
     0
1070
   281
1070
     0
1070
    71
1070
     0
1070
    74
1070
     0
1070
   279
1070
     0
1070
   173
1070
     1
1070
   340
1005
CF
1070
   271
1070
     2
1070
   272
1070
     2
1070
    77
1070
     1
1070
    73
1070
     1
1070
   171
1070
     3
1070
   274
1070
     4
1070
   177
1070
     2
1070
   176
1070
     2
1070
   178
1070
     2
1070
    78
1070
     8
1070
    48
1040
-0.1
1070
    41
1040
3.5
1070
   147
1040
1.5
1070
    42
1040
1.5875
1070
    44
1040
2.0
1070
   140
1040
3.0
1002
}
1001
ACAD_DSTYLE_DIM_LINETYPE
1070
   380
1005
16
1001
ACAD_DSTYLE_DIM_EXT1_LINETYPE
1070
   381
1005
16
1001
ACAD_DSTYLE_DIM_EXT2_LINETYPE
1070
   382
1005
16
0
DIMENSION
5
109
100
AcDbEntity
8
SK2
62
256
6
ByLayer
370
18
48
1
60
0
100
AcDbDimension
2
_U1
10
6.2896
20
-22.465
30
0
11
30.237457
21
-22.465
31
0
70
32
71
1
72
1
41
1
210
0
220
0
230
1
3
Standard
100
AcDbAlignedDimension
13
14.5946
23
0.965
33
0
14
6.2896
24
0
34
0
50
0
100
AcDbRotatedDimension
1001
ACAD
1000
DSTYLE
1002
{
1070
   371
1070
    13
1070
   372
1070
    13
1070
     3
1000

1070
   170
1070
     0
1070
   144
1040
1.0
1070
   277
1070
     2
1070
   284
1070
     8
1070
   278
1070
    46
1070
   146
1040
1.166667
1070
   345
1005
16
1070
   347
1005
16
1070
   346
1005
16
1070
   344
1005
0
1070
   343
1005
0
1070
   172
1070
     1
1070
    76
1070
     0
1070
    75
1070
     0
1070
   282
1070
     0
1070
   281
1070
     0
1070
    71
1070
     0
1070
    74
1070
     0
1070
   279
1070
     0
1070
   173
1070
     1
1070
   340
1005
CF
1070
   271
1070
     2
1070
   272
1070
     2
1070
    77
1070
     1
1070
    73
1070
     1
1070
   171
1070
     3
1070
   274
1070
     4
1070
   177
1070
     2
1070
   176
1070
     2
1070
   178
1070
     2
1070
    78
1070
     8
1070
    48
1040
-0.1
1070
    41
1040
3.5
1070
   147
1040
1.5
1070
    42
1040
1.5875
1070
    44
1040
2.0
1070
   140
1040
3.0
1002
}
1001
ACAD_DSTYLE_DIM_LINETYPE
1070
   380
1005
16
1001
ACAD_DSTYLE_DIM_EXT1_LINETYPE
1070
   381
1005
16
1001
ACAD_DSTYLE_DIM_EXT2_LINETYPE
1070
   382
1005
16
0
DIMENSION
5
123
100
AcDbEntity
8
SK2
62
256
6
ByLayer
370
18
48
1
60
0
100
AcDbDimension
2
_U2
10
3.3946
20
-30.479306
30
0
11
8.9946
21
-30.479306
31
0
70
32
71
1
72
1
41
1
210
0
220
0
230
1
3
Standard
100
AcDbAlignedDimension
13
14.5946
23
0.965
33
0
14
3.3946
24
0
34
0
50
0
100
AcDbRotatedDimension
1001
ACAD
1000
DSTYLE
1002
{
1070
   371
1070
    13
1070
   372
1070
    13
1070
     3
1000

1070
   170
1070
     0
1070
   144
1040
1.0
1070
   277
1070
     2
1070
   284
1070
     8
1070
   278
1070
    46
1070
   146
1040
1.166667
1070
   345
1005
16
1070
   347
1005
16
1070
   346
1005
16
1070
   344
1005
0
1070
   343
1005
0
1070
   172
1070
     1
1070
    76
1070
     0
1070
    75
1070
     0
1070
   282
1070
     0
1070
   281
1070
     0
1070
    71
1070
     0
1070
    74
1070
     0
1070
   279
1070
     0
1070
   173
1070
     1
1070
   340
1005
CF
1070
   271
1070
     2
1070
   272
1070
     2
1070
    77
1070
     1
1070
    73
1070
     1
1070
   171
1070
     3
1070
   274
1070
     4
1070
   177
1070
     2
1070
   176
1070
     2
1070
   178
1070
     2
1070
    78
1070
     8
1070
    48
1040
-0.1
1070
    41
1040
3.5
1070
   147
1040
1.5
1070
    42
1040
1.5875
1070
    44
1040
2.0
1070
   140
1040
3.0
1002
}
1001
ACAD_DSTYLE_DIM_LINETYPE
1070
   380
1005
16
1001
ACAD_DSTYLE_DIM_EXT1_LINETYPE
1070
   381
1005
16
1001
ACAD_DSTYLE_DIM_EXT2_LINETYPE
1070
   382
1005
16
0
DIMENSION
5
13C
100
AcDbEntity
8
SK2
62
256
6
ByLayer
370
18
48
1
60
0
100
AcDbDimension
2
_U3
10
0
20
11.479306
30
0
11
-11.7027
21
11.479306
31
0
70
32
71
1
72
1
41
1
210
0
220
0
230
1
3
Standard
100
AcDbAlignedDimension
13
-23.4054
23
0
33
0
14
0
24
0
34
0
50
0
100
AcDbRotatedDimension
1001
ACAD
1000
DSTYLE
1002
{
1070
   371
1070
    13
1070
   372
1070
    13
1070
     3
1000

1070
   170
1070
     0
1070
   144
1040
1.0
1070
   277
1070
     2
1070
   284
1070
     8
1070
   278
1070
    46
1070
   146
1040
1.166667
1070
   345
1005
16
1070
   347
1005
16
1070
   346
1005
16
1070
   344
1005
0
1070
   343
1005
0
1070
   172
1070
     1
1070
    76
1070
     0
1070
    75
1070
     0
1070
   282
1070
     0
1070
   281
1070
     0
1070
    71
1070
     0
1070
    74
1070
     0
1070
   279
1070
     0
1070
   173
1070
     1
1070
   340
1005
CF
1070
   271
1070
     2
1070
   272
1070
     2
1070
    77
1070
     1
1070
    73
1070
     1
1070
   171
1070
     3
1070
   274
1070
     4
1070
   177
1070
     2
1070
   176
1070
     2
1070
   178
1070
     2
1070
    78
1070
     8
1070
    48
1040
-0.1
1070
    41
1040
3.5
1070
   147
1040
1.5
1070
    42
1040
1.5875
1070
    44
1040
2.0
1070
   140
1040
3.0
1002
}
1001
ACAD_DSTYLE_DIM_LINETYPE
1070
   380
1005
16
1001
ACAD_DSTYLE_DIM_EXT1_LINETYPE
1070
   381
1005
16
1001
ACAD_DSTYLE_DIM_EXT2_LINETYPE
1070
   382
1005
16
0
DIMENSION
5
154
100
AcDbEntity
8
2
62
256
6
ByLayer
370
18
48
1
60
0
100
AcDbDimension
2
_U4
10
0
20
11.479306
30
0
11
7.2973
21
11.479306
31
0
70
32
71
1
72
1
41
1
210
0
220
0
230
1
3
Standard
100
AcDbAlignedDimension
13
14.5946
23
0.965
33
0
14
0
24
0
34
0
50
0
100
AcDbRotatedDimension
1001
ACAD
1000
DSTYLE
1002
{
1070
   371
1070
    13
1070
   372
1070
    13
1070
     3
1000

1070
   170
1070
     0
1070
   144
1040
1.0
1070
   277
1070
     2
1070
   284
1070
     8
1070
   278
1070
    46
1070
   146
1040
1.166667
1070
   345
1005
16
1070
   347
1005
16
1070
   346
1005
16
1070
   344
1005
0
1070
   343
1005
0
1070
   172
1070
     1
1070
    76
1070
     0
1070
    75
1070
     0
1070
   282
1070
     0
1070
   281
1070
     0
1070
    71
1070
     0
1070
    74
1070
     0
1070
   279
1070
     0
1070
   173
1070
     1
1070
   340
1005
CF
1070
   271
1070
     2
1070
   272
1070
     2
1070
    77
1070
     1
1070
    73
1070
     1
1070
   171
1070
     3
1070
   274
1070
     4
1070
   177
1070
     2
1070
   176
1070
     2
1070
   178
1070
     2
1070
    78
1070
     8
1070
    48
1040
-0.1
1070
    41
1040
3.5
1070
   147
1040
1.5
1070
    42
1040
1.5875
1070
    44
1040
2.0
1070
   140
1040
3.0
1002
}
1001
ACAD_DSTYLE_DIM_LINETYPE
1070
   380
1005
16
1001
ACAD_DSTYLE_DIM_EXT1_LINETYPE
1070
   381
1005
16
1001
ACAD_DSTYLE_DIM_EXT2_LINETYPE
1070
   382
1005
16
0
ENDSEC
0
SECTION
2
OBJECTS
0
DICTIONARY
5
1dd
330
0
100
AcDbDictionary
280
0
281
1
3
ACAD_GROUP
350
1de
3
ACAD_MLINESTYLE
350
1df
0
DICTIONARY
5
1de
330
0
100
AcDbDictionary
280
0
281
1
0
DICTIONARY
5
1df
330
0
100
AcDbDictionary
280
0
281
1
3
Standard
350
18
0
MLINESTYLE
5
18
330
1df
100
AcDbMlineStyle
2
Standard
70
0
3

62
256
51
90
52
90
71
2
49
-0.5
62
256
6
ByLayer
49
0.5
62
256
6
ByLayer
0
RASTERVARIABLES
5
1cb
330

100
AcDbRasterVariables
90
0
70
1
71
1
72
1
0
ENDSEC
0
EOF
