0
SECTION
2
HEADER
9
$ACADVER
1
AC1015
9
$DWGCODEPAGE
3
ANSI_1252
9
$HANDSEED
5
22f
9
$ANGBASE
50
0
9
$ANGDIR
70
0
9
$ATTMODE
70
1
9
$AUNITS
70
0
9
$AUPREC
70
0
9
$CECOLOR
62
256
9
$CELTSCALE
40
1
9
$CELTYPE
6
ByLayer
9
$CELWEIGHT
370
18
9
$CLAYER
8
0
9
$CMLJUST
70
0
9
$CMLSCALE
40
1
9
$CMLSTYLE
2
Standard
9
$DIMSTYLE
2
Standard
9
$TEXTSIZE
40
0.2
9
$TEXTSTYLE
7
Standard
9
$LUNITS
70
2
9
$LUPREC
70
4
9
$EXTNAMES
290
1
9
$INSUNITS
70
4
9
$LTSCALE
40
1
9
$LWDISPLAY
290
1
9
$PDMODE
70
0
9
$PDSIZE
40
0
9
$PLINEGEN
70
0
0
ENDSEC
0
SECTION
2
CLASSES
0
CLASS
1
RASTERVARIABLES
2
AcDbRasterVariables
3
ISM
90
0
280
0
281
0
0
ENDSEC
0
SECTION
2
TABLES
0
TABLE
2
VPORT
5
225
100
AcDbSymbolTable
0
VPORT
5
1
100
AcDbSymbolTableRecord
100
AcDbViewportTableRecord
2
*Active
70
0
10
0
20
0
11
1
21
1
12
-1
22
1
13
0
23
0
14
0.5
24
0.5
15
10
25
10
16
0
26
0
36
1
17
0
27
0
37
0
0
ENDTAB
0
TABLE
2
LTYPE
5
226
100
AcDbSymbolTable
0
LTYPE
5
14
100
AcDbSymbolTableRecord
100
AcDbLinetypeTableRecord
70
0
2
ByBlock
3

72
65
73
0
40
0
0
LTYPE
5
15
100
AcDbSymbolTableRecord
100
AcDbLinetypeTableRecord
70
0
2
ByLayer
3

72
65
73
0
40
0
0
LTYPE
5
16
100
AcDbSymbolTableRecord
100
AcDbLinetypeTableRecord
70
0
2
Continuous
3
Solid line
72
65
73
0
40
0
0
LTYPE
5
6E
100
AcDbSymbolTableRecord
100
AcDbLinetypeTableRecord
70
0
2
CENTER
3
____ _ ____ _ ____ _ ____
72
65
73
4
40
47.5
49
22
74
0
49
-8.5
74
0
49
8.5
74
0
49
-8.5
74
0
0
LTYPE
5
6F
100
AcDbSymbolTableRecord
100
AcDbLinetypeTableRecord
70
0
2
DASHED
3
__ __ __ __ __ __ __ __ __
72
65
73
2
40
25.72
49
12.86
74
0
49
-12.86
74
0
0
ENDTAB
0
TABLE
2
LAYER
5
227
100
AcDbSymbolTable
0
LAYER
5
10
100
AcDbSymbolTableRecord
100
AcDbLayerTableRecord
2
0
70
0
62
7
6
Continuous
290
1
370
-3
390
0
0
LAYER
5
71
100
AcDbSymbolTableRecord
100
AcDbLayerTableRecord
2
80
70
0
62
-6
6
Continuous
290
1
370
-3
390
0
0
LAYER
5
73
100
AcDbSymbolTableRecord
100
AcDbLayerTableRecord
2
81
70
0
62
-3
6
Continuous
290
1
370
-3
390
0
0
LAYER
5
77
100
AcDbSymbolTableRecord
100
AcDbLayerTableRecord
2
4
70
0
62
-2
6
CENTER
290
1
370
-3
390
0
0
LAYER
5
7F
100
AcDbSymbolTableRecord
100
AcDbLayerTableRecord
2
1
70
0
62
4
6
Continuous
290
1
370
-3
390
0
0
LAYER
5
EC
100
AcDbSymbolTableRecord
100
AcDbLayerTableRecord
2
Defpoints
70
0
62
7
6
Continuous
290
0
370
-3
390
0
0
LAYER
5
F9
100
AcDbSymbolTableRecord
100
AcDbLayerTableRecord
2
2
70
0
62
7
6
Continuous
290
1
370
-3
390
0
0
LAYER
5
211
100
AcDbSymbolTableRecord
100
AcDbLayerTableRecord
2
SK4
70
0
62
2
6
CENTER
290
1
370
-3
390
0
0
LAYER
5
212
100
AcDbSymbolTableRecord
100
AcDbLayerTableRecord
2
SK1
70
0
62
4
6
Continuous
290
1
370
-3
390
0
0
LAYER
5
213
100
AcDbSymbolTableRecord
100
AcDbLayerTableRecord
2
SK6
70
0
62
5
6
Continuous
290
1
370
-3
390
0
0
LAYER
5
214
100
AcDbSymbolTableRecord
100
AcDbLayerTableRecord
2
SK2
70
0
62
7
6
Continuous
290
1
370
-3
390
0
0
ENDTAB
0
TABLE
2
STYLE
5
228
100
AcDbSymbolTable
0
STYLE
5
11
100
AcDbSymbolTableRecord
100
AcDbTextStyleTableRecord
2
Standard
3
txt
70
0
71
0
40
0
41
1
42
0
50
0
0
STYLE
5
DE
100
AcDbSymbolTableRecord
100
AcDbTextStyleTableRecord
2
iso_b_vert
3
simplex.shx
70
0
71
0
40
0
41
1
42
0
50
0
0
STYLE
5
DF
100
AcDbSymbolTableRecord
100
AcDbTextStyleTableRecord
2
DWGDirectTextStyle
3
simplex
70
0
71
0
40
0
41
1
42
0
50
0
0
ENDTAB
0
TABLE
2
DIMSTYLE
5
229
100
AcDbSymbolTable
100
AcDbDimStyleTable
0
DIMSTYLE
105
27
100
AcDbSymbolTableRecord
100
AcDbDimStyleTableRecord
2
Standard
70
0
3
<>
41
0.18
42
0.0625
44
0.18
140
0.18
147
0.09
73
0
74
0
77
1
271
2
275
0
278
52
280
0
340
11
0
ENDTAB
0
TABLE
2
VIEW
5
22a
100
AcDbSymbolTable
0
ENDTAB
0
TABLE
2
UCS
5
22b
100
AcDbSymbolTable
0
ENDTAB
0
TABLE
2
APPID
5
22c
100
AcDbSymbolTable
0
APPID
5
12
100
AcDbSymbolTableRecord
100
AcDbRegAppTableRecord
2
ACAD
70
0
0
APPID
5
E1
100
AcDbSymbolTableRecord
100
AcDbRegAppTableRecord
2
ACAD_DSTYLE_DIMBREAK
70
0
0
APPID
5
1D0
100
AcDbSymbolTableRecord
100
AcDbRegAppTableRecord
2
ACAD_DSTYLE_DIM_LINETYPE
70
0
0
APPID
5
1D1
100
AcDbSymbolTableRecord
100
AcDbRegAppTableRecord
2
ACAD_DSTYLE_DIM_EXT1_LINETYPE
70
0
0
APPID
5
1D2
100
AcDbSymbolTableRecord
100
AcDbRegAppTableRecord
2
ACAD_DSTYLE_DIM_EXT2_LINETYPE
70
0
0
APPID
5
20D
100
AcDbSymbolTableRecord
100
AcDbRegAppTableRecord
2
ACAD_MLEADERVER
70
0
0
ENDTAB
0
TABLE
2
BLOCK_RECORD
5
22d
100
AcDbSymbolTable
0
BLOCK_RECORD
5
1F
100
AcDbSymbolTableRecord
100
AcDbBlockTableRecord
2
*Model_Space
340
0
70
0
0
BLOCK_RECORD
5
1B
100
AcDbSymbolTableRecord
100
AcDbBlockTableRecord
2
*Paper_Space
340
0
70
0
0
BLOCK_RECORD
5
23
100
AcDbSymbolTableRecord
100
AcDbBlockTableRecord
2
*Paper_Space0
340
0
70
0
0
BLOCK_RECORD
5
E3
100
AcDbSymbolTableRecord
100
AcDbBlockTableRecord
2
_Closed
340
0
70
0
0
BLOCK_RECORD
5
ED
100
AcDbSymbolTableRecord
100
AcDbBlockTableRecord
2
*D2
340
0
70
0
0
BLOCK_RECORD
5
FA
100
AcDbSymbolTableRecord
100
AcDbBlockTableRecord
2
_U0
340
0
70
0
0
BLOCK_RECORD
5
10A
100
AcDbSymbolTableRecord
100
AcDbBlockTableRecord
2
*D4
340
0
70
0
0
BLOCK_RECORD
5
117
100
AcDbSymbolTableRecord
100
AcDbBlockTableRecord
2
_U1
340
0
70
0
0
BLOCK_RECORD
5
128
100
AcDbSymbolTableRecord
100
AcDbBlockTableRecord
2
*D6
340
0
70
0
0
BLOCK_RECORD
5
134
100
AcDbSymbolTableRecord
100
AcDbBlockTableRecord
2
_U2
340
0
70
0
0
BLOCK_RECORD
5
144
100
AcDbSymbolTableRecord
100
AcDbBlockTableRecord
2
*D8
340
0
70
0
0
BLOCK_RECORD
5
150
100
AcDbSymbolTableRecord
100
AcDbBlockTableRecord
2
_U3
340
0
70
0
0
BLOCK_RECORD
5
161
100
AcDbSymbolTableRecord
100
AcDbBlockTableRecord
2
*D10
340
0
70
0
0
BLOCK_RECORD
5
16D
100
AcDbSymbolTableRecord
100
AcDbBlockTableRecord
2
_U4
340
0
70
0
0
BLOCK_RECORD
5
17D
100
AcDbSymbolTableRecord
100
AcDbBlockTableRecord
2
*D12
340
0
70
0
0
BLOCK_RECORD
5
189
100
AcDbSymbolTableRecord
100
AcDbBlockTableRecord
2
_U5
340
0
70
0
0
BLOCK_RECORD
5
199
100
AcDbSymbolTableRecord
100
AcDbBlockTableRecord
2
*D14
340
0
70
0
0
BLOCK_RECORD
5
1A5
100
AcDbSymbolTableRecord
100
AcDbBlockTableRecord
2
_U6
340
0
70
0
0
ENDTAB
0
ENDSEC
0
SECTION
2
BLOCKS
0
BLOCK
5
20
100
AcDbEntity
8
0
100
AcDbBlockBegin
2
*Model_Space
70
0
10
0
20
0
30
0
3
*Model_Space
0
ENDBLK
5
21
100
AcDbEntity
8
0
100
AcDbBlockEnd
0
BLOCK
5
1C
100
AcDbEntity
8
0
100
AcDbBlockBegin
2
*Paper_Space
70
0
10
0
20
0
30
0
3
*Paper_Space
0
ENDBLK
5
1D
100
AcDbEntity
8
0
100
AcDbBlockEnd
0
BLOCK
5
24
100
AcDbEntity
8
0
100
AcDbBlockBegin
2
*Paper_Space0
70
0
10
0
20
0
30
0
3
*Paper_Space0
0
ENDBLK
5
25
100
AcDbEntity
8
0
100
AcDbBlockEnd
0
BLOCK
5
E4
100
AcDbEntity
8
0
100
AcDbBlockBegin
2
_Closed
70
0
10
0
20
0
30
0
3
_Closed
0
LINE
5
E6
100
AcDbEntity
8
0
62
256
6
ByLayer
370
-2
48
1
60
0
100
AcDbLine
10
-1
20
0.166667
30
0
11
0
21
0
31
0
39
0
210
0
220
0
230
1
0
LINE
5
E7
100
AcDbEntity
8
0
62
256
6
ByLayer
370
-2
48
1
60
0
100
AcDbLine
10
0
20
0
30
0
11
-1
21
-0.166667
31
0
39
0
210
0
220
0
230
1
0
LINE
5
E8
100
AcDbEntity
8
0
62
256
6
ByLayer
370
-2
48
1
60
0
100
AcDbLine
10
-1
20
0.166667
30
0
11
-1
21
-0.166667
31
0
39
0
210
0
220
0
230
1
0
LINE
5
E9
100
AcDbEntity
8
0
62
256
6
ByLayer
370
-2
48
1
60
0
100
AcDbLine
10
0
20
0
30
0
11
-1
21
0
31
0
39
0
210
0
220
0
230
1
0
ENDBLK
5
E5
100
AcDbEntity
8
0
100
AcDbBlockEnd
0
BLOCK
5
EE
100
AcDbEntity
8
0
100
AcDbBlockBegin
2
*D2
70
1
10
0
20
0
30
0
3
*D2
0
LINE
5
F0
100
AcDbEntity
8
0
62
256
6
ByLayer
370
-2
48
1
60
0
100
AcDbLine
10
0
20
50.8525
30
0
11
0
21
78.256709
31
0
39
0
210
0
220
0
230
1
0
LINE
5
F1
100
AcDbEntity
8
0
62
256
6
ByLayer
370
-2
48
1
60
0
100
AcDbLine
10
100
20
11.1875
30
0
11
100
21
78.256709
31
0
39
0
210
0
220
0
230
1
0
LINE
5
F2
100
AcDbEntity
8
0
62
256
6
ByLayer
370
-2
48
1
60
0
100
AcDbLine
10
3.175
20
76.256709
30
0
11
96.825
21
76.256709
31
0
39
0
210
0
220
0
230
1
0
SOLID
5
F3
100
AcDbEntity
8
0
62
256
6
ByLayer
370
-1
48
1
60
0
100
AcDbTrace
10
3.175
20
76.785875
30
0
11
3.175
21
75.727542
31
0
12
0
22
76.256709
32
0
13
0
23
76.256709
33
0
39
0
210
0
220
0
230
1
0
SOLID
5
F4
100
AcDbEntity
8
0
62
256
6
ByLayer
370
-1
48
1
60
0
100
AcDbTrace
10
96.825
20
75.727542
30
0
11
96.825
21
76.785875
31
0
12
100
22
76.256709
32
0
13
100
23
76.256709
33
0
39
0
210
0
220
0
230
1
0
MTEXT
5
F5
100
AcDbEntity
8
0
62
256
6
ByLayer
370
18
48
1
60
0
100
AcDbMText
10
50
20
82.256709
30
0
210
0
220
0
230
1
1
\A1;100
40
3
41
0
44
1
50
0
71
5
72
5
7
iso_b_vert
0
POINT
5
F6
100
AcDbEntity
8
Defpoints
62
0
6
ByLayer
370
-1
48
1
60
0
100
AcDbPoint
10
0
20
49.265
30
0
39
0
210
0
220
0
230
1
50
360
0
POINT
5
F7
100
AcDbEntity
8
Defpoints
62
0
6
ByLayer
370
-1
48
1
60
0
100
AcDbPoint
10
100
20
9.6
30
0
39
0
210
0
220
0
230
1
50
360
0
POINT
5
F8
100
AcDbEntity
8
Defpoints
62
0
6
ByLayer
370
-1
48
1
60
0
100
AcDbPoint
10
100
20
76.256709
30
0
39
0
210
0
220
0
230
1
50
360
0
ENDBLK
5
EF
100
AcDbEntity
8
0
100
AcDbBlockEnd
0
BLOCK
5
105
100
AcDbEntity
8
0
100
AcDbBlockBegin
2
_U0
70
0
10
0
20
0
30
0
3
_U0
0
MTEXT
5
FB
100
AcDbEntity
8
2
62
256
6
ByLayer
370
18
48
1
60
0
100
AcDbMText
10
47.621201
20
77.141823
30
0
210
0
220
0
230
1
1
\W0.6217;100
40
3
41
0
44
1.084337
50
0
71
7
72
5
7
iso_b_vert
0
LINE
5
FC
100
AcDbEntity
8
2
62
256
6
ByLayer
370
13
48
1
60
0
100
AcDbLine
10
0
20
50.8525
30
0
11
0
21
78.256709
31
0
39
0
210
0
220
0
230
1
0
LINE
5
FD
100
AcDbEntity
8
2
62
256
6
ByLayer
370
13
48
1
60
0
100
AcDbLine
10
100
20
11.1875
30
0
11
100
21
78.256709
31
0
39
0
210
0
220
0
230
1
0
LINE
5
FE
100
AcDbEntity
8
2
62
256
6
ByLayer
370
13
48
1
60
0
100
AcDbLine
10
0
20
76.256709
30
0
11
100
21
76.256709
31
0
39
0
210
0
220
0
230
1
0
LINE
5
FF
100
AcDbEntity
8
2
62
256
6
ByLayer
370
13
48
1
60
0
100
AcDbLine
10
0
20
76.256709
30
0
11
3.174998
21
76.674705
31
0
39
0
210
0
220
0
230
1
0
LINE
5
100
100
AcDbEntity
8
2
62
256
6
ByLayer
370
13
48
1
60
0
100
AcDbLine
10
0
20
76.256709
30
0
11
3.175002
21
75.838712
31
0
39
0
210
0
220
0
230
1
0
LINE
5
101
100
AcDbEntity
8
2
62
256
6
ByLayer
370
13
48
1
60
0
100
AcDbLine
10
3.174998
20
76.674705
30
0
11
3.175002
21
75.838712
31
0
39
0
210
0
220
0
230
1
0
LINE
5
102
100
AcDbEntity
8
2
62
256
6
ByLayer
370
13
48
1
60
0
100
AcDbLine
10
100
20
76.256709
30
0
11
96.825002
21
75.838712
31
0
39
0
210
0
220
0
230
1
0
LINE
5
103
100
AcDbEntity
8
2
62
256
6
ByLayer
370
13
48
1
60
0
100
AcDbLine
10
100
20
76.256709
30
0
11
96.824998
21
76.674705
31
0
39
0
210
0
220
0
230
1
0
LINE
5
104
100
AcDbEntity
8
2
62
256
6
ByLayer
370
13
48
1
60
0
100
AcDbLine
10
96.825002
20
75.838712
30
0
11
96.824998
21
76.674705
31
0
39
0
210
0
220
0
230
1
0
ENDBLK
5
106
100
AcDbEntity
8
0
100
AcDbBlockEnd
0
BLOCK
5
10B
100
AcDbEntity
8
0
100
AcDbBlockBegin
2
*D4
70
1
10
0
20
0
30
0
3
*D4
0
LINE
5
10D
100
AcDbEntity
8
0
62
256
6
ByLayer
370
-2
48
1
60
0
100
AcDbLine
10
97.525569
20
9.6
30
0
11
118.129056
21
9.6
31
0
39
0
210
0
220
0
230
1
0
LINE
5
10E
100
AcDbEntity
8
0
62
256
6
ByLayer
370
-2
48
1
60
0
100
AcDbLine
10
98.693114
20
-9.6
30
0
11
118.129056
21
-9.6
31
0
39
0
210
0
220
0
230
1
0
LINE
5
10F
100
AcDbEntity
8
0
62
256
6
ByLayer
370
-2
48
1
60
0
100
AcDbLine
10
116.129056
20
6.425
30
0
11
116.129056
21
-6.425
31
0
39
0
210
0
220
0
230
1
0
SOLID
5
110
100
AcDbEntity
8
0
62
256
6
ByLayer
370
-1
48
1
60
0
100
AcDbTrace
10
116.658222
20
6.425
30
0
11
115.599889
21
6.425
31
0
12
116.129056
22
9.6
32
0
13
116.129056
23
9.6
33
0
39
0
210
0
220
0
230
1
0
SOLID
5
111
100
AcDbEntity
8
0
62
256
6
ByLayer
370
-1
48
1
60
0
100
AcDbTrace
10
115.599889
20
-6.425
30
0
11
116.658222
21
-6.425
31
0
12
116.129056
22
-9.6
32
0
13
116.129056
23
-9.6
33
0
39
0
210
0
220
0
230
1
0
MTEXT
5
112
100
AcDbEntity
8
0
62
256
6
ByLayer
370
18
48
1
60
0
100
AcDbMText
10
110.129056
20
-0.399456
30
0
210
0
220
0
230
1
1
\A1;19.2
40
3
41
0
44
1
50
90
71
5
72
5
7
iso_b_vert
0
POINT
5
113
100
AcDbEntity
8
Defpoints
62
0
6
ByLayer
370
-1
48
1
60
0
100
AcDbPoint
10
95.938069
20
9.6
30
0
39
0
210
0
220
0
230
1
50
360
0
POINT
5
114
100
AcDbEntity
8
Defpoints
62
0
6
ByLayer
370
-1
48
1
60
0
100
AcDbPoint
10
97.105614
20
-9.6
30
0
39
0
210
0
220
0
230
1
50
360
0
POINT
5
115
100
AcDbEntity
8
Defpoints
62
0
6
ByLayer
370
-1
48
1
60
0
100
AcDbPoint
10
116.129056
20
-9.6
30
0
39
0
210
0
220
0
230
1
50
360
0
ENDBLK
5
10C
100
AcDbEntity
8
0
100
AcDbBlockEnd
0
BLOCK
5
123
100
AcDbEntity
8
0
100
AcDbBlockBegin
2
_U1
70
0
10
0
20
0
30
0
3
_U1
0
MTEXT
5
118
100
AcDbEntity
8
SK2
62
256
6
ByLayer
370
18
48
1
60
0
100
AcDbMText
10
114.787941
20
0.34003
30
0
210
0
220
0
230
1
1
\W0.6563;19.2
40
3
41
0
44
1.084337
50
90
71
7
72
5
7
iso_b_vert
0
MTEXT
5
119
100
AcDbEntity
8
SK2
62
256
6
ByLayer
370
18
48
1
60
0
100
AcDbMText
10
114.787941
20
-7.15997
30
0
210
0
220
0
230
1
1
%%c
40
3
41
0
44
1.084337
50
90
71
7
72
5
7
iso_b_vert
0
LINE
5
11A
100
AcDbEntity
8
SK2
62
256
6
ByLayer
370
13
48
1
60
0
100
AcDbLine
10
101.5875
20
9.6
30
0
11
118.129056
21
9.6
31
0
39
0
210
0
220
0
230
1
0
LINE
5
11B
100
AcDbEntity
8
SK2
62
256
6
ByLayer
370
13
48
1
60
0
100
AcDbLine
10
101.5875
20
-9.6
30
0
11
118.129056
21
-9.6
31
0
39
0
210
0
220
0
230
1
0
LINE
5
11C
100
AcDbEntity
8
SK2
62
256
6
ByLayer
370
13
48
1
60
0
100
AcDbLine
10
116.129056
20
9.6
30
0
11
116.129056
21
-9.6
31
0
39
0
210
0
220
0
230
1
0
LINE
5
11D
100
AcDbEntity
8
SK2
62
256
6
ByLayer
370
13
48
1
60
0
100
AcDbLine
10
116.129056
20
9.6
30
0
11
116.547052
21
6.425002
31
0
39
0
210
0
220
0
230
1
0
LINE
5
11E
100
AcDbEntity
8
SK2
62
256
6
ByLayer
370
13
48
1
60
0
100
AcDbLine
10
116.129056
20
9.6
30
0
11
115.711059
21
6.424998
31
0
39
0
210
0
220
0
230
1
0
LINE
5
11F
100
AcDbEntity
8
SK2
62
256
6
ByLayer
370
13
48
1
60
0
100
AcDbLine
10
116.547052
20
6.425002
30
0
11
115.711059
21
6.424998
31
0
39
0
210
0
220
0
230
1
0
LINE
5
120
100
AcDbEntity
8
SK2
62
256
6
ByLayer
370
13
48
1
60
0
100
AcDbLine
10
116.129056
20
-9.6
30
0
11
115.711059
21
-6.425002
31
0
39
0
210
0
220
0
230
1
0
LINE
5
121
100
AcDbEntity
8
SK2
62
256
6
ByLayer
370
13
48
1
60
0
100
AcDbLine
10
116.129056
20
-9.6
30
0
11
116.547052
21
-6.424998
31
0
39
0
210
0
220
0
230
1
0
LINE
5
122
100
AcDbEntity
8
SK2
62
256
6
ByLayer
370
13
48
1
60
0
100
AcDbLine
10
115.711059
20
-6.425002
30
0
11
116.547052
21
-6.424998
31
0
39
0
210
0
220
0
230
1
0
ENDBLK
5
124
100
AcDbEntity
8
0
100
AcDbBlockEnd
0
BLOCK
5
129
100
AcDbEntity
8
0
100
AcDbBlockBegin
2
*D6
70
1
10
0
20
0
30
0
3
*D6
0
LINE
5
12B
100
AcDbEntity
8
0
62
256
6
ByLayer
370
-2
48
1
60
0
100
AcDbLine
10
0
20
50.8525
30
0
11
0
21
65.77203
31
0
39
0
210
0
220
0
230
1
0
LINE
5
12C
100
AcDbEntity
8
0
62
256
6
ByLayer
370
-2
48
1
60
0
100
AcDbLine
10
28.95
20
49.822547
30
0
11
28.95
21
65.77203
31
0
39
0
210
0
220
0
230
1
0
LINE
5
12D
100
AcDbEntity
8
0
62
256
6
ByLayer
370
-2
48
1
60
0
100
AcDbLine
10
3.175
20
63.77203
30
0
11
25.775
21
63.77203
31
0
39
0
210
0
220
0
230
1
0
SOLID
5
12E
100
AcDbEntity
8
0
62
256
6
ByLayer
370
-1
48
1
60
0
100
AcDbTrace
10
3.175
20
64.301197
30
0
11
3.175
21
63.242864
31
0
12
0
22
63.77203
32
0
13
0
23
63.77203
33
0
39
0
210
0
220
0
230
1
0
SOLID
5
12F
100
AcDbEntity
8
0
62
256
6
ByLayer
370
-1
48
1
60
0
100
AcDbTrace
10
25.775
20
63.242864
30
0
11
25.775
21
64.301197
31
0
12
28.95
22
63.77203
32
0
13
28.95
23
63.77203
33
0
39
0
210
0
220
0
230
1
0
MTEXT
5
130
100
AcDbEntity
8
0
62
256
6
ByLayer
370
18
48
1
60
0
100
AcDbMText
10
14.475
20
69.77203
30
0
210
0
220
0
230
1
1
\A1;29
40
3
41
0
44
1
50
0
71
5
72
5
7
iso_b_vert
0
POINT
5
131
100
AcDbEntity
8
Defpoints
62
0
6
ByLayer
370
-1
48
1
60
0
100
AcDbPoint
10
0
20
49.265
30
0
39
0
210
0
220
0
230
1
50
360
0
POINT
5
132
100
AcDbEntity
8
Defpoints
62
0
6
ByLayer
370
-1
48
1
60
0
100
AcDbPoint
10
28.95
20
48.235047
30
0
39
0
210
0
220
0
230
1
50
360
0
POINT
5
133
100
AcDbEntity
8
Defpoints
62
0
6
ByLayer
370
-1
48
1
60
0
100
AcDbPoint
10
28.95
20
63.77203
30
0
39
0
210
0
220
0
230
1
50
360
0
ENDBLK
5
12A
100
AcDbEntity
8
0
100
AcDbBlockEnd
0
BLOCK
5
13F
100
AcDbEntity
8
0
100
AcDbBlockBegin
2
_U2
70
0
10
0
20
0
30
0
3
_U2
0
MTEXT
5
135
100
AcDbEntity
8
SK2
62
256
6
ByLayer
370
18
48
1
60
0
100
AcDbMText
10
12.842172
20
64.657145
30
0
210
0
220
0
230
1
1
\W0.6927;29
40
3
41
0
44
1.084337
50
0
71
7
72
5
7
iso_b_vert
0
LINE
5
136
100
AcDbEntity
8
SK2
62
256
6
ByLayer
370
13
48
1
60
0
100
AcDbLine
10
0
20
50.8525
30
0
11
0
21
65.77203
31
0
39
0
210
0
220
0
230
1
0
LINE
5
137
100
AcDbEntity
8
SK2
62
256
6
ByLayer
370
13
48
1
60
0
100
AcDbLine
10
28.95
20
49.822547
30
0
11
28.95
21
65.77203
31
0
39
0
210
0
220
0
230
1
0
LINE
5
138
100
AcDbEntity
8
SK2
62
256
6
ByLayer
370
13
48
1
60
0
100
AcDbLine
10
0
20
63.77203
30
0
11
28.95
21
63.77203
31
0
39
0
210
0
220
0
230
1
0
LINE
5
139
100
AcDbEntity
8
SK2
62
256
6
ByLayer
370
13
48
1
60
0
100
AcDbLine
10
0
20
63.77203
30
0
11
3.174998
21
64.190027
31
0
39
0
210
0
220
0
230
1
0
LINE
5
13A
100
AcDbEntity
8
SK2
62
256
6
ByLayer
370
13
48
1
60
0
100
AcDbLine
10
0
20
63.77203
30
0
11
3.175002
21
63.354034
31
0
39
0
210
0
220
0
230
1
0
LINE
5
13B
100
AcDbEntity
8
SK2
62
256
6
ByLayer
370
13
48
1
60
0
100
AcDbLine
10
3.174998
20
64.190027
30
0
11
3.175002
21
63.354034
31
0
39
0
210
0
220
0
230
1
0
LINE
5
13C
100
AcDbEntity
8
SK2
62
256
6
ByLayer
370
13
48
1
60
0
100
AcDbLine
10
28.95
20
63.77203
30
0
11
25.775002
21
63.354034
31
0
39
0
210
0
220
0
230
1
0
LINE
5
13D
100
AcDbEntity
8
SK2
62
256
6
ByLayer
370
13
48
1
60
0
100
AcDbLine
10
28.95
20
63.77203
30
0
11
25.774998
21
64.190027
31
0
39
0
210
0
220
0
230
1
0
LINE
5
13E
100
AcDbEntity
8
SK2
62
256
6
ByLayer
370
13
48
1
60
0
100
AcDbLine
10
25.775002
20
63.354034
30
0
11
25.774998
21
64.190027
31
0
39
0
210
0
220
0
230
1
0
ENDBLK
5
140
100
AcDbEntity
8
0
100
AcDbBlockEnd
0
BLOCK
5
145
100
AcDbEntity
8
0
100
AcDbBlockBegin
2
*D8
70
1
10
0
20
0
30
0
3
*D8
0
LINE
5
147
100
AcDbEntity
8
0
62
256
6
ByLayer
370
-2
48
1
60
0
100
AcDbLine
10
-0.149945
20
49.965
30
0
11
-63.590981
21
49.965
31
0
39
0
210
0
220
0
230
1
0
LINE
5
148
100
AcDbEntity
8
0
62
256
6
ByLayer
370
-2
48
1
60
0
100
AcDbLine
10
0.024561
20
-49.965
30
0
11
-63.590981
21
-49.965
31
0
39
0
210
0
220
0
230
1
0
LINE
5
149
100
AcDbEntity
8
0
62
256
6
ByLayer
370
-2
48
1
60
0
100
AcDbLine
10
-61.590981
20
46.79
30
0
11
-61.590981
21
-46.79
31
0
39
0
210
0
220
0
230
1
0
SOLID
5
14A
100
AcDbEntity
8
0
62
256
6
ByLayer
370
-1
48
1
60
0
100
AcDbTrace
10
-61.061814
20
46.79
30
0
11
-62.120148
21
46.79
31
0
12
-61.590981
22
49.965
32
0
13
-61.590981
23
49.965
33
0
39
0
210
0
220
0
230
1
0
SOLID
5
14B
100
AcDbEntity
8
0
62
256
6
ByLayer
370
-1
48
1
60
0
100
AcDbTrace
10
-62.120148
20
-46.79
30
0
11
-61.061814
21
-46.79
31
0
12
-61.590981
22
-49.965
32
0
13
-61.590981
23
-49.965
33
0
39
0
210
0
220
0
230
1
0
MTEXT
5
14C
100
AcDbEntity
8
0
62
256
6
ByLayer
370
18
48
1
60
0
100
AcDbMText
10
-67.590981
20
0
30
0
210
0
220
0
230
1
1
\A1;100
40
3
41
0
44
1
50
90
71
5
72
5
7
iso_b_vert
0
POINT
5
14D
100
AcDbEntity
8
Defpoints
62
0
6
ByLayer
370
-1
48
1
60
0
100
AcDbPoint
10
1.437555
20
49.965
30
0
39
0
210
0
220
0
230
1
50
360
0
POINT
5
14E
100
AcDbEntity
8
Defpoints
62
0
6
ByLayer
370
-1
48
1
60
0
100
AcDbPoint
10
1.612061
20
-49.965
30
0
39
0
210
0
220
0
230
1
50
360
0
POINT
5
14F
100
AcDbEntity
8
Defpoints
62
0
6
ByLayer
370
-1
48
1
60
0
100
AcDbPoint
10
-61.590981
20
-49.965
30
0
39
0
210
0
220
0
230
1
50
360
0
ENDBLK
5
146
100
AcDbEntity
8
0
100
AcDbBlockEnd
0
BLOCK
5
15C
100
AcDbEntity
8
0
100
AcDbBlockBegin
2
_U3
70
0
10
0
20
0
30
0
3
_U3
0
MTEXT
5
151
100
AcDbEntity
8
SK2
62
256
6
ByLayer
370
18
48
1
60
0
100
AcDbMText
10
-62.932095
20
1.347201
30
0
210
0
220
0
230
1
1
\W0.6217;100
40
3
41
0
44
1.084337
50
90
71
7
72
5
7
iso_b_vert
0
MTEXT
5
152
100
AcDbEntity
8
SK2
62
256
6
ByLayer
370
18
48
1
60
0
100
AcDbMText
10
-62.932095
20
-6.152799
30
0
210
0
220
0
230
1
1
%%c
40
3
41
0
44
1.084337
50
90
71
7
72
5
7
iso_b_vert
0
LINE
5
153
100
AcDbEntity
8
SK2
62
256
6
ByLayer
370
13
48
1
60
0
100
AcDbLine
10
-0.8875
20
49.965
30
0
11
-63.590981
21
49.965
31
0
39
0
210
0
220
0
230
1
0
LINE
5
154
100
AcDbEntity
8
SK2
62
256
6
ByLayer
370
13
48
1
60
0
100
AcDbLine
10
-0.8875
20
-49.965
30
0
11
-63.590981
21
-49.965
31
0
39
0
210
0
220
0
230
1
0
LINE
5
155
100
AcDbEntity
8
SK2
62
256
6
ByLayer
370
13
48
1
60
0
100
AcDbLine
10
-61.590981
20
49.965
30
0
11
-61.590981
21
-49.965
31
0
39
0
210
0
220
0
230
1
0
LINE
5
156
100
AcDbEntity
8
SK2
62
256
6
ByLayer
370
13
48
1
60
0
100
AcDbLine
10
-61.590981
20
49.965
30
0
11
-61.172984
21
46.790002
31
0
39
0
210
0
220
0
230
1
0
LINE
5
157
100
AcDbEntity
8
SK2
62
256
6
ByLayer
370
13
48
1
60
0
100
AcDbLine
10
-61.590981
20
49.965
30
0
11
-62.008978
21
46.789998
31
0
39
0
210
0
220
0
230
1
0
LINE
5
158
100
AcDbEntity
8
SK2
62
256
6
ByLayer
370
13
48
1
60
0
100
AcDbLine
10
-61.172984
20
46.790002
30
0
11
-62.008978
21
46.789998
31
0
39
0
210
0
220
0
230
1
0
LINE
5
159
100
AcDbEntity
8
SK2
62
256
6
ByLayer
370
13
48
1
60
0
100
AcDbLine
10
-61.590981
20
-49.965
30
0
11
-62.008978
21
-46.790002
31
0
39
0
210
0
220
0
230
1
0
LINE
5
15A
100
AcDbEntity
8
SK2
62
256
6
ByLayer
370
13
48
1
60
0
100
AcDbLine
10
-61.590981
20
-49.965
30
0
11
-61.172984
21
-46.789998
31
0
39
0
210
0
220
0
230
1
0
LINE
5
15B
100
AcDbEntity
8
SK2
62
256
6
ByLayer
370
13
48
1
60
0
100
AcDbLine
10
-62.008978
20
-46.790002
30
0
11
-61.172984
21
-46.789998
31
0
39
0
210
0
220
0
230
1
0
ENDBLK
5
15D
100
AcDbEntity
8
0
100
AcDbBlockEnd
0
BLOCK
5
162
100
AcDbEntity
8
0
100
AcDbBlockBegin
2
*D10
70
1
10
0
20
0
30
0
3
*D10
0
LINE
5
164
100
AcDbEntity
8
0
62
256
6
ByLayer
370
-2
48
1
60
0
100
AcDbLine
10
-49.9
20
32.073826
30
0
11
-49.9
21
65.77203
31
0
39
0
210
0
220
0
230
1
0
LINE
5
165
100
AcDbEntity
8
0
62
256
6
ByLayer
370
-2
48
1
60
0
100
AcDbLine
10
0
20
50.8525
30
0
11
0
21
65.77203
31
0
39
0
210
0
220
0
230
1
0
LINE
5
166
100
AcDbEntity
8
0
62
256
6
ByLayer
370
-2
48
1
60
0
100
AcDbLine
10
-46.725
20
63.77203
30
0
11
-3.175
21
63.77203
31
0
39
0
210
0
220
0
230
1
0
SOLID
5
167
100
AcDbEntity
8
0
62
256
6
ByLayer
370
-1
48
1
60
0
100
AcDbTrace
10
-46.725
20
64.301197
30
0
11
-46.725
21
63.242864
31
0
12
-49.9
22
63.77203
32
0
13
-49.9
23
63.77203
33
0
39
0
210
0
220
0
230
1
0
SOLID
5
168
100
AcDbEntity
8
0
62
256
6
ByLayer
370
-1
48
1
60
0
100
AcDbTrace
10
-3.175
20
63.242864
30
0
11
-3.175
21
64.301197
31
0
12
0
22
63.77203
32
0
13
0
23
63.77203
33
0
39
0
210
0
220
0
230
1
0
MTEXT
5
169
100
AcDbEntity
8
0
62
256
6
ByLayer
370
18
48
1
60
0
100
AcDbMText
10
-24.95
20
69.77203
30
0
210
0
220
0
230
1
1
\A1;50
40
3
41
0
44
1
50
0
71
5
72
5
7
iso_b_vert
0
POINT
5
16A
100
AcDbEntity
8
Defpoints
62
0
6
ByLayer
370
-1
48
1
60
0
100
AcDbPoint
10
-49.9
20
30.486326
30
0
39
0
210
0
220
0
230
1
50
360
0
POINT
5
16B
100
AcDbEntity
8
Defpoints
62
0
6
ByLayer
370
-1
48
1
60
0
100
AcDbPoint
10
0
20
49.265
30
0
39
0
210
0
220
0
230
1
50
360
0
POINT
5
16C
100
AcDbEntity
8
Defpoints
62
0
6
ByLayer
370
-1
48
1
60
0
100
AcDbPoint
10
0
20
63.77203
30
0
39
0
210
0
220
0
230
1
50
360
0
ENDBLK
5
163
100
AcDbEntity
8
0
100
AcDbBlockEnd
0
BLOCK
5
178
100
AcDbEntity
8
0
100
AcDbBlockBegin
2
_U4
70
0
10
0
20
0
30
0
3
_U4
0
MTEXT
5
16E
100
AcDbEntity
8
SK2
62
256
6
ByLayer
370
18
48
1
60
0
100
AcDbMText
10
-26.582828
20
64.657145
30
0
210
0
220
0
230
1
1
\W0.6740;50
40
3
41
0
44
1.084337
50
0
71
7
72
5
7
iso_b_vert
0
LINE
5
16F
100
AcDbEntity
8
SK2
62
256
6
ByLayer
370
13
48
1
60
0
100
AcDbLine
10
-49.9
20
32.073826
30
0
11
-49.9
21
65.77203
31
0
39
0
210
0
220
0
230
1
0
LINE
5
170
100
AcDbEntity
8
SK2
62
256
6
ByLayer
370
13
48
1
60
0
100
AcDbLine
10
0
20
50.8525
30
0
11
0
21
65.77203
31
0
39
0
210
0
220
0
230
1
0
LINE
5
171
100
AcDbEntity
8
SK2
62
256
6
ByLayer
370
13
48
1
60
0
100
AcDbLine
10
-49.9
20
63.77203
30
0
11
0
21
63.77203
31
0
39
0
210
0
220
0
230
1
0
LINE
5
172
100
AcDbEntity
8
SK2
62
256
6
ByLayer
370
13
48
1
60
0
100
AcDbLine
10
-49.9
20
63.77203
30
0
11
-46.725002
21
64.190027
31
0
39
0
210
0
220
0
230
1
0
LINE
5
173
100
AcDbEntity
8
SK2
62
256
6
ByLayer
370
13
48
1
60
0
100
AcDbLine
10
-49.9
20
63.77203
30
0
11
-46.724998
21
63.354034
31
0
39
0
210
0
220
0
230
1
0
LINE
5
174
100
AcDbEntity
8
SK2
62
256
6
ByLayer
370
13
48
1
60
0
100
AcDbLine
10
-46.725002
20
64.190027
30
0
11
-46.724998
21
63.354034
31
0
39
0
210
0
220
0
230
1
0
LINE
5
175
100
AcDbEntity
8
SK2
62
256
6
ByLayer
370
13
48
1
60
0
100
AcDbLine
10
0
20
63.77203
30
0
11
-3.174998
21
63.354034
31
0
39
0
210
0
220
0
230
1
0
LINE
5
176
100
AcDbEntity
8
SK2
62
256
6
ByLayer
370
13
48
1
60
0
100
AcDbLine
10
0
20
63.77203
30
0
11
-3.175002
21
64.190027
31
0
39
0
210
0
220
0
230
1
0
LINE
5
177
100
AcDbEntity
8
SK2
62
256
6
ByLayer
370
13
48
1
60
0
100
AcDbLine
10
-3.174998
20
63.354034
30
0
11
-3.175002
21
64.190027
31
0
39
0
210
0
220
0
230
1
0
ENDBLK
5
179
100
AcDbEntity
8
0
100
AcDbBlockEnd
0
BLOCK
5
17E
100
AcDbEntity
8
0
100
AcDbBlockBegin
2
*D12
70
1
10
0
20
0
30
0
3
*D12
0
LINE
5
180
100
AcDbEntity
8
0
62
256
6
ByLayer
370
-2
48
1
60
0
100
AcDbLine
10
39.667243
20
16.856837
30
0
11
39.667243
21
45.324862
31
0
39
0
210
0
220
0
230
1
0
LINE
5
181
100
AcDbEntity
8
0
62
256
6
ByLayer
370
-2
48
1
60
0
100
AcDbLine
10
100
20
11.1875
30
0
11
100
21
45.324862
31
0
39
0
210
0
220
0
230
1
0
LINE
5
182
100
AcDbEntity
8
0
62
256
6
ByLayer
370
-2
48
1
60
0
100
AcDbLine
10
42.842243
20
43.324862
30
0
11
96.825
21
43.324862
31
0
39
0
210
0
220
0
230
1
0
SOLID
5
183
100
AcDbEntity
8
0
62
256
6
ByLayer
370
-1
48
1
60
0
100
AcDbTrace
10
42.842243
20
43.854029
30
0
11
42.842243
21
42.795696
31
0
12
39.667243
22
43.324862
32
0
13
39.667243
23
43.324862
33
0
39
0
210
0
220
0
230
1
0
SOLID
5
184
100
AcDbEntity
8
0
62
256
6
ByLayer
370
-1
48
1
60
0
100
AcDbTrace
10
96.825
20
42.795696
30
0
11
96.825
21
43.854029
31
0
12
100
22
43.324862
32
0
13
100
23
43.324862
33
0
39
0
210
0
220
0
230
1
0
MTEXT
5
185
100
AcDbEntity
8
0
62
256
6
ByLayer
370
18
48
1
60
0
100
AcDbMText
10
69.833621
20
49.324862
30
0
210
0
220
0
230
1
1
\A1;60.3
40
3
41
0
44
1
50
0
71
5
72
5
7
iso_b_vert
0
POINT
5
186
100
AcDbEntity
8
Defpoints
62
0
6
ByLayer
370
-1
48
1
60
0
100
AcDbPoint
10
39.667243
20
15.269337
30
0
39
0
210
0
220
0
230
1
50
360
0
POINT
5
187
100
AcDbEntity
8
Defpoints
62
0
6
ByLayer
370
-1
48
1
60
0
100
AcDbPoint
10
100
20
9.6
30
0
39
0
210
0
220
0
230
1
50
360
0
POINT
5
188
100
AcDbEntity
8
Defpoints
62
0
6
ByLayer
370
-1
48
1
60
0
100
AcDbPoint
10
100
20
43.324862
30
0
39
0
210
0
220
0
230
1
50
360
0
ENDBLK
5
17F
100
AcDbEntity
8
0
100
AcDbBlockEnd
0
BLOCK
5
194
100
AcDbEntity
8
0
100
AcDbBlockBegin
2
_U5
70
0
10
0
20
0
30
0
3
_U5
0
MTEXT
5
18A
100
AcDbEntity
8
SK2
62
256
6
ByLayer
370
18
48
1
60
0
100
AcDbMText
10
66.472165
20
44.209977
30
0
210
0
220
0
230
1
1
\W0.7346;60.3
40
3
41
0
44
1.084337
50
0
71
7
72
5
7
iso_b_vert
0
LINE
5
18B
100
AcDbEntity
8
SK2
62
256
6
ByLayer
370
13
48
1
60
0
100
AcDbLine
10
39.667243
20
16.856837
30
0
11
39.667243
21
45.324862
31
0
39
0
210
0
220
0
230
1
0
LINE
5
18C
100
AcDbEntity
8
SK2
62
256
6
ByLayer
370
13
48
1
60
0
100
AcDbLine
10
100
20
11.1875
30
0
11
100
21
45.324862
31
0
39
0
210
0
220
0
230
1
0
LINE
5
18D
100
AcDbEntity
8
SK2
62
256
6
ByLayer
370
13
48
1
60
0
100
AcDbLine
10
39.667243
20
43.324862
30
0
11
100
21
43.324862
31
0
39
0
210
0
220
0
230
1
0
LINE
5
18E
100
AcDbEntity
8
SK2
62
256
6
ByLayer
370
13
48
1
60
0
100
AcDbLine
10
39.667243
20
43.324862
30
0
11
42.842241
21
43.742859
31
0
39
0
210
0
220
0
230
1
0
LINE
5
18F
100
AcDbEntity
8
SK2
62
256
6
ByLayer
370
13
48
1
60
0
100
AcDbLine
10
39.667243
20
43.324862
30
0
11
42.842244
21
42.906866
31
0
39
0
210
0
220
0
230
1
0
LINE
5
190
100
AcDbEntity
8
SK2
62
256
6
ByLayer
370
13
48
1
60
0
100
AcDbLine
10
42.842241
20
43.742859
30
0
11
42.842244
21
42.906866
31
0
39
0
210
0
220
0
230
1
0
LINE
5
191
100
AcDbEntity
8
SK2
62
256
6
ByLayer
370
13
48
1
60
0
100
AcDbLine
10
100
20
43.324862
30
0
11
96.825002
21
42.906866
31
0
39
0
210
0
220
0
230
1
0
LINE
5
192
100
AcDbEntity
8
SK2
62
256
6
ByLayer
370
13
48
1
60
0
100
AcDbLine
10
100
20
43.324862
30
0
11
96.824998
21
43.742859
31
0
39
0
210
0
220
0
230
1
0
LINE
5
193
100
AcDbEntity
8
SK2
62
256
6
ByLayer
370
13
48
1
60
0
100
AcDbLine
10
96.825002
20
42.906866
30
0
11
96.824998
21
43.742859
31
0
39
0
210
0
220
0
230
1
0
ENDBLK
5
195
100
AcDbEntity
8
0
100
AcDbBlockEnd
0
BLOCK
5
19A
100
AcDbEntity
8
0
100
AcDbBlockBegin
2
*D14
70
1
10
0
20
0
30
0
3
*D14
0
LINE
5
19C
100
AcDbEntity
8
0
62
256
6
ByLayer
370
-2
48
1
60
0
100
AcDbLine
10
80
20
11.1875
30
0
11
80
21
30.768894
31
0
39
0
210
0
220
0
230
1
0
LINE
5
19D
100
AcDbEntity
8
0
62
256
6
ByLayer
370
-2
48
1
60
0
100
AcDbLine
10
100
20
11.1875
30
0
11
100
21
30.768894
31
0
39
0
210
0
220
0
230
1
0
LINE
5
19E
100
AcDbEntity
8
0
62
256
6
ByLayer
370
-2
48
1
60
0
100
AcDbLine
10
83.175
20
28.768894
30
0
11
96.825
21
28.768894
31
0
39
0
210
0
220
0
230
1
0
SOLID
5
19F
100
AcDbEntity
8
0
62
256
6
ByLayer
370
-1
48
1
60
0
100
AcDbTrace
10
83.175
20
29.29806
30
0
11
83.175
21
28.239727
31
0
12
80
22
28.768894
32
0
13
80
23
28.768894
33
0
39
0
210
0
220
0
230
1
0
SOLID
5
1A0
100
AcDbEntity
8
0
62
256
6
ByLayer
370
-1
48
1
60
0
100
AcDbTrace
10
96.825
20
28.239727
30
0
11
96.825
21
29.29806
31
0
12
100
22
28.768894
32
0
13
100
23
28.768894
33
0
39
0
210
0
220
0
230
1
0
MTEXT
5
1A1
100
AcDbEntity
8
0
62
256
6
ByLayer
370
18
48
1
60
0
100
AcDbMText
10
90
20
34.768894
30
0
210
0
220
0
230
1
1
\A1;20
40
3
41
0
44
1
50
0
71
5
72
5
7
iso_b_vert
0
POINT
5
1A2
100
AcDbEntity
8
Defpoints
62
0
6
ByLayer
370
-1
48
1
60
0
100
AcDbPoint
10
80
20
9.6
30
0
39
0
210
0
220
0
230
1
50
360
0
POINT
5
1A3
100
AcDbEntity
8
Defpoints
62
0
6
ByLayer
370
-1
48
1
60
0
100
AcDbPoint
10
100
20
9.6
30
0
39
0
210
0
220
0
230
1
50
360
0
POINT
5
1A4
100
AcDbEntity
8
Defpoints
62
0
6
ByLayer
370
-1
48
1
60
0
100
AcDbPoint
10
100
20
28.768894
30
0
39
0
210
0
220
0
230
1
50
360
0
ENDBLK
5
19B
100
AcDbEntity
8
0
100
AcDbBlockEnd
0
BLOCK
5
1B0
100
AcDbEntity
8
0
100
AcDbBlockBegin
2
_U6
70
0
10
0
20
0
30
0
3
_U6
0
MTEXT
5
1A6
100
AcDbEntity
8
SK2
62
256
6
ByLayer
370
18
48
1
60
0
100
AcDbMText
10
88.367172
20
29.654008
30
0
210
0
220
0
230
1
1
\W0.6740;20
40
3
41
0
44
1.084337
50
0
71
7
72
5
7
iso_b_vert
0
LINE
5
1A7
100
AcDbEntity
8
SK2
62
256
6
ByLayer
370
13
48
1
60
0
100
AcDbLine
10
80
20
11.1875
30
0
11
80
21
30.768894
31
0
39
0
210
0
220
0
230
1
0
LINE
5
1A8
100
AcDbEntity
8
SK2
62
256
6
ByLayer
370
13
48
1
60
0
100
AcDbLine
10
100
20
11.1875
30
0
11
100
21
30.768894
31
0
39
0
210
0
220
0
230
1
0
LINE
5
1A9
100
AcDbEntity
8
SK2
62
256
6
ByLayer
370
13
48
1
60
0
100
AcDbLine
10
80
20
28.768894
30
0
11
100
21
28.768894
31
0
39
0
210
0
220
0
230
1
0
LINE
5
1AA
100
AcDbEntity
8
SK2
62
256
6
ByLayer
370
13
48
1
60
0
100
AcDbLine
10
80
20
28.768894
30
0
11
83.174998
21
29.18689
31
0
39
0
210
0
220
0
230
1
0
LINE
5
1AB
100
AcDbEntity
8
SK2
62
256
6
ByLayer
370
13
48
1
60
0
100
AcDbLine
10
80
20
28.768894
30
0
11
83.175002
21
28.350897
31
0
39
0
210
0
220
0
230
1
0
LINE
5
1AC
100
AcDbEntity
8
SK2
62
256
6
ByLayer
370
13
48
1
60
0
100
AcDbLine
10
83.174998
20
29.18689
30
0
11
83.175002
21
28.350897
31
0
39
0
210
0
220
0
230
1
0
LINE
5
1AD
100
AcDbEntity
8
SK2
62
256
6
ByLayer
370
13
48
1
60
0
100
AcDbLine
10
100
20
28.768894
30
0
11
96.825002
21
28.350897
31
0
39
0
210
0
220
0
230
1
0
LINE
5
1AE
100
AcDbEntity
8
SK2
62
256
6
ByLayer
370
13
48
1
60
0
100
AcDbLine
10
100
20
28.768894
30
0
11
96.824998
21
29.18689
31
0
39
0
210
0
220
0
230
1
0
LINE
5
1AF
100
AcDbEntity
8
SK2
62
256
6
ByLayer
370
13
48
1
60
0
100
AcDbLine
10
96.825002
20
28.350897
30
0
11
96.824998
21
29.18689
31
0
39
0
210
0
220
0
230
1
0
ENDBLK
5
1B1
100
AcDbEntity
8
0
100
AcDbBlockEnd
0
ENDSEC
0
SECTION
2
ENTITIES
0
ARC
5
C0
100
AcDbEntity
8
SK1
62
256
6
ByLayer
370
18
48
1
60
0
100
AcDbCircle
39
0
10
-36.2
20
-33.568291
30
0
40
1.40000000000003
210
0
220
0
230
1
100
AcDbArc
50
66
51
90
0
ARC
5
C1
100
AcDbEntity
8
SK1
62
256
6
ByLayer
370
18
48
1
60
0
100
AcDbCircle
39
0
10
-0.798125
20
-38.624442
30
0
40
0.992192400745745
210
0
220
0
230
1
100
AcDbArc
50
36.447109
51
90.108267
0
ARC
5
C2
100
AcDbEntity
8
SK1
62
256
6
ByLayer
370
18
48
1
60
0
100
AcDbCircle
39
0
10
-0.8
20
38.632252
30
0
40
1.00000000000001
210
0
220
0
230
1
100
AcDbArc
50
270
51
323
0
ARC
5
C3
100
AcDbEntity
8
1
62
256
6
ByLayer
370
18
48
1
60
0
100
AcDbCircle
39
0
10
-40.363221
20
20.220662
30
0
40
5
210
0
220
0
230
-1
100
AcDbArc
50
278.001307
51
345.001827
0
ARC
5
C4
100
AcDbEntity
8
1
62
256
6
ByLayer
370
18
48
1
60
0
100
AcDbCircle
39
0
10
-40.363221
20
-20.220662
30
0
40
5
210
0
220
0
230
-1
100
AcDbArc
50
14.998173
51
81.998693
0
POINT
5
70
100
AcDbEntity
8
80
62
256
6
ByLayer
370
18
48
1
60
0
100
AcDbPoint
10
0
20
0
30
0
39
0
210
0
220
0
230
1
50
360
0
POINT
5
72
100
AcDbEntity
8
81
62
256
6
ByLayer
370
13
48
1
60
0
100
AcDbPoint
10
100
20
0
30
0
39
0
210
0
220
0
230
1
50
360
0
SPLINE
5
C5
100
AcDbEntity
8
SK1
62
256
6
ByLayer
370
18
48
1
60
0
100
AcDbSpline
70
2053
71
3
72
59
73
55
40
0
40
0
40
0
40
0
40
0.03125
40
0.0625
40
0.09375
40
0.109375
40
0.125
40
0.140625
40
0.15625
40
0.1875
40
0.21875
40
0.234375
40
0.25
40
0.265625
40
0.28125
40
0.296875
40
0.3125
40
0.328125
40
0.34375
40
0.359375
40
0.375
40
0.40625
40
0.4375
40
0.46875
40
0.484375
40
0.5
40
0.515625
40
0.53125
40
0.5625
40
0.59375
40
0.609375
40
0.625
40
0.640625
40
0.65625
40
0.671875
40
0.6875
40
0.703125
40
0.71875
40
0.734375
40
0.75
40
0.765625
40
0.78125
40
0.796875
40
0.8125
40
0.828125
40
0.84375
40
0.859375
40
0.875
40
0.890625
40
0.90625
40
0.921875
40
0.9375
40
0.96875
40
1
40
1
40
1
40
1
41
1
10
-20.37522584923
20
-36.805727686497
30
0
41
1
10
-20.6113519096816
20
-36.8289797062554
30
0
41
1
10
-21.0140568079508
20
-36.8733006857959
30
0
41
1
10
-21.38103684805
20
-36.9200438799805
30
0
41
1
10
-21.496813024455
20
-36.9340118938423
30
0
41
1
10
-21.461928361231
20
-36.9291968759682
30
0
41
1
10
-21.373030518479
20
-36.9179128676698
30
0
41
1
10
-21.2231923318651
20
-36.8992745085737
30
0
41
1
10
-20.9435377963724
20
-36.8661214711661
30
0
41
1
10
-20.446234143818
20
-36.8121203535862
30
0
41
1
10
-19.7851942109454
20
-36.7504738074859
30
0
41
1
10
-19.1630601316636
20
-36.7054077128414
30
0
41
1
10
-18.6550048978926
20
-36.6756967401556
30
0
41
1
10
-18.1106210773626
20
-36.6520116735774
30
0
41
1
10
-17.534765816964
20
-36.6362408376302
30
0
41
1
10
-16.9332375152563
20
-36.6301244773198
30
0
41
1
10
-16.3131981421767
20
-36.6342100977213
30
0
41
1
10
-15.6812508128552
20
-36.6487779730263
30
0
41
1
10
-15.0429533764347
20
-36.6745391460692
30
0
41
1
10
-14.4046669308419
20
-36.7121017030516
30
0
41
1
10
-13.5629594704684
20
-36.7768285917039
30
0
41
1
10
-12.5438873066918
20
-36.882376980983
30
0
41
1
10
-11.4250796736545
20
-37.0358762662273
30
0
41
1
10
-10.6035606960035
20
-37.1703348998626
30
0
41
1
10
-10.0363788870498
20
-37.2735315596478
30
0
41
1
10
-9.65912222856592
20
-37.3463812498105
30
0
41
1
10
-9.33329423916164
20
-37.4123853615883
30
0
41
1
10
-8.972615570232
20
-37.4886897998676
30
0
41
1
10
-8.66810278662535
20
-37.5572574039483
30
0
41
1
10
-8.55085461550094
20
-37.582549492668
30
0
41
1
10
-8.58429653852796
20
-37.5744153638239
30
0
41
1
10
-8.67258222217808
20
-37.5545186273143
30
0
41
1
10
-8.82229678062193
20
-37.5213215090994
30
0
41
1
10
-9.03155188122188
20
-37.4760703382871
30
0
41
1
10
-9.29936210275799
20
-37.4200245819579
30
0
41
1
10
-9.62077463860714
20
-37.3550590217107
30
0
41
1
10
-9.99053271191071
20
-37.2829629933817
30
0
41
1
10
-10.4074281321474
20
-37.2059095695479
30
0
41
1
10
-10.8701943410599
20
-37.126204579149
30
0
41
1
10
-11.3738876704524
20
-37.0462251362031
30
0
41
1
10
-11.9134315148005
20
-36.968277718022
30
0
41
1
10
-12.484302967591
20
-36.8946339916172
30
0
41
1
10
-13.0813255040185
20
-36.8275773588958
30
0
41
1
10
-13.697750751777
20
-36.7684465756006
30
0
41
1
10
-14.3273084860205
20
-36.7182810664529
30
0
41
1
10
-14.9646459122289
20
-36.6784693130935
30
0
41
1
10
-15.6035838395803
20
-36.6503813095338
30
0
41
1
10
-16.2370287191835
20
-36.6340496551879
30
0
41
1
10
-16.8583529119973
20
-36.6291671978805
30
0
41
1
10
-17.4609656857162
20
-36.6349410697151
30
0
41
1
10
-18.0381154889006
20
-36.6504101280241
30
0
41
1
10
-18.7678591518167
20
-36.6812026219959
30
0
41
1
10
-19.5972955372809
20
-36.7337038871917
30
0
41
1
10
-20.1390997887784
20
-36.7824756667387
30
0
41
1
10
-20.37522584923
20
-36.805727686497
30
0
0
SPLINE
5
C6
100
AcDbEntity
8
SK1
62
256
6
ByLayer
370
18
48
1
60
0
100
AcDbSpline
70
2053
71
3
72
76
73
72
40
0
40
0
40
0
40
0
40
0.03125
40
0.046875
40
0.056640625
40
0.0625
40
0.068359375
40
0.078125
40
0.09375
40
0.125
40
0.140625
40
0.15625
40
0.171875
40
0.1875
40
0.203125
40
0.21875
40
0.234375
40
0.25
40
0.265625
40
0.28125
40
0.296875
40
0.3076171875
40
0.3125
40
0.3173828125
40
0.328125
40
0.34375
40
0.375
40
0.390625
40
0.40625
40
0.421875
40
0.4375
40
0.453125
40
0.46875
40
0.484375
40
0.4921875
40
0.5
40
0.515625
40
0.53125
40
0.546875
40
0.5625
40
0.578125
40
0.59375
40
0.609375
40
0.625
40
0.640625
40
0.65625
40
0.671875
40
0.6875
40
0.6953125
40
0.703125
40
0.71875
40
0.734375
40
0.75
40
0.765625
40
0.7734375
40
0.78125
40
0.7890625
40
0.796875
40
0.8125
40
0.828125
40
0.84375
40
0.859375
40
0.875
40
0.890625
40
0.90625
40
0.921875
40
0.9375
40
0.953125
40
0.96875
40
0.984375
40
1
40
1
40
1
40
1
41
1
10
-20.3751949747132
20
36.80572844882
30
0
41
1
10
-20.1397385399051
20
36.7823975299034
30
0
41
1
10
-19.7329141964754
20
36.7458835485681
30
0
41
1
10
-19.1596018770313
20
36.7061661967326
30
0
41
1
10
-18.8220949832207
20
36.6864375517998
30
0
41
1
10
-18.5819714274315
20
36.6740214415258
30
0
41
1
10
-18.3358892809917
20
36.6626296142456
30
0
41
1
10
-17.9667895983813
20
36.64832602788
30
0
41
1
10
-17.2683849904551
20
36.6300077883554
30
0
41
1
10
-16.4486367964387
20
36.628424469557
30
0
41
1
10
-15.603681579062
20
36.6506031065339
30
0
41
1
10
-14.964719937278
20
36.6788793379532
30
0
41
1
10
-14.3272073049996
20
36.7183393751006
30
0
41
1
10
-13.6973549013717
20
36.7682852958732
30
0
41
1
10
-13.0815251655576
20
36.8277369933603
30
0
41
1
10
-12.4840729748487
20
36.8946093014765
30
0
41
1
10
-11.9115667951199
20
36.9678646183038
30
0
41
1
10
-11.3706944193204
20
37.0456140976262
30
0
41
1
10
-10.868246995458
20
37.1258156149856
30
0
41
1
10
-10.4078288444906
20
37.2057790189688
30
0
41
1
10
-10.0358130938923
20
37.2748614742266
30
0
41
1
10
-9.7842019796242
20
37.3234390813289
30
0
41
1
10
-9.62882957040351
20
37.3538856762411
30
0
41
1
10
-9.47992045330746
20
37.3833740536941
30
0
41
1
10
-9.26958316320861
20
37.4257847051246
30
0
41
1
10
-8.93746824029235
20
37.4947692694326
30
0
41
1
10
-8.69664014377446
20
37.5480448072807
30
0
41
1
10
-8.58353303220428
20
37.5744144657272
30
0
41
1
10
-8.55947437466591
20
37.5804915793526
30
0
41
1
10
-8.59488516229298
20
37.5726090760494
30
0
41
1
10
-8.69141006420614
20
37.5510673089658
30
0
41
1
10
-8.84752080065967
20
37.5164252237863
30
0
41
1
10
-9.06054386509084
20
37.4699069774106
30
0
41
1
10
-9.28568036992495
20
37.4222557047529
30
0
41
1
10
-9.49374247188013
20
37.3797452291796
30
0
41
1
10
-9.72011412216528
20
37.3346339376198
30
0
41
1
10
-10.0356019271587
20
37.2739972983361
30
0
41
1
10
-10.4617279083338
20
37.1966801475766
30
0
41
1
10
-10.9319301989409
20
37.1170906640398
30
0
41
1
10
-11.4411698070505
20
37.037456492381
30
0
41
1
10
-11.9838032165434
20
36.9597721854588
30
0
41
1
10
-12.5558773154045
20
36.8862692053986
30
0
41
1
10
-13.1538976268653
20
36.8193940661699
30
0
41
1
10
-13.7715645317036
20
36.7607757787807
30
0
41
1
10
-14.402873123331
20
36.7121763376242
30
0
41
1
10
-15.0411756421747
20
36.674598483068
30
0
41
1
10
-15.6794533176892
20
36.648781450547
30
0
41
1
10
-16.2062963371362
20
36.6364796961242
30
0
41
1
10
-16.6216827472387
20
36.6319468249651
30
0
41
1
10
-17.0318616674839
20
36.631009434729
30
0
41
1
10
-17.5327543524675
20
36.6363127831702
30
0
41
1
10
-18.1087122124786
20
36.6520495961504
30
0
41
1
10
-18.6538697894476
20
36.6755234789282
30
0
41
1
10
-19.076914909617
20
36.7003683400099
30
0
41
1
10
-19.394403177167
20
36.722326714981
30
0
41
1
10
-19.6215453099428
20
36.7395666989869
30
0
41
1
10
-19.8375259846424
20
36.7572629076804
30
0
41
1
10
-20.1105253035355
20
36.7810702898784
30
0
41
1
10
-20.4223428280166
20
36.8106972406959
30
0
41
1
10
-20.7444967300216
20
36.8443374594584
30
0
41
1
10
-21.0117408603964
20
36.8744082733072
30
0
41
1
10
-21.2226035064769
20
36.8992378585505
30
0
41
1
10
-21.3732733737088
20
36.9178428439398
30
0
41
1
10
-21.4603436153258
20
36.9292563526216
30
0
41
1
10
-21.4847963095156
20
36.9329607293633
30
0
41
1
10
-21.4485759186833
20
36.9285317827428
30
0
41
1
10
-21.3516217567386
20
36.9163637345929
30
0
41
1
10
-21.1951406880926
20
36.8968826784416
30
0
41
1
10
-20.981625079207
20
36.8710699501316
30
0
41
1
10
-20.7107591142749
20
36.840186422992
30
0
41
1
10
-20.4929231921173
20
36.8173939082783
30
0
41
1
10
-20.3751949747132
20
36.80572844882
30
0
0
SPLINE
5
C7
100
AcDbEntity
8
SK1
62
256
6
ByLayer
370
18
48
1
60
0
100
AcDbSpline
70
4
71
3
72
22
73
18
40
0
40
0
40
0
40
0
40
0.249999999999998
40
0.249999999999998
40
0.374999999999998
40
0.374999999999998
40
0.499999999999998
40
0.499999999999998
40
0.624999999999998
40
0.624999999999998
40
0.749999999999999
40
0.749999999999999
40
0.874999999999999
40
0.874999999999999
40
0.937499999999999
40
0.937499999999999
40
1
40
1
40
1
40
1
41
1
10
-36.7
20
-30.4013895190026
30
0
41
1
10
-37.0411482970733
20
-30.4781373473783
30
0
41
1
10
-37.3779597579516
20
-30.5590589904059
30
0
41
1
10
-37.8735986021154
20
-30.6896597523169
30
0
41
1
10
-38.0371986906244
20
-30.7347455718239
30
0
41
1
10
-38.3603139657763
20
-30.8288485613647
30
0
41
1
10
-38.5200793293843
20
-30.8779512568815
30
0
41
1
10
-38.8312538061692
20
-30.9802994230969
30
0
41
1
10
-38.9829797861401
20
-31.03361523164
30
0
41
1
10
-39.2761908853987
20
-31.145927150175
30
0
41
1
10
-39.41771719733
20
-31.2049004118301
30
0
41
1
10
-39.6863811098743
20
-31.3308279262187
30
0
41
1
10
-39.8117627520655
20
-31.3969534248428
30
0
41
1
10
-39.9805425310624
20
-31.5025714425981
30
0
41
1
10
-40.0335802975034
20
-31.538867730113
30
0
41
1
10
-40.1317772094591
20
-31.6141261925263
30
0
41
1
10
-40.1770583897106
20
-31.6532641629326
30
0
41
1
10
-40.2165582668458
20
-31.6931118380392
30
0
0
SPLINE
5
C8
100
AcDbEntity
8
SK1
62
256
6
ByLayer
370
18
48
1
60
0
100
AcDbSpline
70
4
71
3
72
36
73
32
40
0
40
0
40
0
40
0
40
0.250000000000007
40
0.250000000000007
40
0.375000000000011
40
0.375000000000011
40
0.500000000000016
40
0.500000000000016
40
0.625000000000021
40
0.625000000000021
40
0.750000000000026
40
0.750000000000026
40
0.812500000000025
40
0.812500000000025
40
0.843750000000022
40
0.843750000000022
40
0.875000000000019
40
0.875000000000019
40
0.906250000000017
40
0.906250000000017
40
0.921875000000014
40
0.921875000000014
40
0.937500000000011
40
0.937500000000011
40
0.953125000000008
40
0.953125000000008
40
0.968750000000006
40
0.968750000000006
40
0.984375000000003
40
0.984375000000003
40
1
40
1
40
1
40
1
41
1
10
-35.8110727855047
20
-31.8898206710672
30
0
41
1
10
-35.8235283581436
20
-31.763041141707
30
0
41
1
10
-35.8423049590941
20
-31.633645032274
30
0
41
1
10
-35.8828403885792
20
-31.4356537854318
30
0
41
1
10
-35.8984464229312
20
-31.3689845929282
30
0
41
1
10
-35.9347884209075
20
-31.2346302468398
30
0
41
1
10
-35.9555086472983
20
-31.1669175428801
30
0
41
1
10
-36.0038372779825
20
-31.0305081175635
30
0
41
1
10
-36.0313764663003
20
-30.9618540946682
30
0
41
1
10
-36.0966349243253
20
-30.8242647095453
30
0
41
1
10
-36.1341420871901
20
-30.7552351102431
30
0
41
1
10
-36.2042691365899
20
-30.6528414778518
30
0
41
1
10
-36.2299538260345
20
-30.6189666217178
30
0
41
1
10
-36.2739616396511
20
-30.5692109132138
30
0
41
1
10
-36.2895633172475
20
-30.5527949973146
30
0
41
1
10
-36.3233783055315
20
-30.5204690695969
30
0
41
1
10
-36.3415578916128
20
-30.5045874640422
30
0
41
1
10
-36.3812309779092
20
-30.4741054469492
30
0
41
1
10
-36.4029000497021
20
-30.4593474906011
30
0
41
1
10
-36.4390421564696
20
-30.4390976515651
30
0
41
1
10
-36.4516463462974
20
-30.4326957317996
30
0
41
1
10
-36.4783159422335
20
-30.4208116379036
30
0
41
1
10
-36.4925079363875
20
-30.4152859596103
30
0
41
1
10
-36.5222662200835
20
-30.4057285000165
30
0
41
1
10
-36.5377125572612
20
-30.4017220210972
30
0
41
1
10
-36.5700288149053
20
-30.3956522539107
30
0
41
1
10
-36.5867973034611
20
-30.3936531667361
30
0
41
1
10
-36.619924812356
20
-30.3920665415225
30
0
41
1
10
-36.6367191778104
20
-30.3924552685974
30
0
41
1
10
-36.6692594234729
20
-30.3954429800947
30
0
41
1
10
-36.6848894080014
20
-30.3979901025866
30
0
41
1
10
-36.7
20
-30.4013895190026
30
0
0
SPLINE
5
C9
100
AcDbEntity
8
SK1
62
256
6
ByLayer
370
18
48
1
60
0
100
AcDbSpline
70
4
71
3
72
26
73
22
40
0
40
0
40
0
40
0
40
0.124999999999999
40
0.124999999999999
40
0.187499999999999
40
0.187499999999999
40
0.25
40
0.25
40
0.499999999999999
40
0.499999999999999
40
0.624999999999999
40
0.624999999999999
40
0.749999999999998
40
0.749999999999998
40
0.874999999999998
40
0.874999999999998
40
0.937499999999998
40
0.937499999999998
40
0.968749999999999
40
0.968749999999999
40
1
40
1
40
1
40
1
41
1
10
-34.8
20
-33.8628027232345
30
0
41
1
10
-34.8
20
-33.7921284950273
30
0
41
1
10
-34.8110844849142
20
-33.7194236060106
30
0
41
1
10
-34.8416123416892
20
-33.6074468306281
30
0
41
1
10
-34.8541418190884
20
-33.5695636115203
30
0
41
1
10
-34.8833094694193
20
-33.49321032834
30
0
41
1
10
-34.8999229271299
20
-33.4547796612967
30
0
41
1
10
-34.9919183533135
20
-33.2613456395467
30
0
41
1
10
-35.0942740543167
20
-33.1025505311162
30
0
41
1
10
-35.2678766595548
20
-32.857621558553
30
0
41
1
10
-35.3290769203068
20
-32.7748482531966
30
0
41
1
10
-35.4525138293063
20
-32.6067105316741
30
0
41
1
10
-35.5148463502253
20
-32.5213397717224
30
0
41
1
10
-35.6314556727347
20
-32.3475212162373
30
0
41
1
10
-35.6858148204696
20
-32.2590719247929
30
0
41
1
10
-35.7498136477075
20
-32.1232601931231
30
0
41
1
10
-35.7681560611458
20
-32.0774609453945
30
0
41
1
10
-35.7893804543943
20
-32.0078270248397
30
0
41
1
10
-35.7954060923488
20
-31.9844596820657
30
0
41
1
10
-35.8050807764351
20
-31.9373891399134
30
0
41
1
10
-35.8087330958643
20
-31.9136352928483
30
0
41
1
10
-35.8110727855047
20
-31.8898206710672
30
0
0
SPLINE
5
CA
100
AcDbEntity
8
SK1
62
256
6
ByLayer
370
18
48
1
60
0
100
AcDbSpline
70
4
71
3
72
34
73
30
40
0
40
0
40
0
40
0
40
0.249999999999999
40
0.249999999999999
40
0.374999999999999
40
0.374999999999999
40
0.499999999999998
40
0.499999999999998
40
0.624999999999998
40
0.624999999999998
40
0.749999999999998
40
0.749999999999998
40
0.812499999999998
40
0.812499999999998
40
0.843749999999998
40
0.843749999999998
40
0.874999999999998
40
0.874999999999998
40
0.906249999999997
40
0.906249999999997
40
0.937499999999997
40
0.937499999999997
40
0.953124999999998
40
0.953124999999998
40
0.968749999999999
40
0.968749999999999
40
0.984374999999999
40
0.984374999999999
40
1
40
1
40
1
40
1
41
1
10
-48.0000748840301
20
-32.2148995999835
30
0
41
1
10
-47.3284890085384
20
-32.2089988094579
30
0
41
1
10
-46.6577546219262
20
-32.2002380519461
30
0
41
1
10
-45.6536007422568
20
-32.1805080116764
30
0
41
1
10
-45.3192112160963
20
-32.1728200937338
30
0
41
1
10
-44.6512919303176
20
-32.154526095565
30
0
41
1
10
-44.3178713922422
20
-32.1439336236247
30
0
41
1
10
-43.6526080041745
20
-32.118713640201
30
0
41
1
10
-43.32071567417
20
-32.104115020111
30
0
41
1
10
-42.6594147672016
20
-32.0687738742956
30
0
41
1
10
-42.3302536607662
20
-32.048162432055
30
0
41
1
10
-41.8406604433075
20
-32.0090360314491
30
0
41
1
10
-41.6781419423631
20
-31.9945993899646
30
0
41
1
10
-41.4366019162284
20
-31.9697910897322
30
0
41
1
10
-41.356446054279
20
-31.9609884550532
30
0
41
1
10
-41.1970683917353
20
-31.9419894705692
30
0
41
1
10
-41.1177484905929
20
-31.9317839421596
30
0
41
1
10
-40.9608905155676
20
-31.9095245376979
30
0
41
1
10
-40.8834016346776
20
-31.8974906978549
30
0
41
1
10
-40.7311977737719
20
-31.8707544573654
30
0
41
1
10
-40.6564478844227
20
-31.8560856594172
30
0
41
1
10
-40.547774540262
20
-31.8307612507123
30
0
41
1
10
-40.5121337551788
20
-31.8217581460159
30
0
41
1
10
-40.4425142380765
20
-31.8021524486949
30
0
41
1
10
-40.4083189059321
20
-31.7914838943389
30
0
41
1
10
-40.3437315108925
20
-31.7681064607993
30
0
41
1
10
-40.3133179396189
20
-31.755437463898
30
0
41
1
10
-40.2586093141361
20
-31.7269090816198
30
0
41
1
10
-40.2342808983017
20
-31.7109905179618
30
0
41
1
10
-40.216558266846
20
-31.6931118380392
30
0
0
SPLINE
5
CB
100
AcDbEntity
8
SK1
62
256
6
ByLayer
370
18
48
1
60
0
100
AcDbSpline
70
4
71
3
72
16
73
12
40
0
40
0
40
0
40
0
40
0.125
40
0.125
40
0.25
40
0.25
40
0.5
40
0.5
40
0.75
40
0.75
40
1
40
1
40
1
40
1
41
1
10
-41.7
20
32.0309069691676
30
0
41
1
10
-41.9584607819819
20
32.0503992514928
30
0
41
1
10
-42.2180175863266
20
32.0667099366043
30
0
41
1
10
-42.7384837114112
20
32.0954119198531
30
0
41
1
10
-42.9994067134446
20
32.1077633942848
30
0
41
1
10
-43.7836199124711
20
32.1406404640853
30
0
41
1
10
-44.3083267061908
20
32.1570690384718
30
0
41
1
10
-45.3599684635692
20
32.1835113396153
30
0
41
1
10
-45.8869332483516
20
32.1934382600973
30
0
41
1
10
-46.9424227182698
20
32.208822789414
30
0
41
1
10
-47.4709561166097
20
32.2142550344561
30
0
41
1
10
-48.0000748840304
20
32.2180191381098
30
0
0
SPLINE
5
CC
100
AcDbEntity
8
SK1
62
256
6
ByLayer
370
18
48
1
60
0
100
AcDbSpline
70
4
71
3
72
36
73
32
40
0
40
0
40
0
40
0
40
0.0156249999999973
40
0.0156249999999973
40
0.0312499999999947
40
0.0312499999999947
40
0.046874999999992
40
0.046874999999992
40
0.0624999999999892
40
0.0624999999999892
40
0.0937499999999889
40
0.0937499999999889
40
0.124999999999988
40
0.124999999999988
40
0.187499999999989
40
0.187499999999989
40
0.24999999999999
40
0.24999999999999
40
0.31249999999999
40
0.31249999999999
40
0.374999999999991
40
0.374999999999991
40
0.499999999999993
40
0.499999999999993
40
0.624999999999995
40
0.624999999999995
40
0.749999999999996
40
0.749999999999996
40
0.874999999999998
40
0.874999999999998
40
1
40
1
40
1
40
1
41
1
10
-41.7
20
32.0309069691675
30
0
41
1
10
-41.6757954060218
20
32.0290815364045
30
0
41
1
10
-41.6514282877802
20
32.0283454088896
30
0
41
1
10
-41.6023424924037
20
32.0292358924267
30
0
41
1
10
-41.5774482560939
20
32.0308845978847
30
0
41
1
10
-41.5280602902784
20
32.0365558631394
30
0
41
1
10
-41.5041621442134
20
32.0404843592142
30
0
41
1
10
-41.4576456571007
20
32.0500931703388
30
0
41
1
10
-41.4348863081925
20
32.0558161722057
30
0
41
1
10
-41.3692137052598
20
32.0747681868636
30
0
41
1
10
-41.3291881617228
20
32.0895429448133
30
0
41
1
10
-41.2532262286075
20
32.1213596222879
30
0
41
1
10
-41.2172838283401
20
32.1384856296187
30
0
41
1
10
-41.1153363968134
20
32.19092323056
30
0
41
1
10
-41.054059863802
20
32.2276359555836
30
0
41
1
10
-40.9377604576236
20
32.3023893436979
30
0
41
1
10
-40.8829541659796
20
32.3404951481839
30
0
41
1
10
-40.7777148167342
20
32.4174322210728
30
0
41
1
10
-40.7272829512388
20
32.4563210856689
30
0
41
1
10
-40.630701561864
20
32.5339503113548
30
0
41
1
10
-40.5844588874543
20
32.5727716354243
30
0
41
1
10
-40.4511463091166
20
32.6891088675599
30
0
41
1
10
-40.3694309351307
20
32.7664905505835
30
0
41
1
10
-40.2198005306438
20
32.9205929806261
30
0
41
1
10
-40.1519328099443
20
32.9973217363606
30
0
41
1
10
-40.0314776773188
20
33.1500492915752
30
0
41
1
10
-39.978782953624
20
33.2263280453878
30
0
41
1
10
-39.892590681601
20
33.375659905367
30
0
41
1
10
-39.8588559562947
20
33.4489366319269
30
0
41
1
10
-39.8125761906597
20
33.5926020055876
30
0
41
1
10
-39.8
20
33.662991199034
30
0
41
1
10
-39.8
20
33.7318671809995
30
0
0
SPLINE
5
CD
100
AcDbEntity
8
SK1
62
256
6
ByLayer
370
18
48
1
60
0
100
AcDbSpline
70
4
71
3
72
50
73
46
40
0
40
0
40
0
40
0
40
0.124999999999989
40
0.124999999999989
40
0.249999999999978
40
0.249999999999978
40
0.312499999999972
40
0.312499999999972
40
0.374999999999966
40
0.374999999999966
40
0.406249999999964
40
0.406249999999964
40
0.437499999999961
40
0.437499999999961
40
0.453124999999961
40
0.453124999999961
40
0.46874999999996
40
0.46874999999996
40
0.47656249999996
40
0.47656249999996
40
0.48437499999996
40
0.48437499999996
40
0.49218749999996
40
0.49218749999996
40
0.49999999999996
40
0.49999999999996
40
0.515624999999961
40
0.515624999999961
40
0.531249999999963
40
0.531249999999963
40
0.562499999999965
40
0.562499999999965
40
0.593749999999966
40
0.593749999999966
40
0.624999999999968
40
0.624999999999968
40
0.687499999999973
40
0.687499999999973
40
0.749999999999979
40
0.749999999999979
40
0.812499999999984
40
0.812499999999984
40
0.874999999999989
40
0.874999999999989
40
1
40
1
40
1
40
1
41
1
10
-49.9
20
-30.468865077082
30
0
41
1
10
-49.6184896760879
20
-30.3989318398187
30
0
41
1
10
-49.611107951676
20
-30.3307547506314
30
0
41
1
10
-49.5910717838376
20
-30.1993598568484
30
0
41
1
10
-49.5785052780042
20
-30.1359827962541
30
0
41
1
10
-49.5527990975727
20
-30.0476648594654
30
0
41
1
10
-49.543075584184
20
-30.0193745169328
30
0
41
1
10
-49.5199987855219
20
-29.9664053200006
30
0
41
1
10
-49.5067600668179
20
-29.9417132954901
30
0
41
1
10
-49.4819363730111
20
-29.9099754298253
30
0
41
1
10
-49.4728036692347
20
-29.9002741195118
30
0
41
1
10
-49.4518455074863
20
-29.8838987300641
30
0
41
1
10
-49.4401397756678
20
-29.877178361507
30
0
41
1
10
-49.418828602818
20
-29.8715866583278
30
0
41
1
10
-49.4110451308795
20
-29.8704878884609
30
0
41
1
10
-49.3936480975456
20
-29.8708571671614
30
0
41
1
10
-49.3839361700299
20
-29.8723176351935
30
0
41
1
10
-49.3674261983573
20
-29.8778458143295
30
0
41
1
10
-49.3615918700812
20
-29.88024730222
30
0
41
1
10
-49.3489833962758
20
-29.8866367636571
30
0
41
1
10
-49.342252611915
20
-29.8906213766731
30
0
41
1
10
-49.3282753716331
20
-29.9002746993114
30
0
41
1
10
-49.3208736962883
20
-29.9060727367498
30
0
41
1
10
-49.306276909284
20
-29.9189069393304
30
0
41
1
10
-49.2988790505978
20
-29.9261127807255
30
0
41
1
10
-49.2775887147187
20
-29.9486899176528
30
0
41
1
10
-49.264501109493
20
-29.9650333599527
30
0
41
1
10
-49.2411520920859
20
-29.9970487998735
30
0
41
1
10
-49.2306110357508
20
-30.0130690354645
30
0
41
1
10
-49.2016660515308
20
-30.0599627081635
30
0
41
1
10
-49.185858196183
20
-30.0895780907109
30
0
41
1
10
-49.1571233614044
20
-30.1474487917573
30
0
41
1
10
-49.1443154135148
20
-30.1757198075335
30
0
41
1
10
-49.1209546626705
20
-30.2305259010091
30
0
41
1
10
-49.1103639599692
20
-30.2571688606421
30
0
41
1
10
-49.0807876900151
20
-30.3355660610566
30
0
41
1
10
-49.0639604852005
20
-30.3858147640511
30
0
41
1
10
-49.0337369382055
20
-30.4839190162091
30
0
41
1
10
-49.0203949837782
20
-30.5317366278994
30
0
41
1
10
-48.9962676290817
20
-30.6255885600118
30
0
41
1
10
-48.9854975053135
20
-30.6716188932619
30
0
41
1
10
-48.9661131876602
20
-30.7617948270995
30
0
41
1
10
-48.9574860075364
20
-30.8060043175345
30
0
41
1
10
-48.934291282471
20
-30.9364164965733
30
0
41
1
10
-48.9223810253909
20
-31.0204272494222
30
0
41
1
10
-48.9133450108679
20
-31.1020671055682
30
0
0
SPLINE
5
CE
100
AcDbEntity
8
SK1
62
256
6
ByLayer
370
18
48
1
60
0
100
AcDbSpline
70
4
71
3
72
18
73
14
40
0
40
0
40
0
40
0
40
0.124999999999999
40
0.124999999999999
40
0.25
40
0.25
40
0.375000000000002
40
0.375000000000002
40
0.500000000000004
40
0.500000000000004
40
0.750000000000002
40
0.750000000000002
40
1
40
1
40
1
40
1
41
1
10
-48.9133450108674
20
-31.1020671055685
30
0
41
1
10
-48.9084483883455
20
-31.1463078000998
30
0
41
1
10
-48.8977279849193
20
-31.1930080503257
30
0
41
1
10
-48.867095643823
20
-31.2895796959782
30
0
41
1
10
-48.8471491606451
20
-31.3395924260155
30
0
41
1
10
-48.8014974402094
20
-31.4395483334993
30
0
41
1
10
-48.7758222658676
20
-31.4895292314836
30
0
41
1
10
-48.7207734899617
20
-31.588501329976
30
0
41
1
10
-48.6913862471149
20
-31.6374992950143
30
0
41
1
10
-48.5994172326717
20
-31.7821699642901
30
0
41
1
10
-48.5331305968128
20
-31.8754693212449
30
0
41
1
10
-48.3952146262316
20
-32.053723292832
30
0
41
1
10
-48.3234940902006
20
-32.1387292869534
30
0
41
1
10
-48.2499999999957
20
-32.2191974792303
30
0
0
SPLINE
5
CF
100
AcDbEntity
8
SK1
62
256
6
ByLayer
370
18
48
1
60
0
100
AcDbSpline
70
4
71
3
72
8
73
4
40
0
40
0
40
0
40
0
40
1
40
1
40
1
40
1
41
1
10
-48.2500000000066
20
-32.2191974792244
30
0
41
1
10
-48.1703381610549
20
-32.2173775481727
30
0
41
1
10
-48.0874605295225
20
-32.2156674011048
30
0
41
1
10
-48.0000748840304
20
-32.2148995999824
30
0
0
SPLINE
5
D0
100
AcDbEntity
8
SK1
62
256
6
ByLayer
370
18
48
1
60
0
100
AcDbSpline
70
4
71
3
72
8
73
4
40
0
40
0
40
0
40
0
40
1
40
1
40
1
40
1
41
1
10
-48.0000748840348
20
32.2180191381091
30
0
41
1
10
-48.0872671766727
20
32.2186394162915
30
0
41
1
10
-48.1701858378083
20
32.2200218675636
30
0
41
1
10
-48.2500000000026
20
32.2214193285101
30
0
0
SPLINE
5
D1
100
AcDbEntity
8
SK1
62
256
6
ByLayer
370
18
48
1
60
0
100
AcDbSpline
70
4
71
3
72
20
73
16
40
0
40
0
40
0
40
0
40
0.250000000000004
40
0.250000000000004
40
0.500000000000007
40
0.500000000000007
40
0.625000000000005
40
0.625000000000005
40
0.750000000000002
40
0.750000000000002
40
0.875
40
0.875
40
0.9375
40
0.9375
40
1
40
1
40
1
40
1
41
1
10
-48.25
20
32.2214193285101
30
0
41
1
10
-48.3271926111222
20
32.1386292038047
30
0
41
1
10
-48.4027254550249
20
32.0509309488243
30
0
41
1
10
-48.5487630795254
20
31.8664202589755
30
0
41
1
10
-48.6193596629137
20
31.7695548980976
30
0
41
1
10
-48.7185086625096
20
31.6186890095605
30
0
41
1
10
-48.7504115090573
20
31.5674830406986
30
0
41
1
10
-48.810771794845
20
31.4637946573969
30
0
41
1
10
-48.8392507208946
20
31.4113006072308
30
0
41
1
10
-48.890678976663
20
31.3061007614431
30
0
41
1
10
-48.9136547790544
20
31.2533832647304
30
0
41
1
10
-48.9411109422499
20
31.175631166961
30
0
41
1
10
-48.949101942398
20
31.1498342431857
30
0
41
1
10
-48.9618991158547
20
31.0996482574305
30
0
41
1
10
-48.9667024377091
20
31.0752954805271
30
0
41
1
10
-48.9697166806889
20
31.0518395799782
30
0
0
SPLINE
5
D2
100
AcDbEntity
8
SK1
62
256
6
ByLayer
370
18
48
1
60
0
100
AcDbSpline
70
4
71
3
72
44
73
40
40
0
40
0
40
0
40
0
40
0.124999999999999
40
0.124999999999999
40
0.249999999999998
40
0.249999999999998
40
0.3125
40
0.3125
40
0.375000000000001
40
0.375000000000001
40
0.406250000000001
40
0.406250000000001
40
0.437500000000002
40
0.437500000000002
40
0.468750000000002
40
0.468750000000002
40
0.484375000000002
40
0.484375000000002
40
0.500000000000002
40
0.500000000000002
40
0.515625000000002
40
0.515625000000002
40
0.531250000000002
40
0.531250000000002
40
0.546875000000002
40
0.546875000000002
40
0.562500000000001
40
0.562500000000001
40
0.593750000000001
40
0.593750000000001
40
0.625
40
0.625
40
0.687499999999999
40
0.687499999999999
40
0.749999999999998
40
0.749999999999998
40
0.874999999999999
40
0.874999999999999
40
1
40
1
40
1
40
1
41
1
10
-48.9697166806889
20
31.0518395799782
30
0
41
1
10
-48.9785920072052
20
30.9827745518777
30
0
41
1
10
-48.9897988429112
20
30.911700118486
30
0
41
1
10
-49.0180200701853
20
30.7651112497696
30
0
41
1
10
-49.0349596018354
20
30.6896176440589
30
0
41
1
10
-49.0669675034837
20
30.5712475494448
30
0
41
1
10
-49.0787629361658
20
30.5308934418187
30
0
41
1
10
-49.105420745301
20
30.4481414224133
30
0
41
1
10
-49.1202378292108
20
30.405741518273
30
0
41
1
10
-49.1463779452369
20
30.3394484216786
30
0
41
1
10
-49.1557499117401
20
30.316910250806
30
0
41
1
10
-49.176358333741
20
30.2707799728269
30
0
41
1
10
-49.1876338347496
20
30.2470666105858
30
0
41
1
10
-49.213105131189
20
30.1984221538168
30
0
41
1
10
-49.2271311024146
20
30.1735571398703
30
0
41
1
10
-49.253219744469
20
30.1341354250738
30
0
41
1
10
-49.2626054593685
20
30.1209142770314
30
0
41
1
10
-49.2836318505297
20
30.0945179347594
30
0
41
1
10
-49.2953270589806
20
30.0813976247598
30
0
41
1
10
-49.3193538244892
20
30.0587891916675
30
0
41
1
10
-49.3315330405265
20
30.0495225827975
30
0
41
1
10
-49.3534803255343
20
30.0364407310505
30
0
41
1
10
-49.3632583160043
20
30.0324454472899
30
0
41
1
10
-49.3806715026484
20
30.0275973175044
30
0
41
1
10
-49.3884127473248
20
30.0267132973914
30
0
41
1
10
-49.4023455028583
20
30.0267374574293
30
0
41
1
10
-49.4086206278629
20
30.0276450476093
30
0
41
1
10
-49.4261096109671
20
30.0320990988029
30
0
41
1
10
-49.4360300073955
20
30.0373756104626
30
0
41
1
10
-49.4536465627325
20
30.05009267426
30
0
41
1
10
-49.4613809145867
20
30.0576000217042
30
0
41
1
10
-49.4825843709668
20
30.0822611043647
30
0
41
1
10
-49.4940886918431
20
30.10151663653
30
0
41
1
10
-49.5143265433238
20
30.14299171094
30
0
41
1
10
-49.5230060395869
20
30.1653087850482
30
0
41
1
10
-49.5461141913003
20
30.2350370912028
30
0
41
1
10
-49.55769939786
20
30.2851732802834
30
0
41
1
10
-49.5766217121051
20
30.3895051882633
30
0
41
1
10
-49.5838739667785
20
30.4437819936304
30
0
41
1
10
-49.8908196228599
20
30.4995501889748
30
0
0
SPLINE
5
D3
100
AcDbEntity
8
1
62
256
6
ByLayer
370
18
48
1
60
0
100
AcDbSpline
70
4
71
3
72
51
73
47
40
0
40
0
40
0
40
0
40
0.0624999999999999
40
0.0624999999999999
40
0.125
40
0.125
40
0.1875
40
0.1875
40
0.203125
40
0.203125
40
0.218749999999999
40
0.218749999999999
40
0.249999999999999
40
0.249999999999999
40
0.312499999999999
40
0.312499999999999
40
0.374999999999998
40
0.374999999999998
40
0.406249999999998
40
0.406249999999998
40
0.437499999999998
40
0.437499999999998
40
0.499999999999998
40
0.499999999999998
40
0.562499999999997
40
0.562499999999997
40
0.624999999999997
40
0.624999999999997
40
0.640624999999997
40
0.640624999999997
40
0.656249999999997
40
0.687499999999998
40
0.687499999999998
40
0.749999999999998
40
0.749999999999998
40
0.812499999999998
40
0.812499999999998
40
0.843749999999999
40
0.843749999999999
40
0.859374999999999
40
0.859374999999999
40
0.874999999999999
40
0.874999999999999
40
0.9375
40
0.9375
40
1
40
1
40
1
40
1
41
1
10
14.95
20
-48.7343696378644
30
0
41
1
10
14.6186180770483
20
-48.7343696378644
30
0
41
1
10
14.2901293667462
20
-48.7380932241918
30
0
41
1
10
13.638723291142
20
-48.7526151918802
30
0
41
1
10
13.3158065177085
20
-48.7634141371864
30
0
41
1
10
12.6754919299054
20
-48.7917402554333
30
0
41
1
10
12.358093938917
20
-48.809267872866
30
0
41
1
10
11.9648592282067
20
-48.8351718883636
30
0
41
1
10
11.8863883176173
20
-48.8405524220114
30
0
41
1
10
11.7298017686215
20
-48.8517076682971
30
0
41
1
10
11.6515991381982
20
-48.8574894582082
30
0
41
1
10
11.4187515333456
20
-48.8753220985444
30
0
41
1
10
11.2655498884332
20
-48.8878806568078
30
0
41
1
10
10.811895150555
20
-48.9273980953649
30
0
41
1
10
10.517377974707
20
-48.9561972782341
30
0
41
1
10
9.94380215106821
20
-49.0178549347292
30
0
41
1
10
9.66474394687693
20
-49.0507146985876
30
0
41
1
10
9.25780740131535
20
-49.1024378176854
30
0
41
1
10
9.1241071697944
20
-49.1200845666749
30
0
41
1
10
8.86065032110835
20
-49.1560872897809
30
0
41
1
10
8.7306328896695
20
-49.1744837413844
30
0
41
1
10
8.35046385487281
20
-49.2300062218261
30
0
41
1
10
8.10907647024368
20
-49.267602508421
30
0
41
1
10
7.64966054039307
20
-49.3429973753042
30
0
41
1
10
7.43163375382826
20
-49.380797599762
30
0
41
1
10
7.01889930623038
20
-49.4556861023258
30
0
41
1
10
6.82418992981569
20
-49.4927759662818
30
0
41
1
10
6.59579508702521
20
-49.5381187033513
30
0
41
1
10
6.55080850661768
20
-49.5471482295364
30
0
41
1
10
6.46267533310353
20
-49.5650253864375
30
0
41
1
10
6.33330054912725
20
-49.5915542938287
30
0
41
1
10
6.21230230261043
20
-49.617172972123
30
0
41
1
10
5.98129593649491
20
-49.6670683357459
30
0
41
1
10
5.84191861237484
20
-49.6985422181599
30
0
41
1
10
5.59213609509964
20
-49.7572475370043
30
0
41
1
10
5.48173027698671
20
-49.7844801347868
30
0
41
1
10
5.33828630346614
20
-49.8216503380533
30
0
41
1
10
5.29417252865377
20
-49.8334271708375
30
0
41
1
10
5.23367267386434
20
-49.8501079866212
30
0
41
1
10
5.21443098384969
20
-49.8555101959131
30
0
41
1
10
5.17800678971314
20
-49.8659342277255
30
0
41
1
10
5.16081455682291
20
-49.8709584653659
30
0
41
1
10
5.07992001326325
20
-49.8951321864374
30
0
41
1
10
5.03138034853976
20
-49.9114393168579
30
0
41
1
10
4.96642087804357
20
-49.93777114671
30
0
41
1
10
4.95000000000001
20
-49.9477962365168
30
0
41
1
10
4.95
20
-49.9545671986056
30
0
0
SPLINE
5
D4
100
AcDbEntity
8
1
62
256
6
ByLayer
370
18
48
1
60
0
100
AcDbSpline
70
4
71
3
72
48
73
44
40
0
40
0
40
0
40
0
40
0.0625000000000003
40
0.0625000000000003
40
0.125000000000001
40
0.125000000000001
40
0.156250000000001
40
0.156250000000001
40
0.171875000000001
40
0.171875000000001
40
0.187500000000002
40
0.187500000000002
40
0.250000000000004
40
0.250000000000004
40
0.312500000000006
40
0.312500000000006
40
0.343750000000007
40
0.343750000000007
40
0.359375000000008
40
0.359375000000008
40
0.375000000000008
40
0.375000000000008
40
0.437500000000008
40
0.437500000000008
40
0.500000000000008
40
0.500000000000008
40
0.531250000000007
40
0.531250000000007
40
0.546875000000007
40
0.546875000000007
40
0.562500000000006
40
0.562500000000006
40
0.625000000000005
40
0.625000000000005
40
0.750000000000003
40
0.750000000000003
40
0.812500000000003
40
0.812500000000003
40
0.843750000000002
40
0.843750000000002
40
0.875000000000002
40
0.875000000000002
40
1
40
1
40
1
40
1
41
1
10
14.6467511395681
20
38.9060242764536
30
0
41
1
10
14.3149898368594
20
38.9060242764536
30
0
41
1
10
13.9870157238093
20
38.8927740584742
30
0
41
1
10
13.3382727553855
20
38.8409468046657
30
0
41
1
10
13.0175054818742
20
38.8023638648199
30
0
41
1
10
12.5416814220239
20
38.7255085306534
30
0
41
1
10
12.383963109061
20
38.6967182657897
30
0
41
1
10
12.1487268849066
20
38.6487040358917
30
0
41
1
10
12.0705384641991
20
38.631893977704
30
0
41
1
10
11.9146114086335
20
38.5966451916618
30
0
41
1
10
11.8368927611208
20
38.5782071566361
30
0
41
1
10
11.4520623352004
20
38.4825859574488
30
0
41
1
10
11.1540548418276
20
38.3946725236202
30
0
41
1
10
10.5763842373153
20
38.1969250689817
30
0
41
1
10
10.296727818471
20
38.0870837881047
30
0
41
1
10
9.89043876468227
20
37.9059676052274
30
0
41
1
10
9.75721243195868
20
37.8428644174422
30
0
41
1
10
9.56063938694728
20
37.744080036068
30
0
41
1
10
9.49558149708924
20
37.7104203128558
30
0
41
1
10
9.36714360723188
20
37.6420360731437
30
0
41
1
10
9.30371934627896
20
37.6072918684044
30
0
41
1
10
8.99047036967986
20
37.4308471022575
30
0
41
1
10
8.75223257881049
20
37.2809936596243
30
0
41
1
10
8.29841933220743
20
36.9645103482153
30
0
41
1
10
8.08285182581938
20
36.7978760141893
30
0
41
1
10
7.77542915937084
20
36.5355105945935
30
0
41
1
10
7.67561378932745
20
36.4459838849724
30
0
41
1
10
7.52977586467036
20
36.3085877719226
30
0
41
1
10
7.48178767567934
20
36.2622457279512
30
0
41
1
10
7.38749502861261
20
36.168933948457
30
0
41
1
10
7.34113938112963
20
36.1219173484745
30
0
41
1
10
7.11319814865398
20
35.8850538034043
30
0
41
1
10
6.94309571337083
20
35.6898731010346
30
0
41
1
10
6.4658022695855
20
35.0879379951325
30
0
41
1
10
6.19144846467973
20
34.6648408682257
30
0
41
1
10
5.83544277713792
20
33.9988565429648
30
0
41
1
10
5.72608056235423
20
33.7716238615613
30
0
41
1
10
5.57508053608406
20
33.4229851043915
30
0
41
1
10
5.52696044696889
20
33.3055436360563
30
0
41
1
10
5.43532788775298
20
33.0691724745772
30
0
41
1
10
5.39175768271247
20
32.9501121322119
30
0
41
1
10
5.18460445300202
20
32.3504831278838
30
0
41
1
10
5.05295798465576
20
31.8569541742863
30
0
41
1
10
4.95
20
31.35
30
0
0
SPLINE
5
D5
100
AcDbEntity
8
1
62
256
6
ByLayer
370
18
48
1
60
0
100
AcDbSpline
70
4
71
3
72
48
73
44
40
0
40
0
40
0
40
0
40
0.0625
40
0.0625
40
0.125
40
0.125
40
0.1875
40
0.1875
40
0.203125
40
0.203125
40
0.21875
40
0.21875
40
0.25
40
0.25
40
0.3125
40
0.3125
40
0.375
40
0.375
40
0.40625
40
0.40625
40
0.4375
40
0.4375
40
0.500000000000001
40
0.500000000000001
40
0.562500000000001
40
0.562500000000001
40
0.625000000000001
40
0.625000000000001
40
0.656250000000001
40
0.656250000000001
40
0.687500000000001
40
0.687500000000001
40
0.750000000000001
40
0.750000000000001
40
0.812500000000001
40
0.812500000000001
40
0.843750000000001
40
0.843750000000001
40
0.875000000000001
40
0.875000000000001
40
0.937500000000001
40
0.937500000000001
40
1
40
1
40
1
40
1
41
1
10
4.95
20
49.9649989992995
30
0
41
1
10
4.95
20
49.964932671709
30
0
41
1
10
4.96641327080887
20
49.9615709549668
30
0
41
1
10
5.03087873733364
20
49.9485844236271
30
0
41
1
10
5.0789342973839
20
49.9389590423199
30
0
41
1
10
5.20645717115094
20
49.9137526441137
30
0
41
1
10
5.28592331802979
20
49.8981710893977
30
0
41
1
10
5.40531660435254
20
49.8751623704673
30
0
41
1
10
5.43020062475384
20
49.8703840538316
30
0
41
1
10
5.48199975404187
20
49.8604791534648
30
0
41
1
10
5.50895256071506
20
49.8553454561455
30
0
41
1
10
5.5924714320701
20
49.8395093703489
30
0
41
1
10
5.65175821083133
20
49.8283600107279
30
0
41
1
10
5.84021754784058
20
49.7932891020417
30
0
41
1
10
5.979963240074
20
49.7677454508947
30
0
41
1
10
6.28713641334504
20
49.7131158795839
30
0
41
1
10
6.4545644340563
20
49.6840285980138
30
0
41
1
10
6.72669127560816
20
49.6383211918924
30
0
41
1
10
6.82090406151791
20
49.6227393754479
30
0
41
1
10
7.01645449344994
20
49.5909833392075
30
0
41
1
10
7.11806357316342
20
49.5747676055306
30
0
41
1
10
7.43073675066452
20
49.5258658156003
30
0
41
1
10
7.65012115091272
20
49.49283978992
30
0
41
1
10
8.11019532794544
20
49.426880934418
30
0
41
1
10
8.3508865079431
20
49.3939465126931
30
0
41
1
10
8.85365723256878
20
49.3290960601851
30
0
41
1
10
9.11573503603617
20
49.2971784284234
30
0
41
1
10
9.5254388118534
20
49.2507842480035
30
0
41
1
10
9.66498342361436
20
49.2355485941909
30
0
41
1
10
9.94660630653928
20
49.206018070312
30
0
41
1
10
10.0890311791962
20
49.1916821724469
30
0
41
1
10
10.5210784957348
20
49.1500980949937
30
0
41
1
10
10.8154624092022
20
49.1242736319172
30
0
41
1
10
11.4168562129141
20
49.0771304171379
30
0
41
1
10
11.7238658185651
20
49.0558106059303
30
0
41
1
10
12.194064069406
20
49.0277473714167
30
0
41
1
10
12.3524136518404
20
49.0190458747658
30
0
41
1
10
12.6724189025046
20
49.0030419947934
30
0
41
1
10
12.8341365388844
20
48.9957419844596
30
0
41
1
10
13.3195871775135
20
48.9762498507139
30
0
41
1
10
13.6451621934529
20
48.9663826172566
30
0
41
1
10
14.3001683286167
20
48.9531469501932
30
0
41
1
10
14.6295993373746
20
48.9497781813156
30
0
41
1
10
14.961
20
48.9497781813156
30
0
0
SPLINE
5
D6
100
AcDbEntity
8
1
62
256
6
ByLayer
370
18
48
1
60
0
100
AcDbSpline
70
4
71
3
72
48
73
44
40
0
40
0
40
0
40
0
40
0.0625000000000001
40
0.0625000000000001
40
0.125
40
0.125
40
0.1875
40
0.1875
40
0.203125
40
0.203125
40
0.21875
40
0.21875
40
0.25
40
0.25
40
0.3125
40
0.3125
40
0.375
40
0.375
40
0.40625
40
0.40625
40
0.4375
40
0.4375
40
0.5
40
0.5
40
0.5625
40
0.5625
40
0.625
40
0.625
40
0.65625
40
0.65625
40
0.687500000000001
40
0.687500000000001
40
0.750000000000001
40
0.750000000000001
40
0.812500000000001
40
0.812500000000001
40
0.84375
40
0.84375
40
0.875
40
0.875
40
0.9375
40
0.9375
40
1
40
1
40
1
40
1
41
1
10
14.961
20
48.9497781813156
30
0
41
1
10
14.6295914676902
20
48.9497781813156
30
0
41
1
10
14.3010569842425
20
48.953146543742
30
0
41
1
10
13.6495245626387
20
48.9662770574663
30
0
41
1
10
13.326527206734
20
48.97603970338
30
0
41
1
10
12.68601937358
20
49.0016229418945
30
0
41
1
10
12.3685087152811
20
49.0174440014663
30
0
41
1
10
11.9751144619756
20
49.0407915303569
30
0
41
1
10
11.8966107061729
20
49.0456395569035
30
0
41
1
10
11.7399566220452
20
49.0556870726505
30
0
41
1
10
11.6617065855398
20
49.0608937264216
30
0
41
1
10
11.4286491993474
20
49.0769508965416
30
0
41
1
10
11.275302789834
20
49.0882512487431
30
0
41
1
10
10.8212016899384
20
49.1237766296132
30
0
41
1
10
10.5263709102204
20
49.1496250833246
30
0
41
1
10
9.95214816612441
20
49.2048214127331
30
0
41
1
10
9.67275662137721
20
49.2341705613795
30
0
41
1
10
9.26531321516234
20
49.2802085339456
30
0
41
1
10
9.13144287734317
20
49.2958902260751
30
0
41
1
10
8.86764472493367
20
49.3278212192616
30
0
41
1
10
8.73740888841792
20
49.3441117888322
30
0
41
1
10
8.35642075102357
20
49.393192048852
30
0
41
1
10
8.11452959287929
20
49.4262789305907
30
0
41
1
10
7.65418974986869
20
49.4922374618743
30
0
41
1
10
7.43574285126035
20
49.5251107229807
30
0
41
1
10
7.02225016147817
20
49.589725765385
30
0
41
1
10
6.82720269502476
20
49.6214691627174
30
0
41
1
10
6.55268070920082
20
49.6675345130136
30
0
41
1
10
6.46409157893628
20
49.6826487868087
30
0
41
1
10
6.29489808458438
20
49.7119210337832
30
0
41
1
10
6.21404551997009
20
49.7261199691283
30
0
41
1
10
5.98253563406059
20
49.7672779779502
30
0
41
1
10
5.84289952796202
20
49.7927980845441
30
0
41
1
10
5.5927190048856
20
49.8393389031346
30
0
41
1
10
5.48217411195831
20
49.8603607769157
30
0
41
1
10
5.33858468438441
20
49.8880179530857
30
0
41
1
10
5.29443292714871
20
49.8965909033149
30
0
41
1
10
5.21370651953291
20
49.9123571416919
30
0
41
1
10
5.17714617509184
20
49.919547814446
30
0
41
1
10
5.07996638992061
20
49.9387521628617
30
0
41
1
10
5.03139717738115
20
49.9484803237672
30
0
41
1
10
4.9664144299189
20
49.9615703845801
30
0
41
1
10
4.95
20
49.9649326731813
30
0
41
1
10
4.95
20
49.9649989992995
30
0
0
SPLINE
5
D7
100
AcDbEntity
8
1
62
256
6
ByLayer
370
18
48
1
60
0
100
AcDbSpline
70
4
71
3
72
48
73
44
40
0
40
0
40
0
40
0
40
0.0625
40
0.0625
40
0.125
40
0.125
40
0.1875
40
0.1875
40
0.203125
40
0.203125
40
0.21875
40
0.21875
40
0.25
40
0.25
40
0.3125
40
0.3125
40
0.375
40
0.375
40
0.40625
40
0.40625
40
0.4375
40
0.4375
40
0.5
40
0.5
40
0.5625
40
0.5625
40
0.625
40
0.625
40
0.65625
40
0.65625
40
0.6875
40
0.6875
40
0.75
40
0.75
40
0.8125
40
0.8125
40
0.84375
40
0.84375
40
0.875
40
0.875
40
0.9375
40
0.9375
40
1
40
1
40
1
40
1
41
1
10
4.95
20
-49.9545671986056
30
0
41
1
10
4.95000000000001
20
-49.9477957364882
30
0
41
1
10
4.96642134783584
20
-49.9377883432485
30
0
41
1
10
5.03087929999902
20
-49.911625168168
30
0
41
1
10
5.07891940867377
20
-49.8954688287489
30
0
41
1
10
5.20635268944538
20
-49.857313831008
30
0
41
1
10
5.28574480986383
20
-49.8353146309784
30
0
41
1
10
5.40498744242314
20
-49.8043554909317
30
0
41
1
10
5.42983842315942
20
-49.7979906787499
30
0
41
1
10
5.48156509690596
20
-49.7849200135529
30
0
41
1
10
5.50847964164046
20
-49.7782047021114
30
0
41
1
10
5.5918899973689
20
-49.7576541234644
30
0
41
1
10
5.65109467221163
20
-49.7434021665047
30
0
41
1
10
5.83927605334897
20
-49.6991413155586
30
0
41
1
10
5.97879417795304
20
-49.6676278818576
30
0
41
1
10
6.28541740613582
20
-49.6013619539077
30
0
41
1
10
6.45252308929292
20
-49.566608104975
30
0
41
1
10
6.72408906095332
20
-49.5126272880078
30
0
41
1
10
6.81810200707672
20
-49.4943254786106
30
0
41
1
10
7.01322603264733
20
-49.457205800998
30
0
41
1
10
7.11461751282676
20
-49.4383381753539
30
0
41
1
10
7.42671301035329
20
-49.3816529786859
30
0
41
1
10
7.64568626465804
20
-49.3436737735149
30
0
41
1
10
8.1048948408974
20
-49.2682650035287
30
0
41
1
10
8.34513155185404
20
-49.2308338793523
30
0
41
1
10
8.84696022030755
20
-49.1574471210883
30
0
41
1
10
9.1085504088683
20
-49.1214898444334
30
0
41
1
10
9.51750711915827
20
-49.0693912469629
30
0
41
1
10
9.65687132971668
20
-49.0523023465711
30
0
41
1
10
9.9382115454961
20
-49.019218637764
30
0
41
1
10
10.0804943122016
20
-49.0031821809061
30
0
41
1
10
10.5121139651924
20
-48.9567220163688
30
0
41
1
10
10.8062109677211
20
-48.9279470665132
30
0
41
1
10
11.4070327340522
20
-48.8755037554755
30
0
41
1
10
11.7137572119495
20
-48.8518343246174
30
0
41
1
10
12.1835333498157
20
-48.8207109487941
30
0
41
1
10
12.3417431598832
20
-48.8110669253566
30
0
41
1
10
12.6614714684677
20
-48.7933370811628
30
0
41
1
10
12.8231697176284
20
-48.7852477310541
30
0
41
1
10
13.3086235808411
20
-48.7636549251709
30
0
41
1
10
13.6341967826629
20
-48.7527364359511
30
0
41
1
10
14.2891915210968
20
-48.7380939673394
30
0
41
1
10
14.6186129503849
20
-48.7343696378644
30
0
41
1
10
14.95
20
-48.7343696378644
30
0
0
SPLINE
5
D8
100
AcDbEntity
8
1
62
256
6
ByLayer
370
18
48
1
60
0
100
AcDbSpline
70
4
71
3
72
8
73
4
40
0
40
0
40
0
40
0
40
1
40
1
40
1
40
1
41
1
10
28.95
20
38.0028646946516
30
0
41
1
10
28.7173562411003
20
38.3044523479584
30
0
41
1
10
28.4840108581953
20
38.6054962027896
30
0
41
1
10
28.25
20
38.9060242764536
30
0
0
SPLINE
5
D9
100
AcDbEntity
8
1
62
256
6
ByLayer
370
18
48
1
60
0
100
AcDbSpline
70
4
71
3
72
8
73
4
40
0
40
0
40
0
40
0
40
1
40
1
40
1
40
1
41
1
10
28.25
20
48.9497781813156
30
0
41
1
10
28.4833688074846
20
48.7115692884626
30
0
41
1
10
28.7167026607245
20
48.473326146111
30
0
41
1
10
28.95
20
48.2350472581918
30
0
0
SPLINE
5
DA
100
AcDbEntity
8
1
62
256
6
ByLayer
370
18
48
1
60
0
100
AcDbSpline
70
4
71
3
72
8
73
4
40
0
40
0
40
0
40
0
40
1
40
1
40
1
40
1
41
1
10
28.95
20
-48.0164324372396
30
0
41
1
10
28.7167107889956
20
-48.255787849476
30
0
41
1
10
28.4833768142322
20
-48.4950996399192
30
0
41
1
10
28.25
20
-48.7343696378644
30
0
0
SPLINE
5
DB
100
AcDbEntity
8
1
62
256
6
ByLayer
370
18
48
1
60
0
100
AcDbSpline
70
4
71
3
72
8
73
4
40
0
40
0
40
0
40
0
40
1
40
1
40
1
40
1
41
1
10
16.7581782385003
20
-48.7343696378644
30
0
41
1
10
17.332521040001
20
-47.6960388790314
30
0
41
1
10
17.9050156903212
20
-46.6566795246978
30
0
41
1
10
18.4750000056803
20
-45.6159757502435
30
0
0
SPLINE
5
DC
100
AcDbEntity
8
1
62
256
6
ByLayer
370
18
48
1
60
0
100
AcDbSpline
70
4
71
3
72
8
73
4
40
0
40
0
40
0
40
0
40
1
40
1
40
1
40
1
41
1
10
21.5249999943197
20
-45.6159757502435
30
0
41
1
10
22.0949843096788
20
-46.6566795246978
30
0
41
1
10
22.667478959999
20
-47.6960388790314
30
0
41
1
10
23.2418217614998
20
-48.7343696378644
30
0
0
LINE
5
74
100
AcDbEntity
8
81
62
256
6
ByLayer
370
13
48
1
60
0
100
AcDbLine
10
100
20
0
30
0
11
105
21
0
31
0
39
0
210
0
220
0
230
1
0
LINE
5
75
100
AcDbEntity
8
80
62
256
6
ByLayer
370
13
48
1
60
0
100
AcDbLine
10
0
20
0
30
0
11
-8
21
0
31
0
39
0
210
0
220
0
230
1
0
LINE
5
76
100
AcDbEntity
8
4
62
256
6
ByLayer
370
13
48
0.05
60
0
100
AcDbLine
10
0
20
0
30
0
11
100
21
0
31
0
39
0
210
0
220
0
230
1
0
LINE
5
78
100
AcDbEntity
8
SK4
62
256
6
ByLayer
370
13
48
0.05
60
0
100
AcDbLine
10
-55
20
0
30
0
11
105.2
21
0
31
0
39
0
210
0
220
0
230
1
0
LINE
5
7A
100
AcDbEntity
8
SK1
62
256
6
ByLayer
370
18
48
1
60
0
100
AcDbLine
10
-2.5
20
-37.882252
30
0
11
-2.5
21
37.882252
31
0
39
0
210
0
220
0
230
1
0
LINE
5
7C
100
AcDbEntity
8
SK1
62
256
6
ByLayer
370
18
48
1
60
0
100
AcDbLine
10
-2.066987
20
-37.632252
30
0
11
-2.066987
21
37.632252
31
0
39
0
210
0
220
0
230
1
0
LINE
5
7D
100
AcDbEntity
8
SK1
62
256
6
ByLayer
370
18
48
1
60
0
100
AcDbLine
10
-44.860045
20
-32.168291
30
0
11
-36.2
21
-32.168291
31
0
39
0
210
0
220
0
230
1
0
LINE
5
7E
100
AcDbEntity
8
1
62
256
6
ByLayer
370
18
48
1
60
0
100
AcDbLine
10
4.95
20
49.965
30
0
11
0.7
21
49.965
31
0
39
0
210
0
220
0
230
1
0
LINE
5
80
100
AcDbEntity
8
1
62
256
6
ByLayer
370
18
48
1
60
0
100
AcDbLine
10
0.7
20
-49.965
30
0
11
4.95
21
-49.965
31
0
39
0
210
0
220
0
230
1
0
LINE
5
81
100
AcDbEntity
8
SK1
62
256
6
ByLayer
370
18
48
1
60
0
100
AcDbLine
10
-21.474879
20
36.931606
30
0
11
-39.8
21
36.013514
31
0
39
0
210
0
220
0
230
1
0
LINE
5
82
100
AcDbEntity
8
SK1
62
256
6
ByLayer
370
18
48
1
60
0
100
AcDbLine
10
-2.5
20
37.882252
30
0
11
-8.569203
21
37.578183
31
0
39
0
210
0
220
0
230
1
0
LINE
5
83
100
AcDbEntity
8
SK1
62
256
6
ByLayer
370
18
48
1
60
0
100
AcDbLine
10
-8.569634
20
-37.578162
30
0
11
-2.5
21
-37.882252
31
0
39
0
210
0
220
0
230
1
0
LINE
5
84
100
AcDbEntity
8
SK1
62
256
6
ByLayer
370
18
48
1
60
0
100
AcDbLine
10
-34.8
20
-36.264015
30
0
11
-21.477588
21
-36.931471
31
0
39
0
210
0
220
0
230
1
0
LINE
5
85
100
AcDbEntity
8
1
62
256
6
ByLayer
370
18
48
1
60
0
100
AcDbLine
10
0
20
49.265
30
0
11
0
21
-49.265
31
0
39
0
210
0
220
0
230
1
0
LINE
5
86
100
AcDbEntity
8
SK1
62
256
6
ByLayer
370
18
48
1
60
0
100
AcDbLine
10
-0.8
20
37.632252
30
0
11
-2.066987
21
37.632252
31
0
39
0
210
0
220
0
230
1
0
LINE
5
87
100
AcDbEntity
8
SK1
62
256
6
ByLayer
370
18
48
1
60
0
100
AcDbLine
10
-2.066987
20
-37.632252
30
0
11
-0.8
21
-37.632252
31
0
39
0
210
0
220
0
230
1
0
LINE
5
88
100
AcDbEntity
8
SK1
62
256
6
ByLayer
370
18
48
1
60
0
100
AcDbLine
10
-2.5
20
-37.882252
30
0
11
-2.066987
21
-37.632252
31
0
39
0
210
0
220
0
230
1
0
LINE
5
89
100
AcDbEntity
8
SK1
62
256
6
ByLayer
370
18
48
1
60
0
100
AcDbLine
10
-2.066987
20
37.632252
30
0
11
-2.5
21
37.882252
31
0
39
0
210
0
220
0
230
1
0
LINE
5
8A
100
AcDbEntity
8
1
62
256
6
ByLayer
370
18
48
1
60
0
100
AcDbLine
10
0
20
49.265
30
0
11
0.7
21
49.965
31
0
39
0
210
0
220
0
230
1
0
LINE
5
8B
100
AcDbEntity
8
1
62
256
6
ByLayer
370
18
48
1
60
0
100
AcDbLine
10
0.7
20
-49.965
30
0
11
0
21
-49.265
31
0
39
0
210
0
220
0
230
1
0
LINE
5
8C
100
AcDbEntity
8
SK1
62
256
6
ByLayer
370
18
48
1
60
0
100
AcDbLine
10
-48.000075
20
-32.2149
30
0
11
-48.000075
21
32.218019
31
0
39
0
210
0
220
0
230
1
0
LINE
5
8D
100
AcDbEntity
8
SK1
62
256
6
ByLayer
370
18
48
1
60
0
100
AcDbLine
10
-34.8
20
-33.862803
30
0
11
-34.8
21
-36.264015
31
0
39
0
210
0
220
0
230
1
0
LINE
5
8E
100
AcDbEntity
8
SK1
62
256
6
ByLayer
370
18
48
1
60
0
100
AcDbLine
10
-39.8
20
33.731867
30
0
11
-39.8
21
36.013514
31
0
39
0
210
0
220
0
230
1
0
LINE
5
8F
100
AcDbEntity
8
SK1
62
256
6
ByLayer
370
18
48
1
60
0
100
AcDbLine
10
-49.9
20
30.486326
30
0
11
-49.9
21
-30.493519
31
0
39
0
210
0
220
0
230
1
0
LINE
5
90
100
AcDbEntity
8
SK1
62
256
6
ByLayer
370
18
48
1
60
0
100
AcDbLine
10
-0.8
20
37.632252
30
0
11
-0.8
21
-37.632252
31
0
39
0
210
0
220
0
230
1
0
LINE
5
91
100
AcDbEntity
8
1
62
256
6
ByLayer
370
18
48
1
60
0
100
AcDbLine
10
0.7
20
-49.965
30
0
11
0.7
21
49.965
31
0
39
0
210
0
220
0
230
1
0
LINE
5
92
100
AcDbEntity
8
1
62
256
6
ByLayer
370
18
48
1
60
0
100
AcDbLine
10
4.95
20
-49.965
30
0
11
4.95
21
-49.954567
31
0
39
0
210
0
220
0
230
1
0
LINE
5
93
100
AcDbEntity
8
1
62
256
6
ByLayer
370
18
48
1
60
0
100
AcDbLine
10
16.758178
20
-48.73437
30
0
11
14.95
21
-48.73437
31
0
39
0
210
0
220
0
230
1
0
LINE
5
94
100
AcDbEntity
8
1
62
256
6
ByLayer
370
18
48
1
60
0
100
AcDbLine
10
16.758178
20
31.35
30
0
11
16.758178
21
-48.73437
31
0
39
0
210
0
220
0
230
1
0
LINE
5
95
100
AcDbEntity
8
1
62
256
6
ByLayer
370
18
48
1
60
0
100
AcDbLine
10
4.95
20
31.35
30
0
11
23.241822
21
31.35
31
0
39
0
210
0
220
0
230
1
0
LINE
5
96
100
AcDbEntity
8
1
62
256
6
ByLayer
370
18
48
1
60
0
100
AcDbLine
10
16.758178
20
38.906024
30
0
11
14.646751
21
38.906024
31
0
39
0
210
0
220
0
230
1
0
LINE
5
97
100
AcDbEntity
8
1
62
256
6
ByLayer
370
18
48
1
60
0
100
AcDbLine
10
16.758178
20
48.949778
30
0
11
16.758178
21
38.906024
31
0
39
0
210
0
220
0
230
1
0
LINE
5
98
100
AcDbEntity
8
1
62
256
6
ByLayer
370
18
48
1
60
0
100
AcDbLine
10
14.961
20
48.949778
30
0
11
16.758178
21
48.949778
31
0
39
0
210
0
220
0
230
1
0
LINE
5
99
100
AcDbEntity
8
1
62
256
6
ByLayer
370
18
48
1
60
0
100
AcDbLine
10
4.95
20
49.965
30
0
11
4.95
21
49.964999
31
0
39
0
210
0
220
0
230
1
0
LINE
5
9A
100
AcDbEntity
8
1
62
256
6
ByLayer
370
18
48
1
60
0
100
AcDbLine
10
16.758178
20
48.949778
30
0
11
14.961
21
48.949778
31
0
39
0
210
0
220
0
230
1
0
LINE
5
9B
100
AcDbEntity
8
1
62
256
6
ByLayer
370
18
48
1
60
0
100
AcDbLine
10
16.758178
20
-48.73437
30
0
11
16.758178
21
30.76563
31
0
39
0
210
0
220
0
230
1
0
LINE
5
9C
100
AcDbEntity
8
1
62
256
6
ByLayer
370
18
48
1
60
0
100
AcDbLine
10
14.95
20
-48.73437
30
0
11
16.758178
21
-48.73437
31
0
39
0
210
0
220
0
230
1
0
LINE
5
9D
100
AcDbEntity
8
1
62
256
6
ByLayer
370
18
48
1
60
0
100
AcDbLine
10
23.241822
20
38.906024
30
0
11
23.241822
21
48.949778
31
0
39
0
210
0
220
0
230
1
0
LINE
5
9E
100
AcDbEntity
8
1
62
256
6
ByLayer
370
18
48
1
60
0
100
AcDbLine
10
28.25
20
38.906024
30
0
11
23.241822
21
38.906024
31
0
39
0
210
0
220
0
230
1
0
LINE
5
9F
100
AcDbEntity
8
1
62
256
6
ByLayer
370
18
48
1
60
0
100
AcDbLine
10
28.25
20
48.949778
30
0
11
28.25
21
38.906024
31
0
39
0
210
0
220
0
230
1
0
LINE
5
A0
100
AcDbEntity
8
1
62
256
6
ByLayer
370
18
48
1
60
0
100
AcDbLine
10
23.241822
20
48.949778
30
0
11
28.25
21
48.949778
31
0
39
0
210
0
220
0
230
1
0
LINE
5
A1
100
AcDbEntity
8
1
62
256
6
ByLayer
370
18
48
1
60
0
100
AcDbLine
10
23.241822
20
-48.73437
30
0
11
23.241822
21
31.35
31
0
39
0
210
0
220
0
230
1
0
LINE
5
A2
100
AcDbEntity
8
1
62
256
6
ByLayer
370
18
48
1
60
0
100
AcDbLine
10
28.25
20
-48.73437
30
0
11
23.241822
21
-48.73437
31
0
39
0
210
0
220
0
230
1
0
LINE
5
A3
100
AcDbEntity
8
1
62
256
6
ByLayer
370
18
48
1
60
0
100
AcDbLine
10
28.25
20
31.35
30
0
11
28.25
21
-48.73437
31
0
39
0
210
0
220
0
230
1
0
LINE
5
A4
100
AcDbEntity
8
1
62
256
6
ByLayer
370
18
48
1
60
0
100
AcDbLine
10
23.241822
20
31.35
30
0
11
28.25
21
31.35
31
0
39
0
210
0
220
0
230
1
0
LINE
5
A5
100
AcDbEntity
8
1
62
256
6
ByLayer
370
18
48
1
60
0
100
AcDbLine
10
18.475
20
31.35
30
0
11
18.475
21
-45.615976
31
0
39
0
210
0
220
0
230
1
0
LINE
5
A6
100
AcDbEntity
8
1
62
256
6
ByLayer
370
18
48
1
60
0
100
AcDbLine
10
18.475
20
-44.634495
30
0
11
21.525
21
-44.634495
31
0
39
0
210
0
220
0
230
1
0
LINE
5
A7
100
AcDbEntity
8
1
62
256
6
ByLayer
370
18
48
1
60
0
100
AcDbLine
10
18.475
20
45.615976
30
0
11
18.475
21
33.628531
31
0
39
0
210
0
220
0
230
1
0
LINE
5
A8
100
AcDbEntity
8
1
62
256
6
ByLayer
370
18
48
1
60
0
100
AcDbLine
10
21.525
20
44.869591
30
0
11
18.475
21
44.869591
31
0
39
0
210
0
220
0
230
1
0
LINE
5
A9
100
AcDbEntity
8
1
62
256
6
ByLayer
370
18
48
1
60
0
100
AcDbLine
10
21.525
20
33.628531
30
0
11
21.525
21
45.615976
31
0
39
0
210
0
220
0
230
1
0
LINE
5
AA
100
AcDbEntity
8
1
62
256
6
ByLayer
370
18
48
1
60
0
100
AcDbLine
10
18.475
20
33.628531
30
0
11
21.525
21
33.628531
31
0
39
0
210
0
220
0
230
1
0
LINE
5
AB
100
AcDbEntity
8
1
62
256
6
ByLayer
370
18
48
1
60
0
100
AcDbLine
10
28.25
20
38.906024
30
0
11
28.25
21
48.949778
31
0
39
0
210
0
220
0
230
1
0
LINE
5
AC
100
AcDbEntity
8
1
62
256
6
ByLayer
370
18
48
1
60
0
100
AcDbLine
10
28.25
20
-48.73437
30
0
11
28.25
21
31.35
31
0
39
0
210
0
220
0
230
1
0
LINE
5
AD
100
AcDbEntity
8
1
62
256
6
ByLayer
370
18
48
1
60
0
100
AcDbLine
10
28.95
20
48.235047
30
0
11
28.95
21
-48.016432
31
0
39
0
210
0
220
0
230
1
0
LINE
5
AE
100
AcDbEntity
8
1
62
256
6
ByLayer
370
18
48
1
60
0
100
AcDbLine
10
28.25
20
31.35
30
0
11
28.95
21
31.35
31
0
39
0
210
0
220
0
230
1
0
LINE
5
AF
100
AcDbEntity
8
SK1
62
256
6
ByLayer
370
18
48
1
60
0
100
AcDbLine
10
-48.25
20
32.221419
30
0
11
-49.9
21
30.486326
31
0
39
0
210
0
220
0
230
1
0
LINE
5
B0
100
AcDbEntity
8
SK1
62
256
6
ByLayer
370
18
48
1
60
0
100
AcDbLine
10
-48.25
20
-32.219197
30
0
11
-49.9
21
-30.493519
31
0
39
0
210
0
220
0
230
1
0
LINE
5
B1
100
AcDbEntity
8
1
62
256
6
ByLayer
370
18
48
1
60
0
100
AcDbLine
10
16.758178
20
48.949778
30
0
11
18.475
21
45.615976
31
0
39
0
210
0
220
0
230
1
0
LINE
5
B2
100
AcDbEntity
8
1
62
256
6
ByLayer
370
18
48
1
60
0
100
AcDbLine
10
21.525
20
45.615976
30
0
11
23.241822
21
48.949778
31
0
39
0
210
0
220
0
230
1
0
LINE
5
B3
100
AcDbEntity
8
1
62
256
6
ByLayer
370
18
48
1
60
0
100
AcDbLine
10
16.758178
20
38.906024
30
0
11
18.475
21
34.628531
31
0
39
0
210
0
220
0
230
1
0
LINE
5
B4
100
AcDbEntity
8
1
62
256
6
ByLayer
370
18
48
1
60
0
100
AcDbLine
10
23.241822
20
38.906024
30
0
11
21.525
21
34.628531
31
0
39
0
210
0
220
0
230
1
0
LINE
5
B5
100
AcDbEntity
8
1
62
256
6
ByLayer
370
18
48
1
60
0
100
AcDbLine
10
21.525
20
-45.615976
30
0
11
21.525
21
31.35
31
0
39
0
210
0
220
0
230
1
0
LINE
5
B6
100
AcDbEntity
8
1
62
256
6
ByLayer
370
18
48
1
60
0
100
AcDbLine
10
35.533551
20
-18.926721
30
0
11
28.95
21
-43.5
31
0
39
0
210
0
220
0
230
1
0
LINE
5
B7
100
AcDbEntity
8
1
62
256
6
ByLayer
370
18
48
1
60
0
100
AcDbLine
10
28.95
20
43.5
30
0
11
35.533551
21
18.926721
31
0
39
0
210
0
220
0
230
1
0
LINE
5
B8
100
AcDbEntity
8
1
62
256
6
ByLayer
370
18
48
1
60
0
100
AcDbLine
10
80
20
-9.6
30
0
11
39.667243
21
-15.269337
31
0
39
0
210
0
220
0
230
1
0
LINE
5
B9
100
AcDbEntity
8
1
62
256
6
ByLayer
370
18
48
1
60
0
100
AcDbLine
10
39.667243
20
15.269337
30
0
11
80
21
9.6
31
0
39
0
210
0
220
0
230
1
0
LINE
5
BA
100
AcDbEntity
8
1
62
256
6
ByLayer
370
18
48
1
60
0
100
AcDbLine
10
100
20
9.6
30
0
11
100
21
-9.6
31
0
39
0
210
0
220
0
230
1
0
LINE
5
BB
100
AcDbEntity
8
1
62
256
6
ByLayer
370
18
48
1
60
0
100
AcDbLine
10
80
20
9.6
30
0
11
100
21
9.6
31
0
39
0
210
0
220
0
230
1
0
LINE
5
BC
100
AcDbEntity
8
1
62
256
6
ByLayer
370
18
48
1
60
0
100
AcDbLine
10
100
20
-9.6
30
0
11
80
21
-9.6
31
0
39
0
210
0
220
0
230
1
0
LINE
5
BD
100
AcDbEntity
8
1
62
256
6
ByLayer
370
18
48
1
60
0
100
AcDbLine
10
80
20
9.6
30
0
11
80
21
-9.6
31
0
39
0
210
0
220
0
230
1
0
LINE
5
BE
100
AcDbEntity
8
1
62
256
6
ByLayer
370
18
48
1
60
0
100
AcDbLine
10
39.667243
20
15.269337
30
0
11
39.667243
21
-15.269337
31
0
39
0
210
0
220
0
230
1
0
LINE
5
BF
100
AcDbEntity
8
1
62
256
6
ByLayer
370
18
48
1
60
0
100
AcDbLine
10
35.533551
20
-18.926721
30
0
11
35.533551
21
18.926721
31
0
39
0
210
0
220
0
230
1
0
MTEXT
5
DD
100
AcDbEntity
8
SK6
62
256
6
ByLayer
370
18
48
1
60
0
100
AcDbMText
10
41.230441
20
-54.80793
30
0
210
0
220
0
230
1
1
\W0.7236;HA10-EH20-20-100
40
3.5
41
0
44
1.084337
50
0
71
7
72
5
7
iso_b_vert
0
DIMENSION
5
E2
100
AcDbEntity
8
2
62
256
6
ByLayer
370
18
48
1
60
0
100
AcDbDimension
2
_U0
10
100
20
76.256709
30
0
11
50
21
76.256709
31
0
70
32
71
1
72
1
41
1
210
0
220
0
230
1
3
Standard
100
AcDbAlignedDimension
13
0
23
49.265
33
0
14
100
24
9.6
34
0
50
0
100
AcDbRotatedDimension
1001
ACAD
1000
DSTYLE
1002
{
1070
   371
1070
    13
1070
   372
1070
    13
1070
   170
1070
     0
1070
   144
1040
1.0
1070
   277
1070
     2
1070
   284
1070
     8
1070
   278
1070
    46
1070
   146
1040
1.166667
1070
   345
1005
16
1070
   347
1005
16
1070
   346
1005
16
1070
   344
1005
E3
1070
   343
1005
E3
1070
   172
1070
     1
1070
    76
1070
     0
1070
    75
1070
     0
1070
   282
1070
     0
1070
   281
1070
     0
1070
    71
1070
     0
1070
    74
1070
     0
1070
   279
1070
     0
1070
   173
1070
     1
1070
   340
1005
DE
1070
   271
1070
     2
1070
   272
1070
     2
1070
    77
1070
     1
1070
    73
1070
     1
1070
   171
1070
     3
1070
   274
1070
     4
1070
   177
1070
     7
1070
   176
1070
     7
1070
   178
1070
     7
1070
    78
1070
     8
1070
    48
1040
-0.1
1070
    41
1040
3.175
1070
   147
1040
1.5
1070
    42
1040
1.5875
1070
    44
1040
2.0
1070
   140
1040
3.0
1002
}
1001
ACAD_DSTYLE_DIM_LINETYPE
1070
   380
1005
16
1001
ACAD_DSTYLE_DIM_EXT1_LINETYPE
1070
   381
1005
16
1001
ACAD_DSTYLE_DIM_EXT2_LINETYPE
1070
   382
1005
16
0
DIMENSION
5
107
100
AcDbEntity
8
SK2
62
256
6
ByLayer
370
18
48
1
60
0
100
AcDbDimension
2
_U1
10
116.129056
20
-9.6
30
0
11
116.129056
21
-0.399456
31
0
70
32
71
1
72
1
41
1
210
0
220
0
230
1
3
Standard
100
AcDbAlignedDimension
13
95.938069
23
9.6
33
0
14
97.105614
24
-9.6
34
0
50
-90
100
AcDbRotatedDimension
1001
ACAD
1000
DSTYLE
1002
{
1070
   371
1070
    13
1070
   372
1070
    13
1070
     3
1000
%%c<>
1070
   170
1070
     0
1070
   144
1040
1.0
1070
   277
1070
     2
1070
   284
1070
     8
1070
   278
1070
    46
1070
   146
1040
1.166667
1070
   345
1005
16
1070
   347
1005
16
1070
   346
1005
16
1070
   344
1005
E3
1070
   343
1005
E3
1070
   172
1070
     1
1070
    76
1070
     0
1070
    75
1070
     0
1070
   282
1070
     0
1070
   281
1070
     0
1070
    71
1070
     0
1070
    74
1070
     0
1070
   279
1070
     0
1070
   173
1070
     1
1070
   340
1005
DE
1070
   271
1070
     2
1070
   272
1070
     2
1070
    77
1070
     1
1070
    73
1070
     0
1070
   171
1070
     3
1070
   274
1070
     4
1070
   177
1070
     7
1070
   176
1070
     7
1070
   178
1070
     7
1070
    78
1070
     8
1070
    48
1040
-0.1
1070
    41
1040
3.175
1070
   147
1040
1.5
1070
    42
1040
1.5875
1070
    44
1040
2.0
1070
   140
1040
3.0
1002
}
1001
ACAD_DSTYLE_DIM_LINETYPE
1070
   380
1005
16
1001
ACAD_DSTYLE_DIM_EXT1_LINETYPE
1070
   381
1005
16
1001
ACAD_DSTYLE_DIM_EXT2_LINETYPE
1070
   382
1005
16
0
DIMENSION
5
125
100
AcDbEntity
8
SK2
62
256
6
ByLayer
370
18
48
1
60
0
100
AcDbDimension
2
_U2
10
28.95
20
63.77203
30
0
11
14.475
21
63.77203
31
0
70
32
71
1
72
1
41
1
210
0
220
0
230
1
3
Standard
100
AcDbAlignedDimension
13
0
23
49.265
33
0
14
28.95
24
48.235047
34
0
50
0
100
AcDbRotatedDimension
1001
ACAD
1000
DSTYLE
1002
{
1070
   371
1070
    13
1070
   372
1070
    13
1070
   170
1070
     0
1070
   144
1040
1.0
1070
   277
1070
     2
1070
   284
1070
     8
1070
   278
1070
    46
1070
   146
1040
1.166667
1070
   345
1005
16
1070
   347
1005
16
1070
   346
1005
16
1070
   344
1005
E3
1070
   343
1005
E3
1070
   172
1070
     1
1070
    76
1070
     0
1070
    75
1070
     0
1070
   282
1070
     0
1070
   281
1070
     0
1070
    71
1070
     0
1070
    74
1070
     0
1070
   279
1070
     0
1070
   173
1070
     1
1070
   340
1005
DE
1070
   271
1070
     1
1070
   272
1070
     2
1070
    77
1070
     1
1070
    73
1070
     1
1070
   171
1070
     3
1070
   274
1070
     4
1070
   177
1070
     7
1070
   176
1070
     7
1070
   178
1070
     7
1070
    78
1070
     8
1070
    48
1040
-0.1
1070
    41
1040
3.175
1070
   147
1040
1.5
1070
    42
1040
1.5875
1070
    44
1040
2.0
1070
   140
1040
3.0
1002
}
1001
ACAD_DSTYLE_DIM_LINETYPE
1070
   380
1005
16
1001
ACAD_DSTYLE_DIM_EXT1_LINETYPE
1070
   381
1005
16
1001
ACAD_DSTYLE_DIM_EXT2_LINETYPE
1070
   382
1005
16
0
DIMENSION
5
141
100
AcDbEntity
8
SK2
62
256
6
ByLayer
370
18
48
1
60
0
100
AcDbDimension
2
_U3
10
-61.590981
20
-49.965
30
0
11
-61.590981
21
0
31
0
70
32
71
1
72
1
41
1
210
0
220
0
230
1
3
Standard
100
AcDbAlignedDimension
13
1.437555
23
49.965
33
0
14
1.612061
24
-49.965
34
0
50
-90
100
AcDbRotatedDimension
1001
ACAD
1000
DSTYLE
1002
{
1070
   371
1070
    13
1070
   372
1070
    13
1070
     3
1000
%%c<>
1070
   170
1070
     0
1070
   144
1040
1.0
1070
   277
1070
     2
1070
   284
1070
     8
1070
   278
1070
    46
1070
   146
1040
1.166667
1070
   345
1005
16
1070
   347
1005
16
1070
   346
1005
16
1070
   344
1005
E3
1070
   343
1005
E3
1070
   172
1070
     1
1070
    76
1070
     0
1070
    75
1070
     0
1070
   282
1070
     0
1070
   281
1070
     0
1070
    71
1070
     0
1070
    74
1070
     0
1070
   279
1070
     0
1070
   173
1070
     1
1070
   340
1005
DE
1070
   271
1070
     0
1070
   272
1070
     2
1070
    77
1070
     1
1070
    73
1070
     0
1070
   171
1070
     3
1070
   274
1070
     4
1070
   177
1070
     7
1070
   176
1070
     7
1070
   178
1070
     7
1070
    78
1070
     8
1070
    48
1040
-0.1
1070
    41
1040
3.175
1070
   147
1040
1.5
1070
    42
1040
1.5875
1070
    44
1040
2.0
1070
   140
1040
3.0
1002
}
1001
ACAD_DSTYLE_DIM_LINETYPE
1070
   380
1005
16
1001
ACAD_DSTYLE_DIM_EXT1_LINETYPE
1070
   381
1005
16
1001
ACAD_DSTYLE_DIM_EXT2_LINETYPE
1070
   382
1005
16
0
DIMENSION
5
15E
100
AcDbEntity
8
SK2
62
256
6
ByLayer
370
18
48
1
60
0
100
AcDbDimension
2
_U4
10
0
20
63.77203
30
0
11
-24.95
21
63.77203
31
0
70
32
71
1
72
1
41
1
210
0
220
0
230
1
3
Standard
100
AcDbAlignedDimension
13
-49.9
23
30.486326
33
0
14
0
24
49.265
34
0
50
0
100
AcDbRotatedDimension
1001
ACAD
1000
DSTYLE
1002
{
1070
   371
1070
    13
1070
   372
1070
    13
1070
   170
1070
     0
1070
   144
1040
1.0
1070
   277
1070
     2
1070
   284
1070
     8
1070
   278
1070
    46
1070
   146
1040
1.166667
1070
   345
1005
16
1070
   347
1005
16
1070
   346
1005
16
1070
   344
1005
E3
1070
   343
1005
E3
1070
   172
1070
     1
1070
    76
1070
     0
1070
    75
1070
     0
1070
   282
1070
     0
1070
   281
1070
     0
1070
    71
1070
     0
1070
    74
1070
     0
1070
   279
1070
     0
1070
   173
1070
     1
1070
   340
1005
DE
1070
   271
1070
     0
1070
   272
1070
     2
1070
    77
1070
     1
1070
    73
1070
     1
1070
   171
1070
     3
1070
   274
1070
     4
1070
   177
1070
     7
1070
   176
1070
     7
1070
   178
1070
     7
1070
    78
1070
     8
1070
    48
1040
-0.1
1070
    41
1040
3.175
1070
   147
1040
1.5
1070
    42
1040
1.5875
1070
    44
1040
2.0
1070
   140
1040
3.0
1002
}
1001
ACAD_DSTYLE_DIM_LINETYPE
1070
   380
1005
16
1001
ACAD_DSTYLE_DIM_EXT1_LINETYPE
1070
   381
1005
16
1001
ACAD_DSTYLE_DIM_EXT2_LINETYPE
1070
   382
1005
16
0
DIMENSION
5
17A
100
AcDbEntity
8
SK2
62
256
6
ByLayer
370
18
48
1
60
0
100
AcDbDimension
2
_U5
10
100
20
43.324862
30
0
11
69.833621
21
43.324862
31
0
70
32
71
1
72
1
41
1
210
0
220
0
230
1
3
Standard
100
AcDbAlignedDimension
13
39.667243
23
15.269337
33
0
14
100
24
9.6
34
0
50
0
100
AcDbRotatedDimension
1001
ACAD
1000
DSTYLE
1002
{
1070
   371
1070
    13
1070
   372
1070
    13
1070
   170
1070
     0
1070
   144
1040
1.0
1070
   277
1070
     2
1070
   284
1070
     8
1070
   278
1070
    46
1070
   146
1040
1.166667
1070
   345
1005
16
1070
   347
1005
16
1070
   346
1005
16
1070
   344
1005
E3
1070
   343
1005
E3
1070
   172
1070
     1
1070
    76
1070
     0
1070
    75
1070
     0
1070
   282
1070
     0
1070
   281
1070
     0
1070
    71
1070
     0
1070
    74
1070
     0
1070
   279
1070
     0
1070
   173
1070
     1
1070
   340
1005
DE
1070
   271
1070
     1
1070
   272
1070
     2
1070
    77
1070
     1
1070
    73
1070
     1
1070
   171
1070
     3
1070
   274
1070
     4
1070
   177
1070
     7
1070
   176
1070
     7
1070
   178
1070
     7
1070
    78
1070
     8
1070
    48
1040
-0.1
1070
    41
1040
3.175
1070
   147
1040
1.5
1070
    42
1040
1.5875
1070
    44
1040
2.0
1070
   140
1040
3.0
1002
}
1001
ACAD_DSTYLE_DIM_LINETYPE
1070
   380
1005
16
1001
ACAD_DSTYLE_DIM_EXT1_LINETYPE
1070
   381
1005
16
1001
ACAD_DSTYLE_DIM_EXT2_LINETYPE
1070
   382
1005
16
0
DIMENSION
5
196
100
AcDbEntity
8
SK2
62
256
6
ByLayer
370
18
48
1
60
0
100
AcDbDimension
2
_U6
10
100
20
28.768894
30
0
11
90
21
28.768894
31
0
70
33
71
1
72
1
41
1
210
0
220
0
230
1
3
Standard
100
AcDbAlignedDimension
13
80
23
9.6
33
0
14
100
24
9.6
34
0
1001
ACAD
1000
DSTYLE
1002
{
1070
   371
1070
    13
1070
   372
1070
    13
1070
   170
1070
     0
1070
   144
1040
1.0
1070
   277
1070
     2
1070
   284
1070
     8
1070
   278
1070
    46
1070
   146
1040
1.166667
1070
   345
1005
16
1070
   347
1005
16
1070
   346
1005
16
1070
   344
1005
E3
1070
   343
1005
E3
1070
   172
1070
     1
1070
    76
1070
     0
1070
    75
1070
     0
1070
   282
1070
     0
1070
   281
1070
     0
1070
    71
1070
     0
1070
   279
1070
     0
1070
    74
1070
     0
1070
   173
1070
     1
1070
   340
1005
DE
1070
   271
1070
     2
1070
   272
1070
     2
1070
    77
1070
     1
1070
    73
1070
     0
1070
   171
1070
     3
1070
   274
1070
     4
1070
   177
1070
     7
1070
   176
1070
     7
1070
   178
1070
     7
1070
    78
1070
     8
1070
    48
1040
-0.1
1070
    41
1040
3.175
1070
   147
1040
1.5
1070
    42
1040
1.5875
1070
    44
1040
2.0
1070
   140
1040
3.0
1002
}
1001
ACAD_DSTYLE_DIM_LINETYPE
1070
   380
1005
16
1001
ACAD_DSTYLE_DIM_EXT1_LINETYPE
1070
   381
1005
16
1001
ACAD_DSTYLE_DIM_EXT2_LINETYPE
1070
   382
1005
16
0
ENDSEC
0
SECTION
2
OBJECTS
0
DICTIONARY
5
222
330
0
100
AcDbDictionary
280
0
281
1
3
ACAD_GROUP
350
223
3
ACAD_MLINESTYLE
350
224
0
DICTIONARY
5
223
330
0
100
AcDbDictionary
280
0
281
1
0
DICTIONARY
5
224
330
0
100
AcDbDictionary
280
0
281
1
3
Standard
350
18
0
MLINESTYLE
5
18
330
224
100
AcDbMlineStyle
2
Standard
70
0
3

62
256
51
90
52
90
71
2
49
-0.5
62
256
6
ByLayer
49
0.5
62
256
6
ByLayer
0
RASTERVARIABLES
5
210
330

100
AcDbRasterVariables
90
0
70
1
71
1
72
1
0
ENDSEC
0
EOF
