0
SECTION
2
HEADER
9
$ACADVER
1
AC1015
9
$DWGCODEPAGE
3
ANSI_1252
9
$HANDSEED
5
233
9
$ANGBASE
50
0
9
$ANGDIR
70
0
9
$ATTMODE
70
1
9
$AUNITS
70
0
9
$AUPREC
70
0
9
$CECOLOR
62
256
9
$CELTSCALE
40
1
9
$CELTYPE
6
ByLayer
9
$CELWEIGHT
370
18
9
$CLAYER
8
0
9
$CMLJUST
70
0
9
$CMLSCALE
40
1
9
$CMLSTYLE
2
Standard
9
$DIMSTYLE
2
Standard
9
$TEXTSIZE
40
0.2
9
$TEXTSTYLE
7
Standard
9
$LUNITS
70
2
9
$LUPREC
70
4
9
$EXTNAMES
290
1
9
$INSUNITS
70
4
9
$LTSCALE
40
1
9
$LWDISPLAY
290
1
9
$PDMODE
70
0
9
$PDSIZE
40
0
9
$PLINEGEN
70
0
0
ENDSEC
0
SECTION
2
CLASSES
0
CLASS
1
RASTERVARIABLES
2
AcDbRasterVariables
3
ISM
90
0
280
0
281
0
0
ENDSEC
0
SECTION
2
TABLES
0
TABLE
2
VPORT
5
229
100
AcDbSymbolTable
0
VPORT
5
1
100
AcDbSymbolTableRecord
100
AcDbViewportTableRecord
2
*Active
70
0
10
0
20
0
11
1
21
1
12
-1
22
1
13
0
23
0
14
0.5
24
0.5
15
10
25
10
16
0
26
0
36
1
17
0
27
0
37
0
0
ENDTAB
0
TABLE
2
LTYPE
5
22a
100
AcDbSymbolTable
0
LTYPE
5
14
100
AcDbSymbolTableRecord
100
AcDbLinetypeTableRecord
70
0
2
ByBlock
3

72
65
73
0
40
0
0
LTYPE
5
15
100
AcDbSymbolTableRecord
100
AcDbLinetypeTableRecord
70
0
2
ByLayer
3

72
65
73
0
40
0
0
LTYPE
5
16
100
AcDbSymbolTableRecord
100
AcDbLinetypeTableRecord
70
0
2
Continuous
3
Solid line
72
65
73
0
40
0
0
LTYPE
5
6E
100
AcDbSymbolTableRecord
100
AcDbLinetypeTableRecord
70
0
2
CENTER
3
____ _ ____ _ ____ _ ____
72
65
73
4
40
47.5
49
22
74
0
49
-8.5
74
0
49
8.5
74
0
49
-8.5
74
0
0
LTYPE
5
6F
100
AcDbSymbolTableRecord
100
AcDbLinetypeTableRecord
70
0
2
DASHED
3
__ __ __ __ __ __ __ __ __
72
65
73
2
40
25.72
49
12.86
74
0
49
-12.86
74
0
0
ENDTAB
0
TABLE
2
LAYER
5
22b
100
AcDbSymbolTable
0
LAYER
5
10
100
AcDbSymbolTableRecord
100
AcDbLayerTableRecord
2
0
70
0
62
7
6
Continuous
290
1
370
-3
390
0
0
LAYER
5
71
100
AcDbSymbolTableRecord
100
AcDbLayerTableRecord
2
80
70
0
62
-6
6
Continuous
290
1
370
-3
390
0
0
LAYER
5
73
100
AcDbSymbolTableRecord
100
AcDbLayerTableRecord
2
81
70
0
62
-3
6
Continuous
290
1
370
-3
390
0
0
LAYER
5
77
100
AcDbSymbolTableRecord
100
AcDbLayerTableRecord
2
1
70
0
62
4
6
Continuous
290
1
370
-3
390
0
0
LAYER
5
81
100
AcDbSymbolTableRecord
100
AcDbLayerTableRecord
2
4
70
0
62
-2
6
CENTER
290
1
370
-3
390
0
0
LAYER
5
F0
100
AcDbSymbolTableRecord
100
AcDbLayerTableRecord
2
Defpoints
70
0
62
7
6
Continuous
290
0
370
-3
390
0
0
LAYER
5
11A
100
AcDbSymbolTableRecord
100
AcDbLayerTableRecord
2
2
70
0
62
7
6
Continuous
290
1
370
-3
390
0
0
LAYER
5
215
100
AcDbSymbolTableRecord
100
AcDbLayerTableRecord
2
SK4
70
0
62
2
6
CENTER
290
1
370
-3
390
0
0
LAYER
5
216
100
AcDbSymbolTableRecord
100
AcDbLayerTableRecord
2
SK1
70
0
62
4
6
Continuous
290
1
370
-3
390
0
0
LAYER
5
217
100
AcDbSymbolTableRecord
100
AcDbLayerTableRecord
2
SK6
70
0
62
5
6
Continuous
290
1
370
-3
390
0
0
LAYER
5
218
100
AcDbSymbolTableRecord
100
AcDbLayerTableRecord
2
SK2
70
0
62
7
6
Continuous
290
1
370
-3
390
0
0
ENDTAB
0
TABLE
2
STYLE
5
22c
100
AcDbSymbolTable
0
STYLE
5
11
100
AcDbSymbolTableRecord
100
AcDbTextStyleTableRecord
2
Standard
3
txt
70
0
71
0
40
0
41
1
42
0
50
0
0
STYLE
5
E2
100
AcDbSymbolTableRecord
100
AcDbTextStyleTableRecord
2
iso_b_vert
3
simplex.shx
70
0
71
0
40
0
41
1
42
0
50
0
0
STYLE
5
E3
100
AcDbSymbolTableRecord
100
AcDbTextStyleTableRecord
2
DWGDirectTextStyle
3
simplex
70
0
71
0
40
0
41
1
42
0
50
0
0
ENDTAB
0
TABLE
2
DIMSTYLE
5
22d
100
AcDbSymbolTable
100
AcDbDimStyleTable
0
DIMSTYLE
105
27
100
AcDbSymbolTableRecord
100
AcDbDimStyleTableRecord
2
Standard
70
0
3
<>
41
0.18
42
0.0625
44
0.18
140
0.18
147
0.09
73
0
74
0
77
1
271
2
275
0
278
52
280
0
340
11
0
ENDTAB
0
TABLE
2
VIEW
5
22e
100
AcDbSymbolTable
0
ENDTAB
0
TABLE
2
UCS
5
22f
100
AcDbSymbolTable
0
ENDTAB
0
TABLE
2
APPID
5
230
100
AcDbSymbolTable
0
APPID
5
12
100
AcDbSymbolTableRecord
100
AcDbRegAppTableRecord
2
ACAD
70
0
0
APPID
5
E5
100
AcDbSymbolTableRecord
100
AcDbRegAppTableRecord
2
ACAD_DSTYLE_DIMBREAK
70
0
0
APPID
5
1D4
100
AcDbSymbolTableRecord
100
AcDbRegAppTableRecord
2
ACAD_DSTYLE_DIM_LINETYPE
70
0
0
APPID
5
1D5
100
AcDbSymbolTableRecord
100
AcDbRegAppTableRecord
2
ACAD_DSTYLE_DIM_EXT1_LINETYPE
70
0
0
APPID
5
1D6
100
AcDbSymbolTableRecord
100
AcDbRegAppTableRecord
2
ACAD_DSTYLE_DIM_EXT2_LINETYPE
70
0
0
APPID
5
211
100
AcDbSymbolTableRecord
100
AcDbRegAppTableRecord
2
ACAD_MLEADERVER
70
0
0
ENDTAB
0
TABLE
2
BLOCK_RECORD
5
231
100
AcDbSymbolTable
0
BLOCK_RECORD
5
1F
100
AcDbSymbolTableRecord
100
AcDbBlockTableRecord
2
*Model_Space
340
0
70
0
0
BLOCK_RECORD
5
1B
100
AcDbSymbolTableRecord
100
AcDbBlockTableRecord
2
*Paper_Space
340
0
70
0
0
BLOCK_RECORD
5
23
100
AcDbSymbolTableRecord
100
AcDbBlockTableRecord
2
*Paper_Space0
340
0
70
0
0
BLOCK_RECORD
5
E7
100
AcDbSymbolTableRecord
100
AcDbBlockTableRecord
2
_Closed
340
0
70
0
0
BLOCK_RECORD
5
F1
100
AcDbSymbolTableRecord
100
AcDbBlockTableRecord
2
*D2
340
0
70
0
0
BLOCK_RECORD
5
FE
100
AcDbSymbolTableRecord
100
AcDbBlockTableRecord
2
_U0
340
0
70
0
0
BLOCK_RECORD
5
10E
100
AcDbSymbolTableRecord
100
AcDbBlockTableRecord
2
*D4
340
0
70
0
0
BLOCK_RECORD
5
11B
100
AcDbSymbolTableRecord
100
AcDbBlockTableRecord
2
_U1
340
0
70
0
0
BLOCK_RECORD
5
12B
100
AcDbSymbolTableRecord
100
AcDbBlockTableRecord
2
*D6
340
0
70
0
0
BLOCK_RECORD
5
137
100
AcDbSymbolTableRecord
100
AcDbBlockTableRecord
2
_U2
340
0
70
0
0
BLOCK_RECORD
5
147
100
AcDbSymbolTableRecord
100
AcDbBlockTableRecord
2
*D8
340
0
70
0
0
BLOCK_RECORD
5
153
100
AcDbSymbolTableRecord
100
AcDbBlockTableRecord
2
_U3
340
0
70
0
0
BLOCK_RECORD
5
163
100
AcDbSymbolTableRecord
100
AcDbBlockTableRecord
2
*D10
340
0
70
0
0
BLOCK_RECORD
5
16F
100
AcDbSymbolTableRecord
100
AcDbBlockTableRecord
2
_U4
340
0
70
0
0
BLOCK_RECORD
5
17F
100
AcDbSymbolTableRecord
100
AcDbBlockTableRecord
2
*D12
340
0
70
0
0
BLOCK_RECORD
5
18B
100
AcDbSymbolTableRecord
100
AcDbBlockTableRecord
2
_U5
340
0
70
0
0
BLOCK_RECORD
5
19C
100
AcDbSymbolTableRecord
100
AcDbBlockTableRecord
2
*D14
340
0
70
0
0
BLOCK_RECORD
5
1A8
100
AcDbSymbolTableRecord
100
AcDbBlockTableRecord
2
_U6
340
0
70
0
0
ENDTAB
0
ENDSEC
0
SECTION
2
BLOCKS
0
BLOCK
5
20
100
AcDbEntity
8
0
100
AcDbBlockBegin
2
*Model_Space
70
0
10
0
20
0
30
0
3
*Model_Space
0
ENDBLK
5
21
100
AcDbEntity
8
0
100
AcDbBlockEnd
0
BLOCK
5
1C
100
AcDbEntity
8
0
100
AcDbBlockBegin
2
*Paper_Space
70
0
10
0
20
0
30
0
3
*Paper_Space
0
ENDBLK
5
1D
100
AcDbEntity
8
0
100
AcDbBlockEnd
0
BLOCK
5
24
100
AcDbEntity
8
0
100
AcDbBlockBegin
2
*Paper_Space0
70
0
10
0
20
0
30
0
3
*Paper_Space0
0
ENDBLK
5
25
100
AcDbEntity
8
0
100
AcDbBlockEnd
0
BLOCK
5
E8
100
AcDbEntity
8
0
100
AcDbBlockBegin
2
_Closed
70
0
10
0
20
0
30
0
3
_Closed
0
LINE
5
EA
100
AcDbEntity
8
0
62
256
6
ByLayer
370
-2
48
1
60
0
100
AcDbLine
10
-1
20
0.166667
30
0
11
0
21
0
31
0
39
0
210
0
220
0
230
1
0
LINE
5
EB
100
AcDbEntity
8
0
62
256
6
ByLayer
370
-2
48
1
60
0
100
AcDbLine
10
0
20
0
30
0
11
-1
21
-0.166667
31
0
39
0
210
0
220
0
230
1
0
LINE
5
EC
100
AcDbEntity
8
0
62
256
6
ByLayer
370
-2
48
1
60
0
100
AcDbLine
10
-1
20
0.166667
30
0
11
-1
21
-0.166667
31
0
39
0
210
0
220
0
230
1
0
LINE
5
ED
100
AcDbEntity
8
0
62
256
6
ByLayer
370
-2
48
1
60
0
100
AcDbLine
10
0
20
0
30
0
11
-1
21
0
31
0
39
0
210
0
220
0
230
1
0
ENDBLK
5
E9
100
AcDbEntity
8
0
100
AcDbBlockEnd
0
BLOCK
5
F2
100
AcDbEntity
8
0
100
AcDbBlockBegin
2
*D2
70
1
10
0
20
0
30
0
3
*D2
0
LINE
5
F4
100
AcDbEntity
8
0
62
256
6
ByLayer
370
-2
48
1
60
0
100
AcDbLine
10
-31.9
20
21.172659
30
0
11
-31.9
21
62.122855
31
0
39
0
210
0
220
0
230
1
0
LINE
5
F5
100
AcDbEntity
8
0
62
256
6
ByLayer
370
-2
48
1
60
0
100
AcDbLine
10
0
20
32.469997
30
0
11
0
21
62.122855
31
0
39
0
210
0
220
0
230
1
0
LINE
5
F6
100
AcDbEntity
8
0
62
256
6
ByLayer
370
-2
48
1
60
0
100
AcDbLine
10
-28.900006
20
59.122861
30
0
11
-2.999994
21
59.122861
31
0
39
0
210
0
220
0
230
1
0
SOLID
5
F7
100
AcDbEntity
8
0
62
256
6
ByLayer
370
-1
48
1
60
0
100
AcDbTrace
10
-28.900006
20
59.62286
30
0
11
-28.900006
21
58.622862
31
0
12
-31.9
22
59.122861
32
0
13
-31.9
23
59.122861
33
0
39
0
210
0
220
0
230
1
0
SOLID
5
F8
100
AcDbEntity
8
0
62
256
6
ByLayer
370
-1
48
1
60
0
100
AcDbTrace
10
-2.999994
20
58.622862
30
0
11
-2.999994
21
59.62286
31
0
12
0
22
59.122861
32
0
13
0
23
59.122861
33
0
39
0
210
0
220
0
230
1
0
MTEXT
5
F9
100
AcDbEntity
8
0
62
256
6
ByLayer
370
18
48
1
60
0
100
AcDbMText
10
-15.95
20
65.12284
30
0
210
0
220
0
230
1
1
\A1;32
40
2.999994
41
0
44
1
50
0
71
5
72
5
7
iso_b_vert
0
POINT
5
FA
100
AcDbEntity
8
Defpoints
62
0
6
ByLayer
370
-1
48
1
60
0
100
AcDbPoint
10
-31.9
20
19.672662
30
0
39
0
210
0
220
0
230
1
50
360
0
POINT
5
FB
100
AcDbEntity
8
Defpoints
62
0
6
ByLayer
370
-1
48
1
60
0
100
AcDbPoint
10
0
20
30.97
30
0
39
0
210
0
220
0
230
1
50
360
0
POINT
5
FC
100
AcDbEntity
8
Defpoints
62
0
6
ByLayer
370
-1
48
1
60
0
100
AcDbPoint
10
0
20
59.122861
30
0
39
0
210
0
220
0
230
1
50
360
0
ENDBLK
5
F3
100
AcDbEntity
8
0
100
AcDbBlockEnd
0
BLOCK
5
109
100
AcDbEntity
8
0
100
AcDbBlockBegin
2
_U0
70
0
10
0
20
0
30
0
3
_U0
0
MTEXT
5
FF
100
AcDbEntity
8
SK2
62
256
6
ByLayer
370
18
48
1
60
0
100
AcDbMText
10
-17.582367
20
60.007974
30
0
210
0
220
0
230
1
1
\W0.6740;32
40
2.999994
41
0
44
1.084337
50
0
71
7
72
5
7
iso_b_vert
0
LINE
5
100
100
AcDbEntity
8
SK2
62
256
6
ByLayer
370
13
48
1
60
0
100
AcDbLine
10
-31.9
20
21.172659
30
0
11
-31.9
21
62.122855
31
0
39
0
210
0
220
0
230
1
0
LINE
5
101
100
AcDbEntity
8
SK2
62
256
6
ByLayer
370
13
48
1
60
0
100
AcDbLine
10
0
20
32.469997
30
0
11
0
21
62.122855
31
0
39
0
210
0
220
0
230
1
0
LINE
5
102
100
AcDbEntity
8
SK2
62
256
6
ByLayer
370
13
48
1
60
0
100
AcDbLine
10
-31.9
20
59.122861
30
0
11
0
21
59.122861
31
0
39
0
210
0
220
0
230
1
0
LINE
5
103
100
AcDbEntity
8
SK2
62
256
6
ByLayer
370
13
48
1
60
0
100
AcDbLine
10
-31.9
20
59.122861
30
0
11
-28.900008
21
59.62286
31
0
39
0
210
0
220
0
230
1
0
LINE
5
104
100
AcDbEntity
8
SK2
62
256
6
ByLayer
370
13
48
1
60
0
100
AcDbLine
10
-31.9
20
59.122861
30
0
11
-28.900004
21
58.622862
31
0
39
0
210
0
220
0
230
1
0
LINE
5
105
100
AcDbEntity
8
SK2
62
256
6
ByLayer
370
13
48
1
60
0
100
AcDbLine
10
-28.900008
20
59.62286
30
0
11
-28.900004
21
58.622862
31
0
39
0
210
0
220
0
230
1
0
LINE
5
106
100
AcDbEntity
8
SK2
62
256
6
ByLayer
370
13
48
1
60
0
100
AcDbLine
10
0
20
59.122861
30
0
11
-2.999992
21
58.622862
31
0
39
0
210
0
220
0
230
1
0
LINE
5
107
100
AcDbEntity
8
SK2
62
256
6
ByLayer
370
13
48
1
60
0
100
AcDbLine
10
0
20
59.122861
30
0
11
-2.999996
21
59.62286
31
0
39
0
210
0
220
0
230
1
0
LINE
5
108
100
AcDbEntity
8
SK2
62
256
6
ByLayer
370
13
48
1
60
0
100
AcDbLine
10
-2.999992
20
58.622862
30
0
11
-2.999996
21
59.62286
31
0
39
0
210
0
220
0
230
1
0
ENDBLK
5
10A
100
AcDbEntity
8
0
100
AcDbBlockEnd
0
BLOCK
5
10F
100
AcDbEntity
8
0
100
AcDbBlockBegin
2
*D4
70
1
10
0
20
0
30
0
3
*D4
0
LINE
5
111
100
AcDbEntity
8
0
62
256
6
ByLayer
370
-2
48
1
60
0
100
AcDbLine
10
0
20
32.47
30
0
11
0
21
62.122858
31
0
39
0
210
0
220
0
230
1
0
LINE
5
112
100
AcDbEntity
8
0
62
256
6
ByLayer
370
-2
48
1
60
0
100
AcDbLine
10
105
20
13.55
30
0
11
105
21
62.122858
31
0
39
0
210
0
220
0
230
1
0
LINE
5
113
100
AcDbEntity
8
0
62
256
6
ByLayer
370
-2
48
1
60
0
100
AcDbLine
10
3
20
59.122858
30
0
11
102
21
59.122858
31
0
39
0
210
0
220
0
230
1
0
SOLID
5
114
100
AcDbEntity
8
0
62
256
6
ByLayer
370
-1
48
1
60
0
100
AcDbTrace
10
3
20
59.622858
30
0
11
3
21
58.622858
31
0
12
0
22
59.122858
32
0
13
0
23
59.122858
33
0
39
0
210
0
220
0
230
1
0
SOLID
5
115
100
AcDbEntity
8
0
62
256
6
ByLayer
370
-1
48
1
60
0
100
AcDbTrace
10
102
20
58.622858
30
0
11
102
21
59.622858
31
0
12
105
22
59.122858
32
0
13
105
23
59.122858
33
0
39
0
210
0
220
0
230
1
0
MTEXT
5
116
100
AcDbEntity
8
0
62
256
6
ByLayer
370
18
48
1
60
0
100
AcDbMText
10
52.5
20
65.122858
30
0
210
0
220
0
230
1
1
\A1;105
40
3
41
0
44
1
50
0
71
5
72
5
7
iso_b_vert
0
POINT
5
117
100
AcDbEntity
8
Defpoints
62
0
6
ByLayer
370
-1
48
1
60
0
100
AcDbPoint
10
0
20
30.97
30
0
39
0
210
0
220
0
230
1
50
360
0
POINT
5
118
100
AcDbEntity
8
Defpoints
62
0
6
ByLayer
370
-1
48
1
60
0
100
AcDbPoint
10
105
20
12.05
30
0
39
0
210
0
220
0
230
1
50
360
0
POINT
5
119
100
AcDbEntity
8
Defpoints
62
0
6
ByLayer
370
-1
48
1
60
0
100
AcDbPoint
10
105
20
59.122858
30
0
39
0
210
0
220
0
230
1
50
360
0
ENDBLK
5
110
100
AcDbEntity
8
0
100
AcDbBlockEnd
0
BLOCK
5
126
100
AcDbEntity
8
0
100
AcDbBlockBegin
2
_U1
70
0
10
0
20
0
30
0
3
_U1
0
MTEXT
5
11C
100
AcDbEntity
8
2
62
256
6
ByLayer
370
18
48
1
60
0
100
AcDbMText
10
50.121887
20
60.007973
30
0
210
0
220
0
230
1
1
\W0.6217;105
40
3
41
0
44
1.084337
50
0
71
7
72
5
7
iso_b_vert
0
LINE
5
11D
100
AcDbEntity
8
2
62
256
6
ByLayer
370
13
48
1
60
0
100
AcDbLine
10
0
20
32.47
30
0
11
0
21
62.122858
31
0
39
0
210
0
220
0
230
1
0
LINE
5
11E
100
AcDbEntity
8
2
62
256
6
ByLayer
370
13
48
1
60
0
100
AcDbLine
10
105
20
13.55
30
0
11
105
21
62.122858
31
0
39
0
210
0
220
0
230
1
0
LINE
5
11F
100
AcDbEntity
8
2
62
256
6
ByLayer
370
13
48
1
60
0
100
AcDbLine
10
0
20
59.122858
30
0
11
105
21
59.122858
31
0
39
0
210
0
220
0
230
1
0
LINE
5
120
100
AcDbEntity
8
2
62
256
6
ByLayer
370
13
48
1
60
0
100
AcDbLine
10
0
20
59.122858
30
0
11
2.999998
21
59.651839
31
0
39
0
210
0
220
0
230
1
0
LINE
5
121
100
AcDbEntity
8
2
62
256
6
ByLayer
370
13
48
1
60
0
100
AcDbLine
10
0
20
59.122858
30
0
11
3.000002
21
58.593877
31
0
39
0
210
0
220
0
230
1
0
LINE
5
122
100
AcDbEntity
8
2
62
256
6
ByLayer
370
13
48
1
60
0
100
AcDbLine
10
2.999998
20
59.651839
30
0
11
3.000002
21
58.593877
31
0
39
0
210
0
220
0
230
1
0
LINE
5
123
100
AcDbEntity
8
2
62
256
6
ByLayer
370
13
48
1
60
0
100
AcDbLine
10
105
20
59.122858
30
0
11
102.000002
21
58.593877
31
0
39
0
210
0
220
0
230
1
0
LINE
5
124
100
AcDbEntity
8
2
62
256
6
ByLayer
370
13
48
1
60
0
100
AcDbLine
10
105
20
59.122858
30
0
11
101.999998
21
59.651839
31
0
39
0
210
0
220
0
230
1
0
LINE
5
125
100
AcDbEntity
8
2
62
256
6
ByLayer
370
13
48
1
60
0
100
AcDbLine
10
102.000002
20
58.593877
30
0
11
101.999998
21
59.651839
31
0
39
0
210
0
220
0
230
1
0
ENDBLK
5
127
100
AcDbEntity
8
0
100
AcDbBlockEnd
0
BLOCK
5
12C
100
AcDbEntity
8
0
100
AcDbBlockBegin
2
*D6
70
1
10
0
20
0
30
0
3
*D6
0
LINE
5
12E
100
AcDbEntity
8
0
62
256
6
ByLayer
370
-2
48
1
60
0
100
AcDbLine
10
105
20
13.55
30
0
11
105
21
32.150602
31
0
39
0
210
0
220
0
230
1
0
LINE
5
12F
100
AcDbEntity
8
0
62
256
6
ByLayer
370
-2
48
1
60
0
100
AcDbLine
10
80
20
13.55
30
0
11
80
21
32.150602
31
0
39
0
210
0
220
0
230
1
0
LINE
5
130
100
AcDbEntity
8
0
62
256
6
ByLayer
370
-2
48
1
60
0
100
AcDbLine
10
102
20
29.150602
30
0
11
83
21
29.150602
31
0
39
0
210
0
220
0
230
1
0
SOLID
5
131
100
AcDbEntity
8
0
62
256
6
ByLayer
370
-1
48
1
60
0
100
AcDbTrace
10
102
20
28.650602
30
0
11
102
21
29.650602
31
0
12
105
22
29.150602
32
0
13
105
23
29.150602
33
0
39
0
210
0
220
0
230
1
0
SOLID
5
132
100
AcDbEntity
8
0
62
256
6
ByLayer
370
-1
48
1
60
0
100
AcDbTrace
10
83
20
29.650602
30
0
11
83
21
28.650602
31
0
12
80
22
29.150602
32
0
13
80
23
29.150602
33
0
39
0
210
0
220
0
230
1
0
MTEXT
5
133
100
AcDbEntity
8
0
62
256
6
ByLayer
370
18
48
1
60
0
100
AcDbMText
10
92.5
20
35.150602
30
0
210
0
220
0
230
1
1
\A1;25
40
3
41
0
44
1
50
0
71
5
72
5
7
iso_b_vert
0
POINT
5
134
100
AcDbEntity
8
Defpoints
62
0
6
ByLayer
370
-1
48
1
60
0
100
AcDbPoint
10
105
20
12.05
30
0
39
0
210
0
220
0
230
1
50
360
0
POINT
5
135
100
AcDbEntity
8
Defpoints
62
0
6
ByLayer
370
-1
48
1
60
0
100
AcDbPoint
10
80
20
12.05
30
0
39
0
210
0
220
0
230
1
50
360
0
POINT
5
136
100
AcDbEntity
8
Defpoints
62
0
6
ByLayer
370
-1
48
1
60
0
100
AcDbPoint
10
80
20
29.150602
30
0
39
0
210
0
220
0
230
1
50
360
0
ENDBLK
5
12D
100
AcDbEntity
8
0
100
AcDbBlockEnd
0
BLOCK
5
142
100
AcDbEntity
8
0
100
AcDbBlockBegin
2
_U2
70
0
10
0
20
0
30
0
3
_U2
0
MTEXT
5
138
100
AcDbEntity
8
SK2
62
256
6
ByLayer
370
18
48
1
60
0
100
AcDbMText
10
90.906368
20
30.035717
30
0
210
0
220
0
230
1
1
\W0.6563;25
40
3
41
0
44
1.084337
50
0
71
7
72
5
7
iso_b_vert
0
LINE
5
139
100
AcDbEntity
8
SK2
62
256
6
ByLayer
370
13
48
1
60
0
100
AcDbLine
10
105
20
13.55
30
0
11
105
21
32.150602
31
0
39
0
210
0
220
0
230
1
0
LINE
5
13A
100
AcDbEntity
8
SK2
62
256
6
ByLayer
370
13
48
1
60
0
100
AcDbLine
10
80
20
13.55
30
0
11
80
21
32.150602
31
0
39
0
210
0
220
0
230
1
0
LINE
5
13B
100
AcDbEntity
8
SK2
62
256
6
ByLayer
370
13
48
1
60
0
100
AcDbLine
10
105
20
29.150602
30
0
11
80
21
29.150602
31
0
39
0
210
0
220
0
230
1
0
LINE
5
13C
100
AcDbEntity
8
SK2
62
256
6
ByLayer
370
13
48
1
60
0
100
AcDbLine
10
105
20
29.150602
30
0
11
102.000002
21
28.621621
31
0
39
0
210
0
220
0
230
1
0
LINE
5
13D
100
AcDbEntity
8
SK2
62
256
6
ByLayer
370
13
48
1
60
0
100
AcDbLine
10
105
20
29.150602
30
0
11
101.999998
21
29.679583
31
0
39
0
210
0
220
0
230
1
0
LINE
5
13E
100
AcDbEntity
8
SK2
62
256
6
ByLayer
370
13
48
1
60
0
100
AcDbLine
10
102.000002
20
28.621621
30
0
11
101.999998
21
29.679583
31
0
39
0
210
0
220
0
230
1
0
LINE
5
13F
100
AcDbEntity
8
SK2
62
256
6
ByLayer
370
13
48
1
60
0
100
AcDbLine
10
80
20
29.150602
30
0
11
82.999998
21
29.679583
31
0
39
0
210
0
220
0
230
1
0
LINE
5
140
100
AcDbEntity
8
SK2
62
256
6
ByLayer
370
13
48
1
60
0
100
AcDbLine
10
80
20
29.150602
30
0
11
83.000002
21
28.621621
31
0
39
0
210
0
220
0
230
1
0
LINE
5
141
100
AcDbEntity
8
SK2
62
256
6
ByLayer
370
13
48
1
60
0
100
AcDbLine
10
82.999998
20
29.679583
30
0
11
83.000002
21
28.621621
31
0
39
0
210
0
220
0
230
1
0
ENDBLK
5
143
100
AcDbEntity
8
0
100
AcDbBlockEnd
0
BLOCK
5
148
100
AcDbEntity
8
0
100
AcDbBlockBegin
2
*D8
70
1
10
0
20
0
30
0
3
*D8
0
LINE
5
14A
100
AcDbEntity
8
0
62
256
6
ByLayer
370
-2
48
1
60
0
100
AcDbLine
10
0
20
32.47
30
0
11
0
21
51.046642
31
0
39
0
210
0
220
0
230
1
0
LINE
5
14B
100
AcDbEntity
8
0
62
256
6
ByLayer
370
-2
48
1
60
0
100
AcDbLine
10
25.95
20
31.414221
30
0
11
25.95
21
51.046642
31
0
39
0
210
0
220
0
230
1
0
LINE
5
14C
100
AcDbEntity
8
0
62
256
6
ByLayer
370
-2
48
1
60
0
100
AcDbLine
10
3
20
48.046642
30
0
11
22.95
21
48.046642
31
0
39
0
210
0
220
0
230
1
0
SOLID
5
14D
100
AcDbEntity
8
0
62
256
6
ByLayer
370
-1
48
1
60
0
100
AcDbTrace
10
3
20
48.546642
30
0
11
3
21
47.546642
31
0
12
0
22
48.046642
32
0
13
0
23
48.046642
33
0
39
0
210
0
220
0
230
1
0
SOLID
5
14E
100
AcDbEntity
8
0
62
256
6
ByLayer
370
-1
48
1
60
0
100
AcDbTrace
10
22.95
20
47.546642
30
0
11
22.95
21
48.546642
31
0
12
25.95
22
48.046642
32
0
13
25.95
23
48.046642
33
0
39
0
210
0
220
0
230
1
0
MTEXT
5
14F
100
AcDbEntity
8
0
62
256
6
ByLayer
370
18
48
1
60
0
100
AcDbMText
10
12.975
20
54.046642
30
0
210
0
220
0
230
1
1
\A1;26
40
3
41
0
44
1
50
0
71
5
72
5
7
iso_b_vert
0
POINT
5
150
100
AcDbEntity
8
Defpoints
62
0
6
ByLayer
370
-1
48
1
60
0
100
AcDbPoint
10
0
20
30.97
30
0
39
0
210
0
220
0
230
1
50
360
0
POINT
5
151
100
AcDbEntity
8
Defpoints
62
0
6
ByLayer
370
-1
48
1
60
0
100
AcDbPoint
10
25.95
20
29.914221
30
0
39
0
210
0
220
0
230
1
50
360
0
POINT
5
152
100
AcDbEntity
8
Defpoints
62
0
6
ByLayer
370
-1
48
1
60
0
100
AcDbPoint
10
25.95
20
48.046642
30
0
39
0
210
0
220
0
230
1
50
360
0
ENDBLK
5
149
100
AcDbEntity
8
0
100
AcDbBlockEnd
0
BLOCK
5
15E
100
AcDbEntity
8
0
100
AcDbBlockBegin
2
_U3
70
0
10
0
20
0
30
0
3
_U3
0
MTEXT
5
154
100
AcDbEntity
8
SK2
62
256
6
ByLayer
370
18
48
1
60
0
100
AcDbMText
10
11.34263
20
48.931756
30
0
210
0
220
0
230
1
1
\W0.6740;26
40
3
41
0
44
1.084337
50
0
71
7
72
5
7
iso_b_vert
0
LINE
5
155
100
AcDbEntity
8
SK2
62
256
6
ByLayer
370
13
48
1
60
0
100
AcDbLine
10
0
20
32.47
30
0
11
0
21
51.046642
31
0
39
0
210
0
220
0
230
1
0
LINE
5
156
100
AcDbEntity
8
SK2
62
256
6
ByLayer
370
13
48
1
60
0
100
AcDbLine
10
25.95
20
31.414221
30
0
11
25.95
21
51.046642
31
0
39
0
210
0
220
0
230
1
0
LINE
5
157
100
AcDbEntity
8
SK2
62
256
6
ByLayer
370
13
48
1
60
0
100
AcDbLine
10
0
20
48.046642
30
0
11
25.95
21
48.046642
31
0
39
0
210
0
220
0
230
1
0
LINE
5
158
100
AcDbEntity
8
SK2
62
256
6
ByLayer
370
13
48
1
60
0
100
AcDbLine
10
0
20
48.046642
30
0
11
2.999998
21
48.575623
31
0
39
0
210
0
220
0
230
1
0
LINE
5
159
100
AcDbEntity
8
SK2
62
256
6
ByLayer
370
13
48
1
60
0
100
AcDbLine
10
0
20
48.046642
30
0
11
3.000002
21
47.517661
31
0
39
0
210
0
220
0
230
1
0
LINE
5
15A
100
AcDbEntity
8
SK2
62
256
6
ByLayer
370
13
48
1
60
0
100
AcDbLine
10
2.999998
20
48.575623
30
0
11
3.000002
21
47.517661
31
0
39
0
210
0
220
0
230
1
0
LINE
5
15B
100
AcDbEntity
8
SK2
62
256
6
ByLayer
370
13
48
1
60
0
100
AcDbLine
10
25.95
20
48.046642
30
0
11
22.950002
21
47.517661
31
0
39
0
210
0
220
0
230
1
0
LINE
5
15C
100
AcDbEntity
8
SK2
62
256
6
ByLayer
370
13
48
1
60
0
100
AcDbLine
10
25.95
20
48.046642
30
0
11
22.949998
21
48.575623
31
0
39
0
210
0
220
0
230
1
0
LINE
5
15D
100
AcDbEntity
8
SK2
62
256
6
ByLayer
370
13
48
1
60
0
100
AcDbLine
10
22.950002
20
47.517661
30
0
11
22.949998
21
48.575623
31
0
39
0
210
0
220
0
230
1
0
ENDBLK
5
15F
100
AcDbEntity
8
0
100
AcDbBlockEnd
0
BLOCK
5
164
100
AcDbEntity
8
0
100
AcDbBlockBegin
2
*D10
70
1
10
0
20
0
30
0
3
*D10
0
LINE
5
166
100
AcDbEntity
8
0
62
256
6
ByLayer
370
-2
48
1
60
0
100
AcDbLine
10
30.986465
20
20.438403
30
0
11
30.986465
21
44.869409
31
0
39
0
210
0
220
0
230
1
0
LINE
5
167
100
AcDbEntity
8
0
62
256
6
ByLayer
370
-2
48
1
60
0
100
AcDbLine
10
105
20
13.55
30
0
11
105
21
44.869409
31
0
39
0
210
0
220
0
230
1
0
LINE
5
168
100
AcDbEntity
8
0
62
256
6
ByLayer
370
-2
48
1
60
0
100
AcDbLine
10
33.986465
20
41.869409
30
0
11
102
21
41.869409
31
0
39
0
210
0
220
0
230
1
0
SOLID
5
169
100
AcDbEntity
8
0
62
256
6
ByLayer
370
-1
48
1
60
0
100
AcDbTrace
10
33.986465
20
42.369409
30
0
11
33.986465
21
41.369409
31
0
12
30.986465
22
41.869409
32
0
13
30.986465
23
41.869409
33
0
39
0
210
0
220
0
230
1
0
SOLID
5
16A
100
AcDbEntity
8
0
62
256
6
ByLayer
370
-1
48
1
60
0
100
AcDbTrace
10
102
20
41.369409
30
0
11
102
21
42.369409
31
0
12
105
22
41.869409
32
0
13
105
23
41.869409
33
0
39
0
210
0
220
0
230
1
0
MTEXT
5
16B
100
AcDbEntity
8
0
62
256
6
ByLayer
370
18
48
1
60
0
100
AcDbMText
10
67.993233
20
47.869409
30
0
210
0
220
0
230
1
1
\A1;74
40
3
41
0
44
1
50
0
71
5
72
5
7
iso_b_vert
0
POINT
5
16C
100
AcDbEntity
8
Defpoints
62
0
6
ByLayer
370
-1
48
1
60
0
100
AcDbPoint
10
30.986465
20
18.938403
30
0
39
0
210
0
220
0
230
1
50
360
0
POINT
5
16D
100
AcDbEntity
8
Defpoints
62
0
6
ByLayer
370
-1
48
1
60
0
100
AcDbPoint
10
105
20
12.05
30
0
39
0
210
0
220
0
230
1
50
360
0
POINT
5
16E
100
AcDbEntity
8
Defpoints
62
0
6
ByLayer
370
-1
48
1
60
0
100
AcDbPoint
10
105
20
41.869409
30
0
39
0
210
0
220
0
230
1
50
360
0
ENDBLK
5
165
100
AcDbEntity
8
0
100
AcDbBlockEnd
0
BLOCK
5
17A
100
AcDbEntity
8
0
100
AcDbBlockBegin
2
_U4
70
0
10
0
20
0
30
0
3
_U4
0
MTEXT
5
170
100
AcDbEntity
8
SK2
62
256
6
ByLayer
370
18
48
1
60
0
100
AcDbMText
10
66.241706
20
42.754523
30
0
210
0
220
0
230
1
1
\W0.6994;74
40
3
41
0
44
1.084337
50
0
71
7
72
5
7
iso_b_vert
0
LINE
5
171
100
AcDbEntity
8
SK2
62
256
6
ByLayer
370
13
48
1
60
0
100
AcDbLine
10
30.986465
20
20.438403
30
0
11
30.986465
21
44.869409
31
0
39
0
210
0
220
0
230
1
0
LINE
5
172
100
AcDbEntity
8
SK2
62
256
6
ByLayer
370
13
48
1
60
0
100
AcDbLine
10
105
20
13.55
30
0
11
105
21
44.869409
31
0
39
0
210
0
220
0
230
1
0
LINE
5
173
100
AcDbEntity
8
SK2
62
256
6
ByLayer
370
13
48
1
60
0
100
AcDbLine
10
30.986465
20
41.869409
30
0
11
105
21
41.869409
31
0
39
0
210
0
220
0
230
1
0
LINE
5
174
100
AcDbEntity
8
SK2
62
256
6
ByLayer
370
13
48
1
60
0
100
AcDbLine
10
30.986465
20
41.869409
30
0
11
33.986463
21
42.39839
31
0
39
0
210
0
220
0
230
1
0
LINE
5
175
100
AcDbEntity
8
SK2
62
256
6
ByLayer
370
13
48
1
60
0
100
AcDbLine
10
30.986465
20
41.869409
30
0
11
33.986467
21
41.340428
31
0
39
0
210
0
220
0
230
1
0
LINE
5
176
100
AcDbEntity
8
SK2
62
256
6
ByLayer
370
13
48
1
60
0
100
AcDbLine
10
33.986463
20
42.39839
30
0
11
33.986467
21
41.340428
31
0
39
0
210
0
220
0
230
1
0
LINE
5
177
100
AcDbEntity
8
SK2
62
256
6
ByLayer
370
13
48
1
60
0
100
AcDbLine
10
105
20
41.869409
30
0
11
102.000002
21
41.340428
31
0
39
0
210
0
220
0
230
1
0
LINE
5
178
100
AcDbEntity
8
SK2
62
256
6
ByLayer
370
13
48
1
60
0
100
AcDbLine
10
105
20
41.869409
30
0
11
101.999998
21
42.39839
31
0
39
0
210
0
220
0
230
1
0
LINE
5
179
100
AcDbEntity
8
SK2
62
256
6
ByLayer
370
13
48
1
60
0
100
AcDbLine
10
102.000002
20
41.340428
30
0
11
101.999998
21
42.39839
31
0
39
0
210
0
220
0
230
1
0
ENDBLK
5
17B
100
AcDbEntity
8
0
100
AcDbBlockEnd
0
BLOCK
5
180
100
AcDbEntity
8
0
100
AcDbBlockBegin
2
*D12
70
1
10
0
20
0
30
0
3
*D12
0
LINE
5
182
100
AcDbEntity
8
0
62
256
6
ByLayer
370
-2
48
1
60
0
100
AcDbLine
10
-0.563339
20
31.47
30
0
11
-42.766694
21
31.47
31
0
39
0
210
0
220
0
230
1
0
LINE
5
183
100
AcDbEntity
8
0
62
256
6
ByLayer
370
-2
48
1
60
0
100
AcDbLine
10
-0.511276
20
-31.47
30
0
11
-42.766694
21
-31.47
31
0
39
0
210
0
220
0
230
1
0
LINE
5
184
100
AcDbEntity
8
0
62
256
6
ByLayer
370
-2
48
1
60
0
100
AcDbLine
10
-39.766694
20
28.47
30
0
11
-39.766694
21
-28.47
31
0
39
0
210
0
220
0
230
1
0
SOLID
5
185
100
AcDbEntity
8
0
62
256
6
ByLayer
370
-1
48
1
60
0
100
AcDbTrace
10
-39.266694
20
28.47
30
0
11
-40.266694
21
28.47
31
0
12
-39.766694
22
31.47
32
0
13
-39.766694
23
31.47
33
0
39
0
210
0
220
0
230
1
0
SOLID
5
186
100
AcDbEntity
8
0
62
256
6
ByLayer
370
-1
48
1
60
0
100
AcDbTrace
10
-40.266694
20
-28.47
30
0
11
-39.266694
21
-28.47
31
0
12
-39.766694
22
-31.47
32
0
13
-39.766694
23
-31.47
33
0
39
0
210
0
220
0
230
1
0
MTEXT
5
187
100
AcDbEntity
8
0
62
256
6
ByLayer
370
18
48
1
60
0
100
AcDbMText
10
-45.766694
20
0
30
0
210
0
220
0
230
1
1
\A1;63
40
3
41
0
44
1
50
90
71
5
72
5
7
iso_b_vert
0
POINT
5
188
100
AcDbEntity
8
Defpoints
62
0
6
ByLayer
370
-1
48
1
60
0
100
AcDbPoint
10
0.936661
20
31.47
30
0
39
0
210
0
220
0
230
1
50
360
0
POINT
5
189
100
AcDbEntity
8
Defpoints
62
0
6
ByLayer
370
-1
48
1
60
0
100
AcDbPoint
10
0.988724
20
-31.47
30
0
39
0
210
0
220
0
230
1
50
360
0
POINT
5
18A
100
AcDbEntity
8
Defpoints
62
0
6
ByLayer
370
-1
48
1
60
0
100
AcDbPoint
10
-39.766694
20
-31.47
30
0
39
0
210
0
220
0
230
1
50
360
0
ENDBLK
5
181
100
AcDbEntity
8
0
100
AcDbBlockEnd
0
BLOCK
5
197
100
AcDbEntity
8
0
100
AcDbBlockBegin
2
_U5
70
0
10
0
20
0
30
0
3
_U5
0
MTEXT
5
18C
100
AcDbEntity
8
SK2
62
256
6
ByLayer
370
18
48
1
60
0
100
AcDbMText
10
-40.357809
20
0.849657
30
0
210
0
220
0
230
1
1
\W0.6740;63
40
3
41
0
44
1.084337
50
90
71
7
72
5
7
iso_b_vert
0
MTEXT
5
18D
100
AcDbEntity
8
SK2
62
256
6
ByLayer
370
18
48
1
60
0
100
AcDbMText
10
-40.357809
20
-4.163314
30
0
210
0
220
0
230
1
1
\W1.3781;%%c
40
3
41
0
44
1.084337
50
90
71
7
72
5
7
iso_b_vert
0
LINE
5
18E
100
AcDbEntity
8
SK2
62
256
6
ByLayer
370
13
48
1
60
0
100
AcDbLine
10
-1
20
31.47
30
0
11
-42.766694
21
31.47
31
0
39
0
210
0
220
0
230
1
0
LINE
5
18F
100
AcDbEntity
8
SK2
62
256
6
ByLayer
370
13
48
1
60
0
100
AcDbLine
10
-1
20
-31.47
30
0
11
-42.766694
21
-31.47
31
0
39
0
210
0
220
0
230
1
0
LINE
5
190
100
AcDbEntity
8
SK2
62
256
6
ByLayer
370
13
48
1
60
0
100
AcDbLine
10
-39.766694
20
31.47
30
0
11
-39.766694
21
-31.47
31
0
39
0
210
0
220
0
230
1
0
LINE
5
191
100
AcDbEntity
8
SK2
62
256
6
ByLayer
370
13
48
1
60
0
100
AcDbLine
10
-39.766694
20
31.47
30
0
11
-39.237713
21
28.470002
31
0
39
0
210
0
220
0
230
1
0
LINE
5
192
100
AcDbEntity
8
SK2
62
256
6
ByLayer
370
13
48
1
60
0
100
AcDbLine
10
-39.766694
20
31.47
30
0
11
-40.295675
21
28.469998
31
0
39
0
210
0
220
0
230
1
0
LINE
5
193
100
AcDbEntity
8
SK2
62
256
6
ByLayer
370
13
48
1
60
0
100
AcDbLine
10
-39.237713
20
28.470002
30
0
11
-40.295675
21
28.469998
31
0
39
0
210
0
220
0
230
1
0
LINE
5
194
100
AcDbEntity
8
SK2
62
256
6
ByLayer
370
13
48
1
60
0
100
AcDbLine
10
-39.766694
20
-31.47
30
0
11
-40.295675
21
-28.470002
31
0
39
0
210
0
220
0
230
1
0
LINE
5
195
100
AcDbEntity
8
SK2
62
256
6
ByLayer
370
13
48
1
60
0
100
AcDbLine
10
-39.766694
20
-31.47
30
0
11
-39.237713
21
-28.469998
31
0
39
0
210
0
220
0
230
1
0
LINE
5
196
100
AcDbEntity
8
SK2
62
256
6
ByLayer
370
13
48
1
60
0
100
AcDbLine
10
-40.295675
20
-28.470002
30
0
11
-39.237713
21
-28.469998
31
0
39
0
210
0
220
0
230
1
0
ENDBLK
5
198
100
AcDbEntity
8
0
100
AcDbBlockEnd
0
BLOCK
5
19D
100
AcDbEntity
8
0
100
AcDbBlockBegin
2
*D14
70
1
10
0
20
0
30
0
3
*D14
0
LINE
5
19F
100
AcDbEntity
8
0
62
256
6
ByLayer
370
-2
48
1
60
0
100
AcDbLine
10
101.710446
20
12.05
30
0
11
123.299081
21
12.05
31
0
39
0
210
0
220
0
230
1
0
LINE
5
1A0
100
AcDbEntity
8
0
62
256
6
ByLayer
370
-2
48
1
60
0
100
AcDbLine
10
102.067919
20
-12.05
30
0
11
123.299081
21
-12.05
31
0
39
0
210
0
220
0
230
1
0
LINE
5
1A1
100
AcDbEntity
8
0
62
256
6
ByLayer
370
-2
48
1
60
0
100
AcDbLine
10
120.299081
20
9.05
30
0
11
120.299081
21
-9.05
31
0
39
0
210
0
220
0
230
1
0
SOLID
5
1A2
100
AcDbEntity
8
0
62
256
6
ByLayer
370
-1
48
1
60
0
100
AcDbTrace
10
120.799081
20
9.05
30
0
11
119.799081
21
9.05
31
0
12
120.299081
22
12.05
32
0
13
120.299081
23
12.05
33
0
39
0
210
0
220
0
230
1
0
SOLID
5
1A3
100
AcDbEntity
8
0
62
256
6
ByLayer
370
-1
48
1
60
0
100
AcDbTrace
10
119.799081
20
-9.05
30
0
11
120.799081
21
-9.05
31
0
12
120.299081
22
-12.05
32
0
13
120.299081
23
-12.05
33
0
39
0
210
0
220
0
230
1
0
MTEXT
5
1A4
100
AcDbEntity
8
0
62
256
6
ByLayer
370
18
48
1
60
0
100
AcDbMText
10
114.299081
20
0
30
0
210
0
220
0
230
1
1
\A1;24.1
40
3
41
0
44
1
50
90
71
5
72
5
7
iso_b_vert
0
POINT
5
1A5
100
AcDbEntity
8
Defpoints
62
0
6
ByLayer
370
-1
48
1
60
0
100
AcDbPoint
10
100.210446
20
12.05
30
0
39
0
210
0
220
0
230
1
50
360
0
POINT
5
1A6
100
AcDbEntity
8
Defpoints
62
0
6
ByLayer
370
-1
48
1
60
0
100
AcDbPoint
10
100.567919
20
-12.05
30
0
39
0
210
0
220
0
230
1
50
360
0
POINT
5
1A7
100
AcDbEntity
8
Defpoints
62
0
6
ByLayer
370
-1
48
1
60
0
100
AcDbPoint
10
120.299081
20
-12.05
30
0
39
0
210
0
220
0
230
1
50
360
0
ENDBLK
5
19E
100
AcDbEntity
8
0
100
AcDbBlockEnd
0
BLOCK
5
1B4
100
AcDbEntity
8
0
100
AcDbBlockBegin
2
_U6
70
0
10
0
20
0
30
0
3
_U6
0
MTEXT
5
1A9
100
AcDbEntity
8
SK2
62
256
6
ByLayer
370
18
48
1
60
0
100
AcDbMText
10
119.707967
20
-0.661971
30
0
210
0
220
0
230
1
1
\W0.7531;24.1
40
3
41
0
44
1.084337
50
90
71
7
72
5
7
iso_b_vert
0
MTEXT
5
1AA
100
AcDbEntity
8
SK2
62
256
6
ByLayer
370
18
48
1
60
0
100
AcDbMText
10
119.707967
20
-5.674942
30
0
210
0
220
0
230
1
1
\W1.3781;%%c
40
3
41
0
44
1.084337
50
90
71
7
72
5
7
iso_b_vert
0
LINE
5
1AB
100
AcDbEntity
8
SK2
62
256
6
ByLayer
370
13
48
1
60
0
100
AcDbLine
10
106.5
20
12.05
30
0
11
123.299081
21
12.05
31
0
39
0
210
0
220
0
230
1
0
LINE
5
1AC
100
AcDbEntity
8
SK2
62
256
6
ByLayer
370
13
48
1
60
0
100
AcDbLine
10
106.5
20
-12.05
30
0
11
123.299081
21
-12.05
31
0
39
0
210
0
220
0
230
1
0
LINE
5
1AD
100
AcDbEntity
8
SK2
62
256
6
ByLayer
370
13
48
1
60
0
100
AcDbLine
10
120.299081
20
12.05
30
0
11
120.299081
21
-12.05
31
0
39
0
210
0
220
0
230
1
0
LINE
5
1AE
100
AcDbEntity
8
SK2
62
256
6
ByLayer
370
13
48
1
60
0
100
AcDbLine
10
120.299081
20
12.05
30
0
11
120.828062
21
9.050002
31
0
39
0
210
0
220
0
230
1
0
LINE
5
1AF
100
AcDbEntity
8
SK2
62
256
6
ByLayer
370
13
48
1
60
0
100
AcDbLine
10
120.299081
20
12.05
30
0
11
119.7701
21
9.049998
31
0
39
0
210
0
220
0
230
1
0
LINE
5
1B0
100
AcDbEntity
8
SK2
62
256
6
ByLayer
370
13
48
1
60
0
100
AcDbLine
10
120.828062
20
9.050002
30
0
11
119.7701
21
9.049998
31
0
39
0
210
0
220
0
230
1
0
LINE
5
1B1
100
AcDbEntity
8
SK2
62
256
6
ByLayer
370
13
48
1
60
0
100
AcDbLine
10
120.299081
20
-12.05
30
0
11
119.7701
21
-9.050002
31
0
39
0
210
0
220
0
230
1
0
LINE
5
1B2
100
AcDbEntity
8
SK2
62
256
6
ByLayer
370
13
48
1
60
0
100
AcDbLine
10
120.299081
20
-12.05
30
0
11
120.828062
21
-9.049998
31
0
39
0
210
0
220
0
230
1
0
LINE
5
1B3
100
AcDbEntity
8
SK2
62
256
6
ByLayer
370
13
48
1
60
0
100
AcDbLine
10
119.7701
20
-9.050002
30
0
11
120.828062
21
-9.049998
31
0
39
0
210
0
220
0
230
1
0
ENDBLK
5
1B5
100
AcDbEntity
8
0
100
AcDbBlockEnd
0
ENDSEC
0
SECTION
2
ENTITIES
0
ARC
5
BD
100
AcDbEntity
8
1
62
256
6
ByLayer
370
18
48
1
60
0
100
AcDbCircle
39
0
10
31.682331
20
23.889743
30
0
40
5
210
0
220
0
230
1
100
AcDbArc
50
195
51
262
0
ARC
5
BE
100
AcDbEntity
8
1
62
256
6
ByLayer
370
18
48
1
60
0
100
AcDbCircle
39
0
10
31.682331
20
-23.889743
30
0
40
5
210
0
220
0
230
1
100
AcDbArc
50
98
51
165
0
ARC
5
BF
100
AcDbEntity
8
SK1
62
256
6
ByLayer
370
18
48
1
60
0
100
AcDbCircle
39
0
10
-23.2
20
-22.232723
30
0
40
1.4
210
0
220
0
230
1
100
AcDbArc
50
0
51
90
0
ARC
5
C0
100
AcDbEntity
8
SK1
62
256
6
ByLayer
370
18
48
1
60
0
100
AcDbCircle
39
0
10
-0.45
20
-24.570431
30
0
40
0.600000000000009
210
0
220
0
230
1
100
AcDbArc
50
42
51
90
0
ARC
5
C1
100
AcDbEntity
8
SK1
62
256
6
ByLayer
370
18
48
1
60
0
100
AcDbCircle
39
0
10
-0.45
20
24.570431
30
0
40
0.600000000000009
210
0
220
0
230
1
100
AcDbArc
50
270
51
319
0
POINT
5
70
100
AcDbEntity
8
80
62
256
6
ByLayer
370
18
48
1
60
0
100
AcDbPoint
10
0
20
0
30
0
39
0
210
0
220
0
230
1
50
360
0
POINT
5
72
100
AcDbEntity
8
81
62
256
6
ByLayer
370
18
48
1
60
0
100
AcDbPoint
10
105
20
0
30
0
39
0
210
0
220
0
230
1
50
360
0
SPLINE
5
C2
100
AcDbEntity
8
1
62
256
6
ByLayer
370
18
48
1
60
0
100
AcDbSpline
70
4
71
3
72
8
73
4
40
0
40
0
40
0
40
0
40
1
40
1
40
1
40
1
41
1
10
16.075
20
21.0858397386544
30
-3.6E-15
41
1
10
15.6053593920639
20
22.2030165042125
30
-3.6E-15
41
1
10
15.1208218166183
20
23.3141891921863
30
-3.6E-15
41
1
10
14.6253876765866
20
24.4200409500066
30
-3.6E-15
0
SPLINE
5
C3
100
AcDbEntity
8
1
62
256
6
ByLayer
370
18
48
1
60
0
100
AcDbSpline
70
4
71
3
72
8
73
4
40
0
40
0
40
0
40
0
40
1
40
1
40
1
40
1
41
1
10
14.6253876765866
20
30.4315723180712
30
-3.6E-15
41
1
10
15.1097064852051
20
29.5640826443993
30
-3.6E-15
41
1
10
15.5930118860064
20
28.6960191551286
30
-3.6E-15
41
1
10
16.075
20
27.8272318284485
30
-3.6E-15
0
SPLINE
5
C4
100
AcDbEntity
8
1
62
256
6
ByLayer
370
18
48
1
60
0
100
AcDbSpline
70
4
71
3
72
8
73
4
40
0
40
0
40
0
40
0
40
1
40
1
40
1
40
1
41
1
10
21.3746123234134
20
24.4200409500066
30
-3.6E-15
41
1
10
20.8791781833817
20
23.3141891921863
30
-3.6E-15
41
1
10
20.3946406079361
20
22.2030165042124
30
-3.6E-15
41
1
10
19.925
20
21.0858397386544
30
-3.6E-15
0
SPLINE
5
C5
100
AcDbEntity
8
1
62
256
6
ByLayer
370
18
48
1
60
0
100
AcDbSpline
70
4
71
3
72
34
73
30
40
0
40
0
40
0
40
0
40
0.125000000000001
40
0.125000000000001
40
0.187500000000001
40
0.187500000000001
40
0.218750000000001
40
0.218750000000001
40
0.250000000000001
40
0.250000000000001
40
0.375000000000001
40
0.375000000000001
40
0.406250000000001
40
0.406250000000001
40
0.437500000000001
40
0.437500000000001
40
0.500000000000001
40
0.500000000000001
40
0.625
40
0.625
40
0.656249999999999
40
0.656249999999999
40
0.687499999999999
40
0.687499999999999
40
0.749999999999998
40
0.749999999999998
40
0.874999999999999
40
0.874999999999999
40
1
40
1
40
1
40
1
41
1
10
12.1956203456893
20
24.4200409500066
30
-3.6E-15
41
1
10
11.7562475112852
20
24.4200409500066
30
-3.6E-15
41
1
10
11.3251302963921
20
24.3909497578602
30
-3.6E-15
41
1
10
10.6901035240454
20
24.3056038437389
30
-3.6E-15
41
1
10
10.4803827549288
20
24.2701435456968
30
-3.6E-15
41
1
10
10.1687516083791
20
24.2061692076128
30
-3.6E-15
41
1
10
10.0651053360807
20
24.1829786000393
30
-3.6E-15
41
1
10
9.86011701382467
20
24.1332343953866
30
-3.6E-15
41
1
10
9.75899909269465
20
24.1067468964487
30
-3.6E-15
41
1
10
9.26006146735201
20
23.9663861964588
30
-3.6E-15
41
1
10
8.88205821250948
20
23.8289334719872
30
-3.6E-15
41
1
10
8.43391201880761
20
23.6260043199278
30
-3.6E-15
41
1
10
8.34550879717324
20
23.5838515747132
30
-3.6E-15
41
1
10
8.17113198807339
20
23.4963787949209
30
-3.6E-15
41
1
10
8.08500476697938
20
23.4509668686439
30
-3.6E-15
41
1
10
7.83231360064808
20
23.311091922816
30
-3.6E-15
41
1
10
7.67087988193625
20
23.212752963373
30
-3.6E-15
41
1
10
7.20608604579278
20
22.9028875991274
30
-3.6E-15
41
1
10
6.92215056716838
20
22.6765668917347
30
-3.6E-15
41
1
10
6.5961775598242
20
22.3692620581667
30
-3.6E-15
41
1
10
6.53232627943751
20
22.3064574329348
30
-3.6E-15
41
1
10
6.40827388836512
20
22.179234275698
30
-3.6E-15
41
1
10
6.34801389290464
20
22.1147708752695
30
-3.6E-15
41
1
10
6.17226321560698
20
21.9188742079098
30
-3.6E-15
41
1
10
6.06179410768457
20
21.784936542704
30
-3.6E-15
41
1
10
5.74865705723418
20
21.3734069993164
30
-3.6E-15
41
1
10
5.5641870906418
20
21.0861176330193
30
-3.6E-15
41
1
10
5.23652490731591
20
20.4866364512196
30
-3.6E-15
41
1
10
5.09337039057026
20
20.1744346090999
30
-3.6E-15
41
1
10
4.96821549226032
20
19.85
30
-3.6E-15
0
SPLINE
5
C6
100
AcDbEntity
8
1
62
256
6
ByLayer
370
18
48
1
60
0
100
AcDbSpline
70
4
71
3
72
8
73
4
40
0
40
0
40
0
40
0
40
1
40
1
40
1
40
1
41
1
10
19.925
20
27.8272318284485
30
-3.6E-15
41
1
10
20.4069881139936
20
28.6960191551286
30
-3.6E-15
41
1
10
20.8902935147949
20
29.5640826443993
30
-3.6E-15
41
1
10
21.3746123234134
20
30.4315723180712
30
-3.6E-15
0
SPLINE
5
C7
100
AcDbEntity
8
1
62
256
6
ByLayer
370
18
48
1
60
0
100
AcDbSpline
70
4
71
3
72
41
73
37
40
0
40
0
40
0
40
0
40
0.125
40
0.125
40
0.187499999999999
40
0.187499999999999
40
0.203124999999999
40
0.203124999999999
40
0.218749999999999
40
0.218749999999999
40
0.249999999999999
40
0.249999999999999
40
0.374999999999998
40
0.374999999999998
40
0.406249999999997
40
0.406249999999997
40
0.437499999999997
40
0.437499999999997
40
0.499999999999996
40
0.499999999999996
40
0.624999999999995
40
0.624999999999995
40
0.640624999999995
40
0.640624999999995
40
0.656249999999995
40
0.687499999999995
40
0.687499999999995
40
0.749999999999996
40
0.749999999999996
40
0.812499999999996
40
0.812499999999996
40
0.843749999999997
40
0.843749999999997
40
0.874999999999998
40
0.874999999999998
40
1
40
1
40
1
40
1
41
1
10
4.95
20
31.4699984111852
30
-3.6E-15
41
1
10
4.95
20
31.4698296536479
30
-3.6E-15
41
1
10
5.00230708374832
20
31.4562391697279
30
-3.6E-15
41
1
10
5.15571452437677
20
31.4176655060856
30
-3.6E-15
41
1
10
5.21943610515428
20
31.4017728091575
30
-3.6E-15
41
1
10
5.31515624398311
20
31.3783044255917
30
-3.6E-15
41
1
10
5.33510555813455
20
31.3734306296907
30
-3.6E-15
41
1
10
5.3766309007575
20
31.3633276377672
30
-3.6E-15
41
1
10
5.39822825039048
20
31.3580933535021
30
-3.6E-15
41
1
10
5.46511004302158
20
31.3419559785114
30
-3.6E-15
41
1
10
5.51257900794357
20
31.3305949262852
30
-3.6E-15
41
1
10
5.76402842320039
20
31.2710321527611
30
-3.6E-15
41
1
10
6.00990201671503
20
31.2145668222899
30
-3.6E-15
41
1
10
6.37269305826687
20
31.1368630165868
30
-3.6E-15
41
1
10
6.44804988741381
20
31.1209660315191
30
-3.6E-15
41
1
10
6.60445685283204
20
31.0885594101365
30
-3.6E-15
41
1
10
6.68565103015174
20
31.0720225423576
30
-3.6E-15
41
1
10
6.93526213232314
20
31.0221827684181
30
-3.6E-15
41
1
10
7.11040967239753
20
30.9884987967216
30
-3.6E-15
41
1
10
7.66147908373203
20
30.8874987365028
30
-3.6E-15
41
1
10
8.06276376430699
20
30.8202083776254
30
-3.6E-15
41
1
10
8.55414573860175
20
30.7488794290826
30
-3.6E-15
41
1
10
8.60937969420139
20
30.7410048721664
30
-3.6E-15
41
1
10
8.72046055016428
20
30.7254670082918
30
-3.6E-15
41
1
10
8.88807726731778
20
30.702464761027
30
-3.6E-15
41
1
10
9.05865310544961
20
30.680430490746
30
-3.6E-15
41
1
10
9.40370630453721
20
30.637794896977
30
-3.6E-15
41
1
10
9.63893458885079
20
30.6112816361137
30
-3.6E-15
41
1
10
10.1197726748234
20
30.5628267498568
30
-3.6E-15
41
1
10
10.3653820618296
20
30.5408840370386
30
-3.6E-15
41
1
10
10.7418048251406
20
30.5119727078943
30
-3.6E-15
41
1
10
10.8686162375856
20
30.5030029512015
30
-3.6E-15
41
1
10
11.1249812853466
20
30.4864983825466
30
-3.6E-15
41
1
10
11.254389755313
20
30.4789778793734
30
-3.6E-15
41
1
10
11.9019328821944
20
30.4454958853764
30
-3.6E-15
41
1
10
12.4264244436086
20
30.4315723180712
30
-3.6E-15
41
1
10
12.9575
20
30.4315723180713
30
-3.6E-15
0
SPLINE
5
C8
100
AcDbEntity
8
1
62
256
6
ByLayer
370
18
48
1
60
0
100
AcDbSpline
70
4
71
3
72
40
73
36
40
0
40
0
40
0
40
0
40
0.125
40
0.125
40
0.1875
40
0.1875
40
0.203125
40
0.203125
40
0.21875
40
0.21875
40
0.25
40
0.25
40
0.375
40
0.375
40
0.40625
40
0.40625
40
0.4375
40
0.4375
40
0.5
40
0.5
40
0.625000000000001
40
0.625000000000001
40
0.656250000000001
40
0.656250000000001
40
0.687500000000001
40
0.687500000000001
40
0.750000000000001
40
0.750000000000001
40
0.812500000000001
40
0.812500000000001
40
0.843750000000001
40
0.843750000000001
40
0.875
40
0.875
40
1
40
1
40
1
40
1
41
1
10
4.95
20
-31.4535466005028
30
-3.6E-15
41
1
10
4.95
20
-31.4363549854088
30
-3.6E-15
41
1
10
5.00242123542682
20
-31.4060162573883
30
-3.6E-15
41
1
10
5.15580399950062
20
-31.3427129893423
30
-3.6E-15
41
1
10
5.21948587240465
20
-31.3186429336077
30
-3.6E-15
41
1
10
5.31508247467499
20
-31.2850360518191
30
-3.6E-15
41
1
10
5.33500338384487
20
-31.2781387241628
30
-3.6E-15
41
1
10
5.37646363542585
20
-31.2639970595042
30
-3.6E-15
41
1
10
5.39802901009426
20
-31.2567442902367
30
-3.6E-15
41
1
10
5.46481932095351
20
-31.234591537496
30
-3.6E-15
41
1
10
5.51221511930391
20
-31.2192696417115
30
-3.6E-15
41
1
10
5.763230998689
20
-31.1401421138521
30
-3.6E-15
41
1
10
6.0085386645295
20
-31.0687839695065
30
-3.6E-15
41
1
10
6.37027058357381
20
-30.9733672563238
30
-3.6E-15
41
1
10
6.44539813617322
20
-30.9539732993364
30
-3.6E-15
41
1
10
6.60131013295664
20
-30.9146646731457
30
-3.6E-15
41
1
10
6.68227332288696
20
-30.8947089115311
30
-3.6E-15
41
1
10
6.93125749590903
20
-30.8348322101035
30
-3.6E-15
41
1
10
7.10595541319908
20
-30.7947435553805
30
-3.6E-15
41
1
10
7.65560164708087
20
-30.675364228848
30
-3.6E-15
41
1
10
8.05583605375459
20
-30.59692341549
30
-3.6E-15
41
1
10
8.60047384349522
20
-30.505184235068
30
-3.6E-15
41
1
10
8.71176020741701
20
-30.4871406556625
30
-3.6E-15
41
1
10
8.93637993065502
20
-30.452209280665
30
-3.6E-15
41
1
10
9.05000565221562
20
-30.4352703571221
30
-3.6E-15
41
1
10
9.39478841653239
20
-30.3861748802954
30
-3.6E-15
41
1
10
9.62984181097744
20
-30.3557387712675
30
-3.6E-15
41
1
10
10.1103513205057
20
-30.3002167529162
30
-3.6E-15
41
1
10
10.3558070141257
20
-30.2751297284573
30
-3.6E-15
41
1
10
10.7320238627841
20
-30.2421118142722
30
-3.6E-15
41
1
10
10.8587707514647
20
-30.2318750284486
30
-3.6E-15
41
1
10
11.1150165780853
20
-30.2130467859039
30
-3.6E-15
41
1
10
11.2446128901294
20
-30.2044550861836
30
-3.6E-15
41
1
10
11.8930443300427
20
-30.1662297826885
30
-3.6E-15
41
1
10
12.4182354695735
20
-30.1503829784963
30
-3.6E-15
41
1
10
12.95
20
-30.1503829784963
30
-3.6E-15
0
SPLINE
5
C9
100
AcDbEntity
8
SK1
62
256
6
ByLayer
370
18
48
1
60
0
100
AcDbSpline
70
2053
71
3
72
45
73
41
40
0
40
0
40
0
40
0
40
0.03125
40
0.0625
40
0.09375
40
0.125
40
0.15625
40
0.1875
40
0.21875
40
0.25
40
0.28125
40
0.3125
40
0.34375
40
0.359375
40
0.375
40
0.390625
40
0.40625
40
0.4375
40
0.46875
40
0.5
40
0.53125
40
0.5625
40
0.59375
40
0.609375
40
0.625
40
0.640625
40
0.65625
40
0.6875
40
0.71875
40
0.734375
40
0.75
40
0.765625
40
0.78125
40
0.8125
40
0.84375
40
0.875
40
0.90625
40
0.9375
40
0.96875
40
1
40
1
40
1
40
1
41
1
10
-11.9926081401351
20
-23.5267940855337
30
-3.6E-15
41
1
10
-12.1867841969084
20
-23.5424166676483
30
-3.6E-15
41
1
10
-12.5359445942519
20
-23.5755336581416
30
-3.6E-15
41
1
10
-12.919312714833
20
-23.6204960574946
30
-3.6E-15
41
1
10
-13.1627726486249
20
-23.6509135463602
30
-3.6E-15
41
1
10
-13.2445872375413
20
-23.662047796621
30
-3.6E-15
41
1
10
-13.1659744345912
20
-23.6514393876683
30
-3.6E-15
41
1
10
-12.9259228821922
20
-23.6214361519488
30
-3.6E-15
41
1
10
-12.5458777334801
20
-23.5767212993759
30
-3.6E-15
41
1
10
-12.0257200088258
20
-23.526977389552
30
-3.6E-15
41
1
10
-11.3866533876414
20
-23.4825855317282
30
-3.6E-15
41
1
10
-10.6505213145798
20
-23.4551424795103
30
-3.6E-15
41
1
10
-9.98547536673934
20
-23.4514781918347
30
-3.6E-15
41
1
10
-9.43569649135172
20
-23.464122919278
30
-3.6E-15
41
1
10
-9.01920960832809
20
-23.4814639956354
30
-3.6E-15
41
1
10
-8.60314511983443
20
-23.5065900780926
30
-3.6E-15
41
1
10
-8.05491445980291
20
-23.5497613369292
30
-3.6E-15
41
1
10
-7.39338635440755
20
-23.6205479930633
30
-3.6E-15
41
1
10
-6.66262925175399
20
-23.7215269923646
30
-3.6E-15
41
1
10
-6.02743014513356
20
-23.828966215703
30
-3.6E-15
41
1
10
-5.50846094887865
20
-23.9297457219695
30
-3.6E-15
41
1
10
-5.12710870999561
20
-24.0118650886673
30
-3.6E-15
41
1
10
-4.92365246185296
20
-24.0569093473173
30
-3.6E-15
41
1
10
-4.84121261042074
20
-24.0754917459939
30
-3.6E-15
41
1
10
-4.82002632193342
20
-24.0803674245613
30
-3.6E-15
41
1
10
-4.83931006652058
20
-24.0759162744344
30
-3.6E-15
41
1
10
-4.91864867823282
20
-24.0579090702501
30
-3.6E-15
41
1
10
-5.11859167951232
20
-24.0134864851557
30
-3.6E-15
41
1
10
-5.43407684013487
20
-23.9454983857201
30
-3.6E-15
41
1
10
-5.75546977888306
20
-23.8816554672162
30
-3.6E-15
41
1
10
-6.02849068771162
20
-23.830575738219
30
-3.6E-15
41
1
10
-6.33055491293621
20
-23.7777715572371
30
-3.6E-15
41
1
10
-6.76854121848769
20
-23.7072052340255
30
-3.6E-15
41
1
10
-7.37601657545529
20
-23.622854626324
30
-3.6E-15
41
1
10
-8.16846089616817
20
-23.5373589422427
30
-3.6E-15
41
1
10
-8.99973543631215
20
-23.4785171262683
30
-3.6E-15
41
1
10
-9.83359769063611
20
-23.4509643885426
30
-3.6E-15
41
1
10
-10.6327816767766
20
-23.454763151472
30
-3.6E-15
41
1
10
-11.3705147207261
20
-23.4817871320254
30
-3.6E-15
41
1
10
-11.7984320833619
20
-23.511171503419
30
-3.6E-15
41
1
10
-11.9926081401351
20
-23.5267940855337
30
-3.6E-15
0
SPLINE
5
CA
100
AcDbEntity
8
SK1
62
256
6
ByLayer
370
18
48
1
60
0
100
AcDbSpline
70
2053
71
3
72
60
73
56
40
0
40
0
40
0
40
0
40
0.03125
40
0.0625
40
0.078125
40
0.09375
40
0.109375
40
0.125
40
0.15625
40
0.1875
40
0.21875
40
0.234375
40
0.25
40
0.265625
40
0.28125
40
0.296875
40
0.3125
40
0.34375
40
0.359375
40
0.375
40
0.390625
40
0.40625
40
0.421875
40
0.4375
40
0.453125
40
0.46875
40
0.5
40
0.515625
40
0.53125
40
0.546875
40
0.5546875
40
0.5625
40
0.578125
40
0.59375
40
0.625
40
0.640625
40
0.65625
40
0.671875
40
0.6796875
40
0.6875
40
0.69140625
40
0.71875
40
0.734375
40
0.75
40
0.765625
40
0.78125
40
0.8046875
40
0.8125
40
0.828125
40
0.84375
40
0.875
40
0.90625
40
0.9375
40
0.96875
40
1
40
1
40
1
40
1
41
1
10
-11.9926039745383
20
23.5267978615035
30
-3.6E-15
41
1
10
-11.7987637973936
20
23.5111058344337
30
-3.6E-15
41
1
10
-11.3736464551889
20
23.4810968733495
30
-3.6E-15
41
1
10
-10.7594595589397
20
23.4579830967444
30
-3.6E-15
41
1
10
-10.2351513460296
20
23.4525269814897
30
-3.6E-15
41
1
10
-9.8303361062422
20
23.4550545214443
30
-3.6E-15
41
1
10
-9.41785865718169
20
23.4645945572284
30
-3.6E-15
41
1
10
-8.86243345079463
20
23.4877026084495
30
-3.6E-15
41
1
10
-8.1694361991548
20
23.5370526579905
30
-3.6E-15
41
1
10
-7.37770287685236
20
23.6228801190355
30
-3.6E-15
41
1
10
-6.76864480919818
20
23.7068831397614
30
-3.6E-15
41
1
10
-6.32954025325511
20
23.7774000148547
30
-3.6E-15
41
1
10
-6.02767672589645
20
23.8302951080918
30
-3.6E-15
41
1
10
-5.75650203478439
20
23.8814992046502
30
-3.6E-15
41
1
10
-5.51679565416425
20
23.9294250855508
30
-3.6E-15
41
1
10
-5.30785156142776
20
23.9726121723787
30
-3.6E-15
41
1
10
-5.07414283888822
20
24.0223776292657
30
-3.6E-15
41
1
10
-4.91574651563353
20
24.0579721985223
30
-3.6E-15
41
1
10
-4.83885472081179
20
24.075914113776
30
-3.6E-15
41
1
10
-4.82026751472332
20
24.080355877343
30
-3.6E-15
41
1
10
-4.84068144223111
20
24.0755441282703
30
-3.6E-15
41
1
10
-4.90166622836557
20
24.0616628395464
30
-3.6E-15
41
1
10
-5.0029457705855
20
24.0390278523204
30
-3.6E-15
41
1
10
-5.14194460260299
20
24.0085124462615
30
-3.6E-15
41
1
10
-5.31463734845742
20
23.9709926990076
30
-3.6E-15
41
1
10
-5.58978221262353
20
23.9131033626471
30
-3.6E-15
41
1
10
-5.93460260217788
20
23.8457394669909
30
-3.6E-15
41
1
10
-6.34144574321262
20
23.775449014504
30
-3.6E-15
41
1
10
-6.67333085320463
20
23.722818524253
30
-3.6E-15
41
1
10
-6.96839104391853
20
23.6801658695307
30
-3.6E-15
41
1
10
-7.21350131348288
20
23.6472760317387
30
-3.6E-15
41
1
10
-7.46403625684777
20
23.615383539689
30
-3.6E-15
41
1
10
-7.78728863286833
20
23.5779291345006
30
-3.6E-15
41
1
10
-8.32225458783182
20
23.5252530789594
30
-3.6E-15
41
1
10
-8.87725217130298
20
23.4864804265988
30
-3.6E-15
41
1
10
-9.43244909325791
20
23.4640917916811
30
-3.6E-15
41
1
10
-9.84468179860743
20
23.4548769258856
30
-3.6E-15
41
1
10
-10.1814774322549
20
23.4531657198773
30
-3.6E-15
41
1
10
-10.4447299492405
20
23.4552352291835
30
-3.6E-15
41
1
10
-10.606247697731
20
23.4579061123343
30
-3.6E-15
41
1
10
-10.9239807904815
20
23.465198264502
30
-3.6E-15
41
1
10
-11.2886070938621
20
23.4797336810168
30
-3.6E-15
41
1
10
-11.7041073357762
20
23.5046430128462
30
-3.6E-15
41
1
10
-12.0090937700682
20
23.5274779717247
30
-3.6E-15
41
1
10
-12.2834458217636
20
23.5518050332026
30
-3.6E-15
41
1
10
-12.566459910846
20
23.5800669054419
30
-3.6E-15
41
1
10
-12.7668728669964
20
23.6027181457494
30
-3.6E-15
41
1
10
-12.9306483475838
20
23.6223042400349
30
-3.6E-15
41
1
10
-13.0451119503424
20
23.636378163294
30
-3.6E-15
41
1
10
-13.1785901938649
20
23.6531825664166
30
-3.6E-15
41
1
10
-13.2448634289545
20
23.6620375451157
30
-3.6E-15
41
1
10
-13.1623386602863
20
23.650984390095
30
-3.6E-15
41
1
10
-12.9185817893758
20
23.6206145015253
30
-3.6E-15
41
1
10
-12.5351091728586
20
23.5756797813554
30
-3.6E-15
41
1
10
-12.1864441516829
20
23.5424898885732
30
-3.6E-15
41
1
10
-11.9926039745383
20
23.5267978615035
30
-3.6E-15
0
SPLINE
5
CB
100
AcDbEntity
8
SK1
62
256
6
ByLayer
370
18
48
1
60
0
100
AcDbSpline
70
4
71
3
72
28
73
24
40
0
40
0
40
0
40
0
40
0.0625000000000004
40
0.0625000000000004
40
0.0937500000000012
40
0.0937500000000012
40
0.125000000000002
40
0.125000000000002
40
0.187500000000003
40
0.187500000000003
40
0.250000000000003
40
0.250000000000003
40
0.312500000000004
40
0.312500000000004
40
0.375000000000004
40
0.375000000000004
40
0.500000000000003
40
0.500000000000003
40
0.625000000000003
40
0.625000000000003
40
0.750000000000002
40
0.750000000000002
40
1
40
1
40
1
40
1
41
1
10
-25.9833434997541
20
-20.5310987896623
30
-3.6E-15
41
1
10
-25.986747441169
20
-20.4929087866349
30
-3.6E-15
41
1
10
-25.9809200317931
20
-20.4550640119658
30
-3.6E-15
41
1
10
-25.9590521996609
20
-20.3987877548613
30
-3.6E-15
41
1
10
-25.9495684407575
20
-20.3801557817123
30
-3.6E-15
41
1
10
-25.9269103792583
20
-20.3437524001574
30
-3.6E-15
41
1
10
-25.913703956335
20
-20.3258872551723
30
-3.6E-15
41
1
10
-25.8690266895955
20
-20.2731985289794
30
-3.6E-15
41
1
10
-25.8325202493392
20
-20.2392776407826
30
-3.6E-15
41
1
10
-25.7484454708322
20
-20.1734188465688
30
-3.6E-15
41
1
10
-25.7016461881317
20
-20.1420705509695
30
-3.6E-15
41
1
10
-25.6010398129097
20
-20.0819298668876
30
-3.6E-15
41
1
10
-25.5471770614407
20
-20.0531112354522
30
-3.6E-15
41
1
10
-25.4338202015684
20
-19.9974542233869
30
-3.6E-15
41
1
10
-25.3744309983715
20
-19.970685854792
30
-3.6E-15
41
1
10
-25.1917898628874
20
-19.8937213442123
30
-3.6E-15
41
1
10
-25.0633566338281
20
-19.8464198311911
30
-3.6E-15
41
1
10
-24.7977509432146
20
-19.7570664709181
30
-3.6E-15
41
1
10
-24.6605180310536
20
-19.7150509364066
30
-3.6E-15
41
1
10
-24.3796787987832
20
-19.6348483799631
30
-3.6E-15
41
1
10
-24.2359750148456
20
-19.5966625616912
30
-3.6E-15
41
1
10
-23.8000916308777
20
-19.4871263917511
30
-3.6E-15
41
1
10
-23.5022997397727
20
-19.4204280728149
30
-3.6E-15
41
1
10
-23.2
20
-19.3576886388614
30
-3.6E-15
0
SPLINE
5
CC
100
AcDbEntity
8
SK1
62
256
6
ByLayer
370
18
48
1
60
0
100
AcDbSpline
70
4
71
3
72
30
73
26
40
0
40
0
40
0
40
0
40
0.249999999999999
40
0.249999999999999
40
0.499999999999999
40
0.499999999999999
40
0.624999999999998
40
0.624999999999998
40
0.749999999999998
40
0.749999999999998
40
0.812499999999997
40
0.812499999999997
40
0.874999999999996
40
0.874999999999996
40
0.906249999999996
40
0.906249999999996
40
0.937499999999997
40
0.937499999999997
40
0.953124999999997
40
0.953124999999997
40
0.968749999999998
40
0.968749999999998
40
0.984374999999999
40
0.984374999999999
40
1
40
1
40
1
40
1
41
1
10
-30.7499999999997
20
-20.843600317313
30
-3.6E-15
41
1
10
-30.3336766076461
20
-20.8418652730109
30
-3.6E-15
41
1
10
-29.9178550036699
20
-20.8384607786367
30
-3.6E-15
41
1
10
-29.0877551454985
20
-20.8264786661434
30
-3.6E-15
41
1
10
-28.6734404424414
20
-20.8180050811679
30
-3.6E-15
41
1
10
-28.0546862759623
20
-20.7982620257104
30
-3.6E-15
41
1
10
-27.8488729842401
20
-20.7904902041593
30
-3.6E-15
41
1
10
-27.439048386228
20
-20.7712160907319
30
-3.6E-15
41
1
10
-27.2348687875071
20
-20.7597872912845
30
-3.6E-15
41
1
10
-26.9316418845665
20
-20.737497802899
30
-3.6E-15
41
1
10
-26.8310119257088
20
-20.7291912460716
30
-3.6E-15
41
1
10
-26.6317641109778
20
-20.7098294960702
30
-3.6E-15
41
1
10
-26.5329427118044
20
-20.6988181113995
30
-3.6E-15
41
1
10
-26.3881227180124
20
-20.6785003944229
30
-3.6E-15
41
1
10
-26.3403509548947
20
-20.6710718462798
30
-3.6E-15
41
1
10
-26.247054497333
20
-20.6542176998198
30
-3.6E-15
41
1
10
-26.2015616320205
20
-20.6448499671326
30
-3.6E-15
41
1
10
-26.1366481618318
20
-20.6280899227181
30
-3.6E-15
41
1
10
-26.115519112861
20
-20.6220209297699
30
-3.6E-15
41
1
10
-26.0756245801633
20
-20.6086419401172
30
-3.6E-15
41
1
10
-26.0566408277484
20
-20.6012658600439
30
-3.6E-15
41
1
10
-26.0231686166399
20
-20.5847495385494
30
-3.6E-15
41
1
10
-26.0087114895168
20
-20.5756969750137
30
-3.6E-15
41
1
10
-25.9878898517769
20
-20.5547707624094
30
-3.6E-15
41
1
10
-25.982265735216
20
-20.5431906049352
30
-3.6E-15
41
1
10
-25.9833434997493
20
-20.5310987896625
30
-3.6E-15
0
SPLINE
5
CD
100
AcDbEntity
8
SK1
62
256
6
ByLayer
370
18
48
1
60
0
100
AcDbSpline
70
4
71
3
72
12
73
8
40
0
40
0
40
0
40
0
40
0.250000000000001
40
0.250000000000001
40
0.500000000000002
40
0.500000000000002
40
1
40
1
40
1
40
1
41
1
10
-27.2
20
20.7793761248443
30
-3.6E-15
41
1
10
-27.4930169396388
20
20.7933253891618
30
-3.6E-15
41
1
10
-27.7872843517739
20
20.8034860351553
30
-3.6E-15
41
1
10
-28.3771606131415
20
20.8197595020288
30
-3.6E-15
41
1
10
-28.6727964488951
20
20.8257901832184
30
-3.6E-15
41
1
10
-29.5610680020744
20
20.8397833747407
30
-3.6E-15
41
1
10
-30.1550416961173
20
20.843726390558
30
-3.6E-15
41
1
10
-30.75
20
20.8447435124634
30
-3.6E-15
0
SPLINE
5
CE
100
AcDbEntity
8
SK1
62
256
6
ByLayer
370
18
48
1
60
0
100
AcDbSpline
70
4
71
3
72
37
73
33
40
0
40
0
40
0
40
0
40
0.125000000000001
40
0.125000000000001
40
0.250000000000001
40
0.250000000000001
40
0.375000000000001
40
0.375000000000001
40
0.500000000000001
40
0.500000000000001
40
0.562500000000001
40
0.562500000000001
40
0.625000000000001
40
0.625000000000001
40
0.687500000000001
40
0.687500000000001
40
0.750000000000001
40
0.750000000000001
40
0.812500000000001
40
0.812500000000001
40
0.875000000000001
40
0.875000000000001
40
0.906250000000002
40
0.906250000000002
40
0.937500000000002
40
0.937500000000002
40
0.953125000000002
40
0.953125000000002
40
0.968750000000001
40
0.984375000000001
40
0.984375000000001
40
1
40
1
40
1
40
1
41
1
10
-25.8
20
21.8338164768251
30
-3.6E-15
41
1
10
-25.8
20
21.7915616932458
30
-3.6E-15
41
1
10
-25.8090351025927
20
21.7478886231866
30
-3.6E-15
41
1
10
-25.8431548692958
20
21.6578071143861
30
-3.6E-15
41
1
10
-25.8684641645678
20
21.611182144405
30
-3.6E-15
41
1
10
-25.9323193271322
20
21.5174811379226
30
-3.6E-15
41
1
10
-25.970895045869
20
21.4701766351094
30
-3.6E-15
41
1
10
-26.0597609446709
20
21.3747376968519
30
-3.6E-15
41
1
10
-26.110046951095
20
21.3266019341388
30
-3.6E-15
41
1
10
-26.1937594442119
20
21.2538676785148
30
-3.6E-15
41
1
10
-26.2230510956807
20
21.2295349064355
30
-3.6E-15
41
1
10
-26.2844522605555
20
21.1807194780491
30
-3.6E-15
41
1
10
-26.3166157214402
20
21.1561959848264
30
-3.6E-15
41
1
10
-26.3836133703914
20
21.1072837145488
30
-3.6E-15
41
1
10
-26.4184363723703
20
21.0828939039856
30
-3.6E-15
41
1
10
-26.4910775441697
20
21.0343527408063
30
-3.6E-15
41
1
10
-26.5289288892006
20
21.0101707773758
30
-3.6E-15
41
1
10
-26.6081703997843
20
20.9624296091495
30
-3.6E-15
41
1
10
-26.64952079047
20
20.9388574261358
30
-3.6E-15
41
1
10
-26.7375692634737
20
20.8928909727541
30
-3.6E-15
41
1
10
-26.7838545339876
20
20.8706217710799
30
-3.6E-15
41
1
10
-26.8596629929598
20
20.8397526331818
30
-3.6E-15
41
1
10
-26.8860248460639
20
20.8298902068594
30
-3.6E-15
41
1
10
-26.942245314389
20
20.8115902088129
30
-3.6E-15
41
1
10
-26.9716079141475
20
20.8033202107097
30
-3.6E-15
41
1
10
-27.0182080981107
20
20.793092579121
30
-3.6E-15
41
1
10
-27.0343198512967
20
20.7900288355796
30
-3.6E-15
41
1
10
-27.0667844525407
20
20.7849461963152
30
-3.6E-15
41
1
10
-27.0995297022306
20
20.7808835265937
30
-3.6E-15
41
1
10
-27.1328814273506
20
20.7790296636821
30
-3.6E-15
41
1
10
-27.1665526773181
20
20.7783398272713
30
-3.6E-15
41
1
10
-27.1834248638181
20
20.7785870545738
30
-3.6E-15
41
1
10
-27.2000000000001
20
20.7793761248439
30
-3.6E-15
0
SPLINE
5
CF
100
AcDbEntity
8
SK1
62
256
6
ByLayer
370
18
48
1
60
0
100
AcDbSpline
70
4
71
3
72
36
73
32
40
0
40
0
40
0
40
0
40
0.0312499999999915
40
0.0312499999999915
40
0.0468749999999886
40
0.0468749999999886
40
0.0624999999999857
40
0.0624999999999857
40
0.0937499999999841
40
0.0937499999999841
40
0.124999999999983
40
0.124999999999983
40
0.156249999999981
40
0.156249999999981
40
0.187499999999979
40
0.187499999999979
40
0.24999999999998
40
0.24999999999998
40
0.374999999999983
40
0.374999999999983
40
0.499999999999986
40
0.499999999999986
40
0.624999999999989
40
0.624999999999989
40
0.749999999999993
40
0.749999999999993
40
0.812499999999995
40
0.812499999999995
40
0.874999999999996
40
0.874999999999996
40
1
40
1
40
1
40
1
41
1
10
-27.2
20
20.7793761248443
30
-3.6E-15
41
1
10
-27.1666805145537
20
20.7777899288039
30
-3.6E-15
41
1
10
-27.1332175424643
20
20.77843004824
30
-3.6E-15
41
1
10
-27.0827943905113
20
20.7829493388767
30
-3.6E-15
41
1
10
-27.0659180084855
20
20.7850616309873
30
-3.6E-15
41
1
10
-27.0332870835235
20
20.7902119524288
30
-3.6E-15
41
1
10
-27.0173677556793
20
20.7932596627875
30
-3.6E-15
41
1
10
-26.9705997473264
20
20.8035777233308
30
-3.6E-15
41
1
10
-26.9407442846083
20
20.8120376065656
30
-3.6E-15
41
1
10
-26.8847991824106
20
20.8303324180393
30
-3.6E-15
41
1
10
-26.8583437526901
20
20.8402545326164
30
-3.6E-15
41
1
10
-26.8074049903024
20
20.8610695110527
30
-3.6E-15
41
1
10
-26.7828712710271
20
20.8720018511422
30
-3.6E-15
41
1
10
-26.7358534264654
20
20.8942177701968
30
-3.6E-15
41
1
10
-26.7132821392655
20
20.9055386534058
30
-3.6E-15
41
1
10
-26.6476112160703
20
20.9399224832489
30
-3.6E-15
41
1
10
-26.6065139558215
20
20.9633954189015
30
-3.6E-15
41
1
10
-26.4884270189212
20
21.0346382758524
30
-3.6E-15
41
1
10
-26.4165523691873
20
21.0832114355556
30
-3.6E-15
41
1
10
-26.2824780347647
20
21.1811436004347
30
-3.6E-15
41
1
10
-26.2213464728079
20
21.2298882819893
30
-3.6E-15
41
1
10
-26.1099825060106
20
21.3266681532838
30
-3.6E-15
41
1
10
-26.0597965702386
20
21.3747091828874
30
-3.6E-15
41
1
10
-25.9710791754534
20
21.4699691636667
30
-3.6E-15
41
1
10
-25.9325517882965
20
21.5171894328875
30
-3.6E-15
41
1
10
-25.8846903846801
20
21.5873473920889
30
-3.6E-15
41
1
10
-25.8703981291029
20
21.6106215448052
30
-3.6E-15
41
1
10
-25.8454293651314
20
21.6569393475852
30
-3.6E-15
41
1
10
-25.8347865629087
20
21.6799475857442
30
-3.6E-15
41
1
10
-25.8090693821217
20
21.7477054179073
30
-3.6E-15
41
1
10
-25.8
20
21.7914828596695
30
-3.6E-15
41
1
10
-25.8
20
21.8338164768251
30
-3.6E-15
0
SPLINE
5
D0
100
AcDbEntity
8
SK1
62
256
6
ByLayer
370
18
48
1
60
0
100
AcDbSpline
70
4
71
3
72
12
73
8
40
0
40
0
40
0
40
0
40
0.500000000000001
40
0.500000000000001
40
0.750000000000001
40
0.750000000000001
40
1
40
1
40
1
40
1
41
1
10
-30.75
20
20.8447435124634
30
-3.6E-15
41
1
10
-30.1550416961173
20
20.843726390558
30
-3.6E-15
41
1
10
-29.5610680020744
20
20.8397833747407
30
-3.6E-15
41
1
10
-28.6727964488951
20
20.8257901832184
30
-3.6E-15
41
1
10
-28.3771606131415
20
20.8197595020288
30
-3.6E-15
41
1
10
-27.7872843517739
20
20.8034860351553
30
-3.6E-15
41
1
10
-27.4930169396388
20
20.7933253891618
30
-3.6E-15
41
1
10
-27.2
20
20.7793761248443
30
-3.6E-15
0
SPLINE
5
D1
100
AcDbEntity
8
1
62
256
6
ByLayer
370
18
48
1
60
0
100
AcDbSpline
70
4
71
3
72
14
73
10
40
0
40
0
40
0
40
0
40
0.25
40
0.25
40
0.5
40
0.5
40
0.75
40
0.75
40
1
40
1
40
1
40
1
41
1
10
16.075
20
26.697103190234
30
-3.6E-15
41
1
10
16.075
20
26.6695414117566
30
-3.6E-15
41
1
10
16.0775874718976
20
26.6424171734537
30
-3.6E-15
41
1
10
16.087746020241
20
26.5890114218281
30
-3.6E-15
41
1
10
16.0954223887335
20
26.5624823156656
30
-3.6E-15
41
1
10
16.1156403679707
20
26.5115709614516
30
-3.6E-15
41
1
10
16.1280405760953
20
26.4873887623806
30
-3.6E-15
41
1
10
16.1574297087316
20
26.4415748104389
30
-3.6E-15
41
1
10
16.1745642707973
20
26.4198178489387
30
-3.6E-15
41
1
10
16.1937397274627
20
26.4
30
-3.6E-15
0
SPLINE
5
D2
100
AcDbEntity
8
1
62
256
6
ByLayer
370
18
48
1
60
0
100
AcDbSpline
70
4
71
3
72
14
73
10
40
0
40
0
40
0
40
0
40
0.25
40
0.25
40
0.5
40
0.5
40
0.75
40
0.75
40
1
40
1
40
1
40
1
41
1
10
19.8062602725373
20
26.4
30
-3.6E-15
41
1
10
19.8254284358842
20
26.4198103112886
30
-3.6E-15
41
1
10
19.842285623029
20
26.4411937101347
30
-3.6E-15
41
1
10
19.8716842168587
20
26.4868982708972
30
-3.6E-15
41
1
10
19.8843197277938
20
26.511491084155
30
-3.6E-15
41
1
10
19.9045297125044
20
26.5623411835957
30
-3.6E-15
41
1
10
19.9121139096828
20
26.5884468032938
30
-3.6E-15
41
1
10
19.9223626329816
20
26.6419862665983
30
-3.6E-15
41
1
10
19.925
20
26.6695539934751
30
-3.6E-15
41
1
10
19.925
20
26.697103190234
30
-3.6E-15
0
SPLINE
5
D3
100
AcDbEntity
8
1
62
256
6
ByLayer
370
18
48
1
60
0
100
AcDbSpline
70
4
71
3
72
8
73
4
40
0
40
0
40
0
40
0
40
1
40
1
40
1
40
1
41
1
10
14.6253876765866
20
-30.1503829784963
30
-3.6E-15
41
1
10
15.1100404143128
20
-29.2741992018061
30
-3.6E-15
41
1
10
15.5933771502786
20
-28.3972829993794
30
-3.6E-15
41
1
10
16.075
20
-27.5194446025754
30
-3.6E-15
0
SPLINE
5
D4
100
AcDbEntity
8
1
62
256
6
ByLayer
370
18
48
1
60
0
100
AcDbSpline
70
4
71
3
72
8
73
4
40
0
40
0
40
0
40
0
40
1
40
1
40
1
40
1
41
1
10
19.925
20
-27.5194446025754
30
-3.6E-15
41
1
10
20.4066228497215
20
-28.3972829993793
30
-3.6E-15
41
1
10
20.8899595856872
20
-29.2741992018061
30
-3.6E-15
41
1
10
21.3746123234134
20
-30.1503829784963
30
-3.6E-15
0
SPLINE
5
D5
100
AcDbEntity
8
SK1
62
256
6
ByLayer
370
18
48
1
60
0
100
AcDbSpline
70
4
71
3
72
30
73
26
40
0
40
0
40
0
40
0
40
0.0156249999999992
40
0.0156249999999992
40
0.0312499999999984
40
0.0312499999999984
40
0.0468749999999977
40
0.0468749999999977
40
0.0624999999999969
40
0.0624999999999969
40
0.0937499999999966
40
0.0937499999999966
40
0.124999999999996
40
0.124999999999996
40
0.187499999999995
40
0.187499999999995
40
0.249999999999995
40
0.249999999999995
40
0.374999999999996
40
0.374999999999996
40
0.499999999999996
40
0.499999999999996
40
0.749999999999998
40
0.749999999999998
40
1
40
1
40
1
40
1
41
1
10
-25.983343499749
20
-20.5310987896625
30
-3.6E-15
41
1
10
-25.9822657352158
20
-20.5431906049353
30
-3.6E-15
41
1
10
-25.9878898517768
20
-20.5547707624094
30
-3.6E-15
41
1
10
-26.0087114895166
20
-20.5756969750137
30
-3.6E-15
41
1
10
-26.0231686166397
20
-20.5847495385494
30
-3.6E-15
41
1
10
-26.0566408277483
20
-20.6012658600439
30
-3.6E-15
41
1
10
-26.0756245801632
20
-20.6086419401173
30
-3.6E-15
41
1
10
-26.1155191128608
20
-20.6220209297699
30
-3.6E-15
41
1
10
-26.1366481618316
20
-20.6280899227182
30
-3.6E-15
41
1
10
-26.2015616320203
20
-20.6448499671327
30
-3.6E-15
41
1
10
-26.2470544973328
20
-20.6542176998198
30
-3.6E-15
41
1
10
-26.3403509548946
20
-20.6710718462798
30
-3.6E-15
41
1
10
-26.3881227180122
20
-20.6785003944229
30
-3.6E-15
41
1
10
-26.5329427118043
20
-20.6988181113995
30
-3.6E-15
41
1
10
-26.6317641109776
20
-20.7098294960702
30
-3.6E-15
41
1
10
-26.8310119257086
20
-20.7291912460716
30
-3.6E-15
41
1
10
-26.9316418845664
20
-20.737497802899
30
-3.6E-15
41
1
10
-27.2348687875069
20
-20.7597872912845
30
-3.6E-15
41
1
10
-27.4390483862279
20
-20.771216090732
30
-3.6E-15
41
1
10
-27.84887298424
20
-20.7904902041593
30
-3.6E-15
41
1
10
-28.0546862759622
20
-20.7982620257104
30
-3.6E-15
41
1
10
-28.6734404424413
20
-20.818005081168
30
-3.6E-15
41
1
10
-29.0877551454984
20
-20.8264786661434
30
-3.6E-15
41
1
10
-29.9178550036698
20
-20.8384607786367
30
-3.6E-15
41
1
10
-30.3336766076461
20
-20.8418652730109
30
-3.6E-15
41
1
10
-30.7499999999997
20
-20.8436003173131
30
-3.6E-15
0
SPLINE
5
D6
100
AcDbEntity
8
SK1
62
256
6
ByLayer
370
18
48
1
60
0
100
AcDbSpline
70
4
71
3
72
28
73
24
40
0
40
0
40
0
40
0
40
0.249999999999999
40
0.249999999999999
40
0.374999999999998
40
0.374999999999998
40
0.499999999999998
40
0.499999999999998
40
0.624999999999997
40
0.624999999999997
40
0.687499999999997
40
0.687499999999997
40
0.749999999999998
40
0.749999999999998
40
0.812499999999998
40
0.812499999999998
40
0.874999999999998
40
0.874999999999998
40
0.906249999999999
40
0.906249999999999
40
0.937499999999999
40
0.937499999999999
40
1
40
1
40
1
40
1
41
1
10
-23.1999999999931
20
-19.35768863886
30
-3.6E-15
41
1
10
-23.5022997397664
20
-19.4204280728136
30
-3.6E-15
41
1
10
-23.800091630872
20
-19.4871263917498
30
-3.6E-15
41
1
10
-24.2359750148409
20
-19.59666256169
30
-3.6E-15
41
1
10
-24.3796787987788
20
-19.6348483799619
30
-3.6E-15
41
1
10
-24.6605180310499
20
-19.7150509364055
30
-3.6E-15
41
1
10
-24.7977509432112
20
-19.757066470917
30
-3.6E-15
41
1
10
-25.0633566338253
20
-19.8464198311902
30
-3.6E-15
41
1
10
-25.1917898628849
20
-19.8937213442114
30
-3.6E-15
41
1
10
-25.3744309983695
20
-19.9706858547912
30
-3.6E-15
41
1
10
-25.4338202015665
20
-19.9974542233861
30
-3.6E-15
41
1
10
-25.5471770614392
20
-20.0531112354514
30
-3.6E-15
41
1
10
-25.6010398129083
20
-20.0819298668869
30
-3.6E-15
41
1
10
-25.7016461881306
20
-20.1420705509689
30
-3.6E-15
41
1
10
-25.7484454708313
20
-20.1734188465682
30
-3.6E-15
41
1
10
-25.8325202493385
20
-20.2392776407821
30
-3.6E-15
41
1
10
-25.869026689595
20
-20.273198528979
30
-3.6E-15
41
1
10
-25.9137039563347
20
-20.3258872551719
30
-3.6E-15
41
1
10
-25.9269103792579
20
-20.3437524001571
30
-3.6E-15
41
1
10
-25.9495684407573
20
-20.380155781712
30
-3.6E-15
41
1
10
-25.9590521996607
20
-20.3987877548611
30
-3.6E-15
41
1
10
-25.980920031793
20
-20.4550640119657
30
-3.6E-15
41
1
10
-25.9867474411689
20
-20.4929087866348
30
-3.6E-15
41
1
10
-25.983343499754
20
-20.5310987896623
30
-3.6E-15
0
SPLINE
5
D7
100
AcDbEntity
8
SK1
62
256
6
ByLayer
370
18
48
1
60
0
100
AcDbSpline
70
4
71
3
72
34
73
30
40
0
40
0
40
0
40
0
40
0.250000000000003
40
0.250000000000003
40
0.375000000000005
40
0.375000000000005
40
0.500000000000007
40
0.500000000000007
40
0.625000000000009
40
0.625000000000009
40
0.750000000000011
40
0.750000000000011
40
0.812500000000011
40
0.812500000000011
40
0.84375000000001
40
0.84375000000001
40
0.875000000000009
40
0.875000000000009
40
0.906250000000008
40
0.906250000000008
40
0.937500000000006
40
0.937500000000006
40
0.953125000000005
40
0.953125000000005
40
0.968750000000003
40
0.968750000000003
40
0.984375000000002
40
0.984375000000002
40
1
40
1
40
1
40
1
41
1
10
-22.5254125626117
20
-20.6854597771061
30
-3.6E-15
41
1
10
-22.5244550534262
20
-20.5779551485374
30
-3.6E-15
41
1
10
-22.5306355272011
20
-20.4670042740819
30
-3.6E-15
41
1
10
-22.5519578973343
20
-20.2953987553363
30
-3.6E-15
41
1
10
-22.5611119763531
20
-20.2373044594602
30
-3.6E-15
41
1
10
-22.5842152608137
20
-20.119664058216
30
-3.6E-15
41
1
10
-22.5981500559933
20
-20.0600911274667
30
-3.6E-15
41
1
10
-22.6322186589281
20
-19.9394840782477
30
-3.6E-15
41
1
10
-22.6523032430755
20
-19.8784768766843
30
-3.6E-15
41
1
10
-22.7013750915085
20
-19.755583378683
30
-3.6E-15
41
1
10
-22.7302035079921
20
-19.6935958441747
30
-3.6E-15
41
1
10
-22.7852233103389
20
-19.6009846133224
30
-3.6E-15
41
1
10
-22.8055520623148
20
-19.5701907667362
30
-3.6E-15
41
1
10
-22.8406386251634
20
-19.5246811232429
30
-3.6E-15
41
1
10
-22.8531158065026
20
-19.5096163639942
30
-3.6E-15
41
1
10
-22.8802277314148
20
-19.4798148026198
30
-3.6E-15
41
1
10
-22.8948406627662
20
-19.4650982225021
30
-3.6E-15
41
1
10
-22.9268226041828
20
-19.43659542052
30
-3.6E-15
41
1
10
-22.9441868001886
20
-19.422759627011
30
-3.6E-15
41
1
10
-22.9835693627211
20
-19.3965640828085
30
-3.6E-15
41
1
10
-23.0052536753265
20
-19.3843797831742
30
-3.6E-15
41
1
10
-23.0426800591108
20
-19.3691669549368
30
-3.6E-15
41
1
10
-23.0557296234281
20
-19.3647294458224
30
-3.6E-15
41
1
10
-23.0833350582274
20
-19.3575246989735
30
-3.6E-15
41
1
10
-23.0980298949964
20
-19.3547735307202
30
-3.6E-15
41
1
10
-23.1275199061767
20
-19.3516825085833
30
-3.6E-15
41
1
10
-23.1427255829192
20
-19.351309497108
30
-3.6E-15
41
1
10
-23.172038099307
20
-19.3529093844658
30
-3.6E-15
41
1
10
-23.1863099503835
20
-19.3548473993453
30
-3.6E-15
41
1
10
-23.2
20
-19.3576886388527
30
-3.6E-15
0
SPLINE
5
D8
100
AcDbEntity
8
SK1
62
256
6
ByLayer
370
18
48
1
60
0
100
AcDbSpline
70
4
71
3
72
14
73
10
40
0
40
0
40
0
40
0
40
0.25
40
0.25
40
0.5
40
0.5
40
0.75
40
0.75
40
1
40
1
40
1
40
1
41
1
10
-31.0357333714545
20
-20.2765084915182
30
-3.6E-15
41
1
10
-31.0360324394694
20
-20.3231086595773
30
-3.6E-15
41
1
10
-31.0284946262368
20
-20.3708213820014
30
-3.6E-15
41
1
10
-31.0000533775866
20
-20.4672812768743
30
-3.6E-15
41
1
10
-30.9792233374834
20
-20.5160067941274
30
-3.6E-15
41
1
10
-30.9282249405816
20
-20.6119659154218
30
-3.6E-15
41
1
10
-30.8983259051146
20
-20.6587902257187
30
-3.6E-15
41
1
10
-30.8329208688221
20
-20.748742944439
30
-3.6E-15
41
1
10
-30.7973998476959
20
-20.7918776962568
30
-3.6E-15
41
1
10
-30.7600449304224
20
-20.8327231975001
30
-3.6E-15
0
SPLINE
5
D9
100
AcDbEntity
8
SK1
62
256
6
ByLayer
370
18
48
1
60
0
100
AcDbSpline
70
4
71
3
72
56
73
52
40
0
40
0
40
0
40
0
40
0.124999999999996
40
0.124999999999996
40
0.249999999999991
40
0.249999999999991
40
0.312499999999989
40
0.312499999999989
40
0.343749999999988
40
0.343749999999988
40
0.374999999999986
40
0.374999999999986
40
0.406249999999985
40
0.406249999999985
40
0.437499999999984
40
0.437499999999984
40
0.453124999999983
40
0.453124999999983
40
0.468749999999983
40
0.468749999999983
40
0.476562499999982
40
0.476562499999982
40
0.484374999999981
40
0.484374999999981
40
0.488281249999982
40
0.488281249999982
40
0.492187499999982
40
0.492187499999982
40
0.499999999999983
40
0.499999999999983
40
0.507812499999983
40
0.507812499999983
40
0.515624999999984
40
0.515624999999984
40
0.531249999999984
40
0.531249999999984
40
0.562499999999985
40
0.562499999999985
40
0.593749999999986
40
0.593749999999986
40
0.624999999999987
40
0.624999999999987
40
0.656249999999988
40
0.656249999999988
40
0.687499999999989
40
0.687499999999989
40
0.749999999999991
40
0.749999999999991
40
0.874999999999995
40
0.874999999999995
40
1
40
1
40
1
40
1
41
1
10
-31.8520769994518
20
-19.549140992993
30
-3.6E-15
41
1
10
-31.8523142442723
20
-19.4259332515627
30
-3.6E-15
41
1
10
-31.850590429245
20
-19.3045317884342
30
-3.6E-15
41
1
10
-31.8421254617684
20
-19.0663501937134
30
-3.6E-15
41
1
10
-31.835503426183
20
-18.9494603468531
30
-3.6E-15
41
1
10
-31.8181760824038
20
-18.7809362541281
30
-3.6E-15
41
1
10
-31.811142430417
20
-18.7259201466917
30
-3.6E-15
41
1
10
-31.7974160343969
20
-18.6463212363145
30
-3.6E-15
41
1
10
-31.7923035610278
20
-18.620282889518
30
-3.6E-15
41
1
10
-31.7805943232573
20
-18.569573335581
30
-3.6E-15
41
1
10
-31.7739932718016
20
-18.5448594111752
30
-3.6E-15
41
1
10
-31.7586685044227
20
-18.4976396467586
30
-3.6E-15
41
1
10
-31.7499725428423
20
-18.4751260776295
30
-3.6E-15
41
1
10
-31.7292069108833
20
-18.4336774225343
30
-3.6E-15
41
1
10
-31.7172335207132
20
-18.4146402124298
30
-3.6E-15
41
1
10
-31.6943026084396
20
-18.3913569391123
30
-3.6E-15
41
1
10
-31.6858216606512
20
-18.3844839806874
30
-3.6E-15
41
1
10
-31.6659471341295
20
-18.3738274830554
30
-3.6E-15
41
1
10
-31.6545229862217
20
-18.3699733391608
30
-3.6E-15
41
1
10
-31.6337417185011
20
-18.369221720524
30
-3.6E-15
41
1
10
-31.6261307313338
20
-18.3698195123675
30
-3.6E-15
41
1
10
-31.6090203237243
20
-18.3737692721595
30
-3.6E-15
41
1
10
-31.5995588441107
20
-18.3771137080347
30
-3.6E-15
41
1
10
-31.5836573443834
20
-18.3853219596731
30
-3.6E-15
41
1
10
-31.5781462040021
20
-18.3885552255392
30
-3.6E-15
41
1
10
-31.566620995376
20
-18.3962088352894
30
-3.6E-15
41
1
10
-31.5605459732758
20
-18.4006884841999
30
-3.6E-15
41
1
10
-31.5424054151522
20
-18.4154284590188
30
-3.6E-15
41
1
10
-31.5299171137801
20
-18.4274399644696
30
-3.6E-15
41
1
10
-31.5066045691178
20
-18.4527690358028
30
-3.6E-15
41
1
10
-31.4955088368167
20
-18.4662976300658
30
-3.6E-15
41
1
10
-31.4751788547803
20
-18.4930001132794
30
-3.6E-15
41
1
10
-31.4657890662711
20
-18.5063399731129
30
-3.6E-15
41
1
10
-31.4391070344025
20
-18.5463377151007
30
-3.6E-15
41
1
10
-31.4239109812795
20
-18.5719597642541
30
-3.6E-15
41
1
10
-31.3820415080946
20
-18.6471216095473
30
-3.6E-15
41
1
10
-31.3589672570745
20
-18.6953485468951
30
-3.6E-15
41
1
10
-31.3179327944679
20
-18.7878726182535
30
-3.6E-15
41
1
10
-31.2999927016893
20
-18.8324128835935
30
-3.6E-15
41
1
10
-31.2671500297369
20
-18.9194640701856
30
-3.6E-15
41
1
10
-31.2522953100705
20
-18.961943016796
30
-3.6E-15
41
1
10
-31.2248167084407
20
-19.0454105011191
30
-3.6E-15
41
1
10
-31.2122051218821
20
-19.0863908243476
30
-3.6E-15
41
1
10
-31.1887570586475
20
-19.1671655308501
30
-3.6E-15
41
1
10
-31.1779262572268
20
-19.206960787522
30
-3.6E-15
41
1
10
-31.1478328333148
20
-19.3241821574425
30
-3.6E-15
41
1
10
-31.1308605367505
20
-19.3997346820818
30
-3.6E-15
41
1
10
-31.0869481909337
20
-19.6205096473059
30
-3.6E-15
41
1
10
-31.066915969154
20
-19.7599307042938
30
-3.6E-15
41
1
10
-31.040865764741
20
-20.0270032745996
30
-3.6E-15
41
1
10
-31.0349507902139
20
-20.1545682788753
30
-3.6E-15
41
1
10
-31.0357333714545
20
-20.2765084915182
30
-3.6E-15
0
SPLINE
5
DA
100
AcDbEntity
8
SK1
62
256
6
ByLayer
370
18
48
1
60
0
100
AcDbSpline
70
4
71
3
72
18
73
14
40
0
40
0
40
0
40
0
40
0.250000000000003
40
0.250000000000003
40
0.500000000000006
40
0.500000000000006
40
0.625000000000004
40
0.625000000000004
40
0.750000000000003
40
0.750000000000003
40
0.875000000000001
40
0.875000000000001
40
1
40
1
40
1
40
1
41
1
10
-31.9000000000003
20
-19.678184765919
30
-3.6E-15
41
1
10
-31.9000000000005
20
-19.6906441842049
30
-3.6E-15
41
1
10
-31.897134724877
20
-19.6989896656624
30
-3.6E-15
41
1
10
-31.8882034612181
20
-19.7052917948222
30
-3.6E-15
41
1
10
-31.8821263411134
20
-19.7032820698758
30
-3.6E-15
41
1
10
-31.8728387377679
20
-19.6900400366639
30
-3.6E-15
41
1
10
-31.869716040907
20
-19.6838764671391
30
-3.6E-15
41
1
10
-31.8639580307256
20
-19.6678633570058
30
-3.6E-15
41
1
10
-31.8613114634737
20
-19.658002520142
30
-3.6E-15
41
1
10
-31.8568721395891
20
-19.6342308206985
30
-3.6E-15
41
1
10
-31.8550811090395
20
-19.6203188395203
30
-3.6E-15
41
1
10
-31.8526621715551
20
-19.5880907294663
30
-3.6E-15
41
1
10
-31.8520374947761
20
-19.569656854461
30
-3.6E-15
41
1
10
-31.8520769994518
20
-19.549140992993
30
-3.6E-15
0
SPLINE
5
DB
100
AcDbEntity
8
SK1
62
256
6
ByLayer
370
18
48
1
60
0
100
AcDbSpline
70
4
71
3
72
14
73
10
40
0
40
0
40
0
40
0
40
0.25
40
0.25
40
0.5
40
0.5
40
0.75
40
0.75
40
1
40
1
40
1
40
1
41
1
10
-31.8423156651183
20
19.5578384055689
30
-3.6E-15
41
1
10
-31.8423091894368
20
19.5999545092391
30
-3.6E-15
41
1
10
-31.8455917378833
20
19.632485699749
30
-3.6E-15
41
1
10
-31.8566881179001
20
19.6799291409913
30
-3.6E-15
41
1
10
-31.8641941814282
20
19.6942133335597
30
-3.6E-15
41
1
10
-31.8789048656756
20
19.7086926317288
30
-3.6E-15
41
1
10
-31.886117982338
20
19.7089022277163
30
-3.6E-15
41
1
10
-31.8967110689172
20
19.6982686387963
30
-3.6E-15
41
1
10
-31.9
20
19.6874626428636
30
-3.6E-15
41
1
10
-31.9
20
19.6726615351915
30
-3.6E-15
0
SPLINE
5
DC
100
AcDbEntity
8
SK1
62
256
6
ByLayer
370
18
48
1
60
0
100
AcDbSpline
70
4
71
3
72
54
73
50
40
0
40
0
40
0
40
0
40
0.125000000000023
40
0.125000000000023
40
0.250000000000045
40
0.250000000000045
40
0.312500000000057
40
0.312500000000057
40
0.375000000000068
40
0.375000000000068
40
0.406250000000074
40
0.406250000000074
40
0.437500000000079
40
0.437500000000079
40
0.453125000000082
40
0.453125000000082
40
0.468750000000084
40
0.468750000000084
40
0.476562500000086
40
0.476562500000086
40
0.484375000000088
40
0.484375000000088
40
0.50000000000009
40
0.50000000000009
40
0.50390625000009
40
0.50390625000009
40
0.507812500000091
40
0.507812500000091
40
0.51562500000009
40
0.51562500000009
40
0.523437500000089
40
0.523437500000089
40
0.531250000000088
40
0.531250000000088
40
0.546875000000085
40
0.546875000000085
40
0.562500000000082
40
0.562500000000082
40
0.593750000000076
40
0.593750000000076
40
0.62500000000007
40
0.62500000000007
40
0.687500000000059
40
0.687500000000059
40
0.750000000000047
40
0.750000000000047
40
0.875000000000023
40
0.875000000000023
40
1
40
1
40
1
40
1
41
1
10
-31.0675798041839
20
20.2481331121842
30
-3.6E-15
41
1
10
-31.0675270596296
20
20.1339155356784
30
-3.6E-15
41
1
10
-31.0735498251318
20
20.0146004534606
30
-3.6E-15
41
1
10
-31.0985886373097
20
19.7650685993918
30
-3.6E-15
41
1
10
-31.1175078252541
20
19.6349330944518
30
-3.6E-15
41
1
10
-31.1586164093568
20
19.4290492129044
30
-3.6E-15
41
1
10
-31.174463091719
20
19.3586225326657
30
-3.6E-15
41
1
10
-31.2118452738115
20
19.2129961113654
30
-3.6E-15
41
1
10
-31.233342053215
20
19.1378139218668
30
-3.6E-15
41
1
10
-31.2716956560997
20
19.0210730068394
30
-3.6E-15
41
1
10
-31.2855209894063
20
18.981444429778
30
-3.6E-15
41
1
10
-31.3161148762584
20
18.9001655384288
30
-3.6E-15
41
1
10
-31.3329109071436
20
18.8583842201109
30
-3.6E-15
41
1
10
-31.3614991121028
20
18.7937918205051
30
-3.6E-15
41
1
10
-31.3715806086437
20
18.7719824134437
30
-3.6E-15
41
1
10
-31.3933048271967
20
18.7275757480736
30
-3.6E-15
41
1
10
-31.4049293491577
20
18.7049876741738
30
-3.6E-15
41
1
10
-31.4242412429821
20
18.6701593140635
30
-3.6E-15
41
1
10
-31.4309953543147
20
18.658389985115
30
-3.6E-15
41
1
10
-31.445393827093
20
18.6344020745796
30
-3.6E-15
41
1
10
-31.4530836938966
20
18.6221119103172
30
-3.6E-15
41
1
10
-31.4776337486889
20
18.5850613112172
30
-3.6E-15
41
1
10
-31.4962091563577
20
18.5595509902958
30
-3.6E-15
41
1
10
-31.5231044994983
20
18.5298240289923
30
-3.6E-15
41
1
10
-31.5287505612895
20
18.5239224979405
30
-3.6E-15
41
1
10
-31.5400350440642
20
18.512906048943
30
-3.6E-15
41
1
10
-31.5457188079803
20
18.5077351048779
30
-3.6E-15
41
1
10
-31.562908109726
20
18.4933433044005
30
-3.6E-15
41
1
10
-31.5739496407319
20
18.4858058385281
30
-3.6E-15
41
1
10
-31.5940555771122
20
18.4748268067758
30
-3.6E-15
41
1
10
-31.6030490569826
20
18.4713442228962
30
-3.6E-15
41
1
10
-31.6194279306193
20
18.4669788331318
30
-3.6E-15
41
1
10
-31.6266568105254
20
18.4661281167602
30
-3.6E-15
41
1
10
-31.6465952899331
20
18.4660000946664
30
-3.6E-15
41
1
10
-31.6575780118012
20
18.4691435930137
30
-3.6E-15
41
1
10
-31.6767017209795
20
18.4782739738849
30
-3.6E-15
41
1
10
-31.6849215107291
20
18.4843546857568
30
-3.6E-15
41
1
10
-31.7072201019517
20
18.5052627206645
30
-3.6E-15
41
1
10
-31.7190034404449
20
18.5227753662718
30
-3.6E-15
41
1
10
-31.739370752522
20
18.5609413366348
30
-3.6E-15
41
1
10
-31.7478705596817
20
18.5816413722693
30
-3.6E-15
41
1
10
-31.7703670152431
20
18.6466253171812
30
-3.6E-15
41
1
10
-31.7814132924851
20
18.6937425561478
30
-3.6E-15
41
1
10
-31.7996689558078
20
18.7916617154487
30
-3.6E-15
41
1
10
-31.8067731217691
20
18.8425646818117
30
-3.6E-15
41
1
10
-31.8244061221442
20
18.9988071124353
30
-3.6E-15
41
1
10
-31.831350309781
20
19.1076314108607
30
-3.6E-15
41
1
10
-31.8403664097762
20
19.3295453236176
30
-3.6E-15
41
1
10
-31.842333353774
20
19.4427961106813
30
-3.6E-15
41
1
10
-31.8423156651183
20
19.5578384055689
30
-3.6E-15
0
SPLINE
5
DD
100
AcDbEntity
8
SK1
62
256
6
ByLayer
370
18
48
1
60
0
100
AcDbSpline
70
4
71
3
72
16
73
12
40
0
40
0
40
0
40
0
40
0.25
40
0.25
40
0.5
40
0.5
40
0.75
40
0.75
40
0.875
40
0.875
40
1
40
1
40
1
40
1
41
1
10
-30.7600449304182
20
20.8343104848558
30
-3.6E-15
41
1
10
-30.8005304147289
20
20.7918881716243
30
-3.6E-15
41
1
10
-30.8391903518073
20
20.7469260622845
30
-3.6E-15
41
1
10
-30.9108217629842
20
20.652959171993
30
-3.6E-15
41
1
10
-30.9438142125759
20
20.6039429159936
30
-3.6E-15
41
1
10
-31.0007051028079
20
20.5035329800827
30
-3.6E-15
41
1
10
-31.0245900033694
20
20.4521521286422
30
-3.6E-15
41
1
10
-31.0497392687941
20
20.3751260560866
30
-3.6E-15
41
1
10
-31.0563287190666
20
20.3494639188075
30
-3.6E-15
41
1
10
-31.0652639534866
20
20.2984378669064
30
-3.6E-15
41
1
10
-31.0675912850395
20
20.2729947455574
30
-3.6E-15
41
1
10
-31.0675798041816
20
20.2481331121862
30
-3.6E-15
0
SPLINE
5
DE
100
AcDbEntity
8
1
62
256
6
ByLayer
370
18
48
1
60
0
100
AcDbSpline
70
4
71
3
72
8
73
4
40
0
40
0
40
0
40
0
40
1
40
1
40
1
40
1
41
1
10
25.95
20
23.7722190802626
30
-3.6E-15
41
1
10
25.7839067340009
20
23.9886022639538
30
-3.6E-15
41
1
10
25.6172286717524
20
24.2045340918968
30
-3.6E-15
41
1
10
25.45
20
24.4200409500066
30
-3.6E-15
0
SPLINE
5
DF
100
AcDbEntity
8
1
62
256
6
ByLayer
370
18
48
1
60
0
100
AcDbSpline
70
4
71
3
72
8
73
4
40
0
40
0
40
0
40
0
40
1
40
1
40
1
40
1
41
1
10
25.45
20
30.4315723180712
30
-3.6E-15
41
1
10
25.6167149861769
20
30.2591684553937
30
-3.6E-15
41
1
10
25.7833824731882
20
30.0867186469207
30
-3.6E-15
41
1
10
25.95
20
29.9142205940586
30
-3.6E-15
0
SPLINE
5
E0
100
AcDbEntity
8
1
62
256
6
ByLayer
370
18
48
1
60
0
100
AcDbSpline
70
4
71
3
72
8
73
4
40
0
40
0
40
0
40
0
40
1
40
1
40
1
40
1
41
1
10
25.95
20
-29.6281216709733
30
-3.6E-15
41
1
10
25.7833972663251
20
-29.802269958847
30
-3.6E-15
41
1
10
25.616729518114
20
-29.9763560701552
30
-3.6E-15
41
1
10
25.45
20
-30.1503829784963
30
-3.6E-15
0
LINE
5
74
100
AcDbEntity
8
81
62
256
6
ByLayer
370
13
48
1
60
0
100
AcDbLine
10
105
20
0
30
0
11
106.702963
21
0
31
0
39
0
210
0
220
0
230
1
0
LINE
5
75
100
AcDbEntity
8
80
62
256
6
ByLayer
370
13
48
1
60
0
100
AcDbLine
10
0
20
0
30
0
11
-5.557114
21
0
31
0
39
0
210
0
220
0
230
1
0
LINE
5
76
100
AcDbEntity
8
1
62
256
6
ByLayer
370
18
48
1
60
0
100
AcDbLine
10
80
20
12.05
30
0
11
30.986465
21
18.938403
31
0
39
0
210
0
220
0
230
1
0
LINE
5
78
100
AcDbEntity
8
1
62
256
6
ByLayer
370
18
48
1
60
0
100
AcDbLine
10
25.94953
20
25.966329
30
0
11
26.852701
21
22.595648
31
0
39
0
210
0
220
0
230
1
0
LINE
5
79
100
AcDbEntity
8
1
62
256
6
ByLayer
370
18
48
1
60
0
100
AcDbLine
10
25.949996
20
-25.96459
30
0
11
26.852701
21
-22.595648
31
0
39
0
210
0
220
0
230
1
0
LINE
5
7A
100
AcDbEntity
8
1
62
256
6
ByLayer
370
18
48
1
60
0
100
AcDbLine
10
80
20
-12.05
30
0
11
30.986465
21
-18.938403
31
0
39
0
210
0
220
0
230
1
0
LINE
5
7B
100
AcDbEntity
8
1
62
256
6
ByLayer
370
18
48
1
60
0
100
AcDbLine
10
80
20
12.05
30
0
11
105
21
12.05
31
0
39
0
210
0
220
0
230
1
0
LINE
5
7C
100
AcDbEntity
8
1
62
256
6
ByLayer
370
18
48
1
60
0
100
AcDbLine
10
80
20
-12.05
30
0
11
105
21
-12.05
31
0
39
0
210
0
220
0
230
1
0
LINE
5
7D
100
AcDbEntity
8
1
62
256
6
ByLayer
370
18
48
1
60
0
100
AcDbLine
10
80
20
12.05
30
0
11
80
21
-12.05
31
0
39
0
210
0
220
0
230
1
0
LINE
5
7E
100
AcDbEntity
8
1
62
256
6
ByLayer
370
18
48
1
60
0
100
AcDbLine
10
105
20
12.05
30
0
11
105
21
-12.05
31
0
39
0
210
0
220
0
230
1
0
LINE
5
7F
100
AcDbEntity
8
1
62
256
6
ByLayer
370
13
48
1
60
0
100
AcDbLine
10
30.986465
20
18.938403
30
0
11
30.986465
21
-18.938403
31
0
39
0
210
0
220
0
230
1
0
LINE
5
80
100
AcDbEntity
8
4
62
256
6
ByLayer
370
13
48
0.05
60
0
100
AcDbLine
10
0
20
0
30
0
11
105
21
0
31
0
39
0
210
0
220
0
230
1
0
LINE
5
82
100
AcDbEntity
8
SK4
62
256
6
ByLayer
370
13
48
0.05
60
0
100
AcDbLine
10
106.629709
20
0
30
0
11
-33.459442
21
0
31
0
39
0
210
0
220
0
230
1
0
LINE
5
84
100
AcDbEntity
8
SK1
62
256
6
ByLayer
370
18
48
1
60
0
100
AcDbLine
10
-30.75
20
20.844744
30
0
11
-31.891415
21
19.703585
31
0
39
0
210
0
220
0
230
1
0
LINE
5
86
100
AcDbEntity
8
1
62
256
6
ByLayer
370
18
48
1
60
0
100
AcDbLine
10
0
20
30.97
30
0
11
0.5
21
31.47
31
0
39
0
210
0
220
0
230
1
0
LINE
5
87
100
AcDbEntity
8
1
62
256
6
ByLayer
370
18
48
1
60
0
100
AcDbLine
10
0.5
20
-31.47
30
0
11
0.5
21
31.47
31
0
39
0
210
0
220
0
230
1
0
LINE
5
88
100
AcDbEntity
8
1
62
256
6
ByLayer
370
18
48
1
60
0
100
AcDbLine
10
0.5
20
-31.47
30
0
11
0
21
-30.97
31
0
39
0
210
0
220
0
230
1
0
LINE
5
89
100
AcDbEntity
8
1
62
256
6
ByLayer
370
18
48
1
60
0
100
AcDbLine
10
0.5
20
31.47
30
0
11
4.95
21
31.47
31
0
39
0
210
0
220
0
230
1
0
LINE
5
8A
100
AcDbEntity
8
1
62
256
6
ByLayer
370
18
48
1
60
0
100
AcDbLine
10
4.95
20
-31.47
30
0
11
0.5
21
-31.47
31
0
39
0
210
0
220
0
230
1
0
LINE
5
8B
100
AcDbEntity
8
1
62
256
6
ByLayer
370
18
48
1
60
0
100
AcDbLine
10
14.625388
20
24.420041
30
0
11
14.625388
21
30.431572
31
0
39
0
210
0
220
0
230
1
0
LINE
5
8C
100
AcDbEntity
8
1
62
256
6
ByLayer
370
18
48
1
60
0
100
AcDbLine
10
14.625388
20
-30.150383
30
0
11
12.95
21
-30.150383
31
0
39
0
210
0
220
0
230
1
0
LINE
5
8D
100
AcDbEntity
8
1
62
256
6
ByLayer
370
18
48
1
60
0
100
AcDbLine
10
4.968215
20
19.85
30
0
11
14.625388
21
19.85
31
0
39
0
210
0
220
0
230
1
0
LINE
5
8E
100
AcDbEntity
8
1
62
256
6
ByLayer
370
18
48
1
60
0
100
AcDbLine
10
21.374612
20
30.431572
30
0
11
21.374612
21
24.420041
31
0
39
0
210
0
220
0
230
1
0
LINE
5
8F
100
AcDbEntity
8
1
62
256
6
ByLayer
370
18
48
1
60
0
100
AcDbLine
10
14.625388
20
24.420041
30
0
11
12.19562
21
24.420041
31
0
39
0
210
0
220
0
230
1
0
LINE
5
90
100
AcDbEntity
8
1
62
256
6
ByLayer
370
18
48
1
60
0
100
AcDbLine
10
12.9575
20
30.431572
30
0
11
14.625388
21
30.431572
31
0
39
0
210
0
220
0
230
1
0
LINE
5
91
100
AcDbEntity
8
SK1
62
256
6
ByLayer
370
18
48
1
60
0
100
AcDbLine
10
-30.75
20
-20.8436
30
0
11
-31.892669
21
-19.702141
31
0
39
0
210
0
220
0
230
1
0
LINE
5
92
100
AcDbEntity
8
1
62
256
6
ByLayer
370
18
48
1
60
0
100
AcDbLine
10
0
20
-30.97
30
0
11
0
21
30.97
31
0
39
0
210
0
220
0
230
1
0
LINE
5
93
100
AcDbEntity
8
1
62
256
6
ByLayer
370
18
48
1
60
0
100
AcDbLine
10
21.374612
20
24.420041
30
0
11
25.45
21
24.420041
31
0
39
0
210
0
220
0
230
1
0
LINE
5
94
100
AcDbEntity
8
1
62
256
6
ByLayer
370
18
48
1
60
0
100
AcDbLine
10
25.45
20
30.431572
30
0
11
21.374612
21
30.431572
31
0
39
0
210
0
220
0
230
1
0
LINE
5
95
100
AcDbEntity
8
1
62
256
6
ByLayer
370
18
48
1
60
0
100
AcDbLine
10
25.45
20
24.420041
30
0
11
25.45
21
30.431572
31
0
39
0
210
0
220
0
230
1
0
LINE
5
96
100
AcDbEntity
8
1
62
256
6
ByLayer
370
18
48
1
60
0
100
AcDbLine
10
25.45
20
-30.150383
30
0
11
21.374612
21
-30.150383
31
0
39
0
210
0
220
0
230
1
0
LINE
5
97
100
AcDbEntity
8
SK1
62
256
6
ByLayer
370
18
48
1
60
0
100
AcDbLine
10
-1.566987
20
-23.970431
30
0
11
-1.566987
21
23.970431
31
0
39
0
210
0
220
0
230
1
0
LINE
5
98
100
AcDbEntity
8
1
62
256
6
ByLayer
370
18
48
1
60
0
100
AcDbLine
10
21.374612
20
19.85
30
0
11
25.45
21
19.85
31
0
39
0
210
0
220
0
230
1
0
LINE
5
99
100
AcDbEntity
8
SK1
62
256
6
ByLayer
370
18
48
1
60
0
100
AcDbLine
10
-1.566987
20
-23.970431
30
0
11
-2
21
-24.220431
31
0
39
0
210
0
220
0
230
1
0
LINE
5
9A
100
AcDbEntity
8
SK1
62
256
6
ByLayer
370
18
48
1
60
0
100
AcDbLine
10
-2
20
24.220431
30
0
11
-1.566987
21
23.970431
31
0
39
0
210
0
220
0
230
1
0
LINE
5
9B
100
AcDbEntity
8
SK1
62
256
6
ByLayer
370
18
48
1
60
0
100
AcDbLine
10
-2
20
-24.220431
30
0
11
-2
21
24.220431
31
0
39
0
210
0
220
0
230
1
0
LINE
5
9C
100
AcDbEntity
8
SK1
62
256
6
ByLayer
370
18
48
1
60
0
100
AcDbLine
10
-21.8
20
-22.232723
30
0
11
-21.8
21
-23.228447
31
0
39
0
210
0
220
0
230
1
0
LINE
5
9D
100
AcDbEntity
8
SK1
62
256
6
ByLayer
370
18
48
1
60
0
100
AcDbLine
10
-1.566987
20
23.970431
30
0
11
-0.45
21
23.970431
31
0
39
0
210
0
220
0
230
1
0
LINE
5
9E
100
AcDbEntity
8
SK1
62
256
6
ByLayer
370
18
48
1
60
0
100
AcDbLine
10
-0.45
20
-23.970431
30
0
11
-1.566987
21
-23.970431
31
0
39
0
210
0
220
0
230
1
0
LINE
5
9F
100
AcDbEntity
8
SK1
62
256
6
ByLayer
370
18
48
1
60
0
100
AcDbLine
10
-30.760045
20
-20.832723
30
0
11
-23.2
21
-20.832723
31
0
39
0
210
0
220
0
230
1
0
LINE
5
A0
100
AcDbEntity
8
SK1
62
256
6
ByLayer
370
18
48
1
60
0
100
AcDbLine
10
-25.8
20
23.028046
30
0
11
-13.21779
21
23.658417
31
0
39
0
210
0
220
0
230
1
0
LINE
5
A1
100
AcDbEntity
8
SK1
62
256
6
ByLayer
370
18
48
1
60
0
100
AcDbLine
10
-4.826786
20
24.078808
30
0
11
-2
21
24.220431
31
0
39
0
210
0
220
0
230
1
0
LINE
5
A2
100
AcDbEntity
8
SK1
62
256
6
ByLayer
370
18
48
1
60
0
100
AcDbLine
10
-2
20
-24.220431
30
0
11
-4.826789
21
-24.078808
31
0
39
0
210
0
220
0
230
1
0
LINE
5
A3
100
AcDbEntity
8
SK1
62
256
6
ByLayer
370
18
48
1
60
0
100
AcDbLine
10
-25.8
20
23.028046
30
0
11
-25.8
21
21.833816
31
0
39
0
210
0
220
0
230
1
0
LINE
5
A4
100
AcDbEntity
8
SK1
62
256
6
ByLayer
370
18
48
1
60
0
100
AcDbLine
10
-13.217795
20
-23.658417
30
0
11
-21.8
21
-23.228447
31
0
39
0
210
0
220
0
230
1
0
LINE
5
A5
100
AcDbEntity
8
SK1
62
256
6
ByLayer
370
18
48
1
60
0
100
AcDbLine
10
-30.760045
20
-20.832723
30
0
11
-30.760045
21
20.83431
31
0
39
0
210
0
220
0
230
1
0
LINE
5
A6
100
AcDbEntity
8
SK1
62
256
6
ByLayer
370
18
48
1
60
0
100
AcDbLine
10
-0.45
20
-23.970431
30
0
11
-0.45
21
23.970431
31
0
39
0
210
0
220
0
230
1
0
LINE
5
A7
100
AcDbEntity
8
1
62
256
6
ByLayer
370
18
48
1
60
0
100
AcDbLine
10
19.525
20
-26.4
30
0
11
16.475
21
-26.4
31
0
39
0
210
0
220
0
230
1
0
LINE
5
A8
100
AcDbEntity
8
1
62
256
6
ByLayer
370
18
48
1
60
0
100
AcDbLine
10
16.475
20
26.4
30
0
11
19.525
21
26.4
31
0
39
0
210
0
220
0
230
1
0
LINE
5
A9
100
AcDbEntity
8
1
62
256
6
ByLayer
370
18
48
1
60
0
100
AcDbLine
10
16.475
20
-26.4
30
0
11
16.075
21
-26.4
31
0
39
0
210
0
220
0
230
1
0
LINE
5
AA
100
AcDbEntity
8
1
62
256
6
ByLayer
370
18
48
1
60
0
100
AcDbLine
10
16.19374
20
26.4
30
0
11
16.475
21
26.4
31
0
39
0
210
0
220
0
230
1
0
LINE
5
AB
100
AcDbEntity
8
1
62
256
6
ByLayer
370
18
48
1
60
0
100
AcDbLine
10
16.075
20
19.85
30
0
11
16.075
21
21.08584
31
0
39
0
210
0
220
0
230
1
0
LINE
5
AC
100
AcDbEntity
8
1
62
256
6
ByLayer
370
18
48
1
60
0
100
AcDbLine
10
16.075
20
21.08584
30
0
11
16.075
21
27.827232
31
0
39
0
210
0
220
0
230
1
0
LINE
5
AD
100
AcDbEntity
8
1
62
256
6
ByLayer
370
18
48
1
60
0
100
AcDbLine
10
19.925
20
-26.4
30
0
11
19.525
21
-26.4
31
0
39
0
210
0
220
0
230
1
0
LINE
5
AE
100
AcDbEntity
8
1
62
256
6
ByLayer
370
18
48
1
60
0
100
AcDbLine
10
19.525
20
26.4
30
0
11
19.80626
21
26.4
31
0
39
0
210
0
220
0
230
1
0
LINE
5
AF
100
AcDbEntity
8
1
62
256
6
ByLayer
370
18
48
1
60
0
100
AcDbLine
10
19.925
20
27.827232
30
0
11
19.925
21
21.08584
31
0
39
0
210
0
220
0
230
1
0
LINE
5
B0
100
AcDbEntity
8
1
62
256
6
ByLayer
370
18
48
1
60
0
100
AcDbLine
10
19.925
20
21.08584
30
0
11
19.925
21
19.85
31
0
39
0
210
0
220
0
230
1
0
LINE
5
B1
100
AcDbEntity
8
1
62
256
6
ByLayer
370
18
48
1
60
0
100
AcDbLine
10
19.925
20
19.85
30
0
11
19.925
21
-27.519445
31
0
39
0
210
0
220
0
230
1
0
LINE
5
B2
100
AcDbEntity
8
1
62
256
6
ByLayer
370
18
48
1
60
0
100
AcDbLine
10
14.625388
20
19.85
30
0
11
14.625388
21
-30.150383
31
0
39
0
210
0
220
0
230
1
0
LINE
5
B3
100
AcDbEntity
8
1
62
256
6
ByLayer
370
18
48
1
60
0
100
AcDbLine
10
16.075
20
19.85
30
0
11
14.625388
21
19.85
31
0
39
0
210
0
220
0
230
1
0
LINE
5
B4
100
AcDbEntity
8
1
62
256
6
ByLayer
370
18
48
1
60
0
100
AcDbLine
10
16.075
20
-27.519445
30
0
11
16.075
21
19.85
31
0
39
0
210
0
220
0
230
1
0
LINE
5
B5
100
AcDbEntity
8
1
62
256
6
ByLayer
370
18
48
1
60
0
100
AcDbLine
10
21.374612
20
19.85
30
0
11
19.925
21
19.85
31
0
39
0
210
0
220
0
230
1
0
LINE
5
B6
100
AcDbEntity
8
1
62
256
6
ByLayer
370
18
48
1
60
0
100
AcDbLine
10
21.374612
20
-30.150383
30
0
11
21.374612
21
19.85
31
0
39
0
210
0
220
0
230
1
0
LINE
5
B7
100
AcDbEntity
8
SK1
62
256
6
ByLayer
370
18
48
1
60
0
100
AcDbLine
10
-31.9
20
19.672662
30
0
11
-31.9
21
-19.678185
31
0
39
0
210
0
220
0
230
1
0
LINE
5
B8
100
AcDbEntity
8
SK1
62
256
6
ByLayer
370
18
48
1
60
0
100
AcDbLine
10
-22.525413
20
-20.68546
30
0
11
-22.536599
21
-21.005264
31
0
39
0
210
0
220
0
230
1
0
LINE
5
B9
100
AcDbEntity
8
1
62
256
6
ByLayer
370
18
48
1
60
0
100
AcDbLine
10
25.95
20
29.914221
30
0
11
25.95
21
-29.628122
31
0
39
0
210
0
220
0
230
1
0
LINE
5
BA
100
AcDbEntity
8
1
62
256
6
ByLayer
370
18
48
1
60
0
100
AcDbLine
10
25.45
20
19.85
30
0
11
25.95
21
19.85
31
0
39
0
210
0
220
0
230
1
0
LINE
5
BB
100
AcDbEntity
8
1
62
256
6
ByLayer
370
18
48
1
60
0
100
AcDbLine
10
25.45
20
-30.150383
30
0
11
25.45
21
19.85
31
0
39
0
210
0
220
0
230
1
0
LINE
5
BC
100
AcDbEntity
8
1
62
256
6
ByLayer
370
18
48
1
60
0
100
AcDbLine
10
26.852701
20
22.595648
30
0
11
26.852701
21
-22.595648
31
0
39
0
210
0
220
0
230
1
0
MTEXT
5
E1
100
AcDbEntity
8
SK6
62
256
6
ByLayer
370
18
48
1
60
0
100
AcDbMText
10
14.922939
20
-40.541392
30
0
210
0
220
0
230
1
1
\W0.7393;HA06-EH25-25-105
40
3.5
41
0
44
1.084337
50
0
71
7
72
5
7
iso_b_vert
0
DIMENSION
5
E6
100
AcDbEntity
8
SK2
62
256
6
ByLayer
370
18
48
1
60
0
100
AcDbDimension
2
_U0
10
0
20
59.122861
30
0
11
-15.95
21
59.122861
31
0
70
32
71
1
72
1
41
1
210
0
220
0
230
1
3
Standard
100
AcDbAlignedDimension
13
-31.9
23
19.672662
33
0
14
0
24
30.97
34
0
50
0
100
AcDbRotatedDimension
1001
ACAD
1000
DSTYLE
1002
{
1070
   371
1070
    13
1070
   372
1070
    13
1070
   170
1070
     0
1070
   144
1040
1.0
1070
   277
1070
     2
1070
   278
1070
    46
1070
   146
1040
1.166669
1070
   345
1005
16
1070
   347
1005
16
1070
   346
1005
16
1070
   344
1005
E7
1070
   343
1005
E7
1070
   172
1070
     1
1070
    76
1070
     0
1070
    75
1070
     0
1070
   282
1070
     0
1070
   281
1070
     0
1070
    71
1070
     0
1070
    74
1070
     0
1070
   279
1070
     0
1070
   173
1070
     1
1070
   340
1005
E2
1070
   271
1070
     0
1070
   272
1070
     2
1070
    77
1070
     1
1070
    73
1070
     1
1070
   171
1070
     4
1070
   274
1070
     4
1070
   177
1070
     7
1070
   176
1070
     7
1070
   178
1070
     7
1070
    41
1040
2.999994
1070
   147
1040
1.499997
1070
    42
1040
1.499997
1070
    44
1040
2.999994
1070
   140
1040
2.999994
1002
}
1001
ACAD_DSTYLE_DIM_LINETYPE
1070
   380
1005
16
1001
ACAD_DSTYLE_DIM_EXT1_LINETYPE
1070
   381
1005
16
1001
ACAD_DSTYLE_DIM_EXT2_LINETYPE
1070
   382
1005
16
0
DIMENSION
5
10B
100
AcDbEntity
8
2
62
256
6
ByLayer
370
18
48
1
60
0
100
AcDbDimension
2
_U1
10
105
20
59.122858
30
0
11
52.5
21
59.122858
31
0
70
32
71
1
72
1
41
1
210
0
220
0
230
1
3
Standard
100
AcDbAlignedDimension
13
0
23
30.97
33
0
14
105
24
12.05
34
0
50
0
100
AcDbRotatedDimension
1001
ACAD
1000
DSTYLE
1002
{
1070
   371
1070
    13
1070
   372
1070
    13
1070
   170
1070
     0
1070
   144
1040
1.0
1070
   277
1070
     2
1070
   278
1070
    46
1070
   146
1040
1.166667
1070
   345
1005
16
1070
   347
1005
16
1070
   346
1005
16
1070
   344
1005
E7
1070
   343
1005
E7
1070
   172
1070
     1
1070
    76
1070
     0
1070
    75
1070
     0
1070
   282
1070
     0
1070
   281
1070
     0
1070
    71
1070
     0
1070
    74
1070
     0
1070
   279
1070
     0
1070
   173
1070
     1
1070
   340
1005
E2
1070
   271
1070
     0
1070
   272
1070
     2
1070
    77
1070
     1
1070
    73
1070
     1
1070
   171
1070
     4
1070
   274
1070
     4
1070
   177
1070
     7
1070
   176
1070
     7
1070
   178
1070
     7
1070
    41
1040
3.0
1070
   147
1040
1.5
1070
    42
1040
1.5
1070
    44
1040
3.0
1070
   140
1040
3.0
1002
}
1001
ACAD_DSTYLE_DIM_LINETYPE
1070
   380
1005
16
1001
ACAD_DSTYLE_DIM_EXT1_LINETYPE
1070
   381
1005
16
1001
ACAD_DSTYLE_DIM_EXT2_LINETYPE
1070
   382
1005
16
0
DIMENSION
5
128
100
AcDbEntity
8
SK2
62
256
6
ByLayer
370
18
48
1
60
0
100
AcDbDimension
2
_U2
10
80
20
29.150602
30
0
11
92.5
21
29.150602
31
0
70
32
71
1
72
1
41
1
210
0
220
0
230
1
3
Standard
100
AcDbAlignedDimension
13
105
23
12.05
33
0
14
80
24
12.05
34
0
50
0
100
AcDbRotatedDimension
1001
ACAD
1000
DSTYLE
1002
{
1070
   371
1070
    13
1070
   372
1070
    13
1070
   170
1070
     0
1070
   144
1040
1.0
1070
   277
1070
     2
1070
   278
1070
    46
1070
   146
1040
1.166667
1070
   345
1005
16
1070
   347
1005
16
1070
   346
1005
16
1070
   344
1005
E7
1070
   343
1005
E7
1070
   172
1070
     1
1070
    76
1070
     0
1070
    75
1070
     0
1070
   282
1070
     0
1070
   281
1070
     0
1070
    71
1070
     0
1070
   272
1070
     4
1070
    74
1070
     0
1070
   279
1070
     0
1070
   173
1070
     1
1070
   340
1005
E2
1070
   271
1070
     0
1070
    77
1070
     1
1070
    73
1070
     1
1070
   171
1070
     3
1070
   274
1070
     3
1070
   177
1070
     7
1070
   176
1070
     7
1070
   178
1070
     7
1070
    41
1040
3.0
1070
   147
1040
1.5
1070
    42
1040
1.5
1070
    44
1040
3.0
1070
   140
1040
3.0
1002
}
1001
ACAD_DSTYLE_DIM_LINETYPE
1070
   380
1005
16
1001
ACAD_DSTYLE_DIM_EXT1_LINETYPE
1070
   381
1005
16
1001
ACAD_DSTYLE_DIM_EXT2_LINETYPE
1070
   382
1005
16
0
DIMENSION
5
144
100
AcDbEntity
8
SK2
62
256
6
ByLayer
370
18
48
1
60
0
100
AcDbDimension
2
_U3
10
25.95
20
48.046642
30
0
11
12.975
21
48.046642
31
0
70
32
71
1
72
1
41
1
210
0
220
0
230
1
3
Standard
100
AcDbAlignedDimension
13
0
23
30.97
33
0
14
25.95
24
29.914221
34
0
50
0
100
AcDbRotatedDimension
1001
ACAD
1000
DSTYLE
1002
{
1070
   371
1070
    13
1070
   372
1070
    13
1070
   170
1070
     0
1070
   144
1040
1.0
1070
   277
1070
     2
1070
   278
1070
    46
1070
   146
1040
1.166667
1070
   345
1005
16
1070
   347
1005
16
1070
   346
1005
16
1070
   344
1005
E7
1070
   343
1005
E7
1070
   172
1070
     1
1070
    76
1070
     0
1070
    75
1070
     0
1070
   282
1070
     0
1070
   281
1070
     0
1070
    71
1070
     0
1070
    74
1070
     0
1070
   279
1070
     0
1070
   173
1070
     1
1070
   340
1005
E2
1070
   271
1070
     0
1070
   272
1070
     2
1070
    77
1070
     1
1070
    73
1070
     1
1070
   171
1070
     4
1070
   274
1070
     4
1070
   177
1070
     7
1070
   176
1070
     7
1070
   178
1070
     7
1070
    41
1040
3.0
1070
   147
1040
1.5
1070
    42
1040
1.5
1070
    44
1040
3.0
1070
   140
1040
3.0
1002
}
1001
ACAD_DSTYLE_DIM_LINETYPE
1070
   380
1005
16
1001
ACAD_DSTYLE_DIM_EXT1_LINETYPE
1070
   381
1005
16
1001
ACAD_DSTYLE_DIM_EXT2_LINETYPE
1070
   382
1005
16
0
DIMENSION
5
160
100
AcDbEntity
8
SK2
62
256
6
ByLayer
370
18
48
1
60
0
100
AcDbDimension
2
_U4
10
105
20
41.869409
30
0
11
67.993233
21
41.869409
31
0
70
32
71
1
72
1
41
1
210
0
220
0
230
1
3
Standard
100
AcDbAlignedDimension
13
30.986465
23
18.938403
33
0
14
105
24
12.05
34
0
50
0
100
AcDbRotatedDimension
1001
ACAD
1000
DSTYLE
1002
{
1070
   371
1070
    13
1070
   372
1070
    13
1070
   170
1070
     0
1070
   144
1040
1.0
1070
   277
1070
     2
1070
   278
1070
    46
1070
   146
1040
1.166667
1070
   345
1005
16
1070
   347
1005
16
1070
   346
1005
16
1070
   344
1005
E7
1070
   343
1005
E7
1070
   172
1070
     1
1070
    76
1070
     0
1070
    75
1070
     0
1070
   282
1070
     0
1070
   281
1070
     0
1070
    71
1070
     0
1070
    74
1070
     0
1070
   279
1070
     0
1070
   173
1070
     1
1070
   340
1005
E2
1070
   271
1070
     0
1070
   272
1070
     2
1070
    77
1070
     1
1070
    73
1070
     1
1070
   171
1070
     4
1070
   274
1070
     4
1070
   177
1070
     7
1070
   176
1070
     7
1070
   178
1070
     7
1070
    41
1040
3.0
1070
   147
1040
1.5
1070
    42
1040
1.5
1070
    44
1040
3.0
1070
   140
1040
3.0
1002
}
1001
ACAD_DSTYLE_DIM_LINETYPE
1070
   380
1005
16
1001
ACAD_DSTYLE_DIM_EXT1_LINETYPE
1070
   381
1005
16
1001
ACAD_DSTYLE_DIM_EXT2_LINETYPE
1070
   382
1005
16
0
DIMENSION
5
17C
100
AcDbEntity
8
SK2
62
256
6
ByLayer
370
18
48
1
60
0
100
AcDbDimension
2
_U5
10
-39.766694
20
-31.47
30
0
11
-39.766694
21
0
31
0
70
32
71
1
72
1
41
1
210
0
220
0
230
1
3
Standard
100
AcDbAlignedDimension
13
0.936661
23
31.47
33
0
14
0.988724
24
-31.47
34
0
50
-90
100
AcDbRotatedDimension
1001
ACAD
1000
DSTYLE
1002
{
1070
   371
1070
    13
1070
   372
1070
    13
1070
     3
1000
\C7;]<>
1070
   170
1070
     0
1070
   144
1040
1.0
1070
   277
1070
     2
1070
   278
1070
    46
1070
   146
1040
1.166667
1070
   345
1005
16
1070
   347
1005
16
1070
   346
1005
16
1070
   344
1005
E7
1070
   343
1005
E7
1070
   172
1070
     1
1070
    76
1070
     0
1070
    75
1070
     0
1070
   282
1070
     0
1070
   281
1070
     0
1070
    71
1070
     0
1070
    74
1070
     0
1070
   279
1070
     0
1070
   173
1070
     1
1070
   340
1005
E2
1070
   271
1070
     0
1070
   272
1070
     2
1070
    77
1070
     1
1070
    73
1070
     0
1070
   171
1070
     4
1070
   274
1070
     4
1070
   177
1070
     7
1070
   176
1070
     7
1070
   178
1070
     7
1070
    41
1040
3.0
1070
   147
1040
1.5
1070
    42
1040
1.5
1070
    44
1040
3.0
1070
   140
1040
3.0
1002
}
1001
ACAD_DSTYLE_DIM_LINETYPE
1070
   380
1005
16
1001
ACAD_DSTYLE_DIM_EXT1_LINETYPE
1070
   381
1005
16
1001
ACAD_DSTYLE_DIM_EXT2_LINETYPE
1070
   382
1005
16
0
DIMENSION
5
199
100
AcDbEntity
8
SK2
62
256
6
ByLayer
370
18
48
1
60
0
100
AcDbDimension
2
_U6
10
120.299081
20
-12.05
30
0
11
120.299081
21
0
31
0
70
32
71
1
72
1
41
1
210
0
220
0
230
1
3
Standard
100
AcDbAlignedDimension
13
100.210446
23
12.05
33
0
14
100.567919
24
-12.05
34
0
50
-90
100
AcDbRotatedDimension
1001
ACAD
1000
DSTYLE
1002
{
1070
   371
1070
    13
1070
   372
1070
    13
1070
     3
1000
\C7;]<>
1070
   170
1070
     0
1070
   144
1040
1.0
1070
   277
1070
     2
1070
   278
1070
    46
1070
   146
1040
1.166667
1070
   345
1005
16
1070
   347
1005
16
1070
   346
1005
16
1070
   344
1005
E7
1070
   343
1005
E7
1070
   172
1070
     1
1070
    76
1070
     0
1070
    75
1070
     0
1070
   282
1070
     0
1070
   281
1070
     0
1070
    71
1070
     0
1070
    74
1070
     0
1070
   279
1070
     0
1070
   173
1070
     1
1070
   340
1005
E2
1070
   271
1070
     1
1070
   272
1070
     2
1070
    77
1070
     1
1070
    73
1070
     0
1070
   171
1070
     4
1070
   274
1070
     4
1070
   177
1070
     7
1070
   176
1070
     7
1070
   178
1070
     7
1070
    41
1040
3.0
1070
   147
1040
1.5
1070
    42
1040
1.5
1070
    44
1040
3.0
1070
   140
1040
3.0
1002
}
1001
ACAD_DSTYLE_DIM_LINETYPE
1070
   380
1005
16
1001
ACAD_DSTYLE_DIM_EXT1_LINETYPE
1070
   381
1005
16
1001
ACAD_DSTYLE_DIM_EXT2_LINETYPE
1070
   382
1005
16
0
ENDSEC
0
SECTION
2
OBJECTS
0
DICTIONARY
5
226
330
0
100
AcDbDictionary
280
0
281
1
3
ACAD_GROUP
350
227
3
ACAD_MLINESTYLE
350
228
0
DICTIONARY
5
227
330
0
100
AcDbDictionary
280
0
281
1
0
DICTIONARY
5
228
330
0
100
AcDbDictionary
280
0
281
1
3
Standard
350
18
0
MLINESTYLE
5
18
330
228
100
AcDbMlineStyle
2
Standard
70
0
3

62
256
51
90
52
90
71
2
49
-0.5
62
256
6
ByLayer
49
0.5
62
256
6
ByLayer
0
RASTERVARIABLES
5
214
330

100
AcDbRasterVariables
90
0
70
1
71
1
72
1
0
ENDSEC
0
EOF
