0
SECTION
2
HEADER
9
$ACADVER
1
AC1015
9
$DWGCODEPAGE
3
ANSI_1252
9
$HANDSEED
5
216
9
$ANGBASE
50
0
9
$ANGDIR
70
0
9
$ATTMODE
70
1
9
$AUNITS
70
0
9
$AUPREC
70
0
9
$CECOLOR
62
256
9
$CELTSCALE
40
1
9
$CELTYPE
6
ByLayer
9
$CELWEIGHT
370
18
9
$CLAYER
8
0
9
$CMLJUST
70
0
9
$CMLSCALE
40
1
9
$CMLSTYLE
2
Standard
9
$DIMSTYLE
2
Standard
9
$TEXTSIZE
40
0.2
9
$TEXTSTYLE
7
Standard
9
$LUNITS
70
2
9
$LUPREC
70
4
9
$EXTNAMES
290
1
9
$INSUNITS
70
4
9
$LTSCALE
40
1
9
$LWDISPLAY
290
1
9
$PDMODE
70
0
9
$PDSIZE
40
0
9
$PLINEGEN
70
0
0
ENDSEC
0
SECTION
2
CLASSES
0
CLASS
1
RASTERVARIABLES
2
AcDbRasterVariables
3
ISM
90
0
280
0
281
0
0
ENDSEC
0
SECTION
2
TABLES
0
TABLE
2
VPORT
5
20c
100
AcDbSymbolTable
0
VPORT
5
1
100
AcDbSymbolTableRecord
100
AcDbViewportTableRecord
2
*Active
70
0
10
0
20
0
11
1
21
1
12
-1
22
1
13
0
23
0
14
0.5
24
0.5
15
10
25
10
16
0
26
0
36
1
17
0
27
0
37
0
0
ENDTAB
0
TABLE
2
LTYPE
5
20d
100
AcDbSymbolTable
0
LTYPE
5
14
100
AcDbSymbolTableRecord
100
AcDbLinetypeTableRecord
70
0
2
ByBlock
3

72
65
73
0
40
0
0
LTYPE
5
15
100
AcDbSymbolTableRecord
100
AcDbLinetypeTableRecord
70
0
2
ByLayer
3

72
65
73
0
40
0
0
LTYPE
5
16
100
AcDbSymbolTableRecord
100
AcDbLinetypeTableRecord
70
0
2
Continuous
3
Solid line
72
65
73
0
40
0
0
LTYPE
5
6E
100
AcDbSymbolTableRecord
100
AcDbLinetypeTableRecord
70
0
2
CENTER
3
____ _ ____ _ ____ _ ____
72
65
73
4
40
47.5
49
22
74
0
49
-8.5
74
0
49
8.5
74
0
49
-8.5
74
0
0
LTYPE
5
6F
100
AcDbSymbolTableRecord
100
AcDbLinetypeTableRecord
70
0
2
DASHED
3
__ __ __ __ __ __ __ __ __
72
65
73
2
40
25.72
49
12.86
74
0
49
-12.86
74
0
0
ENDTAB
0
TABLE
2
LAYER
5
20e
100
AcDbSymbolTable
0
LAYER
5
10
100
AcDbSymbolTableRecord
100
AcDbLayerTableRecord
2
0
70
0
62
7
6
Continuous
290
1
370
-3
390
0
0
LAYER
5
71
100
AcDbSymbolTableRecord
100
AcDbLayerTableRecord
2
80
70
0
62
-6
6
Continuous
290
1
370
-3
390
0
0
LAYER
5
73
100
AcDbSymbolTableRecord
100
AcDbLayerTableRecord
2
81
70
0
62
-3
6
Continuous
290
1
370
-3
390
0
0
LAYER
5
77
100
AcDbSymbolTableRecord
100
AcDbLayerTableRecord
2
1
70
0
62
4
6
Continuous
290
1
370
-3
390
0
0
LAYER
5
80
100
AcDbSymbolTableRecord
100
AcDbLayerTableRecord
2
4
70
0
62
-2
6
CENTER
290
1
370
-3
390
0
0
LAYER
5
EF
100
AcDbSymbolTableRecord
100
AcDbLayerTableRecord
2
Defpoints
70
0
62
7
6
Continuous
290
0
370
-3
390
0
0
LAYER
5
FC
100
AcDbSymbolTableRecord
100
AcDbLayerTableRecord
2
2
70
0
62
7
6
Continuous
290
1
370
-3
390
0
0
LAYER
5
1f8
100
AcDbSymbolTableRecord
100
AcDbLayerTableRecord
2
SK4
70
0
62
2
6
CENTER
290
1
370
-3
390
0
0
LAYER
5
1f9
100
AcDbSymbolTableRecord
100
AcDbLayerTableRecord
2
SK1
70
0
62
4
6
Continuous
290
1
370
-3
390
0
0
LAYER
5
1fa
100
AcDbSymbolTableRecord
100
AcDbLayerTableRecord
2
SK6
70
0
62
5
6
Continuous
290
1
370
-3
390
0
0
LAYER
5
1fb
100
AcDbSymbolTableRecord
100
AcDbLayerTableRecord
2
SK2
70
0
62
7
6
Continuous
290
1
370
-3
390
0
0
ENDTAB
0
TABLE
2
STYLE
5
20f
100
AcDbSymbolTable
0
STYLE
5
11
100
AcDbSymbolTableRecord
100
AcDbTextStyleTableRecord
2
Standard
3
txt
70
0
71
0
40
0
41
1
42
0
50
0
0
STYLE
5
E1
100
AcDbSymbolTableRecord
100
AcDbTextStyleTableRecord
2
iso_b_vert
3
simplex.shx
70
0
71
0
40
0
41
1
42
0
50
0
0
STYLE
5
E2
100
AcDbSymbolTableRecord
100
AcDbTextStyleTableRecord
2
DWGDirectTextStyle
3
simplex
70
0
71
0
40
0
41
1
42
0
50
0
0
ENDTAB
0
TABLE
2
DIMSTYLE
5
210
100
AcDbSymbolTable
100
AcDbDimStyleTable
0
DIMSTYLE
105
27
100
AcDbSymbolTableRecord
100
AcDbDimStyleTableRecord
2
Standard
70
0
3
<>
41
0.18
42
0.0625
44
0.18
140
0.18
147
0.09
73
0
74
0
77
1
271
2
275
0
278
52
280
0
340
11
0
ENDTAB
0
TABLE
2
VIEW
5
211
100
AcDbSymbolTable
0
ENDTAB
0
TABLE
2
UCS
5
212
100
AcDbSymbolTable
0
ENDTAB
0
TABLE
2
APPID
5
213
100
AcDbSymbolTable
0
APPID
5
12
100
AcDbSymbolTableRecord
100
AcDbRegAppTableRecord
2
ACAD
70
0
0
APPID
5
E4
100
AcDbSymbolTableRecord
100
AcDbRegAppTableRecord
2
ACAD_DSTYLE_DIMBREAK
70
0
0
APPID
5
1B7
100
AcDbSymbolTableRecord
100
AcDbRegAppTableRecord
2
ACAD_DSTYLE_DIM_LINETYPE
70
0
0
APPID
5
1B8
100
AcDbSymbolTableRecord
100
AcDbRegAppTableRecord
2
ACAD_DSTYLE_DIM_EXT1_LINETYPE
70
0
0
APPID
5
1B9
100
AcDbSymbolTableRecord
100
AcDbRegAppTableRecord
2
ACAD_DSTYLE_DIM_EXT2_LINETYPE
70
0
0
APPID
5
1F4
100
AcDbSymbolTableRecord
100
AcDbRegAppTableRecord
2
ACAD_MLEADERVER
70
0
0
ENDTAB
0
TABLE
2
BLOCK_RECORD
5
214
100
AcDbSymbolTable
0
BLOCK_RECORD
5
1F
100
AcDbSymbolTableRecord
100
AcDbBlockTableRecord
2
*Model_Space
340
0
70
0
0
BLOCK_RECORD
5
1B
100
AcDbSymbolTableRecord
100
AcDbBlockTableRecord
2
*Paper_Space
340
0
70
0
0
BLOCK_RECORD
5
23
100
AcDbSymbolTableRecord
100
AcDbBlockTableRecord
2
*Paper_Space0
340
0
70
0
0
BLOCK_RECORD
5
E6
100
AcDbSymbolTableRecord
100
AcDbBlockTableRecord
2
_Closed
340
0
70
0
0
BLOCK_RECORD
5
F0
100
AcDbSymbolTableRecord
100
AcDbBlockTableRecord
2
*D2
340
0
70
0
0
BLOCK_RECORD
5
FD
100
AcDbSymbolTableRecord
100
AcDbBlockTableRecord
2
_U0
340
0
70
0
0
BLOCK_RECORD
5
10D
100
AcDbSymbolTableRecord
100
AcDbBlockTableRecord
2
*D4
340
0
70
0
0
BLOCK_RECORD
5
11A
100
AcDbSymbolTableRecord
100
AcDbBlockTableRecord
2
_U1
340
0
70
0
0
BLOCK_RECORD
5
12A
100
AcDbSymbolTableRecord
100
AcDbBlockTableRecord
2
*D6
340
0
70
0
0
BLOCK_RECORD
5
136
100
AcDbSymbolTableRecord
100
AcDbBlockTableRecord
2
_U2
340
0
70
0
0
BLOCK_RECORD
5
146
100
AcDbSymbolTableRecord
100
AcDbBlockTableRecord
2
*D8
340
0
70
0
0
BLOCK_RECORD
5
152
100
AcDbSymbolTableRecord
100
AcDbBlockTableRecord
2
_U3
340
0
70
0
0
BLOCK_RECORD
5
162
100
AcDbSymbolTableRecord
100
AcDbBlockTableRecord
2
*D10
340
0
70
0
0
BLOCK_RECORD
5
16E
100
AcDbSymbolTableRecord
100
AcDbBlockTableRecord
2
_U4
340
0
70
0
0
BLOCK_RECORD
5
17F
100
AcDbSymbolTableRecord
100
AcDbBlockTableRecord
2
*D12
340
0
70
0
0
BLOCK_RECORD
5
18B
100
AcDbSymbolTableRecord
100
AcDbBlockTableRecord
2
_U5
340
0
70
0
0
ENDTAB
0
ENDSEC
0
SECTION
2
BLOCKS
0
BLOCK
5
20
100
AcDbEntity
8
0
100
AcDbBlockBegin
2
*Model_Space
70
0
10
0
20
0
30
0
3
*Model_Space
0
ENDBLK
5
21
100
AcDbEntity
8
0
100
AcDbBlockEnd
0
BLOCK
5
1C
100
AcDbEntity
8
0
100
AcDbBlockBegin
2
*Paper_Space
70
0
10
0
20
0
30
0
3
*Paper_Space
0
ENDBLK
5
1D
100
AcDbEntity
8
0
100
AcDbBlockEnd
0
BLOCK
5
24
100
AcDbEntity
8
0
100
AcDbBlockBegin
2
*Paper_Space0
70
0
10
0
20
0
30
0
3
*Paper_Space0
0
ENDBLK
5
25
100
AcDbEntity
8
0
100
AcDbBlockEnd
0
BLOCK
5
E7
100
AcDbEntity
8
0
100
AcDbBlockBegin
2
_Closed
70
0
10
0
20
0
30
0
3
_Closed
0
LINE
5
E9
100
AcDbEntity
8
0
62
256
6
ByLayer
370
-2
48
1
60
0
100
AcDbLine
10
-1
20
0.166667
30
0
11
0
21
0
31
0
39
0
210
0
220
0
230
1
0
LINE
5
EA
100
AcDbEntity
8
0
62
256
6
ByLayer
370
-2
48
1
60
0
100
AcDbLine
10
0
20
0
30
0
11
-1
21
-0.166667
31
0
39
0
210
0
220
0
230
1
0
LINE
5
EB
100
AcDbEntity
8
0
62
256
6
ByLayer
370
-2
48
1
60
0
100
AcDbLine
10
-1
20
0.166667
30
0
11
-1
21
-0.166667
31
0
39
0
210
0
220
0
230
1
0
LINE
5
EC
100
AcDbEntity
8
0
62
256
6
ByLayer
370
-2
48
1
60
0
100
AcDbLine
10
0
20
0
30
0
11
-1
21
0
31
0
39
0
210
0
220
0
230
1
0
ENDBLK
5
E8
100
AcDbEntity
8
0
100
AcDbBlockEnd
0
BLOCK
5
F1
100
AcDbEntity
8
0
100
AcDbBlockBegin
2
*D2
70
1
10
0
20
0
30
0
3
*D2
0
LINE
5
F3
100
AcDbEntity
8
0
62
256
6
ByLayer
370
-2
48
1
60
0
100
AcDbLine
10
0
20
21
30
0
11
0
21
52.551031
31
0
39
0
210
0
220
0
230
1
0
LINE
5
F4
100
AcDbEntity
8
0
62
256
6
ByLayer
370
-2
48
1
60
0
100
AcDbLine
10
45
20
11.1
30
0
11
45
21
52.551031
31
0
39
0
210
0
220
0
230
1
0
LINE
5
F5
100
AcDbEntity
8
0
62
256
6
ByLayer
370
-2
48
1
60
0
100
AcDbLine
10
3
20
49.551031
30
0
11
42
21
49.551031
31
0
39
0
210
0
220
0
230
1
0
SOLID
5
F6
100
AcDbEntity
8
0
62
256
6
ByLayer
370
-1
48
1
60
0
100
AcDbTrace
10
3
20
50.051031
30
0
11
3
21
49.051031
31
0
12
0
22
49.551031
32
0
13
0
23
49.551031
33
0
39
0
210
0
220
0
230
1
0
SOLID
5
F7
100
AcDbEntity
8
0
62
256
6
ByLayer
370
-1
48
1
60
0
100
AcDbTrace
10
42
20
49.051031
30
0
11
42
21
50.051031
31
0
12
45
22
49.551031
32
0
13
45
23
49.551031
33
0
39
0
210
0
220
0
230
1
0
MTEXT
5
F8
100
AcDbEntity
8
0
62
256
6
ByLayer
370
18
48
1
60
0
100
AcDbMText
10
22.5
20
55.551031
30
0
210
0
220
0
230
1
1
\A1;45
40
3
41
0
44
1
50
0
71
5
72
5
7
iso_b_vert
0
POINT
5
F9
100
AcDbEntity
8
Defpoints
62
0
6
ByLayer
370
-1
48
1
60
0
100
AcDbPoint
10
0
20
19.5
30
0
39
0
210
0
220
0
230
1
50
360
0
POINT
5
FA
100
AcDbEntity
8
Defpoints
62
0
6
ByLayer
370
-1
48
1
60
0
100
AcDbPoint
10
45
20
9.6
30
0
39
0
210
0
220
0
230
1
50
360
0
POINT
5
FB
100
AcDbEntity
8
Defpoints
62
0
6
ByLayer
370
-1
48
1
60
0
100
AcDbPoint
10
45
20
49.551031
30
0
39
0
210
0
220
0
230
1
50
360
0
ENDBLK
5
F2
100
AcDbEntity
8
0
100
AcDbBlockEnd
0
BLOCK
5
108
100
AcDbEntity
8
0
100
AcDbBlockBegin
2
_U0
70
0
10
0
20
0
30
0
3
_U0
0
MTEXT
5
FE
100
AcDbEntity
8
2
62
256
6
ByLayer
370
18
48
1
60
0
100
AcDbMText
10
20.709687
20
50.436145
30
0
210
0
220
0
230
1
1
\W0.7361;45
40
3
41
0
44
1.084337
50
0
71
7
72
5
7
iso_b_vert
0
LINE
5
FF
100
AcDbEntity
8
2
62
256
6
ByLayer
370
13
48
1
60
0
100
AcDbLine
10
0
20
21
30
0
11
0
21
52.551031
31
0
39
0
210
0
220
0
230
1
0
LINE
5
100
100
AcDbEntity
8
2
62
256
6
ByLayer
370
13
48
1
60
0
100
AcDbLine
10
45
20
11.1
30
0
11
45
21
52.551031
31
0
39
0
210
0
220
0
230
1
0
LINE
5
101
100
AcDbEntity
8
2
62
256
6
ByLayer
370
13
48
1
60
0
100
AcDbLine
10
0
20
49.551031
30
0
11
45
21
49.551031
31
0
39
0
210
0
220
0
230
1
0
LINE
5
102
100
AcDbEntity
8
2
62
256
6
ByLayer
370
13
48
1
60
0
100
AcDbLine
10
0
20
49.551031
30
0
11
2.999998
21
50.080012
31
0
39
0
210
0
220
0
230
1
0
LINE
5
103
100
AcDbEntity
8
2
62
256
6
ByLayer
370
13
48
1
60
0
100
AcDbLine
10
0
20
49.551031
30
0
11
3.000002
21
49.02205
31
0
39
0
210
0
220
0
230
1
0
LINE
5
104
100
AcDbEntity
8
2
62
256
6
ByLayer
370
13
48
1
60
0
100
AcDbLine
10
2.999998
20
50.080012
30
0
11
3.000002
21
49.02205
31
0
39
0
210
0
220
0
230
1
0
LINE
5
105
100
AcDbEntity
8
2
62
256
6
ByLayer
370
13
48
1
60
0
100
AcDbLine
10
45
20
49.551031
30
0
11
42.000002
21
49.02205
31
0
39
0
210
0
220
0
230
1
0
LINE
5
106
100
AcDbEntity
8
2
62
256
6
ByLayer
370
13
48
1
60
0
100
AcDbLine
10
45
20
49.551031
30
0
11
41.999998
21
50.080012
31
0
39
0
210
0
220
0
230
1
0
LINE
5
107
100
AcDbEntity
8
2
62
256
6
ByLayer
370
13
48
1
60
0
100
AcDbLine
10
42.000002
20
49.02205
30
0
11
41.999998
21
50.080012
31
0
39
0
210
0
220
0
230
1
0
ENDBLK
5
109
100
AcDbEntity
8
0
100
AcDbBlockEnd
0
BLOCK
5
10E
100
AcDbEntity
8
0
100
AcDbBlockBegin
2
*D4
70
1
10
0
20
0
30
0
3
*D4
0
LINE
5
110
100
AcDbEntity
8
0
62
256
6
ByLayer
370
-2
48
1
60
0
100
AcDbLine
10
25.608752
20
11.1
30
0
11
25.608752
21
29.969242
31
0
39
0
210
0
220
0
230
1
0
LINE
5
111
100
AcDbEntity
8
0
62
256
6
ByLayer
370
-2
48
1
60
0
100
AcDbLine
10
45
20
11.1
30
0
11
45
21
29.969242
31
0
39
0
210
0
220
0
230
1
0
LINE
5
112
100
AcDbEntity
8
0
62
256
6
ByLayer
370
-2
48
1
60
0
100
AcDbLine
10
28.608752
20
26.969242
30
0
11
42
21
26.969242
31
0
39
0
210
0
220
0
230
1
0
SOLID
5
113
100
AcDbEntity
8
0
62
256
6
ByLayer
370
-1
48
1
60
0
100
AcDbTrace
10
28.608752
20
27.469242
30
0
11
28.608752
21
26.469242
31
0
12
25.608752
22
26.969242
32
0
13
25.608752
23
26.969242
33
0
39
0
210
0
220
0
230
1
0
SOLID
5
114
100
AcDbEntity
8
0
62
256
6
ByLayer
370
-1
48
1
60
0
100
AcDbTrace
10
42
20
26.469242
30
0
11
42
21
27.469242
31
0
12
45
22
26.969242
32
0
13
45
23
26.969242
33
0
39
0
210
0
220
0
230
1
0
MTEXT
5
115
100
AcDbEntity
8
0
62
256
6
ByLayer
370
18
48
1
60
0
100
AcDbMText
10
34.794063
20
32.969242
30
0
210
0
220
0
230
1
1
\A1;19.4
40
3
41
0
44
1
50
0
71
5
72
5
7
iso_b_vert
0
POINT
5
116
100
AcDbEntity
8
Defpoints
62
0
6
ByLayer
370
-1
48
1
60
0
100
AcDbPoint
10
25.608752
20
9.6
30
0
39
0
210
0
220
0
230
1
50
360
0
POINT
5
117
100
AcDbEntity
8
Defpoints
62
0
6
ByLayer
370
-1
48
1
60
0
100
AcDbPoint
10
45
20
9.6
30
0
39
0
210
0
220
0
230
1
50
360
0
POINT
5
118
100
AcDbEntity
8
Defpoints
62
0
6
ByLayer
370
-1
48
1
60
0
100
AcDbPoint
10
45
20
26.969242
30
0
39
0
210
0
220
0
230
1
50
360
0
ENDBLK
5
10F
100
AcDbEntity
8
0
100
AcDbBlockEnd
0
BLOCK
5
125
100
AcDbEntity
8
0
100
AcDbBlockBegin
2
_U1
70
0
10
0
20
0
30
0
3
_U1
0
MTEXT
5
11B
100
AcDbEntity
8
SK2
62
256
6
ByLayer
370
18
48
1
60
0
100
AcDbMText
10
31.650523
20
27.854357
30
0
210
0
220
0
230
1
1
\W0.6756;19.4
40
3
41
0
44
1.084337
50
0
71
7
72
5
7
iso_b_vert
0
LINE
5
11C
100
AcDbEntity
8
SK2
62
256
6
ByLayer
370
13
48
1
60
0
100
AcDbLine
10
25.608752
20
11.1
30
0
11
25.608752
21
29.969242
31
0
39
0
210
0
220
0
230
1
0
LINE
5
11D
100
AcDbEntity
8
SK2
62
256
6
ByLayer
370
13
48
1
60
0
100
AcDbLine
10
45
20
11.1
30
0
11
45
21
29.969242
31
0
39
0
210
0
220
0
230
1
0
LINE
5
11E
100
AcDbEntity
8
SK2
62
256
6
ByLayer
370
13
48
1
60
0
100
AcDbLine
10
25.608752
20
26.969242
30
0
11
45
21
26.969242
31
0
39
0
210
0
220
0
230
1
0
LINE
5
11F
100
AcDbEntity
8
SK2
62
256
6
ByLayer
370
13
48
1
60
0
100
AcDbLine
10
25.608752
20
26.969242
30
0
11
28.60875
21
27.498223
31
0
39
0
210
0
220
0
230
1
0
LINE
5
120
100
AcDbEntity
8
SK2
62
256
6
ByLayer
370
13
48
1
60
0
100
AcDbLine
10
25.608752
20
26.969242
30
0
11
28.608754
21
26.440261
31
0
39
0
210
0
220
0
230
1
0
LINE
5
121
100
AcDbEntity
8
SK2
62
256
6
ByLayer
370
13
48
1
60
0
100
AcDbLine
10
28.60875
20
27.498223
30
0
11
28.608754
21
26.440261
31
0
39
0
210
0
220
0
230
1
0
LINE
5
122
100
AcDbEntity
8
SK2
62
256
6
ByLayer
370
13
48
1
60
0
100
AcDbLine
10
45
20
26.969242
30
0
11
42.000002
21
26.440261
31
0
39
0
210
0
220
0
230
1
0
LINE
5
123
100
AcDbEntity
8
SK2
62
256
6
ByLayer
370
13
48
1
60
0
100
AcDbLine
10
45
20
26.969242
30
0
11
41.999998
21
27.498223
31
0
39
0
210
0
220
0
230
1
0
LINE
5
124
100
AcDbEntity
8
SK2
62
256
6
ByLayer
370
13
48
1
60
0
100
AcDbLine
10
42.000002
20
26.440261
30
0
11
41.999998
21
27.498223
31
0
39
0
210
0
220
0
230
1
0
ENDBLK
5
126
100
AcDbEntity
8
0
100
AcDbBlockEnd
0
BLOCK
5
12B
100
AcDbEntity
8
0
100
AcDbBlockBegin
2
*D6
70
1
10
0
20
0
30
0
3
*D6
0
LINE
5
12D
100
AcDbEntity
8
0
62
256
6
ByLayer
370
-2
48
1
60
0
100
AcDbLine
10
0
20
20.999997
30
0
11
0
21
41.564621
31
0
39
0
210
0
220
0
230
1
0
LINE
5
12E
100
AcDbEntity
8
0
62
256
6
ByLayer
370
-2
48
1
60
0
100
AcDbLine
10
-19.9
20
13.303633
30
0
11
-19.9
21
41.564621
31
0
39
0
210
0
220
0
230
1
0
LINE
5
12F
100
AcDbEntity
8
0
62
256
6
ByLayer
370
-2
48
1
60
0
100
AcDbLine
10
-2.999994
20
38.564627
30
0
11
-16.900006
21
38.564627
31
0
39
0
210
0
220
0
230
1
0
SOLID
5
130
100
AcDbEntity
8
0
62
256
6
ByLayer
370
-1
48
1
60
0
100
AcDbTrace
10
-2.999994
20
38.064628
30
0
11
-2.999994
21
39.064626
31
0
12
0
22
38.564627
32
0
13
0
23
38.564627
33
0
39
0
210
0
220
0
230
1
0
SOLID
5
131
100
AcDbEntity
8
0
62
256
6
ByLayer
370
-1
48
1
60
0
100
AcDbTrace
10
-16.900006
20
39.064626
30
0
11
-16.900006
21
38.064628
31
0
12
-19.9
22
38.564627
32
0
13
-19.9
23
38.564627
33
0
39
0
210
0
220
0
230
1
0
MTEXT
5
132
100
AcDbEntity
8
0
62
256
6
ByLayer
370
18
48
1
60
0
100
AcDbMText
10
-9.95
20
44.564606
30
0
210
0
220
0
230
1
1
\A1;20
40
2.999994
41
0
44
1
50
0
71
5
72
5
7
iso_b_vert
0
POINT
5
133
100
AcDbEntity
8
Defpoints
62
0
6
ByLayer
370
-1
48
1
60
0
100
AcDbPoint
10
0
20
19.5
30
0
39
0
210
0
220
0
230
1
50
360
0
POINT
5
134
100
AcDbEntity
8
Defpoints
62
0
6
ByLayer
370
-1
48
1
60
0
100
AcDbPoint
10
-19.9
20
11.803636
30
0
39
0
210
0
220
0
230
1
50
360
0
POINT
5
135
100
AcDbEntity
8
Defpoints
62
0
6
ByLayer
370
-1
48
1
60
0
100
AcDbPoint
10
-19.9
20
38.564627
30
0
39
0
210
0
220
0
230
1
50
360
0
ENDBLK
5
12C
100
AcDbEntity
8
0
100
AcDbBlockEnd
0
BLOCK
5
141
100
AcDbEntity
8
0
100
AcDbBlockBegin
2
_U2
70
0
10
0
20
0
30
0
3
_U2
0
MTEXT
5
137
100
AcDbEntity
8
SK2
62
256
6
ByLayer
370
18
48
1
60
0
100
AcDbMText
10
-11.582367
20
39.44974
30
0
210
0
220
0
230
1
1
\W0.6740;20
40
2.999994
41
0
44
1.084337
50
0
71
7
72
5
7
iso_b_vert
0
LINE
5
138
100
AcDbEntity
8
SK2
62
256
6
ByLayer
370
13
48
1
60
0
100
AcDbLine
10
0
20
20.999997
30
0
11
0
21
41.564621
31
0
39
0
210
0
220
0
230
1
0
LINE
5
139
100
AcDbEntity
8
SK2
62
256
6
ByLayer
370
13
48
1
60
0
100
AcDbLine
10
-19.9
20
13.303633
30
0
11
-19.9
21
41.564621
31
0
39
0
210
0
220
0
230
1
0
LINE
5
13A
100
AcDbEntity
8
SK2
62
256
6
ByLayer
370
13
48
1
60
0
100
AcDbLine
10
0
20
38.564627
30
0
11
-19.9
21
38.564627
31
0
39
0
210
0
220
0
230
1
0
LINE
5
13B
100
AcDbEntity
8
SK2
62
256
6
ByLayer
370
13
48
1
60
0
100
AcDbLine
10
0
20
38.564627
30
0
11
-2.999992
21
38.064628
31
0
39
0
210
0
220
0
230
1
0
LINE
5
13C
100
AcDbEntity
8
SK2
62
256
6
ByLayer
370
13
48
1
60
0
100
AcDbLine
10
0
20
38.564627
30
0
11
-2.999996
21
39.064626
31
0
39
0
210
0
220
0
230
1
0
LINE
5
13D
100
AcDbEntity
8
SK2
62
256
6
ByLayer
370
13
48
1
60
0
100
AcDbLine
10
-2.999992
20
38.064628
30
0
11
-2.999996
21
39.064626
31
0
39
0
210
0
220
0
230
1
0
LINE
5
13E
100
AcDbEntity
8
SK2
62
256
6
ByLayer
370
13
48
1
60
0
100
AcDbLine
10
-19.9
20
38.564627
30
0
11
-16.900008
21
39.064626
31
0
39
0
210
0
220
0
230
1
0
LINE
5
13F
100
AcDbEntity
8
SK2
62
256
6
ByLayer
370
13
48
1
60
0
100
AcDbLine
10
-19.9
20
38.564627
30
0
11
-16.900004
21
38.064628
31
0
39
0
210
0
220
0
230
1
0
LINE
5
140
100
AcDbEntity
8
SK2
62
256
6
ByLayer
370
13
48
1
60
0
100
AcDbLine
10
-16.900008
20
39.064626
30
0
11
-16.900004
21
38.064628
31
0
39
0
210
0
220
0
230
1
0
ENDBLK
5
142
100
AcDbEntity
8
0
100
AcDbBlockEnd
0
BLOCK
5
147
100
AcDbEntity
8
0
100
AcDbBlockBegin
2
*D8
70
1
10
0
20
0
30
0
3
*D8
0
LINE
5
149
100
AcDbEntity
8
0
62
256
6
ByLayer
370
-2
48
1
60
0
100
AcDbLine
10
0
20
21
30
0
11
0
21
41.549102
31
0
39
0
210
0
220
0
230
1
0
LINE
5
14A
100
AcDbEntity
8
0
62
256
6
ByLayer
370
-2
48
1
60
0
100
AcDbLine
10
19.95
20
20.458158
30
0
11
19.95
21
41.549102
31
0
39
0
210
0
220
0
230
1
0
LINE
5
14B
100
AcDbEntity
8
0
62
256
6
ByLayer
370
-2
48
1
60
0
100
AcDbLine
10
3
20
38.549102
30
0
11
16.95
21
38.549102
31
0
39
0
210
0
220
0
230
1
0
SOLID
5
14C
100
AcDbEntity
8
0
62
256
6
ByLayer
370
-1
48
1
60
0
100
AcDbTrace
10
3
20
39.049102
30
0
11
3
21
38.049102
31
0
12
0
22
38.549102
32
0
13
0
23
38.549102
33
0
39
0
210
0
220
0
230
1
0
SOLID
5
14D
100
AcDbEntity
8
0
62
256
6
ByLayer
370
-1
48
1
60
0
100
AcDbTrace
10
16.95
20
38.049102
30
0
11
16.95
21
39.049102
31
0
12
19.95
22
38.549102
32
0
13
19.95
23
38.549102
33
0
39
0
210
0
220
0
230
1
0
MTEXT
5
14E
100
AcDbEntity
8
0
62
256
6
ByLayer
370
18
48
1
60
0
100
AcDbMText
10
9.975
20
44.549102
30
0
210
0
220
0
230
1
1
\A1;20
40
3
41
0
44
1
50
0
71
5
72
5
7
iso_b_vert
0
POINT
5
14F
100
AcDbEntity
8
Defpoints
62
0
6
ByLayer
370
-1
48
1
60
0
100
AcDbPoint
10
0
20
19.5
30
0
39
0
210
0
220
0
230
1
50
360
0
POINT
5
150
100
AcDbEntity
8
Defpoints
62
0
6
ByLayer
370
-1
48
1
60
0
100
AcDbPoint
10
19.95
20
18.958158
30
0
39
0
210
0
220
0
230
1
50
360
0
POINT
5
151
100
AcDbEntity
8
Defpoints
62
0
6
ByLayer
370
-1
48
1
60
0
100
AcDbPoint
10
19.95
20
38.549102
30
0
39
0
210
0
220
0
230
1
50
360
0
ENDBLK
5
148
100
AcDbEntity
8
0
100
AcDbBlockEnd
0
BLOCK
5
15D
100
AcDbEntity
8
0
100
AcDbBlockBegin
2
_U3
70
0
10
0
20
0
30
0
3
_U3
0
MTEXT
5
153
100
AcDbEntity
8
SK2
62
256
6
ByLayer
370
18
48
1
60
0
100
AcDbMText
10
8.34263
20
39.434217
30
0
210
0
220
0
230
1
1
\W0.6740;20
40
3
41
0
44
1.084337
50
0
71
7
72
5
7
iso_b_vert
0
LINE
5
154
100
AcDbEntity
8
SK2
62
256
6
ByLayer
370
13
48
1
60
0
100
AcDbLine
10
0
20
21
30
0
11
0
21
41.549102
31
0
39
0
210
0
220
0
230
1
0
LINE
5
155
100
AcDbEntity
8
SK2
62
256
6
ByLayer
370
13
48
1
60
0
100
AcDbLine
10
19.95
20
20.458158
30
0
11
19.95
21
41.549102
31
0
39
0
210
0
220
0
230
1
0
LINE
5
156
100
AcDbEntity
8
SK2
62
256
6
ByLayer
370
13
48
1
60
0
100
AcDbLine
10
0
20
38.549102
30
0
11
19.95
21
38.549102
31
0
39
0
210
0
220
0
230
1
0
LINE
5
157
100
AcDbEntity
8
SK2
62
256
6
ByLayer
370
13
48
1
60
0
100
AcDbLine
10
0
20
38.549102
30
0
11
2.999998
21
39.078083
31
0
39
0
210
0
220
0
230
1
0
LINE
5
158
100
AcDbEntity
8
SK2
62
256
6
ByLayer
370
13
48
1
60
0
100
AcDbLine
10
0
20
38.549102
30
0
11
3.000002
21
38.020122
31
0
39
0
210
0
220
0
230
1
0
LINE
5
159
100
AcDbEntity
8
SK2
62
256
6
ByLayer
370
13
48
1
60
0
100
AcDbLine
10
2.999998
20
39.078083
30
0
11
3.000002
21
38.020122
31
0
39
0
210
0
220
0
230
1
0
LINE
5
15A
100
AcDbEntity
8
SK2
62
256
6
ByLayer
370
13
48
1
60
0
100
AcDbLine
10
19.95
20
38.549102
30
0
11
16.950002
21
38.020122
31
0
39
0
210
0
220
0
230
1
0
LINE
5
15B
100
AcDbEntity
8
SK2
62
256
6
ByLayer
370
13
48
1
60
0
100
AcDbLine
10
19.95
20
38.549102
30
0
11
16.949998
21
39.078083
31
0
39
0
210
0
220
0
230
1
0
LINE
5
15C
100
AcDbEntity
8
SK2
62
256
6
ByLayer
370
13
48
1
60
0
100
AcDbLine
10
16.950002
20
38.020122
30
0
11
16.949998
21
39.078083
31
0
39
0
210
0
220
0
230
1
0
ENDBLK
5
15E
100
AcDbEntity
8
0
100
AcDbBlockEnd
0
BLOCK
5
163
100
AcDbEntity
8
0
100
AcDbBlockBegin
2
*D10
70
1
10
0
20
0
30
0
3
*D10
0
LINE
5
165
100
AcDbEntity
8
0
62
256
6
ByLayer
370
-2
48
1
60
0
100
AcDbLine
10
-0.836957
20
19.975
30
0
11
-31.180464
21
19.975011
31
0
39
0
210
0
220
0
230
1
0
LINE
5
166
100
AcDbEntity
8
0
62
256
6
ByLayer
370
-2
48
1
60
0
100
AcDbLine
10
-0.607676
20
-19.974999
30
0
11
-31.180477
21
-19.974989
31
0
39
0
210
0
220
0
230
1
0
LINE
5
167
100
AcDbEntity
8
0
62
256
6
ByLayer
370
-2
48
1
60
0
100
AcDbLine
10
-28.180465
20
16.97501
30
0
11
-28.180476
21
-16.97499
31
0
39
0
210
0
220
0
230
1
0
SOLID
5
168
100
AcDbEntity
8
0
62
256
6
ByLayer
370
-1
48
1
60
0
100
AcDbTrace
10
-27.680465
20
16.975009
30
0
11
-28.680465
21
16.97501
31
0
12
-28.180464
22
19.97501
32
0
13
-28.180464
23
19.97501
33
0
39
0
210
0
220
0
230
1
0
SOLID
5
169
100
AcDbEntity
8
0
62
256
6
ByLayer
370
-1
48
1
60
0
100
AcDbTrace
10
-28.680476
20
-16.97499
30
0
11
-27.680476
21
-16.97499
31
0
12
-28.180477
22
-19.97499
32
0
13
-28.180477
23
-19.97499
33
0
39
0
210
0
220
0
230
1
0
MTEXT
5
16A
100
AcDbEntity
8
0
62
256
6
ByLayer
370
18
48
1
60
0
100
AcDbMText
10
-34.180471
20
1.2E-05
30
0
210
0
220
0
230
1
1
\A1;40
40
3
41
0
44
1
50
89.9999807491637
71
5
72
5
7
iso_b_vert
0
POINT
5
16B
100
AcDbEntity
8
Defpoints
62
0
6
ByLayer
370
-1
48
1
60
0
100
AcDbPoint
10
0.663043
20
19.975
30
0
39
0
210
0
220
0
230
1
50
360
0
POINT
5
16C
100
AcDbEntity
8
Defpoints
62
0
6
ByLayer
370
-1
48
1
60
0
100
AcDbPoint
10
0.892324
20
-19.975
30
0
39
0
210
0
220
0
230
1
50
360
0
POINT
5
16D
100
AcDbEntity
8
Defpoints
62
0
6
ByLayer
370
-1
48
1
60
0
100
AcDbPoint
10
-28.180477
20
-19.97499
30
0
39
0
210
0
220
0
230
1
50
360
0
ENDBLK
5
164
100
AcDbEntity
8
0
100
AcDbBlockEnd
0
BLOCK
5
17A
100
AcDbEntity
8
0
100
AcDbBlockBegin
2
_U4
70
0
10
0
20
0
30
0
3
_U4
0
MTEXT
5
16F
100
AcDbEntity
8
SK2
62
256
6
ByLayer
370
18
48
1
60
0
100
AcDbMText
10
-28.771585
20
0.691724
30
0
210
0
220
0
230
1
1
\W0.7361;40
40
3
41
0
44
1.084337
50
89.9999807491638
71
7
72
5
7
iso_b_vert
0
MTEXT
5
170
100
AcDbEntity
8
SK2
62
256
6
ByLayer
370
18
48
1
60
0
100
AcDbMText
10
-28.771587
20
-4.321247
30
0
210
0
220
0
230
1
1
\W1.3781;%%c
40
3
41
0
44
1.084337
50
89.9999807491638
71
7
72
5
7
iso_b_vert
0
LINE
5
171
100
AcDbEntity
8
SK2
62
256
6
ByLayer
370
13
48
1
60
0
100
AcDbLine
10
-1
20
19.975001
30
0
11
-31.180464
21
19.975011
31
0
39
0
210
0
220
0
230
1
0
LINE
5
172
100
AcDbEntity
8
SK2
62
256
6
ByLayer
370
13
48
1
60
0
100
AcDbLine
10
-1
20
-19.974999
30
0
11
-31.180477
21
-19.974989
31
0
39
0
210
0
220
0
230
1
0
LINE
5
173
100
AcDbEntity
8
SK2
62
256
6
ByLayer
370
13
48
1
60
0
100
AcDbLine
10
-28.180464
20
19.97501
30
0
11
-28.180477
21
-19.97499
31
0
39
0
210
0
220
0
230
1
0
LINE
5
174
100
AcDbEntity
8
SK2
62
256
6
ByLayer
370
13
48
1
60
0
100
AcDbLine
10
-28.180464
20
19.97501
30
0
11
-27.651484
21
16.975011
31
0
39
0
210
0
220
0
230
1
0
LINE
5
175
100
AcDbEntity
8
SK2
62
256
6
ByLayer
370
13
48
1
60
0
100
AcDbLine
10
-28.180464
20
19.97501
30
0
11
-28.709446
21
16.975008
31
0
39
0
210
0
220
0
230
1
0
LINE
5
176
100
AcDbEntity
8
SK2
62
256
6
ByLayer
370
13
48
1
60
0
100
AcDbLine
10
-27.651484
20
16.975011
30
0
11
-28.709446
21
16.975008
31
0
39
0
210
0
220
0
230
1
0
LINE
5
177
100
AcDbEntity
8
SK2
62
256
6
ByLayer
370
13
48
1
60
0
100
AcDbLine
10
-28.180477
20
-19.97499
30
0
11
-28.709457
21
-16.974992
31
0
39
0
210
0
220
0
230
1
0
LINE
5
178
100
AcDbEntity
8
SK2
62
256
6
ByLayer
370
13
48
1
60
0
100
AcDbLine
10
-28.180477
20
-19.97499
30
0
11
-27.651495
21
-16.974988
31
0
39
0
210
0
220
0
230
1
0
LINE
5
179
100
AcDbEntity
8
SK2
62
256
6
ByLayer
370
13
48
1
60
0
100
AcDbLine
10
-28.709457
20
-16.974992
30
0
11
-27.651495
21
-16.974988
31
0
39
0
210
0
220
0
230
1
0
ENDBLK
5
17B
100
AcDbEntity
8
0
100
AcDbBlockEnd
0
BLOCK
5
180
100
AcDbEntity
8
0
100
AcDbBlockBegin
2
*D12
70
1
10
0
20
0
30
0
3
*D12
0
LINE
5
182
100
AcDbEntity
8
0
62
256
6
ByLayer
370
-2
48
1
60
0
100
AcDbLine
10
45.781489
20
-9.6
30
0
11
64.317361
21
-9.6
31
0
39
0
210
0
220
0
230
1
0
LINE
5
183
100
AcDbEntity
8
0
62
256
6
ByLayer
370
-2
48
1
60
0
100
AcDbLine
10
43.775011
20
9.6
30
0
11
64.317361
21
9.6
31
0
39
0
210
0
220
0
230
1
0
LINE
5
184
100
AcDbEntity
8
0
62
256
6
ByLayer
370
-2
48
1
60
0
100
AcDbLine
10
61.317361
20
-6.6
30
0
11
61.317361
21
6.6
31
0
39
0
210
0
220
0
230
1
0
SOLID
5
185
100
AcDbEntity
8
0
62
256
6
ByLayer
370
-1
48
1
60
0
100
AcDbTrace
10
60.817361
20
-6.6
30
0
11
61.817361
21
-6.6
31
0
12
61.317361
22
-9.6
32
0
13
61.317361
23
-9.6
33
0
39
0
210
0
220
0
230
1
0
SOLID
5
186
100
AcDbEntity
8
0
62
256
6
ByLayer
370
-1
48
1
60
0
100
AcDbTrace
10
61.817361
20
6.6
30
0
11
60.817361
21
6.6
31
0
12
61.317361
22
9.6
32
0
13
61.317361
23
9.6
33
0
39
0
210
0
220
0
230
1
0
MTEXT
5
187
100
AcDbEntity
8
0
62
256
6
ByLayer
370
18
48
1
60
0
100
AcDbMText
10
55.317361
20
-0.134074
30
0
210
0
220
0
230
1
1
\A1;19.2
40
3
41
0
44
1
50
90
71
5
72
5
7
iso_b_vert
0
POINT
5
188
100
AcDbEntity
8
Defpoints
62
0
6
ByLayer
370
-1
48
1
60
0
100
AcDbPoint
10
44.281489
20
-9.6
30
0
39
0
210
0
220
0
230
1
50
360
0
POINT
5
189
100
AcDbEntity
8
Defpoints
62
0
6
ByLayer
370
-1
48
1
60
0
100
AcDbPoint
10
42.275011
20
9.6
30
0
39
0
210
0
220
0
230
1
50
360
0
POINT
5
18A
100
AcDbEntity
8
Defpoints
62
0
6
ByLayer
370
-1
48
1
60
0
100
AcDbPoint
10
61.317361
20
9.6
30
0
39
0
210
0
220
0
230
1
50
360
0
ENDBLK
5
181
100
AcDbEntity
8
0
100
AcDbBlockEnd
0
BLOCK
5
197
100
AcDbEntity
8
0
100
AcDbBlockBegin
2
_U5
70
0
10
0
20
0
30
0
3
_U5
0
MTEXT
5
18C
100
AcDbEntity
8
SK2
62
256
6
ByLayer
370
18
48
1
60
0
100
AcDbMText
10
60.726246
20
-0.638102
30
0
210
0
220
0
230
1
1
\W0.6563;19.2
40
3
41
0
44
1.084337
50
90
71
7
72
5
7
iso_b_vert
0
MTEXT
5
18D
100
AcDbEntity
8
SK2
62
256
6
ByLayer
370
18
48
1
60
0
100
AcDbMText
10
60.726246
20
-5.651073
30
0
210
0
220
0
230
1
1
\W1.3781;%%c
40
3
41
0
44
1.084337
50
90
71
7
72
5
7
iso_b_vert
0
LINE
5
18E
100
AcDbEntity
8
SK2
62
256
6
ByLayer
370
13
48
1
60
0
100
AcDbLine
10
46.5
20
-9.6
30
0
11
64.317361
21
-9.6
31
0
39
0
210
0
220
0
230
1
0
LINE
5
18F
100
AcDbEntity
8
SK2
62
256
6
ByLayer
370
13
48
1
60
0
100
AcDbLine
10
46.5
20
9.6
30
0
11
64.317361
21
9.6
31
0
39
0
210
0
220
0
230
1
0
LINE
5
190
100
AcDbEntity
8
SK2
62
256
6
ByLayer
370
13
48
1
60
0
100
AcDbLine
10
61.317361
20
-9.6
30
0
11
61.317361
21
9.6
31
0
39
0
210
0
220
0
230
1
0
LINE
5
191
100
AcDbEntity
8
SK2
62
256
6
ByLayer
370
13
48
1
60
0
100
AcDbLine
10
61.317361
20
-9.6
30
0
11
60.78838
21
-6.600002
31
0
39
0
210
0
220
0
230
1
0
LINE
5
192
100
AcDbEntity
8
SK2
62
256
6
ByLayer
370
13
48
1
60
0
100
AcDbLine
10
61.317361
20
-9.6
30
0
11
61.846342
21
-6.599998
31
0
39
0
210
0
220
0
230
1
0
LINE
5
193
100
AcDbEntity
8
SK2
62
256
6
ByLayer
370
13
48
1
60
0
100
AcDbLine
10
60.78838
20
-6.600002
30
0
11
61.846342
21
-6.599998
31
0
39
0
210
0
220
0
230
1
0
LINE
5
194
100
AcDbEntity
8
SK2
62
256
6
ByLayer
370
13
48
1
60
0
100
AcDbLine
10
61.317361
20
9.6
30
0
11
61.846342
21
6.600002
31
0
39
0
210
0
220
0
230
1
0
LINE
5
195
100
AcDbEntity
8
SK2
62
256
6
ByLayer
370
13
48
1
60
0
100
AcDbLine
10
61.317361
20
9.6
30
0
11
60.78838
21
6.599998
31
0
39
0
210
0
220
0
230
1
0
LINE
5
196
100
AcDbEntity
8
SK2
62
256
6
ByLayer
370
13
48
1
60
0
100
AcDbLine
10
61.846342
20
6.600002
30
0
11
60.78838
21
6.599998
31
0
39
0
210
0
220
0
230
1
0
ENDBLK
5
198
100
AcDbEntity
8
0
100
AcDbBlockEnd
0
ENDSEC
0
SECTION
2
ENTITIES
0
ARC
5
BA
100
AcDbEntity
8
1
62
256
6
ByLayer
370
18
48
1
60
0
100
AcDbCircle
39
0
10
25.635484
20
14.6
30
0
40
5
210
0
220
0
230
1
100
AcDbArc
50
195
51
270
0
ARC
5
BB
100
AcDbEntity
8
1
62
256
6
ByLayer
370
18
48
1
60
0
100
AcDbCircle
39
0
10
25.559282
20
-14.500354
30
0
40
4.90060414900554
210
0
220
0
230
1
100
AcDbArc
50
89.421614
51
164.997602
0
ARC
5
BC
100
AcDbEntity
8
1
62
256
6
ByLayer
370
18
48
1
60
0
100
AcDbCircle
39
0
10
16.63712
20
17.775918
30
0
40
0.40091775715985
210
0
220
0
230
1
100
AcDbArc
50
270.054317
51
357.032285
0
ARC
5
BD
100
AcDbEntity
8
1
62
256
6
ByLayer
370
18
48
1
60
0
100
AcDbCircle
39
0
10
15.36288
20
17.775918
30
0
40
0.400917757159894
210
0
220
0
230
1
100
AcDbArc
50
182.967715
51
269.945683
0
ARC
5
BE
100
AcDbEntity
8
1
62
256
6
ByLayer
370
18
48
1
60
0
100
AcDbCircle
39
0
10
-16.6375
20
13.098566
30
0
40
0.4
210
0
220
0
230
-1
100
AcDbArc
50
180
51
270
0
ARC
5
BF
100
AcDbEntity
8
1
62
256
6
ByLayer
370
18
48
1
60
0
100
AcDbCircle
39
0
10
-15.3625
20
13.098566
30
0
40
0.4
210
0
220
0
230
-1
100
AcDbArc
50
270
51
0
0
ARC
5
C0
100
AcDbEntity
8
SK1
62
256
6
ByLayer
370
18
48
1
60
0
100
AcDbCircle
39
0
10
-0.274633
20
-15.303211
30
0
40
0.4
210
0
220
0
230
1
100
AcDbArc
50
46.63972
51
90
0
ARC
5
C1
100
AcDbEntity
8
SK1
62
256
6
ByLayer
370
18
48
1
60
0
100
AcDbCircle
39
0
10
0.274633
20
15.303211
30
0
40
0.4
210
0
220
0
230
-1
100
AcDbArc
50
226.63972
51
270
0
ARC
5
C2
100
AcDbEntity
8
1
62
256
6
ByLayer
370
18
48
1
60
0
100
AcDbCircle
39
0
10
15.3625
20
-16.97286
30
0
40
0.4
210
0
220
0
230
1
100
AcDbArc
50
90
51
180
0
ARC
5
C3
100
AcDbEntity
8
1
62
256
6
ByLayer
370
18
48
1
60
0
100
AcDbCircle
39
0
10
16.6375
20
-16.97286
30
0
40
0.4
210
0
220
0
230
1
100
AcDbArc
50
0
51
90
0
ELLIPSE
5
C4
100
AcDbEntity
8
SK1
62
256
6
ByLayer
370
18
48
1
60
0
100
AcDbEllipse
10
-32.609743
20
-0.605766
30
0
11
-13.1962146111405
21
13.1923841767688
31
0
210
0
220
0
230
1
40
0.23981
41
-2.88571718478797
42
-2.78455448965561
0
ELLIPSE
5
C5
100
AcDbEntity
8
SK1
62
256
6
ByLayer
370
18
48
1
60
0
100
AcDbEllipse
10
-32.609743
20
0.605766
30
0
11
13.1962145944979
21
13.1923841625176
31
0
210
0
220
0
230
1
40
0.23981
41
-0.357038164163336
42
-0.255875468968872
0
POINT
5
70
100
AcDbEntity
8
80
62
256
6
ByLayer
370
18
48
1
60
0
100
AcDbPoint
10
0
20
0
30
0
39
0
210
0
220
0
230
1
50
360
0
POINT
5
72
100
AcDbEntity
8
81
62
256
6
ByLayer
370
18
48
1
60
0
100
AcDbPoint
10
45
20
0
30
0
39
0
210
0
220
0
230
1
50
360
0
SPLINE
5
C6
100
AcDbEntity
8
1
62
256
6
ByLayer
370
18
48
1
60
0
100
AcDbSpline
70
4
71
3
72
37
73
33
40
0
40
0
40
0
40
0
40
0.125000000000002
40
0.125000000000002
40
0.156250000000003
40
0.156250000000003
40
0.187500000000003
40
0.187500000000003
40
0.250000000000003
40
0.312500000000003
40
0.312500000000003
40
0.343750000000004
40
0.343750000000004
40
0.375000000000004
40
0.375000000000004
40
0.500000000000003
40
0.500000000000003
40
0.562500000000003
40
0.562500000000003
40
0.593750000000002
40
0.593750000000002
40
0.625000000000002
40
0.625000000000002
40
0.750000000000002
40
0.750000000000002
40
0.781250000000002
40
0.781250000000002
40
0.812500000000001
40
0.812500000000001
40
0.875000000000001
40
0.875000000000001
40
1
40
1
40
1
40
1
41
1
10
12.4545
20
19.4581580513162
30
0
41
1
10
12.1560417433564
20
19.4581580513162
30
0
41
1
10
11.8611823554728
20
19.46504139444
30
0
41
1
10
11.4970322617036
20
19.4816172881606
30
0
41
1
10
11.4242483193486
20
19.4853415464652
30
0
41
1
10
11.2801624611682
20
19.4935094995346
30
0
41
1
10
11.208875189492
20
19.4979496859057
30
0
41
1
10
10.9972278881989
20
19.5122662152329
30
0
41
1
10
10.7209263954158
20
19.5340100563092
30
0
41
1
10
10.4561243575813
20
19.5603206103424
30
0
41
1
10
10.2618514111729
20
19.581492759995
30
0
41
1
10
10.1978164476484
20
19.5887899483483
30
0
41
1
10
10.0712105113781
20
19.6038175164899
30
0
41
1
10
10.0084716311307
20
19.6115701027155
30
0
41
1
10
9.70127685761461
20
19.6509361171729
30
0
41
1
10
9.47537033787326
20
19.6844031240876
30
0
41
1
10
9.16508394112171
20
19.7346960752273
30
0
41
1
10
9.06645373425875
20
19.7514787404412
30
0
41
1
10
8.92588670522996
20
19.7763235284396
30
0
41
1
10
8.88018391138385
20
19.7845652956816
30
0
41
1
10
8.79219840296518
20
19.8007099519545
30
0
41
1
10
8.74980785922845
20
19.8086313038013
30
0
41
1
10
8.54573292029841
20
19.8473577952052
30
0
41
1
10
8.4074484400247
20
19.8755228769226
30
0
41
1
10
8.26606797534655
20
19.90525104303
30
0
41
1
10
8.23938029949992
20
19.9109225049315
30
0
41
1
10
8.18924913493007
20
19.9216656479591
30
0
41
1
10
8.16586221629344
20
19.9267253700143
30
0
41
1
10
8.10133194944279
20
19.9407865907655
30
0
41
1
10
8.06553700174142
20
19.948727574609
30
0
41
1
10
7.97936868090885
20
19.9680203212253
30
0
41
1
10
7.95
20
19.9748480789653
30
0
41
1
10
7.95
20
19.974997496871
30
0
0
SPLINE
5
C7
100
AcDbEntity
8
1
62
256
6
ByLayer
370
18
48
1
60
0
100
AcDbSpline
70
4
71
3
72
37
73
33
40
0
40
0
40
0
40
0
40
0.124999999999998
40
0.124999999999998
40
0.156249999999997
40
0.156249999999997
40
0.187499999999997
40
0.187499999999997
40
0.249999999999996
40
0.312499999999995
40
0.312499999999995
40
0.343749999999995
40
0.343749999999995
40
0.374999999999995
40
0.374999999999995
40
0.499999999999995
40
0.499999999999995
40
0.562499999999995
40
0.562499999999995
40
0.593749999999995
40
0.593749999999995
40
0.624999999999995
40
0.624999999999995
40
0.749999999999997
40
0.749999999999997
40
0.781249999999997
40
0.781249999999997
40
0.812499999999998
40
0.812499999999998
40
0.874999999999999
40
0.874999999999999
40
1
40
1
40
1
40
1
41
1
10
12.45
20
-19.1978597439923
30
0
41
1
10
12.1508200918169
20
-19.1978597439923
30
0
41
1
10
11.8552263711634
20
-19.2064224798727
30
0
41
1
10
11.4901429410217
20
-19.22714990276
30
0
41
1
10
11.4172134362043
20
-19.2318086844533
30
0
41
1
10
11.273151021671
20
-19.2420123738269
30
0
41
1
10
11.2018793073872
20
-19.2475632155734
30
0
41
1
10
10.9902884919721
20
-19.2654819649673
30
0
41
1
10
10.7140882473572
20
-19.2927475994534
30
0
41
1
10
10.4494236162202
20
-19.3259663746989
30
0
41
1
10
10.2552615940654
20
-19.3528341193121
30
0
41
1
10
10.1912649456489
20
-19.3621158022291
30
0
41
1
10
10.0647375081045
20
-19.3812854734666
30
0
41
1
10
10.0020918424156
20
-19.3911942177783
30
0
41
1
10
9.69587194305011
20
-19.4415847117359
30
0
41
1
10
9.47073855896894
20
-19.4849179060945
30
0
41
1
10
9.1615090890342
20
-19.5515022029618
30
0
41
1
10
9.06321453599306
20
-19.5739662727205
30
0
41
1
10
8.92311785485785
20
-19.607720365839
30
0
41
1
10
8.877606991432
20
-19.6189929220968
30
0
41
1
10
8.7900120372049
20
-19.6412597100119
30
0
41
1
10
8.74780280677012
20
-19.6522833124577
30
0
41
1
10
8.54456736245091
20
-19.7067249403497
30
0
41
1
10
8.4067381581663
20
-19.7481081019867
30
0
41
1
10
8.26571427690289
20
-19.7951997634287
30
0
41
1
10
8.23908741228814
20
-19.8043863744677
30
0
41
1
10
8.18905891070236
20
-19.8222472342668
30
0
41
1
10
8.1657347735181
20
-19.8308954081173
30
0
41
1
10
8.10133519126769
20
-19.8557453557982
30
0
41
1
10
8.06557953984501
20
-19.8709372490123
30
0
41
1
10
7.979450597346
20
-19.9121559279507
30
0
41
1
10
7.95
20
-19.9338304480369
30
0
41
1
10
7.95
20
-19.9490681173332
30
0
0
SPLINE
5
C8
100
AcDbEntity
8
SK1
62
256
6
ByLayer
370
18
48
1
60
0
100
AcDbSpline
70
4
71
3
72
46
73
42
40
0
40
0
40
0
40
0
40
0.125000000000001
40
0.125000000000001
40
0.187500000000001
40
0.187500000000001
40
0.25
40
0.25
40
0.3125
40
0.3125
40
0.343749999999999
40
0.343749999999999
40
0.374999999999999
40
0.374999999999999
40
0.406249999999999
40
0.406249999999999
40
0.437499999999999
40
0.437499999999999
40
0.453124999999999
40
0.453124999999999
40
0.460937499999998
40
0.460937499999998
40
0.468749999999998
40
0.468749999999998
40
0.484374999999997
40
0.484374999999997
40
0.499999999999996
40
0.499999999999996
40
0.531249999999996
40
0.531249999999996
40
0.562499999999996
40
0.562499999999996
40
0.624999999999997
40
0.624999999999997
40
0.687499999999997
40
0.687499999999997
40
0.749999999999998
40
0.749999999999998
40
0.874999999999999
40
0.874999999999999
40
1
40
1
40
1
40
1
41
1
10
-19.1400299536121
20
11.8601621182391
30
0
41
1
10
-19.1602273133703
20
11.7673122436363
30
0
41
1
10
-19.1840825038271
20
11.6717953059965
30
0
41
1
10
-19.227122660641
20
11.5232282751074
30
0
41
1
10
-19.2426897732682
20
11.4728160961717
30
0
41
1
10
-19.2768486415505
20
11.3697863563993
30
0
41
1
10
-19.295459492006
20
11.3170940264166
30
0
41
1
10
-19.3365948269899
20
11.2091379712128
30
0
41
1
10
-19.3590223215404
20
11.154048720484
30
0
41
1
10
-19.3969102654305
20
11.0688774936595
30
0
41
1
10
-19.4102557428477
20
11.0400591865175
30
0
41
1
10
-19.4389003266559
20
10.9812553036494
30
0
41
1
10
-19.4542464792102
20
10.9511702602157
30
0
41
1
10
-19.4873972153695
20
10.8901485416112
30
0
41
1
10
-19.5051782791228
20
10.8591734963385
30
0
41
1
10
-19.5450777662585
20
10.7955535470284
30
0
41
1
10
-19.5673766272127
20
10.7624875089825
30
0
41
1
10
-19.605987017903
20
10.7136248111026
30
0
41
1
10
-19.6199204153609
20
10.697282270401
30
0
41
1
10
-19.6418118235972
20
10.6745977832876
30
0
41
1
10
-19.6493735907345
20
10.6672539721399
30
0
41
1
10
-19.6642376917701
20
10.6539223363258
30
0
41
1
10
-19.6716199606265
20
10.6478448015669
30
0
41
1
10
-19.6936057561636
20
10.6315149075328
30
0
41
1
10
-19.7072767520056
20
10.623836917947
30
0
41
1
10
-19.7310991772146
20
10.6142304731263
30
0
41
1
10
-19.7413772374292
20
10.6121103965352
30
0
41
1
10
-19.7687314474197
20
10.6106250837137
30
0
41
1
10
-19.782115655443
20
10.6157927469731
30
0
41
1
10
-19.8048949008397
20
10.6309291612783
30
0
41
1
10
-19.8138774579271
20
10.6409626979297
30
0
41
1
10
-19.8371360963537
20
10.6748416350841
30
0
41
1
10
-19.8477303586821
20
10.70245797435
30
0
41
1
10
-19.8647731674823
20
10.7619367172797
30
0
41
1
10
-19.8710483864463
20
10.7940338333567
30
0
41
1
10
-19.8810590958064
20
10.8604947079243
30
0
41
1
10
-19.8847689570787
20
10.8948935720041
30
0
41
1
10
-19.8935559524091
20
11.0002029833002
30
0
41
1
10
-19.8963544047406
20
11.0731687110159
30
0
41
1
10
-19.8996124327756
20
11.221209637718
30
0
41
1
10
-19.9
20
11.2963497823351
30
0
41
1
10
-19.9
20
11.3718394802015
30
0
0
SPLINE
5
C9
100
AcDbEntity
8
SK1
62
256
6
ByLayer
370
18
48
1
60
0
100
AcDbSpline
70
2053
71
3
72
106
73
102
40
0
40
0
40
0
40
0
40
0.0312500000000003
40
0.0312500000000003
40
0.0468750000000006
40
0.0468750000000006
40
0.0625000000000008
40
0.0625000000000008
40
0.0937500000000014
40
0.0937500000000014
40
0.109375000000002
40
0.109375000000002
40
0.125000000000002
40
0.125000000000002
40
0.156250000000002
40
0.156250000000002
40
0.171875000000002
40
0.171875000000002
40
0.187500000000003
40
0.187500000000003
40
0.218750000000003
40
0.218750000000003
40
0.234375000000003
40
0.234375000000003
40
0.250000000000004
40
0.250000000000004
40
0.281250000000004
40
0.281250000000004
40
0.289062500000004
40
0.289062500000004
40
0.296875000000004
40
0.296875000000004
40
0.312500000000004
40
0.312500000000004
40
0.343750000000005
40
0.343750000000005
40
0.375000000000005
40
0.375000000000005
40
0.390625000000005
40
0.390625000000005
40
0.406250000000005
40
0.406250000000005
40
0.421875000000006
40
0.421875000000006
40
0.437500000000006
40
0.437500000000006
40
0.468750000000006
40
0.468750000000006
40
0.484375000000006
40
0.484375000000006
40
0.500000000000006
40
0.500000000000006
40
0.531250000000006
40
0.531250000000006
40
0.546875000000006
40
0.546875000000006
40
0.562500000000006
40
0.562500000000006
40
0.593750000000006
40
0.593750000000006
40
0.609375000000006
40
0.609375000000006
40
0.625000000000006
40
0.625000000000006
40
0.656250000000005
40
0.656250000000005
40
0.687500000000005
40
0.687500000000005
40
0.703125000000004
40
0.703125000000004
40
0.710937500000004
40
0.710937500000004
40
0.718750000000004
40
0.718750000000004
40
0.750000000000004
40
0.750000000000004
40
0.765625000000003
40
0.765625000000003
40
0.781250000000003
40
0.781250000000003
40
0.812500000000002
40
0.812500000000002
40
0.820312500000002
40
0.820312500000002
40
0.828125000000002
40
0.828125000000002
40
0.843750000000002
40
0.843750000000002
40
0.875000000000002
40
0.875000000000002
40
0.906250000000001
40
0.906250000000001
40
0.921875000000001
40
0.921875000000001
40
0.937500000000001
40
0.937500000000001
40
0.96875
40
0.96875
40
0.984375
40
0.984375
40
1
40
1
40
1
40
1
41
1
10
-7.60282659146394
20
-14.6624395443153
30
0
41
1
10
-7.44796192808846
20
-14.6547681256556
30
0
41
1
10
-7.28569241497749
20
-14.6487975367069
30
0
41
1
10
-7.03201757938436
20
-14.6433417960488
30
0
41
1
10
-6.94573389950859
20
-14.6421057267494
30
0
41
1
10
-6.76970657025152
20
-14.6409553003771
30
0
41
1
10
-6.67950378096528
20
-14.6410474822727
30
0
41
1
10
-6.40779634339372
20
-14.6434980541379
30
0
41
1
10
-6.22509260690377
20
-14.6479956181327
30
0
41
1
10
-5.94879407086903
20
-14.6592326470976
30
0
41
1
10
-5.8563180498181
20
-14.6637264066047
30
0
41
1
10
-5.67059866725179
20
-14.674240269094
30
0
41
1
10
-5.57740442489559
20
-14.6802668046295
30
0
41
1
10
-5.30203014418284
20
-14.7002287976841
30
0
41
1
10
-5.12221169035593
20
-14.7161424626078
30
0
41
1
10
-4.85806311839888
20
-14.7433468917942
30
0
41
1
10
-4.77094909386315
20
-14.7529705321925
30
0
41
1
10
-4.59865454520439
20
-14.773226220583
30
0
41
1
10
-4.51420054734355
20
-14.7837761797304
30
0
41
1
10
-4.26837597742447
20
-14.816103605172
30
0
41
1
10
-4.11338547058193
20
-14.8386913160475
30
0
41
1
10
-3.89463185598756
20
-14.8729790267107
30
0
41
1
10
-3.82397323595968
20
-14.8844826798039
30
0
41
1
10
-3.68773315050994
20
-14.9073762529241
30
0
41
1
10
-3.62326056232136
20
-14.9185780139937
30
0
41
1
10
-3.4406564231606
20
-14.9511263179313
30
0
41
1
10
-3.33321730356207
20
-14.9714295096038
30
0
41
1
10
-3.2180769216948
20
-14.9938743305165
30
0
41
1
10
-3.196016487308
20
-14.9982155301747
30
0
41
1
10
-3.15390601076873
20
-15.0065672221473
30
0
41
1
10
-3.13384680661836
20
-15.0105797817909
30
0
41
1
10
-3.07756596692377
20
-15.0219140378359
30
0
41
1
10
-3.0449311341861
20
-15.0285920157286
30
0
41
1
10
-2.96158441290198
20
-15.0457918838006
30
0
41
1
10
-2.92526132166598
20
-15.0534951046338
30
0
41
1
10
-2.89433834945486
20
-15.0600440712186
30
0
41
1
10
-2.9004268937214
20
-15.0587389120464
30
0
41
1
10
-2.94045722844434
20
-15.050296029985
30
0
41
1
10
-2.95898678973084
20
-15.0463991627743
30
0
41
1
10
-3.00665904080416
20
-15.0364784680204
30
0
41
1
10
-3.03538603172353
20
-15.0305420858412
30
0
41
1
10
-3.10195174029373
20
-15.0169792687543
30
0
41
1
10
-3.13981079156989
20
-15.0093484887712
30
0
41
1
10
-3.22444173172853
20
-14.9925948452213
30
0
41
1
10
-3.27132552428978
20
-14.9834503614288
30
0
41
1
10
-3.42470341258688
20
-14.9541949657305
30
0
41
1
10
-3.54131149083662
20
-14.9327532315844
30
0
41
1
10
-3.73597324796093
20
-14.8991692568807
30
0
41
1
10
-3.80418174393728
20
-14.8877339230366
30
0
41
1
10
-3.94726751884852
20
-14.8646030267408
30
0
41
1
10
-4.02112486458647
20
-14.8530735363158
30
0
41
1
10
-4.24917847417622
20
-14.8189197294983
30
0
41
1
10
-4.40985171659375
20
-14.7967233614044
30
0
41
1
10
-4.66366140784586
20
-14.7653981460994
30
0
41
1
10
-4.75059378264487
20
-14.7552704337623
30
0
41
1
10
-4.92555022708201
20
-14.7361944621055
30
0
41
1
10
-5.01395286882756
20
-14.7271965239591
30
0
41
1
10
-5.28188254293173
20
-14.7019689105326
30
0
41
1
10
-5.46410847843195
20
-14.6875053137507
30
0
41
1
10
-5.74306915686018
20
-14.6699021221153
30
0
41
1
10
-5.83619716595361
20
-14.6647716508655
30
0
41
1
10
-6.02109073042391
20
-14.6560578561639
30
0
41
1
10
-6.11311711036166
20
-14.652457844553
30
0
41
1
10
-6.38794155104979
20
-14.643876406739
30
0
41
1
10
-6.56971715705103
20
-14.6411155806191
30
0
41
1
10
-6.92880537589089
20
-14.6412085255183
30
0
41
1
10
-7.10092409849815
20
-14.6440466231159
30
0
41
1
10
-7.34812923458156
20
-14.6514927987371
30
0
41
1
10
-7.42868999543334
20
-14.6545072658072
30
0
41
1
10
-7.54667430332523
20
-14.6597040807804
30
0
41
1
10
-7.58552542007786
20
-14.6615488444668
30
0
41
1
10
-7.66224651927224
20
-14.665442126086
30
0
41
1
10
-7.70020820041914
20
-14.6674963277872
30
0
41
1
10
-7.88555807758627
20
-14.6781078126741
30
0
41
1
10
-8.02079753904639
20
-14.687725744119
30
0
41
1
10
-8.2039024967188
20
-14.7024453624627
30
0
41
1
10
-8.26162187839452
20
-14.7074020518916
30
0
41
1
10
-8.37008251212219
20
-14.7171833451286
30
0
41
1
10
-8.42094039934805
20
-14.722021917066
30
0
41
1
10
-8.55885980348634
20
-14.735633588478
30
0
41
1
10
-8.63279944005979
20
-14.743617117503
30
0
41
1
10
-8.70200628007988
20
-14.7513044655413
30
0
41
1
10
-8.71467539268548
20
-14.7527276492011
30
0
41
1
10
-8.73760297692192
20
-14.755322900512
30
0
41
1
10
-8.74788991459046
20
-14.7564982494916
30
0
41
1
10
-8.77475178320414
20
-14.7595847235087
30
0
41
1
10
-8.78736234762737
20
-14.7610580400892
30
0
41
1
10
-8.80971785230698
20
-14.7636738878542
30
0
41
1
10
-8.8041181764515
20
-14.7630010043899
30
0
41
1
10
-8.7503629161832
20
-14.7567634946008
30
0
41
1
10
-8.70324536763752
20
-14.7513264384553
30
0
41
1
10
-8.60406484204992
20
-14.7405921658745
30
0
41
1
10
-8.56614341449267
20
-14.7365778086008
30
0
41
1
10
-8.48085453879165
20
-14.727889456861
30
0
41
1
10
-8.4341037121645
20
-14.7232790998984
30
0
41
1
10
-8.28219655271184
20
-14.709000256208
30
0
41
1
10
-8.16549768178082
20
-14.6988780476786
30
0
41
1
10
-7.96766272160246
20
-14.6842029621659
30
0
41
1
10
-7.89872462126788
20
-14.679460201109
30
0
41
1
10
-7.75508879087385
20
-14.6704997991029
30
0
41
1
10
-7.68025892315168
20
-14.6662752536452
30
0
41
1
10
-7.60282659146394
20
-14.6624395443153
30
0
0
SPLINE
5
CA
100
AcDbEntity
8
SK1
62
256
6
ByLayer
370
18
48
1
60
0
100
AcDbSpline
70
2053
71
3
72
118
73
114
40
0
40
0
40
0
40
0
40
0.0312500000000005
40
0.0312500000000005
40
0.0468750000000009
40
0.0468750000000009
40
0.0625000000000012
40
0.0625000000000012
40
0.0937500000000019
40
0.0937500000000019
40
0.101562500000002
40
0.101562500000002
40
0.109375000000002
40
0.109375000000002
40
0.125000000000003
40
0.140625000000003
40
0.140625000000003
40
0.148437500000003
40
0.148437500000003
40
0.156250000000003
40
0.156250000000003
40
0.187500000000004
40
0.187500000000004
40
0.195312500000004
40
0.195312500000004
40
0.203125000000004
40
0.203125000000004
40
0.218750000000004
40
0.234375000000004
40
0.234375000000004
40
0.250000000000004
40
0.250000000000004
40
0.281250000000005
40
0.281250000000005
40
0.289062500000005
40
0.289062500000005
40
0.296875000000005
40
0.296875000000005
40
0.312500000000004
40
0.312500000000004
40
0.343750000000004
40
0.343750000000004
40
0.359375000000004
40
0.359375000000004
40
0.375000000000004
40
0.375000000000004
40
0.406250000000004
40
0.406250000000004
40
0.414062500000004
40
0.414062500000004
40
0.421875000000004
40
0.421875000000004
40
0.437500000000004
40
0.437500000000004
40
0.468750000000003
40
0.468750000000003
40
0.484375000000003
40
0.484375000000003
40
0.500000000000003
40
0.500000000000003
40
0.515625000000003
40
0.515625000000003
40
0.523437500000003
40
0.523437500000003
40
0.531250000000003
40
0.531250000000003
40
0.562500000000002
40
0.562500000000002
40
0.578125000000002
40
0.578125000000002
40
0.585937500000002
40
0.585937500000002
40
0.593750000000002
40
0.593750000000002
40
0.625000000000002
40
0.625000000000002
40
0.632812500000002
40
0.632812500000002
40
0.640625000000002
40
0.640625000000002
40
0.656250000000002
40
0.671875000000002
40
0.671875000000002
40
0.687500000000001
40
0.687500000000001
40
0.718750000000001
40
0.718750000000001
40
0.734375000000001
40
0.734375000000001
40
0.750000000000001
40
0.765625000000001
40
0.765625000000001
40
0.781250000000001
40
0.781250000000001
40
0.812500000000001
40
0.812500000000001
40
0.828125000000001
40
0.828125000000001
40
0.843750000000001
40
0.843750000000001
40
0.875000000000001
40
0.875000000000001
40
0.890625000000001
40
0.890625000000001
40
0.906250000000001
40
0.906250000000001
40
0.9375
40
0.9375
40
0.953125
40
0.953125
40
0.96875
40
0.96875
40
1
40
1
40
1
40
1
41
1
10
-8.25979707613536
20
14.7073262579508
30
0
41
1
10
-8.37410517226281
20
14.7172727399313
30
0
41
1
10
-8.47154150801165
20
14.7268357317071
30
0
41
1
10
-8.59197353397733
20
14.7392953703877
30
0
41
1
10
-8.62786645312803
20
14.7431434568918
30
0
41
1
10
-8.6902296973973
20
14.7499693447236
30
0
41
1
10
-8.71628131670536
20
14.7528998194374
30
0
41
1
10
-8.77938889716854
20
14.7600824426854
30
0
41
1
10
-8.8015599731875
20
14.7627205425335
30
0
41
1
10
-8.80313355540554
20
14.7629053687155
30
0
41
1
10
-8.80211707505064
20
14.7627858415042
30
0
41
1
10
-8.79747551688662
20
14.7622414427864
30
0
41
1
10
-8.79385333860921
20
14.7618169190923
30
0
41
1
10
-8.77915762823644
20
14.7601019347994
30
0
41
1
10
-8.74937122912062
20
14.7566384892343
30
0
41
1
10
-8.69950205705448
20
14.7510047224596
30
0
41
1
10
-8.65444313456623
20
14.7460466708262
30
0
41
1
10
-8.63814624735974
20
14.7442723857889
30
0
41
1
10
-8.6034111223247
20
14.7405447405128
30
0
41
1
10
-8.58492917311305
20
14.7385865374794
30
0
41
1
10
-8.48708987461258
20
14.7283901311513
30
0
41
1
10
-8.39161166918896
20
14.7189308817888
30
0
41
1
10
-8.25126028983699
20
14.7065632145438
30
0
41
1
10
-8.22213465268927
20
14.7040639455073
30
0
41
1
10
-8.16241208564446
20
14.6990955522062
30
0
41
1
10
-8.1317401888377
20
14.6966197088206
30
0
41
1
10
-8.03735621720473
20
14.6892602397506
30
0
41
1
10
-7.90521039862369
20
14.6796312768355
30
0
41
1
10
-7.76082888726033
20
14.6708204830611
30
0
41
1
10
-7.61032921147173
20
14.6626503245111
30
0
41
1
10
-7.53198948918081
20
14.6588914083648
30
0
41
1
10
-7.29256073646267
20
14.6491056700358
30
0
41
1
10
-7.12561274538095
20
14.6444813701207
30
0
41
1
10
-6.90808093942487
20
14.6418782716948
30
0
41
1
10
-6.8641283485856
20
14.6415165348205
30
0
41
1
10
-6.77532320430875
20
14.6411314038676
30
0
41
1
10
-6.73037802970484
20
14.6411088924155
30
0
41
1
10
-6.59538361621781
20
14.6415730283959
30
0
41
1
10
-6.50489671298347
20
14.6425873946454
30
0
41
1
10
-6.23202186082537
20
14.6478103827528
30
0
41
1
10
-6.04823209885949
20
14.6541992445945
30
0
41
1
10
-5.76973040630241
20
14.6683820836449
30
0
41
1
10
-5.67621444216696
20
14.6738973503557
30
0
41
1
10
-5.49175862872127
20
14.6862337043013
30
0
41
1
10
-5.40039323543484
20
14.6930726259408
30
0
41
1
10
-5.1288290831849
20
14.7154709043326
30
0
41
1
10
-4.95114043462677
20
14.7329144499657
30
0
41
1
10
-4.73335803648783
20
14.7574025588472
30
0
41
1
10
-4.68995792248021
20
14.7624422654254
30
0
41
1
10
-4.60444866274589
20
14.7726733898525
30
0
41
1
10
-4.56224066306516
20
14.7778754381262
30
0
41
1
10
-4.43723630406718
20
14.7937069604818
30
0
41
1
10
-4.35605583784744
20
14.8045619410129
30
0
41
1
10
-4.11895705767239
20
14.8377555648831
30
0
41
1
10
-3.96940933566103
20
14.8607326388899
30
0
41
1
10
-3.75893375703531
20
14.8952811297693
30
0
41
1
10
-3.69196978301649
20
14.9066668894952
30
0
41
1
10
-3.56541214249717
20
14.9287841421773
30
0
41
1
10
-3.5056446864229
20
14.9395444664907
30
0
41
1
10
-3.39324028773227
20
14.9602437727331
30
0
41
1
10
-3.34060221690504
20
14.9701832477751
30
0
41
1
10
-3.26724707146674
20
14.9842915434883
30
0
41
1
10
-3.24373092457415
20
14.9888606016212
30
0
41
1
10
-3.19863827584724
20
14.997696868026
30
0
41
1
10
-3.17699575486103
20
15.0019773357358
30
0
41
1
10
-3.07498768885565
20
15.0223042690122
30
0
41
1
10
-3.0125587642341
20
15.0352263226594
30
0
41
1
10
-2.9480357203195
20
15.0486969855377
30
0
41
1
10
-2.93141714280312
20
15.0521998547852
30
0
41
1
10
-2.91422766557154
20
15.0558315149107
30
0
41
1
10
-2.90980170342779
20
15.0567689567785
30
0
41
1
10
-2.90367928942241
20
15.0580665230404
30
0
41
1
10
-2.90195865029991
20
15.0584317608032
30
0
41
1
10
-2.89994322672253
20
15.0588594289333
30
0
41
1
10
-2.91920881368566
20
15.0547381535083
30
0
41
1
10
-2.96962185240374
20
15.0441878210391
30
0
41
1
10
-2.98105044075526
20
15.0418037348539
30
0
41
1
10
-3.00625676352671
20
15.0365720487339
30
0
41
1
10
-3.02006403792325
20
15.033718248165
30
0
41
1
10
-3.06500032833443
20
15.0244854480078
30
0
41
1
10
-3.13426529880205
20
15.0103885449797
30
0
41
1
10
-3.22166890618729
20
14.9931239595056
30
0
41
1
10
-3.31814859183413
20
14.9744597763414
30
0
41
1
10
-3.37038936890048
20
14.9645338636525
30
0
41
1
10
-3.53732006176569
20
14.9335900694824
30
0
41
1
10
-3.66257704844131
20
14.9113230157198
30
0
41
1
10
-3.8707351067249
20
14.8768475327543
30
0
41
1
10
-3.94304853525698
20
14.8652576871716
30
0
41
1
10
-4.09175401653232
20
14.8423475462598
30
0
41
1
10
-4.24500037429034
20
14.8196304713067
30
0
41
1
10
-4.40710471746923
20
14.7976866653252
30
0
41
1
10
-4.57365438874782
20
14.7763165334142
30
0
41
1
10
-4.65949702810103
20
14.7658827209743
30
0
41
1
10
-4.91928993280294
20
14.7362251275098
30
0
41
1
10
-5.09652273022272
20
14.7184950025315
30
0
41
1
10
-5.36831262252042
20
14.6955827978406
30
0
41
1
10
-5.45990574495965
20
14.6885586019713
30
0
41
1
10
-5.64514263902894
20
14.6758373476844
30
0
41
1
10
-5.73839605688335
20
14.6701746078779
30
0
41
1
10
-6.01598222513651
20
14.6555341853704
30
0
41
1
10
-6.19973403971881
20
14.6487926181733
30
0
41
1
10
-6.47338209451126
20
14.6430522555474
30
0
41
1
10
-6.56426595926302
20
14.6418672845143
30
0
41
1
10
-6.74533657295396
20
14.6409243067961
30
0
41
1
10
-6.83438972754164
20
14.6411739307884
30
0
41
1
10
-7.09591387599354
20
14.6438492237598
30
0
41
1
10
-7.26336539707774
20
14.6481989389764
30
0
41
1
10
-7.50384166295999
20
14.6576327917811
30
0
41
1
10
-7.58245518922551
20
14.6612758692787
30
0
41
1
10
-7.73475187676259
20
14.6693078545073
30
0
41
1
10
-7.80779852435539
20
14.6736585183691
30
0
41
1
10
-8.01768296817765
20
14.6873618803681
30
0
41
1
10
-8.14548898000791
20
14.6973797759703
30
0
41
1
10
-8.25979707613536
20
14.7073262579508
30
0
0
SPLINE
5
CB
100
AcDbEntity
8
SK1
62
256
6
ByLayer
370
18
48
1
60
0
100
AcDbSpline
70
4
71
3
72
8
73
4
40
0
40
0
40
0
40
0
40
1
40
1
40
1
40
1
41
1
10
-19.0424698269216
20
-12.5677010463964
30
0
41
1
10
-19.0384814845825
20
-12.6591312575364
30
0
41
1
10
-19.0052571172978
20
-12.7462976285912
30
0
41
1
10
-18.95
20
-12.8297840617967
30
0
0
SPLINE
5
CC
100
AcDbEntity
8
SK1
62
256
6
ByLayer
370
18
48
1
60
0
100
AcDbSpline
70
4
71
3
72
24
73
20
40
0
40
0
40
0
40
0
40
0.249999999999998
40
0.249999999999998
40
0.499999999999996
40
0.499999999999996
40
0.624999999999995
40
0.624999999999995
40
0.749999999999994
40
0.749999999999994
40
0.812499999999995
40
0.812499999999995
40
0.874999999999997
40
0.874999999999997
40
0.937499999999999
40
0.937499999999999
40
0.968749999999999
40
0.968749999999999
40
1
40
1
40
1
40
1
41
1
10
-18.9499999999975
20
-12.8297840618031
30
0
41
1
10
-18.795949549866
20
-12.8253326366567
30
0
41
1
10
-18.6422299069312
20
-12.8200440825919
30
0
41
1
10
-18.3358104868256
20
-12.8068779272733
30
0
41
1
10
-18.1830234344085
20
-12.7990453479895
30
0
41
1
10
-17.9556756773774
20
-12.7838240752834
30
0
41
1
10
-17.8801723210466
20
-12.7781608510031
30
0
41
1
10
-17.7301866647898
20
-12.7650174247142
30
0
41
1
10
-17.6557739953538
20
-12.7575785453634
30
0
41
1
10
-17.5457679120142
20
-12.7440071033711
30
0
41
1
10
-17.509377142482
20
-12.7390731850758
30
0
41
1
10
-17.4378143630039
20
-12.7280151932324
30
0
41
1
10
-17.4025880590865
20
-12.7219050109537
30
0
41
1
10
-17.334101403829
20
-12.7076255896503
30
0
41
1
10
-17.3005979315731
20
-12.6994794968254
30
0
41
1
10
-17.2551148152835
20
-12.6842309515801
30
0
41
1
10
-17.2406253291664
20
-12.6785708286766
30
0
41
1
10
-17.2153448618944
20
-12.6657522679452
30
0
41
1
10
-17.2042898765482
20
-12.6584763409968
30
0
41
1
10
-17.197123218073
20
-12.6500922654741
30
0
0
SPLINE
5
CD
100
AcDbEntity
8
SK1
62
256
6
ByLayer
370
18
48
1
60
0
100
AcDbSpline
70
4
71
3
72
24
73
20
40
0
40
0
40
0
40
0
40
0.0625000000000001
40
0.0625000000000001
40
0.125
40
0.125
40
0.1875
40
0.1875
40
0.250000000000001
40
0.250000000000001
40
0.375000000000001
40
0.375000000000001
40
0.500000000000001
40
0.500000000000001
40
0.625000000000001
40
0.625000000000001
40
0.750000000000001
40
0.750000000000001
40
1
40
1
40
1
40
1
41
1
10
-17.1971232180731
20
-12.6500922654741
30
0
41
1
10
-17.174232022882
20
-12.6233124893832
30
0
41
1
10
-17.1449285709139
20
-12.5975302697623
30
0
41
1
10
-17.0769511117621
20
-12.5481305606063
30
0
41
1
10
-17.0388781516066
20
-12.5248880183355
30
0
41
1
10
-16.9568314906661
20
-12.4805084030554
30
0
41
1
10
-16.9126493488106
20
-12.4593009616455
30
0
41
1
10
-16.8209028435622
20
-12.4189993611942
30
0
41
1
10
-16.7733141923126
20
-12.3998762518079
30
0
41
1
10
-16.6266747046134
20
-12.3448275477289
30
0
41
1
10
-16.5238141523282
20
-12.3111843438501
30
0
41
1
10
-16.3115861656736
20
-12.2477961921663
30
0
41
1
10
-16.2019954168598
20
-12.2180447795376
30
0
41
1
10
-15.9796279720003
20
-12.1617068675327
30
0
41
1
10
-15.8666754174753
20
-12.1350781745358
30
0
41
1
10
-15.6381626768903
20
-12.0840914610365
30
0
41
1
10
-15.5225139003853
20
-12.0597243634403
30
0
41
1
10
-15.1734317057039
20
-11.9894605034967
30
0
41
1
10
-14.9376959768368
20
-11.9463024214939
30
0
41
1
10
-14.7
20
-11.9055404509107
30
0
0
SPLINE
5
CE
100
AcDbEntity
8
SK1
62
256
6
ByLayer
370
18
48
1
60
0
100
AcDbSpline
70
4
71
3
72
28
73
24
40
0
40
0
40
0
40
0
40
0.0156250000000009
40
0.0156250000000009
40
0.0312500000000018
40
0.0312500000000018
40
0.062500000000001
40
0.062500000000001
40
0.0937500000000002
40
0.0937500000000002
40
0.124999999999999
40
0.124999999999999
40
0.1875
40
0.1875
40
0.25
40
0.25
40
0.374999999999999
40
0.374999999999999
40
0.499999999999999
40
0.499999999999999
40
0.75
40
0.75
40
1
40
1
40
1
40
1
41
1
10
-14.7
20
-11.9055404509107
30
0
41
1
10
-14.6908190086772
20
-11.9039660225034
30
0
41
1
10
-14.6814511412175
20
-11.9029637444623
30
0
41
1
10
-14.6622952535089
20
-11.9022489616007
30
0
41
1
10
-14.6523697881463
20
-11.9025619967781
30
0
41
1
10
-14.6234739377276
20
-11.90549260596
30
0
41
1
10
-14.6047576959257
20
-11.9101622269398
30
0
41
1
10
-14.5712362319456
20
-11.9224731513551
30
0
41
1
10
-14.5559528909893
20
-11.9301773106226
30
0
41
1
10
-14.5285240252356
20
-11.9466929335339
30
0
41
1
10
-14.5161972726636
20
-11.9555769573848
30
0
41
1
10
-14.4818577955848
20
-11.9833830978034
30
0
41
1
10
-14.4628620508397
20
-12.0030727875975
30
0
41
1
10
-14.4292194617681
20
-12.0427788909797
30
0
41
1
10
-14.4145336186762
20
-12.0629745716261
30
0
41
1
10
-14.3744655695881
20
-12.124048947119
30
0
41
1
10
-14.3530425338119
20
-12.1654132714629
30
0
41
1
10
-14.3164547375383
20
-12.2468137659158
30
0
41
1
10
-14.3012568329969
20
-12.2871377632699
30
0
41
1
10
-14.2616972349745
20
-12.4068252202602
30
0
41
1
10
-14.2432692640288
20
-12.4848998922304
30
0
41
1
10
-14.2159421802512
20
-12.6372622434783
30
0
41
1
10
-14.2072005446175
20
-12.7116483669945
30
0
41
1
10
-14.202410115942
20
-12.7838000884099
30
0
0
SPLINE
5
CF
100
AcDbEntity
8
SK1
62
256
6
ByLayer
370
18
48
1
60
0
100
AcDbSpline
70
4
71
3
72
20
73
16
40
0
40
0
40
0
40
0
40
0.0625
40
0.0625
40
0.125
40
0.125
40
0.25
40
0.25
40
0.375
40
0.375
40
0.5
40
0.5
40
0.75
40
0.75
40
1
40
1
40
1
40
1
41
1
10
-14.202410115942
20
-12.7838000884099
30
0
41
1
10
-14.2010699150458
20
-12.8039857144266
30
0
41
1
10
-14.1977988970119
20
-12.8242196762551
30
0
41
1
10
-14.1879553346954
20
-12.8639763605587
30
0
41
1
10
-14.1813986162564
20
-12.883572994694
30
0
41
1
10
-14.157961403796
20
-12.9416223922474
30
0
41
1
10
-14.1373752215137
20
-12.9793415693136
30
0
41
1
10
-14.0919933144308
20
-13.0532817480586
30
0
41
1
10
-14.0672030944229
20
-13.0895019639313
30
0
41
1
10
-14.017426943295
20
-13.1607193764236
30
0
41
1
10
-13.9924176075841
20
-13.1957159487426
30
0
41
1
10
-13.921049525775
20
-13.2990724332337
30
0
41
1
10
-13.8787095286662
20
-13.3655009081794
30
0
41
1
10
-13.818365936205
20
-13.4933059155091
30
0
41
1
10
-13.8
20
-13.5546805962126
30
0
41
1
10
-13.8
20
-13.6133466203323
30
0
0
SPLINE
5
D0
100
AcDbEntity
8
SK1
62
256
6
ByLayer
370
18
48
1
60
0
100
AcDbSpline
70
4
71
3
72
18
73
14
40
0
40
0
40
0
40
0
40
0.125
40
0.125
40
0.249999999999999
40
0.249999999999999
40
0.499999999999999
40
0.499999999999999
40
0.624999999999999
40
0.624999999999999
40
0.749999999999999
40
0.749999999999999
40
1
40
1
40
1
40
1
41
1
10
-13.7999999999999
20
-13.6133466203323
30
0
41
1
10
-13.7999999999999
20
-13.5841380247054
30
0
41
1
10
-13.8046319044985
20
-13.5538484870284
30
0
41
1
10
-13.8216538942117
20
-13.4917246515442
30
0
41
1
10
-13.833958231904
20
-13.460114026291
30
0
41
1
10
-13.8797446533714
20
-13.3636563608995
30
0
41
1
10
-13.9222892337928
20
-13.2972036023199
30
0
41
1
10
-13.9935380556102
20
-13.1941313978437
30
0
41
1
10
-14.0185049438575
20
-13.159200031395
30
0
41
1
10
-14.0681464212281
20
-13.0881283372459
30
0
41
1
10
-14.0928444772305
20
-13.0519855504997
30
0
41
1
10
-14.160547512569
20
-12.9414016175972
30
0
41
1
10
-14.1970295134021
20
-12.8648407972517
30
0
41
1
10
-14.2024101159421
20
-12.7838000884098
30
0
0
SPLINE
5
D1
100
AcDbEntity
8
SK1
62
256
6
ByLayer
370
18
48
1
60
0
100
AcDbSpline
70
4
71
3
72
28
73
24
40
0
40
0
40
0
40
0
40
0.250000000000001
40
0.250000000000001
40
0.500000000000002
40
0.500000000000002
40
0.625000000000002
40
0.625000000000002
40
0.750000000000002
40
0.750000000000002
40
0.812500000000001
40
0.812500000000001
40
0.875000000000001
40
0.875000000000001
40
0.90625
40
0.90625
40
0.937499999999998
40
0.937499999999998
40
0.953124999999998
40
0.953124999999998
40
0.968749999999997
40
0.968749999999997
40
1
40
1
40
1
40
1
41
1
10
-14.2024101159423
20
-12.7838000884099
30
0
41
1
10
-14.2072040591496
20
-12.7115954323744
30
0
41
1
10
-14.2159333344614
20
-12.6372178119301
30
0
41
1
10
-14.2434244579272
20
-12.4841288595429
30
0
41
1
10
-14.2620123050023
20
-12.4055094322208
30
0
41
1
10
-14.3020209746191
20
-12.2850134734354
30
0
41
1
10
-14.3173868489851
20
-12.2444829039247
30
0
41
1
10
-14.3542718008682
20
-12.1629510459571
30
0
41
1
10
-14.375646911715
20
-12.1219510040526
30
0
41
1
10
-14.4159494842395
20
-12.0609764438221
30
0
41
1
10
-14.4307177765474
20
-12.0408333573352
30
0
41
1
10
-14.4645340268459
20
-12.001294083914
30
0
41
1
10
-14.4836378061234
20
-11.9817326368268
30
0
41
1
10
-14.5177856296313
20
-11.9544071718582
30
0
41
1
10
-14.5301911179375
20
-11.9455761498651
30
0
41
1
10
-14.5575874610768
20
-11.9293205757393
30
0
41
1
10
-14.5724459667685
20
-11.9219272791712
30
0
41
1
10
-14.5976674040508
20
-11.9128229169124
30
0
41
1
10
-14.6063656733469
20
-11.9102061408375
30
0
41
1
10
-14.6244697245765
20
-11.9059923917968
30
0
41
1
10
-14.6340058409937
20
-11.9043912585284
30
0
41
1
10
-14.6624907121253
20
-11.9016061147957
30
0
41
1
10
-14.6818803592157
20
-11.9024331527795
30
0
41
1
10
-14.7
20
-11.9055404509107
30
0
0
SPLINE
5
D2
100
AcDbEntity
8
SK1
62
256
6
ByLayer
370
18
48
1
60
0
100
AcDbSpline
70
4
71
3
72
24
73
20
40
0
40
0
40
0
40
0
40
0.249999999999999
40
0.249999999999999
40
0.374999999999998
40
0.374999999999998
40
0.499999999999997
40
0.499999999999997
40
0.624999999999997
40
0.624999999999997
40
0.749999999999996
40
0.749999999999996
40
0.812499999999997
40
0.812499999999997
40
0.874999999999998
40
0.874999999999998
40
0.937499999999999
40
0.937499999999999
40
1
40
1
40
1
40
1
41
1
10
-14.7
20
-11.9055404509107
30
0
41
1
10
-14.9376959768368
20
-11.9463024214939
30
0
41
1
10
-15.1734317057039
20
-11.9894605034967
30
0
41
1
10
-15.5225139003853
20
-12.0597243634403
30
0
41
1
10
-15.6381626768902
20
-12.0840914610365
30
0
41
1
10
-15.8666754174753
20
-12.1350781745358
30
0
41
1
10
-15.9796279720002
20
-12.1617068675327
30
0
41
1
10
-16.2019954168598
20
-12.2180447795376
30
0
41
1
10
-16.3115861656736
20
-12.2477961921663
30
0
41
1
10
-16.5238141523282
20
-12.3111843438501
30
0
41
1
10
-16.6266747046134
20
-12.3448275477289
30
0
41
1
10
-16.7733141923126
20
-12.3998762518079
30
0
41
1
10
-16.8209028435622
20
-12.4189993611942
30
0
41
1
10
-16.9126493488106
20
-12.4593009616455
30
0
41
1
10
-16.9568314906661
20
-12.4805084030554
30
0
41
1
10
-17.0388781516066
20
-12.5248880183355
30
0
41
1
10
-17.076951111762
20
-12.5481305606063
30
0
41
1
10
-17.1449285709138
20
-12.5975302697623
30
0
41
1
10
-17.174232022882
20
-12.6233124893831
30
0
41
1
10
-17.1971232180731
20
-12.6500922654741
30
0
0
SPLINE
5
D3
100
AcDbEntity
8
SK1
62
256
6
ByLayer
370
18
48
1
60
0
100
AcDbSpline
70
4
71
3
72
24
73
20
40
0
40
0
40
0
40
0
40
0.031250000000002
40
0.031250000000002
40
0.062500000000004
40
0.062500000000004
40
0.125000000000004
40
0.125000000000004
40
0.187500000000005
40
0.187500000000005
40
0.250000000000005
40
0.250000000000005
40
0.375000000000006
40
0.375000000000006
40
0.500000000000007
40
0.500000000000007
40
0.750000000000004
40
0.750000000000004
40
1
40
1
40
1
40
1
41
1
10
-17.197123218073
20
-12.6500922654741
30
0
41
1
10
-17.2042898765482
20
-12.6584763409968
30
0
41
1
10
-17.2153448618944
20
-12.6657522679452
30
0
41
1
10
-17.2406253291663
20
-12.6785708286766
30
0
41
1
10
-17.2551148152834
20
-12.6842309515801
30
0
41
1
10
-17.300597931573
20
-12.6994794968254
30
0
41
1
10
-17.3341014038289
20
-12.7076255896503
30
0
41
1
10
-17.4025880590864
20
-12.7219050109537
30
0
41
1
10
-17.4378143630038
20
-12.7280151932324
30
0
41
1
10
-17.5093771424819
20
-12.7390731850758
30
0
41
1
10
-17.5457679120141
20
-12.7440071033711
30
0
41
1
10
-17.6557739953537
20
-12.7575785453634
30
0
41
1
10
-17.7301866647897
20
-12.7650174247142
30
0
41
1
10
-17.8801723210466
20
-12.7781608510031
30
0
41
1
10
-17.9556756773774
20
-12.7838240752834
30
0
41
1
10
-18.1830234344085
20
-12.7990453479895
30
0
41
1
10
-18.3358104868256
20
-12.8068779272733
30
0
41
1
10
-18.6422299069312
20
-12.8200440825919
30
0
41
1
10
-18.795949549866
20
-12.8253326366567
30
0
41
1
10
-18.9499999999975
20
-12.8297840618031
30
0
0
SPLINE
5
D4
100
AcDbEntity
8
SK1
62
256
6
ByLayer
370
18
48
1
60
0
100
AcDbSpline
70
4
71
3
72
8
73
4
40
0
40
0
40
0
40
0
40
1
40
1
40
1
40
1
41
1
10
-18.95
20
-12.8297840617967
30
0
41
1
10
-19.0052571172978
20
-12.7462976285912
30
0
41
1
10
-19.0384814845825
20
-12.6591312575364
30
0
41
1
10
-19.0424698269216
20
-12.5677010463964
30
0
0
SPLINE
5
D5
100
AcDbEntity
8
SK1
62
256
6
ByLayer
370
18
48
1
60
0
100
AcDbSpline
70
4
71
3
72
8
73
4
40
0
40
0
40
0
40
0
40
1
40
1
40
1
40
1
41
1
10
-19.0424698269216
20
12.5677010463964
30
0
41
1
10
-19.0384814845825
20
12.6591312575364
30
0
41
1
10
-19.0052571172978
20
12.7462976285912
30
0
41
1
10
-18.95
20
12.8297840617967
30
0
0
SPLINE
5
D6
100
AcDbEntity
8
SK1
62
256
6
ByLayer
370
18
48
1
60
0
100
AcDbSpline
70
4
71
3
72
22
73
18
40
0
40
0
40
0
40
0
40
0.249999999999998
40
0.249999999999998
40
0.499999999999996
40
0.499999999999996
40
0.624999999999998
40
0.624999999999998
40
0.75
40
0.75
40
0.875000000000002
40
0.875000000000002
40
0.937500000000003
40
0.937500000000003
40
0.968750000000002
40
0.968750000000002
40
1
40
1
40
1
40
1
41
1
10
-18.9499999999973
20
12.8297840618036
30
0
41
1
10
-18.7965803114273
20
12.8253508630751
30
0
41
1
10
-18.6434903300565
20
12.820087160952
30
0
41
1
10
-18.3383246034329
20
12.8069968961783
30
0
41
1
10
-18.1861498177733
20
12.7992133715933
30
0
41
1
10
-17.9597061949088
20
12.7841138141893
30
0
41
1
10
-17.8845255487684
20
12.7785013162664
30
0
41
1
10
-17.7350921810026
20
12.7654858452678
30
0
41
1
10
-17.6609303072629
20
12.7581229128604
30
0
41
1
10
-17.5147899891099
20
12.7402705366647
30
0
41
1
10
-17.4425966436918
20
12.7299374704782
30
0
41
1
10
-17.3403801482898
20
12.7090692966714
30
0
41
1
10
-17.3072410610548
20
12.7012405649401
30
0
41
1
10
-17.2609056185142
20
12.6863417902807
30
0
41
1
10
-17.2461756286939
20
12.6808644041244
30
0
41
1
10
-17.2199275220344
20
12.6684238655059
30
0
41
1
10
-17.2081668321283
20
12.6613498843673
30
0
41
1
10
-17.1999999999998
20
12.6531930859953
30
0
0
SPLINE
5
D7
100
AcDbEntity
8
SK1
62
256
6
ByLayer
370
18
48
1
60
0
100
AcDbSpline
70
4
71
3
72
8
73
4
40
0
40
0
40
0
40
0
40
1
40
1
40
1
40
1
41
1
10
-17.1999999999997
20
12.6531930859953
30
0
41
1
10
-17.1989738121223
20
12.6521681588906
30
0
41
1
10
-17.1979793660523
20
12.6511365655224
30
0
41
1
10
-17.1970250993094
20
12.6500966462847
30
0
0
SPLINE
5
D8
100
AcDbEntity
8
SK1
62
256
6
ByLayer
370
18
48
1
60
0
100
AcDbSpline
70
4
71
3
72
18
73
14
40
0
40
0
40
0
40
0
40
0.25000000000002
40
0.25000000000002
40
0.375000000000014
40
0.375000000000014
40
0.500000000000008
40
0.500000000000008
40
0.625000000000002
40
0.625000000000002
40
0.749999999999996
40
0.749999999999996
40
1
40
1
40
1
40
1
41
1
10
-17.1970250994389
20
12.6500966462463
30
0
41
1
10
-17.1928212130991
20
12.645515430016
30
0
41
1
10
-17.1880448164428
20
12.6410931416001
30
0
41
1
10
-17.1783591654321
20
12.6351939390991
30
0
41
1
10
-17.1747104398094
20
12.6333619569865
30
0
41
1
10
-17.1659281611362
20
12.6305595592749
30
0
41
1
10
-17.1606126683167
20
12.6296422011682
30
0
41
1
10
-17.1495925678705
20
12.6300962949499
30
0
41
1
10
-17.1442535239649
20
12.6314577053627
30
0
41
1
10
-17.1354464288991
20
12.6350070710526
30
0
41
1
10
-17.1317691129896
20
12.637167640488
30
0
41
1
10
-17.122081276625
20
12.643906255088
30
0
41
1
10
-17.1172049224481
20
12.6488540556201
30
0
41
1
10
-17.1129890015388
20
12.6538486935319
30
0
0
SPLINE
5
D9
100
AcDbEntity
8
SK1
62
256
6
ByLayer
370
18
48
1
60
0
100
AcDbSpline
70
4
71
3
72
22
73
18
40
0
40
0
40
0
40
0
40
0.0312500000000007
40
0.0312500000000007
40
0.0625000000000012
40
0.0625000000000012
40
0.125000000000001
40
0.125000000000001
40
0.250000000000003
40
0.250000000000003
40
0.500000000000002
40
0.500000000000002
40
0.750000000000001
40
0.750000000000001
40
0.875
40
0.875
40
1
40
1
40
1
40
1
41
1
10
-17.1129890015394
20
12.653848693532
30
0
41
1
10
-17.1038136108195
20
12.6647188581607
30
0
41
1
10
-17.0918662788452
20
12.6750237921589
30
0
41
1
10
-17.0679676867886
20
12.695463096282
30
0
41
1
10
-17.0556230868968
20
12.7055560156943
30
0
41
1
10
-17.0184098479168
20
12.7356814379674
30
0
41
1
10
-16.9933087678243
20
12.7555478892917
30
0
41
1
10
-16.9185761053539
20
12.8148084146841
30
0
41
1
10
-16.8693857900774
20
12.8538388678265
30
0
41
1
10
-16.7265695122624
20
12.9700257813427
30
0
41
1
10
-16.6373194342683
20
13.0465026785379
30
0
41
1
10
-16.4841320973412
20
13.1959025769996
30
0
41
1
10
-16.4197742206658
20
13.2689754001959
30
0
41
1
10
-16.3505587363846
20
13.3761496011167
30
0
41
1
10
-16.332013312947
20
13.4116770655062
30
0
41
1
10
-16.3067927913791
20
13.4804738253556
30
0
41
1
10
-16.3
20
13.5138062346339
30
0
41
1
10
-16.3
20
13.5460263836999
30
0
0
SPLINE
5
DA
100
AcDbEntity
8
SK1
62
256
6
ByLayer
370
18
48
1
60
0
100
AcDbSpline
70
4
71
3
72
22
73
18
40
0
40
0
40
0
40
0
40
0.125
40
0.125
40
0.250000000000001
40
0.250000000000001
40
0.500000000000001
40
0.500000000000001
40
0.750000000000001
40
0.750000000000001
40
0.875000000000001
40
0.875000000000001
40
0.937500000000002
40
0.937500000000002
40
0.968750000000001
40
0.968750000000001
40
1
40
1
40
1
40
1
41
1
10
-16.3
20
13.5460263836998
30
0
41
1
10
-16.3
20
13.5138979616433
30
0
41
1
10
-16.3067553818952
20
13.4806408497997
30
0
41
1
10
-16.3318862442683
20
13.4119591294761
30
0
41
1
10
-16.350404350328
20
13.3764208225931
30
0
41
1
10
-16.4195891745085
20
13.2691979351853
30
0
41
1
10
-16.4839434077892
20
13.1961043334117
30
0
41
1
10
-16.6371186902645
20
13.0466807722546
30
0
41
1
10
-16.7263390847954
20
12.9702178298597
30
0
41
1
10
-16.8692383045193
20
12.8539565665566
30
0
41
1
10
-16.9184805990414
20
12.8148840862287
30
0
41
1
10
-16.9932610313827
20
12.7555857735467
30
0
41
1
10
-17.0183736625723
20
12.7357104361316
30
0
41
1
10
-17.0556112188553
20
12.7055657706829
30
0
41
1
10
-17.0679685720804
20
12.6954625822744
30
0
41
1
10
-17.0918820243584
20
12.6750100824784
30
0
41
1
10
-17.1038254873116
20
12.6647047879779
30
0
41
1
10
-17.1129890015395
20
12.653848693532
30
0
0
SPLINE
5
DB
100
AcDbEntity
8
SK1
62
256
6
ByLayer
370
18
48
1
60
0
100
AcDbSpline
70
4
71
3
72
18
73
14
40
0
40
0
40
0
40
0
40
0.250000000000048
40
0.250000000000048
40
0.375000000000048
40
0.375000000000048
40
0.500000000000048
40
0.500000000000048
40
0.625000000000047
40
0.625000000000047
40
0.750000000000047
40
0.750000000000047
40
1
40
1
40
1
40
1
41
1
10
-17.1129890015388
20
12.6538486935319
30
0
41
1
10
-17.1172049224481
20
12.6488540556201
30
0
41
1
10
-17.122081276625
20
12.643906255088
30
0
41
1
10
-17.1317691129895
20
12.6371676404881
30
0
41
1
10
-17.1354464288991
20
12.6350070710527
30
0
41
1
10
-17.1442535239648
20
12.6314577053627
30
0
41
1
10
-17.1495925678705
20
12.6300962949499
30
0
41
1
10
-17.1606126683166
20
12.6296422011681
30
0
41
1
10
-17.1659281611362
20
12.6305595592749
30
0
41
1
10
-17.1747104398094
20
12.6333619569865
30
0
41
1
10
-17.1783591654322
20
12.6351939390991
30
0
41
1
10
-17.1880448164428
20
12.6410931416001
30
0
41
1
10
-17.192821213099
20
12.645515430016
30
0
41
1
10
-17.1970250994388
20
12.6500966462463
30
0
0
SPLINE
5
DC
100
AcDbEntity
8
SK1
62
256
6
ByLayer
370
18
48
1
60
0
100
AcDbSpline
70
4
71
3
72
8
73
4
40
0
40
0
40
0
40
0
40
1
40
1
40
1
40
1
41
1
10
-17.1970250993094
20
12.6500966462847
30
0
41
1
10
-17.1979793660523
20
12.6511365655224
30
0
41
1
10
-17.1989738121224
20
12.6521681588906
30
0
41
1
10
-17.1999999999998
20
12.6531930859953
30
0
0
SPLINE
5
DD
100
AcDbEntity
8
SK1
62
256
6
ByLayer
370
18
48
1
60
0
100
AcDbSpline
70
4
71
3
72
22
73
18
40
0
40
0
40
0
40
0
40
0.0312499999999983
40
0.0312499999999983
40
0.0624999999999967
40
0.0624999999999967
40
0.124999999999993
40
0.124999999999993
40
0.249999999999993
40
0.249999999999993
40
0.374999999999992
40
0.374999999999992
40
0.499999999999992
40
0.499999999999992
40
0.749999999999996
40
0.749999999999996
40
1
40
1
40
1
40
1
41
1
10
-17.1999999999998
20
12.6531930859954
30
0
41
1
10
-17.2081668321284
20
12.6613498843674
30
0
41
1
10
-17.2199275220345
20
12.6684238655059
30
0
41
1
10
-17.246175628694
20
12.6808644041245
30
0
41
1
10
-17.2609056185143
20
12.6863417902808
30
0
41
1
10
-17.3072410610549
20
12.7012405649401
30
0
41
1
10
-17.3403801482899
20
12.7090692966715
30
0
41
1
10
-17.4425966436919
20
12.7299374704782
30
0
41
1
10
-17.5147899891099
20
12.7402705366647
30
0
41
1
10
-17.660930307263
20
12.7581229128605
30
0
41
1
10
-17.7350921810026
20
12.7654858452678
30
0
41
1
10
-17.8845255487684
20
12.7785013162664
30
0
41
1
10
-17.9597061949088
20
12.7841138141893
30
0
41
1
10
-18.1861498177734
20
12.7992133715932
30
0
41
1
10
-18.338324603433
20
12.8069968961783
30
0
41
1
10
-18.6434903300565
20
12.820087160952
30
0
41
1
10
-18.7965803114273
20
12.8253508630751
30
0
41
1
10
-18.9499999999973
20
12.8297840618036
30
0
0
SPLINE
5
DE
100
AcDbEntity
8
1
62
256
6
ByLayer
370
18
48
1
60
0
100
AcDbSpline
70
4
71
3
72
8
73
4
40
0
40
0
40
0
40
0
40
1
40
1
40
1
40
1
41
1
10
19.95
20
15.4548738267254
30
0
41
1
10
19.7840806143872
20
15.6639522100908
30
0
41
1
10
19.6173730979573
20
15.8724540175193
30
0
41
1
10
19.45
20
16.0803645792003
30
0
0
SPLINE
5
DF
100
AcDbEntity
8
1
62
256
6
ByLayer
370
18
48
1
60
0
100
AcDbSpline
70
4
71
3
72
38
73
34
40
0
40
0
40
0
40
0
40
0.0625
40
0.0625
40
0.125
40
0.125
40
0.15625
40
0.15625
40
0.187499999999999
40
0.187499999999999
40
0.249999999999999
40
0.249999999999999
40
0.28125
40
0.28125
40
0.3125
40
0.3125
40
0.375
40
0.375
40
0.4375
40
0.4375
40
0.5
40
0.5
40
0.625
40
0.625
40
0.6875
40
0.6875
40
0.71875
40
0.71875
40
0.75
40
0.75
40
0.875
40
0.875
40
1
40
1
40
1
40
1
41
1
10
12.4436704747047
20
16.0803645792003
30
0
41
1
10
12.2683592902483
20
16.0803645792003
30
0
41
1
10
12.095293783653
20
16.0728571837918
30
0
41
1
10
11.7534281679543
20
16.0434736930265
30
0
41
1
10
11.5846292350185
20
16.0215935789437
30
0
41
1
10
11.334619439869
20
15.977792857561
30
0
41
1
10
11.2516743978658
20
15.9613240050556
30
0
41
1
10
11.0874722990148
20
15.9247344059794
30
0
41
1
10
11.0068789926601
20
15.9047688650881
30
0
41
1
10
10.7694273004864
20
15.8399773761836
30
0
41
1
10
10.6168830082487
20
15.7902750128471
30
0
41
1
10
10.3962313796232
20
15.7060393176537
30
0
41
1
10
10.324045459659
20
15.6763421583504
30
0
41
1
10
10.1823646777459
20
15.6136704071395
30
0
41
1
10
10.1126983046926
20
15.5806070087096
30
0
41
1
10
9.9089397135679
20
15.4770251240057
30
0
41
1
10
9.78096662640952
20
15.4026393872005
30
0
41
1
10
9.53927369456406
20
15.2435205790492
30
0
41
1
10
9.42556156431269
20
15.1587835046882
30
0
41
1
10
9.21144932634045
20
14.9789546117012
30
0
41
1
10
9.11080916549844
20
14.8834925443197
30
0
41
1
10
8.83321466788015
20
14.5874871481675
30
0
41
1
10
8.67816955908788
20
14.375798899707
30
0
41
1
10
8.48204530208508
20
14.0376464846038
30
0
41
1
10
8.42279843918547
20
13.9214781967907
30
0
41
1
10
8.3424046133671
20
13.7420675256177
30
0
41
1
10
8.31700550531
20
13.6813470760114
30
0
41
1
10
8.26927058790947
20
13.5591053032175
30
0
41
1
10
8.24688333071475
20
13.4974772538826
30
0
41
1
10
8.14187992758315
20
13.186831100425
30
0
41
1
10
8.07990442601502
20
12.9303102600378
30
0
41
1
10
7.9909980906021
20
12.4017505621181
30
0
41
1
10
7.96412876922724
20
12.1297069558134
30
0
41
1
10
7.95175587847184
20
11.85
30
0
0
LINE
5
74
100
AcDbEntity
8
81
62
256
6
ByLayer
370
13
48
1
60
0
100
AcDbLine
10
45
20
0
30
0
11
46.702963
21
0
31
0
39
0
210
0
220
0
230
1
0
LINE
5
75
100
AcDbEntity
8
80
62
256
6
ByLayer
370
13
48
1
60
0
100
AcDbLine
10
0
20
0
30
0
11
-5.557114
21
0
31
0
39
0
210
0
220
0
230
1
0
LINE
5
76
100
AcDbEntity
8
1
62
256
6
ByLayer
370
18
48
1
60
0
100
AcDbLine
10
19.95
20
16.5
30
0
11
20.825715
21
13.231787
31
0
39
0
210
0
220
0
230
1
0
LINE
5
78
100
AcDbEntity
8
1
62
256
6
ByLayer
370
18
48
1
60
0
100
AcDbLine
10
19.95
20
-16.5
30
0
11
20.825715
21
-13.231787
31
0
39
0
210
0
220
0
230
1
0
LINE
5
79
100
AcDbEntity
8
1
62
256
6
ByLayer
370
18
48
1
60
0
100
AcDbLine
10
25.608752
20
9.6
30
0
11
45
21
9.6
31
0
39
0
210
0
220
0
230
1
0
LINE
5
7A
100
AcDbEntity
8
1
62
256
6
ByLayer
370
18
48
1
60
0
100
AcDbLine
10
25.608752
20
-9.6
30
0
11
45
21
-9.6
31
0
39
0
210
0
220
0
230
1
0
LINE
5
7B
100
AcDbEntity
8
1
62
256
6
ByLayer
370
18
48
1
60
0
100
AcDbLine
10
45
20
9.6
30
0
11
45
21
-9.6
31
0
39
0
210
0
220
0
230
1
0
LINE
5
7C
100
AcDbEntity
8
1
62
256
6
ByLayer
370
18
48
1
60
0
100
AcDbLine
10
25.608752
20
9.6
30
0
11
25.608752
21
-9.6
31
0
39
0
210
0
220
0
230
1
0
LINE
5
7D
100
AcDbEntity
8
SK4
62
256
6
ByLayer
370
13
48
0.05
60
0
100
AcDbLine
10
47.619906
20
0
30
0
11
-22.50812
21
0
31
0
39
0
210
0
220
0
230
1
0
LINE
5
7F
100
AcDbEntity
8
4
62
256
6
ByLayer
370
13
48
0.05
60
0
100
AcDbLine
10
0
20
0
30
0
11
45
21
0
31
0
39
0
210
0
220
0
230
1
0
LINE
5
81
100
AcDbEntity
8
1
62
256
6
ByLayer
370
18
48
1
60
0
100
AcDbLine
10
0
20
-19.5
30
0
11
0
21
19.5
31
0
39
0
210
0
220
0
230
1
0
LINE
5
82
100
AcDbEntity
8
1
62
256
6
ByLayer
370
18
48
1
60
0
100
AcDbLine
10
0.5
20
-19.975
30
0
11
7.95
21
-19.975
31
0
39
0
210
0
220
0
230
1
0
LINE
5
83
100
AcDbEntity
8
SK1
62
256
6
ByLayer
370
18
48
1
60
0
100
AcDbLine
10
-2
20
-15.1037
30
0
11
-2
21
15.103211
31
0
39
0
210
0
220
0
230
1
0
LINE
5
85
100
AcDbEntity
8
1
62
256
6
ByLayer
370
18
48
1
60
0
100
AcDbLine
10
13.979274
20
19.458158
30
0
11
14.9625
21
17.755161
31
0
39
0
210
0
220
0
230
1
0
LINE
5
86
100
AcDbEntity
8
1
62
256
6
ByLayer
370
18
48
1
60
0
100
AcDbLine
10
15.3625
20
17.375
30
0
11
16.6375
21
17.375
31
0
39
0
210
0
220
0
230
1
0
LINE
5
87
100
AcDbEntity
8
1
62
256
6
ByLayer
370
18
48
1
60
0
100
AcDbLine
10
17.0375
20
13.098566
30
0
11
17.0375
21
17.755161
31
0
39
0
210
0
220
0
230
1
0
LINE
5
88
100
AcDbEntity
8
1
62
256
6
ByLayer
370
18
48
1
60
0
100
AcDbLine
10
17.0375
20
17.755161
30
0
11
18.020726
21
19.458158
31
0
39
0
210
0
220
0
230
1
0
LINE
5
89
100
AcDbEntity
8
SK1
62
256
6
ByLayer
370
18
48
1
60
0
100
AcDbLine
10
-1.25359
20
-14.903211
30
0
11
-2
21
-15.103211
31
0
39
0
210
0
220
0
230
1
0
LINE
5
8A
100
AcDbEntity
8
SK1
62
256
6
ByLayer
370
18
48
1
60
0
100
AcDbLine
10
-1.25359
20
-14.903211
30
0
11
-0.274633
21
-14.903211
31
0
39
0
210
0
220
0
230
1
0
LINE
5
8B
100
AcDbEntity
8
1
62
256
6
ByLayer
370
18
48
1
60
0
100
AcDbLine
10
19.95
20
11.85
30
0
11
7.95
21
11.85
31
0
39
0
210
0
220
0
230
1
0
LINE
5
8C
100
AcDbEntity
8
1
62
256
6
ByLayer
370
18
48
1
60
0
100
AcDbLine
10
16.6375
20
12.698566
30
0
11
15.3625
21
12.698566
31
0
39
0
210
0
220
0
230
1
0
LINE
5
8D
100
AcDbEntity
8
1
62
256
6
ByLayer
370
18
48
1
60
0
100
AcDbLine
10
17.035586
20
13.912225
30
0
11
18.020726
21
16.080365
31
0
39
0
210
0
220
0
230
1
0
LINE
5
8E
100
AcDbEntity
8
1
62
256
6
ByLayer
370
18
48
1
60
0
100
AcDbLine
10
18.020726
20
19.458158
30
0
11
18.020726
21
16.080365
31
0
39
0
210
0
220
0
230
1
0
LINE
5
8F
100
AcDbEntity
8
1
62
256
6
ByLayer
370
18
48
1
60
0
100
AcDbLine
10
14.9625
20
13.098566
30
0
11
14.9625
21
17.755161
31
0
39
0
210
0
220
0
230
1
0
LINE
5
90
100
AcDbEntity
8
1
62
256
6
ByLayer
370
18
48
1
60
0
100
AcDbLine
10
19.45
20
19.458158
30
0
11
19.95
21
18.958158
31
0
39
0
210
0
220
0
230
1
0
LINE
5
91
100
AcDbEntity
8
1
62
256
6
ByLayer
370
18
48
1
60
0
100
AcDbLine
10
0
20
-19.5
30
0
11
0.5
21
-19.975
31
0
39
0
210
0
220
0
230
1
0
LINE
5
92
100
AcDbEntity
8
1
62
256
6
ByLayer
370
18
48
1
60
0
100
AcDbLine
10
0.5
20
19.975
30
0
11
0
21
19.5
31
0
39
0
210
0
220
0
230
1
0
LINE
5
93
100
AcDbEntity
8
SK1
62
256
6
ByLayer
370
13
48
1
60
0
100
AcDbLine
10
-1.25359
20
14.903211
30
0
11
-1.25359
21
-14.903211
31
0
39
0
210
0
220
0
230
1
0
LINE
5
94
100
AcDbEntity
8
SK1
62
256
6
ByLayer
370
18
48
1
60
0
100
AcDbLine
10
-1.25359
20
14.903211
30
0
11
-0.274633
21
14.903211
31
0
39
0
210
0
220
0
230
1
0
LINE
5
95
100
AcDbEntity
8
SK1
62
256
6
ByLayer
370
18
48
1
60
0
100
AcDbLine
10
-1.25359
20
14.903211
30
0
11
-2
21
15.103211
31
0
39
0
210
0
220
0
230
1
0
LINE
5
96
100
AcDbEntity
8
1
62
256
6
ByLayer
370
18
48
1
60
0
100
AcDbLine
10
18.020726
20
-19.19786
30
0
11
18.020726
21
11.85
31
0
39
0
210
0
220
0
230
1
0
LINE
5
97
100
AcDbEntity
8
1
62
256
6
ByLayer
370
18
48
1
60
0
100
AcDbLine
10
17.0375
20
11.85
30
0
11
17.0375
21
-17.494862
31
0
39
0
210
0
220
0
230
1
0
LINE
5
98
100
AcDbEntity
8
1
62
256
6
ByLayer
370
18
48
1
60
0
100
AcDbLine
10
14.9625
20
11.85
30
0
11
14.9625
21
-17.494862
31
0
39
0
210
0
220
0
230
1
0
LINE
5
99
100
AcDbEntity
8
1
62
256
6
ByLayer
370
18
48
1
60
0
100
AcDbLine
10
13.979274
20
-19.19786
30
0
11
13.979274
21
11.85
31
0
39
0
210
0
220
0
230
1
0
LINE
5
9A
100
AcDbEntity
8
1
62
256
6
ByLayer
370
18
48
1
60
0
100
AcDbLine
10
19.45
20
-19.19786
30
0
11
19.95
21
-18.69786
31
0
39
0
210
0
220
0
230
1
0
LINE
5
9B
100
AcDbEntity
8
1
62
256
6
ByLayer
370
18
48
1
60
0
100
AcDbLine
10
17.0375
20
-17.494862
30
0
11
18.020726
21
-19.19786
31
0
39
0
210
0
220
0
230
1
0
LINE
5
9C
100
AcDbEntity
8
1
62
256
6
ByLayer
370
18
48
1
60
0
100
AcDbLine
10
15.3625
20
-16.57286
30
0
11
16.6375
21
-16.57286
31
0
39
0
210
0
220
0
230
1
0
LINE
5
9D
100
AcDbEntity
8
1
62
256
6
ByLayer
370
18
48
1
60
0
100
AcDbLine
10
13.979274
20
-19.19786
30
0
11
14.9625
21
-17.494862
31
0
39
0
210
0
220
0
230
1
0
LINE
5
9E
100
AcDbEntity
8
1
62
256
6
ByLayer
370
18
48
1
60
0
100
AcDbLine
10
13.979274
20
16.080365
30
0
11
13.979274
21
19.458158
31
0
39
0
210
0
220
0
230
1
0
LINE
5
9F
100
AcDbEntity
8
1
62
256
6
ByLayer
370
18
48
1
60
0
100
AcDbLine
10
12.4545
20
19.458158
30
0
11
13.979274
21
19.458158
31
0
39
0
210
0
220
0
230
1
0
LINE
5
A0
100
AcDbEntity
8
1
62
256
6
ByLayer
370
18
48
1
60
0
100
AcDbLine
10
13.979274
20
-19.19786
30
0
11
12.45
21
-19.19786
31
0
39
0
210
0
220
0
230
1
0
LINE
5
A1
100
AcDbEntity
8
1
62
256
6
ByLayer
370
18
48
1
60
0
100
AcDbLine
10
7.95
20
-19.975
30
0
11
7.95
21
-19.949068
31
0
39
0
210
0
220
0
230
1
0
LINE
5
A2
100
AcDbEntity
8
SK1
62
256
6
ByLayer
370
18
48
1
60
0
100
AcDbLine
10
-19.9
20
11.371839
30
0
11
-19.9
21
-11.371839
31
0
39
0
210
0
220
0
230
1
0
LINE
5
A3
100
AcDbEntity
8
SK1
62
256
6
ByLayer
370
18
48
1
60
0
100
AcDbLine
10
-19.9
20
11.803636
30
0
11
-19.9
21
11.371839
31
0
39
0
210
0
220
0
230
1
0
LINE
5
A4
100
AcDbEntity
8
1
62
256
6
ByLayer
370
18
48
1
60
0
100
AcDbLine
10
0.5
20
-19.975
30
0
11
0.5
21
19.975
31
0
39
0
210
0
220
0
230
1
0
LINE
5
A5
100
AcDbEntity
8
SK1
62
256
6
ByLayer
370
18
48
1
60
0
100
AcDbLine
10
-19.9
20
-11.371839
30
0
11
-19.9
21
-11.803636
31
0
39
0
210
0
220
0
230
1
0
LINE
5
A6
100
AcDbEntity
8
SK1
62
256
6
ByLayer
370
18
48
1
60
0
100
AcDbLine
10
-19.9
20
-11.803636
30
0
11
-19.04247
21
-12.567701
31
0
39
0
210
0
220
0
230
1
0
LINE
5
A7
100
AcDbEntity
8
SK1
62
256
6
ByLayer
370
18
48
1
60
0
100
AcDbLine
10
-13.8
20
-13.613347
30
0
11
-13.8
21
-14.512518
31
0
39
0
210
0
220
0
230
1
0
LINE
5
A8
100
AcDbEntity
8
SK1
62
256
6
ByLayer
370
18
48
1
60
0
100
AcDbLine
10
-19.14003
20
-11.860162
30
0
11
-19.14003
21
11.860162
31
0
39
0
210
0
220
0
230
1
0
LINE
5
A9
100
AcDbEntity
8
SK1
62
256
6
ByLayer
370
18
48
1
60
0
100
AcDbLine
10
-16.3
20
14.387268
30
0
11
-16.3
21
13.546026
31
0
39
0
210
0
220
0
230
1
0
LINE
5
AA
100
AcDbEntity
8
SK1
62
256
6
ByLayer
370
18
48
1
60
0
100
AcDbLine
10
-19.04247
20
12.567701
30
0
11
-19.9
21
11.803636
31
0
39
0
210
0
220
0
230
1
0
LINE
5
AB
100
AcDbEntity
8
SK1
62
256
6
ByLayer
370
18
48
1
60
0
100
AcDbLine
10
-19.14003
20
11.860162
30
0
11
-19.14003
21
-11.860162
31
0
39
0
210
0
220
0
230
1
0
LINE
5
AC
100
AcDbEntity
8
1
62
256
6
ByLayer
370
18
48
1
60
0
100
AcDbLine
10
18.020726
20
-19.19786
30
0
11
19.45
21
-19.19786
31
0
39
0
210
0
220
0
230
1
0
LINE
5
AD
100
AcDbEntity
8
1
62
256
6
ByLayer
370
18
48
1
60
0
100
AcDbLine
10
19.45
20
-19.19786
30
0
11
19.45
21
11.85
31
0
39
0
210
0
220
0
230
1
0
LINE
5
AE
100
AcDbEntity
8
1
62
256
6
ByLayer
370
18
48
1
60
0
100
AcDbLine
10
19.95
20
-18.69786
30
0
11
19.95
21
18.958158
31
0
39
0
210
0
220
0
230
1
0
LINE
5
AF
100
AcDbEntity
8
1
62
256
6
ByLayer
370
18
48
1
60
0
100
AcDbLine
10
19.45
20
16.080365
30
0
11
19.45
21
19.458158
31
0
39
0
210
0
220
0
230
1
0
LINE
5
B0
100
AcDbEntity
8
1
62
256
6
ByLayer
370
18
48
1
60
0
100
AcDbLine
10
19.45
20
19.458158
30
0
11
18.020726
21
19.458158
31
0
39
0
210
0
220
0
230
1
0
LINE
5
B1
100
AcDbEntity
8
1
62
256
6
ByLayer
370
18
48
1
60
0
100
AcDbLine
10
13.979274
20
16.080365
30
0
11
12.44367
21
16.080365
31
0
39
0
210
0
220
0
230
1
0
LINE
5
B2
100
AcDbEntity
8
1
62
256
6
ByLayer
370
18
48
1
60
0
100
AcDbLine
10
14.964414
20
13.912225
30
0
11
13.979274
21
16.080365
31
0
39
0
210
0
220
0
230
1
0
LINE
5
B3
100
AcDbEntity
8
1
62
256
6
ByLayer
370
18
48
1
60
0
100
AcDbLine
10
19.45
20
16.080365
30
0
11
18.020726
21
16.080365
31
0
39
0
210
0
220
0
230
1
0
LINE
5
B4
100
AcDbEntity
8
1
62
256
6
ByLayer
370
18
48
1
60
0
100
AcDbLine
10
0.5
20
19.975
30
0
11
7.95
21
19.974997
31
0
39
0
210
0
220
0
230
1
0
LINE
5
B5
100
AcDbEntity
8
SK1
62
256
6
ByLayer
370
18
48
1
60
0
100
AcDbLine
10
-16.3
20
14.387268
30
0
11
-8.802819
21
14.762868
31
0
39
0
210
0
220
0
230
1
0
LINE
5
B6
100
AcDbEntity
8
SK1
62
256
6
ByLayer
370
18
48
1
60
0
100
AcDbLine
10
-2.901556
20
15.058517
30
0
11
-2
21
15.103211
31
0
39
0
210
0
220
0
230
1
0
LINE
5
B7
100
AcDbEntity
8
SK1
62
256
6
ByLayer
370
18
48
1
60
0
100
AcDbLine
10
-13.8
20
-14.512518
30
0
11
-8.794814
21
-14.76193
31
0
39
0
210
0
220
0
230
1
0
LINE
5
B8
100
AcDbEntity
8
SK1
62
256
6
ByLayer
370
18
48
1
60
0
100
AcDbLine
10
-2.901436
20
-15.058537
30
0
11
-2
21
-15.1037
31
0
39
0
210
0
220
0
230
1
0
LINE
5
B9
100
AcDbEntity
8
1
62
256
6
ByLayer
370
18
48
1
60
0
100
AcDbLine
10
20.825715
20
13.231787
30
0
11
20.825715
21
-13.231787
31
0
39
0
210
0
220
0
230
1
0
MTEXT
5
E0
100
AcDbEntity
8
SK6
62
256
6
ByLayer
370
18
48
1
60
0
100
AcDbMText
10
-1.56247
20
-38.04756
30
0
210
0
220
0
230
1
1
\W0.7686;HA04-EH20-20-045
40
3.5
41
0
44
1.084337
50
0
71
7
72
5
7
iso_b_vert
0
DIMENSION
5
E5
100
AcDbEntity
8
2
62
256
6
ByLayer
370
18
48
1
60
0
100
AcDbDimension
2
_U0
10
45
20
49.551031
30
0
11
22.5
21
49.551031
31
0
70
32
71
1
72
1
41
1
210
0
220
0
230
1
3
Standard
100
AcDbAlignedDimension
13
0
23
19.5
33
0
14
45
24
9.6
34
0
50
0
100
AcDbRotatedDimension
1001
ACAD
1000
DSTYLE
1002
{
1070
   371
1070
    13
1070
   372
1070
    13
1070
   170
1070
     0
1070
   144
1040
1.0
1070
   277
1070
     2
1070
   278
1070
    46
1070
   146
1040
1.166667
1070
   345
1005
16
1070
   347
1005
16
1070
   346
1005
16
1070
   344
1005
E6
1070
   343
1005
E6
1070
   172
1070
     1
1070
    76
1070
     0
1070
    75
1070
     0
1070
   282
1070
     0
1070
   281
1070
     0
1070
    71
1070
     0
1070
    74
1070
     0
1070
   279
1070
     0
1070
   173
1070
     1
1070
   340
1005
E1
1070
   271
1070
     0
1070
   272
1070
     2
1070
    77
1070
     1
1070
    73
1070
     1
1070
   171
1070
     4
1070
   274
1070
     4
1070
   177
1070
     7
1070
   176
1070
     7
1070
   178
1070
     7
1070
    41
1040
3.0
1070
   147
1040
1.5
1070
    42
1040
1.5
1070
    44
1040
3.0
1070
   140
1040
3.0
1002
}
1001
ACAD_DSTYLE_DIM_LINETYPE
1070
   380
1005
16
1001
ACAD_DSTYLE_DIM_EXT1_LINETYPE
1070
   381
1005
16
1001
ACAD_DSTYLE_DIM_EXT2_LINETYPE
1070
   382
1005
16
0
DIMENSION
5
10A
100
AcDbEntity
8
SK2
62
256
6
ByLayer
370
18
48
1
60
0
100
AcDbDimension
2
_U1
10
45
20
26.969242
30
0
11
34.794063
21
26.969242
31
0
70
32
71
1
72
1
41
1
210
0
220
0
230
1
3
Standard
100
AcDbAlignedDimension
13
25.608752
23
9.6
33
0
14
45
24
9.6
34
0
50
0
100
AcDbRotatedDimension
1001
ACAD
1000
DSTYLE
1002
{
1070
   371
1070
    13
1070
   372
1070
    13
1070
   170
1070
     0
1070
   144
1040
1.0
1070
   277
1070
     2
1070
   278
1070
    46
1070
   146
1040
1.166667
1070
   345
1005
16
1070
   347
1005
16
1070
   346
1005
16
1070
   344
1005
E6
1070
   343
1005
E6
1070
   172
1070
     1
1070
    76
1070
     0
1070
    75
1070
     0
1070
   282
1070
     0
1070
   281
1070
     0
1070
    71
1070
     0
1070
   272
1070
     4
1070
    74
1070
     0
1070
   279
1070
     0
1070
   173
1070
     1
1070
   340
1005
E1
1070
   271
1070
     1
1070
    77
1070
     1
1070
    73
1070
     1
1070
   171
1070
     3
1070
   274
1070
     3
1070
   177
1070
     7
1070
   176
1070
     7
1070
   178
1070
     7
1070
    41
1040
3.0
1070
   147
1040
1.5
1070
    42
1040
1.5
1070
    44
1040
3.0
1070
   140
1040
3.0
1002
}
1001
ACAD_DSTYLE_DIM_LINETYPE
1070
   380
1005
16
1001
ACAD_DSTYLE_DIM_EXT1_LINETYPE
1070
   381
1005
16
1001
ACAD_DSTYLE_DIM_EXT2_LINETYPE
1070
   382
1005
16
0
DIMENSION
5
127
100
AcDbEntity
8
SK2
62
256
6
ByLayer
370
18
48
1
60
0
100
AcDbDimension
2
_U2
10
-19.9
20
38.564627
30
0
11
-9.95
21
38.564627
31
0
70
32
71
1
72
1
41
1
210
0
220
0
230
1
3
Standard
100
AcDbAlignedDimension
13
0
23
19.5
33
0
14
-19.9
24
11.803636
34
0
50
0
100
AcDbRotatedDimension
1001
ACAD
1000
DSTYLE
1002
{
1070
   371
1070
    13
1070
   372
1070
    13
1070
   170
1070
     0
1070
   144
1040
1.0
1070
   277
1070
     2
1070
   278
1070
    46
1070
   146
1040
1.166669
1070
   345
1005
16
1070
   347
1005
16
1070
   346
1005
16
1070
   344
1005
E6
1070
   343
1005
E6
1070
   172
1070
     1
1070
    76
1070
     0
1070
    75
1070
     0
1070
   282
1070
     0
1070
   281
1070
     0
1070
    71
1070
     0
1070
    74
1070
     0
1070
   279
1070
     0
1070
   173
1070
     1
1070
   340
1005
E1
1070
   271
1070
     0
1070
   272
1070
     2
1070
    77
1070
     1
1070
    73
1070
     1
1070
   171
1070
     4
1070
   274
1070
     4
1070
   177
1070
     7
1070
   176
1070
     7
1070
   178
1070
     7
1070
    41
1040
2.999994
1070
   147
1040
1.499997
1070
    42
1040
1.499997
1070
    44
1040
2.999994
1070
   140
1040
2.999994
1002
}
1001
ACAD_DSTYLE_DIM_LINETYPE
1070
   380
1005
16
1001
ACAD_DSTYLE_DIM_EXT1_LINETYPE
1070
   381
1005
16
1001
ACAD_DSTYLE_DIM_EXT2_LINETYPE
1070
   382
1005
16
0
DIMENSION
5
143
100
AcDbEntity
8
SK2
62
256
6
ByLayer
370
18
48
1
60
0
100
AcDbDimension
2
_U3
10
19.95
20
38.549102
30
0
11
9.975
21
38.549102
31
0
70
32
71
1
72
1
41
1
210
0
220
0
230
1
3
Standard
100
AcDbAlignedDimension
13
0
23
19.5
33
0
14
19.95
24
18.958158
34
0
50
0
100
AcDbRotatedDimension
1001
ACAD
1000
DSTYLE
1002
{
1070
   371
1070
    13
1070
   372
1070
    13
1070
   170
1070
     0
1070
   144
1040
1.0
1070
   277
1070
     2
1070
   278
1070
    46
1070
   146
1040
1.166667
1070
   345
1005
16
1070
   347
1005
16
1070
   346
1005
16
1070
   344
1005
E6
1070
   343
1005
E6
1070
   172
1070
     1
1070
    76
1070
     0
1070
    75
1070
     0
1070
   282
1070
     0
1070
   281
1070
     0
1070
    71
1070
     0
1070
    74
1070
     0
1070
   279
1070
     0
1070
   173
1070
     1
1070
   340
1005
E1
1070
   271
1070
     0
1070
   272
1070
     2
1070
    77
1070
     1
1070
    73
1070
     1
1070
   171
1070
     4
1070
   274
1070
     4
1070
   177
1070
     7
1070
   176
1070
     7
1070
   178
1070
     7
1070
    41
1040
3.0
1070
   147
1040
1.5
1070
    42
1040
1.5
1070
    44
1040
3.0
1070
   140
1040
3.0
1002
}
1001
ACAD_DSTYLE_DIM_LINETYPE
1070
   380
1005
16
1001
ACAD_DSTYLE_DIM_EXT1_LINETYPE
1070
   381
1005
16
1001
ACAD_DSTYLE_DIM_EXT2_LINETYPE
1070
   382
1005
16
0
DIMENSION
5
15F
100
AcDbEntity
8
SK2
62
256
6
ByLayer
370
18
48
1
60
0
100
AcDbDimension
2
_U4
10
-28.180477
20
-19.97499
30
0
11
-28.180471
21
1E-05
31
0
70
32
71
1
72
1
41
1
210
0
220
0
230
1
3
Standard
100
AcDbAlignedDimension
13
0.663043
23
19.975
33
0
14
0.892324
24
-19.975
34
0
50
-90.000019
100
AcDbRotatedDimension
1001
ACAD
1000
DSTYLE
1002
{
1070
   371
1070
    13
1070
   372
1070
    13
1070
     3
1000
\C7;]<>
1070
   170
1070
     0
1070
   144
1040
1.0
1070
   277
1070
     2
1070
   278
1070
    46
1070
   146
1040
1.166667
1070
   345
1005
16
1070
   347
1005
16
1070
   346
1005
16
1070
   344
1005
E6
1070
   343
1005
E6
1070
   172
1070
     1
1070
    76
1070
     0
1070
    75
1070
     0
1070
   282
1070
     0
1070
   281
1070
     0
1070
    71
1070
     0
1070
    74
1070
     0
1070
   279
1070
     0
1070
   173
1070
     1
1070
   340
1005
E1
1070
   271
1070
     0
1070
   272
1070
     2
1070
    77
1070
     1
1070
    73
1070
     0
1070
   171
1070
     4
1070
   274
1070
     4
1070
   177
1070
     7
1070
   176
1070
     7
1070
   178
1070
     7
1070
    41
1040
3.0
1070
   147
1040
1.5
1070
    42
1040
1.5
1070
    44
1040
3.0
1070
   140
1040
3.0
1002
}
1001
ACAD_DSTYLE_DIM_LINETYPE
1070
   380
1005
16
1001
ACAD_DSTYLE_DIM_EXT1_LINETYPE
1070
   381
1005
16
1001
ACAD_DSTYLE_DIM_EXT2_LINETYPE
1070
   382
1005
16
0
DIMENSION
5
17C
100
AcDbEntity
8
SK2
62
256
6
ByLayer
370
18
48
1
60
0
100
AcDbDimension
2
_U5
10
61.317361
20
9.6
30
0
11
61.317361
21
-0.134074
31
0
70
32
71
1
72
1
41
1
210
0
220
0
230
1
3
Standard
100
AcDbAlignedDimension
13
44.281489
23
-9.6
33
0
14
42.275011
24
9.6
34
0
50
90
100
AcDbRotatedDimension
1001
ACAD
1000
DSTYLE
1002
{
1070
   371
1070
    13
1070
   372
1070
    13
1070
     3
1000
\C7;]<>
1070
   170
1070
     0
1070
   144
1040
1.0
1070
   277
1070
     2
1070
   278
1070
    46
1070
   146
1040
1.166667
1070
   345
1005
16
1070
   347
1005
16
1070
   346
1005
16
1070
   344
1005
E6
1070
   343
1005
E6
1070
   172
1070
     1
1070
    76
1070
     0
1070
    75
1070
     0
1070
   282
1070
     0
1070
   281
1070
     0
1070
    71
1070
     0
1070
    74
1070
     0
1070
   279
1070
     0
1070
   173
1070
     1
1070
   340
1005
E1
1070
   271
1070
     1
1070
   272
1070
     2
1070
    77
1070
     1
1070
    73
1070
     0
1070
   171
1070
     4
1070
   274
1070
     4
1070
   177
1070
     7
1070
   176
1070
     7
1070
   178
1070
     7
1070
    41
1040
3.0
1070
   147
1040
1.5
1070
    42
1040
1.5
1070
    44
1040
3.0
1070
   140
1040
3.0
1002
}
1001
ACAD_DSTYLE_DIM_LINETYPE
1070
   380
1005
16
1001
ACAD_DSTYLE_DIM_EXT1_LINETYPE
1070
   381
1005
16
1001
ACAD_DSTYLE_DIM_EXT2_LINETYPE
1070
   382
1005
16
0
ENDSEC
0
SECTION
2
OBJECTS
0
DICTIONARY
5
209
330
0
100
AcDbDictionary
280
0
281
1
3
ACAD_GROUP
350
20a
3
ACAD_MLINESTYLE
350
20b
0
DICTIONARY
5
20a
330
0
100
AcDbDictionary
280
0
281
1
0
DICTIONARY
5
20b
330
0
100
AcDbDictionary
280
0
281
1
3
Standard
350
18
0
MLINESTYLE
5
18
330
20b
100
AcDbMlineStyle
2
Standard
70
0
3

62
256
51
90
52
90
71
2
49
-0.5
62
256
6
ByLayer
49
0.5
62
256
6
ByLayer
0
RASTERVARIABLES
5
1f7
330

100
AcDbRasterVariables
90
0
70
1
71
1
72
1
0
ENDSEC
0
EOF
