0
SECTION
2
HEADER
9
$ACADVER
1
AC1015
9
$DWGCODEPAGE
3
ANSI_1252
9
$HANDSEED
5
23a
9
$ANGBASE
50
0
9
$ANGDIR
70
0
9
$ATTMODE
70
1
9
$AUNITS
70
0
9
$AUPREC
70
0
9
$CECOLOR
62
256
9
$CELTSCALE
40
1
9
$CELTYPE
6
ByLayer
9
$CELWEIGHT
370
18
9
$CLAYER
8
0
9
$CMLJUST
70
0
9
$CMLSCALE
40
1
9
$CMLSTYLE
2
Standard
9
$DIMSTYLE
2
Standard
9
$TEXTSIZE
40
0.2
9
$TEXTSTYLE
7
Standard
9
$LUNITS
70
2
9
$LUPREC
70
4
9
$EXTNAMES
290
1
9
$INSUNITS
70
4
9
$LTSCALE
40
1
9
$LWDISPLAY
290
1
9
$PDMODE
70
0
9
$PDSIZE
40
0
9
$PLINEGEN
70
0
0
ENDSEC
0
SECTION
2
CLASSES
0
CLASS
1
RASTERVARIABLES
2
AcDbRasterVariables
3
ISM
90
0
280
0
281
0
0
ENDSEC
0
SECTION
2
TABLES
0
TABLE
2
VPORT
5
230
100
AcDbSymbolTable
0
VPORT
5
1
100
AcDbSymbolTableRecord
100
AcDbViewportTableRecord
2
*Active
70
0
10
0
20
0
11
1
21
1
12
-1
22
1
13
0
23
0
14
0.5
24
0.5
15
10
25
10
16
0
26
0
36
1
17
0
27
0
37
0
0
ENDTAB
0
TABLE
2
LTYPE
5
231
100
AcDbSymbolTable
0
LTYPE
5
14
100
AcDbSymbolTableRecord
100
AcDbLinetypeTableRecord
70
0
2
ByBlock
3

72
65
73
0
40
0
0
LTYPE
5
15
100
AcDbSymbolTableRecord
100
AcDbLinetypeTableRecord
70
0
2
ByLayer
3

72
65
73
0
40
0
0
LTYPE
5
16
100
AcDbSymbolTableRecord
100
AcDbLinetypeTableRecord
70
0
2
Continuous
3
Solid line
72
65
73
0
40
0
0
LTYPE
5
6E
100
AcDbSymbolTableRecord
100
AcDbLinetypeTableRecord
70
0
2
CENTER
3
____ _ ____ _ ____ _ ____
72
65
73
4
40
47.5
49
22
74
0
49
-8.5
74
0
49
8.5
74
0
49
-8.5
74
0
0
LTYPE
5
6F
100
AcDbSymbolTableRecord
100
AcDbLinetypeTableRecord
70
0
2
DASHED
3
__ __ __ __ __ __ __ __ __
72
65
73
2
40
25.72
49
12.86
74
0
49
-12.86
74
0
0
ENDTAB
0
TABLE
2
LAYER
5
232
100
AcDbSymbolTable
0
LAYER
5
10
100
AcDbSymbolTableRecord
100
AcDbLayerTableRecord
2
0
70
0
62
7
6
Continuous
290
1
370
-3
390
0
0
LAYER
5
71
100
AcDbSymbolTableRecord
100
AcDbLayerTableRecord
2
80
70
0
62
-6
6
Continuous
290
1
370
-3
390
0
0
LAYER
5
73
100
AcDbSymbolTableRecord
100
AcDbLayerTableRecord
2
81
70
0
62
-3
6
Continuous
290
1
370
-3
390
0
0
LAYER
5
75
100
AcDbSymbolTableRecord
100
AcDbLayerTableRecord
2
1
70
0
62
4
6
Continuous
290
1
370
-3
390
0
0
LAYER
5
8C
100
AcDbSymbolTableRecord
100
AcDbLayerTableRecord
2
4
70
0
62
-2
6
CENTER
290
1
370
-3
390
0
0
LAYER
5
99
100
AcDbSymbolTableRecord
100
AcDbLayerTableRecord
2
2
70
0
62
7
6
Continuous
290
1
370
-3
390
0
0
LAYER
5
12D
100
AcDbSymbolTableRecord
100
AcDbLayerTableRecord
2
Defpoints
70
0
62
7
6
Continuous
290
0
370
-3
390
0
0
LAYER
5
21c
100
AcDbSymbolTableRecord
100
AcDbLayerTableRecord
2
SK1
70
0
62
4
6
Continuous
290
1
370
-3
390
0
0
LAYER
5
21d
100
AcDbSymbolTableRecord
100
AcDbLayerTableRecord
2
SK4
70
0
62
2
6
CENTER
290
1
370
-3
390
0
0
LAYER
5
21e
100
AcDbSymbolTableRecord
100
AcDbLayerTableRecord
2
SK2
70
0
62
7
6
Continuous
290
1
370
-3
390
0
0
LAYER
5
21f
100
AcDbSymbolTableRecord
100
AcDbLayerTableRecord
2
SK6
70
0
62
5
6
Continuous
290
1
370
-3
390
0
0
ENDTAB
0
TABLE
2
STYLE
5
233
100
AcDbSymbolTable
0
STYLE
5
11
100
AcDbSymbolTableRecord
100
AcDbTextStyleTableRecord
2
Standard
3
txt
70
0
71
0
40
0
41
1
42
0
50
0
0
STYLE
5
FF
100
AcDbSymbolTableRecord
100
AcDbTextStyleTableRecord
2
iso_b_vert
3
simplex.shx
70
0
71
0
40
0
41
1
42
0
50
0
0
STYLE
5
100
100
AcDbSymbolTableRecord
100
AcDbTextStyleTableRecord
2
DWGDirectTextStyle
3
simplex
70
0
71
0
40
0
41
1
42
0
50
0
0
ENDTAB
0
TABLE
2
DIMSTYLE
5
234
100
AcDbSymbolTable
100
AcDbDimStyleTable
0
DIMSTYLE
105
27
100
AcDbSymbolTableRecord
100
AcDbDimStyleTableRecord
2
Standard
70
0
3
<>
41
0.18
42
0.0625
44
0.18
140
0.18
147
0.09
73
0
74
0
77
1
271
2
275
0
278
52
280
0
340
11
0
ENDTAB
0
TABLE
2
VIEW
5
235
100
AcDbSymbolTable
0
ENDTAB
0
TABLE
2
UCS
5
236
100
AcDbSymbolTable
0
ENDTAB
0
TABLE
2
APPID
5
237
100
AcDbSymbolTable
0
APPID
5
12
100
AcDbSymbolTableRecord
100
AcDbRegAppTableRecord
2
ACAD
70
0
0
APPID
5
129
100
AcDbSymbolTableRecord
100
AcDbRegAppTableRecord
2
ACAD_DSTYLE_DIMBREAK
70
0
0
APPID
5
1DB
100
AcDbSymbolTableRecord
100
AcDbRegAppTableRecord
2
ACAD_DSTYLE_DIM_LINETYPE
70
0
0
APPID
5
1DC
100
AcDbSymbolTableRecord
100
AcDbRegAppTableRecord
2
ACAD_DSTYLE_DIM_EXT1_LINETYPE
70
0
0
APPID
5
1DD
100
AcDbSymbolTableRecord
100
AcDbRegAppTableRecord
2
ACAD_DSTYLE_DIM_EXT2_LINETYPE
70
0
0
APPID
5
218
100
AcDbSymbolTableRecord
100
AcDbRegAppTableRecord
2
ACAD_MLEADERVER
70
0
0
ENDTAB
0
TABLE
2
BLOCK_RECORD
5
238
100
AcDbSymbolTable
0
BLOCK_RECORD
5
1F
100
AcDbSymbolTableRecord
100
AcDbBlockTableRecord
2
*Model_Space
340
0
70
0
0
BLOCK_RECORD
5
1B
100
AcDbSymbolTableRecord
100
AcDbBlockTableRecord
2
*Paper_Space
340
0
70
0
0
BLOCK_RECORD
5
23
100
AcDbSymbolTableRecord
100
AcDbBlockTableRecord
2
*Paper_Space0
340
0
70
0
0
BLOCK_RECORD
5
12E
100
AcDbSymbolTableRecord
100
AcDbBlockTableRecord
2
*D1
340
0
70
0
0
BLOCK_RECORD
5
13A
100
AcDbSymbolTableRecord
100
AcDbBlockTableRecord
2
_U0
340
0
70
0
0
BLOCK_RECORD
5
146
100
AcDbSymbolTableRecord
100
AcDbBlockTableRecord
2
*D3
340
0
70
0
0
BLOCK_RECORD
5
152
100
AcDbSymbolTableRecord
100
AcDbBlockTableRecord
2
_U1
340
0
70
0
0
BLOCK_RECORD
5
15E
100
AcDbSymbolTableRecord
100
AcDbBlockTableRecord
2
*D5
340
0
70
0
0
BLOCK_RECORD
5
16A
100
AcDbSymbolTableRecord
100
AcDbBlockTableRecord
2
_U2
340
0
70
0
0
BLOCK_RECORD
5
176
100
AcDbSymbolTableRecord
100
AcDbBlockTableRecord
2
*D7
340
0
70
0
0
BLOCK_RECORD
5
184
100
AcDbSymbolTableRecord
100
AcDbBlockTableRecord
2
_U3
340
0
70
0
0
BLOCK_RECORD
5
190
100
AcDbSymbolTableRecord
100
AcDbBlockTableRecord
2
*D9
340
0
70
0
0
BLOCK_RECORD
5
19C
100
AcDbSymbolTableRecord
100
AcDbBlockTableRecord
2
_U4
340
0
70
0
0
BLOCK_RECORD
5
1A8
100
AcDbSymbolTableRecord
100
AcDbBlockTableRecord
2
*D11
340
0
70
0
0
BLOCK_RECORD
5
1B4
100
AcDbSymbolTableRecord
100
AcDbBlockTableRecord
2
_U5
340
0
70
0
0
ENDTAB
0
ENDSEC
0
SECTION
2
BLOCKS
0
BLOCK
5
20
100
AcDbEntity
8
0
100
AcDbBlockBegin
2
*Model_Space
70
0
10
0
20
0
30
0
3
*Model_Space
0
ENDBLK
5
21
100
AcDbEntity
8
0
100
AcDbBlockEnd
0
BLOCK
5
1C
100
AcDbEntity
8
0
100
AcDbBlockBegin
2
*Paper_Space
70
0
10
0
20
0
30
0
3
*Paper_Space
0
ENDBLK
5
1D
100
AcDbEntity
8
0
100
AcDbBlockEnd
0
BLOCK
5
24
100
AcDbEntity
8
0
100
AcDbBlockBegin
2
*Paper_Space0
70
0
10
0
20
0
30
0
3
*Paper_Space0
0
ENDBLK
5
25
100
AcDbEntity
8
0
100
AcDbBlockEnd
0
BLOCK
5
12F
100
AcDbEntity
8
0
100
AcDbBlockBegin
2
*D1
70
1
10
0
20
0
30
0
3
*D1
0
LINE
5
131
100
AcDbEntity
8
0
62
256
6
ByLayer
370
-2
48
1
60
0
100
AcDbLine
10
0
20
-1.5875
30
0
11
0
21
-22.552503
31
0
39
0
210
0
220
0
230
1
0
LINE
5
132
100
AcDbEntity
8
0
62
256
6
ByLayer
370
-2
48
1
60
0
100
AcDbLine
10
89.6871
20
-9.3375
30
0
11
89.6871
21
-22.552503
31
0
39
0
210
0
220
0
230
1
0
LINE
5
133
100
AcDbEntity
8
0
62
256
6
ByLayer
370
-2
48
1
60
0
100
AcDbLine
10
3.5
20
-20.552503
30
0
11
86.1871
21
-20.552503
31
0
39
0
210
0
220
0
230
1
0
SOLID
5
134
100
AcDbEntity
8
0
62
256
6
ByLayer
370
-1
48
1
60
0
100
AcDbTrace
10
3.5
20
-19.96917
30
0
11
3.5
21
-21.135837
31
0
12
0
22
-20.552503
32
0
13
0
23
-20.552503
33
0
39
0
210
0
220
0
230
1
0
SOLID
5
135
100
AcDbEntity
8
0
62
256
6
ByLayer
370
-1
48
1
60
0
100
AcDbTrace
10
86.1871
20
-21.135837
30
0
11
86.1871
21
-19.96917
31
0
12
89.6871
22
-20.552503
32
0
13
89.6871
23
-20.552503
33
0
39
0
210
0
220
0
230
1
0
MTEXT
5
136
100
AcDbEntity
8
0
62
256
6
ByLayer
370
18
48
1
60
0
100
AcDbMText
10
44.84355
20
-13.552503
30
0
210
0
220
0
230
1
1
\A1;89.69
40
3.5
41
0
44
1
50
0
71
5
72
5
7
iso_b_vert
0
POINT
5
137
100
AcDbEntity
8
Defpoints
62
0
6
ByLayer
370
-1
48
1
60
0
100
AcDbPoint
10
0
20
0
30
0
39
0
210
0
220
0
230
1
50
360
0
POINT
5
138
100
AcDbEntity
8
Defpoints
62
0
6
ByLayer
370
-1
48
1
60
0
100
AcDbPoint
10
89.6871
20
-7.75
30
0
39
0
210
0
220
0
230
1
50
360
0
POINT
5
139
100
AcDbEntity
8
Defpoints
62
0
6
ByLayer
370
-1
48
1
60
0
100
AcDbPoint
10
89.6871
20
-20.552503
30
0
39
0
210
0
220
0
230
1
50
360
0
ENDBLK
5
130
100
AcDbEntity
8
0
100
AcDbBlockEnd
0
BLOCK
5
141
100
AcDbEntity
8
0
100
AcDbBlockBegin
2
_U0
70
0
10
0
20
0
30
0
3
_U0
0
MTEXT
5
13B
100
AcDbEntity
8
SK2
62
256
6
ByLayer
370
13
48
1
60
0
100
AcDbMText
10
39.706251
20
-19.51987
30
0
210
0
220
0
230
1
1
\W0.7402;89,69
40
3.5
41
0
44
1.084337
50
0
71
7
72
5
7
iso_b_vert
0
LINE
5
13C
100
AcDbEntity
8
SK2
62
256
6
ByLayer
370
13
48
1
60
0
100
AcDbLine
10
0
20
-1.5875
30
0
11
0
21
-22.552503
31
0
39
0
210
0
220
0
230
1
0
LINE
5
13D
100
AcDbEntity
8
SK2
62
256
6
ByLayer
370
13
48
1
60
0
100
AcDbLine
10
89.6871
20
-9.3375
30
0
11
89.6871
21
-22.552503
31
0
39
0
210
0
220
0
230
1
0
LINE
5
13E
100
AcDbEntity
8
SK2
62
256
6
ByLayer
370
13
48
1
60
0
100
AcDbLine
10
0
20
-20.552503
30
0
11
89.6871
21
-20.552503
31
0
39
0
210
0
220
0
230
1
0
SOLID
5
13F
100
AcDbEntity
8
SK2
62
256
6
ByLayer
370
18
48
1
60
0
100
AcDbTrace
10
0
20
-20.552503
30
0
11
3.499998
21
-20.091719
31
0
12
3.500002
22
-21.013287
32
0
13
3.500002
23
-21.013287
33
0
39
0
210
0
220
0
230
1
0
SOLID
5
140
100
AcDbEntity
8
SK2
62
256
6
ByLayer
370
18
48
1
60
0
100
AcDbTrace
10
89.6871
20
-20.552503
30
0
11
86.187102
21
-21.013287
31
0
12
86.187098
22
-20.091719
32
0
13
86.187098
23
-20.091719
33
0
39
0
210
0
220
0
230
1
0
ENDBLK
5
142
100
AcDbEntity
8
0
100
AcDbBlockEnd
0
BLOCK
5
147
100
AcDbEntity
8
0
100
AcDbBlockBegin
2
*D3
70
1
10
0
20
0
30
0
3
*D3
0
LINE
5
149
100
AcDbEntity
8
0
62
256
6
ByLayer
370
-2
48
1
60
0
100
AcDbLine
10
-50
20
-11.5875
30
0
11
-50
21
-43.192985
31
0
39
0
210
0
220
0
230
1
0
LINE
5
14A
100
AcDbEntity
8
0
62
256
6
ByLayer
370
-2
48
1
60
0
100
AcDbLine
10
92
20
-1.5875
30
0
11
92
21
-43.192985
31
0
39
0
210
0
220
0
230
1
0
LINE
5
14B
100
AcDbEntity
8
0
62
256
6
ByLayer
370
-2
48
1
60
0
100
AcDbLine
10
-46.5
20
-41.192985
30
0
11
88.5
21
-41.192985
31
0
39
0
210
0
220
0
230
1
0
SOLID
5
14C
100
AcDbEntity
8
0
62
256
6
ByLayer
370
-1
48
1
60
0
100
AcDbTrace
10
-46.5
20
-40.609652
30
0
11
-46.5
21
-41.776319
31
0
12
-50
22
-41.192985
32
0
13
-50
23
-41.192985
33
0
39
0
210
0
220
0
230
1
0
SOLID
5
14D
100
AcDbEntity
8
0
62
256
6
ByLayer
370
-1
48
1
60
0
100
AcDbTrace
10
88.5
20
-41.776319
30
0
11
88.5
21
-40.609652
31
0
12
92
22
-41.192985
32
0
13
92
23
-41.192985
33
0
39
0
210
0
220
0
230
1
0
MTEXT
5
14E
100
AcDbEntity
8
0
62
256
6
ByLayer
370
18
48
1
60
0
100
AcDbMText
10
21
20
-34.192985
30
0
210
0
220
0
230
1
1
\A1;142.00
40
3.5
41
0
44
1
50
0
71
5
72
5
7
iso_b_vert
0
POINT
5
14F
100
AcDbEntity
8
Defpoints
62
0
6
ByLayer
370
-1
48
1
60
0
100
AcDbPoint
10
-50
20
-10
30
0
39
0
210
0
220
0
230
1
50
360
0
POINT
5
150
100
AcDbEntity
8
Defpoints
62
0
6
ByLayer
370
-1
48
1
60
0
100
AcDbPoint
10
92
20
0
30
0
39
0
210
0
220
0
230
1
50
360
0
POINT
5
151
100
AcDbEntity
8
Defpoints
62
0
6
ByLayer
370
-1
48
1
60
0
100
AcDbPoint
10
92
20
-41.192985
30
0
39
0
210
0
220
0
230
1
50
360
0
ENDBLK
5
148
100
AcDbEntity
8
0
100
AcDbBlockEnd
0
BLOCK
5
159
100
AcDbEntity
8
0
100
AcDbBlockBegin
2
_U1
70
0
10
0
20
0
30
0
3
_U1
0
MTEXT
5
153
100
AcDbEntity
8
SK2
62
256
6
ByLayer
370
13
48
1
60
0
100
AcDbMText
10
14.808135
20
-40.160352
30
0
210
0
220
0
230
1
1
\W0.7145;142,00
40
3.5
41
0
44
1.084337
50
0
71
7
72
5
7
iso_b_vert
0
LINE
5
154
100
AcDbEntity
8
SK2
62
256
6
ByLayer
370
13
48
1
60
0
100
AcDbLine
10
-50
20
-11.5875
30
0
11
-50
21
-43.192985
31
0
39
0
210
0
220
0
230
1
0
LINE
5
155
100
AcDbEntity
8
SK2
62
256
6
ByLayer
370
13
48
1
60
0
100
AcDbLine
10
92
20
-1.5875
30
0
11
92
21
-43.192985
31
0
39
0
210
0
220
0
230
1
0
LINE
5
156
100
AcDbEntity
8
SK2
62
256
6
ByLayer
370
13
48
1
60
0
100
AcDbLine
10
-50
20
-41.192985
30
0
11
92
21
-41.192985
31
0
39
0
210
0
220
0
230
1
0
SOLID
5
157
100
AcDbEntity
8
SK2
62
256
6
ByLayer
370
18
48
1
60
0
100
AcDbTrace
10
-50
20
-41.192985
30
0
11
-46.500002
21
-40.732202
31
0
12
-46.499998
22
-41.653769
32
0
13
-46.499998
23
-41.653769
33
0
39
0
210
0
220
0
230
1
0
SOLID
5
158
100
AcDbEntity
8
SK2
62
256
6
ByLayer
370
18
48
1
60
0
100
AcDbTrace
10
92
20
-41.192985
30
0
11
88.500002
21
-41.653769
31
0
12
88.499998
22
-40.732202
32
0
13
88.499998
23
-40.732202
33
0
39
0
210
0
220
0
230
1
0
ENDBLK
5
15A
100
AcDbEntity
8
0
100
AcDbBlockEnd
0
BLOCK
5
15F
100
AcDbEntity
8
0
100
AcDbBlockBegin
2
*D5
70
1
10
0
20
0
30
0
3
*D5
0
LINE
5
161
100
AcDbEntity
8
0
62
256
6
ByLayer
370
-2
48
1
60
0
100
AcDbLine
10
40.94
20
11.5875
30
0
11
40.94
21
21.359119
31
0
39
0
210
0
220
0
230
1
0
LINE
5
162
100
AcDbEntity
8
0
62
256
6
ByLayer
370
-2
48
1
60
0
100
AcDbLine
10
92
20
1.5875
30
0
11
92
21
21.359119
31
0
39
0
210
0
220
0
230
1
0
LINE
5
163
100
AcDbEntity
8
0
62
256
6
ByLayer
370
-2
48
1
60
0
100
AcDbLine
10
44.44
20
19.359119
30
0
11
88.5
21
19.359119
31
0
39
0
210
0
220
0
230
1
0
SOLID
5
164
100
AcDbEntity
8
0
62
256
6
ByLayer
370
-1
48
1
60
0
100
AcDbTrace
10
44.44
20
19.942453
30
0
11
44.44
21
18.775786
31
0
12
40.94
22
19.359119
32
0
13
40.94
23
19.359119
33
0
39
0
210
0
220
0
230
1
0
SOLID
5
165
100
AcDbEntity
8
0
62
256
6
ByLayer
370
-1
48
1
60
0
100
AcDbTrace
10
88.5
20
18.775786
30
0
11
88.5
21
19.942453
31
0
12
92
22
19.359119
32
0
13
92
23
19.359119
33
0
39
0
210
0
220
0
230
1
0
MTEXT
5
166
100
AcDbEntity
8
0
62
256
6
ByLayer
370
18
48
1
60
0
100
AcDbMText
10
66.47
20
26.359119
30
0
210
0
220
0
230
1
1
\A1;51.06
40
3.5
41
0
44
1
50
0
71
5
72
5
7
iso_b_vert
0
POINT
5
167
100
AcDbEntity
8
Defpoints
62
0
6
ByLayer
370
-1
48
1
60
0
100
AcDbPoint
10
40.94
20
10
30
0
39
0
210
0
220
0
230
1
50
360
0
POINT
5
168
100
AcDbEntity
8
Defpoints
62
0
6
ByLayer
370
-1
48
1
60
0
100
AcDbPoint
10
92
20
0
30
0
39
0
210
0
220
0
230
1
50
360
0
POINT
5
169
100
AcDbEntity
8
Defpoints
62
0
6
ByLayer
370
-1
48
1
60
0
100
AcDbPoint
10
92
20
19.359119
30
0
39
0
210
0
220
0
230
1
50
360
0
ENDBLK
5
160
100
AcDbEntity
8
0
100
AcDbBlockEnd
0
BLOCK
5
171
100
AcDbEntity
8
0
100
AcDbBlockBegin
2
_U2
70
0
10
0
20
0
30
0
3
_U2
0
MTEXT
5
16B
100
AcDbEntity
8
SK2
62
256
6
ByLayer
370
13
48
1
60
0
100
AcDbMText
10
61.770135
20
20.391753
30
0
210
0
220
0
230
1
1
\W0.6713;51,06
40
3.5
41
0
44
1.084337
50
0
71
7
72
5
7
iso_b_vert
0
LINE
5
16C
100
AcDbEntity
8
SK2
62
256
6
ByLayer
370
13
48
1
60
0
100
AcDbLine
10
40.94
20
11.5875
30
0
11
40.94
21
21.359119
31
0
39
0
210
0
220
0
230
1
0
LINE
5
16D
100
AcDbEntity
8
SK2
62
256
6
ByLayer
370
13
48
1
60
0
100
AcDbLine
10
92
20
1.5875
30
0
11
92
21
21.359119
31
0
39
0
210
0
220
0
230
1
0
LINE
5
16E
100
AcDbEntity
8
SK2
62
256
6
ByLayer
370
13
48
1
60
0
100
AcDbLine
10
40.94
20
19.359119
30
0
11
92
21
19.359119
31
0
39
0
210
0
220
0
230
1
0
SOLID
5
16F
100
AcDbEntity
8
SK2
62
256
6
ByLayer
370
18
48
1
60
0
100
AcDbTrace
10
40.94
20
19.359119
30
0
11
44.439998
21
19.819903
31
0
12
44.440002
22
18.898335
32
0
13
44.440002
23
18.898335
33
0
39
0
210
0
220
0
230
1
0
SOLID
5
170
100
AcDbEntity
8
SK2
62
256
6
ByLayer
370
18
48
1
60
0
100
AcDbTrace
10
92
20
19.359119
30
0
11
88.500002
21
18.898335
31
0
12
88.499998
22
19.819903
32
0
13
88.499998
23
19.819903
33
0
39
0
210
0
220
0
230
1
0
ENDBLK
5
172
100
AcDbEntity
8
0
100
AcDbBlockEnd
0
BLOCK
5
177
100
AcDbEntity
8
0
100
AcDbBlockBegin
2
*D7
70
1
10
0
20
0
30
0
3
*D7
0
LINE
5
179
100
AcDbEntity
8
0
62
256
6
ByLayer
370
-2
48
1
60
0
100
AcDbLine
10
92
20
-1.5875
30
0
11
92
21
-22.552503
31
0
39
0
210
0
220
0
230
1
0
LINE
5
17A
100
AcDbEntity
8
0
62
256
6
ByLayer
370
-2
48
1
60
0
100
AcDbLine
10
89.6871
20
-9.3375
30
0
11
89.6871
21
-22.552503
31
0
39
0
210
0
220
0
230
1
0
LINE
5
17B
100
AcDbEntity
8
0
62
256
6
ByLayer
370
-2
48
1
60
0
100
AcDbLine
10
92
20
-20.552503
30
0
11
119.166667
21
-20.552503
31
0
39
0
210
0
220
0
230
1
0
LINE
5
17C
100
AcDbEntity
8
0
62
256
6
ByLayer
370
-2
48
1
60
0
100
AcDbLine
10
95.5
20
-20.552503
30
0
11
99
21
-20.552503
31
0
39
0
210
0
220
0
230
1
0
LINE
5
17D
100
AcDbEntity
8
0
62
256
6
ByLayer
370
-2
48
1
60
0
100
AcDbLine
10
86.1871
20
-20.552503
30
0
11
82.6871
21
-20.552503
31
0
39
0
210
0
220
0
230
1
0
SOLID
5
17E
100
AcDbEntity
8
0
62
256
6
ByLayer
370
-1
48
1
60
0
100
AcDbTrace
10
95.5
20
-19.96917
30
0
11
95.5
21
-21.135837
31
0
12
92
22
-20.552503
32
0
13
92
23
-20.552503
33
0
39
0
210
0
220
0
230
1
0
SOLID
5
17F
100
AcDbEntity
8
0
62
256
6
ByLayer
370
-1
48
1
60
0
100
AcDbTrace
10
86.1871
20
-21.135837
30
0
11
86.1871
21
-19.96917
31
0
12
89.6871
22
-20.552503
32
0
13
89.6871
23
-20.552503
33
0
39
0
210
0
220
0
230
1
0
MTEXT
5
180
100
AcDbEntity
8
0
62
256
6
ByLayer
370
18
48
1
60
0
100
AcDbMText
10
109.083333
20
-13.552503
30
0
210
0
220
0
230
1
1
\A1;2.31
40
3.5
41
0
44
1
50
0
71
5
72
5
7
iso_b_vert
0
POINT
5
181
100
AcDbEntity
8
Defpoints
62
0
6
ByLayer
370
-1
48
1
60
0
100
AcDbPoint
10
92
20
0
30
0
39
0
210
0
220
0
230
1
50
360
0
POINT
5
182
100
AcDbEntity
8
Defpoints
62
0
6
ByLayer
370
-1
48
1
60
0
100
AcDbPoint
10
89.6871
20
-7.75
30
0
39
0
210
0
220
0
230
1
50
360
0
POINT
5
183
100
AcDbEntity
8
Defpoints
62
0
6
ByLayer
370
-1
48
1
60
0
100
AcDbPoint
10
89.6871
20
-20.552503
30
0
39
0
210
0
220
0
230
1
50
360
0
ENDBLK
5
178
100
AcDbEntity
8
0
100
AcDbBlockEnd
0
BLOCK
5
18B
100
AcDbEntity
8
0
100
AcDbBlockBegin
2
_U3
70
0
10
0
20
0
30
0
3
_U3
0
MTEXT
5
185
100
AcDbEntity
8
SK2
62
256
6
ByLayer
370
13
48
1
60
0
100
AcDbMText
10
98.589293
20
-19.51987
30
0
210
0
220
0
230
1
1
\W0.6993;2,31
40
3.5
41
0
44
1.084337
50
0
71
7
72
5
7
iso_b_vert
0
LINE
5
186
100
AcDbEntity
8
SK2
62
256
6
ByLayer
370
13
48
1
60
0
100
AcDbLine
10
92
20
-1.5875
30
0
11
92
21
-22.552503
31
0
39
0
210
0
220
0
230
1
0
LINE
5
187
100
AcDbEntity
8
SK2
62
256
6
ByLayer
370
13
48
1
60
0
100
AcDbLine
10
89.6871
20
-9.3375
30
0
11
89.6871
21
-22.552503
31
0
39
0
210
0
220
0
230
1
0
LINE
5
188
100
AcDbEntity
8
SK2
62
256
6
ByLayer
370
13
48
1
60
0
100
AcDbLine
10
80.9371
20
-20.552503
30
0
11
105.559058
21
-20.552503
31
0
39
0
210
0
220
0
230
1
0
SOLID
5
189
100
AcDbEntity
8
SK2
62
256
6
ByLayer
370
18
48
1
60
0
100
AcDbTrace
10
92
20
-20.552503
30
0
11
95.499998
21
-20.091719
31
0
12
95.500002
22
-21.013287
32
0
13
95.500002
23
-21.013287
33
0
39
0
210
0
220
0
230
1
0
SOLID
5
18A
100
AcDbEntity
8
SK2
62
256
6
ByLayer
370
18
48
1
60
0
100
AcDbTrace
10
89.6871
20
-20.552503
30
0
11
86.187102
21
-21.013287
31
0
12
86.187098
22
-20.091719
32
0
13
86.187098
23
-20.091719
33
0
39
0
210
0
220
0
230
1
0
ENDBLK
5
18C
100
AcDbEntity
8
0
100
AcDbBlockEnd
0
BLOCK
5
191
100
AcDbEntity
8
0
100
AcDbBlockBegin
2
*D9
70
1
10
0
20
0
30
0
3
*D9
0
LINE
5
193
100
AcDbEntity
8
0
62
256
6
ByLayer
370
-2
48
1
60
0
100
AcDbLine
10
89.6871
20
9.3375
30
0
11
89.6871
21
13.885371
31
0
39
0
210
0
220
0
230
1
0
LINE
5
194
100
AcDbEntity
8
0
62
256
6
ByLayer
370
-2
48
1
60
0
100
AcDbLine
10
43.1871
20
9.3375
30
0
11
43.1871
21
13.885371
31
0
39
0
210
0
220
0
230
1
0
LINE
5
195
100
AcDbEntity
8
0
62
256
6
ByLayer
370
-2
48
1
60
0
100
AcDbLine
10
86.1871
20
11.885371
30
0
11
46.6871
21
11.885371
31
0
39
0
210
0
220
0
230
1
0
SOLID
5
196
100
AcDbEntity
8
0
62
256
6
ByLayer
370
-1
48
1
60
0
100
AcDbTrace
10
86.1871
20
11.302038
30
0
11
86.1871
21
12.468705
31
0
12
89.6871
22
11.885371
32
0
13
89.6871
23
11.885371
33
0
39
0
210
0
220
0
230
1
0
SOLID
5
197
100
AcDbEntity
8
0
62
256
6
ByLayer
370
-1
48
1
60
0
100
AcDbTrace
10
46.6871
20
12.468705
30
0
11
46.6871
21
11.302038
31
0
12
43.1871
22
11.885371
32
0
13
43.1871
23
11.885371
33
0
39
0
210
0
220
0
230
1
0
MTEXT
5
198
100
AcDbEntity
8
0
62
256
6
ByLayer
370
18
48
1
60
0
100
AcDbMText
10
66.4371
20
18.885371
30
0
210
0
220
0
230
1
1
\A1;46.50
40
3.5
41
0
44
1
50
0
71
5
72
5
7
iso_b_vert
0
POINT
5
199
100
AcDbEntity
8
Defpoints
62
0
6
ByLayer
370
-1
48
1
60
0
100
AcDbPoint
10
89.6871
20
7.75
30
0
39
0
210
0
220
0
230
1
50
360
0
POINT
5
19A
100
AcDbEntity
8
Defpoints
62
0
6
ByLayer
370
-1
48
1
60
0
100
AcDbPoint
10
43.1871
20
7.75
30
0
39
0
210
0
220
0
230
1
50
360
0
POINT
5
19B
100
AcDbEntity
8
Defpoints
62
0
6
ByLayer
370
-1
48
1
60
0
100
AcDbPoint
10
43.1871
20
11.885371
30
0
39
0
210
0
220
0
230
1
50
360
0
ENDBLK
5
192
100
AcDbEntity
8
0
100
AcDbBlockEnd
0
BLOCK
5
1A3
100
AcDbEntity
8
0
100
AcDbBlockBegin
2
_U4
70
0
10
0
20
0
30
0
3
_U4
0
MTEXT
5
19D
100
AcDbEntity
8
SK2
62
256
6
ByLayer
370
13
48
1
60
0
100
AcDbMText
10
61.115535
20
12.918005
30
0
210
0
220
0
230
1
1
\W0.7581;46,50
40
3.5
41
0
44
1.084337
50
0
71
7
72
5
7
iso_b_vert
0
LINE
5
19E
100
AcDbEntity
8
SK2
62
256
6
ByLayer
370
13
48
1
60
0
100
AcDbLine
10
89.6871
20
9.3375
30
0
11
89.6871
21
13.885371
31
0
39
0
210
0
220
0
230
1
0
LINE
5
19F
100
AcDbEntity
8
SK2
62
256
6
ByLayer
370
13
48
1
60
0
100
AcDbLine
10
43.1871
20
9.3375
30
0
11
43.1871
21
13.885371
31
0
39
0
210
0
220
0
230
1
0
LINE
5
1A0
100
AcDbEntity
8
SK2
62
256
6
ByLayer
370
13
48
1
60
0
100
AcDbLine
10
89.6871
20
11.885371
30
0
11
43.1871
21
11.885371
31
0
39
0
210
0
220
0
230
1
0
SOLID
5
1A1
100
AcDbEntity
8
SK2
62
256
6
ByLayer
370
18
48
1
60
0
100
AcDbTrace
10
89.6871
20
11.885371
30
0
11
86.187102
21
11.424588
31
0
12
86.187098
22
12.346155
32
0
13
86.187098
23
12.346155
33
0
39
0
210
0
220
0
230
1
0
SOLID
5
1A2
100
AcDbEntity
8
SK2
62
256
6
ByLayer
370
18
48
1
60
0
100
AcDbTrace
10
43.1871
20
11.885371
30
0
11
46.687098
21
12.346155
31
0
12
46.687102
22
11.424588
32
0
13
46.687102
23
11.424588
33
0
39
0
210
0
220
0
230
1
0
ENDBLK
5
1A4
100
AcDbEntity
8
0
100
AcDbBlockEnd
0
BLOCK
5
1A9
100
AcDbEntity
8
0
100
AcDbBlockBegin
2
*D11
70
1
10
0
20
0
30
0
3
*D11
0
LINE
5
1AB
100
AcDbEntity
8
0
62
256
6
ByLayer
370
-2
48
1
60
0
100
AcDbLine
10
-50
20
-11.5875
30
0
11
-50
21
-32.690158
31
0
39
0
210
0
220
0
230
1
0
LINE
5
1AC
100
AcDbEntity
8
0
62
256
6
ByLayer
370
-2
48
1
60
0
100
AcDbLine
10
89.6871
20
-9.3375
30
0
11
89.6871
21
-32.690158
31
0
39
0
210
0
220
0
230
1
0
LINE
5
1AD
100
AcDbEntity
8
0
62
256
6
ByLayer
370
-2
48
1
60
0
100
AcDbLine
10
-46.5
20
-30.690158
30
0
11
86.1871
21
-30.690158
31
0
39
0
210
0
220
0
230
1
0
SOLID
5
1AE
100
AcDbEntity
8
0
62
256
6
ByLayer
370
-1
48
1
60
0
100
AcDbTrace
10
-46.5
20
-30.106825
30
0
11
-46.5
21
-31.273491
31
0
12
-50
22
-30.690158
32
0
13
-50
23
-30.690158
33
0
39
0
210
0
220
0
230
1
0
SOLID
5
1AF
100
AcDbEntity
8
0
62
256
6
ByLayer
370
-1
48
1
60
0
100
AcDbTrace
10
86.1871
20
-31.273491
30
0
11
86.1871
21
-30.106825
31
0
12
89.6871
22
-30.690158
32
0
13
89.6871
23
-30.690158
33
0
39
0
210
0
220
0
230
1
0
MTEXT
5
1B0
100
AcDbEntity
8
0
62
256
6
ByLayer
370
18
48
1
60
0
100
AcDbMText
10
19.84355
20
-23.690158
30
0
210
0
220
0
230
1
1
\A1;139.69
40
3.5
41
0
44
1
50
0
71
5
72
5
7
iso_b_vert
0
POINT
5
1B1
100
AcDbEntity
8
Defpoints
62
0
6
ByLayer
370
-1
48
1
60
0
100
AcDbPoint
10
-50
20
-10
30
0
39
0
210
0
220
0
230
1
50
360
0
POINT
5
1B2
100
AcDbEntity
8
Defpoints
62
0
6
ByLayer
370
-1
48
1
60
0
100
AcDbPoint
10
89.6871
20
-7.75
30
0
39
0
210
0
220
0
230
1
50
360
0
POINT
5
1B3
100
AcDbEntity
8
Defpoints
62
0
6
ByLayer
370
-1
48
1
60
0
100
AcDbPoint
10
89.6871
20
-30.690158
30
0
39
0
210
0
220
0
230
1
50
360
0
ENDBLK
5
1AA
100
AcDbEntity
8
0
100
AcDbBlockEnd
0
BLOCK
5
1BB
100
AcDbEntity
8
0
100
AcDbBlockBegin
2
_U5
70
0
10
0
20
0
30
0
3
_U5
0
MTEXT
5
1B5
100
AcDbEntity
8
SK2
62
256
6
ByLayer
370
13
48
1
60
0
100
AcDbMText
10
13.835951
20
-29.657524
30
0
210
0
220
0
230
1
1
\W0.6996;139,69
40
3.5
41
0
44
1.084337
50
0
71
7
72
5
7
iso_b_vert
0
LINE
5
1B6
100
AcDbEntity
8
SK2
62
256
6
ByLayer
370
13
48
1
60
0
100
AcDbLine
10
-50
20
-11.5875
30
0
11
-50
21
-32.690158
31
0
39
0
210
0
220
0
230
1
0
LINE
5
1B7
100
AcDbEntity
8
SK2
62
256
6
ByLayer
370
13
48
1
60
0
100
AcDbLine
10
89.6871
20
-9.3375
30
0
11
89.6871
21
-32.690158
31
0
39
0
210
0
220
0
230
1
0
LINE
5
1B8
100
AcDbEntity
8
SK2
62
256
6
ByLayer
370
13
48
1
60
0
100
AcDbLine
10
-50
20
-30.690158
30
0
11
89.6871
21
-30.690158
31
0
39
0
210
0
220
0
230
1
0
SOLID
5
1B9
100
AcDbEntity
8
SK2
62
256
6
ByLayer
370
18
48
1
60
0
100
AcDbTrace
10
-50
20
-30.690158
30
0
11
-46.500002
21
-30.229374
31
0
12
-46.499998
22
-31.150942
32
0
13
-46.499998
23
-31.150942
33
0
39
0
210
0
220
0
230
1
0
SOLID
5
1BA
100
AcDbEntity
8
SK2
62
256
6
ByLayer
370
18
48
1
60
0
100
AcDbTrace
10
89.6871
20
-30.690158
30
0
11
86.187102
21
-31.150942
31
0
12
86.187098
22
-30.229374
32
0
13
86.187098
23
-30.229374
33
0
39
0
210
0
220
0
230
1
0
ENDBLK
5
1BC
100
AcDbEntity
8
0
100
AcDbBlockEnd
0
ENDSEC
0
SECTION
2
ENTITIES
0
ARC
5
BD
100
AcDbEntity
8
SK2
62
256
6
ByLayer
370
13
48
1
60
0
100
AcDbCircle
39
0
10
50.9371
20
0
30
0
40
23.0553990722113
210
0
220
0
230
1
100
AcDbArc
50
182.670739
51
225
0
ARC
5
BE
100
AcDbEntity
8
SK2
62
256
6
ByLayer
370
13
48
1
60
0
100
AcDbCircle
39
0
10
50.9371
20
0
30
0
40
23.0553990722113
210
0
220
0
230
1
100
AcDbArc
50
135
51
166.388729
0
POINT
5
70
100
AcDbEntity
8
80
62
256
6
ByLayer
370
18
48
1
60
0
100
AcDbPoint
10
0
20
0
30
0
39
0
210
0
220
0
230
1
50
360
0
POINT
5
72
100
AcDbEntity
8
81
62
256
6
ByLayer
370
18
48
1
60
0
100
AcDbPoint
10
92
20
0
30
0
39
0
210
0
220
0
230
1
50
360
0
POINT
5
74
100
AcDbEntity
8
1
62
256
6
ByLayer
370
18
48
1
60
1
100
AcDbPoint
10
89.6871
20
-7.75
30
0
39
0
210
0
220
0
230
1
50
360
0
POINT
5
76
100
AcDbEntity
8
1
62
256
6
ByLayer
370
18
48
1
60
1
100
AcDbPoint
10
-50
20
-10
30
0
39
0
210
0
220
0
230
1
50
360
0
POINT
5
77
100
AcDbEntity
8
1
62
256
6
ByLayer
370
18
48
1
60
1
100
AcDbPoint
10
40.94
20
10
30
0
39
0
210
0
220
0
230
1
50
360
0
POINT
5
78
100
AcDbEntity
8
1
62
256
6
ByLayer
370
18
48
1
60
1
100
AcDbPoint
10
89.6871
20
-7.75
30
0
39
0
210
0
220
0
230
1
50
360
0
POINT
5
79
100
AcDbEntity
8
1
62
256
6
ByLayer
370
18
48
1
60
1
100
AcDbPoint
10
89.6871
20
7.75
30
0
39
0
210
0
220
0
230
1
50
360
0
POINT
5
7A
100
AcDbEntity
8
1
62
256
6
ByLayer
370
18
48
1
60
1
100
AcDbPoint
10
43.1871
20
7.75
30
0
39
0
210
0
220
0
230
1
50
360
0
POINT
5
7B
100
AcDbEntity
8
1
62
256
6
ByLayer
370
18
48
1
60
1
100
AcDbPoint
10
-50
20
-10
30
0
39
0
210
0
220
0
230
1
50
360
0
POINT
5
7C
100
AcDbEntity
8
1
62
256
6
ByLayer
370
18
48
1
60
1
100
AcDbPoint
10
89.6871
20
-7.75
30
0
39
0
210
0
220
0
230
1
50
360
0
SPLINE
5
BF
100
AcDbEntity
8
SK1
62
256
6
ByLayer
370
18
48
1
60
0
100
AcDbSpline
70
4
71
3
72
12
73
8
40
0
40
0
40
0
40
0
40
0.500000000000008
40
0.500000000000008
40
0.750000000000004
40
0.750000000000004
40
1
40
1
40
1
40
1
41
1
10
-47.7
20
-1.11643571217354
30
0
41
1
10
-47.6767410897415
20
-1.11542513909831
30
0
41
1
10
-47.6540473543102
20
-1.10664283893868
30
0
41
1
10
-47.6255892761979
20
-1.08096607850291
30
0
41
1
10
-47.6170511286925
20
-1.07025130740135
30
0
41
1
10
-47.6041481443464
20
-1.04379330123299
30
0
41
1
10
-47.6
20
-1.0280735357108
30
0
41
1
10
-47.6
20
-1.01149524839943
30
0
0
SPLINE
5
C0
100
AcDbEntity
8
SK1
62
256
6
ByLayer
370
18
48
1
60
0
100
AcDbSpline
70
4
71
3
72
8
73
4
40
0
40
0
40
0
40
0
40
1
40
1
40
1
40
1
41
1
10
-47.7
20
1.88080919566565
30
0
41
1
10
-48.468574156622
20
1.84741552672926
30
0
41
1
10
-49.2359055548264
20
1.81397010308007
30
0
41
1
10
-50
20
1.78038987642162
30
0
0
SPLINE
5
C1
100
AcDbEntity
8
SK1
62
256
6
ByLayer
370
18
48
1
60
0
100
AcDbSpline
70
4
71
3
72
12
73
8
40
0
40
0
40
0
40
0
40
0.500000000000011
40
0.500000000000011
40
0.750000000000005
40
0.750000000000005
40
1
40
1
40
1
40
1
41
1
10
-47.7
20
1.11643571217351
30
0
41
1
10
-47.6767410897415
20
1.11542513909831
30
0
41
1
10
-47.6540473543102
20
1.10664283893865
30
0
41
1
10
-47.6255892761979
20
1.08096607850288
30
0
41
1
10
-47.6170511286925
20
1.07025130740132
30
0
41
1
10
-47.6041481443464
20
1.04379330123299
30
0
41
1
10
-47.6
20
1.02807353571077
30
0
41
1
10
-47.6
20
1.0114952483994
30
0
0
SPLINE
5
C2
100
AcDbEntity
8
SK1
62
256
6
ByLayer
370
18
48
1
60
0
100
AcDbSpline
70
4
71
3
72
8
73
4
40
0
40
0
40
0
40
0
40
1
40
1
40
1
40
1
41
1
10
-50
20
-1.21685503141754
30
0
41
1
10
-49.2358902296382
20
-1.18327413125167
30
0
41
1
10
-48.468562725647
20
-1.14982888444712
30
0
41
1
10
-47.7
20
-1.11643571217354
30
0
0
SPLINE
5
C3
100
AcDbEntity
8
SK1
62
256
6
ByLayer
370
18
48
1
60
0
100
AcDbSpline
70
4
71
3
72
12
73
8
40
0
40
0
40
0
40
0
40
0.25
40
0.25
40
0.500000000000001
40
0.500000000000001
40
1
40
1
40
1
40
1
41
1
10
-47.6
20
1.78593333225049
30
0
41
1
10
-47.6
20
1.80232346324777
30
0
41
1
10
-47.6041468027231
20
1.81744256357595
30
0
41
1
10
-47.6170570586248
20
1.84243816310573
30
0
41
1
10
-47.6255546314712
20
1.85222598801713
30
0
41
1
10
-47.654055184327
20
1.87513687629323
30
0
41
1
10
-47.6767308868523
20
1.88182021204474
30
0
41
1
10
-47.7
20
1.88080919566565
30
0
0
SPLINE
5
C4
100
AcDbEntity
8
SK1
62
256
6
ByLayer
370
18
48
1
60
0
100
AcDbSpline
70
4
71
3
72
8
73
4
40
0
40
0
40
0
40
0
40
1
40
1
40
1
40
1
41
1
10
-50
20
1.21685503141754
30
0
41
1
10
-49.2358902296382
20
1.18327413125167
30
0
41
1
10
-48.468562725647
20
1.14982888444709
30
0
41
1
10
-47.7
20
1.11643571217351
30
0
0
SPLINE
5
C5
100
AcDbEntity
8
1
62
256
6
ByLayer
370
18
48
1
60
0
100
AcDbSpline
70
4
71
3
72
26
73
22
40
0
40
0
40
0
40
0
40
0.0843235083366386
40
0.0843235083366386
40
0.160629882641916
40
0.160629882641916
40
0.236936256947195
40
0.236936256947195
40
0.389549005557754
40
0.389549005557754
40
0.465855379863036
40
0.465855379863036
40
0.542161754168317
40
0.542161754168317
40
0.694774502778877
40
0.694774502778877
40
0.847387251389437
40
0.847387251389437
40
0.923693625694718
40
0.923693625694718
40
1
40
1
40
1
40
1
41
1
10
33.5021239997751
20
7.05875683857172
30
0
41
1
10
33.7062220141133
20
7.16623730044793
30
0
41
1
10
33.910091242338
20
7.27133663264635
30
0
41
1
10
34.2978644844193
20
7.46717825523581
30
0
41
1
10
34.4816856510578
20
7.55842551662246
30
0
41
1
10
34.8500114818299
20
7.73603007206512
30
0
41
1
10
35.0344266173581
20
7.8224763787494
30
0
41
1
10
35.588359056886
20
8.07486353596704
30
0
41
1
10
35.9584763475812
20
8.23394645186306
30
0
41
1
10
36.5142856244389
20
8.4591938016525
30
0
41
1
10
36.6996842876864
20
8.53202520658328
30
0
41
1
10
37.0705265573485
20
8.67326898979198
30
0
41
1
10
37.2558155325635
20
8.74177889092024
30
0
41
1
10
37.8133317717891
20
8.9394813542205
30
0
41
1
10
38.1881220192151
20
9.06112595655176
30
0
41
1
10
38.9358139696227
20
9.28239616906777
30
0
41
1
10
39.3088543953058
20
9.38213752360915
30
0
41
1
10
39.8665243072538
20
9.51575054538634
30
0
41
1
10
40.0519112091573
20
9.5576843782942
30
0
41
1
10
40.4229038980496
20
9.63582336178891
30
0
41
1
10
40.6085789422925
20
9.67201360254049
30
0
41
1
10
40.7944221074348
20
9.70536322565297
30
0
0
SPLINE
5
C6
100
AcDbEntity
8
1
62
256
6
ByLayer
370
18
48
1
60
0
100
AcDbSpline
70
4
71
3
72
12
73
8
40
0
40
0
40
0
40
0
40
0.177294387483774
40
0.177294387483774
40
0.588647193741887
40
0.588647193741887
40
1
40
1
40
1
40
1
41
1
10
46.7010866678522
20
-7.33563275632085
30
0
41
1
10
46.4922846416138
20
-7.33543810983682
30
0
41
1
10
46.2834935372289
20
-7.33258098090894
30
0
41
1
10
45.5901570383263
20
-7.31428045001655
30
0
41
1
10
45.1047880397053
20
-7.28709589209575
30
0
41
1
10
44.1386020299043
20
-7.2046663884048
30
0
41
1
10
43.6572014088182
20
-7.14951897856679
30
0
41
1
10
43.1769643764783
20
-7.08095708788935
30
0
0
SPLINE
5
C7
100
AcDbEntity
8
1
62
256
6
ByLayer
370
18
48
1
60
0
100
AcDbSpline
70
4
71
3
72
38
73
34
40
0
40
0
40
0
40
0
40
0.125000000000001
40
0.125000000000001
40
0.250000000000003
40
0.250000000000003
40
0.312500000000012
40
0.312500000000012
40
0.375000000000021
40
0.375000000000021
40
0.406250000000026
40
0.406250000000026
40
0.437500000000031
40
0.437500000000031
40
0.468750000000036
40
0.468750000000036
40
0.500000000000041
40
0.500000000000041
40
0.531250000000046
40
0.531250000000046
40
0.562500000000051
40
0.562500000000051
40
0.625000000000044
40
0.625000000000044
40
0.687500000000036
40
0.687500000000036
40
0.750000000000029
40
0.750000000000029
40
0.875000000000014
40
0.875000000000014
40
0.937500000000007
40
0.937500000000007
40
1
40
1
40
1
40
1
41
1
10
90.429335570352
20
-2.68590140442396
30
0
41
1
10
90.3094705309698
20
-2.65622822997517
30
0
41
1
10
90.1893413737247
20
-2.61471504263233
30
0
41
1
10
89.9509972787291
20
-2.50781324314011
30
0
41
1
10
89.8345893336473
20
-2.44371029159802
30
0
41
1
10
89.6662812635786
20
-2.3232626578272
30
0
41
1
10
89.6114621988604
20
-2.27909716150532
30
0
41
1
10
89.5081446007899
20
-2.17980177404601
30
0
41
1
10
89.4595932534129
20
-2.12520346670127
30
0
41
1
10
89.4000098681676
20
-2.03040628661887
30
0
41
1
10
89.3823989868852
20
-1.99636930646409
30
0
41
1
10
89.3574448399852
20
-1.9248521378523
30
0
41
1
10
89.3504563468841
20
-1.88766013529658
30
0
41
1
10
89.3531560645172
20
-1.81652533201745
30
0
41
1
10
89.3630009807707
20
-1.78399477421081
30
0
41
1
10
89.3943246528497
20
-1.72995808726003
30
0
41
1
10
89.4153846582818
20
-1.70824454164759
30
0
41
1
10
89.4617807933967
20
-1.67326987285102
30
0
41
1
10
89.4876084818764
20
-1.65962032226534
30
0
41
1
10
89.5406940953169
20
-1.63808443261618
30
0
41
1
10
89.5682458392828
20
-1.63003705704239
30
0
41
1
10
89.6530122179223
20
-1.61158757463792
30
0
41
1
10
89.7119381105425
20
-1.60692304839063
30
0
41
1
10
89.8299094892804
20
-1.60686329622024
30
0
41
1
10
89.8895118525911
20
-1.61152693781673
30
0
41
1
10
90.0096360189617
20
-1.62785209529372
30
0
41
1
10
90.0703965278927
20
-1.63962616258991
30
0
41
1
10
90.2511470637739
20
-1.68347895560044
30
0
41
1
10
90.3702876016752
20
-1.72381467654708
30
0
41
1
10
90.5470658219282
20
-1.80009441748507
30
0
41
1
10
90.6056616290487
20
-1.82821703935846
30
0
41
1
10
90.7220845452496
20
-1.89073734622758
30
0
41
1
10
90.7802735823341
20
-1.92534720575691
30
0
41
1
10
90.8369833179189
20
-1.96353190646954
30
0
0
SPLINE
5
C8
100
AcDbEntity
8
1
62
256
6
ByLayer
370
18
48
1
60
0
100
AcDbSpline
70
4
71
3
72
8
73
4
40
0
40
0
40
0
40
0
40
1
40
1
40
1
40
1
41
1
10
89.3811913239839
20
-7.45082687423312
30
0
41
1
10
89.3415751494798
20
-7.54798781534154
30
0
41
1
10
89.3018751335807
20
-7.64494524793221
30
0
41
1
10
89.2620985914065
20
-7.74170295658803
30
0
0
SPLINE
5
C9
100
AcDbEntity
8
1
62
256
6
ByLayer
370
18
48
1
60
0
100
AcDbSpline
70
4
71
3
72
8
73
4
40
0
40
0
40
0
40
0
40
1
40
1
40
1
40
1
41
1
10
90.429335570352
20
-2.68590140442402
30
0
41
1
10
89.8562979060193
20
-3.71466612178665
30
0
41
1
10
89.3044301389527
20
-4.76266017225012
30
0
41
1
10
88.7741079421832
20
-5.83022479232361
30
0
0
SPLINE
5
CA
100
AcDbEntity
8
1
62
256
6
ByLayer
370
18
48
1
60
0
100
AcDbSpline
70
4
71
3
72
8
73
4
40
0
40
0
40
0
40
0
40
1
40
1
40
1
40
1
41
1
10
22.9945273294526
20
9.9999187990621
30
0
41
1
10
22.9761545510173
20
9.99997226049959
30
0
41
1
10
22.9577912968321
20
9.99999912879068
30
0
41
1
10
22.9394374076044
20
9.99999933302055
30
0
0
SPLINE
5
CB
100
AcDbEntity
8
1
62
256
6
ByLayer
370
18
48
1
60
0
100
AcDbSpline
70
4
71
3
72
38
73
34
40
0
40
0
40
0
40
0
40
0.0312500000000002
40
0.0312500000000002
40
0.0625000000000004
40
0.0625000000000004
40
0.125000000000001
40
0.125000000000001
40
0.187500000000001
40
0.187500000000001
40
0.218750000000001
40
0.218750000000001
40
0.250000000000001
40
0.250000000000001
40
0.375000000000002
40
0.375000000000002
40
0.437500000000002
40
0.437500000000002
40
0.500000000000002
40
0.500000000000002
40
0.562500000000002
40
0.562500000000002
40
0.593750000000001
40
0.593750000000001
40
0.625000000000001
40
0.625000000000001
40
0.750000000000001
40
0.750000000000001
40
0.812500000000001
40
0.812500000000001
40
0.875000000000001
40
0.875000000000001
40
1
40
1
40
1
40
1
41
1
10
40.7944221074347
20
-9.70536322565297
30
0
41
1
10
40.7795982134533
20
-9.66301783764726
30
0
41
1
10
40.7647633478997
20
-9.6161884755162
30
0
41
1
10
40.735206961197
20
-9.51425438405062
30
0
41
1
10
40.7204641629572
20
-9.4590735762971
30
0
41
1
10
40.676344588667
20
-9.28108016903582
30
0
41
1
10
40.6470883338651
20
-9.14584906660485
30
0
41
1
10
40.5886301509407
20
-8.84244861292538
30
0
41
1
10
40.5594253835105
20
-8.6742807486585
30
0
41
1
10
40.5151840512721
20
-8.39667933576581
30
0
41
1
10
40.500326534622
20
-8.29961170974426
30
0
41
1
10
40.470743022899
20
-8.0988506838537
30
0
41
1
10
40.4560012767844
20
-7.99508313863205
30
0
41
1
10
40.382430247498
20
-7.45963747033028
30
0
41
1
10
40.3240907069143
20
-6.97866470093055
30
0
41
1
10
40.2360136951903
20
-6.17793853072592
30
0
41
1
10
40.2063488275678
20
-5.89614568247347
30
0
41
1
10
40.1474938979866
20
-5.31751570372256
30
0
41
1
10
40.1182370729837
20
-5.01978471319583
30
0
41
1
10
40.0596171480641
20
-4.40787982571166
30
0
41
1
10
40.0302916438261
20
-4.09370291598623
30
0
41
1
10
39.9862357821159
20
-3.60996632567563
30
0
41
1
10
39.9715361156699
20
-3.44663833290403
30
0
41
1
10
39.9420615708737
20
-3.11574582759317
30
0
41
1
10
39.92724762403
20
-2.94772934429838
30
0
41
1
10
39.8535904072826
20
-2.10583142238769
30
0
41
1
10
39.7953983664821
20
-1.42226704507229
30
0
41
1
10
39.7072990069227
20
-0.382395081488283
30
0
41
1
10
39.6778474152203
20
-0.0333264683075072
30
0
41
1
10
39.6185878781985
20
0.669865197831342
30
0
41
1
10
39.5892752959759
20
1.01808034382304
30
0
41
1
10
39.5016266836741
20
2.05125073932677
30
0
41
1
10
39.4432434019909
20
2.72556457931773
30
0
41
1
10
39.3839250041584
20
3.38498323298734
30
0
0
SPLINE
5
CC
100
AcDbEntity
8
1
62
256
6
ByLayer
370
18
48
1
60
0
100
AcDbSpline
70
4
71
3
72
43
73
39
40
0
40
0
40
0
40
0
40
0.124999999999994
40
0.124999999999994
40
0.249999999999987
40
0.249999999999987
40
0.312499999999981
40
0.312499999999981
40
0.374999999999975
40
0.374999999999975
40
0.499999999999962
40
0.499999999999962
40
0.562499999999959
40
0.562499999999959
40
0.624999999999956
40
0.624999999999956
40
0.687499999999953
40
0.687499999999953
40
0.74999999999995
40
0.74999999999995
40
0.812499999999946
40
0.812499999999946
40
0.874999999999943
40
0.874999999999943
40
0.890624999999941
40
0.890624999999941
40
0.894531249999943
40
0.894531249999943
40
0.898437499999945
40
0.898437499999945
40
0.906249999999949
40
0.906249999999949
40
0.914062499999953
40
0.914062499999953
40
0.921874999999957
40
0.937499999999965
40
0.937499999999965
40
1
40
1
40
1
40
1
41
1
10
81.9974060443185
20
1.90501241636369
30
0
41
1
10
82.3232618089846
20
1.66129721278159
30
0
41
1
10
82.6546367825973
20
1.43582376579687
30
0
41
1
10
83.3294355701919
20
1.02469997246075
30
0
41
1
10
83.6726311356327
20
0.838295232795161
30
0
41
1
10
84.1968214768877
20
0.589746498223519
30
0
41
1
10
84.3731284840676
20
0.512108773102824
30
0
41
1
10
84.7291335434216
20
0.368041200295437
30
0
41
1
10
84.9080181263801
20
0.301944611760519
30
0
41
1
10
85.4432547147879
20
0.124411630654834
30
0
41
1
10
85.7998175086487
20
0.0345700387194086
30
0
41
1
10
86.3342403819938
20
-0.0542695495793453
30
0
41
1
10
86.5123107186829
20
-0.0761851810358678
30
0
41
1
10
86.8682933573104
20
-0.10279095695725
30
0
41
1
10
87.0464879560214
20
-0.107384466793832
30
0
41
1
10
87.3962979227656
20
-0.0973032757109138
30
0
41
1
10
87.5686730223724
20
-0.0827581258874943
30
0
41
1
10
87.9078435681132
20
-0.0327055512014738
30
0
41
1
10
88.07468176859
20
0.0026412492971417
30
0
41
1
10
88.401633144663
20
0.098600186551181
30
0
41
1
10
88.5625228783709
20
0.159216859195226
30
0
41
1
10
88.8725555538115
20
0.304074550557601
30
0
41
1
10
89.0222073150049
20
0.388636177532277
30
0
41
1
10
89.2008165391138
20
0.509553022203363
30
0
41
1
10
89.2359550752644
20
0.534751998115752
30
0
41
1
10
89.2797265992639
20
0.566486938657761
30
0
41
1
10
89.2884992136475
20
0.572804880611642
30
0
41
1
10
89.3056906030984
20
0.586028063273517
30
0
41
1
10
89.3141122967972
20
0.592863126809988
30
0
41
1
10
89.3357671566392
20
0.618004980328408
30
0
41
1
10
89.3460459618124
20
0.640556723171699
30
0
41
1
10
89.352778477797
20
0.691782632999065
30
0
41
1
10
89.3481449451641
20
0.719494802406359
30
0
41
1
10
89.3420055003934
20
0.77398018428363
30
0
41
1
10
89.3325940312109
20
0.855721304291194
30
0
41
1
10
89.3225908940658
20
0.937510146599891
30
0
41
1
10
89.288010005217
20
1.21016696997066
30
0
41
1
10
89.256401573789
20
1.42841597597629
30
0
41
1
10
89.2215688009607
20
1.64676599287228
30
0
0
SPLINE
5
CD
100
AcDbEntity
8
1
62
256
6
ByLayer
370
18
48
1
60
0
100
AcDbSpline
70
4
71
3
72
15
73
11
40
0
40
0
40
0
40
0
40
0.137580322709737
40
0.219402315383336
40
0.383223423240799
40
0.465264720344328
40
0.62959129511968
40
0.711703804063902
40
0.875407626580684
40
1
40
1
40
1
40
1
41
1
10
41.9271286970634
20
0.838084754852474
30
0
41
1
10
41.9869217474279
20
0.279730149349462
30
0
41
1
10
42.0822423102483
20
-0.621791763426046
30
0
41
1
10
42.2487167619173
20
-2.16845216150435
30
0
41
1
10
42.3909251582481
20
-3.42790353489377
30
0
41
1
10
42.5686395549696
20
-4.8453313700754
30
0
41
1
10
42.7106224784797
20
-5.82265262321457
30
0
41
1
10
42.88810697095
20
-6.78885909199957
30
0
41
1
10
43.048909974677
20
-7.40969318178054
30
0
41
1
10
43.174685021281
20
-7.63119457213384
30
0
41
1
10
43.2294589996739
20
-7.67534146133176
30
0
0
SPLINE
5
CE
100
AcDbEntity
8
1
62
256
6
ByLayer
370
18
48
1
60
0
100
AcDbSpline
70
4
71
3
72
12
73
8
40
0
40
0
40
0
40
0
40
0.5
40
0.5
40
0.75
40
0.75
40
1
40
1
40
1
40
1
41
1
10
89.3819471861445
20
1.78446982190684
30
0
41
1
10
89.8040100212745
20
1.773678331338
30
0
41
1
10
90.2260695057533
20
1.76291523237441
30
0
41
1
10
90.8587868639489
20
1.74992159660027
30
0
41
1
10
91.0695741636235
20
1.7465943742456
30
0
41
1
10
91.4909287691797
20
1.74180403791701
30
0
41
1
10
91.701573939814
20
1.7396811401556
30
0
41
1
10
91.9121935536747
20
1.73777479666663
30
0
0
SPLINE
5
CF
100
AcDbEntity
8
1
62
256
6
ByLayer
370
18
48
1
60
0
100
AcDbSpline
70
4
71
3
72
8
73
4
40
0
40
0
40
0
40
0
40
1
40
1
40
1
40
1
41
1
10
91.9504531364971
20
-0.0806831562794912
30
0
41
1
10
91.5711942619812
20
-0.700939842217508
30
0
41
1
10
91.2000033282504
20
-1.32852491141799
30
0
41
1
10
90.8369833179188
20
-1.9635319064696
30
0
0
SPLINE
5
D0
100
AcDbEntity
8
1
62
256
6
ByLayer
370
18
48
1
60
0
100
AcDbSpline
70
4
71
3
72
8
73
4
40
0
40
0
40
0
40
0
40
1
40
1
40
1
40
1
41
1
10
43.6228852671549
20
-7.71066485509778
30
0
41
1
10
43.8587470286096
20
-7.71790461735935
30
0
41
1
10
44.09432358081
20
-7.72156052884637
30
0
41
1
10
44.3295246347136
20
-7.72167604218868
30
0
0
SPLINE
5
D1
100
AcDbEntity
8
1
62
256
6
ByLayer
370
18
48
1
60
0
100
AcDbSpline
70
4
71
3
72
38
73
34
40
0
40
0
40
0
40
0
40
0.0115647148005205
40
0.0115647148005205
40
0.110408243320473
40
0.110408243320473
40
0.159830007580451
40
0.159830007580451
40
0.20925177184043
40
0.20925177184043
40
0.308095300360382
40
0.308095300360382
40
0.357517064620356
40
0.357517064620356
40
0.40693882888033
40
0.40693882888033
40
0.505782357400278
40
0.505782357400278
40
0.55520412166025
40
0.55520412166025
40
0.604625885920221
40
0.604625885920221
40
0.703469414440165
40
0.703469414440165
40
0.752891178700137
40
0.752891178700137
40
0.802312942960108
40
0.802312942960108
40
0.901156471480056
40
0.901156471480056
40
0.950578235740028
40
0.950578235740028
40
1
40
1
40
1
40
1
41
1
10
75.1187037904157
20
5.12967255843108
30
0
41
1
10
75.1745930279855
20
5.15377559280316
30
0
41
1
10
75.2304880572233
20
5.17773503689841
30
0
41
1
10
75.7641571567332
20
5.40513077804329
30
0
41
1
10
76.242298401394
20
5.59838757447503
30
0
41
1
10
76.9583608830327
20
5.87459243121529
30
0
41
1
10
77.1967909409583
20
5.96441910763303
30
0
41
1
10
77.6751288522681
20
6.13729559139219
30
0
41
1
10
77.9148325279126
20
6.22059770148357
30
0
41
1
10
78.6351331219017
20
6.46160148623014
30
0
41
1
10
79.1170171700331
20
6.61036444063757
30
0
41
1
10
79.8406599420666
20
6.81667931360934
30
0
41
1
10
80.0823876889455
20
6.88262748313684
30
0
41
1
10
80.5653745049393
20
7.0065012981228
30
0
41
1
10
80.8066480686915
20
7.0646953922834
30
0
41
1
10
81.5293888561247
20
7.22866187666475
30
0
41
1
10
82.0099378110995
20
7.32379665109841
30
0
41
1
10
82.7269407620082
20
7.44626139543303
30
0
41
1
10
82.9655115550428
20
7.48355056825903
30
0
41
1
10
83.4432543243372
20
7.55048620607977
30
0
41
1
10
83.6822447315633
20
7.58023816926618
30
0
41
1
10
84.3991082312933
20
7.65868867235576
30
0
41
1
10
84.8770620963782
20
7.69661174367141
30
0
41
1
10
85.5920925904587
20
7.73185217651292
30
0
41
1
10
85.8304345085313
20
7.73989761487485
30
0
41
1
10
86.3083351687302
20
7.74853334717525
30
0
41
1
10
86.5477324952626
20
7.74915640636567
30
0
41
1
10
87.26678977062
20
7.74001082839016
30
0
41
1
10
87.7475165185623
20
7.71933753759691
30
0
41
1
10
88.468700443953
20
7.66519306470207
30
0
41
1
10
88.7095669126437
20
7.64335208296686
30
0
41
1
10
89.193097517974
20
7.59236475233516
30
0
41
1
10
89.435479922462
20
7.56320475940518
30
0
41
1
10
89.6775506240851
20
7.53044606875886
30
0
0
SPLINE
5
D2
100
AcDbEntity
8
1
62
256
6
ByLayer
370
18
48
1
60
0
100
AcDbSpline
70
4
71
3
72
32
73
28
40
0
40
0
40
0
40
0
40
0.124999999999999
40
0.124999999999999
40
0.187499999999999
40
0.187499999999999
40
0.249999999999999
40
0.249999999999999
40
0.312499999999999
40
0.312499999999999
40
0.374999999999999
40
0.374999999999999
40
0.437499999999999
40
0.437499999999999
40
0.5
40
0.5
40
0.624999999999998
40
0.624999999999998
40
0.687499999999998
40
0.687499999999998
40
0.749999999999998
40
0.749999999999998
40
0.812499999999998
40
0.812499999999998
40
0.874999999999998
40
0.874999999999998
40
1
40
1
40
1
40
1
41
1
10
39.3839250041592
20
3.3849832329777
30
0
41
1
10
38.7055057923347
20
3.86116307290337
30
0
41
1
10
38.0253852343753
20
4.3227953913582
30
0
41
1
10
37.0030285914392
20
4.99358521272799
30
0
41
1
10
36.6617986102856
20
5.21344336751264
30
0
41
1
10
35.9759705907201
20
5.64263756145149
30
0
41
1
10
35.630989267611
20
5.85270827403551
30
0
41
1
10
34.9447764402492
20
6.25898943972209
30
0
41
1
10
34.6029190257521
20
6.45566486540096
30
0
41
1
10
33.9218055087731
20
6.83629966053661
30
0
41
1
10
33.5817364075215
20
7.01941098165415
30
0
41
1
10
32.9019400532596
20
7.37089205852274
30
0
41
1
10
32.562275226115
20
7.53932953911007
30
0
41
1
10
31.8834489543455
20
7.86170341931748
30
0
41
1
10
31.5445777112869
20
8.01586945397537
30
0
41
1
10
30.5271661073527
20
8.45509462193994
30
0
41
1
10
29.8461673835943
20
8.71578457662648
30
0
41
1
10
28.8202876858995
20
9.05768896697342
30
0
41
1
10
28.4777942929209
20
9.16368599814348
30
0
41
1
10
27.7900146276627
20
9.35739382474603
30
0
41
1
10
27.4466687417693
20
9.44467789605346
30
0
41
1
10
26.7609430761235
20
9.60041301206971
30
0
41
1
10
26.418557166741
20
9.66886631969061
30
0
41
1
10
25.7349503521617
20
9.78702734404894
30
0
41
1
10
25.39374518174
20
9.83669451549738
30
0
41
1
10
24.3682031845904
20
9.95648870546435
30
0
41
1
10
23.6824672645543
20
9.99784985347131
30
0
41
1
10
22.9945273294526
20
9.9999187990621
30
0
0
SPLINE
5
D3
100
AcDbEntity
8
1
62
256
6
ByLayer
370
18
48
1
60
0
100
AcDbSpline
70
4
71
3
72
8
73
4
40
0
40
0
40
0
40
0
40
1
40
1
40
1
40
1
41
1
10
43.6228852671549
20
-7.71066485509778
30
0
41
1
10
43.4917177044443
20
-7.69998960295035
30
0
41
1
10
43.3605772416154
20
-7.68821729325296
30
0
41
1
10
43.2294589996739
20
-7.67534146133176
30
0
0
SPLINE
5
D4
100
AcDbEntity
8
1
62
256
6
ByLayer
370
18
48
1
60
0
100
AcDbSpline
70
4
71
3
72
12
73
8
40
0
40
0
40
0
40
0
40
0.499999999999998
40
0.499999999999998
40
0.749999999999999
40
0.749999999999999
40
1
40
1
40
1
40
1
41
1
10
89.6775506240851
20
7.53044606875886
30
0
41
1
10
90.0435266783062
20
6.562243763352
30
0
41
1
10
90.414065753113
20
5.59602149059671
30
0
41
1
10
90.9737452961385
20
4.14830256721956
30
0
41
1
10
91.1610596191133
20
3.66604612200516
30
0
41
1
10
91.5363248400162
20
2.70179104076874
30
0
41
1
10
91.7242332785396
20
2.21977491037899
30
0
41
1
10
91.9121935536746
20
1.73777479666651
30
0
0
SPLINE
5
D5
100
AcDbEntity
8
1
62
256
6
ByLayer
370
18
48
1
60
0
100
AcDbSpline
70
4
71
3
72
8
73
4
40
0
40
0
40
0
40
0
40
1
40
1
40
1
40
1
41
1
10
43.1769643764661
20
-7.46564466608658
30
0
41
1
10
43.3102692964408
20
-7.4910380879947
30
0
41
1
10
43.4435121493066
20
-7.51535945002175
30
0
41
1
10
43.5767070453478
20
-7.53859971768389
30
0
0
SPLINE
5
D6
100
AcDbEntity
8
1
62
256
6
ByLayer
370
18
48
1
60
0
100
AcDbSpline
70
4
71
3
72
8
73
4
40
0
40
0
40
0
40
0
40
1
40
1
40
1
40
1
41
1
10
91.9891521442503
20
-0.134046633245362
30
0
41
1
10
91.9898754037157
20
-0.109219117405843
30
0
41
1
10
91.9939242969801
20
-0.0796200327787346
30
0
41
1
10
91.9999717769155
20
-0.0481946833923246
30
0
0
SPLINE
5
D7
100
AcDbEntity
8
1
62
256
6
ByLayer
370
18
48
1
60
0
100
AcDbSpline
70
4
71
3
72
12
73
8
40
0
40
0
40
0
40
0
40
0.25
40
0.25
40
0.5
40
0.5
40
1
40
1
40
1
40
1
41
1
10
89.6775506240851
20
7.53044606875886
30
0
41
1
10
89.6386984937889
20
7.55982170879764
30
0
41
1
10
89.6006375236752
20
7.58647465668071
30
0
41
1
10
89.527013612196
20
7.63361436393916
30
0
41
1
10
89.4913309577191
20
7.65419674538396
30
0
41
1
10
89.3875633726777
20
7.70702215605408
30
0
41
1
10
89.3227528509152
20
7.73036287784666
30
0
41
1
10
89.2620985914065
20
7.741702956588
30
0
0
SPLINE
5
D8
100
AcDbEntity
8
1
62
256
6
ByLayer
370
18
48
1
60
0
100
AcDbSpline
70
4
71
3
72
34
73
30
40
0
40
0
40
0
40
0
40
0.0624999999999993
40
0.0624999999999993
40
0.093749999999999
40
0.093749999999999
40
0.124999999999999
40
0.124999999999999
40
0.25
40
0.25
40
0.28125
40
0.28125
40
0.3125
40
0.3125
40
0.375
40
0.375
40
0.500000000000001
40
0.500000000000001
40
0.562499999999999
40
0.562499999999999
40
0.624999999999997
40
0.624999999999997
40
0.749999999999998
40
0.749999999999998
40
0.874999999999999
40
0.874999999999999
40
0.9375
40
0.9375
40
1
40
1
40
1
40
1
41
1
10
81.9974060443185
20
1.90501241636363
30
0
41
1
10
82.0187077756277
20
1.67913299307924
30
0
41
1
10
82.0548280304824
20
1.45320336030468
30
0
41
1
10
82.1299700791193
20
1.11423788688884
30
0
41
1
10
82.1585191587319
20
1.00123753086498
30
0
41
1
10
82.2224963355775
20
0.775213510694414
30
0
41
1
10
82.2580924958698
20
0.661735759043268
30
0
41
1
10
82.4503374679187
20
0.10188075743261
30
0
41
1
10
82.6492531939887
20
-0.324481054543867
30
0
41
1
10
82.9411786141694
20
-0.836788329272082
30
0
41
1
10
83.0019295045361
20
-0.938455778917273
30
0
41
1
10
83.1264916765666
20
-1.13801029869947
30
0
41
1
10
83.1903498225142
20
-1.23600833601745
30
0
41
1
10
83.3862636385992
20
-1.52510680668192
30
0
41
1
10
83.5226422710036
20
-1.71133011907065
30
0
41
1
10
83.9467098363123
20
-2.25315430397157
30
0
41
1
10
84.249060772707
20
-2.59221365701418
30
0
41
1
10
84.7270185297832
20
-3.07323948943096
30
0
41
1
10
84.8901617602139
20
-3.22843567583064
30
0
41
1
10
85.2198872760879
20
-3.52628795808991
30
0
41
1
10
85.3869590767636
20
-3.66952369326043
30
0
41
1
10
85.893942234223
20
-4.08437339089957
30
0
41
1
10
86.2396061442049
20
-4.34116900584399
30
0
41
1
10
86.9439733926216
20
-4.82117118828251
30
0
41
1
10
87.3026980921335
20
-5.04432273049443
30
0
41
1
10
87.8495661098806
20
-5.35643061935093
30
0
41
1
10
88.0335484589717
20
-5.45679268466085
30
0
41
1
10
88.4027664594296
20
-5.64941937997042
30
0
41
1
10
88.5880907329787
20
-5.74175084921447
30
0
41
1
10
88.7741079421833
20
-5.83022479232358
30
0
0
SPLINE
5
D9
100
AcDbEntity
8
1
62
256
6
ByLayer
370
18
48
1
60
0
100
AcDbSpline
70
4
71
3
72
38
73
34
40
0
40
0
40
0
40
0
40
0.124999999999999
40
0.124999999999999
40
0.187499999999999
40
0.187499999999999
40
0.218749999999998
40
0.218749999999998
40
0.249999999999998
40
0.249999999999998
40
0.374999999999998
40
0.374999999999998
40
0.437499999999997
40
0.437499999999997
40
0.468749999999997
40
0.468749999999997
40
0.499999999999997
40
0.499999999999997
40
0.624999999999998
40
0.624999999999998
40
0.687499999999998
40
0.687499999999998
40
0.718749999999998
40
0.718749999999998
40
0.749999999999998
40
0.749999999999998
40
0.874999999999999
40
0.874999999999999
40
0.9375
40
0.9375
40
0.96875
40
0.96875
40
1
40
1
40
1
40
1
41
1
10
43.1769643764661
20
-7.46564466608658
30
0
41
1
10
43.1769643764661
20
-7.36008162336495
30
0
41
1
10
43.1769643764661
20
-7.22046418836422
30
0
41
1
10
43.1769643764661
20
-6.96209184633526
30
0
41
1
10
43.1769643764661
20
-6.86775986717606
30
0
41
1
10
43.1769643764661
20
-6.71372498097136
30
0
41
1
10
43.1769643764661
20
-6.66028700024609
30
0
41
1
10
43.1769643764661
20
-6.54914247468392
30
0
41
1
10
43.1769643764661
20
-6.49130592823533
30
0
41
1
10
43.1769643764661
20
-6.19386440210508
30
0
41
1
10
43.1769643764661
20
-5.92850063177997
30
0
41
1
10
43.1769643764661
20
-5.49085455185372
30
0
41
1
10
43.1769643764661
20
-5.33834643088014
30
0
41
1
10
43.1769643764661
20
-5.09950312527192
30
0
41
1
10
43.1769643764661
20
-5.01820583250978
30
0
41
1
10
43.1769643764661
20
-4.85218819435246
30
0
41
1
10
43.1769643764661
20
-4.76726714330491
30
0
41
1
10
43.176964376466
20
-4.33744111826795
30
0
41
1
10
43.1769643764661
20
-3.97587147400301
30
0
41
1
10
43.1769643764661
20
-3.40779006577446
30
0
41
1
10
43.1769643764661
20
-3.21412439011942
30
0
41
1
10
43.1769643764661
20
-2.91711820581887
30
0
41
1
10
43.1769643764661
20
-2.81702967842406
30
0
41
1
10
43.1769643764661
20
-2.61464817185751
30
0
41
1
10
43.176964376466
20
-2.51210797438455
30
0
41
1
10
43.1769643764661
20
-1.99759694707615
30
0
41
1
10
43.1769643764661
20
-1.57994397103653
30
0
41
1
10
43.1769643764661
20
-0.944672321516862
30
0
41
1
10
43.1769643764661
20
-0.731440031183951
30
0
41
1
10
43.1769643764661
20
-0.409353053729461
30
0
41
1
10
43.1769643764661
20
-0.301617880598997
30
0
41
1
10
43.1769643764661
20
-0.0853932793010301
30
0
41
1
10
43.1769643764661
20
0.0233511108242794
30
0
41
1
10
43.1769643764661
20
0.131770916883795
30
0
0
SPLINE
5
DA
100
AcDbEntity
8
1
62
256
6
ByLayer
370
18
48
1
60
0
100
AcDbSpline
70
4
71
3
72
18
73
14
40
0
40
0
40
0
40
0
40
0.25
40
0.25
40
0.375
40
0.375
40
0.5
40
0.5
40
0.75
40
0.75
40
0.875
40
0.875
40
1
40
1
40
1
40
1
41
1
10
88.7741079421832
20
-5.83022479232355
30
0
41
1
10
88.7742380493029
20
-6.09377528313385
30
0
41
1
10
88.7867247436904
20
-6.32472223081891
30
0
41
1
10
88.8245906116014
20
-6.62306185368433
30
0
41
1
10
88.8404261462289
20
-6.71444937940342
30
0
41
1
10
88.8789336585742
20
-6.88068138980157
30
0
41
1
10
88.9014161574996
20
-6.95458958477866
30
0
41
1
10
88.9781242215444
20
-7.14808011477618
30
0
41
1
10
89.0417112945347
20
-7.24040875261281
30
0
41
1
10
89.1572264121985
20
-7.32507189933284
30
0
41
1
10
89.1992586998264
20
-7.34429299198879
30
0
41
1
10
89.2897796789275
20
-7.36417815559111
30
0
41
1
10
89.3381569795578
20
-7.36489467531237
30
0
41
1
10
89.3897589757231
20
-7.35655946459622
30
0
0
SPLINE
5
DB
100
AcDbEntity
8
1
62
256
6
ByLayer
370
18
48
1
60
0
100
AcDbSpline
70
4
71
3
72
12
73
8
40
0
40
0
40
0
40
0
40
0.500000000000002
40
0.500000000000002
40
0.750000000000001
40
0.750000000000001
40
1
40
1
40
1
40
1
41
1
10
89.6775506240796
20
-7.53044606877378
30
0
41
1
10
90.0434964394536
20
-6.56232376128196
30
0
41
1
10
90.4140299742879
20
-5.59611448132966
30
0
41
1
10
90.973716345687
20
-4.14837723220955
30
0
41
1
10
91.161036041104
20
-3.66610675901771
30
0
41
1
10
91.5363137043239
20
-2.70181960164393
30
0
41
1
10
91.7242273238535
20
-2.21979018041157
30
0
41
1
10
91.9121935536747
20
-1.73777479666666
30
0
0
SPLINE
5
DC
100
AcDbEntity
8
1
62
256
6
ByLayer
370
18
48
1
60
0
100
AcDbSpline
70
4
71
3
72
8
73
4
40
0
40
0
40
0
40
0
40
1
40
1
40
1
40
1
41
1
10
91.9999717769155
20
0.0481946833921256
30
0
41
1
10
92.0000094093356
20
0.0160634937467705
30
0
41
1
10
92.0000094060546
20
-0.0160662950592325
30
0
41
1
10
91.9999717769155
20
-0.0481946833922109
30
0
0
SPLINE
5
DD
100
AcDbEntity
8
1
62
256
6
ByLayer
370
18
48
1
60
0
100
AcDbSpline
70
4
71
3
72
48
73
44
40
0
40
0
40
0
40
0
40
0.0333861917466228
40
0.0333861917466228
40
0.0667723834932456
40
0.0667723834932456
40
0.133544766986493
40
0.133544766986493
40
0.20031715047974
40
0.20031715047974
40
0.233703342226363
40
0.233703342226363
40
0.267089533972987
40
0.267089533972987
40
0.333861917466234
40
0.333861917466234
40
0.367248109212857
40
0.367248109212857
40
0.400634300959479
40
0.400634300959479
40
0.534179067945971
40
0.534179067945971
40
0.550872163819283
40
0.550872163819283
40
0.567565259692594
40
0.567565259692594
40
0.600951451439215
40
0.600951451439215
40
0.667723834932458
40
0.667723834932458
40
0.734496218425701
40
0.734496218425701
40
0.767882410172323
40
0.767882410172323
40
0.784575506045634
40
0.784575506045634
40
0.801268601918945
40
0.801268601918945
40
0.934813368905434
40
0.934813368905434
40
0.968199560652056
40
0.968199560652056
40
1
40
1
40
1
40
1
41
1
10
89.2620985914065
20
-7.741702956588
30
0
41
1
10
88.7839383552923
20
-7.75399215530578
30
0
41
1
10
88.3057767130019
20
-7.7514962325649
30
0
41
1
10
87.3482442645567
20
-7.71694780978154
30
0
41
1
10
86.8715119763896
20
-7.68498532068145
30
0
41
1
10
85.445769280281
20
-7.54641373359942
30
0
41
1
10
84.5010347290673
20
-7.39711753691549
30
0
41
1
10
82.6125287034473
20
-6.99188789487005
30
0
41
1
10
81.6687226410544
20
-6.73598959703074
30
0
41
1
10
80.2459776065191
20
-6.27756293368367
30
0
41
1
10
79.7705226060264
20
-6.11235656743278
30
0
41
1
10
78.8158743126885
20
-5.75808999829417
30
0
41
1
10
78.3363802185046
20
-5.56884451729519
30
0
41
1
10
76.9029995600874
20
-4.97230085045629
30
0
41
1
10
75.9501256795278
20
-4.53463642263759
30
0
41
1
10
74.5161563975857
20
-3.8301910475511
30
0
41
1
10
74.0365991632095
20
-3.58690850749073
30
0
41
1
10
73.0825564256435
20
-3.09036137478913
30
0
41
1
10
72.6073300506495
20
-2.83667884209334
30
0
41
1
10
70.2368673907015
20
-1.54697482395977
30
0
41
1
10
68.3579172386786
20
-0.448308672279097
30
0
41
1
10
66.2172439919046
20
0.781886275087174
30
0
41
1
10
65.9790277349067
20
0.918511337015048
30
0
41
1
10
65.5016231453542
20
1.191201340416
30
0
41
1
10
65.2622001794753
20
1.32741306417023
30
0
41
1
10
64.5440720731033
20
1.73378013425912
30
0
41
1
10
64.0662501997224
20
2.00122169373708
30
0
41
1
10
62.6340328454503
20
2.79062257656645
30
0
41
1
10
61.6802609885978
20
3.29861381320981
30
0
41
1
10
59.7645572031123
20
4.26127090260789
30
0
41
1
10
58.8103563949945
20
4.71146107905966
30
0
41
1
10
57.3779349433428
20
5.32900322086459
30
0
41
1
10
56.9001438682153
20
5.52516673310757
30
0
41
1
10
56.1819788303029
20
5.80354642608847
30
0
41
1
10
55.9424089949419
20
5.89370069627964
30
0
41
1
10
55.4647560160737
20
6.06778648506935
30
0
41
1
10
55.2263975004081
20
6.15180843271764
30
0
41
1
10
53.0845548798138
20
6.88024026728726
30
0
41
1
10
51.2049589038142
20
7.33054597095733
30
0
41
1
10
48.8338450975393
20
7.61268409383402
30
0
41
1
10
48.3585329399652
20
7.65507412532341
30
0
41
1
10
47.4270743025078
20
7.70959288248881
30
0
41
1
10
46.9703097878202
20
7.72302158402417
30
0
41
1
10
46.5144493952479
20
7.72301862477306
30
0
0
SPLINE
5
DE
100
AcDbEntity
8
1
62
256
6
ByLayer
370
18
48
1
60
0
100
AcDbSpline
70
4
71
3
72
8
73
4
40
0
40
0
40
0
40
0
40
1
40
1
40
1
40
1
41
1
10
43.5767070453478
20
-7.53859971768389
30
0
41
1
10
43.592020277558
20
-7.63137492063825
30
0
41
1
10
43.6083702580354
20
-7.68842252206812
30
0
41
1
10
43.622885267155
20
-7.7106648550978
30
0
0
SPLINE
5
DF
100
AcDbEntity
8
1
62
256
6
ByLayer
370
18
48
1
60
0
100
AcDbSpline
70
4
71
3
72
38
73
34
40
0
40
0
40
0
40
0
40
0.031040813285751
40
0.031040813285751
40
0.0656464985255454
40
0.0656464985255454
40
0.10025218376534
40
0.10025218376534
40
0.169463554244929
40
0.169463554244929
40
0.238674924724518
40
0.238674924724518
40
0.307886295204107
40
0.307886295204107
40
0.377097665683696
40
0.377097665683696
40
0.446309036163285
40
0.446309036163285
40
0.515520406642874
40
0.515520406642874
40
0.550126091882668
40
0.550126091882668
40
0.584731777122463
40
0.584731777122463
40
0.653943147602052
40
0.653943147602052
40
0.72315451808164
40
0.72315451808164
40
0.861577259040819
40
0.861577259040819
40
0.93078862952041
40
0.93078862952041
40
1
40
1
40
1
40
1
41
1
10
64.4474656493704
20
7.34599811943505
30
0
41
1
10
64.6289581990205
20
7.34615904259832
30
0
41
1
10
64.8104283914232
20
7.34425221215983
30
0
41
1
10
65.1941954465644
20
7.33554742231084
30
0
41
1
10
65.3964260873719
20
7.32832678333489
30
0
41
1
10
65.8015971466369
20
7.30907509053449
30
0
41
1
10
66.0044322299877
20
7.29705939650336
30
0
41
1
10
66.613354152867
20
7.25414103734403
30
0
41
1
10
67.0194945850436
20
7.21655077670806
30
0
41
1
10
67.8293862723507
20
7.11851360887647
30
0
41
1
10
68.23337237099
20
7.05897094100584
30
0
41
1
10
69.0426521929371
20
6.92227060373986
30
0
41
1
10
69.4474462330627
20
6.84506990343397
30
0
41
1
10
70.2572831489271
20
6.67107766987027
30
0
41
1
10
70.6623091597884
20
6.57415276985665
30
0
41
1
10
71.4734088370487
20
6.36341662797358
30
0
41
1
10
71.8792015937079
20
6.25144603309724
30
0
41
1
10
72.6891571178892
20
6.00825600889894
30
0
41
1
10
73.0936010616219
20
5.8773734834345
30
0
41
1
10
73.6998945137279
20
5.66820849829247
30
0
41
1
10
73.9018605991151
20
5.59632329035554
30
0
41
1
10
74.306389313084
20
5.44938388193131
30
0
41
1
10
74.5088501962309
20
5.37420993498083
30
0
41
1
10
75.1165115271533
20
5.14334198402804
30
0
41
1
10
75.522374725467
20
4.9822322075737
30
0
41
1
10
76.3335467030066
20
4.64725769102893
30
0
41
1
10
76.7380218501776
20
4.47345776356349
30
0
41
1
10
77.9522990362121
20
3.9361020057149
30
0
41
1
10
78.7607933852482
20
3.55336847948195
30
0
41
1
10
79.97484191943
20
2.94973193013669
30
0
41
1
10
80.3814973297074
20
2.74484815017485
30
0
41
1
10
81.1914784129274
20
2.32897456084845
30
0
41
1
10
81.5951094092381
20
2.11833094757049
30
0
41
1
10
81.9974060443185
20
1.90501241636366
30
0
0
SPLINE
5
E0
100
AcDbEntity
8
1
62
256
6
ByLayer
370
18
48
1
60
0
100
AcDbSpline
70
4
71
3
72
10
73
6
40
0
40
0
40
0
40
0
40
0.5
40
0.5
40
1
40
1
40
1
40
1
41
1
10
91.9999717769156
20
0.048194683392154
30
0
41
1
10
91.9952291135492
20
0.0265991065468256
30
0
41
1
10
91.9884110295112
20
0.0031312788269986
30
0
41
1
10
91.9713389469366
20
-0.0418607025089557
30
0
41
1
10
91.9609712525877
20
-0.0634813654525601
30
0
41
1
10
91.9504531364971
20
-0.0806831562794059
30
0
0
SPLINE
5
E1
100
AcDbEntity
8
1
62
256
6
ByLayer
370
18
48
1
60
0
100
AcDbSpline
70
4
71
3
72
16
73
12
40
0
40
0
40
0
40
0
40
0.156543722376058
40
0.156543722376058
40
0.313087444752116
40
0.313087444752116
40
0.626174889504233
40
0.626174889504233
40
0.939262334256349
40
0.939262334256349
40
1
40
1
40
1
40
1
41
1
10
89.389758975788
20
-7.35655946459684
30
0
41
1
10
88.9057988054358
20
-7.3668942010757
30
0
41
1
10
88.4222195361701
20
-7.3627863700184
30
0
41
1
10
87.4546597727
20
-7.32584433205685
30
0
41
1
10
86.9701614723888
20
-7.29296366602068
30
0
41
1
10
85.5179056310303
20
-7.15196176336156
30
0
41
1
10
84.5550901917255
20
-7.00203676512507
30
0
41
1
10
82.6298803863705
20
-6.59712863310233
30
0
41
1
10
81.6674075698552
20
-6.34225281654625
30
0
41
1
10
80.5123996845517
20
-5.97987429925538
30
0
41
1
10
80.3243705203446
20
-5.91910882922886
30
0
41
1
10
80.1364929093664
20
-5.85667938969968
30
0
0
SPLINE
5
E2
100
AcDbEntity
8
1
62
256
6
ByLayer
370
13
48
1
60
0
100
AcDbSpline
70
4
71
3
72
24
73
20
40
0
40
0
40
0
40
0
40
0.0097712828210823
40
0.0097712828210823
40
0.0533898494946876
40
0.0533898494946876
40
0.140626982841898
40
0.140626982841898
40
0.31510124953632
40
0.31510124953632
40
0.489575516230741
40
0.489575516230741
40
0.576812649577952
40
0.576812649577952
40
0.664049782925162
40
0.664049782925162
40
0.838524049619583
40
0.838524049619583
40
1
40
1
40
1
40
1
41
1
10
80.1364929135239
20
-5.8566793910812
30
0
41
1
10
80.0822550235031
20
-5.83865680150146
30
0
41
1
10
80.0280297639867
20
-5.82049553605893
30
0
41
1
10
79.7318826896798
20
-5.72053487911265
30
0
41
1
10
79.4904251662698
20
-5.63621677137985
30
0
41
1
10
78.7672878170036
20
-5.3756721119864
30
0
41
1
10
78.2868470835172
20
-5.1918545003814
30
0
41
1
10
76.8486012486087
20
-4.6128822314856
30
0
41
1
10
75.8939463703949
20
-4.19007348232486
30
0
41
1
10
73.9824229654525
20
-3.2873214440724
30
0
41
1
10
73.0255896757267
20
-2.80740479687896
30
0
41
1
10
71.5815518948386
20
-2.05587351470331
30
0
41
1
10
71.0982738135061
20
-1.7997127201777
30
0
41
1
10
70.1295522447354
20
-1.2805544607813
30
0
41
1
10
69.6471556960039
20
-1.0192069584854
30
0
41
1
10
68.2041913730977
20
-0.232906543906694
30
0
41
1
10
67.2475974299698
20
0.293826626896731
30
0
41
1
10
65.4069211048512
20
1.29603229067368
30
0
41
1
10
64.5223624897336
20
1.77168100619184
30
0
41
1
10
63.634466705755
20
2.23480248806712
30
0
0
SPLINE
5
E3
100
AcDbEntity
8
1
62
256
6
ByLayer
370
18
48
1
60
0
100
AcDbSpline
70
4
71
3
72
14
73
10
40
0
40
0
40
0
40
0
40
0.25
40
0.25
40
0.5
40
0.5
40
0.75
40
0.75
40
1
40
1
40
1
40
1
41
1
10
89.3897589757089
20
-7.35655946459852
30
0
41
1
10
89.393219252518
20
-7.3560005300906
30
0
41
1
10
89.3960598559395
20
-7.35708472591529
30
0
41
1
10
89.4000821196504
20
-7.36363833342381
30
0
41
1
10
89.4012138185264
20
-7.36917968451542
30
0
41
1
10
89.4005271520766
20
-7.38593726080714
30
0
41
1
10
89.3986182049241
20
-7.39723081459812
30
0
41
1
10
89.3916316118526
20
-7.42315248684892
30
0
41
1
10
89.3866604405617
20
-7.43741355201354
30
0
41
1
10
89.3811913240191
20
-7.4508268741468
30
0
0
SPLINE
5
E4
100
AcDbEntity
8
1
62
256
6
ByLayer
370
13
48
1
60
0
100
AcDbSpline
70
4
71
3
72
14
73
10
40
0
40
0
40
0
40
0
40
0.272885154261341
40
0.272885154261341
40
0.545770308522681
40
0.545770308522681
40
0.818655462784022
40
0.818655462784022
40
1
40
1
40
1
40
1
41
1
10
43.1769643764644
20
-7.20592471533837
30
0
41
1
10
43.6578406193404
20
-7.27154399979423
30
0
41
1
10
44.1399195153997
20
-7.32346566710555
30
0
41
1
10
45.1076071818535
20
-7.39888682141401
30
0
41
1
10
45.5936927666892
20
-7.42228297335708
30
0
41
1
10
46.5639930551525
20
-7.43980577628375
30
0
41
1
10
47.04896924339
20
-7.43402733176694
30
0
41
1
10
47.8569503549169
20
-7.4000978932585
30
0
41
1
10
48.1793771526266
20
-7.38010631283146
30
0
41
1
10
48.5015566522317
20
-7.35377520146682
30
0
0
SPLINE
5
E5
100
AcDbEntity
8
1
62
256
6
ByLayer
370
18
48
1
60
0
100
AcDbSpline
70
4
71
3
72
14
73
10
40
0
40
0
40
0
40
0
40
0.25
40
0.25
40
0.5
40
0.5
40
0.75
40
0.75
40
1
40
1
40
1
40
1
41
1
10
89.2215688009607
20
1.64676599287228
30
0
41
1
10
89.2183697897836
20
1.6668190661091
30
0
41
1
10
89.2196073535416
20
1.68766437132337
30
0
41
1
10
89.2341435526266
20
1.72552244769258
30
0
41
1
10
89.2477548891243
20
1.74231507615781
30
0
41
1
10
89.2812110568522
20
1.7664016221112
30
0
41
1
10
89.3007789670379
20
1.77417196308048
30
0
41
1
10
89.3406896571634
20
1.78340230469828
30
0
41
1
10
89.3613967262816
20
1.7849952652216
30
0
41
1
10
89.3819471861442
20
1.78446982190991
30
0
0
SPLINE
5
E6
100
AcDbEntity
8
1
62
256
6
ByLayer
370
18
48
1
60
0
100
AcDbSpline
70
4
71
3
72
12
73
8
40
0
40
0
40
0
40
0
40
0.250000000000002
40
0.250000000000002
40
0.500000000000004
40
0.500000000000004
40
1
40
1
40
1
40
1
41
1
10
43.2294589996739
20
-7.67534146133176
30
0
41
1
10
43.0255030087582
20
-7.85608848029025
30
0
41
1
10
42.8221131691359
20
-8.0335533943778
30
0
41
1
10
42.4154842245106
20
-8.38334414240737
30
0
41
1
10
42.2123320581558
20
-8.55553988518221
30
0
41
1
10
41.603400646776
20
-9.0635458265962
30
0
41
1
10
41.1981805419252
20
-9.3908395040562
30
0
41
1
10
40.7944221074348
20
-9.70536322565263
30
0
0
SPLINE
5
E7
100
AcDbEntity
8
1
62
256
6
ByLayer
370
18
48
1
60
0
100
AcDbSpline
70
4
71
3
72
46
73
42
40
0
40
0
40
0
40
0
40
0.125000000000002
40
0.125000000000002
40
0.187500000000002
40
0.187500000000002
40
0.250000000000002
40
0.250000000000002
40
0.312500000000002
40
0.312500000000002
40
0.343750000000002
40
0.343750000000002
40
0.375000000000002
40
0.375000000000002
40
0.406250000000002
40
0.406250000000002
40
0.437500000000002
40
0.437500000000002
40
0.468750000000002
40
0.468750000000002
40
0.500000000000002
40
0.500000000000002
40
0.624999999999999
40
0.624999999999999
40
0.656249999999999
40
0.656249999999999
40
0.687499999999999
40
0.687499999999999
40
0.749999999999998
40
0.749999999999998
40
0.781249999999998
40
0.781249999999998
40
0.812499999999999
40
0.812499999999999
40
0.875
40
0.875
40
0.937500000000001
40
0.937500000000001
40
0.96875
40
0.96875
40
1
40
1
40
1
40
1
41
1
10
22.9945273294523
20
-0.0054561327081331
30
0
41
1
10
23.7398130410321
20
-0.567228760254949
30
0
41
1
10
24.484651752421
20
-1.11610842994858
30
0
41
1
10
25.5944796051955
20
-1.93061334552829
30
0
41
1
10
25.9623683947237
20
-2.20167348011205
30
0
41
1
10
26.6997390871867
20
-2.73530439834357
30
0
41
1
10
27.0690873753497
20
-2.99808654029817
30
0
41
1
10
27.8080731857249
20
-3.51699742639474
30
0
41
1
10
28.1778195171075
20
-3.77298730391419
30
0
41
1
10
28.7319141926073
20
-4.15280985329818
30
0
41
1
10
28.9165684131958
20
-4.27866302785435
30
0
41
1
10
29.2870521688056
20
-4.52727986839403
30
0
41
1
10
29.4727442489239
20
-4.65021752051811
30
0
41
1
10
29.8449450965615
20
-4.89345644687583
30
0
41
1
10
30.0314432433425
20
-5.01377086555274
30
0
41
1
10
30.4051056496102
20
-5.25193378488476
30
0
41
1
10
30.5925266330361
20
-5.36993024430743
30
0
41
1
10
30.9662525899755
20
-5.60240354851931
30
0
41
1
10
31.1526470675822
20
-5.71694181122263
30
0
41
1
10
31.5242637466533
20
-5.94289120066938
30
0
41
1
10
31.7094694884763
20
-6.05430893784714
30
0
41
1
10
32.6359737203629
20
-6.59985631809946
30
0
41
1
10
33.3768163684287
20
-7.00201063162558
30
0
41
1
10
34.2978644844193
20
-7.46717825523581
30
0
41
1
10
34.4816856510577
20
-7.55842551662244
30
0
41
1
10
34.8500114818299
20
-7.73603007206509
30
0
41
1
10
35.034426617358
20
-7.8224763787494
30
0
41
1
10
35.5883590568859
20
-8.07486353596704
30
0
41
1
10
35.9584763475811
20
-8.23394645186303
30
0
41
1
10
36.5142856244387
20
-8.4591938016525
30
0
41
1
10
36.6996842876864
20
-8.53202520658328
30
0
41
1
10
37.0705265573484
20
-8.67326898979195
30
0
41
1
10
37.2558155325634
20
-8.74177889092024
30
0
41
1
10
37.813331771789
20
-8.9394813542205
30
0
41
1
10
38.1881220192151
20
-9.06112595655176
30
0
41
1
10
38.9358139696226
20
-9.28239616906777
30
0
41
1
10
39.3088543953057
20
-9.38213752360915
30
0
41
1
10
39.8665243072537
20
-9.51575054538631
30
0
41
1
10
40.0519112091572
20
-9.55768437829417
30
0
41
1
10
40.4229038980495
20
-9.63582336178891
30
0
41
1
10
40.6085789422924
20
-9.67201360254049
30
0
41
1
10
40.7944221074347
20
-9.70536322565297
30
0
0
SPLINE
5
E8
100
AcDbEntity
8
1
62
256
6
ByLayer
370
18
48
1
60
0
100
AcDbSpline
70
4
71
3
72
94
73
90
40
0
40
0
40
0
40
0
40
0.0335852223086481
40
0.0335852223086481
40
0.0671704446172962
40
0.0671704446172962
40
0.100755666925944
40
0.100755666925944
40
0.134340889234592
40
0.134340889234592
40
0.16792611154324
40
0.16792611154324
40
0.201511333851888
40
0.201511333851888
40
0.218303945006213
40
0.218303945006213
40
0.235096556160537
40
0.235096556160537
40
0.251889167314861
40
0.251889167314861
40
0.268681778469185
40
0.268681778469185
40
0.302267000777833
40
0.302267000777833
40
0.319059611932157
40
0.319059611932157
40
0.335852223086482
40
0.335852223086482
40
0.369437445395131
40
0.369437445395131
40
0.386230056549455
40
0.386230056549455
40
0.403022667703779
40
0.403022667703779
40
0.436607890012429
40
0.436607890012429
40
0.453400501166754
40
0.453400501166754
40
0.470193112321079
40
0.470193112321079
40
0.50377833462973
40
0.50377833462973
40
0.520570945784055
40
0.520570945784055
40
0.53736355693838
40
0.53736355693838
40
0.57094877924703
40
0.57094877924703
40
0.587741390401355
40
0.587741390401355
40
0.604534001555679
40
0.604534001555679
40
0.621326612710004
40
0.621326612710004
40
0.638119223864329
40
0.638119223864329
40
0.654911835018654
40
0.654911835018654
40
0.671704446172978
40
0.671704446172978
40
0.705289668481629
40
0.705289668481629
40
0.722082279635954
40
0.722082279635954
40
0.738874890790279
40
0.738874890790279
40
0.772460113098929
40
0.772460113098929
40
0.789252724253254
40
0.789252724253254
40
0.80604533540758
40
0.80604533540758
40
0.83963055771623
40
0.83963055771623
40
0.856423168870555
40
0.856423168870555
40
0.87321578002488
40
0.87321578002488
40
0.90680100233353
40
0.90680100233353
40
0.923593613487856
40
0.923593613487856
40
0.940386224642182
40
0.940386224642182
40
0.973971446950832
40
0.973971446950832
40
0.990764058105157
40
0.990764058105157
40
1
40
1
40
1
40
1
41
1
10
43.6228852671549
20
7.71066485509778
30
0
41
1
10
44.1066905558943
20
7.72551522868002
30
0
41
1
10
44.5892958211056
20
7.72528647987826
30
0
41
1
10
45.5505478135922
20
7.6954207789893
30
0
41
1
10
46.0280750674199
20
7.66536500414944
30
0
41
1
10
46.9849098323813
20
7.57682988902747
30
0
41
1
10
47.463459674663
20
7.51842747015118
30
0
41
1
10
48.4192120113656
20
7.37292777783648
30
0
41
1
10
48.8953521188955
20
7.2850353567614
30
0
41
1
10
49.852217639081
20
7.08332243969664
30
0
41
1
10
50.3320747155785
20
6.9692300595882
30
0
41
1
10
51.2930448434841
20
6.7130430417827
30
0
41
1
10
51.7732044749797
20
6.56983475849944
30
0
41
1
10
52.4990173500504
20
6.33756924017709
30
0
41
1
10
52.7416666754579
20
6.25704896491598
30
0
41
1
10
53.2252110225525
20
6.09054314727936
30
0
41
1
10
53.466500002461
20
6.00447877859389
30
0
41
1
10
53.9478831342553
20
5.82647911280097
30
0
41
1
10
54.1876989877984
20
5.73420267505708
30
0
41
1
10
54.6667449830386
20
5.54446234859594
30
0
41
1
10
54.9062552238181
20
5.44735594354231
30
0
41
1
10
55.6247375125861
20
5.1494906607422
30
0
41
1
10
56.1034761080655
20
4.94199498982846
30
0
41
1
10
56.819959175586
20
4.61573151069373
30
0
41
1
10
57.0582021700053
20
4.504007852396
30
0
41
1
10
57.5349756413545
20
4.27664017824472
30
0
41
1
10
57.7736931839938
20
4.1612826644259
30
0
41
1
10
58.4907697332259
20
3.81020195386492
30
0
41
1
10
58.9698787183797
20
3.56925583518608
30
0
41
1
10
59.6888617672912
20
3.1953190680774
30
0
41
1
10
59.9282490818291
20
3.06802736332656
30
0
41
1
10
60.408160596731
20
2.81084020611471
30
0
41
1
10
60.6487870462742
20
2.68113364728376
30
0
41
1
10
61.372558131402
20
2.28852984958902
30
0
41
1
10
61.8586732891123
20
2.02123321967733
30
0
41
1
10
62.5821977156237
20
1.61483704215269
30
0
41
1
10
62.8223319649375
20
1.47774530156559
30
0
41
1
10
63.3024782749261
20
1.20382554540947
30
0
41
1
10
63.5424803917318
20
1.0669775042586
30
0
41
1
10
64.26210260516
20
0.656444112698523
30
0
41
1
10
64.7412438656314
20
0.382595231092694
30
0
41
1
10
65.457641978608
20
-0.0309162731288666
30
0
41
1
10
65.6957412276231
20
-0.169764218414429
30
0
41
1
10
66.1726323297914
20
-0.445772748125108
30
0
41
1
10
66.4113494353973
20
-0.583067698400157
30
0
41
1
10
67.1280786555905
20
-0.993254385171781
30
0
41
1
10
67.6065992413779
20
-1.26457544088547
30
0
41
1
10
68.3239863031455
20
-1.67086558411464
30
0
41
1
10
68.5627654184331
20
-1.8066743519214
30
0
41
1
10
69.0417783092171
20
-2.07527912482016
30
0
41
1
10
69.2818937794317
20
-2.20828385426424
30
0
41
1
10
69.7631546431486
20
-2.47202961762025
30
0
41
1
10
70.0042671380323
20
-2.60282783219842
30
0
41
1
10
70.4872902770708
20
-2.86255824471931
30
0
41
1
10
70.7295373203466
20
-2.99157038306583
30
0
41
1
10
71.2130746104239
20
-3.24760001478478
30
0
41
1
10
71.4537932041745
20
-3.37466820929612
30
0
41
1
10
71.9352807646231
20
-3.62336957919197
30
0
41
1
10
72.1758841859897
20
-3.74530177154952
30
0
41
1
10
72.8969527124489
20
-4.10456014380583
30
0
41
1
10
73.3767113619563
20
-4.33535203230215
30
0
41
1
10
74.0932755073731
20
-4.67088680372726
30
0
41
1
10
74.331482179021
20
-4.7811112998763
30
0
41
1
10
74.8086932445014
20
-4.99540376191524
30
0
41
1
10
75.0475022865238
20
-5.09976502704509
30
0
41
1
10
75.7641571567292
20
-5.40513077804161
30
0
41
1
10
76.2422984013899
20
-5.59838757447324
30
0
41
1
10
76.9583608830284
20
-5.87459243121373
30
0
41
1
10
77.196790940954
20
-5.96441910763141
30
0
41
1
10
77.6751288522638
20
-6.13729559139065
30
0
41
1
10
77.9148325279082
20
-6.22059770148203
30
0
41
1
10
78.6351331218972
20
-6.46160148622869
30
0
41
1
10
79.1170171700286
20
-6.61036444063626
30
0
41
1
10
79.840659942062
20
-6.81667931360803
30
0
41
1
10
80.0823876889407
20
-6.88262748313556
30
0
41
1
10
80.5653745049345
20
-7.00650129812161
30
0
41
1
10
80.8066480686866
20
-7.06469539228226
30
0
41
1
10
81.5293888561198
20
-7.22866187666372
30
0
41
1
10
82.0099378110946
20
-7.32379665109744
30
0
41
1
10
82.7269407620033
20
-7.4462613954322
30
0
41
1
10
82.9655115550378
20
-7.48355056825829
30
0
41
1
10
83.443254324332
20
-7.55048620607909
30
0
41
1
10
83.6822447315581
20
-7.58023816926556
30
0
41
1
10
84.3991082312881
20
-7.65868867235531
30
0
41
1
10
84.8770620963729
20
-7.69661174367104
30
0
41
1
10
85.5920925904534
20
-7.73185217651272
30
0
41
1
10
85.830434508526
20
-7.73989761487471
30
0
41
1
10
86.2008076021414
20
-7.74659030888864
30
0
41
1
10
86.3323655822471
20
-7.74784745625294
30
0
41
1
10
86.4640323977222
20
-7.74799078664827
30
0
0
SPLINE
5
E9
100
AcDbEntity
8
1
62
256
6
ByLayer
370
18
48
1
60
0
100
AcDbSpline
70
4
71
3
72
12
73
8
40
0
40
0
40
0
40
0
40
0.250000000000003
40
0.250000000000003
40
0.500000000000007
40
0.500000000000007
40
1
40
1
40
1
40
1
41
1
10
89.677550624083
20
-7.53044606876051
30
0
41
1
10
89.638698493787
20
-7.55982170879906
30
0
41
1
10
89.6006375236734
20
-7.58647465668187
30
0
41
1
10
89.5270136121946
20
-7.63361436393996
30
0
41
1
10
89.4913309577179
20
-7.65419674538458
30
0
41
1
10
89.3875633726771
20
-7.70702215605431
30
0
41
1
10
89.3227528509149
20
-7.73036287784672
30
0
41
1
10
89.2620985914065
20
-7.741702956588
30
0
0
SPLINE
5
EA
100
AcDbEntity
8
1
62
256
6
ByLayer
370
18
48
1
60
0
100
AcDbSpline
70
4
71
3
72
8
73
4
40
0
40
0
40
0
40
0
40
1
40
1
40
1
40
1
41
1
10
89.2620985914065
20
7.74170295658803
30
0
41
1
10
89.0572068780104
20
7.74696887958072
30
0
41
1
10
88.8523149064231
20
7.74952007177205
30
0
41
1
10
88.6473752200371
20
7.74935707075304
30
0
0
SPLINE
5
EB
100
AcDbEntity
8
1
62
256
6
ByLayer
370
18
48
1
60
0
100
AcDbSpline
70
4
71
3
72
14
73
10
40
0
40
0
40
0
40
0
40
0.188392324175418
40
0.188392324175418
40
0.391294243131562
40
0.391294243131562
40
0.594196162087707
40
0.594196162087707
40
1
40
1
40
1
40
1
41
1
10
50.6267247443485
20
-7.36311772915752
30
0
41
1
10
50.1877578024574
20
-7.43937017106472
30
0
41
1
10
49.7483787667904
20
-7.50386400596344
30
0
41
1
10
48.8338450975394
20
-7.61268409383402
30
0
41
1
10
48.3585329399654
20
-7.65507412532341
30
0
41
1
10
47.4044153194647
20
-7.71091912451877
30
0
41
1
10
46.9247501079452
20
-7.72432810592943
30
0
41
1
10
45.4892830825267
20
-7.72009764459995
30
0
41
1
10
44.5346108930268
20
-7.65834912492528
30
0
41
1
10
43.5767070453478
20
-7.53859971768389
30
0
0
SPLINE
5
EC
100
AcDbEntity
8
1
62
256
6
ByLayer
370
18
48
1
60
0
100
AcDbSpline
70
4
71
3
72
51
73
47
40
0
40
0
40
0
40
0
40
0.0685492901643008
40
0.0685492901643008
40
0.123149934647299
40
0.123149934647299
40
0.177750579130298
40
0.177750579130298
40
0.286951868096295
40
0.286951868096295
40
0.396153157062292
40
0.396153157062292
40
0.45075380154529
40
0.45075380154529
40
0.505354446028289
40
0.508766986308476
40
0.508766986308476
40
0.512179526588664
40
0.512179526588664
40
0.519004607149038
40
0.519004607149038
40
0.522417147429226
40
0.522417147429226
40
0.525829687709413
40
0.525829687709413
40
0.532654768269788
40
0.532654768269788
40
0.559955090511288
40
0.559955090511288
40
0.614555734994286
40
0.614555734994286
40
0.669156379477285
40
0.669156379477285
40
0.723757023960284
40
0.723757023960284
40
0.832958312926281
40
0.832958312926281
40
0.86025863516778
40
0.86025863516778
40
0.88755895740928
40
0.88755895740928
40
0.942159601892279
40
0.942159601892279
40
0.996760246375277
40
0.996760246375277
40
1
40
1
40
1
40
1
41
1
10
22.9945273294523
20
0.0230533458332332
30
0
41
1
10
22.9945273294524
20
0.0802795998309875
30
0
41
1
10
22.9945273294524
20
0.117918423078862
30
0
41
1
10
22.9945273294524
20
0.15224228758629
30
0
41
1
10
22.9945273294524
20
0.155631936393093
30
0
41
1
10
22.9945273294524
20
0.139084551777387
30
0
41
1
10
22.9945273294525
20
0.119183424666772
30
0
41
1
10
22.9945273294525
20
0.0270178293537242
30
0
41
1
10
22.9945273294524
20
-0.0775798135802575
30
0
41
1
10
22.9945273294524
20
-0.366337334420535
30
0
41
1
10
22.9945273294524
20
-0.550546941858215
30
0
41
1
10
22.9945273294524
20
-0.885532446825977
30
0
41
1
10
22.9945273294524
20
-1.00721259999474
30
0
41
1
10
22.9945273294524
20
-1.26808350144262
30
0
41
1
10
22.9945273294524
20
-1.41625913772228
30
0
41
1
10
22.9945273294524
20
-1.57419912308262
30
0
41
1
10
22.9945273294524
20
-1.59284652512022
30
0
41
1
10
22.9945273294524
20
-1.60154775008888
30
0
41
1
10
22.9945273294524
20
-1.63532912201967
30
0
41
1
10
22.9945273294526
20
-1.6659443083812
30
0
41
1
10
22.9945273294526
20
-1.71978859112994
30
0
41
1
10
22.9945273294524
20
-1.7381308221122
30
0
41
1
10
22.9945273294524
20
-1.77450455163009
30
0
41
1
10
22.9945273294524
20
-1.79271113653988
30
0
41
1
10
22.9945273294524
20
-1.84739016915836
30
0
41
1
10
22.9945273294525
20
-1.88392327235647
30
0
41
1
10
22.9945273294525
20
-2.066969121646
30
0
41
1
10
22.9945273294524
20
-2.21461888445617
30
0
41
1
10
22.9945273294524
20
-2.66101755151431
30
0
41
1
10
22.9945273294524
20
-2.96328175823476
30
0
41
1
10
22.9945273294524
20
-3.57517552487738
30
0
41
1
10
22.9945273294524
20
-3.8846104103545
30
0
41
1
10
22.9945273294524
20
-4.51072440727251
30
0
41
1
10
22.9945273294524
20
-4.82770451937247
30
0
41
1
10
22.9945273294524
20
-5.78004215478137
30
0
41
1
10
22.9945273294524
20
-6.41987880838713
30
0
41
1
10
22.9945273294524
20
-7.22644455030937
30
0
41
1
10
22.9945273294525
20
-7.38809884795978
30
0
41
1
10
22.9945273294525
20
-7.71211640824424
30
0
41
1
10
22.9945273294524
20
-7.87483740047409
30
0
41
1
10
22.9945273294524
20
-8.36059236656851
30
0
41
1
10
22.9945273294524
20
-8.68154934255304
30
0
41
1
10
22.9945273294524
20
-9.3175281945845
30
0
41
1
10
22.9945273294526
20
-9.63255124009726
30
0
41
1
10
22.9945273294526
20
-9.96294056858349
30
0
41
1
10
22.9945273294526
20
-9.98143524671477
30
0
41
1
10
22.9945273294526
20
-9.99991879904672
30
0
0
SPLINE
5
ED
100
AcDbEntity
8
1
62
256
6
ByLayer
370
18
48
1
60
0
100
AcDbSpline
70
4
71
3
72
24
73
20
40
0
40
0
40
0
40
0
40
0.0254602591264484
40
0.0254602591264484
40
0.122914233213803
40
0.122914233213803
40
0.220368207301157
40
0.220368207301157
40
0.415276155475868
40
0.415276155475868
40
0.512730129563224
40
0.512730129563224
40
0.61018410365058
40
0.61018410365058
40
0.707638077737936
40
0.707638077737936
40
0.805092051825291
40
0.805092051825291
40
1
40
1
40
1
40
1
41
1
10
33.5082783463958
20
-7.05590634993504
30
0
41
1
10
33.4194495429471
20
-7.10282253224568
30
0
41
1
10
33.3306380535626
20
-7.1492385679542
30
0
41
1
10
32.9019400532597
20
-7.37089205852271
30
0
41
1
10
32.562275226115
20
-7.53932953911001
30
0
41
1
10
31.8834489543456
20
-7.86170341931745
30
0
41
1
10
31.544577711287
20
-8.01586945397534
30
0
41
1
10
30.5271661073527
20
-8.45509462193988
30
0
41
1
10
29.8461673835944
20
-8.71578457662642
30
0
41
1
10
28.8202876858995
20
-9.05768896697339
30
0
41
1
10
28.477794292921
20
-9.16368599814345
30
0
41
1
10
27.7900146276627
20
-9.357393824746
30
0
41
1
10
27.4466687417693
20
-9.44467789605346
30
0
41
1
10
26.7609430761236
20
-9.60041301206968
30
0
41
1
10
26.418557166741
20
-9.66886631969058
30
0
41
1
10
25.7349503521618
20
-9.78702734404894
30
0
41
1
10
25.3937451817401
20
-9.83669451549738
30
0
41
1
10
24.3682031845905
20
-9.95648870546435
30
0
41
1
10
23.6824672645543
20
-9.99784985347128
30
0
41
1
10
22.9945273294526
20
-9.99991879906207
30
0
0
SPLINE
5
EE
100
AcDbEntity
8
1
62
256
6
ByLayer
370
18
48
1
60
0
100
AcDbSpline
70
4
71
3
72
8
73
4
40
0
40
0
40
0
40
0
40
1
40
1
40
1
40
1
41
1
10
91.9121935536747
20
-1.73777479666663
30
0
41
1
10
91.9479358795031
20
-1.2026859951049
30
0
41
1
10
91.9735941582776
20
-0.668109665427892
30
0
41
1
10
91.9891521442502
20
-0.13404663324556
30
0
0
SPLINE
5
EF
100
AcDbEntity
8
1
62
256
6
ByLayer
370
18
48
1
60
0
100
AcDbSpline
70
4
71
3
72
8
73
4
40
0
40
0
40
0
40
0
40
1
40
1
40
1
40
1
41
1
10
91.9891521442503
20
0.13404663324556
30
0
41
1
10
91.9898754037157
20
0.109219117405928
30
0
41
1
10
91.9939242969801
20
0.0796200327787062
30
0
41
1
10
91.9999717769155
20
0.048194683392154
30
0
0
SPLINE
5
F0
100
AcDbEntity
8
1
62
256
6
ByLayer
370
18
48
1
60
0
100
AcDbSpline
70
4
71
3
72
14
73
10
40
0
40
0
40
0
40
0
40
0.249999999999997
40
0.249999999999997
40
0.374999999999999
40
0.374999999999999
40
0.5
40
0.5
40
1
40
1
40
1
40
1
41
1
10
41.9271286970634
20
0.838084754852474
30
0
41
1
10
41.703049125142
20
1.00454293881145
30
0
41
1
10
41.4825999787664
20
1.18389229298987
30
0
41
1
10
41.1559984528038
20
1.47111147779583
30
0
41
1
10
41.0478125201358
20
1.56988963692842
30
0
41
1
10
40.8326019369306
20
1.77340442024894
30
0
41
1
10
40.7254451841622
20
1.87828030712194
30
0
41
1
10
40.1948140798271
20
2.41455734182341
30
0
41
1
10
39.7854705060136
20
2.88330886163891
30
0
41
1
10
39.3839250041496
20
3.38498323298978
30
0
0
SPLINE
5
F1
100
AcDbEntity
8
1
62
256
6
ByLayer
370
18
48
1
60
0
100
AcDbSpline
70
4
71
3
72
70
73
66
40
0
40
0
40
0
40
0
40
0.0125315498590441
40
0.0125315498590441
40
0.0315213277463703
40
0.0315213277463703
40
0.0505111056336966
40
0.0505111056336966
40
0.088490661408348
40
0.088490661408348
40
0.126470217183
40
0.126470217183
40
0.164449772957651
40
0.164449772957651
40
0.202429328732302
40
0.202429328732302
40
0.240408884506954
40
0.240408884506954
40
0.278388440281605
40
0.278388440281605
40
0.297378218168932
40
0.297378218168932
40
0.316367996056258
40
0.316367996056258
40
0.35434755183091
40
0.35434755183091
40
0.392327107605563
40
0.392327107605563
40
0.430306663380215
40
0.430306663380215
40
0.468286219154868
40
0.468286219154868
40
0.50626577492952
40
0.50626577492952
40
0.544245330704172
40
0.544245330704172
40
0.563235108591498
40
0.563235108591498
40
0.582224886478824
40
0.582224886478824
40
0.620204442253475
40
0.620204442253475
40
0.658183998028127
40
0.658183998028127
40
0.696163553802778
40
0.696163553802778
40
0.73414310957743
40
0.73414310957743
40
0.772122665352081
40
0.772122665352081
40
0.810102221126733
40
0.810102221126733
40
0.829091999014059
40
0.829091999014059
40
0.848081776901385
40
0.848081776901385
40
0.886061332676038
40
0.886061332676038
40
0.905051110563364
40
0.905051110563364
40
0.924040888450691
40
0.924040888450691
40
0.962020444225346
40
0.962020444225346
40
1
40
1
40
1
40
1
41
1
10
75.1095578984852
20
-5.14377637720335
30
0
41
1
10
74.9758040655734
20
-5.1960708516759
30
0
41
1
10
74.842095308649
20
-5.24761144345715
30
0
41
1
10
74.5059528579226
20
-5.37529393230946
30
0
41
1
10
74.3035344684439
20
-5.45043466331606
30
0
41
1
10
73.8990865536172
20
-5.59731693123911
30
0
41
1
10
73.6971539881331
20
-5.66917256378838
30
0
41
1
10
73.0909462630823
20
-5.87825175946986
30
0
41
1
10
72.6865400370846
20
-6.00908214837574
30
0
41
1
10
71.8766208058579
20
-6.25218029950088
30
0
41
1
10
71.4707142670112
20
-6.36414986298931
30
0
41
1
10
70.6598518834194
20
-6.57475785245018
30
0
41
1
10
70.2549213248624
20
-6.6716218984383
30
0
41
1
10
69.445235421364
20
-6.84550789035444
30
0
41
1
10
69.0404952128245
20
-6.92266659206661
30
0
41
1
10
68.2312864674912
20
-7.0592914774183
30
0
41
1
10
67.8273157143062
20
-7.1188007669441
30
0
41
1
10
67.0174069746381
20
-7.21676677583932
30
0
41
1
10
66.610982219524
20
-7.25433703880193
30
0
41
1
10
66.0027370690459
20
-7.29716436231163
30
0
41
1
10
65.8002845313325
20
-7.30914346621191
30
0
41
1
10
65.3961979300046
20
-7.32833159448538
30
0
41
1
10
65.1946658184001
20
-7.33552510875478
30
0
41
1
10
64.5904051885682
20
-7.34926605650901
30
0
41
1
10
64.1882943499178
20
-7.34752744431353
30
0
41
1
10
63.3849704083381
20
-7.3255339933151
30
0
41
1
10
62.9836022679327
20
-7.30552685172626
30
0
41
1
10
62.1828418595279
20
-7.24539264038106
30
0
41
1
10
61.7825760250039
20
-7.20482958295446
30
0
41
1
10
60.9811627924371
20
-7.10464571837494
30
0
41
1
10
60.5801244797369
20
-7.04567738249105
30
0
41
1
10
59.7773877795939
20
-6.90894040537302
30
0
41
1
10
59.3761479650417
20
-6.83044984844912
30
0
41
1
10
58.5708809249068
20
-6.65469785727882
30
0
41
1
10
58.1671588408298
20
-6.55814080790987
30
0
41
1
10
57.5597402973722
20
-6.39998065477059
30
0
41
1
10
57.3569524426325
20
-6.34500722637011
30
0
41
1
10
56.9507938649992
20
-6.23019301472289
30
0
41
1
10
56.7481667291482
20
-6.17030965297462
30
0
41
1
10
56.1403337774661
20
-5.98458986961273
30
0
41
1
10
55.7353402690285
20
-5.85301649364715
30
0
41
1
10
54.9254715855889
20
-5.57539755908252
30
0
41
1
10
54.5204230485256
20
-5.4293745415975
30
0
41
1
10
53.7112947822285
20
-5.11969045154274
30
0
41
1
10
53.3064875483865
20
-4.95784183284687
30
0
41
1
10
52.4951626325637
20
-4.62218797342024
30
0
41
1
10
52.0885274458658
20
-4.44757454010553
30
0
41
1
10
51.277563860631
20
-4.08640197964576
30
0
41
1
10
50.873217933309
20
-3.89913127364034
30
0
41
1
10
50.0638687271437
20
-3.51711113613848
30
0
41
1
10
49.6590844758777
20
-3.32141768177965
30
0
41
1
10
49.0514287730735
20
-3.02091872335953
30
0
41
1
10
48.8487900430537
20
-2.91961046752803
30
0
41
1
10
48.4434733504332
20
-2.71477244305794
30
0
41
1
10
48.2409778581824
20
-2.61099714779488
30
0
41
1
10
47.6327148016014
20
-2.2976888434539
30
0
41
1
10
47.2265697663565
20
-2.0857183421295
30
0
41
1
10
46.6186281100452
20
-1.76471646341472
30
0
41
1
10
46.4160765130412
20
-1.65711298343871
30
0
41
1
10
46.0111247693915
20
-1.44096611215804
30
0
41
1
10
45.8086913476763
20
-1.33250140463244
30
0
41
1
10
45.2022231881078
20
-1.00455376375254
30
0
41
1
10
44.7979997302459
20
-0.784402867622504
30
0
41
1
10
43.9883007442167
20
-0.343320736379411
30
0
41
1
10
43.5828516794367
20
-0.12224281541171
30
0
41
1
10
43.1769643764661
20
0.0992872421317088
30
0
0
SPLINE
5
F2
100
AcDbEntity
8
1
62
256
6
ByLayer
370
18
48
1
60
0
100
AcDbSpline
70
4
71
3
72
22
73
18
40
0
40
0
40
0
40
0
40
0.125
40
0.125
40
0.25
40
0.25
40
0.375
40
0.375
40
0.5
40
0.5
40
0.625
40
0.625
40
0.75
40
0.75
40
0.875
40
0.875
40
1
40
1
40
1
40
1
41
1
10
90.8369833179189
20
-1.96353190646957
30
0
41
1
10
90.8307400783728
20
-2.00629069440012
30
0
41
1
10
90.8208721709393
20
-2.05266691807805
30
0
41
1
10
90.7944123850472
20
-2.15087075567098
30
0
41
1
10
90.7782930307148
20
-2.20084830092045
30
0
41
1
10
90.7419572234601
20
-2.29904796629347
30
0
41
1
10
90.7220435651842
20
-2.34644767912846
30
0
41
1
10
90.6805624286604
20
-2.43491420626609
30
0
41
1
10
90.6592871376802
20
-2.47541985456394
30
0
41
1
10
90.6164345222494
20
-2.54835019487121
30
0
41
1
10
90.5951906648992
20
-2.5801240656703
30
0
41
1
10
90.5548260585144
20
-2.63250659361375
30
0
41
1
10
90.5352447350543
20
-2.65371452506034
30
0
41
1
10
90.4989116825197
20
-2.68424658610297
30
0
41
1
10
90.4823390538459
20
-2.69355302916361
30
0
41
1
10
90.4525058033787
20
-2.69959845483734
30
0
41
1
10
90.4396316305442
20
-2.69612769645039
30
0
41
1
10
90.429335570352
20
-2.68590140442399
30
0
0
SPLINE
5
F3
100
AcDbEntity
8
1
62
256
6
ByLayer
370
18
48
1
60
0
100
AcDbSpline
70
4
71
3
72
12
73
8
40
0
40
0
40
0
40
0
40
0.25
40
0.25
40
0.5
40
0.5
40
1
40
1
40
1
40
1
41
1
10
43.2294589996739
20
7.67534146133176
30
0
41
1
10
43.025503011736
20
7.85608847765127
30
0
41
1
10
42.822113172578
20
8.03355339139878
30
0
41
1
10
42.4154842253542
20
8.38334414169964
30
0
41
1
10
42.2123320558005
20
8.55553988721422
30
0
41
1
10
41.6034006288095
20
9.06354584145072
30
0
41
1
10
41.1981805513644
20
9.39083949670322
30
0
41
1
10
40.794422107435
20
9.70536322565263
30
0
0
SPLINE
5
F4
100
AcDbEntity
8
1
62
256
6
ByLayer
370
18
48
1
60
0
100
AcDbSpline
70
4
71
3
72
8
73
4
40
0
40
0
40
0
40
0
40
1
40
1
40
1
40
1
41
1
10
43.6228852671549
20
7.7106648550978
30
0
41
1
10
43.4917177044443
20
7.69998960295035
30
0
41
1
10
43.3605772416154
20
7.68821729325296
30
0
41
1
10
43.2294589996739
20
7.67534146133176
30
0
0
SPLINE
5
F5
100
AcDbEntity
8
1
62
256
6
ByLayer
370
18
48
1
60
0
100
AcDbSpline
70
4
71
3
72
8
73
4
40
0
40
0
40
0
40
0
40
1
40
1
40
1
40
1
41
1
10
43.1769643764427
20
0.131770916883767
30
0
41
1
10
42.7604925246448
20
0.368921864258056
30
0
41
1
10
42.3443046601862
20
0.605396953825874
30
0
41
1
10
41.9271286970634
20
0.838084754852474
30
0
0
SPLINE
5
F6
100
AcDbEntity
8
1
62
256
6
ByLayer
370
18
48
1
60
0
100
AcDbSpline
70
4
71
3
72
8
73
4
40
0
40
0
40
0
40
0
40
1
40
1
40
1
40
1
41
1
10
91.9121935536747
20
1.73777479666663
30
0
41
1
10
91.9479402355063
20
1.20262078254552
30
0
41
1
10
91.9735960549221
20
0.668044558821151
30
0
41
1
10
91.9891521442503
20
0.13404663324556
30
0
0
SPLINE
5
F7
100
AcDbEntity
8
1
62
256
6
ByLayer
370
18
48
1
60
0
100
AcDbSpline
70
4
71
3
72
84
73
80
40
0
40
0
40
0
40
0
40
0.0624999999999987
40
0.0624999999999987
40
0.093749999999998
40
0.093749999999998
40
0.124999999999997
40
0.124999999999997
40
0.187499999999996
40
0.187499999999996
40
0.249999999999995
40
0.249999999999995
40
0.312499999999993
40
0.312499999999993
40
0.343749999999993
40
0.343749999999993
40
0.374999999999993
40
0.374999999999993
40
0.406249999999993
40
0.406249999999993
40
0.421874999999993
40
0.421874999999993
40
0.437499999999992
40
0.437499999999992
40
0.468749999999992
40
0.468749999999992
40
0.484374999999991
40
0.484374999999991
40
0.499999999999991
40
0.499999999999991
40
0.515624999999991
40
0.515624999999991
40
0.53124999999999
40
0.53124999999999
40
0.54687499999999
40
0.54687499999999
40
0.55468749999999
40
0.55468749999999
40
0.56249999999999
40
0.56249999999999
40
0.578124999999989
40
0.578124999999989
40
0.585937499999989
40
0.585937499999989
40
0.593749999999989
40
0.593749999999989
40
0.609374999999988
40
0.609374999999988
40
0.624999999999988
40
0.624999999999988
40
0.656249999999987
40
0.656249999999987
40
0.671874999999987
40
0.671874999999987
40
0.675781249999987
40
0.675781249999987
40
0.677734374999987
40
0.677734374999987
40
0.679687499999987
40
0.679687499999987
40
0.681640624999987
40
0.681640624999987
40
0.683593749999987
40
0.683593749999987
40
0.687499999999987
40
0.687499999999987
40
0.718749999999989
40
0.718749999999989
40
0.74999999999999
40
0.74999999999999
40
0.812499999999993
40
0.812499999999993
40
0.843749999999994
40
0.843749999999994
40
0.874999999999995
40
0.874999999999995
40
0.937499999999998
40
0.937499999999998
40
1
40
1
40
1
40
1
41
1
10
22.9945273294526
20
-9.9999187990621
30
0
41
1
10
22.3202970124059
20
-10.0018806864315
30
0
41
1
10
21.6588928855085
20
-9.96802991186871
30
0
41
1
10
20.6742176828739
20
-9.8582778741897
30
0
41
1
10
20.3472416730165
20
-9.81192485045088
30
0
41
1
10
19.6940858249262
20
-9.69935901138089
30
0
41
1
10
19.3673253690106
20
-9.63299192962626
30
0
41
1
10
18.3930703996213
20
-9.40575014805569
30
0
41
1
10
17.7498619934488
20
-9.21670662167563
30
0
41
1
10
16.4679630024736
20
-8.76810633771987
30
0
41
1
10
15.8292645623196
20
-8.50872365065098
30
0
41
1
10
14.5544671849879
20
-7.9194674629496
30
0
41
1
10
13.9183246410527
20
-7.58986313096318
30
0
41
1
10
12.9696360215168
20
-7.03436658230333
30
0
41
1
10
12.6535280623374
20
-6.83831162096266
30
0
41
1
10
12.0310700330732
20
-6.42652352788832
30
0
41
1
10
11.7243079779716
20
-6.21064047454857
30
0
41
1
10
11.1225922077489
20
-5.75530087719065
30
0
41
1
10
10.8276085987145
20
-5.51588954293626
30
0
41
1
10
10.3973788899251
20
-5.1345813910759
30
0
41
1
10
10.2560215935051
20
-5.00376079424549
30
0
41
1
10
9.97828757153371
20
-4.73349461838669
30
0
41
1
10
9.84166843918098
20
-4.59380692902548
30
0
41
1
10
9.44260408767946
20
-4.16117168694996
30
0
41
1
10
9.19238537868199
20
-3.85685716020146
30
0
41
1
10
8.85183215007558
20
-3.36708610450555
30
0
41
1
10
8.74387348858221
20
-3.19768858264891
30
0
41
1
10
8.54412944048534
20
-2.84743510275541
30
0
41
1
10
8.45298165991204
20
-2.66779634115522
30
0
41
1
10
8.29153783692888
20
-2.29790616365298
30
0
41
1
10
8.22122798118335
20
-2.10766205959638
30
0
41
1
10
8.10629543836848
20
-1.71429664664174
30
0
41
1
10
8.06177193072656
20
-1.5100522320042
30
0
41
1
10
8.00648086004946
20
-1.10093487753656
30
0
41
1
10
7.99515403345157
20
-0.894574345565331
30
0
41
1
10
8.00528743687963
20
-0.582111333945477
30
0
41
1
10
8.01326545579067
20
-0.476900173492567
30
0
41
1
10
8.03836804873535
20
-0.268864150841409
30
0
41
1
10
8.05542567310809
20
-0.166042520191894
30
0
41
1
10
8.11971026266914
20
0.138943201638654
30
0
41
1
10
8.18003527942221
20
0.337631788880031
30
0
41
1
10
8.29537675001609
20
0.629076506620606
30
0
41
1
10
8.33814680206746
20
0.725417071474283
30
0
41
1
10
8.43004119914463
20
0.912659211141943
30
0
41
1
10
8.47928964241814
20
1.00395648100826
30
0
41
1
10
8.63611948830217
20
1.27147770108581
30
0
41
1
10
8.75269232483834
20
1.4413942237353
30
0
41
1
10
9.00642052911579
20
1.76689398678826
30
0
41
1
10
9.14442663674669
20
1.92323202526217
30
0
41
1
10
9.57690934196322
20
2.36499986119742
30
0
41
1
10
9.89052530605431
20
2.6258990958903
30
0
41
1
10
10.3879262564091
20
2.98230764655739
30
0
41
1
10
10.5583143981663
20
3.09516029872847
30
0
41
1
10
10.776367897678
20
3.22974221984242
30
0
41
1
10
10.8203689943234
20
3.25617634798584
30
0
41
1
10
10.886312521932
20
3.29584902819403
30
0
41
1
10
10.9080744627925
20
3.31001066396374
30
0
41
1
10
10.9547296846777
20
3.33073102047257
30
0
41
1
10
10.9793335733369
20
3.33768992919559
30
0
41
1
10
11.0304930323223
20
3.34641798741652
30
0
41
1
10
11.0563321205888
20
3.34766808793953
30
0
41
1
10
11.1077268032981
20
3.34703751914938
30
0
41
1
10
11.1334217109496
20
3.34634289314928
30
0
41
1
10
11.2105099008366
20
3.34479934017608
30
0
41
1
10
11.2619009587174
20
3.34360366329668
30
0
41
1
10
11.7244108700651
20
3.33134356462432
30
0
41
1
10
12.1349355671451
20
3.30981866214853
30
0
41
1
10
12.9545375690445
20
3.24555501306571
30
0
41
1
10
13.3628995260818
20
3.20287354584252
30
0
41
1
10
14.5798913863086
20
3.04391280991993
30
0
41
1
10
15.3819973776318
20
2.89652364963101
30
0
41
1
10
16.5720023742007
20
2.61398751559617
30
0
41
1
10
16.9664792810955
20
2.50955898024461
30
0
41
1
10
17.7511604793981
20
2.28016630706821
30
0
41
1
10
18.1420567578282
20
2.1549554987277
30
0
41
1
10
19.30264658775
20
1.75123939081345
30
0
41
1
10
20.0599172440033
20
1.44469662314961
30
0
41
1
10
21.5464928320465
20
0.765743134930574
30
0
41
1
10
22.2758334513311
20
0.39340330245804
30
0
41
1
10
22.9945273294523
20
-0.0054561327081331
30
0
0
SPLINE
5
F8
100
AcDbEntity
8
1
62
256
6
ByLayer
370
18
48
1
60
0
100
AcDbSpline
70
4
71
3
72
16
73
12
40
0
40
0
40
0
40
0
40
0.156323167913509
40
0.156323167913509
40
0.297536127526354
40
0.297536127526354
40
0.438749087139198
40
0.438749087139198
40
0.721175006364887
40
0.721175006364887
40
1
40
1
40
1
40
1
41
1
10
67.602357044822
20
-0.0150116780557141
30
0
41
1
10
68.1329888905796
20
-0.309560007419833
30
0
41
1
10
68.6645309454571
20
-0.604555123051881
30
0
41
1
10
69.6795415808322
20
-1.16400056945258
30
0
41
1
10
70.1627441887133
20
-1.4285495209142
30
0
41
1
10
71.133247314902
20
-1.95361353018114
30
0
41
1
10
71.6165106378756
20
-2.21194928692611
30
0
41
1
10
73.0617721346512
20
-2.96964164812476
30
0
41
1
10
74.0194689862609
20
-3.45235305564597
30
0
41
1
10
75.9207313420167
20
-4.3525109053038
30
0
41
1
10
76.864278065564
20
-4.77065987702883
30
0
41
1
10
77.8121071266311
20
-5.15170571085272
30
0
0
SPLINE
5
F9
100
AcDbEntity
8
1
62
256
6
ByLayer
370
13
48
1
60
0
100
AcDbSpline
70
4
71
3
72
18
73
14
40
0
40
0
40
0
40
0
40
0.0031773678307781
40
0.0031773678307781
40
0.127780196851926
40
0.127780196851926
40
0.1900816113625
40
0.1900816113625
40
0.252383025873074
40
0.252383025873074
40
0.501588683915381
40
0.501588683915381
40
1
40
1
40
1
40
1
41
1
10
77.8121071266734
20
-5.15170571086972
30
0
41
1
10
77.824348001758
20
-5.15662678223683
30
0
41
1
10
77.8365895910853
20
-5.16154166524447
30
0
41
1
10
78.3289233381562
20
-5.35894775203562
30
0
41
1
10
78.8101117787215
20
-5.54194399360631
30
0
41
1
10
79.53448542058
20
-5.80076480211747
30
0
41
1
10
79.7763747729151
20
-5.88442600709973
30
0
41
1
10
80.2611757892173
20
-6.04627806438063
30
0
41
1
10
80.5037723251345
20
-6.12435652208282
30
0
41
1
10
81.7127385838235
20
-6.49840803916518
30
0
41
1
10
82.6722595320276
20
-6.74692114958023
30
0
41
1
10
85.54305999018
20
-7.33209900576628
30
0
41
1
10
87.4471491881656
20
-7.50853157146969
30
0
41
1
10
89.3811913238285
20
-7.45082687415245
30
0
0
SPLINE
5
FA
100
AcDbEntity
8
1
62
256
6
ByLayer
370
18
48
1
60
0
100
AcDbSpline
70
4
71
2
72
6
73
3
40
0
40
0
40
0
40
1
40
1
40
1
41
1
10
88.8681147674599
20
-7.36200040287841
30
0
41
1
10
89.0842461466824
20
-7.36268102428573
30
0
41
1
10
89.2982605905611
20
-7.36126563092745
30
0
0
SPLINE
5
FB
100
AcDbEntity
8
1
62
256
6
ByLayer
370
18
48
1
60
0
100
AcDbSpline
70
4
71
1
72
4
73
2
40
0
40
0
40
1
40
1
41
1
10
90.4486526782408
20
-2.69455724036749
30
0
41
1
10
90.4525607967903
20
-2.695138662484
30
0
0
SPLINE
5
FC
100
AcDbEntity
8
1
62
256
6
ByLayer
370
18
48
1
60
0
100
AcDbSpline
70
4
71
3
72
34
73
30
40
0
40
0
40
0
40
0
40
0.0469462124871558
40
0.095218052142692
40
0.140057547630051
40
0.178207800762364
40
0.212708724960322
40
0.252453474756793
40
0.29126857993191
40
0.318039946290622
40
0.344264998950974
40
0.37019926640262
40
0.399643501934043
40
0.437750950535763
40
0.479758642397234
40
0.509201607029363
40
0.540637324304008
40
0.586307433675479
40
0.636001114464746
40
0.676968622752792
40
0.724874593954531
40
0.784757127700342
40
0.816223435691235
40
0.840636674318395
40
0.865998806716168
40
0.893890065768726
40
0.924676131550339
40
0.960814795610196
40
1
40
1
40
1
40
1
41
1
10
46.6886480363937
20
-7.33555597621225
30
0
41
1
10
46.9649795053282
20
-7.33536079017873
30
0
41
1
10
47.5261327780379
20
-7.33525338210416
30
0
41
1
10
48.3634881484381
20
-7.33630232150529
30
0
41
1
10
49.13224549849
20
-7.33744808955677
30
0
41
1
10
49.8334976836191
20
-7.33765547143366
30
0
41
1
10
50.4996411436292
20
-7.3382325197671
30
0
41
1
10
51.1726984790238
20
-7.33837389992559
30
0
41
1
10
51.7990117406512
20
-7.33924956288476
30
0
41
1
10
52.345085853955
20
-7.33959771617279
30
0
41
1
10
52.8145297467701
20
-7.33972419432186
30
0
41
1
10
53.2998735831133
20
-7.33957791034567
30
0
41
1
10
53.8558819683213
20
-7.33990871631843
30
0
41
1
10
54.5075020723773
20
-7.34077174109274
30
0
41
1
10
55.1590999252701
20
-7.34076972512932
30
0
41
1
10
55.7710240107397
20
-7.34090112459734
30
0
41
1
10
56.4047227017014
20
-7.34147136157958
30
0
41
1
10
57.1587609689566
20
-7.34225828340425
30
0
41
1
10
57.969648959075
20
-7.34199012062487
30
0
41
1
10
58.793674628994
20
-7.34250346177467
30
0
41
1
10
59.6783207304311
20
-7.34383086612405
30
0
41
1
10
60.5066396288776
20
-7.34336432943749
30
0
41
1
10
61.1949961468436
20
-7.34387767127461
30
0
41
1
10
61.6784905850147
20
-7.34474181649531
30
0
41
1
10
62.1392844224716
20
-7.34532857564963
30
0
41
1
10
62.6309467119028
20
-7.34464594407498
30
0
41
1
10
63.1798763787467
20
-7.34004274438047
30
0
41
1
10
63.8198297807031
20
-7.34264071588845
30
0
41
1
10
64.2511895523882
20
-7.34439188199468
30
0
41
1
10
64.4731980988462
20
-7.34582913368138
30
0
0
SPLINE
5
FD
100
AcDbEntity
8
1
62
256
6
ByLayer
370
18
48
1
60
0
100
AcDbSpline
70
4
71
3
72
32
73
28
40
0
40
0
40
0
40
0
40
0.0501807643008876
40
0.0964830944178675
40
0.135936254975123
40
0.171687750874238
40
0.204208441846121
40
0.234813880703189
40
0.273967992050609
40
0.323367197780722
40
0.373389656538922
40
0.418020754221601
40
0.459002402481517
40
0.506926119091483
40
0.558486765618022
40
0.59964213295273
40
0.629956266670726
40
0.659120191039484
40
0.700574457431441
40
0.743869289241502
40
0.780897933253745
40
0.811685846208641
40
0.839928649391345
40
0.884869738423731
40
0.932433003281872
40
0.985942469309817
40
1
40
1
40
1
40
1
41
1
10
64.4729170508526
20
7.3458293692706
30
0
41
1
10
64.2514469320387
20
7.34439809286593
30
0
41
1
10
63.8210082125312
20
7.34265157070902
30
0
41
1
10
63.1823673180429
20
7.34003106740042
30
0
41
1
10
62.6341734587873
20
7.34462592789984
30
0
41
1
10
62.143270305102
20
7.34532804617447
30
0
41
1
10
61.6862757630702
20
7.34475642923528
30
0
41
1
10
61.2120421479746
20
7.34390230305624
30
0
41
1
10
60.660026519828
20
7.34347469376709
30
0
41
1
10
60.0178797835409
20
7.34357735929984
30
0
41
1
10
59.3503790538518
20
7.34344032260174
30
0
41
1
10
58.7219962100208
20
7.34244562042369
30
0
41
1
10
58.1033282318708
20
7.34207583911788
30
0
41
1
10
57.452411849027
20
7.34212989495293
30
0
41
1
10
56.8008128180351
20
7.34200844202346
30
0
41
1
10
56.2307873483254
20
7.34126356321696
30
0
41
1
10
55.7644938309452
20
7.34093058239446
30
0
41
1
10
55.2968089660607
20
7.34079143237906
30
0
41
1
10
54.7689857421888
20
7.34076076311266
30
0
41
1
10
54.2047085559307
20
7.34047272049321
30
0
41
1
10
53.6898562130508
20
7.33972239310356
30
0
41
1
10
53.2447572192917
20
7.33961927157418
30
0
41
1
10
52.7629931264073
20
7.33972087810045
30
0
41
1
10
52.2034692151359
20
7.33956947865258
30
0
41
1
10
51.5270021110059
20
7.33890938702754
30
0
41
1
10
50.9932055264977
20
7.3383430794091
30
0
41
1
10
50.6804916079281
20
7.338185899563
30
0
41
1
10
50.6154357807911
20
7.33815711871137
30
0
0
LINE
5
7D
100
AcDbEntity
8
SK1
62
256
6
ByLayer
370
13
48
1
60
0
100
AcDbLine
10
-47.7
20
1.880809
30
0
11
-47.7
21
1.116436
31
0
39
0
210
0
220
0
230
1
0
LINE
5
7F
100
AcDbEntity
8
SK1
62
256
6
ByLayer
370
18
48
1
60
0
100
AcDbLine
10
-50
20
1.78039
30
0
11
-50
21
1.216855
31
0
39
0
210
0
220
0
230
1
0
LINE
5
80
100
AcDbEntity
8
SK1
62
256
6
ByLayer
370
18
48
1
60
0
100
AcDbLine
10
-46.745
20
10
30
0
11
-46.745
21
-10
31
0
39
0
210
0
220
0
230
1
0
LINE
5
81
100
AcDbEntity
8
SK1
62
256
6
ByLayer
370
18
48
1
60
0
100
AcDbLine
10
-50
20
6.745
30
0
11
-50
21
1.78039
31
0
39
0
210
0
220
0
230
1
0
LINE
5
82
100
AcDbEntity
8
SK1
62
256
6
ByLayer
370
18
48
1
60
0
100
AcDbLine
10
-50
20
-1.216855
30
0
11
-50
21
-6.745
31
0
39
0
210
0
220
0
230
1
0
LINE
5
83
100
AcDbEntity
8
SK1
62
256
6
ByLayer
370
18
48
1
60
0
100
AcDbLine
10
-47.6
20
-1.011495
30
0
11
-47.6
21
1.785933
31
0
39
0
210
0
220
0
230
1
0
LINE
5
84
100
AcDbEntity
8
SK1
62
256
6
ByLayer
370
18
48
1
60
0
100
AcDbLine
10
0
20
-10
30
0
11
0
21
10
31
0
39
0
210
0
220
0
230
1
0
LINE
5
85
100
AcDbEntity
8
1
62
256
6
ByLayer
370
18
48
1
60
0
100
AcDbLine
10
0
20
-10
30
0
11
0
21
10
31
0
39
0
210
0
220
0
230
1
0
LINE
5
86
100
AcDbEntity
8
1
62
256
6
ByLayer
370
13
48
1
60
0
100
AcDbLine
10
89.381947
20
1.78447
30
0
11
91.989152
21
0.134047
31
0
39
0
210
0
220
0
230
1
0
LINE
5
87
100
AcDbEntity
8
1
62
256
6
ByLayer
370
13
48
1
60
0
100
AcDbLine
10
89.221569
20
1.646766
30
0
11
91.950453
21
-0.080683
31
0
39
0
210
0
220
0
230
1
0
LINE
5
88
100
AcDbEntity
8
80
62
256
6
ByLayer
370
18
48
1
60
0
100
AcDbLine
10
0
20
0
30
0
11
-5
21
0
31
0
39
0
210
0
220
0
230
1
0
LINE
5
89
100
AcDbEntity
8
SK4
62
256
6
ByLayer
370
18
48
0.05
60
0
100
AcDbLine
10
97
20
0
30
0
11
-55
21
0
31
0
39
0
210
0
220
0
230
1
0
LINE
5
8B
100
AcDbEntity
8
4
62
256
6
ByLayer
370
18
48
0.05
60
0
100
AcDbLine
10
92
20
0
30
0
11
0
21
0
31
0
39
0
210
0
220
0
230
1
0
LINE
5
8D
100
AcDbEntity
8
SK1
62
256
6
ByLayer
370
18
48
1
60
0
100
AcDbLine
10
-50
20
-6.745
30
0
11
-46.745
21
-10
31
0
39
0
210
0
220
0
230
1
0
LINE
5
8E
100
AcDbEntity
8
SK1
62
256
6
ByLayer
370
18
48
1
60
0
100
AcDbLine
10
-46.745
20
10
30
0
11
-50
21
6.745
31
0
39
0
210
0
220
0
230
1
0
LINE
5
8F
100
AcDbEntity
8
SK1
62
256
6
ByLayer
370
18
48
1
60
0
100
AcDbLine
10
0
20
10
30
0
11
-46.745
21
10
31
0
39
0
210
0
220
0
230
1
0
LINE
5
90
100
AcDbEntity
8
SK1
62
256
6
ByLayer
370
18
48
1
60
0
100
AcDbLine
10
-46.745
20
-10
30
0
11
0
21
-10
31
0
39
0
210
0
220
0
230
1
0
LINE
5
91
100
AcDbEntity
8
1
62
256
6
ByLayer
370
18
48
1
60
0
100
AcDbLine
10
22.940594
20
10
30
0
11
0
21
10
31
0
39
0
210
0
220
0
230
1
0
LINE
5
92
100
AcDbEntity
8
1
62
256
6
ByLayer
370
18
48
1
60
0
100
AcDbLine
10
0
20
-10
30
0
11
22.940594
21
-10
31
0
39
0
210
0
220
0
230
1
0
LINE
5
93
100
AcDbEntity
8
1
62
256
6
ByLayer
370
18
48
1
60
0
100
AcDbLine
10
44.324753
20
-7.721655
30
0
11
46.500558
21
-7.723015
31
0
39
0
210
0
220
0
230
1
0
LINE
5
94
100
AcDbEntity
8
1
62
256
6
ByLayer
370
18
48
1
60
0
100
AcDbLine
10
88.651147
20
7.749359
30
0
11
86.476872
21
7.748
31
0
39
0
210
0
220
0
230
1
0
LINE
5
95
100
AcDbEntity
8
1
62
256
6
ByLayer
370
18
48
1
60
0
100
AcDbLine
10
86.476872
20
-7.748
30
0
11
88.651147
21
-7.749359
31
0
39
0
210
0
220
0
230
1
0
LINE
5
96
100
AcDbEntity
8
1
62
256
6
ByLayer
370
18
48
1
60
0
100
AcDbLine
10
46.500558
20
7.723015
30
0
11
44.324753
21
7.721655
31
0
39
0
210
0
220
0
230
1
0
LINE
5
97
100
AcDbEntity
8
81
62
256
6
ByLayer
370
18
48
1
60
0
100
AcDbLine
10
92
20
0
30
0
11
97
21
0
31
0
39
0
210
0
220
0
230
1
0
LINE
5
98
100
AcDbEntity
8
2
62
256
6
ByLayer
370
13
48
1
60
0
100
AcDbLine
10
114.236431
20
-10
30
0
11
114.236431
21
38.320813
31
0
39
0
210
0
220
0
230
1
0
LINE
5
9A
100
AcDbEntity
8
2
62
256
6
ByLayer
370
13
48
1
60
0
100
AcDbLine
10
42.5246
20
10
30
0
11
116.236431
21
10
31
0
39
0
210
0
220
0
230
1
0
LINE
5
9B
100
AcDbEntity
8
2
62
256
6
ByLayer
370
13
48
1
60
0
100
AcDbLine
10
42.5246
20
-10
30
0
11
116.236431
21
-10
31
0
39
0
210
0
220
0
230
1
0
LINE
5
9C
100
AcDbEntity
8
1
62
256
6
ByLayer
370
18
48
1
60
1
100
AcDbLine
10
114.236431
20
10
30
0
11
114.697214
21
6.500002
31
0
39
0
210
0
220
0
230
1
0
LINE
5
9D
100
AcDbEntity
8
1
62
256
6
ByLayer
370
18
48
1
60
1
100
AcDbLine
10
114.697214
20
6.500002
30
0
11
113.775647
21
6.499998
31
0
39
0
210
0
220
0
230
1
0
LINE
5
9E
100
AcDbEntity
8
1
62
256
6
ByLayer
370
18
48
1
60
1
100
AcDbLine
10
113.775647
20
6.499998
30
0
11
114.236431
21
10
31
0
39
0
210
0
220
0
230
1
0
LINE
5
9F
100
AcDbEntity
8
1
62
256
6
ByLayer
370
18
48
1
60
1
100
AcDbLine
10
114.236431
20
-10
30
0
11
113.775647
21
-6.500002
31
0
39
0
210
0
220
0
230
1
0
LINE
5
A0
100
AcDbEntity
8
1
62
256
6
ByLayer
370
18
48
1
60
1
100
AcDbLine
10
113.775647
20
-6.500002
30
0
11
114.697214
21
-6.499998
31
0
39
0
210
0
220
0
230
1
0
LINE
5
A1
100
AcDbEntity
8
1
62
256
6
ByLayer
370
18
48
1
60
1
100
AcDbLine
10
114.697214
20
-6.499998
30
0
11
114.236431
21
-10
31
0
39
0
210
0
220
0
230
1
0
LINE
5
A2
100
AcDbEntity
8
SK2
62
256
6
ByLayer
370
13
48
1
60
0
100
AcDbLine
10
-58.625163
20
-10
30
0
11
-58.625163
21
41.732039
31
0
39
0
210
0
220
0
230
1
0
LINE
5
A4
100
AcDbEntity
8
SK2
62
256
6
ByLayer
370
13
48
1
60
0
100
AcDbLine
10
-51.5875
20
10
30
0
11
-60.625163
21
10
31
0
39
0
210
0
220
0
230
1
0
LINE
5
A5
100
AcDbEntity
8
SK2
62
256
6
ByLayer
370
13
48
1
60
0
100
AcDbLine
10
-51.5875
20
-10
30
0
11
-60.625163
21
-10
31
0
39
0
210
0
220
0
230
1
0
LINE
5
A6
100
AcDbEntity
8
1
62
256
6
ByLayer
370
18
48
1
60
1
100
AcDbLine
10
-58.625163
20
10
30
0
11
-58.164379
21
6.500002
31
0
39
0
210
0
220
0
230
1
0
LINE
5
A7
100
AcDbEntity
8
1
62
256
6
ByLayer
370
18
48
1
60
1
100
AcDbLine
10
-58.164379
20
6.500002
30
0
11
-59.085946
21
6.499998
31
0
39
0
210
0
220
0
230
1
0
LINE
5
A8
100
AcDbEntity
8
1
62
256
6
ByLayer
370
18
48
1
60
1
100
AcDbLine
10
-59.085946
20
6.499998
30
0
11
-58.625163
21
10
31
0
39
0
210
0
220
0
230
1
0
LINE
5
A9
100
AcDbEntity
8
1
62
256
6
ByLayer
370
18
48
1
60
1
100
AcDbLine
10
-58.625163
20
-10
30
0
11
-59.085946
21
-6.500002
31
0
39
0
210
0
220
0
230
1
0
LINE
5
AA
100
AcDbEntity
8
1
62
256
6
ByLayer
370
18
48
1
60
1
100
AcDbLine
10
-59.085946
20
-6.500002
30
0
11
-58.164379
21
-6.499998
31
0
39
0
210
0
220
0
230
1
0
LINE
5
AB
100
AcDbEntity
8
1
62
256
6
ByLayer
370
18
48
1
60
1
100
AcDbLine
10
-58.164379
20
-6.499998
30
0
11
-58.625163
21
-10
31
0
39
0
210
0
220
0
230
1
0
LINE
5
AC
100
AcDbEntity
8
2
62
256
6
ByLayer
370
13
48
1
60
0
100
AcDbLine
10
105.970081
20
-7.75
30
0
11
105.970081
21
37.954896
31
0
39
0
210
0
220
0
230
1
0
LINE
5
AD
100
AcDbEntity
8
2
62
256
6
ByLayer
370
13
48
1
60
0
100
AcDbLine
10
91.2746
20
7.75
30
0
11
107.970081
21
7.75
31
0
39
0
210
0
220
0
230
1
0
LINE
5
AE
100
AcDbEntity
8
2
62
256
6
ByLayer
370
13
48
1
60
0
100
AcDbLine
10
91.2746
20
-7.75
30
0
11
107.970081
21
-7.75
31
0
39
0
210
0
220
0
230
1
0
LINE
5
AF
100
AcDbEntity
8
1
62
256
6
ByLayer
370
18
48
1
60
1
100
AcDbLine
10
105.970081
20
7.75
30
0
11
106.430865
21
4.250002
31
0
39
0
210
0
220
0
230
1
0
LINE
5
B0
100
AcDbEntity
8
1
62
256
6
ByLayer
370
18
48
1
60
1
100
AcDbLine
10
106.430865
20
4.250002
30
0
11
105.509297
21
4.249998
31
0
39
0
210
0
220
0
230
1
0
LINE
5
B1
100
AcDbEntity
8
1
62
256
6
ByLayer
370
18
48
1
60
1
100
AcDbLine
10
105.509297
20
4.249998
30
0
11
105.970081
21
7.75
31
0
39
0
210
0
220
0
230
1
0
LINE
5
B2
100
AcDbEntity
8
1
62
256
6
ByLayer
370
18
48
1
60
1
100
AcDbLine
10
105.970081
20
-7.75
30
0
11
105.509297
21
-4.250002
31
0
39
0
210
0
220
0
230
1
0
LINE
5
B3
100
AcDbEntity
8
1
62
256
6
ByLayer
370
18
48
1
60
1
100
AcDbLine
10
105.509297
20
-4.250002
30
0
11
106.430865
21
-4.249998
31
0
39
0
210
0
220
0
230
1
0
LINE
5
B4
100
AcDbEntity
8
1
62
256
6
ByLayer
370
18
48
1
60
1
100
AcDbLine
10
106.430865
20
-4.249998
30
0
11
105.970081
21
-7.75
31
0
39
0
210
0
220
0
230
1
0
LINE
5
B5
100
AcDbEntity
8
SK2
62
256
6
ByLayer
370
13
48
1
60
0
100
AcDbLine
10
39.814568
20
-11.122532
30
0
11
33.220257
21
-17.716843
31
0
39
0
210
0
220
0
230
1
0
LINE
5
B6
100
AcDbEntity
8
SK2
62
256
6
ByLayer
370
13
48
1
60
0
100
AcDbLine
10
39.814568
20
11.122532
30
0
11
33.220257
21
17.716843
31
0
39
0
210
0
220
0
230
1
0
LINE
5
B7
100
AcDbEntity
8
1
62
256
6
ByLayer
370
18
48
1
60
1
100
AcDbLine
10
34.634471
20
-16.302629
30
0
11
31.917169
21
-14.049058
31
0
39
0
210
0
220
0
230
1
0
LINE
5
B8
100
AcDbEntity
8
1
62
256
6
ByLayer
370
18
48
1
60
1
100
AcDbLine
10
31.917169
20
-14.049058
30
0
11
32.593024
21
-13.422554
31
0
39
0
210
0
220
0
230
1
0
LINE
5
B9
100
AcDbEntity
8
1
62
256
6
ByLayer
370
18
48
1
60
1
100
AcDbLine
10
32.593024
20
-13.422554
30
0
11
34.634471
21
-16.302629
31
0
39
0
210
0
220
0
230
1
0
LINE
5
BA
100
AcDbEntity
8
1
62
256
6
ByLayer
370
18
48
1
60
1
100
AcDbLine
10
34.634471
20
16.302629
30
0
11
32.593027
21
13.422557
31
0
39
0
210
0
220
0
230
1
0
LINE
5
BB
100
AcDbEntity
8
1
62
256
6
ByLayer
370
18
48
1
60
1
100
AcDbLine
10
32.593027
20
13.422557
30
0
11
31.917167
21
14.049056
31
0
39
0
210
0
220
0
230
1
0
LINE
5
BC
100
AcDbEntity
8
1
62
256
6
ByLayer
370
18
48
1
60
1
100
AcDbLine
10
31.917167
20
14.049056
30
0
11
34.634471
21
16.302629
31
0
39
0
210
0
220
0
230
1
0
LINE
5
104
100
AcDbEntity
8
1
62
256
6
ByLayer
370
18
48
1
60
1
100
AcDbLine
10
114.236431
20
10
30
0
11
114.697214
21
6.500002
31
0
39
0
210
0
220
0
230
1
0
LINE
5
105
100
AcDbEntity
8
1
62
256
6
ByLayer
370
18
48
1
60
1
100
AcDbLine
10
114.697214
20
6.500002
30
0
11
113.775647
21
6.499998
31
0
39
0
210
0
220
0
230
1
0
LINE
5
106
100
AcDbEntity
8
1
62
256
6
ByLayer
370
18
48
1
60
1
100
AcDbLine
10
113.775647
20
6.499998
30
0
11
114.236431
21
10
31
0
39
0
210
0
220
0
230
1
0
LINE
5
108
100
AcDbEntity
8
1
62
256
6
ByLayer
370
18
48
1
60
1
100
AcDbLine
10
114.236431
20
-10
30
0
11
113.775647
21
-6.500002
31
0
39
0
210
0
220
0
230
1
0
LINE
5
109
100
AcDbEntity
8
1
62
256
6
ByLayer
370
18
48
1
60
1
100
AcDbLine
10
113.775647
20
-6.500002
30
0
11
114.697214
21
-6.499998
31
0
39
0
210
0
220
0
230
1
0
LINE
5
10A
100
AcDbEntity
8
1
62
256
6
ByLayer
370
18
48
1
60
1
100
AcDbLine
10
114.697214
20
-6.499998
30
0
11
114.236431
21
-10
31
0
39
0
210
0
220
0
230
1
0
LINE
5
10E
100
AcDbEntity
8
1
62
256
6
ByLayer
370
18
48
1
60
1
100
AcDbLine
10
-58.625163
20
10
30
0
11
-58.164379
21
6.500002
31
0
39
0
210
0
220
0
230
1
0
LINE
5
10F
100
AcDbEntity
8
1
62
256
6
ByLayer
370
18
48
1
60
1
100
AcDbLine
10
-58.164379
20
6.500002
30
0
11
-59.085946
21
6.499998
31
0
39
0
210
0
220
0
230
1
0
LINE
5
110
100
AcDbEntity
8
1
62
256
6
ByLayer
370
18
48
1
60
1
100
AcDbLine
10
-59.085946
20
6.499998
30
0
11
-58.625163
21
10
31
0
39
0
210
0
220
0
230
1
0
LINE
5
112
100
AcDbEntity
8
1
62
256
6
ByLayer
370
18
48
1
60
1
100
AcDbLine
10
-58.625163
20
-10
30
0
11
-59.085946
21
-6.500002
31
0
39
0
210
0
220
0
230
1
0
LINE
5
113
100
AcDbEntity
8
1
62
256
6
ByLayer
370
18
48
1
60
1
100
AcDbLine
10
-59.085946
20
-6.500002
30
0
11
-58.164379
21
-6.499998
31
0
39
0
210
0
220
0
230
1
0
LINE
5
114
100
AcDbEntity
8
1
62
256
6
ByLayer
370
18
48
1
60
1
100
AcDbLine
10
-58.164379
20
-6.499998
30
0
11
-58.625163
21
-10
31
0
39
0
210
0
220
0
230
1
0
LINE
5
118
100
AcDbEntity
8
1
62
256
6
ByLayer
370
18
48
1
60
1
100
AcDbLine
10
105.970081
20
7.75
30
0
11
106.430865
21
4.250002
31
0
39
0
210
0
220
0
230
1
0
LINE
5
119
100
AcDbEntity
8
1
62
256
6
ByLayer
370
18
48
1
60
1
100
AcDbLine
10
106.430865
20
4.250002
30
0
11
105.509297
21
4.249998
31
0
39
0
210
0
220
0
230
1
0
LINE
5
11A
100
AcDbEntity
8
1
62
256
6
ByLayer
370
18
48
1
60
1
100
AcDbLine
10
105.509297
20
4.249998
30
0
11
105.970081
21
7.75
31
0
39
0
210
0
220
0
230
1
0
LINE
5
11C
100
AcDbEntity
8
1
62
256
6
ByLayer
370
18
48
1
60
1
100
AcDbLine
10
105.970081
20
-7.75
30
0
11
105.509297
21
-4.250002
31
0
39
0
210
0
220
0
230
1
0
LINE
5
11D
100
AcDbEntity
8
1
62
256
6
ByLayer
370
18
48
1
60
1
100
AcDbLine
10
105.509297
20
-4.250002
30
0
11
106.430865
21
-4.249998
31
0
39
0
210
0
220
0
230
1
0
LINE
5
11E
100
AcDbEntity
8
1
62
256
6
ByLayer
370
18
48
1
60
1
100
AcDbLine
10
106.430865
20
-4.249998
30
0
11
105.970081
21
-7.75
31
0
39
0
210
0
220
0
230
1
0
LINE
5
121
100
AcDbEntity
8
1
62
256
6
ByLayer
370
18
48
1
60
1
100
AcDbLine
10
34.634471
20
-16.302629
30
0
11
31.917169
21
-14.049058
31
0
39
0
210
0
220
0
230
1
0
LINE
5
122
100
AcDbEntity
8
1
62
256
6
ByLayer
370
18
48
1
60
1
100
AcDbLine
10
31.917169
20
-14.049058
30
0
11
32.593024
21
-13.422554
31
0
39
0
210
0
220
0
230
1
0
LINE
5
123
100
AcDbEntity
8
1
62
256
6
ByLayer
370
18
48
1
60
1
100
AcDbLine
10
32.593024
20
-13.422554
30
0
11
34.634471
21
-16.302629
31
0
39
0
210
0
220
0
230
1
0
LINE
5
125
100
AcDbEntity
8
1
62
256
6
ByLayer
370
18
48
1
60
1
100
AcDbLine
10
34.634471
20
16.302629
30
0
11
32.593027
21
13.422557
31
0
39
0
210
0
220
0
230
1
0
LINE
5
126
100
AcDbEntity
8
1
62
256
6
ByLayer
370
18
48
1
60
1
100
AcDbLine
10
32.593027
20
13.422557
30
0
11
31.917167
21
14.049056
31
0
39
0
210
0
220
0
230
1
0
LINE
5
127
100
AcDbEntity
8
1
62
256
6
ByLayer
370
18
48
1
60
1
100
AcDbLine
10
31.917167
20
14.049056
30
0
11
34.634471
21
16.302629
31
0
39
0
210
0
220
0
230
1
0
MTEXT
5
FE
100
AcDbEntity
8
SK6
62
256
6
ByLayer
370
13
48
1
60
0
100
AcDbMText
10
-8.145193
20
40.290328
30
0
210
0
220
0
230
1
1
\W0.7670;462.2-1550-050A1-XM X2BM
40
3.5
41
0
44
1.084337
50
0
71
7
72
5
7
iso_b_vert
0
MTEXT
5
102
100
AcDbEntity
8
2
62
256
6
ByLayer
370
18
48
1
60
0
100
AcDbMText
10
112.671797
20
19.997798
30
0
210
0
220
0
230
1
1
%%c
40
3.5
41
0
44
1.084337
50
90
71
7
72
5
7
iso_b_vert
0
MTEXT
5
103
100
AcDbEntity
8
2
62
256
6
ByLayer
370
18
48
1
60
0
100
AcDbMText
10
112.671797
20
25.220454
30
0
210
0
220
0
230
1
1
\W0.7421;20,000
40
3.5
41
0
44
1.084337
50
90
71
7
72
5
7
iso_b_vert
0
MTEXT
5
10C
100
AcDbEntity
8
SK2
62
256
6
ByLayer
370
18
48
1
60
0
100
AcDbMText
10
-60.189796
20
23.409024
30
0
210
0
220
0
230
1
1
%%c
40
3.5
41
0
44
1.084337
50
90
71
7
72
5
7
iso_b_vert
0
MTEXT
5
10D
100
AcDbEntity
8
SK2
62
256
6
ByLayer
370
18
48
1
60
0
100
AcDbMText
10
-60.189796
20
28.63168
30
0
210
0
220
0
230
1
1
\W0.7421;20,000
40
3.5
41
0
44
1.084337
50
90
71
7
72
5
7
iso_b_vert
0
MTEXT
5
116
100
AcDbEntity
8
2
62
256
6
ByLayer
370
18
48
1
60
0
100
AcDbMText
10
104.405448
20
20.506747
30
0
210
0
220
0
230
1
1
%%c
40
3.5
41
0
44
1.084337
50
90
71
7
72
5
7
iso_b_vert
0
MTEXT
5
117
100
AcDbEntity
8
2
62
256
6
ByLayer
370
18
48
1
60
0
100
AcDbMText
10
104.405448
20
25.729403
30
0
210
0
220
0
230
1
1
\W0.6930;15,500
40
3.5
41
0
44
1.084337
50
90
71
7
72
5
7
iso_b_vert
0
MTEXT
5
120
100
AcDbEntity
8
SK2
62
256
6
ByLayer
370
13
48
1
60
0
100
AcDbMText
10
23.043975
20
-0.291663
30
0
210
0
220
0
230
1
1
\W0.8181;90,0%%d
40
3.5
41
0
44
1.084337
50
0
71
7
72
5
7
iso_b_vert
0
HATCH
5
107
100
AcDbEntity
8
2
62
256
6
ByLayer
370
13
48
1
60
0
100
AcDbHatch
10
0
20
0
30
0
210
0
220
0
230
1
2
ANSI31
70
0
71
0
91
1
92
5
93
3
72
1
10
114.236430604616
20
10
11
114.697214346169
21
6.50000169255318
72
1
10
114.697214346169
20
6.50000169255318
11
113.775646863064
21
6.49999830744682
72
1
10
113.775646863064
20
6.49999830744682
11
114.236430604616
21
10
97
0
75
0
76
1
52
0
41
0.0062
77
0
78
1
53
45
43
0
44
0
45
-0.0139193969876572
46
0.0139193969876572
79
0
47
0
98
1
10
0
20
0
0
HATCH
5
10B
100
AcDbEntity
8
2
62
256
6
ByLayer
370
13
48
1
60
0
100
AcDbHatch
10
0
20
0
30
0
210
0
220
0
230
1
2
ANSI31
70
0
71
0
91
1
92
5
93
3
72
1
10
114.236430604616
20
-9.99999999999997
11
113.775646863064
21
-6.50000169255316
72
1
10
113.775646863064
20
-6.50000169255316
11
114.697214346169
21
-6.49999830744679
72
1
10
114.697214346169
20
-6.49999830744679
11
114.236430604616
21
-9.99999999999997
97
0
75
0
76
1
52
0
41
0.0062
77
0
78
1
53
45
43
0
44
0
45
-0.0139193969876572
46
0.0139193969876572
79
0
47
0
98
1
10
0
20
0
0
HATCH
5
111
100
AcDbEntity
8
SK2
62
256
6
ByLayer
370
13
48
1
60
0
100
AcDbHatch
10
0
20
0
30
0
210
0
220
0
230
1
2
ANSI31
70
0
71
0
91
1
92
5
93
3
72
1
10
-58.6251625675374
20
10
11
-58.1643788259847
21
6.50000169255318
72
1
10
-58.1643788259847
20
6.50000169255318
11
-59.0859463090902
21
6.49999830744682
72
1
10
-59.0859463090902
20
6.49999830744682
11
-58.6251625675374
21
10
97
0
75
0
76
1
52
0
41
0.0062
77
0
78
1
53
45
43
0
44
0
45
-0.0139193969876572
46
0.0139193969876572
79
0
47
0
98
1
10
0
20
0
0
HATCH
5
115
100
AcDbEntity
8
SK2
62
256
6
ByLayer
370
13
48
1
60
0
100
AcDbHatch
10
0
20
0
30
0
210
0
220
0
230
1
2
ANSI31
70
0
71
0
91
1
92
5
93
3
72
1
10
-58.6251625675374
20
-10
11
-59.0859463090902
21
-6.50000169255318
72
1
10
-59.0859463090902
20
-6.50000169255318
11
-58.1643788259847
21
-6.49999830744682
72
1
10
-58.1643788259847
20
-6.49999830744682
11
-58.6251625675374
21
-10
97
0
75
0
76
1
52
0
41
0.0062
77
0
78
1
53
45
43
0
44
0
45
-0.0139193969876572
46
0.0139193969876572
79
0
47
0
98
1
10
0
20
0
0
HATCH
5
11B
100
AcDbEntity
8
2
62
256
6
ByLayer
370
13
48
1
60
0
100
AcDbHatch
10
0
20
0
30
0
210
0
220
0
230
1
2
ANSI31
70
0
71
0
91
1
92
5
93
3
72
1
10
105.970081101161
20
7.75
11
106.430864842714
21
4.25000169255318
72
1
10
106.430864842714
20
4.25000169255318
11
105.509297359609
21
4.24999830744682
72
1
10
105.509297359609
20
4.24999830744682
11
105.970081101161
21
7.75
97
0
75
0
76
1
52
0
41
0.0062
77
0
78
1
53
45
43
0
44
0
45
-0.0139193969876572
46
0.0139193969876572
79
0
47
0
98
1
10
0
20
0
0
HATCH
5
11F
100
AcDbEntity
8
2
62
256
6
ByLayer
370
13
48
1
60
0
100
AcDbHatch
10
0
20
0
30
0
210
0
220
0
230
1
2
ANSI31
70
0
71
0
91
1
92
5
93
3
72
1
10
105.970081101161
20
-7.75
11
105.509297359609
21
-4.25000169255318
72
1
10
105.509297359609
20
-4.25000169255318
11
106.430864842714
21
-4.24999830744682
72
1
10
106.430864842714
20
-4.24999830744682
11
105.970081101161
21
-7.75
97
0
75
0
76
1
52
0
41
0.0062
77
0
78
1
53
45
43
0
44
0
45
-0.0139193969876572
46
0.0139193969876572
79
0
47
0
98
1
10
0
20
0
0
HATCH
5
124
100
AcDbEntity
8
SK2
62
256
6
ByLayer
370
13
48
1
60
0
100
AcDbHatch
10
0
20
0
30
0
210
0
220
0
230
1
2
ANSI31
70
0
71
0
91
1
92
5
93
3
72
1
10
34.6344709730774
20
-16.3026290269226
11
31.9171694711568
21
-14.0490580037973
72
1
10
31.9171694711568
20
-14.0490580037973
11
32.5930244340363
21
-13.4225544562575
72
1
10
32.5930244340363
20
-13.4225544562575
11
34.6344709730774
21
-16.3026290269226
97
0
75
0
76
1
52
0
41
0.0062
77
0
78
1
53
45
43
0
44
0
45
-0.0139193969876572
46
0.0139193969876572
79
0
47
0
98
1
10
0
20
0
0
HATCH
5
128
100
AcDbEntity
8
SK2
62
256
6
ByLayer
370
13
48
1
60
0
100
AcDbHatch
10
0
20
0
30
0
210
0
220
0
230
1
2
ANSI31
70
0
71
0
91
1
92
5
93
3
72
1
10
34.6344709730774
20
16.3026290269227
11
32.5930267353032
21
13.4225569388199
72
1
10
32.5930267353032
20
13.4225569388199
11
31.9171671698899
21
14.049055521235
72
1
10
31.9171671698899
20
14.049055521235
11
34.6344709730774
21
16.3026290269227
97
0
75
0
76
1
52
0
41
0.0062
77
0
78
1
53
45
43
0
44
0
45
-0.0139193969876572
46
0.0139193969876572
79
0
47
0
98
1
10
0
20
0
0
DIMENSION
5
12A
100
AcDbEntity
8
SK2
62
256
6
ByLayer
370
13
48
1
60
0
100
AcDbDimension
2
_U0
10
89.6871
20
-20.552503
30
0
11
44.84355
21
-20.552503
31
0
70
32
71
1
72
1
41
1
210
0
220
0
230
1
3
Standard
100
AcDbAlignedDimension
13
0
23
0
33
0
14
89.6871
24
-7.75
34
0
50
0
100
AcDbRotatedDimension
1001
ACAD
1000
DSTYLE
1002
{
1070
   371
1070
    13
1070
   372
1070
    13
1070
   170
1070
     0
1070
   144
1040
1.0
1070
   277
1070
     2
1070
   278
1070
    44
1070
   146
1040
1.0
1070
   345
1005
16
1070
   347
1005
16
1070
   346
1005
16
1070
   344
1005
0
1070
   343
1005
0
1070
   172
1070
     1
1070
    76
1070
     0
1070
    75
1070
     0
1070
   282
1070
     0
1070
   281
1070
     0
1070
    71
1070
     0
1070
    74
1070
     0
1070
   279
1070
     0
1070
   173
1070
     1
1070
   340
1005
FF
1070
   271
1070
     2
1070
   272
1070
     2
1070
    77
1070
     1
1070
    73
1070
     1
1070
   171
1070
     3
1070
   274
1070
     4
1070
   177
1070
    35
1070
   176
1070
    35
1070
   178
1070
    35
1070
    48
1040
-0.1
1070
    41
1040
3.5
1070
   147
1040
1.75
1070
    42
1040
1.5875
1070
    44
1040
2.0
1070
   140
1040
3.5
1002
}
1001
ACAD_DSTYLE_DIM_LINETYPE
1070
   380
1005
16
1001
ACAD_DSTYLE_DIM_EXT1_LINETYPE
1070
   381
1005
16
1001
ACAD_DSTYLE_DIM_EXT2_LINETYPE
1070
   382
1005
16
0
DIMENSION
5
143
100
AcDbEntity
8
SK2
62
256
6
ByLayer
370
13
48
1
60
0
100
AcDbDimension
2
_U1
10
92
20
-41.192985
30
0
11
21
21
-41.192985
31
0
70
32
71
1
72
1
41
1
210
0
220
0
230
1
3
Standard
100
AcDbAlignedDimension
13
-50
23
-10
33
0
14
92
24
0
34
0
50
0
100
AcDbRotatedDimension
1001
ACAD
1000
DSTYLE
1002
{
1070
   371
1070
    13
1070
   372
1070
    13
1070
   170
1070
     0
1070
   144
1040
1.0
1070
   277
1070
     2
1070
   278
1070
    44
1070
   146
1040
1.0
1070
   345
1005
16
1070
   347
1005
16
1070
   346
1005
16
1070
   344
1005
0
1070
   343
1005
0
1070
   172
1070
     1
1070
    76
1070
     0
1070
    75
1070
     0
1070
   282
1070
     0
1070
   281
1070
     0
1070
    71
1070
     0
1070
    74
1070
     0
1070
   279
1070
     0
1070
   173
1070
     1
1070
   340
1005
FF
1070
   271
1070
     2
1070
   272
1070
     2
1070
    77
1070
     1
1070
    73
1070
     1
1070
   171
1070
     3
1070
   274
1070
     4
1070
   177
1070
    35
1070
   176
1070
    35
1070
   178
1070
    35
1070
    48
1040
-0.1
1070
    41
1040
3.5
1070
   147
1040
1.75
1070
    42
1040
1.5875
1070
    44
1040
2.0
1070
   140
1040
3.5
1002
}
1001
ACAD_DSTYLE_DIM_LINETYPE
1070
   380
1005
16
1001
ACAD_DSTYLE_DIM_EXT1_LINETYPE
1070
   381
1005
16
1001
ACAD_DSTYLE_DIM_EXT2_LINETYPE
1070
   382
1005
16
0
DIMENSION
5
15B
100
AcDbEntity
8
SK2
62
256
6
ByLayer
370
13
48
1
60
0
100
AcDbDimension
2
_U2
10
92
20
19.359119
30
0
11
66.47
21
19.359119
31
0
70
32
71
1
72
1
41
1
210
0
220
0
230
1
3
Standard
100
AcDbAlignedDimension
13
40.94
23
10
33
0
14
92
24
0
34
0
50
0
100
AcDbRotatedDimension
1001
ACAD
1000
DSTYLE
1002
{
1070
   371
1070
    13
1070
   372
1070
    13
1070
   170
1070
     0
1070
   144
1040
1.0
1070
   277
1070
     2
1070
   278
1070
    44
1070
   146
1040
1.0
1070
   345
1005
16
1070
   347
1005
16
1070
   346
1005
16
1070
   344
1005
0
1070
   343
1005
0
1070
   172
1070
     1
1070
    76
1070
     0
1070
    75
1070
     0
1070
   282
1070
     0
1070
   281
1070
     0
1070
    71
1070
     0
1070
    74
1070
     0
1070
   279
1070
     0
1070
   173
1070
     1
1070
   340
1005
FF
1070
   271
1070
     2
1070
   272
1070
     2
1070
    77
1070
     1
1070
    73
1070
     1
1070
   171
1070
     3
1070
   274
1070
     4
1070
   177
1070
    35
1070
   176
1070
    35
1070
   178
1070
    35
1070
    48
1040
-0.1
1070
    41
1040
3.5
1070
   147
1040
1.75
1070
    42
1040
1.5875
1070
    44
1040
2.0
1070
   140
1040
3.5
1002
}
1001
ACAD_DSTYLE_DIM_LINETYPE
1070
   380
1005
16
1001
ACAD_DSTYLE_DIM_EXT1_LINETYPE
1070
   381
1005
16
1001
ACAD_DSTYLE_DIM_EXT2_LINETYPE
1070
   382
1005
16
0
DIMENSION
5
173
100
AcDbEntity
8
SK2
62
256
6
ByLayer
370
13
48
1
60
0
100
AcDbDimension
2
_U3
10
89.6871
20
-20.552503
30
0
11
109.083333
21
-20.552503
31
0
70
32
71
1
72
1
41
1
210
0
220
0
230
1
3
Standard
100
AcDbAlignedDimension
13
92
23
0
33
0
14
89.6871
24
-7.75
34
0
50
0
100
AcDbRotatedDimension
1001
ACAD
1000
DSTYLE
1002
{
1070
   371
1070
    13
1070
   372
1070
    13
1070
   170
1070
     0
1070
   144
1040
1.0
1070
   277
1070
     2
1070
   278
1070
    44
1070
   146
1040
1.0
1070
   345
1005
16
1070
   347
1005
16
1070
   346
1005
16
1070
   344
1005
0
1070
   343
1005
0
1070
   172
1070
     1
1070
    76
1070
     0
1070
    75
1070
     0
1070
   282
1070
     0
1070
   281
1070
     0
1070
    71
1070
     0
1070
    74
1070
     0
1070
   279
1070
     0
1070
   173
1070
     1
1070
   340
1005
FF
1070
   271
1070
     2
1070
   272
1070
     2
1070
    77
1070
     1
1070
    73
1070
     1
1070
   171
1070
     3
1070
   274
1070
     4
1070
   177
1070
    35
1070
   176
1070
    35
1070
   178
1070
    35
1070
    48
1040
-0.1
1070
    41
1040
3.5
1070
   147
1040
1.75
1070
    42
1040
1.5875
1070
    44
1040
2.0
1070
   140
1040
3.5
1002
}
1001
ACAD_DSTYLE_DIM_LINETYPE
1070
   380
1005
16
1001
ACAD_DSTYLE_DIM_EXT1_LINETYPE
1070
   381
1005
16
1001
ACAD_DSTYLE_DIM_EXT2_LINETYPE
1070
   382
1005
16
0
DIMENSION
5
18D
100
AcDbEntity
8
SK2
62
256
6
ByLayer
370
13
48
1
60
0
100
AcDbDimension
2
_U4
10
43.1871
20
11.885371
30
0
11
66.4371
21
11.885371
31
0
70
32
71
1
72
1
41
1
210
0
220
0
230
1
3
Standard
100
AcDbAlignedDimension
13
89.6871
23
7.75
33
0
14
43.1871
24
7.75
34
0
50
0
100
AcDbRotatedDimension
1001
ACAD
1000
DSTYLE
1002
{
1070
   371
1070
    13
1070
   372
1070
    13
1070
   170
1070
     0
1070
   144
1040
1.0
1070
   277
1070
     2
1070
   278
1070
    44
1070
   146
1040
1.0
1070
   345
1005
16
1070
   347
1005
16
1070
   346
1005
16
1070
   344
1005
0
1070
   343
1005
0
1070
   172
1070
     1
1070
    76
1070
     0
1070
    75
1070
     0
1070
   282
1070
     0
1070
   281
1070
     0
1070
    71
1070
     0
1070
    74
1070
     0
1070
   279
1070
     0
1070
   173
1070
     1
1070
   340
1005
FF
1070
   271
1070
     2
1070
   272
1070
     2
1070
    77
1070
     1
1070
    73
1070
     1
1070
   171
1070
     3
1070
   274
1070
     4
1070
   177
1070
    35
1070
   176
1070
    35
1070
   178
1070
    35
1070
    48
1040
-0.1
1070
    41
1040
3.5
1070
   147
1040
1.75
1070
    42
1040
1.5875
1070
    44
1040
2.0
1070
   140
1040
3.5
1002
}
1001
ACAD_DSTYLE_DIM_LINETYPE
1070
   380
1005
16
1001
ACAD_DSTYLE_DIM_EXT1_LINETYPE
1070
   381
1005
16
1001
ACAD_DSTYLE_DIM_EXT2_LINETYPE
1070
   382
1005
16
0
DIMENSION
5
1A5
100
AcDbEntity
8
SK2
62
256
6
ByLayer
370
13
48
1
60
0
100
AcDbDimension
2
_U5
10
89.6871
20
-30.690158
30
0
11
19.84355
21
-30.690158
31
0
70
32
71
1
72
1
41
1
210
0
220
0
230
1
3
Standard
100
AcDbAlignedDimension
13
-50
23
-10
33
0
14
89.6871
24
-7.75
34
0
50
0
100
AcDbRotatedDimension
1001
ACAD
1000
DSTYLE
1002
{
1070
   371
1070
    13
1070
   372
1070
    13
1070
   170
1070
     0
1070
   144
1040
1.0
1070
   277
1070
     2
1070
   278
1070
    44
1070
   146
1040
1.0
1070
   345
1005
16
1070
   347
1005
16
1070
   346
1005
16
1070
   344
1005
0
1070
   343
1005
0
1070
   172
1070
     1
1070
    76
1070
     0
1070
    75
1070
     0
1070
   282
1070
     0
1070
   281
1070
     0
1070
    71
1070
     0
1070
    74
1070
     0
1070
   279
1070
     0
1070
   173
1070
     1
1070
   340
1005
FF
1070
   271
1070
     2
1070
   272
1070
     2
1070
    77
1070
     1
1070
    73
1070
     1
1070
   171
1070
     3
1070
   274
1070
     4
1070
   177
1070
    35
1070
   176
1070
    35
1070
   178
1070
    35
1070
    48
1040
-0.1
1070
    41
1040
3.5
1070
   147
1040
1.75
1070
    42
1040
1.5875
1070
    44
1040
2.0
1070
   140
1040
3.5
1002
}
1001
ACAD_DSTYLE_DIM_LINETYPE
1070
   380
1005
16
1001
ACAD_DSTYLE_DIM_EXT1_LINETYPE
1070
   381
1005
16
1001
ACAD_DSTYLE_DIM_EXT2_LINETYPE
1070
   382
1005
16
0
ENDSEC
0
SECTION
2
OBJECTS
0
DICTIONARY
5
22d
330
0
100
AcDbDictionary
280
0
281
1
3
ACAD_GROUP
350
22e
3
ACAD_MLINESTYLE
350
22f
0
DICTIONARY
5
22e
330
0
100
AcDbDictionary
280
0
281
1
0
DICTIONARY
5
22f
330
0
100
AcDbDictionary
280
0
281
1
3
Standard
350
18
0
MLINESTYLE
5
18
330
22f
100
AcDbMlineStyle
2
Standard
70
0
3

62
256
51
90
52
90
71
2
49
-0.5
62
256
6
ByLayer
49
0.5
62
256
6
ByLayer
0
RASTERVARIABLES
5
21b
330

100
AcDbRasterVariables
90
0
70
1
71
1
72
1
0
ENDSEC
0
EOF
