0
SECTION
2
HEADER
9
$ACADVER
1
AC1015
9
$DWGCODEPAGE
3
ANSI_1252
9
$HANDSEED
5
248
9
$ANGBASE
50
0
9
$ANGDIR
70
0
9
$ATTMODE
70
1
9
$AUNITS
70
0
9
$AUPREC
70
0
9
$CECOLOR
62
256
9
$CELTSCALE
40
1
9
$CELTYPE
6
ByLayer
9
$CELWEIGHT
370
18
9
$CLAYER
8
0
9
$CMLJUST
70
0
9
$CMLSCALE
40
1
9
$CMLSTYLE
2
Standard
9
$DIMSTYLE
2
Standard
9
$TEXTSIZE
40
0.2
9
$TEXTSTYLE
7
Standard
9
$LUNITS
70
2
9
$LUPREC
70
4
9
$EXTNAMES
290
1
9
$INSUNITS
70
4
9
$LTSCALE
40
1
9
$LWDISPLAY
290
1
9
$PDMODE
70
0
9
$PDSIZE
40
0
9
$PLINEGEN
70
0
0
ENDSEC
0
SECTION
2
CLASSES
0
CLASS
1
RASTERVARIABLES
2
AcDbRasterVariables
3
ISM
90
0
280
0
281
0
0
ENDSEC
0
SECTION
2
TABLES
0
TABLE
2
VPORT
5
23e
100
AcDbSymbolTable
0
VPORT
5
1
100
AcDbSymbolTableRecord
100
AcDbViewportTableRecord
2
*Active
70
0
10
0
20
0
11
1
21
1
12
-1
22
1
13
0
23
0
14
0.5
24
0.5
15
10
25
10
16
0
26
0
36
1
17
0
27
0
37
0
0
ENDTAB
0
TABLE
2
LTYPE
5
23f
100
AcDbSymbolTable
0
LTYPE
5
14
100
AcDbSymbolTableRecord
100
AcDbLinetypeTableRecord
70
0
2
ByBlock
3

72
65
73
0
40
0
0
LTYPE
5
15
100
AcDbSymbolTableRecord
100
AcDbLinetypeTableRecord
70
0
2
ByLayer
3

72
65
73
0
40
0
0
LTYPE
5
16
100
AcDbSymbolTableRecord
100
AcDbLinetypeTableRecord
70
0
2
Continuous
3
Solid line
72
65
73
0
40
0
0
LTYPE
5
6E
100
AcDbSymbolTableRecord
100
AcDbLinetypeTableRecord
70
0
2
CENTER
3
____ _ ____ _ ____ _ ____
72
65
73
4
40
47.5
49
22
74
0
49
-8.5
74
0
49
8.5
74
0
49
-8.5
74
0
0
LTYPE
5
6F
100
AcDbSymbolTableRecord
100
AcDbLinetypeTableRecord
70
0
2
DASHED
3
__ __ __ __ __ __ __ __ __
72
65
73
2
40
25.72
49
12.86
74
0
49
-12.86
74
0
0
ENDTAB
0
TABLE
2
LAYER
5
240
100
AcDbSymbolTable
0
LAYER
5
10
100
AcDbSymbolTableRecord
100
AcDbLayerTableRecord
2
0
70
0
62
7
6
Continuous
290
1
370
-3
390
0
0
LAYER
5
71
100
AcDbSymbolTableRecord
100
AcDbLayerTableRecord
2
80
70
0
62
-6
6
Continuous
290
1
370
-3
390
0
0
LAYER
5
73
100
AcDbSymbolTableRecord
100
AcDbLayerTableRecord
2
81
70
0
62
-3
6
Continuous
290
1
370
-3
390
0
0
LAYER
5
75
100
AcDbSymbolTableRecord
100
AcDbLayerTableRecord
2
1
70
0
62
4
6
Continuous
290
1
370
-3
390
0
0
LAYER
5
8E
100
AcDbSymbolTableRecord
100
AcDbLayerTableRecord
2
4
70
0
62
-2
6
CENTER
290
1
370
-3
390
0
0
LAYER
5
9B
100
AcDbSymbolTableRecord
100
AcDbLayerTableRecord
2
2
70
0
62
7
6
Continuous
290
1
370
-3
390
0
0
LAYER
5
13B
100
AcDbSymbolTableRecord
100
AcDbLayerTableRecord
2
Defpoints
70
0
62
7
6
Continuous
290
0
370
-3
390
0
0
LAYER
5
22a
100
AcDbSymbolTableRecord
100
AcDbLayerTableRecord
2
SK1
70
0
62
4
6
Continuous
290
1
370
-3
390
0
0
LAYER
5
22b
100
AcDbSymbolTableRecord
100
AcDbLayerTableRecord
2
SK4
70
0
62
2
6
CENTER
290
1
370
-3
390
0
0
LAYER
5
22c
100
AcDbSymbolTableRecord
100
AcDbLayerTableRecord
2
SK2
70
0
62
7
6
Continuous
290
1
370
-3
390
0
0
LAYER
5
22d
100
AcDbSymbolTableRecord
100
AcDbLayerTableRecord
2
SK6
70
0
62
5
6
Continuous
290
1
370
-3
390
0
0
ENDTAB
0
TABLE
2
STYLE
5
241
100
AcDbSymbolTable
0
STYLE
5
11
100
AcDbSymbolTableRecord
100
AcDbTextStyleTableRecord
2
Standard
3
txt
70
0
71
0
40
0
41
1
42
0
50
0
0
STYLE
5
10D
100
AcDbSymbolTableRecord
100
AcDbTextStyleTableRecord
2
iso_b_vert
3
simplex.shx
70
0
71
0
40
0
41
1
42
0
50
0
0
STYLE
5
10E
100
AcDbSymbolTableRecord
100
AcDbTextStyleTableRecord
2
DWGDirectTextStyle
3
simplex
70
0
71
0
40
0
41
1
42
0
50
0
0
ENDTAB
0
TABLE
2
DIMSTYLE
5
242
100
AcDbSymbolTable
100
AcDbDimStyleTable
0
DIMSTYLE
105
27
100
AcDbSymbolTableRecord
100
AcDbDimStyleTableRecord
2
Standard
70
0
3
<>
41
0.18
42
0.0625
44
0.18
140
0.18
147
0.09
73
0
74
0
77
1
271
2
275
0
278
52
280
0
340
11
0
ENDTAB
0
TABLE
2
VIEW
5
243
100
AcDbSymbolTable
0
ENDTAB
0
TABLE
2
UCS
5
244
100
AcDbSymbolTable
0
ENDTAB
0
TABLE
2
APPID
5
245
100
AcDbSymbolTable
0
APPID
5
12
100
AcDbSymbolTableRecord
100
AcDbRegAppTableRecord
2
ACAD
70
0
0
APPID
5
137
100
AcDbSymbolTableRecord
100
AcDbRegAppTableRecord
2
ACAD_DSTYLE_DIMBREAK
70
0
0
APPID
5
1E9
100
AcDbSymbolTableRecord
100
AcDbRegAppTableRecord
2
ACAD_DSTYLE_DIM_LINETYPE
70
0
0
APPID
5
1EA
100
AcDbSymbolTableRecord
100
AcDbRegAppTableRecord
2
ACAD_DSTYLE_DIM_EXT1_LINETYPE
70
0
0
APPID
5
1EB
100
AcDbSymbolTableRecord
100
AcDbRegAppTableRecord
2
ACAD_DSTYLE_DIM_EXT2_LINETYPE
70
0
0
APPID
5
226
100
AcDbSymbolTableRecord
100
AcDbRegAppTableRecord
2
ACAD_MLEADERVER
70
0
0
ENDTAB
0
TABLE
2
BLOCK_RECORD
5
246
100
AcDbSymbolTable
0
BLOCK_RECORD
5
1F
100
AcDbSymbolTableRecord
100
AcDbBlockTableRecord
2
*Model_Space
340
0
70
0
0
BLOCK_RECORD
5
1B
100
AcDbSymbolTableRecord
100
AcDbBlockTableRecord
2
*Paper_Space
340
0
70
0
0
BLOCK_RECORD
5
23
100
AcDbSymbolTableRecord
100
AcDbBlockTableRecord
2
*Paper_Space0
340
0
70
0
0
BLOCK_RECORD
5
13C
100
AcDbSymbolTableRecord
100
AcDbBlockTableRecord
2
*D1
340
0
70
0
0
BLOCK_RECORD
5
148
100
AcDbSymbolTableRecord
100
AcDbBlockTableRecord
2
_U0
340
0
70
0
0
BLOCK_RECORD
5
154
100
AcDbSymbolTableRecord
100
AcDbBlockTableRecord
2
*D3
340
0
70
0
0
BLOCK_RECORD
5
160
100
AcDbSymbolTableRecord
100
AcDbBlockTableRecord
2
_U1
340
0
70
0
0
BLOCK_RECORD
5
16C
100
AcDbSymbolTableRecord
100
AcDbBlockTableRecord
2
*D5
340
0
70
0
0
BLOCK_RECORD
5
178
100
AcDbSymbolTableRecord
100
AcDbBlockTableRecord
2
_U2
340
0
70
0
0
BLOCK_RECORD
5
184
100
AcDbSymbolTableRecord
100
AcDbBlockTableRecord
2
*D7
340
0
70
0
0
BLOCK_RECORD
5
192
100
AcDbSymbolTableRecord
100
AcDbBlockTableRecord
2
_U3
340
0
70
0
0
BLOCK_RECORD
5
19E
100
AcDbSymbolTableRecord
100
AcDbBlockTableRecord
2
*D9
340
0
70
0
0
BLOCK_RECORD
5
1AA
100
AcDbSymbolTableRecord
100
AcDbBlockTableRecord
2
_U4
340
0
70
0
0
BLOCK_RECORD
5
1B6
100
AcDbSymbolTableRecord
100
AcDbBlockTableRecord
2
*D11
340
0
70
0
0
BLOCK_RECORD
5
1C2
100
AcDbSymbolTableRecord
100
AcDbBlockTableRecord
2
_U5
340
0
70
0
0
ENDTAB
0
ENDSEC
0
SECTION
2
BLOCKS
0
BLOCK
5
20
100
AcDbEntity
8
0
100
AcDbBlockBegin
2
*Model_Space
70
0
10
0
20
0
30
0
3
*Model_Space
0
ENDBLK
5
21
100
AcDbEntity
8
0
100
AcDbBlockEnd
0
BLOCK
5
1C
100
AcDbEntity
8
0
100
AcDbBlockBegin
2
*Paper_Space
70
0
10
0
20
0
30
0
3
*Paper_Space
0
ENDBLK
5
1D
100
AcDbEntity
8
0
100
AcDbBlockEnd
0
BLOCK
5
24
100
AcDbEntity
8
0
100
AcDbBlockBegin
2
*Paper_Space0
70
0
10
0
20
0
30
0
3
*Paper_Space0
0
ENDBLK
5
25
100
AcDbEntity
8
0
100
AcDbBlockEnd
0
BLOCK
5
13D
100
AcDbEntity
8
0
100
AcDbBlockBegin
2
*D1
70
1
10
0
20
0
30
0
3
*D1
0
LINE
5
13F
100
AcDbEntity
8
0
62
256
6
ByLayer
370
-2
48
1
60
0
100
AcDbLine
10
0
20
-1.5875
30
0
11
0
21
-21.927503
31
0
39
0
210
0
220
0
230
1
0
LINE
5
140
100
AcDbEntity
8
0
62
256
6
ByLayer
370
-2
48
1
60
0
100
AcDbLine
10
89.8755
20
-8.7125
30
0
11
89.8755
21
-21.927503
31
0
39
0
210
0
220
0
230
1
0
LINE
5
141
100
AcDbEntity
8
0
62
256
6
ByLayer
370
-2
48
1
60
0
100
AcDbLine
10
3.5
20
-19.927503
30
0
11
86.3755
21
-19.927503
31
0
39
0
210
0
220
0
230
1
0
SOLID
5
142
100
AcDbEntity
8
0
62
256
6
ByLayer
370
-1
48
1
60
0
100
AcDbTrace
10
3.5
20
-19.34417
30
0
11
3.5
21
-20.510837
31
0
12
0
22
-19.927503
32
0
13
0
23
-19.927503
33
0
39
0
210
0
220
0
230
1
0
SOLID
5
143
100
AcDbEntity
8
0
62
256
6
ByLayer
370
-1
48
1
60
0
100
AcDbTrace
10
86.3755
20
-20.510837
30
0
11
86.3755
21
-19.34417
31
0
12
89.8755
22
-19.927503
32
0
13
89.8755
23
-19.927503
33
0
39
0
210
0
220
0
230
1
0
MTEXT
5
144
100
AcDbEntity
8
0
62
256
6
ByLayer
370
18
48
1
60
0
100
AcDbMText
10
44.93775
20
-12.927503
30
0
210
0
220
0
230
1
1
\A1;89.88
40
3.5
41
0
44
1
50
0
71
5
72
5
7
iso_b_vert
0
POINT
5
145
100
AcDbEntity
8
Defpoints
62
0
6
ByLayer
370
-1
48
1
60
0
100
AcDbPoint
10
0
20
0
30
0
39
0
210
0
220
0
230
1
50
360
0
POINT
5
146
100
AcDbEntity
8
Defpoints
62
0
6
ByLayer
370
-1
48
1
60
0
100
AcDbPoint
10
89.8755
20
-7.125
30
0
39
0
210
0
220
0
230
1
50
360
0
POINT
5
147
100
AcDbEntity
8
Defpoints
62
0
6
ByLayer
370
-1
48
1
60
0
100
AcDbPoint
10
89.8755
20
-19.927503
30
0
39
0
210
0
220
0
230
1
50
360
0
ENDBLK
5
13E
100
AcDbEntity
8
0
100
AcDbBlockEnd
0
BLOCK
5
14F
100
AcDbEntity
8
0
100
AcDbBlockBegin
2
_U0
70
0
10
0
20
0
30
0
3
_U0
0
MTEXT
5
149
100
AcDbEntity
8
SK2
62
256
6
ByLayer
370
13
48
1
60
0
100
AcDbMText
10
39.800451
20
-18.89487
30
0
210
0
220
0
230
1
1
\W0.7317;89,88
40
3.5
41
0
44
1.084337
50
0
71
7
72
5
7
iso_b_vert
0
LINE
5
14A
100
AcDbEntity
8
SK2
62
256
6
ByLayer
370
13
48
1
60
0
100
AcDbLine
10
0
20
-1.5875
30
0
11
0
21
-21.927503
31
0
39
0
210
0
220
0
230
1
0
LINE
5
14B
100
AcDbEntity
8
SK2
62
256
6
ByLayer
370
13
48
1
60
0
100
AcDbLine
10
89.8755
20
-8.7125
30
0
11
89.8755
21
-21.927503
31
0
39
0
210
0
220
0
230
1
0
LINE
5
14C
100
AcDbEntity
8
SK2
62
256
6
ByLayer
370
13
48
1
60
0
100
AcDbLine
10
0
20
-19.927503
30
0
11
89.8755
21
-19.927503
31
0
39
0
210
0
220
0
230
1
0
SOLID
5
14D
100
AcDbEntity
8
SK2
62
256
6
ByLayer
370
18
48
1
60
0
100
AcDbTrace
10
0
20
-19.927503
30
0
11
3.499998
21
-19.466719
31
0
12
3.500002
22
-20.388287
32
0
13
3.500002
23
-20.388287
33
0
39
0
210
0
220
0
230
1
0
SOLID
5
14E
100
AcDbEntity
8
SK2
62
256
6
ByLayer
370
18
48
1
60
0
100
AcDbTrace
10
89.8755
20
-19.927503
30
0
11
86.375502
21
-20.388287
31
0
12
86.375498
22
-19.466719
32
0
13
86.375498
23
-19.466719
33
0
39
0
210
0
220
0
230
1
0
ENDBLK
5
150
100
AcDbEntity
8
0
100
AcDbBlockEnd
0
BLOCK
5
155
100
AcDbEntity
8
0
100
AcDbBlockBegin
2
*D3
70
1
10
0
20
0
30
0
3
*D3
0
LINE
5
157
100
AcDbEntity
8
0
62
256
6
ByLayer
370
-2
48
1
60
0
100
AcDbLine
10
-50
20
-11.5875
30
0
11
-50
21
-43.192985
31
0
39
0
210
0
220
0
230
1
0
LINE
5
158
100
AcDbEntity
8
0
62
256
6
ByLayer
370
-2
48
1
60
0
100
AcDbLine
10
92
20
-1.5875
30
0
11
92
21
-43.192985
31
0
39
0
210
0
220
0
230
1
0
LINE
5
159
100
AcDbEntity
8
0
62
256
6
ByLayer
370
-2
48
1
60
0
100
AcDbLine
10
-46.5
20
-41.192985
30
0
11
88.5
21
-41.192985
31
0
39
0
210
0
220
0
230
1
0
SOLID
5
15A
100
AcDbEntity
8
0
62
256
6
ByLayer
370
-1
48
1
60
0
100
AcDbTrace
10
-46.5
20
-40.609652
30
0
11
-46.5
21
-41.776319
31
0
12
-50
22
-41.192985
32
0
13
-50
23
-41.192985
33
0
39
0
210
0
220
0
230
1
0
SOLID
5
15B
100
AcDbEntity
8
0
62
256
6
ByLayer
370
-1
48
1
60
0
100
AcDbTrace
10
88.5
20
-41.776319
30
0
11
88.5
21
-40.609652
31
0
12
92
22
-41.192985
32
0
13
92
23
-41.192985
33
0
39
0
210
0
220
0
230
1
0
MTEXT
5
15C
100
AcDbEntity
8
0
62
256
6
ByLayer
370
18
48
1
60
0
100
AcDbMText
10
21
20
-34.192985
30
0
210
0
220
0
230
1
1
\A1;142.00
40
3.5
41
0
44
1
50
0
71
5
72
5
7
iso_b_vert
0
POINT
5
15D
100
AcDbEntity
8
Defpoints
62
0
6
ByLayer
370
-1
48
1
60
0
100
AcDbPoint
10
-50
20
-10
30
0
39
0
210
0
220
0
230
1
50
360
0
POINT
5
15E
100
AcDbEntity
8
Defpoints
62
0
6
ByLayer
370
-1
48
1
60
0
100
AcDbPoint
10
92
20
0
30
0
39
0
210
0
220
0
230
1
50
360
0
POINT
5
15F
100
AcDbEntity
8
Defpoints
62
0
6
ByLayer
370
-1
48
1
60
0
100
AcDbPoint
10
92
20
-41.192985
30
0
39
0
210
0
220
0
230
1
50
360
0
ENDBLK
5
156
100
AcDbEntity
8
0
100
AcDbBlockEnd
0
BLOCK
5
167
100
AcDbEntity
8
0
100
AcDbBlockBegin
2
_U1
70
0
10
0
20
0
30
0
3
_U1
0
MTEXT
5
161
100
AcDbEntity
8
SK2
62
256
6
ByLayer
370
13
48
1
60
0
100
AcDbMText
10
14.808135
20
-40.160352
30
0
210
0
220
0
230
1
1
\W0.7145;142,00
40
3.5
41
0
44
1.084337
50
0
71
7
72
5
7
iso_b_vert
0
LINE
5
162
100
AcDbEntity
8
SK2
62
256
6
ByLayer
370
13
48
1
60
0
100
AcDbLine
10
-50
20
-11.5875
30
0
11
-50
21
-43.192985
31
0
39
0
210
0
220
0
230
1
0
LINE
5
163
100
AcDbEntity
8
SK2
62
256
6
ByLayer
370
13
48
1
60
0
100
AcDbLine
10
92
20
-1.5875
30
0
11
92
21
-43.192985
31
0
39
0
210
0
220
0
230
1
0
LINE
5
164
100
AcDbEntity
8
SK2
62
256
6
ByLayer
370
13
48
1
60
0
100
AcDbLine
10
-50
20
-41.192985
30
0
11
92
21
-41.192985
31
0
39
0
210
0
220
0
230
1
0
SOLID
5
165
100
AcDbEntity
8
SK2
62
256
6
ByLayer
370
18
48
1
60
0
100
AcDbTrace
10
-50
20
-41.192985
30
0
11
-46.500002
21
-40.732202
31
0
12
-46.499998
22
-41.653769
32
0
13
-46.499998
23
-41.653769
33
0
39
0
210
0
220
0
230
1
0
SOLID
5
166
100
AcDbEntity
8
SK2
62
256
6
ByLayer
370
18
48
1
60
0
100
AcDbTrace
10
92
20
-41.192985
30
0
11
88.500002
21
-41.653769
31
0
12
88.499998
22
-40.732202
32
0
13
88.499998
23
-40.732202
33
0
39
0
210
0
220
0
230
1
0
ENDBLK
5
168
100
AcDbEntity
8
0
100
AcDbBlockEnd
0
BLOCK
5
16D
100
AcDbEntity
8
0
100
AcDbBlockBegin
2
*D5
70
1
10
0
20
0
30
0
3
*D5
0
LINE
5
16F
100
AcDbEntity
8
0
62
256
6
ByLayer
370
-2
48
1
60
0
100
AcDbLine
10
44.63
20
11.2075
30
0
11
44.63
21
20.734119
31
0
39
0
210
0
220
0
230
1
0
LINE
5
170
100
AcDbEntity
8
0
62
256
6
ByLayer
370
-2
48
1
60
0
100
AcDbLine
10
92
20
1.5875
30
0
11
92
21
20.734119
31
0
39
0
210
0
220
0
230
1
0
LINE
5
171
100
AcDbEntity
8
0
62
256
6
ByLayer
370
-2
48
1
60
0
100
AcDbLine
10
48.13
20
18.734119
30
0
11
88.5
21
18.734119
31
0
39
0
210
0
220
0
230
1
0
SOLID
5
172
100
AcDbEntity
8
0
62
256
6
ByLayer
370
-1
48
1
60
0
100
AcDbTrace
10
48.13
20
19.317453
30
0
11
48.13
21
18.150786
31
0
12
44.63
22
18.734119
32
0
13
44.63
23
18.734119
33
0
39
0
210
0
220
0
230
1
0
SOLID
5
173
100
AcDbEntity
8
0
62
256
6
ByLayer
370
-1
48
1
60
0
100
AcDbTrace
10
88.5
20
18.150786
30
0
11
88.5
21
19.317453
31
0
12
92
22
18.734119
32
0
13
92
23
18.734119
33
0
39
0
210
0
220
0
230
1
0
MTEXT
5
174
100
AcDbEntity
8
0
62
256
6
ByLayer
370
18
48
1
60
0
100
AcDbMText
10
68.315
20
25.734119
30
0
210
0
220
0
230
1
1
\A1;47.37
40
3.5
41
0
44
1
50
0
71
5
72
5
7
iso_b_vert
0
POINT
5
175
100
AcDbEntity
8
Defpoints
62
0
6
ByLayer
370
-1
48
1
60
0
100
AcDbPoint
10
44.63
20
9.62
30
0
39
0
210
0
220
0
230
1
50
360
0
POINT
5
176
100
AcDbEntity
8
Defpoints
62
0
6
ByLayer
370
-1
48
1
60
0
100
AcDbPoint
10
92
20
0
30
0
39
0
210
0
220
0
230
1
50
360
0
POINT
5
177
100
AcDbEntity
8
Defpoints
62
0
6
ByLayer
370
-1
48
1
60
0
100
AcDbPoint
10
92
20
18.734119
30
0
39
0
210
0
220
0
230
1
50
360
0
ENDBLK
5
16E
100
AcDbEntity
8
0
100
AcDbBlockEnd
0
BLOCK
5
17F
100
AcDbEntity
8
0
100
AcDbBlockBegin
2
_U2
70
0
10
0
20
0
30
0
3
_U2
0
MTEXT
5
179
100
AcDbEntity
8
SK2
62
256
6
ByLayer
370
13
48
1
60
0
100
AcDbMText
10
62.993435
20
19.766753
30
0
210
0
220
0
230
1
1
\W0.7581;47,37
40
3.5
41
0
44
1.084337
50
0
71
7
72
5
7
iso_b_vert
0
LINE
5
17A
100
AcDbEntity
8
SK2
62
256
6
ByLayer
370
13
48
1
60
0
100
AcDbLine
10
44.63
20
11.2075
30
0
11
44.63
21
20.734119
31
0
39
0
210
0
220
0
230
1
0
LINE
5
17B
100
AcDbEntity
8
SK2
62
256
6
ByLayer
370
13
48
1
60
0
100
AcDbLine
10
92
20
1.5875
30
0
11
92
21
20.734119
31
0
39
0
210
0
220
0
230
1
0
LINE
5
17C
100
AcDbEntity
8
SK2
62
256
6
ByLayer
370
13
48
1
60
0
100
AcDbLine
10
44.63
20
18.734119
30
0
11
92
21
18.734119
31
0
39
0
210
0
220
0
230
1
0
SOLID
5
17D
100
AcDbEntity
8
SK2
62
256
6
ByLayer
370
18
48
1
60
0
100
AcDbTrace
10
44.63
20
18.734119
30
0
11
48.129998
21
19.194903
31
0
12
48.130002
22
18.273335
32
0
13
48.130002
23
18.273335
33
0
39
0
210
0
220
0
230
1
0
SOLID
5
17E
100
AcDbEntity
8
SK2
62
256
6
ByLayer
370
18
48
1
60
0
100
AcDbTrace
10
92
20
18.734119
30
0
11
88.500002
21
18.273335
31
0
12
88.499998
22
19.194903
32
0
13
88.499998
23
19.194903
33
0
39
0
210
0
220
0
230
1
0
ENDBLK
5
180
100
AcDbEntity
8
0
100
AcDbBlockEnd
0
BLOCK
5
185
100
AcDbEntity
8
0
100
AcDbBlockBegin
2
*D7
70
1
10
0
20
0
30
0
3
*D7
0
LINE
5
187
100
AcDbEntity
8
0
62
256
6
ByLayer
370
-2
48
1
60
0
100
AcDbLine
10
92
20
-1.5875
30
0
11
92
21
-21.927503
31
0
39
0
210
0
220
0
230
1
0
LINE
5
188
100
AcDbEntity
8
0
62
256
6
ByLayer
370
-2
48
1
60
0
100
AcDbLine
10
89.8755
20
-8.7125
30
0
11
89.8755
21
-21.927503
31
0
39
0
210
0
220
0
230
1
0
LINE
5
189
100
AcDbEntity
8
0
62
256
6
ByLayer
370
-2
48
1
60
0
100
AcDbLine
10
92
20
-19.927503
30
0
11
120.166667
21
-19.927503
31
0
39
0
210
0
220
0
230
1
0
LINE
5
18A
100
AcDbEntity
8
0
62
256
6
ByLayer
370
-2
48
1
60
0
100
AcDbLine
10
95.5
20
-19.927503
30
0
11
99
21
-19.927503
31
0
39
0
210
0
220
0
230
1
0
LINE
5
18B
100
AcDbEntity
8
0
62
256
6
ByLayer
370
-2
48
1
60
0
100
AcDbLine
10
86.3755
20
-19.927503
30
0
11
82.8755
21
-19.927503
31
0
39
0
210
0
220
0
230
1
0
SOLID
5
18C
100
AcDbEntity
8
0
62
256
6
ByLayer
370
-1
48
1
60
0
100
AcDbTrace
10
95.5
20
-19.34417
30
0
11
95.5
21
-20.510837
31
0
12
92
22
-19.927503
32
0
13
92
23
-19.927503
33
0
39
0
210
0
220
0
230
1
0
SOLID
5
18D
100
AcDbEntity
8
0
62
256
6
ByLayer
370
-1
48
1
60
0
100
AcDbTrace
10
86.3755
20
-20.510837
30
0
11
86.3755
21
-19.34417
31
0
12
89.8755
22
-19.927503
32
0
13
89.8755
23
-19.927503
33
0
39
0
210
0
220
0
230
1
0
MTEXT
5
18E
100
AcDbEntity
8
0
62
256
6
ByLayer
370
18
48
1
60
0
100
AcDbMText
10
109.583333
20
-12.927503
30
0
210
0
220
0
230
1
1
\A1;2.12
40
3.5
41
0
44
1
50
0
71
5
72
5
7
iso_b_vert
0
POINT
5
18F
100
AcDbEntity
8
Defpoints
62
0
6
ByLayer
370
-1
48
1
60
0
100
AcDbPoint
10
92
20
0
30
0
39
0
210
0
220
0
230
1
50
360
0
POINT
5
190
100
AcDbEntity
8
Defpoints
62
0
6
ByLayer
370
-1
48
1
60
0
100
AcDbPoint
10
89.8755
20
-7.125
30
0
39
0
210
0
220
0
230
1
50
360
0
POINT
5
191
100
AcDbEntity
8
Defpoints
62
0
6
ByLayer
370
-1
48
1
60
0
100
AcDbPoint
10
89.8755
20
-19.927503
30
0
39
0
210
0
220
0
230
1
50
360
0
ENDBLK
5
186
100
AcDbEntity
8
0
100
AcDbBlockEnd
0
BLOCK
5
199
100
AcDbEntity
8
0
100
AcDbBlockBegin
2
_U3
70
0
10
0
20
0
30
0
3
_U3
0
MTEXT
5
193
100
AcDbEntity
8
SK2
62
256
6
ByLayer
370
13
48
1
60
0
100
AcDbMText
10
98.589293
20
-18.89487
30
0
210
0
220
0
230
1
1
\W0.6367;2,12
40
3.5
41
0
44
1.084337
50
0
71
7
72
5
7
iso_b_vert
0
LINE
5
194
100
AcDbEntity
8
SK2
62
256
6
ByLayer
370
13
48
1
60
0
100
AcDbLine
10
92
20
-1.5875
30
0
11
92
21
-21.927503
31
0
39
0
210
0
220
0
230
1
0
LINE
5
195
100
AcDbEntity
8
SK2
62
256
6
ByLayer
370
13
48
1
60
0
100
AcDbLine
10
89.8755
20
-8.7125
30
0
11
89.8755
21
-21.927503
31
0
39
0
210
0
220
0
230
1
0
LINE
5
196
100
AcDbEntity
8
SK2
62
256
6
ByLayer
370
13
48
1
60
0
100
AcDbLine
10
81.1255
20
-19.927503
30
0
11
105.559058
21
-19.927503
31
0
39
0
210
0
220
0
230
1
0
SOLID
5
197
100
AcDbEntity
8
SK2
62
256
6
ByLayer
370
18
48
1
60
0
100
AcDbTrace
10
92
20
-19.927503
30
0
11
95.499998
21
-19.466719
31
0
12
95.500002
22
-20.388287
32
0
13
95.500002
23
-20.388287
33
0
39
0
210
0
220
0
230
1
0
SOLID
5
198
100
AcDbEntity
8
SK2
62
256
6
ByLayer
370
18
48
1
60
0
100
AcDbTrace
10
89.8755
20
-19.927503
30
0
11
86.375502
21
-20.388287
31
0
12
86.375498
22
-19.466719
32
0
13
86.375498
23
-19.466719
33
0
39
0
210
0
220
0
230
1
0
ENDBLK
5
19A
100
AcDbEntity
8
0
100
AcDbBlockEnd
0
BLOCK
5
19F
100
AcDbEntity
8
0
100
AcDbBlockBegin
2
*D9
70
1
10
0
20
0
30
0
3
*D9
0
LINE
5
1A1
100
AcDbEntity
8
0
62
256
6
ByLayer
370
-2
48
1
60
0
100
AcDbLine
10
89.8755
20
8.7125
30
0
11
89.8755
21
13.260371
31
0
39
0
210
0
220
0
230
1
0
LINE
5
1A2
100
AcDbEntity
8
0
62
256
6
ByLayer
370
-2
48
1
60
0
100
AcDbLine
10
47.1255
20
8.7125
30
0
11
47.1255
21
13.260371
31
0
39
0
210
0
220
0
230
1
0
LINE
5
1A3
100
AcDbEntity
8
0
62
256
6
ByLayer
370
-2
48
1
60
0
100
AcDbLine
10
86.3755
20
11.260371
30
0
11
50.6255
21
11.260371
31
0
39
0
210
0
220
0
230
1
0
SOLID
5
1A4
100
AcDbEntity
8
0
62
256
6
ByLayer
370
-1
48
1
60
0
100
AcDbTrace
10
86.3755
20
10.677038
30
0
11
86.3755
21
11.843705
31
0
12
89.8755
22
11.260371
32
0
13
89.8755
23
11.260371
33
0
39
0
210
0
220
0
230
1
0
SOLID
5
1A5
100
AcDbEntity
8
0
62
256
6
ByLayer
370
-1
48
1
60
0
100
AcDbTrace
10
50.6255
20
11.843705
30
0
11
50.6255
21
10.677038
31
0
12
47.1255
22
11.260371
32
0
13
47.1255
23
11.260371
33
0
39
0
210
0
220
0
230
1
0
MTEXT
5
1A6
100
AcDbEntity
8
0
62
256
6
ByLayer
370
18
48
1
60
0
100
AcDbMText
10
68.5005
20
18.260371
30
0
210
0
220
0
230
1
1
\A1;42.75
40
3.5
41
0
44
1
50
0
71
5
72
5
7
iso_b_vert
0
POINT
5
1A7
100
AcDbEntity
8
Defpoints
62
0
6
ByLayer
370
-1
48
1
60
0
100
AcDbPoint
10
89.8755
20
7.125
30
0
39
0
210
0
220
0
230
1
50
360
0
POINT
5
1A8
100
AcDbEntity
8
Defpoints
62
0
6
ByLayer
370
-1
48
1
60
0
100
AcDbPoint
10
47.1255
20
7.125
30
0
39
0
210
0
220
0
230
1
50
360
0
POINT
5
1A9
100
AcDbEntity
8
Defpoints
62
0
6
ByLayer
370
-1
48
1
60
0
100
AcDbPoint
10
47.1255
20
11.260371
30
0
39
0
210
0
220
0
230
1
50
360
0
ENDBLK
5
1A0
100
AcDbEntity
8
0
100
AcDbBlockEnd
0
BLOCK
5
1B1
100
AcDbEntity
8
0
100
AcDbBlockBegin
2
_U4
70
0
10
0
20
0
30
0
3
_U4
0
MTEXT
5
1AB
100
AcDbEntity
8
SK2
62
256
6
ByLayer
370
13
48
1
60
0
100
AcDbMText
10
63.178935
20
12.293005
30
0
210
0
220
0
230
1
1
\W0.7581;42,75
40
3.5
41
0
44
1.084337
50
0
71
7
72
5
7
iso_b_vert
0
LINE
5
1AC
100
AcDbEntity
8
SK2
62
256
6
ByLayer
370
13
48
1
60
0
100
AcDbLine
10
89.8755
20
8.7125
30
0
11
89.8755
21
13.260371
31
0
39
0
210
0
220
0
230
1
0
LINE
5
1AD
100
AcDbEntity
8
SK2
62
256
6
ByLayer
370
13
48
1
60
0
100
AcDbLine
10
47.1255
20
8.7125
30
0
11
47.1255
21
13.260371
31
0
39
0
210
0
220
0
230
1
0
LINE
5
1AE
100
AcDbEntity
8
SK2
62
256
6
ByLayer
370
13
48
1
60
0
100
AcDbLine
10
89.8755
20
11.260371
30
0
11
47.1255
21
11.260371
31
0
39
0
210
0
220
0
230
1
0
SOLID
5
1AF
100
AcDbEntity
8
SK2
62
256
6
ByLayer
370
18
48
1
60
0
100
AcDbTrace
10
89.8755
20
11.260371
30
0
11
86.375502
21
10.799588
31
0
12
86.375498
22
11.721155
32
0
13
86.375498
23
11.721155
33
0
39
0
210
0
220
0
230
1
0
SOLID
5
1B0
100
AcDbEntity
8
SK2
62
256
6
ByLayer
370
18
48
1
60
0
100
AcDbTrace
10
47.1255
20
11.260371
30
0
11
50.625498
21
11.721155
31
0
12
50.625502
22
10.799588
32
0
13
50.625502
23
10.799588
33
0
39
0
210
0
220
0
230
1
0
ENDBLK
5
1B2
100
AcDbEntity
8
0
100
AcDbBlockEnd
0
BLOCK
5
1B7
100
AcDbEntity
8
0
100
AcDbBlockBegin
2
*D11
70
1
10
0
20
0
30
0
3
*D11
0
LINE
5
1B9
100
AcDbEntity
8
0
62
256
6
ByLayer
370
-2
48
1
60
0
100
AcDbLine
10
-50
20
-11.5875
30
0
11
-50
21
-32.690158
31
0
39
0
210
0
220
0
230
1
0
LINE
5
1BA
100
AcDbEntity
8
0
62
256
6
ByLayer
370
-2
48
1
60
0
100
AcDbLine
10
89.8755
20
-8.7125
30
0
11
89.8755
21
-32.690158
31
0
39
0
210
0
220
0
230
1
0
LINE
5
1BB
100
AcDbEntity
8
0
62
256
6
ByLayer
370
-2
48
1
60
0
100
AcDbLine
10
-46.5
20
-30.690158
30
0
11
86.3755
21
-30.690158
31
0
39
0
210
0
220
0
230
1
0
SOLID
5
1BC
100
AcDbEntity
8
0
62
256
6
ByLayer
370
-1
48
1
60
0
100
AcDbTrace
10
-46.5
20
-30.106825
30
0
11
-46.5
21
-31.273491
31
0
12
-50
22
-30.690158
32
0
13
-50
23
-30.690158
33
0
39
0
210
0
220
0
230
1
0
SOLID
5
1BD
100
AcDbEntity
8
0
62
256
6
ByLayer
370
-1
48
1
60
0
100
AcDbTrace
10
86.3755
20
-31.273491
30
0
11
86.3755
21
-30.106825
31
0
12
89.8755
22
-30.690158
32
0
13
89.8755
23
-30.690158
33
0
39
0
210
0
220
0
230
1
0
MTEXT
5
1BE
100
AcDbEntity
8
0
62
256
6
ByLayer
370
18
48
1
60
0
100
AcDbMText
10
19.93775
20
-23.690158
30
0
210
0
220
0
230
1
1
\A1;139.88
40
3.5
41
0
44
1
50
0
71
5
72
5
7
iso_b_vert
0
POINT
5
1BF
100
AcDbEntity
8
Defpoints
62
0
6
ByLayer
370
-1
48
1
60
0
100
AcDbPoint
10
-50
20
-10
30
0
39
0
210
0
220
0
230
1
50
360
0
POINT
5
1C0
100
AcDbEntity
8
Defpoints
62
0
6
ByLayer
370
-1
48
1
60
0
100
AcDbPoint
10
89.8755
20
-7.125
30
0
39
0
210
0
220
0
230
1
50
360
0
POINT
5
1C1
100
AcDbEntity
8
Defpoints
62
0
6
ByLayer
370
-1
48
1
60
0
100
AcDbPoint
10
89.8755
20
-30.690158
30
0
39
0
210
0
220
0
230
1
50
360
0
ENDBLK
5
1B8
100
AcDbEntity
8
0
100
AcDbBlockEnd
0
BLOCK
5
1C9
100
AcDbEntity
8
0
100
AcDbBlockBegin
2
_U5
70
0
10
0
20
0
30
0
3
_U5
0
MTEXT
5
1C3
100
AcDbEntity
8
SK2
62
256
6
ByLayer
370
13
48
1
60
0
100
AcDbMText
10
13.930151
20
-29.657524
30
0
210
0
220
0
230
1
1
\W0.6930;139,88
40
3.5
41
0
44
1.084337
50
0
71
7
72
5
7
iso_b_vert
0
LINE
5
1C4
100
AcDbEntity
8
SK2
62
256
6
ByLayer
370
13
48
1
60
0
100
AcDbLine
10
-50
20
-11.5875
30
0
11
-50
21
-32.690158
31
0
39
0
210
0
220
0
230
1
0
LINE
5
1C5
100
AcDbEntity
8
SK2
62
256
6
ByLayer
370
13
48
1
60
0
100
AcDbLine
10
89.8755
20
-8.7125
30
0
11
89.8755
21
-32.690158
31
0
39
0
210
0
220
0
230
1
0
LINE
5
1C6
100
AcDbEntity
8
SK2
62
256
6
ByLayer
370
13
48
1
60
0
100
AcDbLine
10
-50
20
-30.690158
30
0
11
89.8755
21
-30.690158
31
0
39
0
210
0
220
0
230
1
0
SOLID
5
1C7
100
AcDbEntity
8
SK2
62
256
6
ByLayer
370
18
48
1
60
0
100
AcDbTrace
10
-50
20
-30.690158
30
0
11
-46.500002
21
-30.229374
31
0
12
-46.499998
22
-31.150942
32
0
13
-46.499998
23
-31.150942
33
0
39
0
210
0
220
0
230
1
0
SOLID
5
1C8
100
AcDbEntity
8
SK2
62
256
6
ByLayer
370
18
48
1
60
0
100
AcDbTrace
10
89.8755
20
-30.690158
30
0
11
86.375502
21
-31.150942
31
0
12
86.375498
22
-30.229374
32
0
13
86.375498
23
-30.229374
33
0
39
0
210
0
220
0
230
1
0
ENDBLK
5
1CA
100
AcDbEntity
8
0
100
AcDbBlockEnd
0
ENDSEC
0
SECTION
2
ENTITIES
0
ARC
5
BF
100
AcDbEntity
8
1
62
256
6
ByLayer
370
18
48
1
60
0
100
AcDbCircle
39
0
10
1.035181
20
-10.42
30
0
40
0.8
210
0
220
0
230
1
100
AcDbArc
50
90
51
130.314909
0
ARC
5
C0
100
AcDbEntity
8
1
62
256
6
ByLayer
370
18
48
1
60
0
100
AcDbCircle
39
0
10
1.035181
20
10.42
30
0
40
0.8
210
0
220
0
230
1
100
AcDbArc
50
229.685091
51
270
0
ARC
5
C1
100
AcDbEntity
8
1
62
256
6
ByLayer
370
18
48
1
60
0
100
AcDbCircle
39
0
10
0
20
-9.2
30
0
40
0.800000000000002
210
0
220
0
230
1
100
AcDbArc
50
270
51
310.314909
0
ARC
5
C2
100
AcDbEntity
8
1
62
256
6
ByLayer
370
18
48
1
60
0
100
AcDbCircle
39
0
10
0
20
9.2
30
0
40
0.800000000000002
210
0
220
0
230
1
100
AcDbArc
50
49.685091
51
90
0
ARC
5
C3
100
AcDbEntity
8
SK2
62
256
6
ByLayer
370
13
48
1
60
0
100
AcDbCircle
39
0
10
54.2505
20
0
30
0
40
22.4332657718225
210
0
220
0
230
1
100
AcDbArc
50
182.744861
51
225
0
ARC
5
C4
100
AcDbEntity
8
SK2
62
256
6
ByLayer
370
13
48
1
60
0
100
AcDbCircle
39
0
10
54.2505
20
0
30
0
40
22.4332657718225
210
0
220
0
230
1
100
AcDbArc
50
135
51
166.003671
0
POINT
5
70
100
AcDbEntity
8
80
62
256
6
ByLayer
370
18
48
1
60
0
100
AcDbPoint
10
0
20
0
30
0
39
0
210
0
220
0
230
1
50
360
0
POINT
5
72
100
AcDbEntity
8
81
62
256
6
ByLayer
370
18
48
1
60
0
100
AcDbPoint
10
92
20
0
30
0
39
0
210
0
220
0
230
1
50
360
0
POINT
5
74
100
AcDbEntity
8
1
62
256
6
ByLayer
370
18
48
1
60
1
100
AcDbPoint
10
89.8755
20
-7.125
30
0
39
0
210
0
220
0
230
1
50
360
0
POINT
5
76
100
AcDbEntity
8
1
62
256
6
ByLayer
370
18
48
1
60
1
100
AcDbPoint
10
-50
20
-10
30
0
39
0
210
0
220
0
230
1
50
360
0
POINT
5
77
100
AcDbEntity
8
1
62
256
6
ByLayer
370
18
48
1
60
1
100
AcDbPoint
10
44.63
20
9.62
30
0
39
0
210
0
220
0
230
1
50
360
0
POINT
5
78
100
AcDbEntity
8
1
62
256
6
ByLayer
370
18
48
1
60
1
100
AcDbPoint
10
89.8755
20
-7.125
30
0
39
0
210
0
220
0
230
1
50
360
0
POINT
5
79
100
AcDbEntity
8
1
62
256
6
ByLayer
370
18
48
1
60
1
100
AcDbPoint
10
89.8755
20
7.125
30
0
39
0
210
0
220
0
230
1
50
360
0
POINT
5
7A
100
AcDbEntity
8
1
62
256
6
ByLayer
370
18
48
1
60
1
100
AcDbPoint
10
47.1255
20
7.125
30
0
39
0
210
0
220
0
230
1
50
360
0
POINT
5
7B
100
AcDbEntity
8
1
62
256
6
ByLayer
370
18
48
1
60
1
100
AcDbPoint
10
-50
20
-10
30
0
39
0
210
0
220
0
230
1
50
360
0
POINT
5
7C
100
AcDbEntity
8
1
62
256
6
ByLayer
370
18
48
1
60
1
100
AcDbPoint
10
89.8755
20
-7.125
30
0
39
0
210
0
220
0
230
1
50
360
0
SPLINE
5
C5
100
AcDbEntity
8
SK1
62
256
6
ByLayer
370
18
48
1
60
0
100
AcDbSpline
70
4
71
3
72
8
73
4
40
0
40
0
40
0
40
0
40
1
40
1
40
1
40
1
41
1
10
-50
20
-1.21487614929973
30
0
41
1
10
-49.235890237465
20
-1.18106169993328
30
0
41
1
10
-48.4685627314847
20
-1.14738384693732
30
0
41
1
10
-47.7
20
-1.11375843047753
30
0
0
SPLINE
5
C6
100
AcDbEntity
8
SK1
62
256
6
ByLayer
370
18
48
1
60
0
100
AcDbSpline
70
4
71
3
72
12
73
8
40
0
40
0
40
0
40
0
40
0.25
40
0.25
40
0.500000000000001
40
0.500000000000001
40
1
40
1
40
1
40
1
41
1
10
-47.6
20
1.78860842161106
30
0
41
1
10
-47.6
20
1.80499757841753
30
0
41
1
10
-47.6041468027231
20
1.82011450416786
30
0
41
1
10
-47.6170570586248
20
1.84510464765262
30
0
41
1
10
-47.6255546314712
20
1.85488927861442
30
0
41
1
10
-47.654055184327
20
1.87779005692406
30
0
41
1
10
-47.6767308868523
20
1.88446605159555
30
0
41
1
10
-47.7
20
1.88344800376655
30
0
0
SPLINE
5
C7
100
AcDbEntity
8
SK1
62
256
6
ByLayer
370
18
48
1
60
0
100
AcDbSpline
70
4
71
3
72
8
73
4
40
0
40
0
40
0
40
0
40
1
40
1
40
1
40
1
41
1
10
-50
20
1.21487614929973
30
0
41
1
10
-49.235890237465
20
1.18106169993328
30
0
41
1
10
-48.4685627314847
20
1.14738384693732
30
0
41
1
10
-47.7
20
1.11375843047753
30
0
0
SPLINE
5
C8
100
AcDbEntity
8
SK1
62
256
6
ByLayer
370
18
48
1
60
0
100
AcDbSpline
70
4
71
3
72
12
73
8
40
0
40
0
40
0
40
0
40
0.500000000000002
40
0.500000000000002
40
0.750000000000001
40
0.750000000000001
40
1
40
1
40
1
40
1
41
1
10
-47.7
20
1.11375843047753
30
0
41
1
10
-47.6767410897415
20
1.11274082903552
30
0
41
1
10
-47.6540473543102
20
1.10395138011242
30
0
41
1
10
-47.6255892761979
20
1.07826514865479
30
0
41
1
10
-47.6170511286925
20
1.06754743235766
30
0
41
1
10
-47.6041481443464
20
1.04108463335888
30
0
41
1
10
-47.6
20
1.02536308722958
30
0
41
1
10
-47.6
20
1.00878425035009
30
0
0
SPLINE
5
C9
100
AcDbEntity
8
SK1
62
256
6
ByLayer
370
18
48
1
60
0
100
AcDbSpline
70
4
71
3
72
12
73
8
40
0
40
0
40
0
40
0
40
0.500000000000002
40
0.500000000000002
40
0.750000000000001
40
0.750000000000001
40
1
40
1
40
1
40
1
41
1
10
-47.7
20
-1.11375843047753
30
0
41
1
10
-47.6767410897415
20
-1.11274082903552
30
0
41
1
10
-47.6540473543102
20
-1.10395138011242
30
0
41
1
10
-47.6255892761979
20
-1.07826514865479
30
0
41
1
10
-47.6170511286925
20
-1.06754743235766
30
0
41
1
10
-47.6041481443464
20
-1.04108463335888
30
0
41
1
10
-47.6
20
-1.02536308722958
30
0
41
1
10
-47.6
20
-1.00878425035009
30
0
0
SPLINE
5
CA
100
AcDbEntity
8
SK1
62
256
6
ByLayer
370
18
48
1
60
0
100
AcDbSpline
70
4
71
3
72
8
73
4
40
0
40
0
40
0
40
0
40
1
40
1
40
1
40
1
41
1
10
-47.7
20
1.88344800376655
30
0
41
1
10
-48.4685741553821
20
1.8498220874994
30
0
41
1
10
-49.2359055531641
20
1.81614405653912
30
0
41
1
10
-50
20
1.78233028494435
30
0
0
SPLINE
5
CB
100
AcDbEntity
8
1
62
256
6
ByLayer
370
18
48
1
60
0
100
AcDbSpline
70
4
71
3
72
22
73
18
40
0
40
0
40
0
40
0
40
0.0445526319675527
40
0.111356397657169
40
0.245013663894939
40
0.336971123781311
40
0.412291018282513
40
0.47931401317418
40
0.512860206717352
40
0.613631644752221
40
0.647243342621843
40
0.714466022672168
40
0.756469510707785
40
0.848808737803889
40
0.899119454566187
40
0.999575532612356
40
1
40
1
40
1
40
1
41
1
10
45.9914375902727
20
-1.40756046580069
30
0
41
1
10
46.0059628646044
20
-1.54139886432725
30
0
41
1
10
46.0422681529479
20
-1.87401118814705
30
0
41
1
10
46.1221717921009
20
-2.59248679315621
30
0
41
1
10
46.2174913590174
20
-3.41033222304023
30
0
41
1
10
46.315527196328
20
-4.18446885151477
30
0
41
1
10
46.3917594477156
20
-4.74030176463862
30
0
41
1
10
46.4489322418099
20
-5.1236195509816
30
0
41
1
10
46.5143048546245
20
-5.5324678376075
30
0
41
1
10
46.5687379070359
20
-5.83878955290896
30
0
41
1
10
46.6340672057859
20
-6.16153914127074
30
0
41
1
10
46.6803509649779
20
-6.36556833793992
30
0
41
1
10
46.7456833567411
20
-6.61396109539342
30
0
41
1
10
46.8055742631495
20
-6.79625627261996
30
0
41
1
10
46.8845177137965
20
-6.97000632625415
30
0
41
1
10
46.9336879234361
20
-7.03337156993166
30
0
41
1
10
46.9665456390977
20
-7.05541441969885
30
0
41
1
10
46.9666838928862
20
-7.05550680940607
30
0
0
SPLINE
5
CC
100
AcDbEntity
8
1
62
256
6
ByLayer
370
18
48
1
60
0
100
AcDbSpline
70
4
71
3
72
8
73
4
40
0
40
0
40
0
40
0
40
1
40
1
40
1
40
1
41
1
10
47.0358857314025
20
-7.07167142547735
30
0
41
1
10
47.0458217965939
20
-7.06966084849893
30
0
41
1
10
47.0557664434378
20
-7.06577857544107
30
0
41
1
10
47.0657214177134
20
-7.06001070598779
30
0
0
SPLINE
5
CD
100
AcDbEntity
8
1
62
256
6
ByLayer
370
18
48
1
60
0
100
AcDbSpline
70
4
71
3
72
26
73
22
40
0
40
0
40
0
40
0
40
0.046939836055336
40
0.046939836055336
40
0.115015562051383
40
0.115015562051383
40
0.183091288047431
40
0.183091288047431
40
0.319242740039526
40
0.319242740039526
40
0.455394192031621
40
0.455394192031621
40
0.591545644023716
40
0.591545644023716
40
0.727697096015811
40
0.727697096015811
40
0.795772822011858
40
0.795772822011858
40
0.863848548007905
40
0.863848548007905
40
1
40
1
40
1
40
1
41
1
10
47.1156034884431
20
-7.06053699410686
30
0
41
1
10
47.1156034884431
20
-7.05099919964056
30
0
41
1
10
47.1156034884431
20
-7.03767504869384
30
0
41
1
10
47.1156034884431
20
-6.99588261460428
30
0
41
1
10
47.115603488443
20
-6.9632279913948
30
0
41
1
10
47.115603488443
20
-6.8817586575282
30
0
41
1
10
47.1156034884431
20
-6.83287577179766
30
0
41
1
10
47.1156034884431
20
-6.66201091339923
30
0
41
1
10
47.1156034884431
20
-6.51860824840492
30
0
41
1
10
47.1156034884431
20
-6.17459559883085
30
0
41
1
10
47.1156034884431
20
-5.9739937282711
30
0
41
1
10
47.1156034884431
20
-5.51368705498311
30
0
41
1
10
47.1156034884431
20
-5.26005901807326
30
0
41
1
10
47.1156034884431
20
-4.7085279967892
30
0
41
1
10
47.1156034884431
20
-4.41053827072153
30
0
41
1
10
47.1156034884431
20
-3.92890508016797
30
0
41
1
10
47.1156034884431
20
-3.76395412997741
30
0
41
1
10
47.1156034884431
20
-3.42796944986907
30
0
41
1
10
47.1156034884431
20
-3.25653989440048
30
0
41
1
10
47.1156034884431
20
-2.73209084768979
30
0
41
1
10
47.1156034884431
20
-2.36893779041964
30
0
41
1
10
47.1156034884431
20
-1.99181399410531
30
0
0
SPLINE
5
CE
100
AcDbEntity
8
1
62
256
6
ByLayer
370
18
48
1
60
0
100
AcDbSpline
70
4
71
3
72
40
73
36
40
0
40
0
40
0
40
0
40
0.009767418199019
40
0.009767418199019
40
0.054777990099058
40
0.054777990099058
40
0.099788561999097
40
0.099788561999097
40
0.189809705799175
40
0.189809705799175
40
0.234820277699217
40
0.234820277699217
40
0.279830849599258
40
0.279830849599258
40
0.369851993399345
40
0.369851993399345
40
0.414862565299391
40
0.414862565299391
40
0.459873137199437
40
0.459873137199437
40
0.549894280999529
40
0.549894280999529
40
0.594904852899574
40
0.594904852899574
40
0.63991542479962
40
0.63991542479962
40
0.729936568599712
40
0.729936568599712
40
0.77494714049976
40
0.77494714049976
40
0.819957712399808
40
0.819957712399808
40
0.909978856199904
40
0.909978856199904
40
1
40
1
40
1
40
1
41
1
10
75.1623628411372
20
4.65948583967784
30
0
41
1
10
75.2102513784586
20
4.67875819876946
30
0
41
1
10
75.2581425360913
20
4.69796531224765
30
0
41
1
10
75.5267352656822
20
4.80532671015686
30
0
41
1
10
75.7475798541007
20
4.89200313779841
30
0
41
1
10
76.1907355278429
20
5.06053091306271
30
0
41
1
10
76.4131395403936
20
5.14267641229281
30
0
41
1
10
77.0801526545209
20
5.38239446983599
30
0
41
1
10
77.5234578674318
20
5.53274466813289
30
0
41
1
10
78.1850277619317
20
5.74580429287437
30
0
41
1
10
78.4049398842457
20
5.81476025769999
30
0
41
1
10
78.8450249429055
20
5.94689031885835
30
0
41
1
10
79.0650493851725
20
6.01025472235307
30
0
41
1
10
79.7247922339657
20
6.19270698966722
30
0
41
1
10
80.1642207209915
20
6.30416651970361
30
0
41
1
10
80.8215732881861
20
6.45707572191625
30
0
41
1
10
81.0402056557188
20
6.50578244014463
30
0
41
1
10
81.4781347373482
20
6.59735313202231
30
0
41
1
10
81.6973154122941
20
6.64033045022595
30
0
41
1
10
82.3553016273362
20
6.76111020173073
30
0
41
1
10
82.7945066247842
20
6.83084149586128
30
0
41
1
10
83.4531091518745
20
6.91960491586923
30
0
41
1
10
83.6723568729105
20
6.94664039701809
30
0
41
1
10
84.1117761413202
20
6.9948569385252
30
0
41
1
10
84.3319289476788
20
7.01606899877257
30
0
41
1
10
84.9936081080742
20
7.07114842575041
30
0
41
1
10
85.436242178147
20
7.09654958390158
30
0
41
1
10
86.1015755163305
20
7.11746689317528
30
0
41
1
10
86.3235651625441
20
7.12156776447276
30
0
41
1
10
86.7671946655265
20
7.12379808353188
30
0
41
1
10
86.9890029891033
20
7.12195473366009
30
0
41
1
10
87.6543908044212
20
7.10776288599558
30
0
41
1
10
88.0977842283337
20
7.08679845341607
30
0
41
1
10
88.9829421917864
20
7.02172688250329
30
0
41
1
10
89.4239809609758
20
6.97719462142999
30
0
41
1
10
89.8666309132704
20
6.92179946294334
30
0
0
SPLINE
5
CF
100
AcDbEntity
8
1
62
256
6
ByLayer
370
18
48
1
60
0
100
AcDbSpline
70
4
71
3
72
14
73
10
40
0
40
0
40
0
40
0
40
0.25
40
0.25
40
0.5
40
0.5
40
0.75
40
0.75
40
1
40
1
40
1
40
1
41
1
10
89.4191985529926
20
1.52166162601853
30
0
41
1
10
89.4156919513546
20
1.54174457255692
30
0
41
1
10
89.4165205970971
20
1.56268277576791
30
0
41
1
10
89.4303705949549
20
1.60090706400789
30
0
41
1
10
89.4437615823596
20
1.6179655915289
30
0
41
1
10
89.4770841414548
20
1.64235943875056
30
0
41
1
10
89.496677214018
20
1.65017774786722
30
0
41
1
10
89.5366937432329
20
1.65940210694006
30
0
41
1
10
89.5574332067998
20
1.66093615977761
30
0
41
1
10
89.5780246850966
20
1.66034806843825
30
0
0
SPLINE
5
D0
100
AcDbEntity
8
1
62
256
6
ByLayer
370
18
48
1
60
0
100
AcDbSpline
70
4
71
3
72
14
73
10
40
0
40
0
40
0
40
0
40
0.278299680412542
40
0.278299680412542
40
0.417449520618816
40
0.417449520618816
40
0.556599360825091
40
0.556599360825091
40
1
40
1
40
1
40
1
41
1
10
89.6085298327877
20
-6.76188911996053
30
0
41
1
10
88.7180843962868
20
-6.78163577527707
30
0
41
1
10
87.8297595082173
20
-6.75630207298883
30
0
41
1
10
86.4955056610003
20
-6.65203018091896
30
0
41
1
10
86.0504408096576
20
-6.60623876901485
30
0
41
1
10
85.1588622037153
20
-6.49285712141776
30
0
41
1
10
84.714370817723
20
-6.42549749565163
30
0
41
1
10
82.8596709112392
20
-6.10096295413172
30
0
41
1
10
81.4607179054137
20
-5.75079736024921
30
0
41
1
10
80.0608887672532
20
-5.313662601728
30
0
0
SPLINE
5
D1
100
AcDbEntity
8
1
62
256
6
ByLayer
370
13
48
1
60
0
100
AcDbSpline
70
4
71
3
72
26
73
22
40
0
40
0
40
0
40
0
40
0.0667680762409933
40
0.0667680762409933
40
0.230917754878935
40
0.230917754878935
40
0.312992594197908
40
0.312992594197908
40
0.395067433516881
40
0.395067433516881
40
0.559217112154823
40
0.559217112154823
40
0.723366790792764
40
0.723366790792764
40
0.887516469430706
40
0.887516469430706
40
0.928553889090192
40
0.928553889090192
40
0.969591308749678
40
0.969591308749678
40
1
40
1
40
1
40
1
41
1
10
80.0608887960171
20
-5.31366261071028
30
0
41
1
10
79.7035170215576
20
-5.20206354504754
30
0
41
1
10
79.3460881439435
20
-5.08479614140438
30
0
41
1
10
78.1089380871208
20
-4.66055339453743
30
0
41
1
10
77.2277200866745
20
-4.32654441143518
30
0
41
1
10
75.898178017709
20
-3.78336770844464
30
0
41
1
10
75.4532066667537
20
-3.59512084214384
30
0
41
1
10
74.5618393683201
20
-3.20688698725235
30
0
41
1
10
74.1178097657831
20
-3.00788783214779
30
0
41
1
10
72.7893991073914
20
-2.39876374431358
30
0
41
1
10
71.908795393206
20
-1.97633602388848
30
0
41
1
10
70.1499886899974
20
-1.1139993302217
30
0
41
1
10
69.2720467610592
20
-0.673596038396624
30
0
41
1
10
67.51224546772
20
0.211975793873307
30
0
41
1
10
66.6304602976131
20
0.657276401702518
30
0
41
1
10
65.5214074883772
20
1.20795993688193
30
0
41
1
10
65.29926808098
20
1.31782538520397
30
0
41
1
10
64.8542105420435
20
1.53676584989944
30
0
41
1
10
64.6310351719522
20
1.64596231844479
30
0
41
1
10
64.2433746814916
20
1.83433144251308
30
0
41
1
10
64.0785851717325
20
1.91398832676688
30
0
41
1
10
63.9139829281778
20
1.99309793268355
30
0
0
SPLINE
5
D2
100
AcDbEntity
8
1
62
256
6
ByLayer
370
18
48
1
60
0
100
AcDbSpline
70
4
71
3
72
18
73
14
40
0
40
0
40
0
40
0
40
0.249999999999998
40
0.249999999999998
40
0.374999999999997
40
0.374999999999997
40
0.499999999999996
40
0.499999999999996
40
0.749999999999996
40
0.749999999999996
40
0.874999999999998
40
0.874999999999998
40
1
40
1
40
1
40
1
41
1
10
89.034473268082
20
-5.35959961838481
30
0
41
1
10
89.0345759273571
20
-5.60368364816497
30
0
41
1
10
89.0462005613618
20
-5.81736901952021
30
0
41
1
10
89.081495207537
20
-6.0930527554714
30
0
41
1
10
89.0962593225618
20
-6.17743023580999
30
0
41
1
10
89.132174721389
20
-6.33074402177877
30
0
41
1
10
89.1531209501658
20
-6.3987209334889
30
0
41
1
10
89.2246303193909
20
-6.57647784405168
30
0
41
1
10
89.2839184687625
20
-6.66081943027683
30
0
41
1
10
89.391684176224
20
-6.73709208610106
30
0
41
1
10
89.4309175024811
20
-6.75410986319474
30
0
41
1
10
89.5153119189375
20
-6.77081413550798
30
0
41
1
10
89.5604159190262
20
-6.77057052597141
30
0
41
1
10
89.6085298327462
20
-6.7618891199601
30
0
0
SPLINE
5
D3
100
AcDbEntity
8
1
62
256
6
ByLayer
370
18
48
1
60
0
100
AcDbSpline
70
4
71
3
72
14
73
10
40
0
40
0
40
0
40
0
40
0.25
40
0.25
40
0.5
40
0.5
40
0.75
40
0.75
40
1
40
1
40
1
40
1
41
1
10
89.6085298327376
20
-6.76188911996164
30
0
41
1
10
89.611968718214
20
-6.76126862666283
30
0
41
1
10
89.6147637709606
20
-6.76234857874232
30
0
41
1
10
89.6186584518896
20
-6.76897143123276
30
0
41
1
10
89.6197031657649
20
-6.77459935912773
30
0
41
1
10
89.6188642158158
20
-6.79144278451011
30
0
41
1
10
89.6169037997764
20
-6.80268743501699
30
0
41
1
10
89.610028714174
20
-6.8282094237988
30
0
41
1
10
89.6051873568985
20
-6.84225096646361
30
0
41
1
10
89.5998367079381
20
-6.8555605527003
30
0
0
SPLINE
5
D4
100
AcDbEntity
8
1
62
256
6
ByLayer
370
18
48
1
60
0
100
AcDbSpline
70
4
71
3
72
26
73
22
40
0
40
0
40
0
40
0
40
0.0271513523004903
40
0.0271513523004903
40
0.115592138454992
40
0.115592138454992
40
0.292473710763992
40
0.292473710763992
40
0.380914496918493
40
0.380914496918493
40
0.469355283072993
40
0.469355283072993
40
0.557796069227493
40
0.557796069227493
40
0.646236855381994
40
0.646236855381994
40
0.823118427690997
40
0.823118427690997
40
0.911559213845498
40
0.911559213845498
40
1
40
1
40
1
40
1
41
1
10
33.5637958631456
20
6.73279498057332
30
0
41
1
10
33.6622901527783
20
6.78309737929445
30
0
41
1
10
33.7607849908036
20
6.83288449452616
30
0
41
1
10
34.1800874726717
20
7.04267180585941
30
0
41
1
10
34.5002776929805
20
7.19829097751966
30
0
41
1
10
35.4636006654087
20
7.64576188996679
30
0
41
1
10
36.1106091646721
20
7.91752166600469
30
0
41
1
10
37.0851699966769
20
8.2871823161349
30
0
41
1
10
37.4081683301317
20
8.40358242187332
30
0
41
1
10
38.0537934509606
20
8.61964215158159
30
0
41
1
10
38.3763208478367
20
8.71959967128771
30
0
41
1
10
39.0201335980548
20
8.90416918860117
30
0
41
1
10
39.341481090778
20
8.98874470872909
30
0
41
1
10
39.9823619403727
20
9.14279517209135
30
0
41
1
10
40.3017849660074
20
9.21224691387306
30
0
41
1
10
41.2628773466758
20
9.39555842921865
30
0
41
1
10
41.9054367211137
20
9.4856472504251
30
0
41
1
10
42.868210459134
20
9.57277809356015
30
0
41
1
10
43.1895166391445
20
9.5936062198501
30
0
41
1
10
43.835344496889
20
9.618497178544
30
0
41
1
10
44.159427468484
20
9.62264606189177
30
0
41
1
10
44.4844111151684
20
9.61837591189681
30
0
0
SPLINE
5
D5
100
AcDbEntity
8
1
62
256
6
ByLayer
370
18
48
1
60
0
100
AcDbSpline
70
4
71
3
72
30
73
26
40
0
40
0
40
0
40
0
40
0.0625000000000004
40
0.0625000000000004
40
0.125000000000001
40
0.125000000000001
40
0.187500000000001
40
0.187500000000001
40
0.250000000000001
40
0.250000000000001
40
0.312500000000002
40
0.312500000000002
40
0.375000000000002
40
0.375000000000002
40
0.500000000000001
40
0.500000000000001
40
0.625
40
0.625
40
0.749999999999998
40
0.749999999999998
40
0.812499999999999
40
0.812499999999999
40
0.874999999999999
40
0.874999999999999
40
1
40
1
40
1
40
1
41
1
10
43.2104960992448
20
0.527122564862765
30
0
41
1
10
42.9169252318809
20
0.737154160693621
30
0
41
1
10
42.6237285263218
20
0.947448733694387
30
0
41
1
10
42.0365275787726
20
1.36636416648446
30
0
41
1
10
41.7423871928536
20
1.57479409009591
30
0
41
1
10
41.1529383400627
20
1.98947414412285
30
0
41
1
10
40.8576318007949
20
2.19572709765268
30
0
41
1
10
40.2659265379018
20
2.60615281001122
30
0
41
1
10
39.9697360019195
20
2.81061657961777
30
0
41
1
10
39.3754750654068
20
3.2163473013344
30
0
41
1
10
39.0781106963878
20
3.41655393017987
30
0
41
1
10
38.4855296672222
20
3.80977632522863
30
0
41
1
10
38.1898934128643
20
4.0030894340255
30
0
41
1
10
37.3050332405099
20
4.57340846683721
30
0
41
1
10
36.7185827012841
20
4.94162483735451
30
0
41
1
10
35.5440834241448
20
5.64398027728581
30
0
41
1
10
34.9568207435945
20
5.97920810205542
30
0
41
1
10
33.7826510509142
20
6.61777116192258
30
0
41
1
10
33.1931152516235
20
6.91826598084293
30
0
41
1
10
32.3046736490548
20
7.34008331388216
30
0
41
1
10
32.007808281653
20
7.4759326346917
30
0
41
1
10
31.41318550576
20
7.73779200644211
30
0
41
1
10
31.1160425594086
20
7.86279476848873
30
0
41
1
10
30.224476359083
20
8.21968884998105
30
0
41
1
10
29.6296132530091
20
8.4333472096869
30
0
41
1
10
29.0345633266434
20
8.62277493679139
30
0
0
SPLINE
5
D6
100
AcDbEntity
8
1
62
256
6
ByLayer
370
13
48
1
60
0
100
AcDbSpline
70
4
71
3
72
10
73
6
40
0
40
0
40
0
40
0
40
0.798083307795187
40
0.798083307795187
40
1
40
1
40
1
40
1
41
1
10
47.1156034884413
20
-6.83697940391139
30
0
41
1
10
47.5588953018681
20
-6.82923076736219
30
0
41
1
10
48.0033830601132
20
-6.81028535509765
30
0
41
1
10
48.5623747029517
20
-6.77228333641557
30
0
41
1
10
48.6752182631608
20
-6.76389069465483
30
0
41
1
10
48.7880428534672
20
-6.75478257533533
30
0
0
SPLINE
5
D7
100
AcDbEntity
8
1
62
256
6
ByLayer
370
18
48
1
60
0
100
AcDbSpline
70
4
71
3
72
8
73
4
40
0
40
0
40
0
40
0
40
1
40
1
40
1
40
1
41
1
10
91.9891362034803
20
-0.13405672412739
30
0
41
1
10
91.9898659020308
20
-0.109225977311269
30
0
41
1
10
91.9939189603346
20
-0.0796240245702506
30
0
41
1
10
91.9999693001282
20
-0.0481955291778036
30
0
0
SPLINE
5
D8
100
AcDbEntity
8
1
62
256
6
ByLayer
370
18
48
1
60
0
100
AcDbSpline
70
4
71
3
72
88
73
84
40
0
40
0
40
0
40
0
40
0.0624999999999994
40
0.0624999999999994
40
0.0937499999999987
40
0.0937499999999987
40
0.124999999999998
40
0.124999999999998
40
0.187499999999996
40
0.187499999999996
40
0.249999999999993
40
0.249999999999993
40
0.312499999999991
40
0.312499999999991
40
0.32812499999999
40
0.32812499999999
40
0.34374999999999
40
0.34374999999999
40
0.374999999999988
40
0.374999999999988
40
0.406249999999986
40
0.406249999999986
40
0.437499999999985
40
0.437499999999985
40
0.453124999999983
40
0.453124999999983
40
0.468749999999982
40
0.468749999999982
40
0.484374999999981
40
0.484374999999981
40
0.49999999999998
40
0.49999999999998
40
0.515624999999979
40
0.515624999999979
40
0.523437499999978
40
0.523437499999978
40
0.531249999999977
40
0.531249999999977
40
0.546874999999976
40
0.546874999999976
40
0.554687499999975
40
0.554687499999975
40
0.562499999999974
40
0.562499999999974
40
0.578124999999972
40
0.578124999999972
40
0.593749999999971
40
0.593749999999971
40
0.609374999999969
40
0.609374999999969
40
0.624999999999967
40
0.624999999999967
40
0.640624999999965
40
0.640624999999965
40
0.656249999999963
40
0.656249999999963
40
0.671874999999962
40
0.671874999999962
40
0.675781249999961
40
0.675781249999961
40
0.677734374999961
40
0.677734374999961
40
0.679687499999961
40
0.679687499999961
40
0.681640624999962
40
0.681640624999962
40
0.683593749999962
40
0.683593749999962
40
0.687499999999962
40
0.687499999999962
40
0.718749999999966
40
0.718749999999966
40
0.749999999999969
40
0.749999999999969
40
0.781249999999973
40
0.781249999999973
40
0.812499999999976
40
0.812499999999976
40
0.874999999999984
40
0.874999999999984
40
0.937499999999992
40
0.937499999999992
40
1
40
1
40
1
40
1
41
1
10
29.0345633266434
20
-8.62277493679139
30
0
41
1
10
28.361082200885
20
-8.82822784092801
30
0
41
1
10
27.6994564097171
20
-9.00873730122208
30
0
41
1
10
26.7142655784848
20
-9.23061457665591
30
0
41
1
10
26.387103635222
20
-9.29649112754166
30
0
41
1
10
25.7336578500413
20
-9.41077345255908
30
0
41
1
10
25.4068578639633
20
-9.45922626093378
30
0
41
1
10
24.432681681619
20
-9.57625187007929
30
0
41
1
10
23.7897138747717
20
-9.616871053437
30
0
41
1
10
22.5093477268333
20
-9.62278096738456
30
0
41
1
10
21.8719353438177
20
-9.58825570449503
30
0
41
1
10
20.600707191253
20
-9.44220465921921
30
0
41
1
10
19.9668483115191
20
-9.33094985181003
30
0
41
1
10
19.1793432613676
20
-9.13779813899336
30
0
41
1
10
19.0221006261351
20
-9.0964311926802
30
0
41
1
10
18.7082761633261
20
-9.00790525495179
30
0
41
1
10
18.551511045714
20
-8.96068135436286
30
0
41
1
10
18.0850870202386
20
-8.81057173047424
30
0
41
1
10
17.7786083904306
20
-8.69914874101207
30
0
41
1
10
17.1772648469951
20
-8.45053473505575
30
0
41
1
10
16.8823602222964
20
-8.31339278979772
30
0
41
1
10
16.3084334632335
20
-8.00798871824014
30
0
41
1
10
16.0293557524508
20
-7.83982223556401
30
0
41
1
10
15.6281068267801
20
-7.55693834820585
30
0
41
1
10
15.4972587350115
20
-7.45741481288121
30
0
41
1
10
15.2457287779607
20
-7.24848748205105
30
0
41
1
10
15.124677154632
20
-7.13887075703124
30
0
41
1
10
14.8940629041203
20
-6.90753797743537
30
0
41
1
10
14.7844886218332
20
-6.78583366345515
30
0
41
1
10
14.5797512324826
20
-6.52775056339544
30
0
41
1
10
14.4856534095996
20
-6.39262111526386
30
0
41
1
10
14.3185857788378
20
-6.11021654807314
30
0
41
1
10
14.2453902787925
20
-5.9626867126135
30
0
41
1
10
14.1545113292689
20
-5.73017485129833
30
0
41
1
10
14.1273789877425
20
-5.65079631738436
30
0
41
1
10
14.0802229612444
20
-5.48789546655792
30
0
41
1
10
14.0601170727508
20
-5.4039346111484
30
0
41
1
10
14.0124010590157
20
-5.14871607504992
30
0
41
1
10
13.9973423765918
20
-4.97491801946359
30
0
41
1
10
14.0019072265724
20
-4.70865843860264
30
0
41
1
10
14.007946992211
20
-4.61897762377907
30
0
41
1
10
14.0295068252827
20
-4.43773603449
30
0
41
1
10
14.0451072044864
20
-4.34610150086448
30
0
41
1
10
14.105146961113
20
-4.07442739981633
30
0
41
1
10
14.1629624440762
20
-3.89560547196558
30
0
41
1
10
14.3112815893465
20
-3.54253813103577
30
0
41
1
10
14.4025982092284
20
-3.36725944298789
30
0
41
1
10
14.6082535829244
20
-3.03240539466009
30
0
41
1
10
14.7230031461511
20
-2.87143222640566
30
0
41
1
10
14.9723763731416
20
-2.56047098793761
30
0
41
1
10
15.1073372011146
20
-2.41018984012172
30
0
41
1
10
15.3931338261912
20
-2.12070492720849
30
0
41
1
10
15.5428555381463
20
-1.98256046435049
30
0
41
1
10
15.8536898506835
20
-1.71741785288606
30
0
41
1
10
16.0150914111607
20
-1.59023392313267
30
0
41
1
10
16.3458736127565
20
-1.34696413219396
30
0
41
1
10
16.5153393750866
20
-1.23077838450158
30
0
41
1
10
16.7315822651002
20
-1.09149066028894
30
0
41
1
10
16.7750522846204
20
-1.06393151109555
30
0
41
1
10
16.8405791487069
20
-1.02302731916203
30
0
41
1
10
16.8624784504353
20
-1.00946297755024
30
0
41
1
10
16.9063575568623
20
-0.982492539299471
30
0
41
1
10
16.9280311171735
20
-0.968490609270674
30
0
41
1
10
16.9762438567453
20
-0.949872812313146
30
0
41
1
10
17.0021308869582
20
-0.943945721028257
30
0
41
1
10
17.0534230214871
20
-0.93802953251182
30
0
41
1
10
17.0793605767018
20
-0.938709785482217
30
0
41
1
10
17.1571048254322
20
-0.939896660482646
30
0
41
1
10
17.2089459738832
20
-0.940804380506222
30
0
41
1
10
17.6754084511004
20
-0.950506094680065
30
0
41
1
10
18.0898161405079
20
-0.970229914414404
30
0
41
1
10
18.9159887387531
20
-1.03147450794447
30
0
41
1
10
19.3280008706952
20
-1.07298138859892
30
0
41
1
10
20.1499001272101
20
-1.17743206501004
30
0
41
1
10
20.5603498685996
20
-1.24050035462591
30
0
41
1
10
21.3728489094045
20
-1.38655537333574
30
0
41
1
10
21.7755839030379
20
-1.46960012874428
30
0
41
1
10
22.9736874727559
20
-1.7468435723253
30
0
41
1
10
23.7588671905762
20
-1.96943071813592
30
0
41
1
10
25.3044442254807
20
-2.47905838605135
30
0
41
1
10
26.0648385944733
20
-2.76608568130391
30
0
41
1
10
27.5643442968757
20
-3.38958009286097
30
0
41
1
10
28.3034836716056
20
-3.72594481839911
30
0
41
1
10
29.0345633266431
20
-4.07722761870002
30
0
0
SPLINE
5
D9
100
AcDbEntity
8
1
62
256
6
ByLayer
370
18
48
1
60
0
100
AcDbSpline
70
4
71
3
72
8
73
4
40
0
40
0
40
0
40
0
40
1
40
1
40
1
40
1
41
1
10
90.435299909667
20
-2.68689900393244
30
0
41
1
10
89.9516538843042
20
-3.56262605708179
30
0
41
1
10
89.4846215211037
20
-4.45344437342786
30
0
41
1
10
89.034473268082
20
-5.35959961838486
30
0
0
SPLINE
5
DA
100
AcDbEntity
8
1
62
256
6
ByLayer
370
18
48
1
60
0
100
AcDbSpline
70
4
71
3
72
8
73
4
40
0
40
0
40
0
40
0
40
1
40
1
40
1
40
1
41
1
10
91.9186651697017
20
1.59864192887002
30
0
41
1
10
91.9513124502833
20
1.10991687093886
30
0
41
1
10
91.9748052451674
20
0.621721660872225
30
0
41
1
10
91.9891362034803
20
0.134056724127561
30
0
0
SPLINE
5
DB
100
AcDbEntity
8
1
62
256
6
ByLayer
370
18
48
1
60
0
100
AcDbSpline
70
4
71
3
72
38
73
34
40
0
40
0
40
0
40
0
40
0.115110260858887
40
0.115110260858887
40
0.178316670797538
40
0.178316670797538
40
0.209919875766863
40
0.209919875766863
40
0.241523080736189
40
0.241523080736189
40
0.30472949067484
40
0.30472949067484
40
0.36793590061349
40
0.36793590061349
40
0.431142310552141
40
0.431142310552141
40
0.494348720490792
40
0.494348720490792
40
0.557555130429443
40
0.557555130429443
40
0.589158335398768
40
0.589158335398768
40
0.620761540368093
40
0.620761540368093
40
0.747174360245395
40
0.747174360245395
40
0.810380770184046
40
0.810380770184046
40
0.841983975153372
40
0.841983975153372
40
0.873587180122697
40
0.873587180122697
40
1
40
1
40
1
40
1
41
1
10
44.4700550321708
20
-9.62001435089991
30
0
41
1
10
44.4213870065772
20
-9.62003212455363
30
0
41
1
10
44.3733872040333
20
-9.56363904534649
30
0
41
1
10
44.2988149871343
20
-9.39154536503787
30
0
41
1
10
44.2722391463928
20
-9.31392398927807
30
0
41
1
10
44.2321030652374
20
-9.171790094128
30
0
41
1
10
44.2186682981984
20
-9.12006492220303
30
0
41
1
10
44.191981740042
20
-9.00921770089934
30
0
41
1
10
44.1786908563679
20
-8.94996617935593
30
0
41
1
10
44.1389281354832
20
-8.76092258458829
30
0
41
1
10
44.1126640215784
20
-8.61986709855114
30
0
41
1
10
44.0602300434589
20
-8.30801821523411
30
0
41
1
10
44.0334622767845
20
-8.1372503687393
30
0
41
1
10
43.9798013962264
20
-7.76536075317037
30
0
41
1
10
43.9527660848125
20
-7.56326832734089
30
0
41
1
10
43.900173614199
20
-7.13724472283366
30
0
41
1
10
43.8742170206838
20
-6.91252167356092
30
0
41
1
10
43.8210764659798
20
-6.44021744960614
30
0
41
1
10
43.7940714142144
20
-6.19262816369931
30
0
41
1
10
43.753710360281
20
-5.80383687700458
30
0
41
1
10
43.7403193444845
20
-5.67133024231026
30
0
41
1
10
43.7136711259005
20
-5.40039078018876
30
0
41
1
10
43.70036262327
20
-5.26160181173967
30
0
41
1
10
43.6342445314938
20
-4.56010676418737
30
0
41
1
10
43.5810936072509
20
-3.97122159094607
30
0
41
1
10
43.5020082168549
20
-3.04736186344382
30
0
41
1
10
43.4757853643246
20
-2.73259677626945
30
0
41
1
10
43.4356376662559
20
-2.24995434943207
30
0
41
1
10
43.4222170715616
20
-2.08810824260905
30
0
41
1
10
43.3955484872914
20
-1.76430028311611
30
0
41
1
10
43.3822768558618
20
-1.6020579887898
30
0
41
1
10
43.3161296410959
20
-0.78918798118454
30
0
41
1
10
43.2640604863186
20
-0.133621420314995
30
0
41
1
10
43.2104960992449
20
0.527122564862708
30
0
0
SPLINE
5
DC
100
AcDbEntity
8
1
62
256
6
ByLayer
370
18
48
1
60
0
100
AcDbSpline
70
4
71
3
72
92
73
88
40
0
40
0
40
0
40
0
40
0.0338169162502099
40
0.0338169162502099
40
0.0676338325004198
40
0.0676338325004198
40
0.0845422906255243
40
0.0845422906255243
40
0.101450748750629
40
0.101450748750629
40
0.135267665000839
40
0.135267665000839
40
0.152176123125944
40
0.152176123125944
40
0.169084581251049
40
0.169084581251049
40
0.20290149750126
40
0.20290149750126
40
0.219809955626366
40
0.219809955626366
40
0.236718413751471
40
0.236718413751471
40
0.253626871876576
40
0.253626871876576
40
0.270535330001682
40
0.270535330001682
40
0.287443788126787
40
0.287443788126787
40
0.304352246251892
40
0.304352246251892
40
0.338169162502103
40
0.338169162502103
40
0.355077620627208
40
0.355077620627208
40
0.371986078752314
40
0.371986078752314
40
0.405802995002524
40
0.405802995002524
40
0.422711453127629
40
0.422711453127629
40
0.439619911252734
40
0.439619911252734
40
0.473436827502944
40
0.473436827502944
40
0.490345285628049
40
0.490345285628049
40
0.507253743753154
40
0.507253743753154
40
0.541070660003363
40
0.541070660003363
40
0.574887576253572
40
0.574887576253572
40
0.608704492503781
40
0.608704492503781
40
0.64252140875399
40
0.64252140875399
40
0.676338325004199
40
0.676338325004199
40
0.710155241254408
40
0.710155241254408
40
0.727063699379512
40
0.727063699379512
40
0.743972157504616
40
0.743972157504616
40
0.777789073754826
40
0.777789073754826
40
0.79469753187993
40
0.79469753187993
40
0.811605990005034
40
0.811605990005034
40
0.845422906255244
40
0.845422906255244
40
0.862331364380349
40
0.862331364380349
40
0.879239822505454
40
0.879239822505454
40
0.913056738755663
40
0.913056738755663
40
0.929965196880768
40
0.929965196880768
40
0.946873655005873
40
0.946873655005873
40
0.980690571256081
40
0.980690571256081
40
0.997599029381185
40
0.997599029381185
40
1
40
1
40
1
40
1
41
1
10
47.5577725128026
20
6.91596866640202
30
0
41
1
10
48.0022401778131
20
6.86335589211672
30
0
41
1
10
48.4437493256068
20
6.7988223302535
30
0
41
1
10
49.3268042077771
20
6.64948984928947
30
0
41
1
10
49.7678141944614
20
6.56455196891542
30
0
41
1
10
50.4276914483508
20
6.42137355555226
30
0
41
1
10
50.6473694857481
20
6.37100506218434
30
0
41
1
10
51.0857678706994
20
6.26455173478715
30
0
41
1
10
51.3048868352602
20
6.20880659837539
30
0
41
1
10
51.9629151804761
20
6.03499050132027
30
0
41
1
10
52.4021063293899
20
5.91004589809452
30
0
41
1
10
53.0606862390395
20
5.70814607331459
30
0
41
1
10
53.2802048586941
20
5.63845518241001
30
0
41
1
10
53.7187899730099
20
5.49367394522693
30
0
41
1
10
53.9380020345982
20
5.41873658266999
30
0
41
1
10
54.597231477314
20
5.18860116293817
30
0
41
1
10
55.0382237750607
20
5.02740565025371
30
0
41
1
10
55.7009481824336
20
4.77255424370532
30
0
41
1
10
55.9221046218565
20
4.68548096034073
30
0
41
1
10
56.3645128453208
20
4.50635663620136
30
0
41
1
10
56.585734383223
20
4.41423035085771
30
0
41
1
10
57.029734329836
20
4.22721760890124
30
0
41
1
10
57.2523382938921
20
4.13212225914674
30
0
41
1
10
57.696358458334
20
3.93946031849802
30
0
41
1
10
57.9180419178626
20
3.84174431002722
30
0
41
1
10
58.3606536938549
20
3.64338599722075
30
0
41
1
10
58.5816126965258
20
3.54279727205213
30
0
41
1
10
59.0224572161906
20
3.33813630844233
30
0
41
1
10
59.242200314499
20
3.23380796589151
30
0
41
1
10
59.9018302236908
20
2.91909825541219
30
0
41
1
10
60.3416764419665
20
2.70626260237242
30
0
41
1
10
61.0005741617059
20
2.38078262415914
30
0
41
1
10
61.2201007719389
20
2.27131977119353
30
0
41
1
10
61.6586249686118
20
2.04985982062658
30
0
41
1
10
61.8774010334395
20
1.93744714315278
30
0
41
1
10
62.5345503979034
20
1.59936269618274
30
0
41
1
10
62.9737093634871
20
1.37282146348258
30
0
41
1
10
63.6330627713066
20
1.02952038626131
30
0
41
1
10
63.8529758447921
20
0.914552093786426
30
0
41
1
10
64.2928241095073
20
0.683070806357676
30
0
41
1
10
64.5125316109823
20
0.566108940822147
30
0
41
1
10
65.1727002975164
20
0.214828748046358
30
0
41
1
10
65.6148092914494
20
-0.0186611735397264
30
0
41
1
10
66.2801013756854
20
-0.369544134665119
30
0
41
1
10
66.5022303314585
20
-0.486595829742896
30
0
41
1
10
66.9470542437596
20
-0.721245878913351
30
0
41
1
10
67.168709775038
20
-0.838768133751842
30
0
41
1
10
67.8323747886179
20
-1.18990332592517
30
0
41
1
10
68.2743289095534
20
-1.41963748137954
30
0
41
1
10
69.1563318887739
20
-1.87266908261142
30
0
41
1
10
69.5963693650751
20
-2.09599441922018
30
0
41
1
10
70.4729398004752
20
-2.5390362765551
30
0
41
1
10
70.9116416464078
20
-2.75476122747273
30
0
41
1
10
71.7892118649499
20
-3.17614084413856
30
0
41
1
10
72.2281257514896
20
-3.38173624107662
30
0
41
1
10
73.1040177124189
20
-3.78620076951754
30
0
41
1
10
73.542950040566
20
-3.98176720807211
30
0
41
1
10
74.4233524519407
20
-4.35883567786305
30
0
41
1
10
74.8646347206231
20
-4.54067308314944
30
0
41
1
10
75.5267352656716
20
-4.80532671015266
30
0
41
1
10
75.74757985409
20
-4.89200313779426
30
0
41
1
10
76.1907355278323
20
-5.06053091305873
30
0
41
1
10
76.413139540383
20
-5.14267641228892
30
0
41
1
10
77.0801526545106
20
-5.38239446983232
30
0
41
1
10
77.5234578674214
20
-5.53274466812934
30
0
41
1
10
78.1850277619214
20
-5.74580429287116
30
0
41
1
10
78.4049398842355
20
-5.81476025769683
30
0
41
1
10
78.8450249428955
20
-5.94689031885542
30
0
41
1
10
79.0650493851625
20
-6.01025472235023
30
0
41
1
10
79.7247922339558
20
-6.19270698966463
30
0
41
1
10
80.1642207209817
20
-6.30416651970117
30
0
41
1
10
80.8215732881764
20
-6.45707572191407
30
0
41
1
10
81.0402056557091
20
-6.50578244014253
30
0
41
1
10
81.4781347373386
20
-6.59735313202037
30
0
41
1
10
81.6973154122845
20
-6.64033045022413
30
0
41
1
10
82.3553016273268
20
-6.76111020172917
30
0
41
1
10
82.7945066247748
20
-6.83084149585986
30
0
41
1
10
83.4531091518653
20
-6.91960491586804
30
0
41
1
10
83.6723568729012
20
-6.94664039701701
30
0
41
1
10
84.111776141311
20
-6.99485693852426
30
0
41
1
10
84.3319289476697
20
-7.01606899877171
30
0
41
1
10
84.9936081080652
20
-7.07114842574981
30
0
41
1
10
85.4362421781381
20
-7.09654958390115
30
0
41
1
10
86.1015755163216
20
-7.11746689317508
30
0
41
1
10
86.3235651625353
20
-7.12156776447262
30
0
41
1
10
86.5768772094754
20
-7.12284127464821
30
0
41
1
10
86.608374375315
20
-7.12293997142294
30
0
41
1
10
86.6398713944889
20
-7.12297921830904
30
0
0
SPLINE
5
DD
100
AcDbEntity
8
1
62
256
6
ByLayer
370
18
48
1
60
0
100
AcDbSpline
70
4
71
3
72
38
73
34
40
0
40
0
40
0
40
0
40
0.0350731589141243
40
0.0350731589141243
40
0.0953810864819916
40
0.0953810864819916
40
0.155689014049859
40
0.155689014049859
40
0.215996941617726
40
0.215996941617726
40
0.276304869185593
40
0.276304869185593
40
0.33661279675346
40
0.33661279675346
40
0.396920724321328
40
0.396920724321328
40
0.457228651889195
40
0.457228651889195
40
0.517536579457062
40
0.517536579457062
40
0.57784450702493
40
0.57784450702493
40
0.638152434592797
40
0.638152434592797
40
0.698460362160664
40
0.698460362160664
40
0.758768289728531
40
0.758768289728531
40
0.879384144864266
40
0.879384144864266
40
0.939692072432133
40
0.939692072432133
40
1
40
1
40
1
40
1
41
1
10
64.3492219546524
20
6.75229863161613
30
0
41
1
10
64.5654858242078
20
6.7524257532516
30
0
41
1
10
64.7817956166729
20
6.74974200999608
30
0
41
1
10
65.3705951577795
20
6.73491973567107
30
0
41
1
10
65.7431238008462
20
6.71756613620198
30
0
41
1
10
66.488618988379
20
6.66937624141656
30
0
41
1
10
66.861682337163
20
6.637335042047
30
0
41
1
10
67.6070056681788
20
6.55675994417174
30
0
41
1
10
67.9795803382474
20
6.50874385232135
30
0
41
1
10
68.7240570534132
20
6.39945864910533
30
0
41
1
10
69.0959997832788
20
6.33804121002322
30
0
41
1
10
69.8395090274747
20
6.19809228092305
30
0
41
1
10
70.2114687673244
20
6.12051271113361
30
0
41
1
10
70.9565301100824
20
5.95263607497387
30
0
41
1
10
71.3294787137271
20
5.86208327050019
30
0
41
1
10
72.0757404481702
20
5.66599324586366
30
0
41
1
10
72.4478507943698
20
5.56068426167286
30
0
41
1
10
73.1926157267321
20
5.34025304260328
30
0
41
1
10
73.5649075040708
20
5.22502137918605
30
0
41
1
10
74.3089786169732
20
4.98037955729194
30
0
41
1
10
74.680807086403
20
4.85121720449871
30
0
41
1
10
75.4245594892765
20
4.58105854110693
30
0
41
1
10
75.7970231483603
20
4.44092815479746
30
0
41
1
10
76.5430349882814
20
4.15111054343663
30
0
41
1
10
76.9165593199963
20
4.00124283739487
30
0
41
1
10
77.661722705583
20
3.69335109664161
30
0
41
1
10
78.0335623741889
20
3.53501111248664
30
0
41
1
10
79.1500160807015
20
3.04963258336605
30
0
41
1
10
79.8938238789631
20
2.7096215210413
30
0
41
1
10
81.0104333779402
20
2.18018818616161
30
0
41
1
10
81.3840044618916
20
2.00163030953522
30
0
41
1
10
82.1299922236376
20
1.64043082430106
30
0
41
1
10
82.5020805048056
20
1.4582521881691
30
0
41
1
10
82.8731848156094
20
1.2743766156695
30
0
0
SPLINE
5
DE
100
AcDbEntity
8
1
62
256
6
ByLayer
370
18
48
1
60
0
100
AcDbSpline
70
4
71
3
72
36
73
32
40
0
40
0
40
0
40
0
40
0.12499999999997
40
0.12499999999997
40
0.249999999999941
40
0.249999999999941
40
0.312499999999935
40
0.312499999999935
40
0.374999999999928
40
0.374999999999928
40
0.406249999999925
40
0.406249999999925
40
0.437499999999922
40
0.437499999999922
40
0.453124999999921
40
0.453124999999921
40
0.46874999999992
40
0.46874999999992
40
0.499999999999917
40
0.499999999999917
40
0.531249999999915
40
0.531249999999915
40
0.562499999999912
40
0.562499999999912
40
0.624999999999925
40
0.624999999999925
40
0.74999999999995
40
0.74999999999995
40
0.874999999999975
40
0.874999999999975
40
1
40
1
40
1
40
1
41
1
10
90.435299909667
20
-2.68689900393221
30
0
41
1
10
90.3148838646416
20
-2.65759005316988
30
0
41
1
10
90.194298263611
20
-2.61633716672486
30
0
41
1
10
89.9546597473786
20
-2.50966672172169
30
0
41
1
10
89.8376300827723
20
-2.44559626432672
30
0
41
1
10
89.6684013135651
20
-2.32518566779851
30
0
41
1
10
89.6132289980089
20
-2.28099100191014
30
0
41
1
10
89.5092275822639
20
-2.18168205166103
30
0
41
1
10
89.4602506112381
20
-2.12697877725634
30
0
41
1
10
89.400045604563
20
-2.03222354986914
30
0
41
1
10
89.3821374306953
20
-1.99808364816508
30
0
41
1
10
89.3565989165602
20
-1.92647611579335
30
0
41
1
10
89.3492312778774
20
-1.88917040043051
30
0
41
1
10
89.3508021022188
20
-1.83527320024913
30
0
41
1
10
89.353361820615
20
-1.81826094490665
30
0
41
1
10
89.3623123223736
20
-1.78603046099437
30
0
41
1
10
89.3687570088881
20
-1.77087308589341
30
0
41
1
10
89.3920072408475
20
-1.73010473936799
30
0
41
1
10
89.4131517428411
20
-1.70805684159592
30
0
41
1
10
89.4595523719846
20
-1.67281896449393
30
0
41
1
10
89.4853957161397
20
-1.65907185433411
30
0
41
1
10
89.5388475843506
20
-1.63729794009987
30
0
41
1
10
89.566494335678
20
-1.62921813992116
30
0
41
1
10
89.6513182440248
20
-1.61072115307397
30
0
41
1
10
89.7106767196107
20
-1.60600595977897
30
0
41
1
10
89.8887553501614
20
-1.60602396885761
30
0
41
1
10
90.0091291154465
20
-1.62416654147626
30
0
41
1
10
90.2519606490994
20
-1.6832864321475
30
0
41
1
10
90.3724242719881
20
-1.7242882476541
30
0
41
1
10
90.6089598604989
20
-1.82691019519078
30
0
41
1
10
90.7255313105671
20
-1.88827837314855
30
0
41
1
10
90.8394405463532
20
-1.96543015966549
30
0
0
SPLINE
5
DF
100
AcDbEntity
8
1
62
256
6
ByLayer
370
18
48
1
60
0
100
AcDbSpline
70
4
71
3
72
10
73
6
40
0
40
0
40
0
40
0
40
0.5
40
0.5
40
1
40
1
40
1
40
1
41
1
10
89.5780246850973
20
1.66034806843319
30
0
41
1
10
89.9682190245401
20
1.64920414237144
30
0
41
1
10
90.3584798883841
20
1.63740739027321
30
0
41
1
10
91.1388294096304
20
1.61550380506844
30
0
41
1
10
91.5289488280074
20
1.60509510430379
30
0
41
1
10
91.9186651697017
20
1.59864192887002
30
0
0
SPLINE
5
E0
100
AcDbEntity
8
1
62
256
6
ByLayer
370
18
48
1
60
0
100
AcDbSpline
70
4
71
3
72
8
73
4
40
0
40
0
40
0
40
0
40
1
40
1
40
1
40
1
41
1
10
91.9891362034803
20
0.134056724127561
30
0
41
1
10
91.9898659020309
20
0.109225977307346
30
0
41
1
10
91.9939189603358
20
0.0796240245606441
30
0
41
1
10
91.9999693001311
20
0.0481955291624843
30
0
0
SPLINE
5
E1
100
AcDbEntity
8
1
62
256
6
ByLayer
370
18
48
1
60
0
100
AcDbSpline
70
4
71
3
72
22
73
18
40
0
40
0
40
0
40
0
40
0.125
40
0.125
40
0.25
40
0.25
40
0.375
40
0.375
40
0.5
40
0.5
40
0.625
40
0.625
40
0.75
40
0.75
40
0.875
40
0.875
40
1
40
1
40
1
40
1
41
1
10
90.8394405463534
20
-1.96543015966574
30
0
41
1
10
90.8331287468119
20
-2.00802094757682
30
0
41
1
10
90.8232398349495
20
-2.05426537892649
30
0
41
1
10
90.7969196518937
20
-2.1518713746625
30
0
41
1
10
90.7809127498681
20
-2.20158388712378
30
0
41
1
10
90.7449157132946
20
-2.29917964138446
30
0
41
1
10
90.7252000022513
20
-2.34632168865011
30
0
41
1
10
90.6841557109382
20
-2.43434696590489
30
0
41
1
10
90.6631136801901
20
-2.47467962348659
30
0
41
1
10
90.620723129032
20
-2.54739607288175
30
0
41
1
10
90.5997021672915
20
-2.57913333347005
30
0
41
1
10
90.55976141542
20
-2.63155049464112
30
0
41
1
10
90.5403978435044
20
-2.65282166502621
30
0
41
1
10
90.5044036433596
20
-2.68365996581292
30
0
41
1
10
90.4879832465865
20
-2.69317019144395
30
0
41
1
10
90.458398776626
20
-2.6997911318868
30
0
41
1
10
90.4455769900743
20
-2.69668117714875
30
0
41
1
10
90.435299909667
20
-2.68689900393221
30
0
0
SPLINE
5
E2
100
AcDbEntity
8
1
62
256
6
ByLayer
370
18
48
1
60
0
100
AcDbSpline
70
4
71
3
72
8
73
4
40
0
40
0
40
0
40
0
40
1
40
1
40
1
40
1
41
1
10
47.1156034884431
20
-1.99181399411219
30
0
41
1
10
47.1156034884431
20
-1.96570711385647
30
0
41
1
10
47.1156034884431
20
-1.93778771915123
30
0
41
1
10
47.1156034884431
20
-1.90813016747106
30
0
0
SPLINE
5
E3
100
AcDbEntity
8
1
62
256
6
ByLayer
370
18
48
1
60
0
100
AcDbSpline
70
4
71
3
72
8
73
4
40
0
40
0
40
0
40
0
40
1
40
1
40
1
40
1
41
1
10
47.1156034884431
20
-7.07351541546731
30
0
41
1
10
47.2486512341838
20
-7.07787109344497
30
0
41
1
10
47.3816379962846
20
-7.0811720863486
30
0
41
1
10
47.5145767462382
20
-7.08340972931057
30
0
0
SPLINE
5
E4
100
AcDbEntity
8
1
62
256
6
ByLayer
370
18
48
1
60
0
100
AcDbSpline
70
4
71
3
72
20
73
16
40
0
40
0
40
0
40
0
40
0.0536766702962509
40
0.0536766702962509
40
0.260523011575035
40
0.260523011575035
40
0.467369352853818
40
0.467369352853818
40
0.570792523493211
40
0.570792523493211
40
0.6742156941326
40
0.6742156941326
40
0.881062035411384
40
0.881062035411384
40
1
40
1
40
1
40
1
41
1
10
67.7030193141679
20
0.005558496070222
30
0
41
1
10
67.9315732664376
20
-0.111220341207684
30
0
41
1
10
68.1599372196179
20
-0.227907609926518
30
0
41
1
10
69.2677044015086
20
-0.793189148299149
30
0
41
1
10
70.1452948882456
20
-1.23886491416349
30
0
41
1
10
71.9035509133377
20
-2.11023146493062
30
0
41
1
10
72.7839580417725
20
-2.53640456443821
30
0
41
1
10
74.1123286619552
20
-3.14990115932497
30
0
41
1
10
74.5563963288565
20
-3.3501351976843
30
0
41
1
10
75.4479446083947
20
-3.74041696387502
30
0
41
1
10
75.8926286270909
20
-3.92929163591427
30
0
41
1
10
77.2217146013663
20
-4.47383954089244
30
0
41
1
10
78.1025299515745
20
-4.80781928637612
30
0
41
1
10
79.4870645884112
20
-5.28128018405084
30
0
41
1
10
79.9919730690616
20
-5.44304273733582
30
0
41
1
10
80.4969742647453
20
-5.59296212709319
30
0
0
SPLINE
5
E5
100
AcDbEntity
8
1
62
256
6
ByLayer
370
13
48
1
60
0
100
AcDbSpline
70
4
71
3
72
14
73
10
40
0
40
0
40
0
40
0
40
0.416057245437504
40
0.416057245437504
40
0.562042934078128
40
0.562042934078128
40
0.708028622718751
40
0.708028622718751
40
1
40
1
40
1
40
1
41
1
10
80.4969752238475
20
-5.59296241182125
30
0
41
1
10
81.7484801367881
20
-5.96449585692991
30
0
41
1
10
83.0005544693124
20
-6.26329353080493
30
0
41
1
10
84.7061467833724
20
-6.55317928534851
30
0
41
1
10
85.1507871854889
20
-6.61812469454421
30
0
41
1
10
86.0422574687275
20
-6.72617840056859
30
0
41
1
10
86.4872616958559
20
-6.76910414112319
30
0
41
1
10
87.8213250174975
20
-6.86424459580164
30
0
41
1
10
88.7094993342832
20
-6.8827780907466
30
0
41
1
10
89.5998367079378
20
-6.85556055270033
30
0
0
SPLINE
5
E6
100
AcDbEntity
8
1
62
256
6
ByLayer
370
18
48
1
60
0
100
AcDbSpline
70
4
71
3
72
8
73
4
40
0
40
0
40
0
40
0
40
1
40
1
40
1
40
1
41
1
10
47.1156034884431
20
7.07351541546731
30
0
41
1
10
47.2486512341837
20
7.07787109344497
30
0
41
1
10
47.3816379962846
20
7.0811720863486
30
0
41
1
10
47.514576746238
20
7.08340972931057
30
0
0
SPLINE
5
E7
100
AcDbEntity
8
1
62
256
6
ByLayer
370
18
48
1
60
0
100
AcDbSpline
70
4
71
3
72
10
73
6
40
0
40
0
40
0
40
0
40
0.5
40
0.5
40
1
40
1
40
1
40
1
41
1
10
89.8666309132619
20
-6.92179946296591
30
0
41
1
10
90.2031592241872
20
-6.03238584963646
30
0
41
1
10
90.5433060432813
20
-5.14444482837868
30
0
41
1
10
91.2280793667222
20
-3.37035150264362
30
0
41
1
10
91.5727014956301
20
-2.48417863585542
30
0
41
1
10
91.918665169703
20
-1.59864192886661
30
0
0
SPLINE
5
E8
100
AcDbEntity
8
1
62
256
6
ByLayer
370
18
48
1
60
0
100
AcDbSpline
70
4
71
3
72
12
73
8
40
0
40
0
40
0
40
0
40
0.477431739986065
40
0.477431739986065
40
0.738715869993033
40
0.738715869993033
40
1
40
1
40
1
40
1
41
1
10
47.0488985678489
20
-7.05958304877356
30
0
41
1
10
46.6383086112984
20
-7.4813198042919
30
0
41
1
10
46.2292191620984
20
-7.89658396285427
30
0
41
1
10
45.5978512022363
20
-8.52805285817075
30
0
41
1
10
45.374839957568
20
-8.74923761103241
30
0
41
1
10
44.9292952976588
20
-9.18714234949445
30
0
41
1
10
44.7067450351663
20
-9.40390166542198
30
0
41
1
10
44.4844111151574
20
-9.61837591190724
30
0
0
SPLINE
5
E9
100
AcDbEntity
8
1
62
256
6
ByLayer
370
18
48
1
60
0
100
AcDbSpline
70
4
71
3
72
16
73
12
40
0
40
0
40
0
40
0
40
0.330660523402642
40
0.330660523402642
40
0.49599078510396
40
0.49599078510396
40
0.661321046805278
40
0.661321046805278
40
0.991981570207915
40
0.991981570207915
40
1
40
1
40
1
40
1
41
1
10
29.0345633266434
20
8.62277493679139
30
0
41
1
10
28.361082200885
20
8.82822784092801
30
0
41
1
10
27.6994564097171
20
9.00873730122208
30
0
41
1
10
26.7142655784848
20
9.23061457665591
30
0
41
1
10
26.387103635222
20
9.29649112754166
30
0
41
1
10
25.7336578500413
20
9.41077345255908
30
0
41
1
10
25.4068578639633
20
9.45922626093378
30
0
41
1
10
24.432681681619
20
9.57625187007929
30
0
41
1
10
23.7897138747717
20
9.616871053437
30
0
41
1
10
23.1340065314404
20
9.61989766733186
30
0
41
1
10
23.1184838913821
20
9.61994728402436
30
0
41
1
10
23.1029628667612
20
9.61997484594249
30
0
0
SPLINE
5
EA
100
AcDbEntity
8
1
62
256
6
ByLayer
370
18
48
1
60
0
100
AcDbSpline
70
4
71
3
72
8
73
4
40
0
40
0
40
0
40
0
40
1
40
1
40
1
40
1
41
1
10
47.1156034884431
20
7.07351541546731
30
0
41
1
10
47.1156034884431
20
7.08311532998917
30
0
41
1
10
47.1156034884431
20
7.07866314379416
30
0
41
1
10
47.1156034884431
20
7.06053293897946
30
0
0
SPLINE
5
EB
100
AcDbEntity
8
1
62
256
6
ByLayer
370
18
48
1
60
0
100
AcDbSpline
70
4
71
3
72
10
73
6
40
0
40
0
40
0
40
0
40
0.5
40
0.5
40
1
40
1
40
1
40
1
41
1
10
91.9999693001245
20
0.0481955291606937
30
0
41
1
10
91.9952282449261
20
0.0265998403792764
30
0
41
1
10
91.988411045706
20
0.0031318365769835
30
0
41
1
10
91.971340727228
20
-0.041861103464953
30
0
41
1
10
91.9609741114753
20
-0.0634825769124063
30
0
41
1
10
91.9504576477103
20
-0.0806860119927819
30
0
0
SPLINE
5
EC
100
AcDbEntity
8
1
62
256
6
ByLayer
370
18
48
1
60
0
100
AcDbSpline
70
4
71
3
72
8
73
4
40
0
40
0
40
0
40
0
40
1
40
1
40
1
40
1
41
1
10
91.9999693001281
20
0.0481955291668328
30
0
41
1
10
92.0000102352475
20
0.0160636397567089
30
0
41
1
10
92.0000102313298
20
-0.0160667149333165
30
0
41
1
10
91.9999693001281
20
-0.0481955291777183
30
0
0
SPLINE
5
ED
100
AcDbEntity
8
1
62
256
6
ByLayer
370
18
48
1
60
0
100
AcDbSpline
70
4
71
3
72
8
73
4
40
0
40
0
40
0
40
0
40
1
40
1
40
1
40
1
41
1
10
89.8666309132693
20
-6.92179946294425
30
0
41
1
10
89.7281640130603
20
-7.02674268168283
30
0
41
1
10
89.6047695764939
20
-7.09148224066763
30
0
41
1
10
89.4951844234865
20
-7.11490846432369
30
0
0
SPLINE
5
EE
100
AcDbEntity
8
1
62
256
6
ByLayer
370
18
48
1
60
0
100
AcDbSpline
70
4
71
3
72
8
73
4
40
0
40
0
40
0
40
0
40
1
40
1
40
1
40
1
41
1
10
91.9186651697017
20
-1.59864192887036
30
0
41
1
10
91.9513081331496
20
-1.10998149780474
30
0
41
1
10
91.9748033490954
20
-0.621786181874313
30
0
41
1
10
91.9891362034803
20
-0.134056724127532
30
0
0
SPLINE
5
EF
100
AcDbEntity
8
1
62
256
6
ByLayer
370
18
48
1
60
0
100
AcDbSpline
70
4
71
3
72
26
73
22
40
0
40
0
40
0
40
0
40
0.125000000000007
40
0.125000000000007
40
0.156250000000009
40
0.156250000000009
40
0.187500000000011
40
0.187500000000011
40
0.25000000000001
40
0.25000000000001
40
0.31250000000001
40
0.31250000000001
40
0.37500000000001
40
0.37500000000001
40
0.500000000000009
40
0.500000000000009
40
0.625000000000008
40
0.625000000000008
40
0.750000000000008
40
0.750000000000008
40
1
40
1
40
1
40
1
41
1
10
82.8731848156093
20
1.27437661566952
30
0
41
1
10
82.9496488524513
20
0.876951119049437
30
0
41
1
10
83.0717355159104
20
0.487427072358599
30
0
41
1
10
83.2728389522185
20
0.0089209530317476
30
0
41
1
10
83.3155724825346
20
-0.08644937386984
30
0
41
1
10
83.4045592447633
20
-0.273887241515439
30
0
41
1
10
83.4509414524864
20
-0.366280386528302
30
0
41
1
10
83.5953246437693
20
-0.63978421504217
30
0
41
1
10
83.6985404748221
20
-0.817234537968176
30
0
41
1
10
83.9171673354958
20
-1.16357523569084
30
0
41
1
10
84.0325864707913
20
-1.33245992102266
30
0
41
1
10
84.2744124835638
20
-1.66251687088334
30
0
41
1
10
84.3994141801835
20
-1.82177614207453
30
0
41
1
10
84.7844052938111
20
-2.2840187580565
30
0
41
1
10
85.0544230580044
20
-2.57212890334048
30
0
41
1
10
85.6166939602965
20
-3.11496938798322
30
0
41
1
10
85.9095453475406
20
-3.36966748156888
30
0
41
1
10
86.5125276034228
20
-3.84954073108855
30
0
41
1
10
86.8188059938363
20
-4.07166124609174
30
0
41
1
10
87.7494816067723
20
-4.69395781450197
30
0
41
1
10
88.3855261264366
20
-5.0507876913737
30
0
41
1
10
89.034473268082
20
-5.35959961838478
30
0
0
SPLINE
5
F0
100
AcDbEntity
8
1
62
256
6
ByLayer
370
18
48
1
60
0
100
AcDbSpline
70
4
71
3
72
10
73
6
40
0
40
0
40
0
40
0
40
0.5
40
0.5
40
1
40
1
40
1
40
1
41
1
10
89.8666309132705
20
6.92179946294337
30
0
41
1
10
90.2031961064407
20
6.03228837320665
30
0
41
1
10
90.5433487821043
20
5.14433366483451
30
0
41
1
10
91.2281058426124
20
3.37028334651228
30
0
41
1
10
91.5726989750877
20
2.48418508749461
30
0
41
1
10
91.9186651697017
20
1.59864192887005
30
0
0
SPLINE
5
F1
100
AcDbEntity
8
1
62
256
6
ByLayer
370
18
48
1
60
0
100
AcDbSpline
70
4
71
3
72
8
73
4
40
0
40
0
40
0
40
0
40
1
40
1
40
1
40
1
41
1
10
47.3311346893766
20
-6.73783068491917
30
0
41
1
10
47.2592594550063
20
-6.73905472468545
30
0
41
1
10
47.1874163157465
20
-6.73998854765503
30
0
41
1
10
47.1156034884576
20
-6.74063297620546
30
0
0
SPLINE
5
F2
100
AcDbEntity
8
1
62
256
6
ByLayer
370
18
48
1
60
0
100
AcDbSpline
70
4
71
3
72
14
73
10
40
0
40
0
40
0
40
0
40
0.217836443606596
40
0.217836443606596
40
0.413377332704947
40
0.413377332704947
40
0.608918221803298
40
0.608918221803298
40
1
40
1
40
1
40
1
41
1
10
33.5880479983841
20
-6.71170196090745
30
0
41
1
10
33.2597927215591
20
-6.88021943762422
30
0
41
1
10
32.9307347278526
20
-7.04283990045502
30
0
41
1
10
32.304673649055
20
-7.34008331388208
30
0
41
1
10
32.0078082816533
20
-7.4759326346915
30
0
41
1
10
31.4131855057603
20
-7.73779200644202
30
0
41
1
10
31.1160425594088
20
-7.86279476848861
30
0
41
1
10
30.2244763590831
20
-8.219688849981
30
0
41
1
10
29.6296132530092
20
-8.43334720968687
30
0
41
1
10
29.0345633266434
20
-8.62277493679136
30
0
0
SPLINE
5
F3
100
AcDbEntity
8
1
62
256
6
ByLayer
370
18
48
1
60
0
100
AcDbSpline
70
4
71
3
72
8
73
4
40
0
40
0
40
0
40
0
40
1
40
1
40
1
40
1
41
1
10
89.8666309132705
20
6.92179946294334
30
0
41
1
10
89.7281640130611
20
7.02674268168246
30
0
41
1
10
89.6047695764942
20
7.09148224066757
30
0
41
1
10
89.4951844234865
20
7.11490846432369
30
0
0
SPLINE
5
F4
100
AcDbEntity
8
1
62
256
6
ByLayer
370
18
48
1
60
0
100
AcDbSpline
70
4
71
3
72
10
73
6
40
0
40
0
40
0
40
0
40
0.5
40
0.5
40
1
40
1
40
1
40
1
41
1
10
47.514576746238
20
7.08340972931057
30
0
41
1
10
47.5213375933131
20
7.07082634057645
30
0
41
1
10
47.5292826524651
20
7.05048025029532
30
0
41
1
10
47.5438356864576
20
6.99460245901446
30
0
41
1
10
47.5509657581762
20
6.95907154442406
30
0
41
1
10
47.5577725128177
20
6.91596866640219
30
0
0
SPLINE
5
F5
100
AcDbEntity
8
1
62
256
6
ByLayer
370
18
48
1
60
0
100
AcDbSpline
70
4
71
3
72
32
73
28
40
0
40
0
40
0
40
0
40
0.127028458757667
40
0.127028458757667
40
0.190542688136499
40
0.190542688136499
40
0.254056917515332
40
0.254056917515332
40
0.317571146894164
40
0.317571146894164
40
0.381085376272997
40
0.381085376272997
40
0.50811383503066
40
0.50811383503066
40
0.571628064409491
40
0.571628064409491
40
0.635142293788321
40
0.635142293788321
40
0.698656523167152
40
0.698656523167152
40
0.762170752545983
40
0.762170752545983
40
0.889199211303644
40
0.889199211303644
40
0.952713440682476
40
0.952713440682476
40
1
40
1
40
1
40
1
41
1
10
29.0345633266432
20
-4.07722761870002
30
0
41
1
10
29.6821516402158
20
-4.50232616710451
30
0
41
1
10
30.3291667274726
20
-4.90465496291415
30
0
41
1
10
31.2947974141657
20
-5.48113251391496
30
0
41
1
10
31.615442405713
20
-5.66921358495421
30
0
41
1
10
32.2556402819695
20
-6.03552444654193
30
0
41
1
10
32.5761445802292
20
-6.21270332668473
30
0
41
1
10
33.2175939484917
20
-6.55572556609545
30
0
41
1
10
33.5384618114671
20
-6.72165075741043
30
0
41
1
10
34.1800874726683
20
-7.04267180585774
30
0
41
1
10
34.5002776929769
20
-7.19829097751793
30
0
41
1
10
35.4636006654044
20
-7.64576188996497
30
0
41
1
10
36.1106091646674
20
-7.91752166600278
30
0
41
1
10
37.0851699966715
20
-8.28718231613291
30
0
41
1
10
37.4081683301261
20
-8.40358242187136
30
0
41
1
10
38.0537934509546
20
-8.61964215157968
30
0
41
1
10
38.3763208478304
20
-8.71959967128583
30
0
41
1
10
39.0201335980481
20
-8.90416918859938
30
0
41
1
10
39.3414810907711
20
-8.98874470872735
30
0
41
1
10
39.9823619403655
20
-9.14279517208973
30
0
41
1
10
40.3017849659999
20
-9.21224691387152
30
0
41
1
10
41.2628773466677
20
-9.39555842921737
30
0
41
1
10
41.9054367211051
20
-9.48564725042402
30
0
41
1
10
42.8682104591248
20
-9.57277809355946
30
0
41
1
10
43.189516639135
20
-9.59360621984956
30
0
41
1
10
43.7528410839087
20
-9.61531740080619
30
0
41
1
10
43.9938995830103
20
-9.61998442118713
30
0
41
1
10
44.2354953187682
20
-9.6200022344529
30
0
0
SPLINE
5
F6
100
AcDbEntity
8
1
62
256
6
ByLayer
370
18
48
1
60
0
100
AcDbSpline
70
4
71
3
72
48
73
44
40
0
40
0
40
0
40
0
40
0.0682367819329271
40
0.0682367819329271
40
0.123693729786707
40
0.123693729786707
40
0.179150677640487
40
0.179150677640487
40
0.290064573348047
40
0.290064573348047
40
0.400978469055607
40
0.400978469055607
40
0.456435416909386
40
0.456435416909386
40
0.511892364763166
40
0.511892364763166
40
0.515358424004028
40
0.515358424004028
40
0.518824483244889
40
0.518824483244889
40
0.52229054248575
40
0.52229054248575
40
0.524023572106181
40
0.524023572106181
40
0.525756601726612
40
0.525756601726612
40
0.539620838690057
40
0.539620838690057
40
0.567349312616946
40
0.567349312616946
40
0.622806260470726
40
0.622806260470726
40
0.678263208324506
40
0.678263208324506
40
0.733720156178286
40
0.733720156178286
40
0.844634051885845
40
0.844634051885845
40
0.900090999739625
40
0.900090999739625
40
0.955547947593405
40
0.955547947593405
40
1
40
1
40
1
40
1
41
1
10
29.0345633266432
20
-4.07132593526231
30
0
41
1
10
29.0345633266433
20
-3.85243446248256
30
0
41
1
10
29.0345633266434
20
-3.64929859871842
30
0
41
1
10
29.0345633266434
20
-3.30824774444236
30
0
41
1
10
29.0345633266434
20
-3.16530053269401
30
0
41
1
10
29.0345633266434
20
-2.8991153952004
30
0
41
1
10
29.0345633266434
20
-2.77751276085201
30
0
41
1
10
29.0345633266434
20
-2.44502741174713
30
0
41
1
10
29.0345633266434
20
-2.26627222799161
30
0
41
1
10
29.0345633266434
20
-1.98830251601902
30
0
41
1
10
29.0345633266434
20
-1.88913263070936
30
0
41
1
10
29.0345633266434
20
-1.79937821346292
30
0
41
1
10
29.0345633266434
20
-1.77941271986944
30
0
41
1
10
29.0345633266434
20
-1.75943278230051
30
0
41
1
10
29.0345633266434
20
-1.75935292376133
30
0
41
1
10
29.0345633266434
20
-1.76966163638625
30
0
41
1
10
29.0345633266434
20
-1.77014444099484
30
0
41
1
10
29.0345633266434
20
-1.77184940163622
30
0
41
1
10
29.0345633266434
20
-1.77537679303549
30
0
41
1
10
29.0345633266434
20
-1.78764127115127
30
0
41
1
10
29.0345633266434
20
-1.79623613814579
30
0
41
1
10
29.0345633266434
20
-1.81272439849073
30
0
41
1
10
29.0345633266434
20
-1.81905235612194
30
0
41
1
10
29.0345633266434
20
-1.83149906011272
30
0
41
1
10
29.0345633266434
20
-1.83773099467854
30
0
41
1
10
29.0345633266434
20
-1.89389571508323
30
0
41
1
10
29.0345633266434
20
-1.94437457377063
30
0
41
1
10
29.0345633266434
20
-2.09743498642953
30
0
41
1
10
29.0345633266434
20
-2.20162388531136
30
0
41
1
10
29.0345633266434
20
-2.52073159142307
30
0
41
1
10
29.0345633266434
20
-2.74206500415596
30
0
41
1
10
29.0345633266434
20
-3.20083752294511
30
0
41
1
10
29.0345633266434
20
-3.43883950320375
30
0
41
1
10
29.0345633266434
20
-3.93053390256179
30
0
41
1
10
29.0345633266434
20
-4.18308420064943
30
0
41
1
10
29.0345633266434
20
-4.96122961423765
30
0
41
1
10
29.0345633266434
20
-5.50712590902754
30
0
41
1
10
29.0345633266434
20
-6.37116995870147
30
0
41
1
10
29.0345633266434
20
-6.66731757111177
30
0
41
1
10
29.0345633266434
20
-7.26535801435523
30
0
41
1
10
29.0345633266434
20
-7.56842200473764
30
0
41
1
10
29.0345633266434
20
-8.12197081824354
30
0
41
1
10
29.0345633266434
20
-8.37095400501542
30
0
41
1
10
29.0345633266434
20
-8.62277493678639
30
0
0
SPLINE
5
F7
100
AcDbEntity
8
1
62
256
6
ByLayer
370
18
48
1
60
0
100
AcDbSpline
70
4
71
3
72
43
73
39
40
0
40
0
40
0
40
0
40
0.125000000000005
40
0.125000000000005
40
0.25000000000001
40
0.25000000000001
40
0.312500000000012
40
0.312500000000012
40
0.375000000000015
40
0.375000000000015
40
0.437500000000018
40
0.437500000000018
40
0.50000000000002
40
0.50000000000002
40
0.562500000000023
40
0.562500000000023
40
0.625000000000025
40
0.625000000000025
40
0.75000000000003
40
0.75000000000003
40
0.812500000000029
40
0.812500000000029
40
0.875000000000029
40
0.875000000000029
40
0.882812500000028
40
0.886718750000027
40
0.886718750000027
40
0.890625000000026
40
0.890625000000026
40
0.898437500000025
40
0.898437500000025
40
0.902343750000023
40
0.902343750000023
40
0.906250000000022
40
0.906250000000022
40
0.937500000000014
40
0.937500000000014
40
1
40
1
40
1
40
1
41
1
10
82.8731848156094
20
1.2743766156695
30
0
41
1
10
83.179222558445
20
1.07740020647154
30
0
41
1
10
83.489367291193
20
0.895847545913
30
0
41
1
10
84.1192449703981
20
0.568750640035148
30
0
41
1
10
84.4387727484905
20
0.422435887518873
30
0
41
1
10
84.9255890579731
20
0.231222457837589
30
0
41
1
10
85.0896546396457
20
0.172074267179625
30
0
41
1
10
85.417396643024
20
0.0650560857957885
30
0
41
1
10
85.5810430674633
20
0.0171341401802181
30
0
41
1
10
85.9078612666705
20
-0.0669011792631693
30
0
41
1
10
86.0710363641676
20
-0.103097217611179
30
0
41
1
10
86.3968415346344
20
-0.161929901681731
30
0
41
1
10
86.5594624994326
20
-0.184339949756264
30
0
41
1
10
86.884153223318
20
-0.21544687470751
30
0
41
1
10
87.0462175900269
20
-0.22400959729643
30
0
41
1
10
87.3697253504941
20
-0.225686167016136
30
0
41
1
10
87.5303203941166
20
-0.218720514953503
30
0
41
1
10
88.0031684068354
20
-0.172843514059196
30
0
41
1
10
88.3086118639507
20
-0.109380371676082
30
0
41
1
10
88.7490105149027
20
0.0454898289116841
30
0
41
1
10
88.8934502871931
20
0.107420243249976
30
0
41
1
10
89.1708697017052
20
0.252907720194429
30
0
41
1
10
89.3045109127507
20
0.336234578920198
30
0
41
1
10
89.4482639554558
20
0.441294182012484
30
0
41
1
10
89.4720822309255
20
0.459040288953702
30
0
41
1
10
89.4956892183096
20
0.477141723385785
30
0
41
1
10
89.5113781077285
20
0.489286790791567
30
0
41
1
10
89.5194333569918
20
0.495126775505668
30
0
41
1
10
89.5412007765941
20
0.515662041774078
30
0
41
1
10
89.5520773123409
20
0.534490030842932
30
0
41
1
10
89.55962635379
20
0.5678730304748
30
0
41
1
10
89.5606459470019
20
0.579825919879852
30
0
41
1
10
89.559681437484
20
0.604107066742273
30
0
41
1
10
89.5577276336206
20
0.616608955264439
30
0
41
1
10
89.5431003702222
20
0.728134111081658
30
0
41
1
10
89.5294171720012
20
0.827306691381466
30
0
41
1
10
89.485921527527
20
1.12484038965354
30
0
41
1
10
89.4538419305641
20
1.32325269009954
30
0
41
1
10
89.4191985529926
20
1.5216616260185
30
0
0
SPLINE
5
F8
100
AcDbEntity
8
1
62
256
6
ByLayer
370
18
48
1
60
0
100
AcDbSpline
70
4
71
3
72
8
73
4
40
0
40
0
40
0
40
0
40
1
40
1
40
1
40
1
41
1
10
44.4844111151684
20
9.61837591189681
30
0
41
1
10
44.4796186474513
20
9.61946703444946
30
0
41
1
10
44.474833387149
20
9.62001264092987
30
0
41
1
10
44.4700545696268
20
9.62001435106708
30
0
0
SPLINE
5
F9
100
AcDbEntity
8
1
62
256
6
ByLayer
370
18
48
1
60
0
100
AcDbSpline
70
4
71
3
72
60
73
56
40
0
40
0
40
0
40
0
40
0.0050540298536763
40
0.0050540298536763
40
0.0448518686595293
40
0.0448518686595293
40
0.0846497074653823
40
0.0846497074653823
40
0.124447546271235
40
0.124447546271235
40
0.164245385077088
40
0.164245385077088
40
0.184144304480014
40
0.184144304480014
40
0.20404322388294
40
0.20404322388294
40
0.243841062688793
40
0.243841062688793
40
0.283638901494646
40
0.283638901494646
40
0.323436740300499
40
0.323436740300499
40
0.363234579106352
40
0.363234579106352
40
0.403032417912205
40
0.403032417912205
40
0.442830256718058
40
0.442830256718058
40
0.482628095523911
40
0.482628095523911
40
0.522425934329764
40
0.522425934329764
40
0.562223773135617
40
0.562223773135617
40
0.60202161194147
40
0.60202161194147
40
0.641819450747323
40
0.641819450747323
40
0.681617289553176
40
0.681617289553176
40
0.721415128359029
40
0.721415128359029
40
0.761212967164882
40
0.761212967164882
40
0.801010805970735
40
0.801010805970735
40
0.840808644776588
40
0.840808644776588
40
0.880606483582441
40
0.880606483582441
40
0.920404322388294
40
0.920404322388294
40
0.960202161194147
40
0.960202161194147
40
1
40
1
40
1
40
1
41
1
10
75.1936063954686
20
-4.66471889236146
30
0
41
1
10
75.1462694611108
20
-4.6820682620486
30
0
41
1
10
75.098930043604
20
-4.69934073168383
30
0
41
1
10
74.6787954270245
20
-4.85193667604025
30
0
41
1
10
74.3055024442785
20
-4.98157187153765
30
0
41
1
10
73.5602178980946
20
-5.22651333273632
30
0
41
1
10
73.1878138943615
20
-5.34171749205552
30
0
41
1
10
72.443542878287
20
-5.5619155304928
30
0
41
1
10
72.0720585199492
20
-5.66699404578534
30
0
41
1
10
71.3279239916113
20
-5.86245823356742
30
0
41
1
10
70.9555068730785
20
-5.95288188279559
30
0
41
1
10
70.3963155333742
20
-6.07885551710288
30
0
41
1
10
70.209823077614
20
-6.11921426220451
30
0
41
1
10
69.836742856891
20
-6.19661520268045
30
0
41
1
10
69.6502671930251
20
-6.23373977989664
30
0
41
1
10
69.0912197779243
20
-6.33888615597226
30
0
41
1
10
68.7188218472619
20
-6.40028948404876
30
0
41
1
10
67.9741977593056
20
-6.50947075640292
30
0
41
1
10
67.6019185129463
20
-6.55736773679166
30
0
41
1
10
66.8580875899179
20
-6.63766514981933
30
0
41
1
10
66.4864634592508
20
-6.66953803158154
30
0
41
1
10
65.741749324263
20
-6.71763242404958
30
0
41
1
10
65.3689834337197
20
-6.73499719962788
30
0
41
1
10
64.6224351060328
20
-6.75371655829176
30
0
41
1
10
64.2497538150114
20
-6.75483402615262
30
0
41
1
10
63.5053024022291
20
-6.74025970125712
30
0
41
1
10
63.1331371320588
20
-6.7260667790303
30
0
41
1
10
62.3888736011982
20
-6.68245115363405
30
0
41
1
10
62.0166188923411
20
-6.65290456960642
30
0
41
1
10
61.2728998362167
20
-6.57664224881088
30
0
41
1
10
60.900788913862
20
-6.53120038858273
30
0
41
1
10
60.1553033417825
20
-6.42647752589917
30
0
41
1
10
59.7816372490337
20
-6.36655911102494
30
0
41
1
10
59.0359336964576
20
-6.23107279368952
30
0
41
1
10
58.6640237224345
20
-6.15544587977621
30
0
41
1
10
57.9200122440828
20
-5.99239716216681
30
0
41
1
10
57.5479887860131
20
-5.90413808120226
30
0
41
1
10
56.8037018486308
20
-5.71344319629193
30
0
41
1
10
56.4313928250321
20
-5.61088083565312
30
0
41
1
10
55.6871525164828
20
-5.39356840650166
30
0
41
1
10
55.3144527115293
20
-5.27881227128279
30
0
41
1
10
54.5678883971045
20
-5.03676648012953
30
0
41
1
10
54.1949252511201
20
-4.90953320112746
30
0
41
1
10
53.4496268294593
20
-4.64519369057678
30
0
41
1
10
53.077729477186
20
-4.50727153791811
30
0
41
1
10
52.3330034427139
20
-4.22139528545927
30
0
41
1
10
51.9603320960077
20
-4.07304179619115
30
0
41
1
10
51.2143391212292
20
-3.76815613798345
30
0
41
1
10
50.8409216079303
20
-3.61119524762793
30
0
41
1
10
50.0956853372171
20
-3.28841936620674
30
0
41
1
10
49.7232439037706
20
-3.12298695010006
30
0
41
1
10
48.9782485786457
20
-2.78642822805816
30
0
41
1
10
48.6056987490269
20
-2.61546271078805
30
0
41
1
10
47.8607956272614
20
-2.26665813119092
30
0
41
1
10
47.4886489859413
20
-2.08810031082663
30
0
41
1
10
47.1156034884431
20
-1.90813016747106
30
0
0
SPLINE
5
FA
100
AcDbEntity
8
1
62
256
6
ByLayer
370
18
48
1
60
0
100
AcDbSpline
70
4
71
3
72
48
73
44
40
0
40
0
40
0
40
0
40
0.0312500000000012
40
0.0312500000000012
40
0.0625000000000025
40
0.0625000000000025
40
0.125000000000005
40
0.125000000000005
40
0.156250000000006
40
0.156250000000006
40
0.187500000000007
40
0.187500000000007
40
0.25000000000001
40
0.25000000000001
40
0.281250000000011
40
0.281250000000011
40
0.312500000000012
40
0.312500000000012
40
0.375000000000013
40
0.375000000000013
40
0.437500000000013
40
0.437500000000013
40
0.468750000000013
40
0.468750000000013
40
0.500000000000013
40
0.500000000000013
40
0.562500000000012
40
0.562500000000012
40
0.593750000000012
40
0.593750000000012
40
0.625000000000011
40
0.625000000000011
40
0.687500000000009
40
0.687500000000009
40
0.750000000000007
40
0.750000000000007
40
0.812500000000005
40
0.812500000000005
40
0.843750000000004
40
0.843750000000004
40
0.875000000000003
40
0.875000000000003
40
1
40
1
40
1
40
1
41
1
10
89.4951844234865
20
-7.11490846432369
30
0
41
1
10
89.0573208727441
20
-7.12687727286234
30
0
41
1
10
88.6194775753576
20
-7.12744409112167
30
0
41
1
10
87.7430198948078
20
-7.10579635666488
30
0
41
1
10
87.3049885618894
20
-7.08357786406702
30
0
41
1
10
85.9930842709518
20
-6.98337319276197
30
0
41
1
10
85.1202689066157
20
-6.87178370452236
30
0
41
1
10
83.8082537310739
20
-6.63963493727763
30
0
41
1
10
83.3699256448078
20
-6.55137825517073
30
0
41
1
10
82.4938061613887
20
-6.35428930540715
30
0
41
1
10
82.0564983410916
20
-6.24558366405623
30
0
41
1
10
80.7453391796051
20
-5.89050980445055
30
0
41
1
10
79.8723024094139
20
-5.61514170095165
30
0
41
1
10
78.5590011795492
20
-5.14981560899108
30
0
41
1
10
78.1202918063022
20
-4.98594269685191
30
0
41
1
10
77.2450749420224
20
-4.6435847967617
30
0
41
1
10
76.8080175596741
20
-4.46497633202614
30
0
41
1
10
75.4971197690496
20
-3.90898619309974
30
0
41
1
10
74.6235047041264
20
-3.51152263367411
30
0
41
1
10
72.870046055513
20
-2.67364083386766
30
0
41
1
10
71.9960986574171
20
-2.23593097840944
30
0
41
1
10
70.6850835511837
20
-1.56312773489196
30
0
41
1
10
70.2480194912814
20
-1.33600970670255
30
0
41
1
10
69.3728810958316
20
-0.877708884426028
30
0
41
1
10
68.9342425379014
20
-0.646259280835437
30
0
41
1
10
67.6200996085743
20
0.0491729761149031
30
0
41
1
10
66.7468285541843
20
0.514008797876784
30
0
41
1
10
65.4354063553869
20
1.20221289807748
30
0
41
1
10
64.9980675576845
20
1.43020923278516
30
0
41
1
10
64.1220153979293
20
1.88154625853943
30
0
41
1
10
63.6832670606556
20
2.10482923056074
30
0
41
1
10
62.370303794789
20
2.7619204107524
30
0
41
1
10
61.4970943592099
20
3.18401854856455
30
0
41
1
10
59.7475429078978
20
3.98373322718973
30
0
41
1
10
58.8696164669924
20
4.36184736979533
30
0
41
1
10
57.1201478257655
20
5.05497650600273
30
0
41
1
10
56.2468085153607
20
5.37083134454062
30
0
41
1
10
54.9334959153673
20
5.79147066998485
30
0
41
1
10
54.494488516109
20
5.92298864302907
30
0
41
1
10
53.6190279295772
20
6.16587274265837
30
0
41
1
10
53.1823665839133
20
6.27735565377876
30
0
41
1
10
51.0021523790592
20
6.78349390554175
30
0
41
1
10
49.2678558456439
20
7.02399201980037
30
0
41
1
10
47.514576746238
20
7.08340972931057
30
0
0
SPLINE
5
FB
100
AcDbEntity
8
1
62
256
6
ByLayer
370
18
48
1
60
0
100
AcDbSpline
70
4
71
3
72
12
73
8
40
0
40
0
40
0
40
0
40
0.25
40
0.25
40
0.5
40
0.5
40
1
40
1
40
1
40
1
41
1
10
45.9914375902727
20
-1.40756046580069
30
0
41
1
10
45.7455488550541
20
-1.31470731583278
30
0
41
1
10
45.5039176195846
20
-1.20297113194451
30
0
41
1
10
45.0269221468553
20
-0.942754282835978
30
0
41
1
10
44.790614813908
20
-0.794360851827008
30
0
41
1
10
44.0953323716736
20
-0.303934258782874
30
0
41
1
10
43.6485830866056
20
0.0833410681562441
30
0
41
1
10
43.2104960992449
20
0.527122564862708
30
0
0
SPLINE
5
FC
100
AcDbEntity
8
1
62
256
6
ByLayer
370
18
48
1
60
0
100
AcDbSpline
70
4
71
3
72
8
73
4
40
0
40
0
40
0
40
0
40
1
40
1
40
1
40
1
41
1
10
89.4951844234865
20
7.11490846432369
30
0
41
1
10
89.25939462566
20
7.12135367525929
30
0
41
1
10
89.0236107009608
20
7.12449250366575
30
0
41
1
10
88.7877692818751
20
7.12432671485391
30
0
0
SPLINE
5
FD
100
AcDbEntity
8
1
62
256
6
ByLayer
370
18
48
1
60
0
100
AcDbSpline
70
4
71
3
72
8
73
4
40
0
40
0
40
0
40
0
40
1
40
1
40
1
40
1
41
1
10
50.8618362797871
20
-6.7517203735662
30
0
41
1
10
49.748814745856
20
-6.93340435461567
30
0
41
1
10
48.6355757598648
20
-7.04541966043024
30
0
41
1
10
47.5145767462382
20
-7.08340972931057
30
0
0
SPLINE
5
FE
100
AcDbEntity
8
1
62
256
6
ByLayer
370
18
48
1
60
0
100
AcDbSpline
70
4
71
3
72
8
73
4
40
0
40
0
40
0
40
0
40
1
40
1
40
1
40
1
41
1
10
47.5577725128025
20
6.91596866640128
30
0
41
1
10
47.427063498306
20
6.92493932951089
30
0
41
1
10
47.2962633215458
20
6.93287632614724
30
0
41
1
10
47.1653910354714
20
6.93979675893519
30
0
0
SPLINE
5
FF
100
AcDbEntity
8
1
62
256
6
ByLayer
370
18
48
1
60
0
100
AcDbSpline
70
4
71
3
72
8
73
4
40
0
40
0
40
0
40
0
40
1
40
1
40
1
40
1
41
1
10
89.599836707938
20
-6.85556055270047
30
0
41
1
10
89.5650257056052
20
-6.9421519252549
30
0
41
1
10
89.5301397654398
20
-7.02860036325109
30
0
41
1
10
89.4951844234865
20
-7.11490846432369
30
0
0
SPLINE
5
100
100
AcDbEntity
8
1
62
256
6
ByLayer
370
18
48
1
60
0
100
AcDbSpline
70
4
71
3
72
8
73
4
40
0
40
0
40
0
40
0
40
1
40
1
40
1
40
1
41
1
10
91.9504576477103
20
-0.0806860119927535
30
0
41
1
10
91.5713040530662
20
-0.700927225844111
30
0
41
1
10
91.2009245448402
20
-1.3291385095182
30
0
41
1
10
90.8394405463532
20
-1.96543015966588
30
0
0
SPLINE
5
101
100
AcDbEntity
8
1
62
256
6
ByLayer
370
18
48
1
60
0
100
AcDbSpline
70
4
71
3
72
8
73
4
40
0
40
0
40
0
40
0
40
1
40
1
40
1
40
1
41
1
10
47.1156034884289
20
-1.99181399410511
30
0
41
1
10
46.7413186221959
20
-1.79757866552362
30
0
41
1
10
46.3665346120811
20
-1.60274153529767
30
0
41
1
10
45.9914375902727
20
-1.40756046580069
30
0
0
SPLINE
5
102
100
AcDbEntity
8
1
62
256
6
ByLayer
370
18
48
1
60
0
100
AcDbSpline
70
4
71
3
72
12
73
8
40
0
40
0
40
0
40
0
40
0.5
40
0.5
40
0.75
40
0.75
40
1
40
1
40
1
40
1
41
1
10
47.1653910354734
20
6.93979675893505
30
0
41
1
10
46.7156687208358
20
7.40273757188484
30
0
41
1
10
46.2677965823557
20
7.8580003753068
30
0
41
1
10
45.5978512022423
20
8.52805285816481
30
0
41
1
10
45.3748399575751
20
8.74923761102548
30
0
41
1
10
44.9292952976679
20
9.18714234948555
30
0
41
1
10
44.7067450351765
20
9.40390166541215
30
0
41
1
10
44.4844111151686
20
9.61837591189646
30
0
0
SPLINE
5
103
100
AcDbEntity
8
1
62
256
6
ByLayer
370
18
48
1
60
0
100
AcDbSpline
70
4
71
2
72
6
73
3
40
0
40
0
40
0
40
1
40
1
40
1
41
1
10
89.0322479049323
20
-6.76829356867265
30
0
41
1
10
89.2754091224231
20
-6.7688728956135
30
0
41
1
10
89.516606714023
20
-6.76757793839829
30
0
0
SPLINE
5
104
100
AcDbEntity
8
1
62
256
6
ByLayer
370
18
48
1
60
0
100
AcDbSpline
70
4
71
3
72
26
73
22
40
0
40
0
40
0
40
0
40
0.0782345566403713
40
0.146257735599746
40
0.195951751803263
40
0.234154523251218
40
0.267315684082088
40
0.303618793966877
40
0.340980991069684
40
0.382888473964301
40
0.482194862264646
40
0.575087239381651
40
0.66019304864859
40
0.705419564614174
40
0.754318331231974
40
0.806929795065405
40
0.860998125215335
40
0.905605555316782
40
0.948215644461288
40
0.999113282782494
40
1
40
1
40
1
40
1
41
1
10
64.3466199671163
20
6.7523049488243
30
0
41
1
10
63.9954218362117
20
6.75146009814932
30
0
41
1
10
63.3387203626513
20
6.75031050332294
30
0
41
1
10
62.4584848683369
20
6.75100845332145
30
0
41
1
10
61.7579057804504
20
6.75065384251531
30
0
41
1
10
61.2148199183149
20
6.74946361227742
30
0
41
1
10
60.7312865949416
20
6.7494790619518
30
0
41
1
10
60.2513354946435
20
6.74975382971101
30
0
41
1
10
59.7321171745378
20
6.74984122800566
30
0
41
1
10
58.9298441677895
20
6.74855159265559
30
0
41
1
10
57.8780936462726
20
6.74869463016151
30
0
41
1
10
56.6322719760854
20
6.74729022431686
30
0
41
1
10
55.629409776659
20
6.74711610955518
30
0
41
1
10
54.8241912184232
20
6.74698869326988
30
0
41
1
10
54.1649709803235
20
6.7460795182017
30
0
41
1
10
53.4660085785173
20
6.74589564219923
30
0
41
1
10
52.7863490459423
20
6.74601379407378
30
0
41
1
10
52.1515959279649
20
6.74538581583991
30
0
41
1
10
51.5311235426985
20
6.74458122928991
30
0
41
1
10
51.1070299614598
20
6.74451086468724
30
0
41
1
10
50.8743948714342
20
6.74444691303856
30
0
41
1
10
50.8704114048433
20
6.74444581026887
30
0
0
SPLINE
5
105
100
AcDbEntity
8
1
62
256
6
ByLayer
370
18
48
1
60
0
100
AcDbSpline
70
4
71
1
72
4
73
2
40
0
40
0
40
1
40
1
41
1
10
67.7145743285195
20
-0.000322271875433
30
0
41
1
10
67.7145583254649
20
-0.0003124861928256
30
0
0
SPLINE
5
106
100
AcDbEntity
8
1
62
256
6
ByLayer
370
18
48
1
60
0
100
AcDbSpline
70
4
71
1
72
4
73
2
40
0
40
0
40
1
40
1
41
1
10
46.9625287428833
20
-7.05262203346012
30
0
41
1
10
47.1145580336431
20
-7.0605683214707
30
0
0
SPLINE
5
107
100
AcDbEntity
8
1
62
256
6
ByLayer
370
18
48
1
60
0
100
AcDbSpline
70
4
71
3
72
34
73
30
40
0
40
0
40
0
40
0
40
0.0332506319710083
40
0.0730442071836752
40
0.104391584445026
40
0.129125700450643
40
0.143831332808956
40
0.154592808369788
40
0.169394137469449
40
0.188288021159283
40
0.211232240228238
40
0.247029176613442
40
0.278007056622886
40
0.3054727894792
40
0.350194447702721
40
0.398933226987747
40
0.443762896439706
40
0.484788481941654
40
0.551225434876223
40
0.623720024167748
40
0.701219832634362
40
0.742206182076511
40
0.77789616092505
40
0.819324897557987
40
0.842618603866425
40
0.870391361136664
40
0.906879061547644
40
0.952244861786501
40
1
40
1
40
1
40
1
41
1
10
47.1155653786662
20
-6.73065292713858
30
0
41
1
10
47.3025724149302
20
-6.73328791260224
30
0
41
1
10
47.71401820426
20
-6.73814128373249
30
0
41
1
10
48.3037573397681
20
-6.74162552038646
30
0
41
1
10
48.8476036411979
20
-6.74304702469937
30
0
41
1
10
49.2506764666975
20
-6.74325779634219
30
0
41
1
10
49.539938245886
20
-6.74340849361042
30
0
41
1
10
49.7711732064811
20
-6.74374420056131
30
0
41
1
10
50.0271750462892
20
-6.74401670264365
30
0
41
1
10
50.3531937233367
20
-6.74425213643266
30
0
41
1
10
50.8001499728412
20
-6.74444529359894
30
0
41
1
10
51.3166478595731
20
-6.74452865032103
30
0
41
1
10
51.859170786774
20
-6.74495049583521
30
0
41
1
10
52.4530763360428
20
-6.74576483855566
30
0
41
1
10
53.1492339774521
20
-6.7460868829192
30
0
41
1
10
53.9453573922475
20
-6.7457538045139
30
0
41
1
10
54.7201940244459
20
-6.74694904872857
30
0
41
1
10
55.5969257535852
20
-6.74711970448172
30
0
41
1
10
56.6329224061801
20
-6.7472943128742
30
0
41
1
10
57.8788941304615
20
-6.74867002260803
30
0
41
1
10
58.9783578134784
20
-6.74862520781744
30
0
41
1
10
59.8659247883132
20
-6.74995268842019
30
0
41
1
10
60.5458653786905
20
-6.74959924015226
30
0
41
1
10
61.1238586933617
20
-6.74932026545935
30
0
41
1
10
61.6556923419144
20
-6.75042342494675
30
0
41
1
10
62.1594669439404
20
-6.75090775498944
30
0
41
1
10
62.7907161213856
20
-6.75080244262085
30
0
41
1
10
63.5365992546917
20
-6.75058850239751
30
0
41
1
10
64.0723798318699
20
-6.75157750907726
30
0
41
1
10
64.3470923844856
20
-6.75228048310274
30
0
0
SPLINE
5
108
100
AcDbEntity
8
1
62
256
6
ByLayer
370
18
48
1
60
0
100
AcDbSpline
70
4
71
1
72
4
73
2
40
0
40
0
40
1
40
1
41
1
10
47.1145552094535
20
7.06056817385533
30
0
41
1
10
47.0670091121333
20
7.05808302786014
30
0
0
SPLINE
5
109
100
AcDbEntity
8
1
62
256
6
ByLayer
370
18
48
1
60
0
100
AcDbSpline
70
4
71
1
72
4
73
2
40
0
40
0
40
1
40
1
41
1
10
67.7145583254646
20
0.0003124861927404
30
0
41
1
10
67.7145743285193
20
0.000322271875433
30
0
0
SPLINE
5
10A
100
AcDbEntity
8
1
62
256
6
ByLayer
370
18
48
1
60
0
100
AcDbSpline
70
4
71
1
72
4
73
2
40
0
40
0
40
1
40
1
41
1
10
90.451641198333
20
-2.69440123399366
30
0
41
1
10
90.4574480080318
20
-2.69526524171877
30
0
0
SPLINE
5
10B
100
AcDbEntity
8
1
62
256
6
ByLayer
370
18
48
1
60
0
100
AcDbSpline
70
4
71
2
72
6
73
3
40
0
40
0
40
0
40
1
40
1
40
1
41
1
10
44.4259975882761
20
-9.57675524018123
30
0
41
1
10
45.6972528504836
20
-8.31841435185405
30
0
41
1
10
46.9688223107675
20
-7.05690720736797
30
0
0
LINE
5
7D
100
AcDbEntity
8
SK1
62
256
6
ByLayer
370
18
48
1
60
0
100
AcDbLine
10
-47.6
20
-1.008784
30
0
11
-47.6
21
1.788608
31
0
39
0
210
0
220
0
230
1
0
LINE
5
7F
100
AcDbEntity
8
SK1
62
256
6
ByLayer
370
18
48
1
60
0
100
AcDbLine
10
-46.745
20
10
30
0
11
-46.745
21
-10
31
0
39
0
210
0
220
0
230
1
0
LINE
5
80
100
AcDbEntity
8
SK1
62
256
6
ByLayer
370
18
48
1
60
0
100
AcDbLine
10
-50
20
-1.214876
30
0
11
-50
21
-6.745
31
0
39
0
210
0
220
0
230
1
0
LINE
5
81
100
AcDbEntity
8
SK1
62
256
6
ByLayer
370
18
48
1
60
0
100
AcDbLine
10
-50
20
6.745
30
0
11
-50
21
1.78233
31
0
39
0
210
0
220
0
230
1
0
LINE
5
82
100
AcDbEntity
8
SK1
62
256
6
ByLayer
370
18
48
1
60
0
100
AcDbLine
10
0
20
-10
30
0
11
0
21
10
31
0
39
0
210
0
220
0
230
1
0
LINE
5
83
100
AcDbEntity
8
SK1
62
256
6
ByLayer
370
13
48
1
60
0
100
AcDbLine
10
-47.7
20
1.883448
30
0
11
-47.7
21
1.113758
31
0
39
0
210
0
220
0
230
1
0
LINE
5
84
100
AcDbEntity
8
SK1
62
256
6
ByLayer
370
18
48
1
60
0
100
AcDbLine
10
-50
20
1.78233
30
0
11
-50
21
1.214876
31
0
39
0
210
0
220
0
230
1
0
LINE
5
85
100
AcDbEntity
8
1
62
256
6
ByLayer
370
13
48
1
60
0
100
AcDbLine
10
1.035181
20
9.62
30
0
11
1.035181
21
-9.62
31
0
39
0
210
0
220
0
230
1
0
LINE
5
86
100
AcDbEntity
8
1
62
256
6
ByLayer
370
13
48
1
60
0
100
AcDbLine
10
89.419199
20
1.521662
30
0
11
91.950458
21
-0.080686
31
0
39
0
210
0
220
0
230
1
0
LINE
5
87
100
AcDbEntity
8
1
62
256
6
ByLayer
370
13
48
1
60
0
100
AcDbLine
10
89.578025
20
1.660348
30
0
11
91.989136
21
0.134057
31
0
39
0
210
0
220
0
230
1
0
LINE
5
88
100
AcDbEntity
8
1
62
256
6
ByLayer
370
13
48
1
60
0
100
AcDbLine
10
0.517591
20
9.81
30
0
11
0.517591
21
-9.81
31
0
39
0
210
0
220
0
230
1
0
LINE
5
89
100
AcDbEntity
8
1
62
256
6
ByLayer
370
18
48
1
60
0
100
AcDbLine
10
0
20
-10
30
0
11
0
21
10
31
0
39
0
210
0
220
0
230
1
0
LINE
5
8A
100
AcDbEntity
8
80
62
256
6
ByLayer
370
18
48
1
60
0
100
AcDbLine
10
0
20
0
30
0
11
-5
21
0
31
0
39
0
210
0
220
0
230
1
0
LINE
5
8B
100
AcDbEntity
8
SK4
62
256
6
ByLayer
370
18
48
0.05
60
0
100
AcDbLine
10
97
20
0
30
0
11
-55
21
0
31
0
39
0
210
0
220
0
230
1
0
LINE
5
8D
100
AcDbEntity
8
4
62
256
6
ByLayer
370
18
48
0.05
60
0
100
AcDbLine
10
92
20
0
30
0
11
0
21
0
31
0
39
0
210
0
220
0
230
1
0
LINE
5
8F
100
AcDbEntity
8
SK1
62
256
6
ByLayer
370
18
48
1
60
0
100
AcDbLine
10
-50
20
-6.745
30
0
11
-46.745
21
-10
31
0
39
0
210
0
220
0
230
1
0
LINE
5
90
100
AcDbEntity
8
SK1
62
256
6
ByLayer
370
18
48
1
60
0
100
AcDbLine
10
-46.745
20
10
30
0
11
-50
21
6.745
31
0
39
0
210
0
220
0
230
1
0
LINE
5
91
100
AcDbEntity
8
SK1
62
256
6
ByLayer
370
18
48
1
60
0
100
AcDbLine
10
-46.745
20
-10
30
0
11
0
21
-10
31
0
39
0
210
0
220
0
230
1
0
LINE
5
92
100
AcDbEntity
8
SK1
62
256
6
ByLayer
370
18
48
1
60
0
100
AcDbLine
10
0
20
10
30
0
11
-46.745
21
10
31
0
39
0
210
0
220
0
230
1
0
LINE
5
93
100
AcDbEntity
8
1
62
256
6
ByLayer
370
18
48
1
60
0
100
AcDbLine
10
88.789471
20
7.124327
30
0
11
86.657564
21
7.122995
31
0
39
0
210
0
220
0
230
1
0
LINE
5
94
100
AcDbEntity
8
1
62
256
6
ByLayer
370
18
48
1
60
0
100
AcDbLine
10
86.657564
20
-7.122995
30
0
11
88.789471
21
-7.124327
31
0
39
0
210
0
220
0
230
1
0
LINE
5
95
100
AcDbEntity
8
1
62
256
6
ByLayer
370
18
48
1
60
0
100
AcDbLine
10
44.470174
20
9.62
30
0
11
44.237782
21
9.62
31
0
39
0
210
0
220
0
230
1
0
LINE
5
96
100
AcDbEntity
8
1
62
256
6
ByLayer
370
18
48
1
60
0
100
AcDbLine
10
23.076516
20
9.62
30
0
11
1.035181
21
9.62
31
0
39
0
210
0
220
0
230
1
0
LINE
5
97
100
AcDbEntity
8
1
62
256
6
ByLayer
370
18
48
1
60
0
100
AcDbLine
10
1.035181
20
-9.62
30
0
11
23.076516
21
-9.62
31
0
39
0
210
0
220
0
230
1
0
LINE
5
98
100
AcDbEntity
8
1
62
256
6
ByLayer
370
18
48
1
60
0
100
AcDbLine
10
44.237782
20
-9.62
30
0
11
44.470174
21
-9.62
31
0
39
0
210
0
220
0
230
1
0
LINE
5
99
100
AcDbEntity
8
81
62
256
6
ByLayer
370
18
48
1
60
0
100
AcDbLine
10
92
20
0
30
0
11
97
21
0
31
0
39
0
210
0
220
0
230
1
0
LINE
5
9A
100
AcDbEntity
8
2
62
256
6
ByLayer
370
13
48
1
60
0
100
AcDbLine
10
114.236431
20
-9.62
30
0
11
114.236431
21
37.18948
31
0
39
0
210
0
220
0
230
1
0
LINE
5
9C
100
AcDbEntity
8
2
62
256
6
ByLayer
370
13
48
1
60
0
100
AcDbLine
10
46.218
20
9.62
30
0
11
116.236431
21
9.62
31
0
39
0
210
0
220
0
230
1
0
LINE
5
9D
100
AcDbEntity
8
2
62
256
6
ByLayer
370
13
48
1
60
0
100
AcDbLine
10
46.218
20
-9.62
30
0
11
116.236431
21
-9.62
31
0
39
0
210
0
220
0
230
1
0
LINE
5
9E
100
AcDbEntity
8
1
62
256
6
ByLayer
370
18
48
1
60
1
100
AcDbLine
10
114.236431
20
9.62
30
0
11
114.697214
21
6.120002
31
0
39
0
210
0
220
0
230
1
0
LINE
5
9F
100
AcDbEntity
8
1
62
256
6
ByLayer
370
18
48
1
60
1
100
AcDbLine
10
114.697214
20
6.120002
30
0
11
113.775647
21
6.119998
31
0
39
0
210
0
220
0
230
1
0
LINE
5
A0
100
AcDbEntity
8
1
62
256
6
ByLayer
370
18
48
1
60
1
100
AcDbLine
10
113.775647
20
6.119998
30
0
11
114.236431
21
9.62
31
0
39
0
210
0
220
0
230
1
0
LINE
5
A1
100
AcDbEntity
8
1
62
256
6
ByLayer
370
18
48
1
60
1
100
AcDbLine
10
114.236431
20
-9.62
30
0
11
113.775647
21
-6.120002
31
0
39
0
210
0
220
0
230
1
0
LINE
5
A2
100
AcDbEntity
8
1
62
256
6
ByLayer
370
18
48
1
60
1
100
AcDbLine
10
113.775647
20
-6.120002
30
0
11
114.697214
21
-6.119998
31
0
39
0
210
0
220
0
230
1
0
LINE
5
A3
100
AcDbEntity
8
1
62
256
6
ByLayer
370
18
48
1
60
1
100
AcDbLine
10
114.697214
20
-6.119998
30
0
11
114.236431
21
-9.62
31
0
39
0
210
0
220
0
230
1
0
LINE
5
A4
100
AcDbEntity
8
SK2
62
256
6
ByLayer
370
13
48
1
60
0
100
AcDbLine
10
-58.625163
20
-10
30
0
11
-58.625163
21
41.732039
31
0
39
0
210
0
220
0
230
1
0
LINE
5
A6
100
AcDbEntity
8
SK2
62
256
6
ByLayer
370
13
48
1
60
0
100
AcDbLine
10
-51.5875
20
10
30
0
11
-60.625163
21
10
31
0
39
0
210
0
220
0
230
1
0
LINE
5
A7
100
AcDbEntity
8
SK2
62
256
6
ByLayer
370
13
48
1
60
0
100
AcDbLine
10
-51.5875
20
-10
30
0
11
-60.625163
21
-10
31
0
39
0
210
0
220
0
230
1
0
LINE
5
A8
100
AcDbEntity
8
1
62
256
6
ByLayer
370
18
48
1
60
1
100
AcDbLine
10
-58.625163
20
10
30
0
11
-58.164379
21
6.500002
31
0
39
0
210
0
220
0
230
1
0
LINE
5
A9
100
AcDbEntity
8
1
62
256
6
ByLayer
370
18
48
1
60
1
100
AcDbLine
10
-58.164379
20
6.500002
30
0
11
-59.085946
21
6.499998
31
0
39
0
210
0
220
0
230
1
0
LINE
5
AA
100
AcDbEntity
8
1
62
256
6
ByLayer
370
18
48
1
60
1
100
AcDbLine
10
-59.085946
20
6.499998
30
0
11
-58.625163
21
10
31
0
39
0
210
0
220
0
230
1
0
LINE
5
AB
100
AcDbEntity
8
1
62
256
6
ByLayer
370
18
48
1
60
1
100
AcDbLine
10
-58.625163
20
-10
30
0
11
-59.085946
21
-6.500002
31
0
39
0
210
0
220
0
230
1
0
LINE
5
AC
100
AcDbEntity
8
1
62
256
6
ByLayer
370
18
48
1
60
1
100
AcDbLine
10
-59.085946
20
-6.500002
30
0
11
-58.164379
21
-6.499998
31
0
39
0
210
0
220
0
230
1
0
LINE
5
AD
100
AcDbEntity
8
1
62
256
6
ByLayer
370
18
48
1
60
1
100
AcDbLine
10
-58.164379
20
-6.499998
30
0
11
-58.625163
21
-10
31
0
39
0
210
0
220
0
230
1
0
LINE
5
AE
100
AcDbEntity
8
2
62
256
6
ByLayer
370
13
48
1
60
0
100
AcDbLine
10
105.970081
20
-7.125
30
0
11
105.970081
21
37.698429
31
0
39
0
210
0
220
0
230
1
0
LINE
5
AF
100
AcDbEntity
8
2
62
256
6
ByLayer
370
13
48
1
60
0
100
AcDbLine
10
91.463
20
7.125
30
0
11
107.970081
21
7.125
31
0
39
0
210
0
220
0
230
1
0
LINE
5
B0
100
AcDbEntity
8
2
62
256
6
ByLayer
370
13
48
1
60
0
100
AcDbLine
10
91.463
20
-7.125
30
0
11
107.970081
21
-7.125
31
0
39
0
210
0
220
0
230
1
0
LINE
5
B1
100
AcDbEntity
8
1
62
256
6
ByLayer
370
18
48
1
60
1
100
AcDbLine
10
105.970081
20
7.125
30
0
11
106.430865
21
3.625002
31
0
39
0
210
0
220
0
230
1
0
LINE
5
B2
100
AcDbEntity
8
1
62
256
6
ByLayer
370
18
48
1
60
1
100
AcDbLine
10
106.430865
20
3.625002
30
0
11
105.509297
21
3.624998
31
0
39
0
210
0
220
0
230
1
0
LINE
5
B3
100
AcDbEntity
8
1
62
256
6
ByLayer
370
18
48
1
60
1
100
AcDbLine
10
105.509297
20
3.624998
30
0
11
105.970081
21
7.125
31
0
39
0
210
0
220
0
230
1
0
LINE
5
B4
100
AcDbEntity
8
1
62
256
6
ByLayer
370
18
48
1
60
1
100
AcDbLine
10
105.970081
20
-7.125
30
0
11
105.509297
21
-3.625002
31
0
39
0
210
0
220
0
230
1
0
LINE
5
B5
100
AcDbEntity
8
1
62
256
6
ByLayer
370
18
48
1
60
1
100
AcDbLine
10
105.509297
20
-3.625002
30
0
11
106.430865
21
-3.624998
31
0
39
0
210
0
220
0
230
1
0
LINE
5
B6
100
AcDbEntity
8
1
62
256
6
ByLayer
370
18
48
1
60
1
100
AcDbLine
10
106.430865
20
-3.624998
30
0
11
105.970081
21
-7.125
31
0
39
0
210
0
220
0
230
1
0
LINE
5
B7
100
AcDbEntity
8
SK2
62
256
6
ByLayer
370
13
48
1
60
0
100
AcDbLine
10
43.507968
20
-10.742532
30
0
11
36.973572
21
-17.276928
31
0
39
0
210
0
220
0
230
1
0
LINE
5
B8
100
AcDbEntity
8
SK2
62
256
6
ByLayer
370
13
48
1
60
0
100
AcDbLine
10
43.507968
20
10.742532
30
0
11
36.973572
21
17.276928
31
0
39
0
210
0
220
0
230
1
0
LINE
5
B9
100
AcDbEntity
8
1
62
256
6
ByLayer
370
18
48
1
60
1
100
AcDbLine
10
38.387786
20
-15.862714
30
0
11
35.672844
21
-13.606301
31
0
39
0
210
0
220
0
230
1
0
LINE
5
BA
100
AcDbEntity
8
1
62
256
6
ByLayer
370
18
48
1
60
1
100
AcDbLine
10
35.672844
20
-13.606301
30
0
11
36.349354
21
-12.980505
31
0
39
0
210
0
220
0
230
1
0
LINE
5
BB
100
AcDbEntity
8
1
62
256
6
ByLayer
370
18
48
1
60
1
100
AcDbLine
10
36.349354
20
-12.980505
30
0
11
38.387786
21
-15.862714
31
0
39
0
210
0
220
0
230
1
0
LINE
5
BC
100
AcDbEntity
8
1
62
256
6
ByLayer
370
18
48
1
60
1
100
AcDbLine
10
38.387786
20
15.862714
30
0
11
36.349356
21
12.980508
31
0
39
0
210
0
220
0
230
1
0
LINE
5
BD
100
AcDbEntity
8
1
62
256
6
ByLayer
370
18
48
1
60
1
100
AcDbLine
10
36.349356
20
12.980508
30
0
11
35.672841
21
13.606299
31
0
39
0
210
0
220
0
230
1
0
LINE
5
BE
100
AcDbEntity
8
1
62
256
6
ByLayer
370
18
48
1
60
1
100
AcDbLine
10
35.672841
20
13.606299
30
0
11
38.387786
21
15.862714
31
0
39
0
210
0
220
0
230
1
0
LINE
5
112
100
AcDbEntity
8
1
62
256
6
ByLayer
370
18
48
1
60
1
100
AcDbLine
10
114.236431
20
9.62
30
0
11
114.697214
21
6.120002
31
0
39
0
210
0
220
0
230
1
0
LINE
5
113
100
AcDbEntity
8
1
62
256
6
ByLayer
370
18
48
1
60
1
100
AcDbLine
10
114.697214
20
6.120002
30
0
11
113.775647
21
6.119998
31
0
39
0
210
0
220
0
230
1
0
LINE
5
114
100
AcDbEntity
8
1
62
256
6
ByLayer
370
18
48
1
60
1
100
AcDbLine
10
113.775647
20
6.119998
30
0
11
114.236431
21
9.62
31
0
39
0
210
0
220
0
230
1
0
LINE
5
116
100
AcDbEntity
8
1
62
256
6
ByLayer
370
18
48
1
60
1
100
AcDbLine
10
114.236431
20
-9.62
30
0
11
113.775647
21
-6.120002
31
0
39
0
210
0
220
0
230
1
0
LINE
5
117
100
AcDbEntity
8
1
62
256
6
ByLayer
370
18
48
1
60
1
100
AcDbLine
10
113.775647
20
-6.120002
30
0
11
114.697214
21
-6.119998
31
0
39
0
210
0
220
0
230
1
0
LINE
5
118
100
AcDbEntity
8
1
62
256
6
ByLayer
370
18
48
1
60
1
100
AcDbLine
10
114.697214
20
-6.119998
30
0
11
114.236431
21
-9.62
31
0
39
0
210
0
220
0
230
1
0
LINE
5
11C
100
AcDbEntity
8
1
62
256
6
ByLayer
370
18
48
1
60
1
100
AcDbLine
10
-58.625163
20
10
30
0
11
-58.164379
21
6.500002
31
0
39
0
210
0
220
0
230
1
0
LINE
5
11D
100
AcDbEntity
8
1
62
256
6
ByLayer
370
18
48
1
60
1
100
AcDbLine
10
-58.164379
20
6.500002
30
0
11
-59.085946
21
6.499998
31
0
39
0
210
0
220
0
230
1
0
LINE
5
11E
100
AcDbEntity
8
1
62
256
6
ByLayer
370
18
48
1
60
1
100
AcDbLine
10
-59.085946
20
6.499998
30
0
11
-58.625163
21
10
31
0
39
0
210
0
220
0
230
1
0
LINE
5
120
100
AcDbEntity
8
1
62
256
6
ByLayer
370
18
48
1
60
1
100
AcDbLine
10
-58.625163
20
-10
30
0
11
-59.085946
21
-6.500002
31
0
39
0
210
0
220
0
230
1
0
LINE
5
121
100
AcDbEntity
8
1
62
256
6
ByLayer
370
18
48
1
60
1
100
AcDbLine
10
-59.085946
20
-6.500002
30
0
11
-58.164379
21
-6.499998
31
0
39
0
210
0
220
0
230
1
0
LINE
5
122
100
AcDbEntity
8
1
62
256
6
ByLayer
370
18
48
1
60
1
100
AcDbLine
10
-58.164379
20
-6.499998
30
0
11
-58.625163
21
-10
31
0
39
0
210
0
220
0
230
1
0
LINE
5
126
100
AcDbEntity
8
1
62
256
6
ByLayer
370
18
48
1
60
1
100
AcDbLine
10
105.970081
20
7.125
30
0
11
106.430865
21
3.625002
31
0
39
0
210
0
220
0
230
1
0
LINE
5
127
100
AcDbEntity
8
1
62
256
6
ByLayer
370
18
48
1
60
1
100
AcDbLine
10
106.430865
20
3.625002
30
0
11
105.509297
21
3.624998
31
0
39
0
210
0
220
0
230
1
0
LINE
5
128
100
AcDbEntity
8
1
62
256
6
ByLayer
370
18
48
1
60
1
100
AcDbLine
10
105.509297
20
3.624998
30
0
11
105.970081
21
7.125
31
0
39
0
210
0
220
0
230
1
0
LINE
5
12A
100
AcDbEntity
8
1
62
256
6
ByLayer
370
18
48
1
60
1
100
AcDbLine
10
105.970081
20
-7.125
30
0
11
105.509297
21
-3.625002
31
0
39
0
210
0
220
0
230
1
0
LINE
5
12B
100
AcDbEntity
8
1
62
256
6
ByLayer
370
18
48
1
60
1
100
AcDbLine
10
105.509297
20
-3.625002
30
0
11
106.430865
21
-3.624998
31
0
39
0
210
0
220
0
230
1
0
LINE
5
12C
100
AcDbEntity
8
1
62
256
6
ByLayer
370
18
48
1
60
1
100
AcDbLine
10
106.430865
20
-3.624998
30
0
11
105.970081
21
-7.125
31
0
39
0
210
0
220
0
230
1
0
LINE
5
12F
100
AcDbEntity
8
1
62
256
6
ByLayer
370
18
48
1
60
1
100
AcDbLine
10
38.387786
20
-15.862714
30
0
11
35.672844
21
-13.606301
31
0
39
0
210
0
220
0
230
1
0
LINE
5
130
100
AcDbEntity
8
1
62
256
6
ByLayer
370
18
48
1
60
1
100
AcDbLine
10
35.672844
20
-13.606301
30
0
11
36.349354
21
-12.980505
31
0
39
0
210
0
220
0
230
1
0
LINE
5
131
100
AcDbEntity
8
1
62
256
6
ByLayer
370
18
48
1
60
1
100
AcDbLine
10
36.349354
20
-12.980505
30
0
11
38.387786
21
-15.862714
31
0
39
0
210
0
220
0
230
1
0
LINE
5
133
100
AcDbEntity
8
1
62
256
6
ByLayer
370
18
48
1
60
1
100
AcDbLine
10
38.387786
20
15.862714
30
0
11
36.349356
21
12.980508
31
0
39
0
210
0
220
0
230
1
0
LINE
5
134
100
AcDbEntity
8
1
62
256
6
ByLayer
370
18
48
1
60
1
100
AcDbLine
10
36.349356
20
12.980508
30
0
11
35.672841
21
13.606299
31
0
39
0
210
0
220
0
230
1
0
LINE
5
135
100
AcDbEntity
8
1
62
256
6
ByLayer
370
18
48
1
60
1
100
AcDbLine
10
35.672841
20
13.606299
30
0
11
38.387786
21
15.862714
31
0
39
0
210
0
220
0
230
1
0
MTEXT
5
10C
100
AcDbEntity
8
SK6
62
256
6
ByLayer
370
13
48
1
60
0
100
AcDbMText
10
-8.513727
20
39.665328
30
0
210
0
220
0
230
1
1
\W0.7763;462.2-1425-046A1-XM X2BM
40
3.5
41
0
44
1.084337
50
0
71
7
72
5
7
iso_b_vert
0
MTEXT
5
110
100
AcDbEntity
8
2
62
256
6
ByLayer
370
18
48
1
60
0
100
AcDbMText
10
112.671797
20
19.372798
30
0
210
0
220
0
230
1
1
%%c
40
3.5
41
0
44
1.084337
50
90
71
7
72
5
7
iso_b_vert
0
MTEXT
5
111
100
AcDbEntity
8
2
62
256
6
ByLayer
370
18
48
1
60
0
100
AcDbMText
10
112.671797
20
24.595454
30
0
210
0
220
0
230
1
1
\W0.7145;19,240
40
3.5
41
0
44
1.084337
50
90
71
7
72
5
7
iso_b_vert
0
MTEXT
5
11A
100
AcDbEntity
8
SK2
62
256
6
ByLayer
370
18
48
1
60
0
100
AcDbMText
10
-60.189796
20
23.409024
30
0
210
0
220
0
230
1
1
%%c
40
3.5
41
0
44
1.084337
50
90
71
7
72
5
7
iso_b_vert
0
MTEXT
5
11B
100
AcDbEntity
8
SK2
62
256
6
ByLayer
370
18
48
1
60
0
100
AcDbMText
10
-60.189796
20
28.63168
30
0
210
0
220
0
230
1
1
\W0.7421;20,000
40
3.5
41
0
44
1.084337
50
90
71
7
72
5
7
iso_b_vert
0
MTEXT
5
124
100
AcDbEntity
8
2
62
256
6
ByLayer
370
18
48
1
60
0
100
AcDbMText
10
104.405448
20
19.881747
30
0
210
0
220
0
230
1
1
%%c
40
3.5
41
0
44
1.084337
50
90
71
7
72
5
7
iso_b_vert
0
MTEXT
5
125
100
AcDbEntity
8
2
62
256
6
ByLayer
370
18
48
1
60
0
100
AcDbMText
10
104.405448
20
25.104403
30
0
210
0
220
0
230
1
1
\W0.7145;14,250
40
3.5
41
0
44
1.084337
50
90
71
7
72
5
7
iso_b_vert
0
MTEXT
5
12E
100
AcDbEntity
8
SK2
62
256
6
ByLayer
370
13
48
1
60
0
100
AcDbMText
10
26.982375
20
-0.291663
30
0
210
0
220
0
230
1
1
\W0.8181;90,0%%d
40
3.5
41
0
44
1.084337
50
0
71
7
72
5
7
iso_b_vert
0
HATCH
5
115
100
AcDbEntity
8
2
62
256
6
ByLayer
370
13
48
1
60
0
100
AcDbHatch
10
0
20
0
30
0
210
0
220
0
230
1
2
ANSI31
70
0
71
0
91
1
92
5
93
3
72
1
10
114.236430604616
20
9.62
11
114.697214346169
21
6.12000169255319
72
1
10
114.697214346169
20
6.12000169255319
11
113.775646863064
21
6.11999830744682
72
1
10
113.775646863064
20
6.11999830744682
11
114.236430604616
21
9.62
97
0
75
0
76
1
52
0
41
0.0062
77
0
78
1
53
45
43
0
44
0
45
-0.0139193969876572
46
0.0139193969876572
79
0
47
0
98
1
10
0
20
0
0
HATCH
5
119
100
AcDbEntity
8
2
62
256
6
ByLayer
370
13
48
1
60
0
100
AcDbHatch
10
0
20
0
30
0
210
0
220
0
230
1
2
ANSI31
70
0
71
0
91
1
92
5
93
3
72
1
10
114.236430604616
20
-9.62
11
113.775646863064
21
-6.12000169255319
72
1
10
113.775646863064
20
-6.12000169255319
11
114.697214346169
21
-6.11999830744682
72
1
10
114.697214346169
20
-6.11999830744682
11
114.236430604616
21
-9.62
97
0
75
0
76
1
52
0
41
0.0062
77
0
78
1
53
45
43
0
44
0
45
-0.0139193969876572
46
0.0139193969876572
79
0
47
0
98
1
10
0
20
0
0
HATCH
5
11F
100
AcDbEntity
8
SK2
62
256
6
ByLayer
370
13
48
1
60
0
100
AcDbHatch
10
0
20
0
30
0
210
0
220
0
230
1
2
ANSI31
70
0
71
0
91
1
92
5
93
3
72
1
10
-58.6251625675374
20
10
11
-58.1643788259847
21
6.50000169255318
72
1
10
-58.1643788259847
20
6.50000169255318
11
-59.0859463090902
21
6.49999830744682
72
1
10
-59.0859463090902
20
6.49999830744682
11
-58.6251625675374
21
10
97
0
75
0
76
1
52
0
41
0.0062
77
0
78
1
53
45
43
0
44
0
45
-0.0139193969876572
46
0.0139193969876572
79
0
47
0
98
1
10
0
20
0
0
HATCH
5
123
100
AcDbEntity
8
SK2
62
256
6
ByLayer
370
13
48
1
60
0
100
AcDbHatch
10
0
20
0
30
0
210
0
220
0
230
1
2
ANSI31
70
0
71
0
91
1
92
5
93
3
72
1
10
-58.6251625675374
20
-10
11
-59.0859463090902
21
-6.50000169255318
72
1
10
-59.0859463090902
20
-6.50000169255318
11
-58.1643788259847
21
-6.49999830744682
72
1
10
-58.1643788259847
20
-6.49999830744682
11
-58.6251625675374
21
-10
97
0
75
0
76
1
52
0
41
0.0062
77
0
78
1
53
45
43
0
44
0
45
-0.0139193969876572
46
0.0139193969876572
79
0
47
0
98
1
10
0
20
0
0
HATCH
5
129
100
AcDbEntity
8
2
62
256
6
ByLayer
370
13
48
1
60
0
100
AcDbHatch
10
0
20
0
30
0
210
0
220
0
230
1
2
ANSI31
70
0
71
0
91
1
92
5
93
3
72
1
10
105.970081101161
20
7.125
11
106.430864842714
21
3.62500169255318
72
1
10
106.430864842714
20
3.62500169255318
11
105.509297359609
21
3.62499830744682
72
1
10
105.509297359609
20
3.62499830744682
11
105.970081101161
21
7.125
97
0
75
0
76
1
52
0
41
0.0062
77
0
78
1
53
45
43
0
44
0
45
-0.0139193969876572
46
0.0139193969876572
79
0
47
0
98
1
10
0
20
0
0
HATCH
5
12D
100
AcDbEntity
8
2
62
256
6
ByLayer
370
13
48
1
60
0
100
AcDbHatch
10
0
20
0
30
0
210
0
220
0
230
1
2
ANSI31
70
0
71
0
91
1
92
5
93
3
72
1
10
105.970081101161
20
-7.125
11
105.509297359609
21
-3.62500169255318
72
1
10
105.509297359609
20
-3.62500169255318
11
106.430864842714
21
-3.62499830744682
72
1
10
106.430864842714
20
-3.62499830744682
11
105.970081101161
21
-7.125
97
0
75
0
76
1
52
0
41
0.0062
77
0
78
1
53
45
43
0
44
0
45
-0.0139193969876572
46
0.0139193969876572
79
0
47
0
98
1
10
0
20
0
0
HATCH
5
132
100
AcDbEntity
8
SK2
62
256
6
ByLayer
370
13
48
1
60
0
100
AcDbHatch
10
0
20
0
30
0
210
0
220
0
230
1
2
ANSI31
70
0
71
0
91
1
92
5
93
3
72
1
10
38.3877856485842
20
-15.8627143514158
11
35.6728435750206
21
-13.6063014136307
72
1
10
35.6728435750206
20
-13.6063014136307
11
36.3493536868328
21
-12.9805053649499
72
1
10
36.3493536868328
20
-12.9805053649499
11
38.3877856485842
21
-15.8627143514158
97
0
75
0
76
1
52
0
41
0.0062
77
0
78
1
53
45
43
0
44
0
45
-0.0139193969876572
46
0.0139193969876572
79
0
47
0
98
1
10
0
20
0
0
HATCH
5
136
100
AcDbEntity
8
SK2
62
256
6
ByLayer
370
13
48
1
60
0
100
AcDbHatch
10
0
20
0
30
0
210
0
220
0
230
1
2
ANSI31
70
0
71
0
91
1
92
5
93
3
72
1
10
38.3877856485842
20
15.8627143514158
11
36.3493559855009
21
12.9805078499187
72
1
10
36.3493559855009
20
12.9805078499187
11
35.6728412763524
21
13.6062989286619
72
1
10
35.6728412763524
20
13.6062989286619
11
38.3877856485842
21
15.8627143514158
97
0
75
0
76
1
52
0
41
0.0062
77
0
78
1
53
45
43
0
44
0
45
-0.0139193969876572
46
0.0139193969876572
79
0
47
0
98
1
10
0
20
0
0
DIMENSION
5
138
100
AcDbEntity
8
SK2
62
256
6
ByLayer
370
13
48
1
60
0
100
AcDbDimension
2
_U0
10
89.8755
20
-19.927503
30
0
11
44.93775
21
-19.927503
31
0
70
32
71
1
72
1
41
1
210
0
220
0
230
1
3
Standard
100
AcDbAlignedDimension
13
0
23
0
33
0
14
89.8755
24
-7.125
34
0
50
0
100
AcDbRotatedDimension
1001
ACAD
1000
DSTYLE
1002
{
1070
   371
1070
    13
1070
   372
1070
    13
1070
   170
1070
     0
1070
   144
1040
1.0
1070
   277
1070
     2
1070
   278
1070
    44
1070
   146
1040
1.0
1070
   345
1005
16
1070
   347
1005
16
1070
   346
1005
16
1070
   344
1005
0
1070
   343
1005
0
1070
   172
1070
     1
1070
    76
1070
     0
1070
    75
1070
     0
1070
   282
1070
     0
1070
   281
1070
     0
1070
    71
1070
     0
1070
    74
1070
     0
1070
   279
1070
     0
1070
   173
1070
     1
1070
   340
1005
10D
1070
   271
1070
     2
1070
   272
1070
     2
1070
    77
1070
     1
1070
    73
1070
     1
1070
   171
1070
     3
1070
   274
1070
     4
1070
   177
1070
    35
1070
   176
1070
    35
1070
   178
1070
    35
1070
    48
1040
-0.1
1070
    41
1040
3.5
1070
   147
1040
1.75
1070
    42
1040
1.5875
1070
    44
1040
2.0
1070
   140
1040
3.5
1002
}
1001
ACAD_DSTYLE_DIM_LINETYPE
1070
   380
1005
16
1001
ACAD_DSTYLE_DIM_EXT1_LINETYPE
1070
   381
1005
16
1001
ACAD_DSTYLE_DIM_EXT2_LINETYPE
1070
   382
1005
16
0
DIMENSION
5
151
100
AcDbEntity
8
SK2
62
256
6
ByLayer
370
13
48
1
60
0
100
AcDbDimension
2
_U1
10
92
20
-41.192985
30
0
11
21
21
-41.192985
31
0
70
32
71
1
72
1
41
1
210
0
220
0
230
1
3
Standard
100
AcDbAlignedDimension
13
-50
23
-10
33
0
14
92
24
0
34
0
50
0
100
AcDbRotatedDimension
1001
ACAD
1000
DSTYLE
1002
{
1070
   371
1070
    13
1070
   372
1070
    13
1070
   170
1070
     0
1070
   144
1040
1.0
1070
   277
1070
     2
1070
   278
1070
    44
1070
   146
1040
1.0
1070
   345
1005
16
1070
   347
1005
16
1070
   346
1005
16
1070
   344
1005
0
1070
   343
1005
0
1070
   172
1070
     1
1070
    76
1070
     0
1070
    75
1070
     0
1070
   282
1070
     0
1070
   281
1070
     0
1070
    71
1070
     0
1070
    74
1070
     0
1070
   279
1070
     0
1070
   173
1070
     1
1070
   340
1005
10D
1070
   271
1070
     2
1070
   272
1070
     2
1070
    77
1070
     1
1070
    73
1070
     1
1070
   171
1070
     3
1070
   274
1070
     4
1070
   177
1070
    35
1070
   176
1070
    35
1070
   178
1070
    35
1070
    48
1040
-0.1
1070
    41
1040
3.5
1070
   147
1040
1.75
1070
    42
1040
1.5875
1070
    44
1040
2.0
1070
   140
1040
3.5
1002
}
1001
ACAD_DSTYLE_DIM_LINETYPE
1070
   380
1005
16
1001
ACAD_DSTYLE_DIM_EXT1_LINETYPE
1070
   381
1005
16
1001
ACAD_DSTYLE_DIM_EXT2_LINETYPE
1070
   382
1005
16
0
DIMENSION
5
169
100
AcDbEntity
8
SK2
62
256
6
ByLayer
370
13
48
1
60
0
100
AcDbDimension
2
_U2
10
92
20
18.734119
30
0
11
68.315
21
18.734119
31
0
70
32
71
1
72
1
41
1
210
0
220
0
230
1
3
Standard
100
AcDbAlignedDimension
13
44.63
23
9.62
33
0
14
92
24
0
34
0
50
0
100
AcDbRotatedDimension
1001
ACAD
1000
DSTYLE
1002
{
1070
   371
1070
    13
1070
   372
1070
    13
1070
   170
1070
     0
1070
   144
1040
1.0
1070
   277
1070
     2
1070
   278
1070
    44
1070
   146
1040
1.0
1070
   345
1005
16
1070
   347
1005
16
1070
   346
1005
16
1070
   344
1005
0
1070
   343
1005
0
1070
   172
1070
     1
1070
    76
1070
     0
1070
    75
1070
     0
1070
   282
1070
     0
1070
   281
1070
     0
1070
    71
1070
     0
1070
    74
1070
     0
1070
   279
1070
     0
1070
   173
1070
     1
1070
   340
1005
10D
1070
   271
1070
     2
1070
   272
1070
     2
1070
    77
1070
     1
1070
    73
1070
     1
1070
   171
1070
     3
1070
   274
1070
     4
1070
   177
1070
    35
1070
   176
1070
    35
1070
   178
1070
    35
1070
    48
1040
-0.1
1070
    41
1040
3.5
1070
   147
1040
1.75
1070
    42
1040
1.5875
1070
    44
1040
2.0
1070
   140
1040
3.5
1002
}
1001
ACAD_DSTYLE_DIM_LINETYPE
1070
   380
1005
16
1001
ACAD_DSTYLE_DIM_EXT1_LINETYPE
1070
   381
1005
16
1001
ACAD_DSTYLE_DIM_EXT2_LINETYPE
1070
   382
1005
16
0
DIMENSION
5
181
100
AcDbEntity
8
SK2
62
256
6
ByLayer
370
13
48
1
60
0
100
AcDbDimension
2
_U3
10
89.8755
20
-19.927503
30
0
11
109.583333
21
-19.927503
31
0
70
32
71
1
72
1
41
1
210
0
220
0
230
1
3
Standard
100
AcDbAlignedDimension
13
92
23
0
33
0
14
89.8755
24
-7.125
34
0
50
0
100
AcDbRotatedDimension
1001
ACAD
1000
DSTYLE
1002
{
1070
   371
1070
    13
1070
   372
1070
    13
1070
   170
1070
     0
1070
   144
1040
1.0
1070
   277
1070
     2
1070
   278
1070
    44
1070
   146
1040
1.0
1070
   345
1005
16
1070
   347
1005
16
1070
   346
1005
16
1070
   344
1005
0
1070
   343
1005
0
1070
   172
1070
     1
1070
    76
1070
     0
1070
    75
1070
     0
1070
   282
1070
     0
1070
   281
1070
     0
1070
    71
1070
     0
1070
    74
1070
     0
1070
   279
1070
     0
1070
   173
1070
     1
1070
   340
1005
10D
1070
   271
1070
     2
1070
   272
1070
     2
1070
    77
1070
     1
1070
    73
1070
     1
1070
   171
1070
     3
1070
   274
1070
     4
1070
   177
1070
    35
1070
   176
1070
    35
1070
   178
1070
    35
1070
    48
1040
-0.1
1070
    41
1040
3.5
1070
   147
1040
1.75
1070
    42
1040
1.5875
1070
    44
1040
2.0
1070
   140
1040
3.5
1002
}
1001
ACAD_DSTYLE_DIM_LINETYPE
1070
   380
1005
16
1001
ACAD_DSTYLE_DIM_EXT1_LINETYPE
1070
   381
1005
16
1001
ACAD_DSTYLE_DIM_EXT2_LINETYPE
1070
   382
1005
16
0
DIMENSION
5
19B
100
AcDbEntity
8
SK2
62
256
6
ByLayer
370
13
48
1
60
0
100
AcDbDimension
2
_U4
10
47.1255
20
11.260371
30
0
11
68.5005
21
11.260371
31
0
70
32
71
1
72
1
41
1
210
0
220
0
230
1
3
Standard
100
AcDbAlignedDimension
13
89.8755
23
7.125
33
0
14
47.1255
24
7.125
34
0
50
0
100
AcDbRotatedDimension
1001
ACAD
1000
DSTYLE
1002
{
1070
   371
1070
    13
1070
   372
1070
    13
1070
   170
1070
     0
1070
   144
1040
1.0
1070
   277
1070
     2
1070
   278
1070
    44
1070
   146
1040
1.0
1070
   345
1005
16
1070
   347
1005
16
1070
   346
1005
16
1070
   344
1005
0
1070
   343
1005
0
1070
   172
1070
     1
1070
    76
1070
     0
1070
    75
1070
     0
1070
   282
1070
     0
1070
   281
1070
     0
1070
    71
1070
     0
1070
    74
1070
     0
1070
   279
1070
     0
1070
   173
1070
     1
1070
   340
1005
10D
1070
   271
1070
     2
1070
   272
1070
     2
1070
    77
1070
     1
1070
    73
1070
     1
1070
   171
1070
     3
1070
   274
1070
     4
1070
   177
1070
    35
1070
   176
1070
    35
1070
   178
1070
    35
1070
    48
1040
-0.1
1070
    41
1040
3.5
1070
   147
1040
1.75
1070
    42
1040
1.5875
1070
    44
1040
2.0
1070
   140
1040
3.5
1002
}
1001
ACAD_DSTYLE_DIM_LINETYPE
1070
   380
1005
16
1001
ACAD_DSTYLE_DIM_EXT1_LINETYPE
1070
   381
1005
16
1001
ACAD_DSTYLE_DIM_EXT2_LINETYPE
1070
   382
1005
16
0
DIMENSION
5
1B3
100
AcDbEntity
8
SK2
62
256
6
ByLayer
370
13
48
1
60
0
100
AcDbDimension
2
_U5
10
89.8755
20
-30.690158
30
0
11
19.93775
21
-30.690158
31
0
70
32
71
1
72
1
41
1
210
0
220
0
230
1
3
Standard
100
AcDbAlignedDimension
13
-50
23
-10
33
0
14
89.8755
24
-7.125
34
0
50
0
100
AcDbRotatedDimension
1001
ACAD
1000
DSTYLE
1002
{
1070
   371
1070
    13
1070
   372
1070
    13
1070
   170
1070
     0
1070
   144
1040
1.0
1070
   277
1070
     2
1070
   278
1070
    44
1070
   146
1040
1.0
1070
   345
1005
16
1070
   347
1005
16
1070
   346
1005
16
1070
   344
1005
0
1070
   343
1005
0
1070
   172
1070
     1
1070
    76
1070
     0
1070
    75
1070
     0
1070
   282
1070
     0
1070
   281
1070
     0
1070
    71
1070
     0
1070
    74
1070
     0
1070
   279
1070
     0
1070
   173
1070
     1
1070
   340
1005
10D
1070
   271
1070
     2
1070
   272
1070
     2
1070
    77
1070
     1
1070
    73
1070
     1
1070
   171
1070
     3
1070
   274
1070
     4
1070
   177
1070
    35
1070
   176
1070
    35
1070
   178
1070
    35
1070
    48
1040
-0.1
1070
    41
1040
3.5
1070
   147
1040
1.75
1070
    42
1040
1.5875
1070
    44
1040
2.0
1070
   140
1040
3.5
1002
}
1001
ACAD_DSTYLE_DIM_LINETYPE
1070
   380
1005
16
1001
ACAD_DSTYLE_DIM_EXT1_LINETYPE
1070
   381
1005
16
1001
ACAD_DSTYLE_DIM_EXT2_LINETYPE
1070
   382
1005
16
0
ENDSEC
0
SECTION
2
OBJECTS
0
DICTIONARY
5
23b
330
0
100
AcDbDictionary
280
0
281
1
3
ACAD_GROUP
350
23c
3
ACAD_MLINESTYLE
350
23d
0
DICTIONARY
5
23c
330
0
100
AcDbDictionary
280
0
281
1
0
DICTIONARY
5
23d
330
0
100
AcDbDictionary
280
0
281
1
3
Standard
350
18
0
MLINESTYLE
5
18
330
23d
100
AcDbMlineStyle
2
Standard
70
0
3

62
256
51
90
52
90
71
2
49
-0.5
62
256
6
ByLayer
49
0.5
62
256
6
ByLayer
0
RASTERVARIABLES
5
229
330

100
AcDbRasterVariables
90
0
70
1
71
1
72
1
0
ENDSEC
0
EOF
