0
SECTION
2
HEADER
9
$ACADVER
1
AC1015
9
$DWGCODEPAGE
3
ANSI_1252
9
$HANDSEED
5
23d
9
$ANGBASE
50
0
9
$ANGDIR
70
0
9
$ATTMODE
70
1
9
$AUNITS
70
0
9
$AUPREC
70
0
9
$CECOLOR
62
256
9
$CELTSCALE
40
1
9
$CELTYPE
6
ByLayer
9
$CELWEIGHT
370
18
9
$CLAYER
8
0
9
$CMLJUST
70
0
9
$CMLSCALE
40
1
9
$CMLSTYLE
2
Standard
9
$DIMSTYLE
2
Standard
9
$TEXTSIZE
40
0.2
9
$TEXTSTYLE
7
Standard
9
$LUNITS
70
2
9
$LUPREC
70
4
9
$EXTNAMES
290
1
9
$INSUNITS
70
4
9
$LTSCALE
40
1
9
$LWDISPLAY
290
1
9
$PDMODE
70
0
9
$PDSIZE
40
0
9
$PLINEGEN
70
0
0
ENDSEC
0
SECTION
2
CLASSES
0
CLASS
1
RASTERVARIABLES
2
AcDbRasterVariables
3
ISM
90
0
280
0
281
0
0
ENDSEC
0
SECTION
2
TABLES
0
TABLE
2
VPORT
5
233
100
AcDbSymbolTable
0
VPORT
5
1
100
AcDbSymbolTableRecord
100
AcDbViewportTableRecord
2
*Active
70
0
10
0
20
0
11
1
21
1
12
-1
22
1
13
0
23
0
14
0.5
24
0.5
15
10
25
10
16
0
26
0
36
1
17
0
27
0
37
0
0
ENDTAB
0
TABLE
2
LTYPE
5
234
100
AcDbSymbolTable
0
LTYPE
5
14
100
AcDbSymbolTableRecord
100
AcDbLinetypeTableRecord
70
0
2
ByBlock
3

72
65
73
0
40
0
0
LTYPE
5
15
100
AcDbSymbolTableRecord
100
AcDbLinetypeTableRecord
70
0
2
ByLayer
3

72
65
73
0
40
0
0
LTYPE
5
16
100
AcDbSymbolTableRecord
100
AcDbLinetypeTableRecord
70
0
2
Continuous
3
Solid line
72
65
73
0
40
0
0
LTYPE
5
6E
100
AcDbSymbolTableRecord
100
AcDbLinetypeTableRecord
70
0
2
CENTER
3
____ _ ____ _ ____ _ ____
72
65
73
4
40
47.5
49
22
74
0
49
-8.5
74
0
49
8.5
74
0
49
-8.5
74
0
0
LTYPE
5
6F
100
AcDbSymbolTableRecord
100
AcDbLinetypeTableRecord
70
0
2
DASHED
3
__ __ __ __ __ __ __ __ __
72
65
73
2
40
25.72
49
12.86
74
0
49
-12.86
74
0
0
ENDTAB
0
TABLE
2
LAYER
5
235
100
AcDbSymbolTable
0
LAYER
5
10
100
AcDbSymbolTableRecord
100
AcDbLayerTableRecord
2
0
70
0
62
7
6
Continuous
290
1
370
-3
390
0
0
LAYER
5
71
100
AcDbSymbolTableRecord
100
AcDbLayerTableRecord
2
80
70
0
62
-6
6
Continuous
290
1
370
-3
390
0
0
LAYER
5
73
100
AcDbSymbolTableRecord
100
AcDbLayerTableRecord
2
81
70
0
62
-3
6
Continuous
290
1
370
-3
390
0
0
LAYER
5
75
100
AcDbSymbolTableRecord
100
AcDbLayerTableRecord
2
1
70
0
62
4
6
Continuous
290
1
370
-3
390
0
0
LAYER
5
8C
100
AcDbSymbolTableRecord
100
AcDbLayerTableRecord
2
4
70
0
62
-2
6
CENTER
290
1
370
-3
390
0
0
LAYER
5
9B
100
AcDbSymbolTableRecord
100
AcDbLayerTableRecord
2
2
70
0
62
7
6
Continuous
290
1
370
-3
390
0
0
LAYER
5
130
100
AcDbSymbolTableRecord
100
AcDbLayerTableRecord
2
Defpoints
70
0
62
7
6
Continuous
290
0
370
-3
390
0
0
LAYER
5
21f
100
AcDbSymbolTableRecord
100
AcDbLayerTableRecord
2
SK1
70
0
62
4
6
Continuous
290
1
370
-3
390
0
0
LAYER
5
220
100
AcDbSymbolTableRecord
100
AcDbLayerTableRecord
2
SK4
70
0
62
2
6
CENTER
290
1
370
-3
390
0
0
LAYER
5
221
100
AcDbSymbolTableRecord
100
AcDbLayerTableRecord
2
SK2
70
0
62
7
6
Continuous
290
1
370
-3
390
0
0
LAYER
5
222
100
AcDbSymbolTableRecord
100
AcDbLayerTableRecord
2
SK6
70
0
62
5
6
Continuous
290
1
370
-3
390
0
0
ENDTAB
0
TABLE
2
STYLE
5
236
100
AcDbSymbolTable
0
STYLE
5
11
100
AcDbSymbolTableRecord
100
AcDbTextStyleTableRecord
2
Standard
3
txt
70
0
71
0
40
0
41
1
42
0
50
0
0
STYLE
5
102
100
AcDbSymbolTableRecord
100
AcDbTextStyleTableRecord
2
iso_b_vert
3
simplex.shx
70
0
71
0
40
0
41
1
42
0
50
0
0
STYLE
5
103
100
AcDbSymbolTableRecord
100
AcDbTextStyleTableRecord
2
DWGDirectTextStyle
3
simplex
70
0
71
0
40
0
41
1
42
0
50
0
0
ENDTAB
0
TABLE
2
DIMSTYLE
5
237
100
AcDbSymbolTable
100
AcDbDimStyleTable
0
DIMSTYLE
105
27
100
AcDbSymbolTableRecord
100
AcDbDimStyleTableRecord
2
Standard
70
0
3
<>
41
0.18
42
0.0625
44
0.18
140
0.18
147
0.09
73
0
74
0
77
1
271
2
275
0
278
52
280
0
340
11
0
ENDTAB
0
TABLE
2
VIEW
5
238
100
AcDbSymbolTable
0
ENDTAB
0
TABLE
2
UCS
5
239
100
AcDbSymbolTable
0
ENDTAB
0
TABLE
2
APPID
5
23a
100
AcDbSymbolTable
0
APPID
5
12
100
AcDbSymbolTableRecord
100
AcDbRegAppTableRecord
2
ACAD
70
0
0
APPID
5
12C
100
AcDbSymbolTableRecord
100
AcDbRegAppTableRecord
2
ACAD_DSTYLE_DIMBREAK
70
0
0
APPID
5
1DE
100
AcDbSymbolTableRecord
100
AcDbRegAppTableRecord
2
ACAD_DSTYLE_DIM_LINETYPE
70
0
0
APPID
5
1DF
100
AcDbSymbolTableRecord
100
AcDbRegAppTableRecord
2
ACAD_DSTYLE_DIM_EXT1_LINETYPE
70
0
0
APPID
5
1E0
100
AcDbSymbolTableRecord
100
AcDbRegAppTableRecord
2
ACAD_DSTYLE_DIM_EXT2_LINETYPE
70
0
0
APPID
5
21B
100
AcDbSymbolTableRecord
100
AcDbRegAppTableRecord
2
ACAD_MLEADERVER
70
0
0
ENDTAB
0
TABLE
2
BLOCK_RECORD
5
23b
100
AcDbSymbolTable
0
BLOCK_RECORD
5
1F
100
AcDbSymbolTableRecord
100
AcDbBlockTableRecord
2
*Model_Space
340
0
70
0
0
BLOCK_RECORD
5
1B
100
AcDbSymbolTableRecord
100
AcDbBlockTableRecord
2
*Paper_Space
340
0
70
0
0
BLOCK_RECORD
5
23
100
AcDbSymbolTableRecord
100
AcDbBlockTableRecord
2
*Paper_Space0
340
0
70
0
0
BLOCK_RECORD
5
131
100
AcDbSymbolTableRecord
100
AcDbBlockTableRecord
2
*D1
340
0
70
0
0
BLOCK_RECORD
5
13D
100
AcDbSymbolTableRecord
100
AcDbBlockTableRecord
2
_U0
340
0
70
0
0
BLOCK_RECORD
5
149
100
AcDbSymbolTableRecord
100
AcDbBlockTableRecord
2
*D3
340
0
70
0
0
BLOCK_RECORD
5
155
100
AcDbSymbolTableRecord
100
AcDbBlockTableRecord
2
_U1
340
0
70
0
0
BLOCK_RECORD
5
161
100
AcDbSymbolTableRecord
100
AcDbBlockTableRecord
2
*D5
340
0
70
0
0
BLOCK_RECORD
5
16D
100
AcDbSymbolTableRecord
100
AcDbBlockTableRecord
2
_U2
340
0
70
0
0
BLOCK_RECORD
5
179
100
AcDbSymbolTableRecord
100
AcDbBlockTableRecord
2
*D7
340
0
70
0
0
BLOCK_RECORD
5
187
100
AcDbSymbolTableRecord
100
AcDbBlockTableRecord
2
_U3
340
0
70
0
0
BLOCK_RECORD
5
193
100
AcDbSymbolTableRecord
100
AcDbBlockTableRecord
2
*D9
340
0
70
0
0
BLOCK_RECORD
5
19F
100
AcDbSymbolTableRecord
100
AcDbBlockTableRecord
2
_U4
340
0
70
0
0
BLOCK_RECORD
5
1AB
100
AcDbSymbolTableRecord
100
AcDbBlockTableRecord
2
*D11
340
0
70
0
0
BLOCK_RECORD
5
1B7
100
AcDbSymbolTableRecord
100
AcDbBlockTableRecord
2
_U5
340
0
70
0
0
ENDTAB
0
ENDSEC
0
SECTION
2
BLOCKS
0
BLOCK
5
20
100
AcDbEntity
8
0
100
AcDbBlockBegin
2
*Model_Space
70
0
10
0
20
0
30
0
3
*Model_Space
0
ENDBLK
5
21
100
AcDbEntity
8
0
100
AcDbBlockEnd
0
BLOCK
5
1C
100
AcDbEntity
8
0
100
AcDbBlockBegin
2
*Paper_Space
70
0
10
0
20
0
30
0
3
*Paper_Space
0
ENDBLK
5
1D
100
AcDbEntity
8
0
100
AcDbBlockEnd
0
BLOCK
5
24
100
AcDbEntity
8
0
100
AcDbBlockBegin
2
*Paper_Space0
70
0
10
0
20
0
30
0
3
*Paper_Space0
0
ENDBLK
5
25
100
AcDbEntity
8
0
100
AcDbBlockEnd
0
BLOCK
5
132
100
AcDbEntity
8
0
100
AcDbBlockBegin
2
*D1
70
1
10
0
20
0
30
0
3
*D1
0
LINE
5
134
100
AcDbEntity
8
0
62
256
6
ByLayer
370
-2
48
1
60
0
100
AcDbLine
10
0
20
-1.5875
30
0
11
0
21
-23.802503
31
0
39
0
210
0
220
0
230
1
0
LINE
5
135
100
AcDbEntity
8
0
62
256
6
ByLayer
370
-2
48
1
60
0
100
AcDbLine
10
89.3104
20
-10.5875
30
0
11
89.3104
21
-23.802503
31
0
39
0
210
0
220
0
230
1
0
LINE
5
136
100
AcDbEntity
8
0
62
256
6
ByLayer
370
-2
48
1
60
0
100
AcDbLine
10
3.5
20
-21.802503
30
0
11
85.8104
21
-21.802503
31
0
39
0
210
0
220
0
230
1
0
SOLID
5
137
100
AcDbEntity
8
0
62
256
6
ByLayer
370
-1
48
1
60
0
100
AcDbTrace
10
3.5
20
-21.21917
30
0
11
3.5
21
-22.385837
31
0
12
0
22
-21.802503
32
0
13
0
23
-21.802503
33
0
39
0
210
0
220
0
230
1
0
SOLID
5
138
100
AcDbEntity
8
0
62
256
6
ByLayer
370
-1
48
1
60
0
100
AcDbTrace
10
85.8104
20
-22.385837
30
0
11
85.8104
21
-21.21917
31
0
12
89.3104
22
-21.802503
32
0
13
89.3104
23
-21.802503
33
0
39
0
210
0
220
0
230
1
0
MTEXT
5
139
100
AcDbEntity
8
0
62
256
6
ByLayer
370
18
48
1
60
0
100
AcDbMText
10
44.6552
20
-14.802503
30
0
210
0
220
0
230
1
1
\A1;89.31
40
3.5
41
0
44
1
50
0
71
5
72
5
7
iso_b_vert
0
POINT
5
13A
100
AcDbEntity
8
Defpoints
62
0
6
ByLayer
370
-1
48
1
60
0
100
AcDbPoint
10
0
20
0
30
0
39
0
210
0
220
0
230
1
50
360
0
POINT
5
13B
100
AcDbEntity
8
Defpoints
62
0
6
ByLayer
370
-1
48
1
60
0
100
AcDbPoint
10
89.3104
20
-9
30
0
39
0
210
0
220
0
230
1
50
360
0
POINT
5
13C
100
AcDbEntity
8
Defpoints
62
0
6
ByLayer
370
-1
48
1
60
0
100
AcDbPoint
10
89.3104
20
-21.802503
30
0
39
0
210
0
220
0
230
1
50
360
0
ENDBLK
5
133
100
AcDbEntity
8
0
100
AcDbBlockEnd
0
BLOCK
5
144
100
AcDbEntity
8
0
100
AcDbBlockBegin
2
_U0
70
0
10
0
20
0
30
0
3
_U0
0
MTEXT
5
13E
100
AcDbEntity
8
SK2
62
256
6
ByLayer
370
13
48
1
60
0
100
AcDbMText
10
39.955335
20
-20.76987
30
0
210
0
220
0
230
1
1
\W0.7211;89,31
40
3.5
41
0
44
1.084337
50
0
71
7
72
5
7
iso_b_vert
0
LINE
5
13F
100
AcDbEntity
8
SK2
62
256
6
ByLayer
370
13
48
1
60
0
100
AcDbLine
10
0
20
-1.5875
30
0
11
0
21
-23.802503
31
0
39
0
210
0
220
0
230
1
0
LINE
5
140
100
AcDbEntity
8
SK2
62
256
6
ByLayer
370
13
48
1
60
0
100
AcDbLine
10
89.3104
20
-10.5875
30
0
11
89.3104
21
-23.802503
31
0
39
0
210
0
220
0
230
1
0
LINE
5
141
100
AcDbEntity
8
SK2
62
256
6
ByLayer
370
13
48
1
60
0
100
AcDbLine
10
0
20
-21.802503
30
0
11
89.3104
21
-21.802503
31
0
39
0
210
0
220
0
230
1
0
SOLID
5
142
100
AcDbEntity
8
SK2
62
256
6
ByLayer
370
18
48
1
60
0
100
AcDbTrace
10
0
20
-21.802503
30
0
11
3.499998
21
-21.341719
31
0
12
3.500002
22
-22.263287
32
0
13
3.500002
23
-22.263287
33
0
39
0
210
0
220
0
230
1
0
SOLID
5
143
100
AcDbEntity
8
SK2
62
256
6
ByLayer
370
18
48
1
60
0
100
AcDbTrace
10
89.3104
20
-21.802503
30
0
11
85.810402
21
-22.263287
31
0
12
85.810398
22
-21.341719
32
0
13
85.810398
23
-21.341719
33
0
39
0
210
0
220
0
230
1
0
ENDBLK
5
145
100
AcDbEntity
8
0
100
AcDbBlockEnd
0
BLOCK
5
14A
100
AcDbEntity
8
0
100
AcDbBlockBegin
2
*D3
70
1
10
0
20
0
30
0
3
*D3
0
LINE
5
14C
100
AcDbEntity
8
0
62
256
6
ByLayer
370
-2
48
1
60
0
100
AcDbLine
10
-50
20
-11.5875
30
0
11
-50
21
-43.192985
31
0
39
0
210
0
220
0
230
1
0
LINE
5
14D
100
AcDbEntity
8
0
62
256
6
ByLayer
370
-2
48
1
60
0
100
AcDbLine
10
92
20
-1.5875
30
0
11
92
21
-43.192985
31
0
39
0
210
0
220
0
230
1
0
LINE
5
14E
100
AcDbEntity
8
0
62
256
6
ByLayer
370
-2
48
1
60
0
100
AcDbLine
10
-46.5
20
-41.192985
30
0
11
88.5
21
-41.192985
31
0
39
0
210
0
220
0
230
1
0
SOLID
5
14F
100
AcDbEntity
8
0
62
256
6
ByLayer
370
-1
48
1
60
0
100
AcDbTrace
10
-46.5
20
-40.609652
30
0
11
-46.5
21
-41.776319
31
0
12
-50
22
-41.192985
32
0
13
-50
23
-41.192985
33
0
39
0
210
0
220
0
230
1
0
SOLID
5
150
100
AcDbEntity
8
0
62
256
6
ByLayer
370
-1
48
1
60
0
100
AcDbTrace
10
88.5
20
-41.776319
30
0
11
88.5
21
-40.609652
31
0
12
92
22
-41.192985
32
0
13
92
23
-41.192985
33
0
39
0
210
0
220
0
230
1
0
MTEXT
5
151
100
AcDbEntity
8
0
62
256
6
ByLayer
370
18
48
1
60
0
100
AcDbMText
10
21
20
-34.192985
30
0
210
0
220
0
230
1
1
\A1;142.00
40
3.5
41
0
44
1
50
0
71
5
72
5
7
iso_b_vert
0
POINT
5
152
100
AcDbEntity
8
Defpoints
62
0
6
ByLayer
370
-1
48
1
60
0
100
AcDbPoint
10
-50
20
-10
30
0
39
0
210
0
220
0
230
1
50
360
0
POINT
5
153
100
AcDbEntity
8
Defpoints
62
0
6
ByLayer
370
-1
48
1
60
0
100
AcDbPoint
10
92
20
0
30
0
39
0
210
0
220
0
230
1
50
360
0
POINT
5
154
100
AcDbEntity
8
Defpoints
62
0
6
ByLayer
370
-1
48
1
60
0
100
AcDbPoint
10
92
20
-41.192985
30
0
39
0
210
0
220
0
230
1
50
360
0
ENDBLK
5
14B
100
AcDbEntity
8
0
100
AcDbBlockEnd
0
BLOCK
5
15C
100
AcDbEntity
8
0
100
AcDbBlockBegin
2
_U1
70
0
10
0
20
0
30
0
3
_U1
0
MTEXT
5
156
100
AcDbEntity
8
SK2
62
256
6
ByLayer
370
13
48
1
60
0
100
AcDbMText
10
14.808135
20
-40.160352
30
0
210
0
220
0
230
1
1
\W0.7145;142,00
40
3.5
41
0
44
1.084337
50
0
71
7
72
5
7
iso_b_vert
0
LINE
5
157
100
AcDbEntity
8
SK2
62
256
6
ByLayer
370
13
48
1
60
0
100
AcDbLine
10
-50
20
-11.5875
30
0
11
-50
21
-43.192985
31
0
39
0
210
0
220
0
230
1
0
LINE
5
158
100
AcDbEntity
8
SK2
62
256
6
ByLayer
370
13
48
1
60
0
100
AcDbLine
10
92
20
-1.5875
30
0
11
92
21
-43.192985
31
0
39
0
210
0
220
0
230
1
0
LINE
5
159
100
AcDbEntity
8
SK2
62
256
6
ByLayer
370
13
48
1
60
0
100
AcDbLine
10
-50
20
-41.192985
30
0
11
92
21
-41.192985
31
0
39
0
210
0
220
0
230
1
0
SOLID
5
15A
100
AcDbEntity
8
SK2
62
256
6
ByLayer
370
18
48
1
60
0
100
AcDbTrace
10
-50
20
-41.192985
30
0
11
-46.500002
21
-40.732202
31
0
12
-46.499998
22
-41.653769
32
0
13
-46.499998
23
-41.653769
33
0
39
0
210
0
220
0
230
1
0
SOLID
5
15B
100
AcDbEntity
8
SK2
62
256
6
ByLayer
370
18
48
1
60
0
100
AcDbTrace
10
92
20
-41.192985
30
0
11
88.500002
21
-41.653769
31
0
12
88.499998
22
-40.732202
32
0
13
88.499998
23
-40.732202
33
0
39
0
210
0
220
0
230
1
0
ENDBLK
5
15D
100
AcDbEntity
8
0
100
AcDbBlockEnd
0
BLOCK
5
162
100
AcDbEntity
8
0
100
AcDbBlockBegin
2
*D5
70
1
10
0
20
0
30
0
3
*D5
0
LINE
5
164
100
AcDbEntity
8
0
62
256
6
ByLayer
370
-2
48
1
60
0
100
AcDbLine
10
34.31
20
11.5875
30
0
11
34.31
21
22.609119
31
0
39
0
210
0
220
0
230
1
0
LINE
5
165
100
AcDbEntity
8
0
62
256
6
ByLayer
370
-2
48
1
60
0
100
AcDbLine
10
92
20
1.5875
30
0
11
92
21
22.609119
31
0
39
0
210
0
220
0
230
1
0
LINE
5
166
100
AcDbEntity
8
0
62
256
6
ByLayer
370
-2
48
1
60
0
100
AcDbLine
10
37.81
20
20.609119
30
0
11
88.5
21
20.609119
31
0
39
0
210
0
220
0
230
1
0
SOLID
5
167
100
AcDbEntity
8
0
62
256
6
ByLayer
370
-1
48
1
60
0
100
AcDbTrace
10
37.81
20
21.192453
30
0
11
37.81
21
20.025786
31
0
12
34.31
22
20.609119
32
0
13
34.31
23
20.609119
33
0
39
0
210
0
220
0
230
1
0
SOLID
5
168
100
AcDbEntity
8
0
62
256
6
ByLayer
370
-1
48
1
60
0
100
AcDbTrace
10
88.5
20
20.025786
30
0
11
88.5
21
21.192453
31
0
12
92
22
20.609119
32
0
13
92
23
20.609119
33
0
39
0
210
0
220
0
230
1
0
MTEXT
5
169
100
AcDbEntity
8
0
62
256
6
ByLayer
370
18
48
1
60
0
100
AcDbMText
10
63.155
20
27.609119
30
0
210
0
220
0
230
1
1
\A1;57.69
40
3.5
41
0
44
1
50
0
71
5
72
5
7
iso_b_vert
0
POINT
5
16A
100
AcDbEntity
8
Defpoints
62
0
6
ByLayer
370
-1
48
1
60
0
100
AcDbPoint
10
34.31
20
10
30
0
39
0
210
0
220
0
230
1
50
360
0
POINT
5
16B
100
AcDbEntity
8
Defpoints
62
0
6
ByLayer
370
-1
48
1
60
0
100
AcDbPoint
10
92
20
0
30
0
39
0
210
0
220
0
230
1
50
360
0
POINT
5
16C
100
AcDbEntity
8
Defpoints
62
0
6
ByLayer
370
-1
48
1
60
0
100
AcDbPoint
10
92
20
20.609119
30
0
39
0
210
0
220
0
230
1
50
360
0
ENDBLK
5
163
100
AcDbEntity
8
0
100
AcDbBlockEnd
0
BLOCK
5
174
100
AcDbEntity
8
0
100
AcDbBlockBegin
2
_U2
70
0
10
0
20
0
30
0
3
_U2
0
MTEXT
5
16E
100
AcDbEntity
8
SK2
62
256
6
ByLayer
370
13
48
1
60
0
100
AcDbMText
10
58.017701
20
21.641753
30
0
210
0
220
0
230
1
1
\W0.7402;57,69
40
3.5
41
0
44
1.084337
50
0
71
7
72
5
7
iso_b_vert
0
LINE
5
16F
100
AcDbEntity
8
SK2
62
256
6
ByLayer
370
13
48
1
60
0
100
AcDbLine
10
34.31
20
11.5875
30
0
11
34.31
21
22.609119
31
0
39
0
210
0
220
0
230
1
0
LINE
5
170
100
AcDbEntity
8
SK2
62
256
6
ByLayer
370
13
48
1
60
0
100
AcDbLine
10
92
20
1.5875
30
0
11
92
21
22.609119
31
0
39
0
210
0
220
0
230
1
0
LINE
5
171
100
AcDbEntity
8
SK2
62
256
6
ByLayer
370
13
48
1
60
0
100
AcDbLine
10
34.31
20
20.609119
30
0
11
92
21
20.609119
31
0
39
0
210
0
220
0
230
1
0
SOLID
5
172
100
AcDbEntity
8
SK2
62
256
6
ByLayer
370
18
48
1
60
0
100
AcDbTrace
10
34.31
20
20.609119
30
0
11
37.809998
21
21.069903
31
0
12
37.810002
22
20.148335
32
0
13
37.810002
23
20.148335
33
0
39
0
210
0
220
0
230
1
0
SOLID
5
173
100
AcDbEntity
8
SK2
62
256
6
ByLayer
370
18
48
1
60
0
100
AcDbTrace
10
92
20
20.609119
30
0
11
88.500002
21
20.148335
31
0
12
88.499998
22
21.069903
32
0
13
88.499998
23
21.069903
33
0
39
0
210
0
220
0
230
1
0
ENDBLK
5
175
100
AcDbEntity
8
0
100
AcDbBlockEnd
0
BLOCK
5
17A
100
AcDbEntity
8
0
100
AcDbBlockBegin
2
*D7
70
1
10
0
20
0
30
0
3
*D7
0
LINE
5
17C
100
AcDbEntity
8
0
62
256
6
ByLayer
370
-2
48
1
60
0
100
AcDbLine
10
92
20
-1.5875
30
0
11
92
21
-23.802503
31
0
39
0
210
0
220
0
230
1
0
LINE
5
17D
100
AcDbEntity
8
0
62
256
6
ByLayer
370
-2
48
1
60
0
100
AcDbLine
10
89.3104
20
-10.5875
30
0
11
89.3104
21
-23.802503
31
0
39
0
210
0
220
0
230
1
0
LINE
5
17E
100
AcDbEntity
8
0
62
256
6
ByLayer
370
-2
48
1
60
0
100
AcDbLine
10
92
20
-21.802503
30
0
11
120
21
-21.802503
31
0
39
0
210
0
220
0
230
1
0
LINE
5
17F
100
AcDbEntity
8
0
62
256
6
ByLayer
370
-2
48
1
60
0
100
AcDbLine
10
95.5
20
-21.802503
30
0
11
99
21
-21.802503
31
0
39
0
210
0
220
0
230
1
0
LINE
5
180
100
AcDbEntity
8
0
62
256
6
ByLayer
370
-2
48
1
60
0
100
AcDbLine
10
85.8104
20
-21.802503
30
0
11
82.3104
21
-21.802503
31
0
39
0
210
0
220
0
230
1
0
SOLID
5
181
100
AcDbEntity
8
0
62
256
6
ByLayer
370
-1
48
1
60
0
100
AcDbTrace
10
95.5
20
-21.21917
30
0
11
95.5
21
-22.385837
31
0
12
92
22
-21.802503
32
0
13
92
23
-21.802503
33
0
39
0
210
0
220
0
230
1
0
SOLID
5
182
100
AcDbEntity
8
0
62
256
6
ByLayer
370
-1
48
1
60
0
100
AcDbTrace
10
85.8104
20
-22.385837
30
0
11
85.8104
21
-21.21917
31
0
12
89.3104
22
-21.802503
32
0
13
89.3104
23
-21.802503
33
0
39
0
210
0
220
0
230
1
0
MTEXT
5
183
100
AcDbEntity
8
0
62
256
6
ByLayer
370
18
48
1
60
0
100
AcDbMText
10
109.5
20
-14.802503
30
0
210
0
220
0
230
1
1
\A1;2.69
40
3.5
41
0
44
1
50
0
71
5
72
5
7
iso_b_vert
0
POINT
5
184
100
AcDbEntity
8
Defpoints
62
0
6
ByLayer
370
-1
48
1
60
0
100
AcDbPoint
10
92
20
0
30
0
39
0
210
0
220
0
230
1
50
360
0
POINT
5
185
100
AcDbEntity
8
Defpoints
62
0
6
ByLayer
370
-1
48
1
60
0
100
AcDbPoint
10
89.3104
20
-9
30
0
39
0
210
0
220
0
230
1
50
360
0
POINT
5
186
100
AcDbEntity
8
Defpoints
62
0
6
ByLayer
370
-1
48
1
60
0
100
AcDbPoint
10
89.3104
20
-21.802503
30
0
39
0
210
0
220
0
230
1
50
360
0
ENDBLK
5
17B
100
AcDbEntity
8
0
100
AcDbBlockEnd
0
BLOCK
5
18E
100
AcDbEntity
8
0
100
AcDbBlockBegin
2
_U3
70
0
10
0
20
0
30
0
3
_U3
0
MTEXT
5
188
100
AcDbEntity
8
SK2
62
256
6
ByLayer
370
13
48
1
60
0
100
AcDbMText
10
98.15186
20
-20.76987
30
0
210
0
220
0
230
1
1
\W0.7259;2,69
40
3.5
41
0
44
1.084337
50
0
71
7
72
5
7
iso_b_vert
0
LINE
5
189
100
AcDbEntity
8
SK2
62
256
6
ByLayer
370
13
48
1
60
0
100
AcDbLine
10
92
20
-1.5875
30
0
11
92
21
-23.802503
31
0
39
0
210
0
220
0
230
1
0
LINE
5
18A
100
AcDbEntity
8
SK2
62
256
6
ByLayer
370
13
48
1
60
0
100
AcDbLine
10
89.3104
20
-10.5875
30
0
11
89.3104
21
-23.802503
31
0
39
0
210
0
220
0
230
1
0
LINE
5
18B
100
AcDbEntity
8
SK2
62
256
6
ByLayer
370
13
48
1
60
0
100
AcDbLine
10
80.5604
20
-21.802503
30
0
11
105.996491
21
-21.802503
31
0
39
0
210
0
220
0
230
1
0
SOLID
5
18C
100
AcDbEntity
8
SK2
62
256
6
ByLayer
370
18
48
1
60
0
100
AcDbTrace
10
92
20
-21.802503
30
0
11
95.499998
21
-21.341719
31
0
12
95.500002
22
-22.263287
32
0
13
95.500002
23
-22.263287
33
0
39
0
210
0
220
0
230
1
0
SOLID
5
18D
100
AcDbEntity
8
SK2
62
256
6
ByLayer
370
18
48
1
60
0
100
AcDbTrace
10
89.3104
20
-21.802503
30
0
11
85.810402
21
-22.263287
31
0
12
85.810398
22
-21.341719
32
0
13
85.810398
23
-21.341719
33
0
39
0
210
0
220
0
230
1
0
ENDBLK
5
18F
100
AcDbEntity
8
0
100
AcDbBlockEnd
0
BLOCK
5
194
100
AcDbEntity
8
0
100
AcDbBlockBegin
2
*D9
70
1
10
0
20
0
30
0
3
*D9
0
LINE
5
196
100
AcDbEntity
8
0
62
256
6
ByLayer
370
-2
48
1
60
0
100
AcDbLine
10
89.3104
20
10.5875
30
0
11
89.3104
21
15.135371
31
0
39
0
210
0
220
0
230
1
0
LINE
5
197
100
AcDbEntity
8
0
62
256
6
ByLayer
370
-2
48
1
60
0
100
AcDbLine
10
35.3104
20
10.5875
30
0
11
35.3104
21
15.135371
31
0
39
0
210
0
220
0
230
1
0
LINE
5
198
100
AcDbEntity
8
0
62
256
6
ByLayer
370
-2
48
1
60
0
100
AcDbLine
10
85.8104
20
13.135371
30
0
11
38.8104
21
13.135371
31
0
39
0
210
0
220
0
230
1
0
SOLID
5
199
100
AcDbEntity
8
0
62
256
6
ByLayer
370
-1
48
1
60
0
100
AcDbTrace
10
85.8104
20
12.552038
30
0
11
85.8104
21
13.718705
31
0
12
89.3104
22
13.135371
32
0
13
89.3104
23
13.135371
33
0
39
0
210
0
220
0
230
1
0
SOLID
5
19A
100
AcDbEntity
8
0
62
256
6
ByLayer
370
-1
48
1
60
0
100
AcDbTrace
10
38.8104
20
13.718705
30
0
11
38.8104
21
12.552038
31
0
12
35.3104
22
13.135371
32
0
13
35.3104
23
13.135371
33
0
39
0
210
0
220
0
230
1
0
MTEXT
5
19B
100
AcDbEntity
8
0
62
256
6
ByLayer
370
18
48
1
60
0
100
AcDbMText
10
62.3104
20
20.135371
30
0
210
0
220
0
230
1
1
\A1;54.00
40
3.5
41
0
44
1
50
0
71
5
72
5
7
iso_b_vert
0
POINT
5
19C
100
AcDbEntity
8
Defpoints
62
0
6
ByLayer
370
-1
48
1
60
0
100
AcDbPoint
10
89.3104
20
9
30
0
39
0
210
0
220
0
230
1
50
360
0
POINT
5
19D
100
AcDbEntity
8
Defpoints
62
0
6
ByLayer
370
-1
48
1
60
0
100
AcDbPoint
10
35.3104
20
9
30
0
39
0
210
0
220
0
230
1
50
360
0
POINT
5
19E
100
AcDbEntity
8
Defpoints
62
0
6
ByLayer
370
-1
48
1
60
0
100
AcDbPoint
10
35.3104
20
13.135371
30
0
39
0
210
0
220
0
230
1
50
360
0
ENDBLK
5
195
100
AcDbEntity
8
0
100
AcDbBlockEnd
0
BLOCK
5
1A6
100
AcDbEntity
8
0
100
AcDbBlockBegin
2
_U4
70
0
10
0
20
0
30
0
3
_U4
0
MTEXT
5
1A0
100
AcDbEntity
8
SK2
62
256
6
ByLayer
370
13
48
1
60
0
100
AcDbMText
10
56.988835
20
14.168005
30
0
210
0
220
0
230
1
1
\W0.7581;54,00
40
3.5
41
0
44
1.084337
50
0
71
7
72
5
7
iso_b_vert
0
LINE
5
1A1
100
AcDbEntity
8
SK2
62
256
6
ByLayer
370
13
48
1
60
0
100
AcDbLine
10
89.3104
20
10.5875
30
0
11
89.3104
21
15.135371
31
0
39
0
210
0
220
0
230
1
0
LINE
5
1A2
100
AcDbEntity
8
SK2
62
256
6
ByLayer
370
13
48
1
60
0
100
AcDbLine
10
35.3104
20
10.5875
30
0
11
35.3104
21
15.135371
31
0
39
0
210
0
220
0
230
1
0
LINE
5
1A3
100
AcDbEntity
8
SK2
62
256
6
ByLayer
370
13
48
1
60
0
100
AcDbLine
10
89.3104
20
13.135371
30
0
11
35.3104
21
13.135371
31
0
39
0
210
0
220
0
230
1
0
SOLID
5
1A4
100
AcDbEntity
8
SK2
62
256
6
ByLayer
370
18
48
1
60
0
100
AcDbTrace
10
89.3104
20
13.135371
30
0
11
85.810402
21
12.674588
31
0
12
85.810398
22
13.596155
32
0
13
85.810398
23
13.596155
33
0
39
0
210
0
220
0
230
1
0
SOLID
5
1A5
100
AcDbEntity
8
SK2
62
256
6
ByLayer
370
18
48
1
60
0
100
AcDbTrace
10
35.3104
20
13.135371
30
0
11
38.810398
21
13.596155
31
0
12
38.810402
22
12.674588
32
0
13
38.810402
23
12.674588
33
0
39
0
210
0
220
0
230
1
0
ENDBLK
5
1A7
100
AcDbEntity
8
0
100
AcDbBlockEnd
0
BLOCK
5
1AC
100
AcDbEntity
8
0
100
AcDbBlockBegin
2
*D11
70
1
10
0
20
0
30
0
3
*D11
0
LINE
5
1AE
100
AcDbEntity
8
0
62
256
6
ByLayer
370
-2
48
1
60
0
100
AcDbLine
10
-50
20
-11.5875
30
0
11
-50
21
-32.690158
31
0
39
0
210
0
220
0
230
1
0
LINE
5
1AF
100
AcDbEntity
8
0
62
256
6
ByLayer
370
-2
48
1
60
0
100
AcDbLine
10
89.3104
20
-10.5875
30
0
11
89.3104
21
-32.690158
31
0
39
0
210
0
220
0
230
1
0
LINE
5
1B0
100
AcDbEntity
8
0
62
256
6
ByLayer
370
-2
48
1
60
0
100
AcDbLine
10
-46.5
20
-30.690158
30
0
11
85.8104
21
-30.690158
31
0
39
0
210
0
220
0
230
1
0
SOLID
5
1B1
100
AcDbEntity
8
0
62
256
6
ByLayer
370
-1
48
1
60
0
100
AcDbTrace
10
-46.5
20
-30.106825
30
0
11
-46.5
21
-31.273491
31
0
12
-50
22
-30.690158
32
0
13
-50
23
-30.690158
33
0
39
0
210
0
220
0
230
1
0
SOLID
5
1B2
100
AcDbEntity
8
0
62
256
6
ByLayer
370
-1
48
1
60
0
100
AcDbTrace
10
85.8104
20
-31.273491
30
0
11
85.8104
21
-30.106825
31
0
12
89.3104
22
-30.690158
32
0
13
89.3104
23
-30.690158
33
0
39
0
210
0
220
0
230
1
0
MTEXT
5
1B3
100
AcDbEntity
8
0
62
256
6
ByLayer
370
18
48
1
60
0
100
AcDbMText
10
19.6552
20
-23.690158
30
0
210
0
220
0
230
1
1
\A1;139.31
40
3.5
41
0
44
1
50
0
71
5
72
5
7
iso_b_vert
0
POINT
5
1B4
100
AcDbEntity
8
Defpoints
62
0
6
ByLayer
370
-1
48
1
60
0
100
AcDbPoint
10
-50
20
-10
30
0
39
0
210
0
220
0
230
1
50
360
0
POINT
5
1B5
100
AcDbEntity
8
Defpoints
62
0
6
ByLayer
370
-1
48
1
60
0
100
AcDbPoint
10
89.3104
20
-9
30
0
39
0
210
0
220
0
230
1
50
360
0
POINT
5
1B6
100
AcDbEntity
8
Defpoints
62
0
6
ByLayer
370
-1
48
1
60
0
100
AcDbPoint
10
89.3104
20
-30.690158
30
0
39
0
210
0
220
0
230
1
50
360
0
ENDBLK
5
1AD
100
AcDbEntity
8
0
100
AcDbBlockEnd
0
BLOCK
5
1BE
100
AcDbEntity
8
0
100
AcDbBlockBegin
2
_U5
70
0
10
0
20
0
30
0
3
_U5
0
MTEXT
5
1B8
100
AcDbEntity
8
SK2
62
256
6
ByLayer
370
13
48
1
60
0
100
AcDbMText
10
14.085035
20
-29.657524
30
0
210
0
220
0
230
1
1
\W0.6822;139,31
40
3.5
41
0
44
1.084337
50
0
71
7
72
5
7
iso_b_vert
0
LINE
5
1B9
100
AcDbEntity
8
SK2
62
256
6
ByLayer
370
13
48
1
60
0
100
AcDbLine
10
-50
20
-11.5875
30
0
11
-50
21
-32.690158
31
0
39
0
210
0
220
0
230
1
0
LINE
5
1BA
100
AcDbEntity
8
SK2
62
256
6
ByLayer
370
13
48
1
60
0
100
AcDbLine
10
89.3104
20
-10.5875
30
0
11
89.3104
21
-32.690158
31
0
39
0
210
0
220
0
230
1
0
LINE
5
1BB
100
AcDbEntity
8
SK2
62
256
6
ByLayer
370
13
48
1
60
0
100
AcDbLine
10
-50
20
-30.690158
30
0
11
89.3104
21
-30.690158
31
0
39
0
210
0
220
0
230
1
0
SOLID
5
1BC
100
AcDbEntity
8
SK2
62
256
6
ByLayer
370
18
48
1
60
0
100
AcDbTrace
10
-50
20
-30.690158
30
0
11
-46.500002
21
-30.229374
31
0
12
-46.499998
22
-31.150942
32
0
13
-46.499998
23
-31.150942
33
0
39
0
210
0
220
0
230
1
0
SOLID
5
1BD
100
AcDbEntity
8
SK2
62
256
6
ByLayer
370
18
48
1
60
0
100
AcDbTrace
10
89.3104
20
-30.690158
30
0
11
85.810402
21
-31.150942
31
0
12
85.810398
22
-30.229374
32
0
13
85.810398
23
-30.229374
33
0
39
0
210
0
220
0
230
1
0
ENDBLK
5
1BF
100
AcDbEntity
8
0
100
AcDbBlockEnd
0
ENDSEC
0
SECTION
2
ENTITIES
0
ARC
5
BF
100
AcDbEntity
8
SK2
62
256
6
ByLayer
370
13
48
1
60
0
100
AcDbCircle
39
0
10
44.3104
20
0
30
0
40
24.3001070524043
210
0
220
0
230
1
100
AcDbArc
50
182.533846
51
225
0
ARC
5
C0
100
AcDbEntity
8
SK2
62
256
6
ByLayer
370
13
48
1
60
0
100
AcDbCircle
39
0
10
44.3104
20
0
30
0
40
24.3001070524043
210
0
220
0
230
1
100
AcDbArc
50
135
51
167.098302
0
POINT
5
70
100
AcDbEntity
8
80
62
256
6
ByLayer
370
18
48
1
60
0
100
AcDbPoint
10
0
20
0
30
0
39
0
210
0
220
0
230
1
50
360
0
POINT
5
72
100
AcDbEntity
8
81
62
256
6
ByLayer
370
18
48
1
60
0
100
AcDbPoint
10
92
20
0
30
0
39
0
210
0
220
0
230
1
50
360
0
POINT
5
74
100
AcDbEntity
8
1
62
256
6
ByLayer
370
18
48
1
60
1
100
AcDbPoint
10
89.3104
20
-9
30
0
39
0
210
0
220
0
230
1
50
360
0
POINT
5
76
100
AcDbEntity
8
1
62
256
6
ByLayer
370
18
48
1
60
1
100
AcDbPoint
10
-50
20
-10
30
0
39
0
210
0
220
0
230
1
50
360
0
POINT
5
77
100
AcDbEntity
8
1
62
256
6
ByLayer
370
18
48
1
60
1
100
AcDbPoint
10
34.31
20
10
30
0
39
0
210
0
220
0
230
1
50
360
0
POINT
5
78
100
AcDbEntity
8
1
62
256
6
ByLayer
370
18
48
1
60
1
100
AcDbPoint
10
89.3104
20
-9
30
0
39
0
210
0
220
0
230
1
50
360
0
POINT
5
79
100
AcDbEntity
8
1
62
256
6
ByLayer
370
18
48
1
60
1
100
AcDbPoint
10
89.3104
20
9
30
0
39
0
210
0
220
0
230
1
50
360
0
POINT
5
7A
100
AcDbEntity
8
1
62
256
6
ByLayer
370
18
48
1
60
1
100
AcDbPoint
10
35.3104
20
9
30
0
39
0
210
0
220
0
230
1
50
360
0
POINT
5
7B
100
AcDbEntity
8
1
62
256
6
ByLayer
370
18
48
1
60
1
100
AcDbPoint
10
-50
20
-10
30
0
39
0
210
0
220
0
230
1
50
360
0
POINT
5
7C
100
AcDbEntity
8
1
62
256
6
ByLayer
370
18
48
1
60
1
100
AcDbPoint
10
89.3104
20
-9
30
0
39
0
210
0
220
0
230
1
50
360
0
SPLINE
5
C1
100
AcDbEntity
8
SK1
62
256
6
ByLayer
370
18
48
1
60
0
100
AcDbSpline
70
4
71
3
72
12
73
8
40
0
40
0
40
0
40
0
40
0.250000000000001
40
0.250000000000001
40
0.500000000000002
40
0.500000000000002
40
1
40
1
40
1
40
1
41
1
10
-47.6
20
9.01337923055272
30
0
41
1
10
-47.6
20
9.0162043975171
30
0
41
1
10
-47.6041467577045
20
9.01481669969593
30
0
41
1
10
-47.6170570469017
20
9.00669756145055
30
0
41
1
10
-47.625554553204
20
9.00020836086006
30
0
41
1
10
-47.6540551531448
20
8.97677481381152
30
0
41
1
10
-47.6767307684396
20
8.95619205334833
30
0
41
1
10
-47.7
20
8.93382049551036
30
0
0
SPLINE
5
C2
100
AcDbEntity
8
SK1
62
256
6
ByLayer
370
18
48
1
60
0
100
AcDbSpline
70
4
71
3
72
8
73
4
40
0
40
0
40
0
40
0
40
1
40
1
40
1
40
1
41
1
10
-50
20
5.75794286925677
30
0
41
1
10
-49.2358908573488
20
6.50100957488974
30
0
41
1
10
-48.4685631938372
20
7.2410753574643
30
0
41
1
10
-47.7
20
7.97998914146419
30
0
0
SPLINE
5
C3
100
AcDbEntity
8
SK1
62
256
6
ByLayer
370
18
48
1
60
0
100
AcDbSpline
70
4
71
4
72
10
73
5
40
0
40
0
40
0
40
0
40
0
40
1
40
1
40
1
40
1
40
1
41
1.00000413378299
10
-50.0000005243469
20
6.30695001719669
30
0
41
0.994611563062723
10
-50.0000004510637
20
6.24438606558348
30
0
41
0.99205522533244
10
-50.0000003595091
20
6.13898105808243
30
0
41
0.996235057173404
10
-50.0000002558255
20
5.99332687164073
30
0
41
1.00236479677838
10
-50.0000001517726
20
5.82845301719686
30
0
0
SPLINE
5
C4
100
AcDbEntity
8
SK1
62
256
6
ByLayer
370
18
48
1
60
0
100
AcDbSpline
70
4
71
3
72
8
73
4
40
0
40
0
40
0
40
0
40
1
40
1
40
1
40
1
41
1
10
-47.7
20
8.93382049551036
30
0
41
1
10
-48.4685740133311
20
8.19489630940794
30
0
41
1
10
-49.2359053627268
20
7.45482682301457
30
0
41
1
10
-50
20
6.71177422330291
30
0
0
SPLINE
5
C5
100
AcDbEntity
8
SK1
62
256
6
ByLayer
370
18
48
1
60
0
100
AcDbSpline
70
4
71
3
72
8
73
4
40
0
40
0
40
0
40
0
40
1
40
1
40
1
40
1
41
1
10
-49.5408148651848
20
6.20684844763787
30
0
41
1
10
-49.6915612726338
20
6.24683672799785
30
0
41
1
10
-49.8452024264244
20
6.27967381428593
30
0
41
1
10
-50.0000004771515
20
6.30695001049727
30
0
0
SPLINE
5
C6
100
AcDbEntity
8
SK1
62
256
6
ByLayer
370
18
48
1
60
0
100
AcDbSpline
70
4
71
3
72
12
73
8
40
0
40
0
40
0
40
0
40
0.500000000000008
40
0.500000000000008
40
0.750000000000004
40
0.750000000000004
40
1
40
1
40
1
40
1
41
1
10
-47.7
20
7.97998914146419
30
0
41
1
10
-47.676740996265
20
8.00235086604289
30
0
41
1
10
-47.6540472870876
20
8.02787485719745
30
0
41
1
10
-47.6255893048133
20
8.06672282459289
30
0
41
1
10
-47.6170511066435
20
8.07978197449134
30
0
41
1
10
-47.6041481930831
20
8.10426677195682
30
0
41
1
10
-47.6
20
8.11547455695231
30
0
41
1
10
-47.6
20
8.12313663344295
30
0
0
SPLINE
5
C7
100
AcDbEntity
8
1
62
256
6
ByLayer
370
18
48
1
60
0
100
AcDbSpline
70
4
71
3
72
8
73
4
40
0
40
0
40
0
40
0
40
1
40
1
40
1
40
1
41
1
10
89.1911449596732
20
-4.89223119132944
30
0
41
1
10
88.8726401003958
20
-5.49770180743155
30
0
41
1
10
88.5602790603991
20
-6.10874096374769
30
0
41
1
10
88.2541132098569
20
-6.72539522038389
30
0
0
SPLINE
5
C8
100
AcDbEntity
8
1
62
256
6
ByLayer
370
18
48
1
60
0
100
AcDbSpline
70
4
71
3
72
18
73
14
40
0
40
0
40
0
40
0
40
0.247540113906542
40
0.247540113906542
40
0.371310170859812
40
0.371310170859812
40
0.495080227813081
40
0.495080227813081
40
0.742620341719617
40
0.742620341719617
40
0.990160455626151
40
0.990160455626151
40
1
40
1
40
1
40
1
41
1
10
18.8498777051136
20
8.38601535536756
30
0
41
1
10
18.1007941715124
20
8.63044497086412
30
0
41
1
10
17.3609227369213
20
8.85541016725182
30
0
41
1
10
16.2565115496996
20
9.15229765722168
30
0
41
1
10
15.8892787457756
20
9.24455119213516
30
0
41
1
10
15.1554342012384
20
9.41435973383554
30
0
41
1
10
14.7885437951716
20
9.49195360552494
30
0
41
1
10
13.6929632691127
20
9.70029959821665
30
0
41
1
10
12.9675172505561
20
9.80701801342133
30
0
41
1
10
11.5216598116801
20
9.95375745386431
30
0
41
1
10
10.8012326991326
20
9.99395154560688
30
0
41
1
10
10.0546914068131
20
9.99958643560578
30
0
41
1
10
10.0261551162066
20
9.99974733231377
30
0
41
1
10
9.99762274635916
20
9.99985338021227
30
0
0
SPLINE
5
C9
100
AcDbEntity
8
1
62
256
6
ByLayer
370
18
48
1
60
0
100
AcDbSpline
70
4
71
3
72
14
73
10
40
0
40
0
40
0
40
0
40
0.25
40
0.25
40
0.5
40
0.5
40
0.75
40
0.75
40
1
40
1
40
1
40
1
41
1
10
88.9802294671042
20
-8.54114026573123
30
0
41
1
10
88.9836907351363
20
-8.54050934578655
30
0
41
1
10
88.9865144467857
20
-8.54156601789128
30
0
41
1
10
88.9904742787293
20
-8.54813449426734
30
0
41
1
10
88.9915563054853
20
-8.55372843060877
30
0
41
1
10
88.9907754969539
20
-8.57055135625723
30
0
41
1
10
88.9888312130837
20
-8.58182800473128
30
0
41
1
10
88.9819094690941
20
-8.60752525033712
30
0
41
1
10
88.9770185303396
20
-8.62165999095015
30
0
41
1
10
88.9716205953554
20
-8.63502373377827
30
0
0
SPLINE
5
CA
100
AcDbEntity
8
1
62
256
6
ByLayer
370
18
48
1
60
0
100
AcDbSpline
70
4
71
3
72
8
73
4
40
0
40
0
40
0
40
0
40
1
40
1
40
1
40
1
41
1
10
91.9999567859999
20
0.0642657421553849
30
0
41
1
10
92.0000144068173
20
0.0214203143213183
30
0
41
1
10
92.0000144018489
20
-0.0214240086542361
30
0
41
1
10
91.9999567859999
20
-0.0642657421555271
30
0
0
SPLINE
5
CB
100
AcDbEntity
8
1
62
256
6
ByLayer
370
18
48
1
60
0
100
AcDbSpline
70
4
71
3
72
10
73
6
40
0
40
0
40
0
40
0
40
0.5
40
0.5
40
1
40
1
40
1
40
1
41
1
10
91.9696696589315
20
0.232596383895043
30
0
41
1
10
91.9703599556732
20
0.209758336292936
30
0
41
1
10
91.9738634689498
20
0.182931430246725
30
0
41
1
10
91.9844183086302
20
0.12563379724287
30
0
41
1
10
91.9913939397875
20
0.0955957530940452
30
0
41
1
10
91.9999567859999
20
0.0642657421553849
30
0
0
SPLINE
5
CC
100
AcDbEntity
8
1
62
256
6
ByLayer
370
18
48
1
60
0
100
AcDbSpline
70
4
71
3
72
8
73
4
40
0
40
0
40
0
40
0
40
1
40
1
40
1
40
1
41
1
10
35.3563975376786
20
8.90104036667054
30
0
41
1
10
34.987115852096
20
9.26698383461382
30
0
41
1
10
34.61789643208
20
9.62980679695525
30
0
41
1
10
34.2485580817532
20
9.98975905304113
30
0
0
SPLINE
5
CD
100
AcDbEntity
8
1
62
256
6
ByLayer
370
18
48
1
60
0
100
AcDbSpline
70
4
71
3
72
24
73
20
40
0
40
0
40
0
40
0
40
0.125
40
0.125
40
0.25
40
0.25
40
0.374999999999999
40
0.374999999999999
40
0.499999999999999
40
0.499999999999999
40
0.5625
40
0.5625
40
0.625000000000001
40
0.625000000000001
40
0.750000000000001
40
0.750000000000001
40
0.875
40
0.875
40
1
40
1
40
1
40
1
41
1
10
32.5048915101069
20
1.64161147832149
30
0
41
1
10
31.938227899513
20
1.98120641904887
30
0
41
1
10
31.3734419142177
20
2.31843994794193
30
0
41
1
10
30.2428243473272
20
2.9803937529515
30
0
41
1
10
29.6774532329276
20
3.3059026928033
30
0
41
1
10
28.5468528699381
20
3.94637284074369
30
0
41
1
10
27.9816722474361
20
4.26136871100726
30
0
41
1
10
26.8471058019561
20
4.87398275941112
30
0
41
1
10
26.2782246803054
20
5.17240632806539
30
0
41
1
10
25.4226928103963
20
5.60830308910064
30
0
41
1
10
25.1372377142514
20
5.75176806235137
30
0
41
1
10
24.5645859778654
20
6.03328452595443
30
0
41
1
10
24.2780879210515
20
6.17115912805664
30
0
41
1
10
23.4197539819535
20
6.5753746493406
30
0
41
1
10
22.8483405549552
20
6.83266514778938
30
0
41
1
10
21.7075163669901
20
7.32332849369777
30
0
41
1
10
21.1373586799566
20
7.55576272872318
30
0
41
1
10
19.9948259012886
20
7.99194957797377
30
0
41
1
10
19.4226727226309
20
8.19600258696661
30
0
41
1
10
18.8498777051136
20
8.3860153553675
30
0
0
SPLINE
5
CE
100
AcDbEntity
8
1
62
256
6
ByLayer
370
18
48
1
60
0
100
AcDbSpline
70
4
71
3
72
16
73
12
40
0
40
0
40
0
40
0
40
0.290087548064658
40
0.290087548064658
40
0.362609435080821
40
0.362609435080821
40
0.435131322096984
40
0.435131322096984
40
0.580175096129316
40
0.580175096129316
40
1
40
1
40
1
40
1
41
1
10
88.9802294672227
20
-8.5411402657285
30
0
41
1
10
87.8546304282913
20
-8.56711499171303
30
0
41
1
10
86.7310634958579
20
-8.53266132635471
30
0
41
1
10
85.3232273992191
20
-8.41525934147072
30
0
41
1
10
85.0414302337814
20
-8.38805135423303
30
0
41
1
10
84.4793671695448
20
-8.32649754796526
30
0
41
1
10
84.1988556162773
20
-8.29213441388663
30
0
41
1
10
83.3586678477811
20
-8.17848682860358
30
0
41
1
10
82.8003164240915
20
-8.0885899140917
30
0
41
1
10
80.6301235493026
20
-7.68588542628416
30
0
41
1
10
79.0267414352433
20
-7.27319151317789
30
0
41
1
10
77.4184542292089
20
-6.7623388396099
30
0
0
SPLINE
5
CF
100
AcDbEntity
8
1
62
256
6
ByLayer
370
13
48
1
60
0
100
AcDbSpline
70
4
71
3
72
28
73
24
40
0
40
0
40
0
40
0
40
0.095481000522984
40
0.095481000522984
40
0.181847741392411
40
0.181847741392411
40
0.225031111827123
40
0.225031111827123
40
0.268214482261836
40
0.268214482261836
40
0.440947964000687
40
0.440947964000687
40
0.613681445739537
40
0.613681445739537
40
0.786414927478388
40
0.786414927478388
40
0.872781668347812
40
0.872781668347812
40
0.915965038782525
40
0.915965038782525
40
0.959148409217238
40
0.959148409217238
40
1
40
1
40
1
40
1
41
1
10
77.418454383709
20
-6.76233888868498
30
0
41
1
10
76.8041764266662
20
-6.56722104425305
30
0
41
1
10
76.1891829035152
20
-6.35778357247483
30
0
41
1
10
75.0150028867857
20
-5.93324510349865
30
0
41
1
10
74.4561185041097
20
-5.72056629752325
30
0
41
1
10
73.6149646067167
20
-5.38612495518623
30
0
41
1
10
73.3341119971473
20
-5.27207644622433
30
0
41
1
10
72.7713106284311
20
-5.03904364454831
30
0
41
1
10
72.4894010828256
20
-4.920068677275
30
0
41
1
10
71.0842513175505
20
-4.31667482903319
30
0
41
1
10
69.9683481138751
20
-3.80392844505889
30
0
41
1
10
67.7432054591784
20
-2.73674039715411
30
0
41
1
10
66.6337827978347
20
-2.18267745685245
30
0
41
1
10
64.4120603800333
20
-1.05114045700117
30
0
41
1
10
63.2999134349064
20
-0.473332496409711
30
0
41
1
10
61.6219777775219
20
0.396326484039548
30
0
41
1
10
61.0611809111629
20
0.686960055638849
30
0
41
1
10
60.2166732892778
20
1.12194260738246
30
0
41
1
10
59.9348016680698
20
1.26667038317788
30
0
41
1
10
59.3727058688488
20
1.55393170287314
30
0
41
1
10
59.0921344048142
20
1.6966609784528
30
0
41
1
10
58.5469935155918
20
1.97256241094269
30
0
41
1
10
58.2823524119834
20
2.10577148267166
30
0
41
1
10
58.0180139038654
20
2.23795475915804
30
0
0
SPLINE
5
D0
100
AcDbEntity
8
1
62
256
6
ByLayer
370
18
48
1
60
0
100
AcDbSpline
70
4
71
3
72
50
73
46
40
0
40
0
40
0
40
0
40
0.0837648339357131
40
0.0837648339357131
40
0.11077423734314
40
0.11077423734314
40
0.137783640750566
40
0.137783640750566
40
0.19180244756542
40
0.19180244756542
40
0.299840061195127
40
0.299840061195127
40
0.35385886800998
40
0.35385886800998
40
0.407877674824834
40
0.407877674824834
40
0.461896481639687
40
0.461896481639687
40
0.515915288454541
40
0.515915288454541
40
0.519291463880469
40
0.519291463880469
40
0.522667639306397
40
0.522667639306397
40
0.526043814732326
40
0.526043814732326
40
0.529419990158254
40
0.529419990158254
40
0.542924691861967
40
0.542924691861967
40
0.569934095269394
40
0.569934095269394
40
0.623952902084247
40
0.623952902084247
40
0.731990515713954
40
0.731990515713954
40
0.786009322528808
40
0.786009322528808
40
0.813018725936235
40
0.813018725936235
40
0.840028129343661
40
0.840028129343661
40
0.948065742973369
40
0.948065742973369
40
1
40
1
40
1
40
1
41
1
10
18.8498777051136
20
-6.27887230384474
30
0
41
1
10
18.8498777051136
20
-5.92738564607134
30
0
41
1
10
18.8498777051137
20
-5.59550899603755
30
0
41
1
10
18.8498777051136
20
-5.18177413913861
30
0
41
1
10
18.8498777051136
20
-5.08288537997481
30
0
41
1
10
18.8498777051136
20
-4.88909500523769
30
0
41
1
10
18.8498777051136
20
-4.79402461010321
30
0
41
1
10
18.8498777051136
20
-4.51712124863786
30
0
41
1
10
18.8498777051136
20
-4.34295301172196
30
0
41
1
10
18.8498777051136
20
-3.85008923242978
30
0
41
1
10
18.8498777051136
20
-3.56087478823613
30
0
41
1
10
18.8498777051136
20
-3.1829428951541
30
0
41
1
10
18.8498777051136
20
-3.06632339214434
30
0
41
1
10
18.8498777051136
20
-2.85174724170128
30
0
41
1
10
18.8498777051136
20
-2.7535812275938
30
0
41
1
10
18.8498777051136
20
-2.57737823683846
30
0
41
1
10
18.8498777051137
20
-2.4993107985056
30
0
41
1
10
18.8498777051137
20
-2.36290268263062
30
0
41
1
10
18.8498777051137
20
-2.30453426269526
30
0
41
1
10
18.8498777051137
20
-2.25312169950396
30
0
41
1
10
18.8498777051137
20
-2.25154688229057
30
0
41
1
10
18.8498777051137
20
-2.25358081201125
30
0
41
1
10
18.8498777051137
20
-2.2568944692359
30
0
41
1
10
18.8498777051137
20
-2.26775213130853
30
0
41
1
10
18.8498777051137
20
-2.27550137699851
30
0
41
1
10
18.8498777051137
20
-2.2947643418338
30
0
41
1
10
18.8498777051136
20
-2.30443678769515
30
0
41
1
10
18.8498777051136
20
-2.35298931457308
30
0
41
1
10
18.8498777051136
20
-2.39246209099929
30
0
41
1
10
18.8498777051136
20
-2.51267691939265
30
0
41
1
10
18.8498777051137
20
-2.59522878146677
30
0
41
1
10
18.8498777051137
20
-2.85017604059868
30
0
41
1
10
18.8498777051137
20
-3.02992843571863
30
0
41
1
10
18.8498777051137
20
-3.59880312856166
30
0
41
1
10
18.8498777051137
20
-4.01202221376951
30
0
41
1
10
18.8498777051137
20
-4.68444989893615
30
0
41
1
10
18.8498777051137
20
-4.91740118112742
30
0
41
1
10
18.8498777051137
20
-5.28068959687818
30
0
41
1
10
18.8498777051136
20
-5.4040994059323
30
0
41
1
10
18.8498777051136
20
-5.65570092151501
30
0
41
1
10
18.8498777051136
20
-5.78388091935821
30
0
41
1
10
18.8498777051136
20
-6.43139491108121
30
0
41
1
10
18.8498777051138
20
-6.97468368637524
30
0
41
1
10
18.8498777051138
20
-7.81881464074087
30
0
41
1
10
18.8498777051136
20
-8.09931225266615
30
0
41
1
10
18.8498777051136
20
-8.38601535533081
30
0
0
SPLINE
5
D1
100
AcDbEntity
8
1
62
256
6
ByLayer
370
18
48
1
60
0
100
AcDbSpline
70
4
71
3
72
14
73
10
40
0
40
0
40
0
40
0
40
0.25
40
0.25
40
0.5
40
0.5
40
0.75
40
0.75
40
1
40
1
40
1
40
1
41
1
10
89.2993973418399
20
-8.7477254238683
30
0
41
1
10
89.5016091715831
20
-8.17898781154534
30
0
41
1
10
89.7078511485248
20
-7.61065212191602
30
0
41
1
10
90.1273794820808
20
-6.47496460797669
30
0
41
1
10
90.3406591564165
20
-5.90760983419776
30
0
41
1
10
90.7736709401659
20
-4.77402299435059
30
0
41
1
10
90.9933421643907
20
-4.20780235411777
30
0
41
1
10
91.4370385126354
20
-3.07876737494885
30
0
41
1
10
91.6612540226085
20
-2.51558959821458
30
0
41
1
10
91.8876618670951
20
-1.95365270178402
30
0
0
SPLINE
5
D2
100
AcDbEntity
8
1
62
256
6
ByLayer
370
18
48
1
60
0
100
AcDbSpline
70
4
71
3
72
36
73
32
40
0
40
0
40
0
40
0
40
0.062499999999996
40
0.062499999999996
40
0.0937499999999943
40
0.0937499999999943
40
0.124999999999993
40
0.124999999999993
40
0.187499999999989
40
0.187499999999989
40
0.218749999999988
40
0.218749999999988
40
0.249999999999988
40
0.249999999999988
40
0.374999999999985
40
0.374999999999985
40
0.406249999999985
40
0.406249999999985
40
0.437499999999985
40
0.437499999999985
40
0.499999999999985
40
0.499999999999985
40
0.624999999999986
40
0.624999999999986
40
0.687499999999988
40
0.687499999999988
40
0.749999999999991
40
0.749999999999991
40
0.874999999999995
40
0.874999999999995
40
1
40
1
40
1
40
1
41
1
10
80.4598098739387
20
3.03058181960651
30
0
41
1
10
80.4466383674402
20
2.76146689369824
30
0
41
1
10
80.4532212845059
20
2.48779810329762
30
0
41
1
10
80.4927826870963
20
2.07045135186627
30
0
41
1
10
80.510967401516
20
1.92994826384566
30
0
41
1
10
80.5571997404775
20
1.64765993906741
30
0
41
1
10
80.5849637463675
20
1.50748293291653
30
0
41
1
10
80.6812678567469
20
1.08965956712817
30
0
41
1
10
80.7627671230968
20
0.814709845911779
30
0
41
1
10
80.9083239361365
20
0.407135347431563
30
0
41
1
10
80.9607411174135
20
0.272088356683298
30
0
41
1
10
81.0730762823983
20
0.0035551977338173
30
0
41
1
10
81.1330007104741
20
-0.12985999326321
30
0
41
1
10
81.4459749878996
20
-0.783819987480484
30
0
41
1
10
81.7418128286047
20
-1.27352080548616
30
0
41
1
10
82.1536191260096
20
-1.85471916759687
30
0
41
1
10
82.2381157945192
20
-1.9693867195042
30
0
41
1
10
82.411156266173
20
-2.19574226141731
30
0
41
1
10
82.4995633473295
20
-2.30723283004679
30
0
41
1
10
82.7681094866956
20
-2.63461981579306
30
0
41
1
10
82.9523015167604
20
-2.84444160005174
30
0
41
1
10
83.5181810291777
20
-3.45216222663615
30
0
41
1
10
83.912846490058
20
-3.82884828740171
30
0
41
1
10
84.5273658713581
20
-4.35706601517134
30
0
41
1
10
84.7359717343525
20
-4.52698287094935
30
0
41
1
10
85.1599677830895
20
-4.85572746287221
30
0
41
1
10
85.3751369518923
20
-5.01433054659839
30
0
41
1
10
86.0237987391205
20
-5.47046607450182
30
0
41
1
10
86.4624978282588
20
-5.75015986775659
30
0
41
1
10
87.3505158557629
20
-6.26814572652242
30
0
41
1
10
87.7998699204151
20
-6.50630085139312
30
0
41
1
10
88.2541132098569
20
-6.72539522038383
30
0
0
SPLINE
5
D3
100
AcDbEntity
8
1
62
256
6
ByLayer
370
18
48
1
60
0
100
AcDbSpline
70
4
71
3
72
12
73
8
40
0
40
0
40
0
40
0
40
0.499999999999985
40
0.499999999999985
40
0.749999999999993
40
0.749999999999993
40
1
40
1
40
1
40
1
41
1
10
89.1224238190355
20
2.03497120041038
30
0
41
1
10
89.5834904174482
20
2.01945723450129
30
0
41
1
10
90.0445712245162
20
2.00379934870907
30
0
41
1
10
90.7358552662563
20
1.98372771322568
30
0
41
1
10
90.9662060005978
20
1.97781993509275
30
0
41
1
10
91.4269432130427
20
1.9656423292264
30
0
41
1
10
91.6573114686345
20
1.95955707784213
30
0
41
1
10
91.8876618671025
20
1.95365270178382
30
0
0
SPLINE
5
D4
100
AcDbEntity
8
1
62
256
6
ByLayer
370
18
48
1
60
0
100
AcDbSpline
70
4
71
3
72
36
73
32
40
0
40
0
40
0
40
0
40
0.0021453853569392
40
0.0021453853569392
40
0.101930846821246
40
0.101930846821246
40
0.1518235775534
40
0.1518235775534
40
0.201716308285553
40
0.201716308285553
40
0.301501769749857
40
0.301501769749857
40
0.40128723121416
40
0.40128723121416
40
0.501072692678464
40
0.501072692678464
40
0.550965423410618
40
0.550965423410618
40
0.600858154142771
40
0.600858154142771
40
0.650750884874925
40
0.650750884874925
40
0.700643615607079
40
0.700643615607079
40
0.800429077071386
40
0.800429077071386
40
0.85032180780354
40
0.85032180780354
40
0.900214538535693
40
0.900214538535693
40
1
40
1
40
1
40
1
41
1
10
72.5304982671503
20
6.3804181211211
30
0
41
1
10
72.5425135139279
20
6.38503224134024
30
0
41
1
10
72.5545281299682
20
6.38964093758145
30
0
41
1
10
73.1253322430155
20
6.60835093831196
30
0
41
1
10
73.6828041675795
20
6.81073045012164
30
0
41
1
10
74.5158165830188
20
7.09809939759811
30
0
41
1
10
74.7932417127311
20
7.19081994850688
30
0
41
1
10
75.348505191589
20
7.36919239303498
30
0
41
1
10
75.6262176574057
20
7.45499834555008
30
0
41
1
10
76.4592253439786
20
7.70277056097279
30
0
41
1
10
77.0144525126905
20
7.85508011455337
30
0
41
1
10
78.1232016010669
20
8.13474134827348
30
0
41
1
10
78.6788913332529
20
8.26019257395987
30
0
41
1
10
79.79295889962
20
8.4826428690173
30
0
41
1
10
80.3510275830595
20
8.57988780180702
30
0
41
1
10
81.1890172574531
20
8.70442142660849
30
0
41
1
10
81.4690018834284
20
8.74209588999375
30
0
41
1
10
82.0304374434609
20
8.80973963786747
30
0
41
1
10
82.3121884030226
20
8.83976280265202
30
0
41
1
10
82.8747694621872
20
8.89201507455797
30
0
41
1
10
83.1556193652211
20
8.91425091454997
30
0
41
1
10
83.716300554168
20
8.95099333513099
30
0
41
1
10
83.9959496117106
20
8.96552600726807
30
0
41
1
10
84.8339620886454
20
8.99731342675582
30
0
41
1
10
85.3928041167185
20
9.00270280152205
30
0
41
1
10
86.2303326893847
20
8.98776738052712
30
0
41
1
10
86.5093919068968
20
8.97893721511491
30
0
41
1
10
87.0670940424978
20
8.95350192567255
30
0
41
1
10
87.3455030722099
20
8.93683712037046
30
0
41
1
10
88.1813308196177
20
8.87526249888106
30
0
41
1
10
88.7399996061583
20
8.81909127402992
30
0
41
1
10
89.2993973418404
20
8.74772542385193
30
0
0
SPLINE
5
D5
100
AcDbEntity
8
1
62
256
6
ByLayer
370
18
48
1
60
0
100
AcDbSpline
70
4
71
3
72
34
73
30
40
0
40
0
40
0
40
0
40
0.0040194608516635
40
0.0040194608516635
40
0.0751609279336874
40
0.0751609279336874
40
0.146302395015711
40
0.146302395015711
40
0.217443862097735
40
0.217443862097735
40
0.288585329179759
40
0.288585329179759
40
0.359726796261783
40
0.359726796261783
40
0.430868263343806
40
0.430868263343806
40
0.50200973042583
40
0.50200973042583
40
0.573151197507854
40
0.573151197507854
40
0.644292664589878
40
0.644292664589878
40
0.715434131671901
40
0.715434131671901
40
0.786575598753927
40
0.786575598753927
40
0.857717065835953
40
0.857717065835953
40
1
40
1
40
1
40
1
41
1
10
60.63012739714
20
8.5309667422984
30
0
41
1
10
60.6566849273709
20
8.53091711706116
30
0
41
1
10
60.683240622437
20
8.53083384396734
30
0
41
1
10
61.1797786133133
20
8.5286496571542
30
0
41
1
10
61.6494246646853
20
8.51659390610877
30
0
41
1
10
62.5896700672889
20
8.47219993670899
30
0
41
1
10
63.0599574374392
20
8.438927657726
30
0
41
1
10
64.0010232787031
20
8.35184009664113
30
0
41
1
10
64.4719339809942
20
8.29842532237669
30
0
41
1
10
65.4145688587373
20
8.17166585763084
30
0
41
1
10
65.8853117774482
20
8.09759796558296
30
0
41
1
10
66.8258549288826
20
7.92968602433177
30
0
41
1
10
67.2955417485941
20
7.836141443722
30
0
41
1
10
68.2348034056345
20
7.63016841613873
30
0
41
1
10
68.7048903342484
20
7.51747286223329
30
0
41
1
10
69.6457319728466
20
7.27474194388566
30
0
41
1
10
70.1164945757253
20
7.14554361259047
30
0
41
1
10
71.0587878148842
20
6.86778788571948
30
0
41
1
10
71.5293635198867
20
6.71922840474261
30
0
41
1
10
72.4699062268339
20
6.40638493401732
30
0
41
1
10
72.9398525259783
20
6.24201838296801
30
0
41
1
10
73.8792419045226
20
5.89854063373136
30
0
41
1
10
74.3485167613408
20
5.71913593294946
30
0
41
1
10
75.2886536779952
20
5.34949661796404
30
0
41
1
10
75.7592054724774
20
5.15893962163022
30
0
41
1
10
76.7012800847315
20
4.76217213596914
30
0
41
1
10
77.1722706250307
20
4.55642662416946
30
0
41
1
10
78.5823301689854
20
3.92524857428401
30
0
41
1
10
79.5214691601384
20
3.48640175956928
30
0
41
1
10
80.4598098739388
20
3.03058181960648
30
0
0
SPLINE
5
D6
100
AcDbEntity
8
1
62
256
6
ByLayer
370
18
48
1
60
0
100
AcDbSpline
70
4
71
3
72
8
73
4
40
0
40
0
40
0
40
0
40
1
40
1
40
1
40
1
41
1
10
35.6984033950068
20
-8.9600840110528
30
0
41
1
10
35.7021917942999
20
-8.9643703830325
30
0
41
1
10
35.7060120601021
20
-8.96651726020775
30
0
41
1
10
35.7098666821151
20
-8.96653141052852
30
0
0
SPLINE
5
D7
100
AcDbEntity
8
1
62
256
6
ByLayer
370
18
48
1
60
0
100
AcDbSpline
70
4
71
3
72
12
73
8
40
0
40
0
40
0
40
0
40
0.5
40
0.5
40
0.75
40
0.75
40
1
40
1
40
1
40
1
41
1
10
89.2993973418442
20
8.74772542385264
30
0
41
1
10
89.212722155729
20
8.81301129427078
30
0
41
1
10
89.1298988311357
20
8.86634669608759
30
0
41
1
10
89.0114308666873
20
8.92725601056409
30
0
41
1
10
88.9728808789152
20
8.94435925572117
30
0
41
1
10
88.898583774234
20
8.97167981767322
30
0
41
1
10
88.8627173737754
20
8.98196554078041
30
0
41
1
10
88.8280898127375
20
8.98889722609482
30
0
0
SPLINE
5
D8
100
AcDbEntity
8
1
62
256
6
ByLayer
370
18
48
1
60
0
100
AcDbSpline
70
4
71
3
72
8
73
4
40
0
40
0
40
0
40
0
40
1
40
1
40
1
40
1
41
1
10
91.8876618670951
20
-1.95365270178405
30
0
41
1
10
91.9250043476142
20
-1.37945463818593
30
0
41
1
10
91.9523450976088
20
-0.805768951998033
30
0
41
1
10
91.9696696589315
20
-0.232596383895014
30
0
0
SPLINE
5
D9
100
AcDbEntity
8
1
62
256
6
ByLayer
370
18
48
1
60
0
100
AcDbSpline
70
4
71
3
72
8
73
4
40
0
40
0
40
0
40
0
40
1
40
1
40
1
40
1
41
1
10
35.7493719600432
20
8.89678628421078
30
0
41
1
10
35.6183641724284
20
8.8990705115244
30
0
41
1
10
35.4873728476737
20
8.90048959397726
30
0
41
1
10
35.3563975376785
20
8.90104036667054
30
0
0
SPLINE
5
DA
100
AcDbEntity
8
1
62
256
6
ByLayer
370
18
48
1
60
0
100
AcDbSpline
70
4
71
3
72
15
73
11
40
0
40
0
40
0
40
0
40
0.0592768273995462
40
0.215054950895545
40
0.2929822203858
40
0.448989096535402
40
0.527128775871051
40
0.761840780608042
40
0.917772863471376
40
1
40
1
40
1
40
1
41
1
10
33.7113297294291
20
0.600566680099774
30
0
41
1
10
33.7428318708027
20
0.305280356906252
30
0
41
1
10
33.8568454535313
20
-0.767499841639108
30
0
41
1
10
34.0121003044088
20
-2.22123654306458
30
0
41
1
10
34.2185100613766
20
-4.04666236271532
30
0
41
1
10
34.3836855251735
20
-5.38209356288974
30
0
41
1
10
34.6313605605422
20
-7.09700447838773
30
0
41
1
10
34.8782232600392
20
-8.36007552667203
30
0
41
1
10
35.1284993949889
20
-8.91193459551644
30
0
41
1
10
35.2550770873474
20
-8.95223918534532
30
0
41
1
10
35.2989627802405
20
-8.93720026691847
30
0
0
SPLINE
5
DB
100
AcDbEntity
8
1
62
256
6
ByLayer
370
18
48
1
60
0
100
AcDbSpline
70
4
71
3
72
8
73
4
40
0
40
0
40
0
40
0
40
1
40
1
40
1
40
1
41
1
10
35.2997180083021
20
-8.92877646741084
30
0
41
1
10
35.4326507309323
20
-8.94008114663154
30
0
41
1
10
35.5655426253094
20
-8.95051866755605
30
0
41
1
10
35.6984033950067
20
-8.9600840110528
30
0
0
SPLINE
5
DC
100
AcDbEntity
8
1
62
256
6
ByLayer
370
18
48
1
60
0
100
AcDbSpline
70
4
71
3
72
28
73
24
40
0
40
0
40
0
40
0
40
0.0239324134367083
40
0.0239324134367083
40
0.0990145354800387
40
0.0990145354800387
40
0.2491787795667
40
0.2491787795667
40
0.324260901610029
40
0.324260901610029
40
0.399343023653358
40
0.399343023653358
40
0.549507267740017
40
0.549507267740017
40
0.624589389783347
40
0.624589389783347
40
0.699671511826678
40
0.699671511826678
40
0.774753633870009
40
0.774753633870009
40
0.849835755913339
40
0.849835755913339
40
1
40
1
40
1
40
1
41
1
10
21.4353890259192
20
7.42934793954041
30
0
41
1
10
21.5373876382937
20
7.47079432164438
30
0
41
1
10
21.6393130120911
20
7.51183071379091
30
0
41
1
10
22.0606733647194
20
7.67994221162868
30
0
41
1
10
22.3792635297573
20
7.80356640747314
30
0
41
1
10
23.3360644392839
20
8.15890319299115
30
0
41
1
10
23.974363668387
20
8.37629663915754
30
0
41
1
10
24.9308102669047
20
8.67494897447398
30
0
41
1
10
25.2492574313011
20
8.77006030078405
30
0
41
1
10
25.8863635687054
20
8.95047188302038
30
0
41
1
10
26.2055374036402
20
9.03538607727074
30
0
41
1
10
27.1646854029578
20
9.27458280267109
30
0
41
1
10
27.8061802326326
20
9.41350440768849
30
0
41
1
10
28.7697852986119
20
9.59120499067706
30
0
41
1
10
29.0913967575551
20
9.64517054459429
30
0
41
1
10
29.737308817499
20
9.74161795887284
30
0
41
1
10
30.0608442302055
20
9.78415464507347
30
0
41
1
10
30.7065359317317
20
9.85782883832451
30
0
41
1
10
31.0290382228413
20
9.88900655429651
30
0
41
1
10
31.6730985638545
20
9.94007885283895
30
0
41
1
10
31.9943059795938
20
9.96000625783989
30
0
41
1
10
32.9590544376205
20
10.0022948002719
30
0
41
1
10
33.6036633125298
20
10.007458349793
30
0
41
1
10
34.2485580817532
20
9.9897590530411
30
0
0
SPLINE
5
DD
100
AcDbEntity
8
1
62
256
6
ByLayer
370
18
48
1
60
0
100
AcDbSpline
70
4
71
3
72
14
73
10
40
0
40
0
40
0
40
0
40
0.25
40
0.25
40
0.5
40
0.5
40
0.75
40
0.75
40
1
40
1
40
1
40
1
41
1
10
89.2993973418385
20
8.7477254238724
30
0
41
1
10
89.5015946277376
20
8.1790287173223
30
0
41
1
10
89.7078176721071
20
7.61074454335545
30
0
41
1
10
90.1273007742715
20
6.47517587622212
30
0
41
1
10
90.3405541713743
20
5.90788843972027
30
0
41
1
10
90.7735069354541
20
4.77444858272963
30
0
41
1
10
90.9932058469856
20
4.20815145446812
30
0
41
1
10
91.4369750055412
20
3.07892675138638
30
0
41
1
10
91.6612294645375
20
2.51565055054729
30
0
41
1
10
91.8876618670962
20
1.95365270178124
30
0
0
SPLINE
5
DE
100
AcDbEntity
8
1
62
256
6
ByLayer
370
18
48
1
60
0
100
AcDbSpline
70
4
71
3
72
8
73
4
40
0
40
0
40
0
40
0
40
1
40
1
40
1
40
1
41
1
10
88.9716205953554
20
-8.63502373377827
30
0
41
1
10
88.9238833851506
20
-8.75320741001195
30
0
41
1
10
88.876036743605
20
-8.87116376173654
30
0
41
1
10
88.8280898127375
20
-8.98889722609482
30
0
0
SPLINE
5
DF
100
AcDbEntity
8
1
62
256
6
ByLayer
370
18
48
1
60
0
100
AcDbSpline
70
4
71
3
72
8
73
4
40
0
40
0
40
0
40
0
40
1
40
1
40
1
40
1
41
1
10
91.8876618670951
20
1.95365270178422
30
0
41
1
10
91.9250076839978
20
1.37940333615819
30
0
41
1
10
91.9523466459497
20
0.805717726085419
30
0
41
1
10
91.9696696589315
20
0.232596383895043
30
0
0
SPLINE
5
E0
100
AcDbEntity
8
1
62
256
6
ByLayer
370
18
48
1
60
0
100
AcDbSpline
70
4
71
3
72
8
73
4
40
0
40
0
40
0
40
0
40
1
40
1
40
1
40
1
41
1
10
36.5334130405481
20
-8.51686553111034
30
0
41
1
10
36.1222701516062
20
-8.51657174958808
30
0
41
1
10
35.7111198539042
20
-8.50830172184297
30
0
41
1
10
35.2997180083021
20
-8.4920462619144
30
0
0
SPLINE
5
E1
100
AcDbEntity
8
1
62
256
6
ByLayer
370
18
48
1
60
0
100
AcDbSpline
70
4
71
3
72
60
73
56
40
0
40
0
40
0
40
0
40
0.0145543195156521
40
0.0145543195156521
40
0.0524560764573578
40
0.0524560764573578
40
0.0903578333990636
40
0.0903578333990636
40
0.128259590340769
40
0.128259590340769
40
0.166161347282475
40
0.166161347282475
40
0.204063104224181
40
0.204063104224181
40
0.241964861165886
40
0.241964861165886
40
0.279866618107592
40
0.279866618107592
40
0.317768375049298
40
0.317768375049298
40
0.355670131991004
40
0.355670131991004
40
0.393571888932709
40
0.393571888932709
40
0.431473645874415
40
0.431473645874415
40
0.469375402816121
40
0.469375402816121
40
0.507277159757826
40
0.507277159757826
40
0.545178916699532
40
0.545178916699532
40
0.583080673641238
40
0.583080673641238
40
0.620982430582943
40
0.620982430582943
40
0.658884187524649
40
0.658884187524649
40
0.696785944466354
40
0.696785944466354
40
0.73468770140806
40
0.73468770140806
40
0.772589458349766
40
0.772589458349766
40
0.810491215291471
40
0.810491215291471
40
0.848392972233177
40
0.848392972233177
40
0.886294729174883
40
0.886294729174883
40
0.924196486116589
40
0.924196486116589
40
0.962098243058294
40
0.962098243058294
40
1
40
1
40
1
40
1
41
1
10
72.5371109621566
20
-6.38055653299011
30
0
41
1
10
72.3564612225881
20
-6.44296980553867
30
0
41
1
10
72.1757428064018
20
-6.50425020979802
30
0
41
1
10
71.5241399409583
20
-6.72091127835174
30
0
41
1
10
71.0526254668249
20
-6.86968350728279
30
0
41
1
10
70.1115615795541
20
-7.1469175789918
30
0
41
1
10
69.6412400553962
20
-7.27595067169119
30
0
41
1
10
68.7010024450642
20
-7.51842562293265
30
0
41
1
10
68.2310625666074
20
-7.63103688613131
30
0
41
1
10
67.2917531396209
20
-7.83692373781176
30
0
41
1
10
66.8218720158776
20
-7.9304572056619
30
0
41
1
10
65.8806322524979
20
-8.0983727037038
30
0
41
1
10
65.4088412435797
20
-8.17251471312127
30
0
41
1
10
64.4667701738092
20
-8.2990401605683
30
0
41
1
10
63.9968173359081
20
-8.35228288098858
30
0
41
1
10
63.0566201417945
20
-8.43918250388916
30
0
41
1
10
62.5866047133537
20
-8.47238881416223
30
0
41
1
10
61.6465548354553
20
-8.51668498048537
30
0
41
1
10
61.1768478927818
20
-8.52870850080748
30
0
41
1
10
60.2364360489564
20
-8.53275300085232
30
0
41
1
10
59.7652622501894
20
-8.5242447942363
30
0
41
1
10
58.8221184171555
20
-8.48493486875554
30
0
41
1
10
58.3512284651355
20
-8.45518594874341
30
0
41
1
10
57.4111795082661
20
-8.37558021727486
30
0
41
1
10
56.9412769292324
20
-8.32526077910975
30
0
41
1
10
56.00105422555
20
-8.20365429915495
30
0
41
1
10
55.5308837699477
20
-8.13392335065322
30
0
41
1
10
54.5903991110326
20
-7.97378916694473
30
0
41
1
10
54.1201474023974
20
-7.8829287873215
30
0
41
1
10
53.1771513042355
20
-7.68197488012001
30
0
41
1
10
52.705582441115
20
-7.57317489431844
30
0
41
1
10
51.764228752256
20
-7.33675665597519
30
0
41
1
10
51.2944423092202
20
-7.20855246606274
30
0
41
1
10
50.3545215498687
20
-6.93523279487385
30
0
41
1
10
49.884398494166
20
-6.79117298203346
30
0
41
1
10
48.9436065984548
20
-6.48592174968886
30
0
41
1
10
48.4729414707989
20
-6.32457094324235
30
0
41
1
10
47.5310502255837
20
-5.98538435897726
30
0
41
1
10
47.0592362851385
20
-5.80914844460281
30
0
41
1
10
46.1175069485234
20
-5.44330886100923
30
0
41
1
10
45.6470811798917
20
-5.25314358585814
30
0
41
1
10
44.7072290512891
20
-4.86062432255525
30
0
41
1
10
44.2378428839676
20
-4.65822831449259
30
0
41
1
10
43.2978004242718
20
-4.24337406449681
30
0
41
1
10
42.8273076410187
20
-4.03020031798192
30
0
41
1
10
41.8857118082323
20
-3.5943432824491
30
0
41
1
10
41.4143687864415
20
-3.37059530405261
30
0
41
1
10
40.4721703066259
20
-2.91676244641147
30
0
41
1
10
40.0015090351659
20
-2.68662770300645
30
0
41
1
10
39.0609573986843
20
-2.22100498707408
30
0
41
1
10
38.5912501635023
20
-1.98517629900178
30
0
41
1
10
37.6521857580953
20
-1.50811512079014
30
0
41
1
10
37.1822215570869
20
-1.26800766938646
30
0
41
1
10
36.2415823861427
20
-0.785466898307845
30
0
41
1
10
35.7708998981311
20
-0.542906483065337
30
0
41
1
10
35.299718008302
20
-0.298915740202546
30
0
0
SPLINE
5
E2
100
AcDbEntity
8
1
62
256
6
ByLayer
370
18
48
1
60
0
100
AcDbSpline
70
4
71
3
72
30
73
26
40
0
40
0
40
0
40
0
40
0.0624999999999976
40
0.0624999999999976
40
0.124999999999995
40
0.124999999999995
40
0.187499999999993
40
0.187499999999993
40
0.24999999999999
40
0.24999999999999
40
0.374999999999994
40
0.374999999999994
40
0.499999999999997
40
0.499999999999997
40
0.625
40
0.625
40
0.687499999999997
40
0.687499999999997
40
0.749999999999994
40
0.749999999999994
40
0.874999999999997
40
0.874999999999997
40
0.937499999999999
40
0.937499999999999
40
1
40
1
40
1
40
1
41
1
10
90.1857694048427
20
-3.05523551464171
30
0
41
1
10
90.1807745351203
20
-3.10574967590782
30
0
41
1
10
90.1730629202281
20
-3.16100478263567
30
0
41
1
10
90.1528148758017
20
-3.27540557348476
30
0
41
1
10
90.1402962884321
20
-3.33485983554968
30
0
41
1
10
90.1104564829232
20
-3.45833663795619
30
0
41
1
10
90.0929956376169
20
-3.52268712038514
30
0
41
1
10
90.0548400011713
20
-3.65033395054536
30
0
41
1
10
90.0339989992667
20
-3.71431226821275
30
0
41
1
10
89.9663875808603
20
-3.90672715212526
30
0
41
1
10
89.9163144384562
20
-4.03057483766486
30
0
41
1
10
89.8109990615698
20
-4.26262075266098
30
0
41
1
10
89.7572121932367
20
-4.36777821582859
30
0
41
1
10
89.6492537550154
20
-4.55625465074215
30
0
41
1
10
89.5958533219091
20
-4.63792074955967
30
0
41
1
10
89.5204330954472
20
-4.73774971025776
30
0
41
1
10
89.4959722637697
20
-4.7674250792175
30
0
41
1
10
89.4483645065558
20
-4.81972267949965
30
0
41
1
10
89.4251189053472
20
-4.84242652497596
30
0
41
1
10
89.3580608892271
20
-4.89895878030353
30
0
41
1
10
89.3178519650199
20
-4.92073595945783
30
0
41
1
10
89.2641806442705
20
-4.92913566436292
30
0
41
1
10
89.2473267238781
20
-4.92774916672843
30
0
41
1
10
89.2169193065505
20
-4.9163879619185
30
0
41
1
10
89.2032518107874
20
-4.90648309209658
30
0
41
1
10
89.1911449596731
20
-4.89223119132967
30
0
0
SPLINE
5
E3
100
AcDbEntity
8
1
62
256
6
ByLayer
370
18
48
1
60
0
100
AcDbSpline
70
4
71
3
72
84
73
80
40
0
40
0
40
0
40
0
40
0.0625
40
0.0625
40
0.0937500000000005
40
0.0937500000000005
40
0.125000000000001
40
0.125000000000001
40
0.187500000000001
40
0.187500000000001
40
0.250000000000001
40
0.250000000000001
40
0.312500000000001
40
0.312500000000001
40
0.343750000000001
40
0.343750000000001
40
0.375000000000001
40
0.375000000000001
40
0.40625
40
0.40625
40
0.4375
40
0.4375
40
0.453125
40
0.453125
40
0.46875
40
0.46875
40
0.484374999999999
40
0.484374999999999
40
0.492187499999999
40
0.492187499999999
40
0.499999999999999
40
0.499999999999999
40
0.515624999999998
40
0.515624999999998
40
0.523437499999998
40
0.523437499999998
40
0.531249999999998
40
0.531249999999998
40
0.546874999999997
40
0.546874999999997
40
0.554687499999997
40
0.554687499999997
40
0.562499999999997
40
0.562499999999997
40
0.578124999999996
40
0.578124999999996
40
0.585937499999996
40
0.585937499999996
40
0.593749999999996
40
0.593749999999996
40
0.609374999999995
40
0.609374999999995
40
0.624999999999994
40
0.624999999999994
40
0.640624999999993
40
0.640624999999993
40
0.648437499999993
40
0.648437499999993
40
0.650390624999993
40
0.650390624999993
40
0.652343749999993
40
0.652343749999993
40
0.654296874999993
40
0.654296874999993
40
0.656249999999993
40
0.656249999999993
40
0.687499999999994
40
0.687499999999994
40
0.749999999999995
40
0.749999999999995
40
0.781249999999995
40
0.781249999999995
40
0.812499999999996
40
0.812499999999996
40
0.874999999999997
40
0.874999999999997
40
0.937499999999999
40
0.937499999999999
40
1
40
1
40
1
40
1
41
1
10
18.8498777051136
20
-8.38601535536753
30
0
41
1
10
18.1007941715124
20
-8.63044497086412
30
0
41
1
10
17.3609227369213
20
-8.85541016725182
30
0
41
1
10
16.2565115496994
20
-9.15229765722171
30
0
41
1
10
15.8892787457754
20
-9.24455119213519
30
0
41
1
10
15.1554342012383
20
-9.41435973383557
30
0
41
1
10
14.7885437951714
20
-9.491953605525
30
0
41
1
10
13.6929632691125
20
-9.70029959821667
30
0
41
1
10
12.9675172505558
20
-9.80701801342136
30
0
41
1
10
11.5216598116798
20
-9.95375745386434
30
0
41
1
10
10.8012326991322
20
-9.99395154560688
30
0
41
1
10
9.36523019783593
20
-10.0047904854166
30
0
41
1
10
8.64960302951513
20
-9.97570161960894
30
0
41
1
10
7.58377633633296
20
-9.8725334753415
30
0
41
1
10
7.22926348674852
20
-9.8280097806028
30
0
41
1
10
6.53117123342705
20
-9.71737633875028
30
0
41
1
10
6.18685173586903
20
-9.65125207685506
30
0
41
1
10
5.51065125857087
20
-9.4940700321134
30
0
41
1
10
5.1787400846585
20
-9.4030620452958
30
0
41
1
10
4.53217171608458
20
-9.19032976758245
30
0
41
1
10
4.2174136332645
20
-9.06873943865764
30
0
41
1
10
3.76453411418328
20
-8.85525103002573
30
0
41
1
10
3.6168198657781
20
-8.77885644134574
30
0
41
1
10
3.32970420045441
20
-8.61322212320056
30
0
41
1
10
3.19195993042069
20
-8.52491882062591
30
0
41
1
10
2.93086294658747
20
-8.33546028240764
30
0
41
1
10
2.80745101111663
20
-8.23430947753815
30
0
41
1
10
2.63595030359687
20
-8.07073812150963
30
0
41
1
10
2.58106402783872
20
-8.01423143533938
30
0
41
1
10
2.47651959868546
20
-7.89674132133598
30
0
41
1
10
2.42670640361069
20
-7.83554215593756
30
0
41
1
10
2.28756951135955
20
-7.64593560340035
30
0
41
1
10
2.20881431414853
20
-7.51217338609507
30
0
41
1
10
2.11624371976001
20
-7.29850904924288
30
0
41
1
10
2.08965402842884
20
-7.2251122932766
30
0
41
1
10
2.04606530075597
20
-7.07351439392187
30
0
41
1
10
2.02910282348634
20
-6.99507807929754
30
0
41
1
10
1.99496926125738
20
-6.75774522137024
30
0
41
1
10
1.99393892693942
20
-6.59515722397754
30
0
41
1
10
2.02651038956105
20
-6.34487474736562
30
0
41
1
10
2.0430643363633
20
-6.26037980720784
30
0
41
1
10
2.08793436728203
20
-6.08927160375958
30
0
41
1
10
2.11604229121508
20
-6.0036154277505
30
0
41
1
10
2.21527836882143
20
-5.74952269221433
30
0
41
1
10
2.3015530672476
20
-5.58260472313745
30
0
41
1
10
2.45749171678597
20
-5.33592271293716
30
0
41
1
10
2.51382947543738
20
-5.25450594234141
30
0
41
1
10
2.63257805832782
20
-5.09566192825554
30
0
41
1
10
2.6952207857577
20
-5.01785687498818
30
0
41
1
10
2.89183750552485
20
-4.78881586874471
30
0
41
1
10
3.03443495895661
20
-4.64192160180752
30
0
41
1
10
3.33845310686104
20
-4.35796770723329
30
0
41
1
10
3.50032251973295
20
-4.2206810088442
30
0
41
1
10
3.8357531201425
20
-3.958112545695
30
0
41
1
10
4.00995983302192
20
-3.83224180026895
30
0
41
1
10
4.27837441787133
20
-3.65113415052394
30
0
41
1
10
4.36907721731308
20
-3.592021527111
30
0
41
1
10
4.48366666016744
20
-3.51972324269366
30
0
41
1
10
4.50607518541204
20
-3.50444127078725
30
0
41
1
10
4.55502210052794
20
-3.48041326648527
30
0
41
1
10
4.58179885087907
20
-3.47134365295466
30
0
41
1
10
4.63604786780616
20
-3.45828603300993
30
0
41
1
10
4.66347331451635
20
-3.45437159054637
30
0
41
1
10
4.71876524269649
20
-3.45037935098509
30
0
41
1
10
4.74660717828107
20
-3.45008779807478
30
0
41
1
10
5.21900831428547
20
-3.43720038887787
30
0
41
1
10
5.66412494745705
20
-3.435868791372
30
0
41
1
10
6.99743941835752
20
-3.46360666315579
30
0
41
1
10
7.88214043633138
20
-3.52433667806824
30
0
41
1
10
9.20318759636197
20
-3.67481095740882
30
0
41
1
10
9.6425324636015
20
-3.73488125410029
30
0
41
1
10
10.5192506850964
20
-3.87402724052174
30
0
41
1
10
10.9544024877454
20
-3.95272501319241
30
0
41
1
10
12.2498985089133
20
-4.21384390455975
30
0
41
1
10
13.1005569919212
20
-4.42148719243198
30
0
41
1
10
14.7786200318313
20
-4.88862507675915
30
0
41
1
10
15.6059802130487
20
-5.14819542415202
30
0
41
1
10
17.2412329932433
20
-5.70037400408387
30
0
41
1
10
18.0491202528137
20
-5.99295045985428
30
0
41
1
10
18.8498777051136
20
-6.29107028781434
30
0
0
SPLINE
5
E4
100
AcDbEntity
8
1
62
256
6
ByLayer
370
18
48
1
60
0
100
AcDbSpline
70
4
71
3
72
8
73
4
40
0
40
0
40
0
40
0
40
1
40
1
40
1
40
1
41
1
10
91.999956786
20
0.0642657421553565
30
0
41
1
10
91.9908597991215
20
0.0388404004504821
30
0
41
1
10
91.9793060616458
20
0.0140184452479843
30
0
41
1
10
91.9675064514269
20
-0.0052614423264856
30
0
0
SPLINE
5
E5
100
AcDbEntity
8
1
62
256
6
ByLayer
370
18
48
1
60
0
100
AcDbSpline
70
4
71
3
72
14
73
10
40
0
40
0
40
0
40
0
40
0.250000000000002
40
0.250000000000002
40
0.500000000000001
40
0.500000000000001
40
0.750000000000001
40
0.750000000000001
40
1
40
1
40
1
40
1
41
1
10
88.9539862759767
20
1.90236901135105
30
0
41
1
10
88.9515188055391
20
1.92256049634435
30
0
41
1
10
88.9539317764481
20
1.94337746865858
30
0
41
1
10
88.9710267196673
20
1.98040784737646
30
0
41
1
10
88.985876426079
20
1.99632606675496
30
0
41
1
10
89.0205865955647
20
2.01877369742633
30
0
41
1
10
89.0405651657368
20
2.02595818742273
30
0
41
1
10
89.080874458234
20
2.0343244886171
30
0
41
1
10
89.1017257073526
20
2.03566765033807
30
0
41
1
10
89.1224238190355
20
2.03497120041058
30
0
0
SPLINE
5
E6
100
AcDbEntity
8
1
62
256
6
ByLayer
370
18
48
1
60
0
100
AcDbSpline
70
4
71
3
72
42
73
38
40
0
40
0
40
0
40
0
40
0.062499999999998
40
0.062499999999998
40
0.124999999999996
40
0.124999999999996
40
0.249999999999997
40
0.249999999999997
40
0.374999999999998
40
0.374999999999998
40
0.437499999999996
40
0.437499999999996
40
0.499999999999994
40
0.499999999999994
40
0.624999999999995
40
0.624999999999995
40
0.687499999999998
40
0.687499999999998
40
0.750000000000001
40
0.750000000000001
40
0.812500000000004
40
0.812500000000004
40
0.875000000000007
40
0.875000000000007
40
0.906250000000011
40
0.906250000000011
40
0.910156250000011
40
0.910156250000011
40
0.91406250000001
40
0.91406250000001
40
0.917968750000009
40
0.917968750000009
40
0.921875000000009
40
0.921875000000009
40
0.937500000000007
40
0.937500000000007
40
1
40
1
40
1
40
1
41
1
10
80.4598098739387
20
3.03058181960651
30
0
41
1
10
80.6408593019855
20
2.87748984434702
30
0
41
1
10
80.824822302983
20
2.72902324543534
30
0
41
1
10
81.1990776563051
20
2.4421380650877
30
0
41
1
10
81.3895626114655
20
2.30350445534194
30
0
41
1
10
81.9630855937484
20
1.90769869108698
30
0
41
1
10
82.3504678898038
20
1.66858439989963
30
0
41
1
10
83.1353138155657
20
1.23993736035928
30
0
41
1
10
83.5327443986083
20
1.05024208345219
30
0
41
1
10
84.1372246985983
20
0.806689148739366
30
0
41
1
10
84.3401908190949
20
0.732747738193012
30
0
41
1
10
84.7491585646225
20
0.599793993283441
30
0
41
1
10
84.9559852133759
20
0.540627527806095
30
0
41
1
10
85.5737803693721
20
0.389415671376241
30
0
41
1
10
85.9823859120743
20
0.323045265660738
30
0
41
1
10
86.5896704966884
20
0.28293515689279
30
0
41
1
10
86.7911585691912
20
0.279502662027795
30
0
41
1
10
87.1919995630346
20
0.295207237456765
30
0
41
1
10
87.3918585223292
20
0.314707043354275
30
0
41
1
10
87.7824348579781
20
0.378913075485656
30
0
41
1
10
87.9739533679991
20
0.423253004576765
30
0
41
1
10
88.3487989772795
20
0.538523494130146
30
0
41
1
10
88.5321533780697
20
0.609566734974493
30
0
41
1
10
88.7974319171349
20
0.736955683958911
30
0
41
1
10
88.8842457194385
20
0.782880656066027
30
0
41
1
10
88.9798529092208
20
0.838476518700446
30
0
41
1
10
88.9899120272606
20
0.845550048690882
30
0
41
1
10
89.0079245855933
20
0.863043665328007
30
0
41
1
10
89.0158442484702
20
0.873588134441206
30
0
41
1
10
89.0281546138698
20
0.89738582809909
30
0
41
1
10
89.0327233801299
20
0.910942144427793
30
0
41
1
10
89.0371570617383
20
0.939705501016874
30
0
41
1
10
89.0370178965443
20
0.955170481741845
30
0
41
1
10
89.0330750102058
20
1.0324585744832
30
0
41
1
10
89.0294112856199
20
1.09437313461828
30
0
41
1
10
89.0086828360641
20
1.40429864393394
30
0
41
1
10
88.9844580673314
20
1.6530161889319
30
0
41
1
10
88.9539862759767
20
1.90236901135105
30
0
0
SPLINE
5
E7
100
AcDbEntity
8
1
62
256
6
ByLayer
370
18
48
1
60
0
100
AcDbSpline
70
4
71
3
72
46
73
42
40
0
40
0
40
0
40
0
40
0.0059799735372053
40
0.0059799735372053
40
0.0380451356811665
40
0.0380451356811665
40
0.102175459969089
40
0.102175459969089
40
0.166305784257011
40
0.166305784257011
40
0.198370946400972
40
0.198370946400972
40
0.230436108544934
40
0.230436108544934
40
0.358696757120778
40
0.358696757120778
40
0.39076191926474
40
0.39076191926474
40
0.422827081408701
40
0.422827081408701
40
0.486957405696623
40
0.486957405696623
40
0.551087729984545
40
0.551087729984545
40
0.583152892128507
40
0.583152892128507
40
0.615218054272468
40
0.615218054272468
40
0.743478702848312
40
0.743478702848312
40
0.775543864992273
40
0.775543864992273
40
0.807609027136234
40
0.807609027136234
40
0.871739351424156
40
0.871739351424156
40
0.935869675712078
40
0.935869675712078
40
0.967934837856039
40
0.967934837856039
40
1
40
1
40
1
40
1
41
1
10
34.2040747494595
20
-10.0000001363849
30
0
41
1
10
34.200666050519
20
-9.99999380565711
30
0
41
1
10
34.1972549039974
20
-9.99980574631581
30
0
41
1
10
34.1755360902284
20
-9.99744930613656
30
0
41
1
10
34.1571914654178
20
-9.99019139398857
30
0
41
1
10
34.1024832455044
20
-9.95301858002117
30
0
41
1
10
34.0662319873807
20
-9.90775059964454
30
0
41
1
10
33.993945772477
20
-9.77719763803503
30
0
41
1
10
33.9579249525792
20
-9.69191044653908
30
0
41
1
10
33.9036205928963
20
-9.53357467412087
30
0
41
1
10
33.8854698251924
20
-9.47571736982556
30
0
41
1
10
33.8489436182449
20
-9.3496390884186
30
0
41
1
10
33.8305562723756
20
-9.28138291491541
30
0
41
1
10
33.7391141288734
20
-8.91847065792126
30
0
41
1
10
33.6669210189725
20
-8.55667745071005
30
0
41
1
10
33.5764753375875
20
-8.01638548421872
30
0
41
1
10
33.5583615753261
20
-7.90387465877819
30
0
41
1
10
33.5219887311191
20
-7.66977684607193
30
0
41
1
10
33.5037027691019
20
-7.54798145811347
30
0
41
1
10
33.4491273750445
20
-7.17344409034195
30
0
41
1
10
33.4128562312325
20
-6.91025105346588
30
0
41
1
10
33.3403675193229
20
-6.35759707456359
30
0
41
1
10
33.3041128629948
20
-6.06813746251987
30
0
41
1
10
33.2495958219267
20
-5.61406528060925
30
0
41
1
10
33.2314035190462
20
-5.45938640168694
30
0
41
1
10
33.1949309735424
20
-5.14326318421996
30
0
41
1
10
33.1766049577377
20
-4.98139504745467
30
0
41
1
10
33.0856169023215
20
-4.16444941626023
30
0
41
1
10
33.0139063652201
20
-3.48143085713127
30
0
41
1
10
32.9230376027677
20
-2.5918222855266
30
0
41
1
10
32.9048120111722
20
-2.41208725477785
30
0
41
1
10
32.8682503297044
20
-2.0489255530351
30
0
41
1
10
32.8498580480876
20
-1.86492893002958
30
0
41
1
10
32.7950379830076
20
-1.31312168140576
30
0
41
1
10
32.7589016834152
20
-0.944758096799006
30
0
41
1
10
32.6868025639215
20
-0.207137296399253
30
0
41
1
10
32.6507978947816
20
0.162115872660451
30
0
41
1
10
32.5963991925829
20
0.716618749078776
30
0
41
1
10
32.5782047588731
20
0.901557508846679
30
0
41
1
10
32.5416529630035
20
1.27164381664804
30
0
41
1
10
32.5232429555533
20
1.45731831911667
30
0
41
1
10
32.5048915101086
20
1.64161147830427
30
0
0
SPLINE
5
E8
100
AcDbEntity
8
1
62
256
6
ByLayer
370
18
48
1
60
0
100
AcDbSpline
70
4
71
3
72
8
73
4
40
0
40
0
40
0
40
0
40
1
40
1
40
1
40
1
41
1
10
34.2485580817532
20
9.9897590530411
30
0
41
1
10
34.2337664683701
20
9.99659738042629
30
0
41
1
10
34.2189441677152
20
10.0000276675035
30
0
41
1
10
34.2040752962204
20
10.0000001373989
30
0
0
SPLINE
5
E9
100
AcDbEntity
8
1
62
256
6
ByLayer
370
18
48
1
60
0
100
AcDbSpline
70
4
71
3
72
10
73
6
40
0
40
0
40
0
40
0
40
0.337979637249032
40
0.337979637249032
40
1
40
1
40
1
40
1
41
1
10
21.4403484582476
20
-7.42880680736417
30
0
41
1
10
21.1490977864082
20
-7.54743298195979
30
0
41
1
10
20.8577395237037
20
-7.66251345048209
30
0
41
1
10
19.9948259012886
20
-7.99194957797374
30
0
41
1
10
19.4226727226308
20
-8.19600258696661
30
0
41
1
10
18.8498777051136
20
-8.38601535536748
30
0
0
SPLINE
5
EA
100
AcDbEntity
8
1
62
256
6
ByLayer
370
13
48
1
60
0
100
AcDbSpline
70
4
71
3
72
10
73
6
40
0
40
0
40
0
40
0
40
0.970873692683515
40
0.970873692683515
40
1
40
1
40
1
40
1
41
1
10
35.299718008281
20
-8.59906097653263
30
0
41
1
10
36.4158738688275
20
-8.63603094522816
30
0
41
1
10
37.5302176499041
20
-8.61350145519313
30
0
41
1
10
38.6812394123984
20
-8.5292968078524
30
0
41
1
10
38.7147671920422
20
-8.52679081493159
30
0
41
1
10
38.7482978829625
20
-8.52423142529415
30
0
0
SPLINE
5
EB
100
AcDbEntity
8
1
62
256
6
ByLayer
370
18
48
1
60
0
100
AcDbSpline
70
4
71
3
72
8
73
4
40
0
40
0
40
0
40
0
40
1
40
1
40
1
40
1
41
1
10
91.9675064514269
20
-0.0052614423265425
30
0
41
1
10
91.3553918769219
20
-1.00542161373528
30
0
41
1
10
90.7613746728569
20
-2.02198460079617
30
0
41
1
10
90.185769404844
20
-3.05523551463969
30
0
0
SPLINE
5
EC
100
AcDbEntity
8
1
62
256
6
ByLayer
370
18
48
1
60
0
100
AcDbSpline
70
4
71
3
72
36
73
32
40
0
40
0
40
0
40
0
40
0.125
40
0.125
40
0.1875
40
0.1875
40
0.25
40
0.25
40
0.375
40
0.375
40
0.40625
40
0.40625
40
0.4375
40
0.4375
40
0.5
40
0.5
40
0.625000000000001
40
0.625000000000001
40
0.656250000000001
40
0.656250000000001
40
0.687500000000001
40
0.687500000000001
40
0.750000000000001
40
0.750000000000001
40
0.812500000000001
40
0.812500000000001
40
0.843750000000001
40
0.843750000000001
40
0.875
40
0.875
40
1
40
1
40
1
40
1
41
1
10
35.2997180083021
20
-8.92877646741084
30
0
41
1
10
35.2997180083021
20
-8.89517086626293
30
0
41
1
10
35.2997180083021
20
-8.81043113635764
30
0
41
1
10
35.2997180083021
20
-8.6086952792584
30
0
41
1
10
35.2997180083021
20
-8.52880999434976
30
0
41
1
10
35.2997180083021
20
-8.34347231183213
30
0
41
1
10
35.2997180083021
20
-8.23915206693621
30
0
41
1
10
35.299718008302
20
-7.8926655040226
30
0
41
1
10
35.2997180083021
20
-7.61735980015138
30
0
41
1
10
35.2997180083021
20
-7.21750817826927
30
0
41
1
10
35.299718008302
20
-7.13472423462622
30
0
41
1
10
35.2997180083021
20
-6.96340588005717
30
0
41
1
10
35.2997180083021
20
-6.87505896906094
30
0
41
1
10
35.2997180083021
20
-6.60408551710646
30
0
41
1
10
35.2997180083021
20
-6.41474034533573
30
0
41
1
10
35.2997180083021
20
-5.82124778516771
30
0
41
1
10
35.2997180083021
20
-5.39190391813992
30
0
41
1
10
35.299718008302
20
-4.81229207085784
30
0
41
1
10
35.2997180083021
20
-4.69395985964889
30
0
41
1
10
35.2997180083021
20
-4.4552524206598
30
0
41
1
10
35.299718008302
20
-4.33465641743669
30
0
41
1
10
35.299718008302
20
-3.96919430930245
30
0
41
1
10
35.299718008302
20
-3.72065772457654
30
0
41
1
10
35.299718008302
20
-3.21386590515934
30
0
41
1
10
35.2997180083021
20
-2.95562657341824
30
0
41
1
10
35.299718008302
20
-2.56092195995623
30
0
41
1
10
35.2997180083021
20
-2.42812510718585
30
0
41
1
10
35.2997180083021
20
-2.16004732820096
30
0
41
1
10
35.2997180083021
20
-2.02445382280791
30
0
41
1
10
35.2997180083021
20
-1.34403210868075
30
0
41
1
10
35.2997180083021
20
-0.796814734807583
30
0
41
1
10
35.299718008302
20
-0.246807579066598
30
0
0
SPLINE
5
ED
100
AcDbEntity
8
1
62
256
6
ByLayer
370
18
48
1
60
0
100
AcDbSpline
70
4
71
3
72
10
73
6
40
0
40
0
40
0
40
0
40
0.5
40
0.5
40
1
40
1
40
1
40
1
41
1
10
91.9696696589316
20
-0.232596383894844
30
0
41
1
10
91.9703599556732
20
-0.209758336292794
30
0
41
1
10
91.97386346895
20
-0.182931430246583
30
0
41
1
10
91.9844183086304
20
-0.12563379724287
30
0
41
1
10
91.9913939397875
20
-0.0955957530941589
30
0
41
1
10
91.9999567859999
20
-0.0642657421555839
30
0
0
SPLINE
5
EE
100
AcDbEntity
8
1
62
256
6
ByLayer
370
18
48
1
60
0
100
AcDbSpline
70
4
71
3
72
18
73
14
40
0
40
0
40
0
40
0
40
0.250000000000001
40
0.250000000000001
40
0.375000000000002
40
0.375000000000002
40
0.500000000000002
40
0.500000000000002
40
0.750000000000002
40
0.750000000000002
40
0.875000000000001
40
0.875000000000001
40
1
40
1
40
1
40
1
41
1
10
88.2541132098569
20
-6.72539522038389
30
0
41
1
10
88.2528174365689
20
-7.04103661636762
30
0
41
1
10
88.2664355999062
20
-7.3175446315268
30
0
41
1
10
88.3099797397948
20
-7.67451975778661
30
0
41
1
10
88.3283778019168
20
-7.78382356240351
30
0
41
1
10
88.3734560984284
20
-7.98250219066333
30
0
41
1
10
88.3998087014861
20
-8.07039055908101
30
0
41
1
10
88.4901944152803
20
-8.30060670092513
30
0
41
1
10
88.5655126091641
20
-8.40997190648139
30
0
41
1
10
88.7030129402016
20
-8.50892939697633
30
0
41
1
10
88.7531644058183
20
-8.53100757097548
30
0
41
1
10
88.8609698143052
20
-8.55266220558576
30
0
41
1
10
88.9186440589114
20
-8.55236605407779
30
0
41
1
10
88.9802294671248
20
-8.54114026572748
30
0
0
SPLINE
5
EF
100
AcDbEntity
8
1
62
256
6
ByLayer
370
18
48
1
60
0
100
AcDbSpline
70
4
71
3
72
8
73
4
40
0
40
0
40
0
40
0
40
1
40
1
40
1
40
1
41
1
10
35.7098662559055
20
8.96653140895518
30
0
41
1
10
35.7226281159235
20
8.96657877828156
30
0
41
1
10
35.735766566154
20
8.94324853176681
30
0
41
1
10
35.7493719600432
20
8.89678628421078
30
0
0
SPLINE
5
F0
100
AcDbEntity
8
1
62
256
6
ByLayer
370
18
48
1
60
0
100
AcDbSpline
70
4
71
3
72
56
73
52
40
0
40
0
40
0
40
0
40
0.0316205525235223
40
0.0316205525235223
40
0.0632411050470447
40
0.0632411050470447
40
0.126482210094089
40
0.126482210094089
40
0.189723315141134
40
0.189723315141134
40
0.221343867664656
40
0.221343867664656
40
0.252964420188179
40
0.252964420188179
40
0.316205525235223
40
0.316205525235223
40
0.347826077758746
40
0.347826077758746
40
0.379446630282268
40
0.379446630282268
40
0.411067182805791
40
0.411067182805791
40
0.426877459067552
40
0.426877459067552
40
0.442687735329314
40
0.442687735329314
40
0.505928840376358
40
0.505928840376358
40
0.569169945423403
40
0.569169945423403
40
0.600790497946926
40
0.600790497946926
40
0.632411050470448
40
0.632411050470448
40
0.695652155517494
40
0.695652155517494
40
0.727272708041017
40
0.727272708041017
40
0.75889326056454
40
0.75889326056454
40
0.822134365611585
40
0.822134365611585
40
0.853754918135108
40
0.853754918135108
40
0.885375470658631
40
0.885375470658631
40
0.916996023182154
40
0.916996023182154
40
0.948616575705677
40
0.948616575705677
40
1
40
1
40
1
40
1
41
1
10
88.8280898127375
20
-8.98889722609482
30
0
41
1
10
88.2737292850212
20
-9.00341739978123
30
0
41
1
10
87.7190860375763
20
-9.00259286612081
30
0
41
1
10
86.6097493571982
20
-8.97030635382578
30
0
41
1
10
86.0559758555797
20
-8.93888493170164
30
0
41
1
10
84.3954823305392
20
-8.79946734723447
30
0
41
1
10
83.289531584475
20
-8.64621326236605
30
0
41
1
10
81.0700602652307
20
-8.22326848898979
30
0
41
1
10
79.9642495421733
20
-7.95504088760183
30
0
41
1
10
78.3036108748207
20
-7.47450755282753
30
0
41
1
10
77.7497632110725
20
-7.30128275862324
30
0
41
1
10
76.6401567147804
20
-6.92992631516074
30
0
41
1
10
76.0858736247257
20
-6.73236803882051
30
0
41
1
10
74.424934639663
20
-6.10706742217965
30
0
41
1
10
73.3191494784251
20
-5.64656476499252
30
0
41
1
10
71.6548610371785
20
-4.9010781790675
30
0
41
1
10
71.1001643676811
20
-4.64384114955433
30
0
41
1
10
69.9926342525995
20
-4.11522327695764
30
0
41
1
10
69.4393585968576
20
-3.84362364434779
30
0
41
1
10
68.3323189318336
20
-3.28827724251923
30
0
41
1
10
67.7785372861546
20
-3.00456387716042
30
0
41
1
10
66.9465766299394
20
-2.57143692601113
30
0
41
1
10
66.6688980994664
20
-2.42571520382259
30
0
41
1
10
66.114880937865
20
-2.13304714760261
30
0
41
1
10
65.8383248219013
20
-1.98598991769305
30
0
41
1
10
64.4573800440915
20
-1.24788290584826
30
0
41
1
10
63.3587016539909
20
-0.647991792653869
30
0
41
1
10
61.1626746638522
20
0.550433900409814
30
0
41
1
10
60.0656412355312
20
1.14955676210627
30
0
41
1
10
58.4138130119419
20
2.03368530522477
30
0
41
1
10
57.8622202787906
20
2.32608567200907
30
0
41
1
10
56.7556194510693
20
2.90357517380525
30
0
41
1
10
56.1998480573577
20
3.18905531805456
30
0
41
1
10
54.5373246678899
20
4.02537389092603
30
0
41
1
10
53.4321006323037
20
4.55756906276832
30
0
41
1
10
51.7712888392455
20
5.30558986236616
30
0
41
1
10
51.2170260932025
20
5.54659288051565
30
0
41
1
10
50.1068033254272
20
6.00951107852447
30
0
41
1
10
49.5527941211056
20
6.23065318993409
30
0
41
1
10
47.8920361548488
20
6.86065832983826
30
0
41
1
10
46.7865659951783
20
7.23611612805968
30
0
41
1
10
45.123333667209
20
7.72353413307974
30
0
41
1
10
44.5677762362925
20
7.87339365398421
30
0
41
1
10
43.4590040686413
20
8.14515666052355
30
0
41
1
10
42.9051120568391
20
8.26723371755847
30
0
41
1
10
41.7971488334334
20
8.48298098992484
30
0
41
1
10
41.2430652699961
20
8.57663673370354
30
0
41
1
10
40.1333050452971
20
8.73459602469845
30
0
41
1
10
39.5780621368335
20
8.79882828111209
30
0
41
1
10
38.1232022472543
20
8.92758257845762
30
0
41
1
10
37.2237028973706
20
8.96740108532418
30
0
41
1
10
36.3225634782973
20
8.96688808889388
30
0
0
SPLINE
5
F1
100
AcDbEntity
8
1
62
256
6
ByLayer
370
18
48
1
60
0
100
AcDbSpline
70
4
71
3
72
20
73
16
40
0
40
0
40
0
40
0
40
0.216205262056371
40
0.216205262056371
40
0.434319014785263
40
0.434319014785263
40
0.652432767514155
40
0.652432767514155
40
0.706961205696377
40
0.706961205696377
40
0.761489643878598
40
0.761489643878598
40
0.870546520243039
40
0.870546520243039
40
1
40
1
40
1
40
1
41
1
10
62.2070642288742
20
-0.0187590317901538
30
0
41
1
10
63.315442438053
20
-0.599993312034371
30
0
41
1
10
64.4174571059268
20
-1.17839008782337
30
0
41
1
10
66.6287481293577
20
-2.31484405597698
30
0
41
1
10
67.7378521830505
20
-2.87301224554898
30
0
41
1
10
69.9625840122638
20
-3.94665901243576
30
0
41
1
10
71.078389280873
20
-4.46176317756078
30
0
41
1
10
72.4837126447172
20
-5.06690599726676
30
0
41
1
10
72.7656740245312
20
-5.18617586505891
30
0
41
1
10
73.328349301315
20
-5.41957690932534
30
0
41
1
10
73.6091322379821
20
-5.53374484663919
30
0
41
1
10
74.4500595241092
20
-5.86835403597095
30
0
41
1
10
75.0087659743436
20
-6.08089310129202
30
0
41
1
10
76.2279857863201
20
-6.52100901332912
30
0
41
1
10
76.8879667055711
20
-6.74400364909121
30
0
41
1
10
77.5472004181761
20
-6.95007905675413
30
0
0
SPLINE
5
F2
100
AcDbEntity
8
1
62
256
6
ByLayer
370
13
48
1
60
0
100
AcDbSpline
70
4
71
3
72
16
73
12
40
0
40
0
40
0
40
0
40
0.412884782638645
40
0.412884782638645
40
0.559663586978984
40
0.559663586978984
40
0.633052989149153
40
0.633052989149153
40
0.706442391319322
40
0.706442391319322
40
1
40
1
40
1
40
1
41
1
10
77.5472004183899
20
-6.95007905682098
30
0
41
1
10
79.1094278707837
20
-7.43842886805325
30
0
41
1
10
80.6674591786405
20
-7.83176409805867
30
0
41
1
10
82.7919599883361
20
-8.21742476704111
30
0
41
1
10
83.3502706872164
20
-8.30484735194645
30
0
41
1
10
84.190465780161
20
-8.41446120803113
30
0
41
1
10
84.470994324252
20
-8.44742312623944
30
0
41
1
10
85.0331202294955
20
-8.50606225413193
30
0
41
1
10
85.3149547728389
20
-8.53175568234269
30
0
41
1
10
86.7226787891832
20
-8.64131802990264
30
0
41
1
10
87.8461194747107
20
-8.66873791316641
30
0
41
1
10
88.9716205953555
20
-8.63502373377824
30
0
0
SPLINE
5
F3
100
AcDbEntity
8
1
62
256
6
ByLayer
370
18
48
1
60
0
100
AcDbSpline
70
4
71
3
72
8
73
4
40
0
40
0
40
0
40
0
40
1
40
1
40
1
40
1
41
1
10
33.7113297294291
20
0.600566680099746
30
0
41
1
10
33.2999401074221
20
0.907855339508586
30
0
41
1
10
32.8979593526758
20
1.25692209004106
30
0
41
1
10
32.5048915101257
20
1.64161147830308
30
0
0
SPLINE
5
F4
100
AcDbEntity
8
1
62
256
6
ByLayer
370
18
48
1
60
0
100
AcDbSpline
70
4
71
3
72
30
73
26
40
0
40
0
40
0
40
0
40
0.131354149428633
40
0.131354149428633
40
0.197031224142951
40
0.197031224142951
40
0.262708298857269
40
0.262708298857269
40
0.394062448285902
40
0.394062448285902
40
0.459739523000219
40
0.459739523000219
40
0.525416597714536
40
0.525416597714536
40
0.656770747143169
40
0.656770747143169
40
0.722447821857487
40
0.722447821857487
40
0.788124896571805
40
0.788124896571805
40
0.853801971286122
40
0.853801971286122
40
0.91947904600044
40
0.91947904600044
40
1
40
1
40
1
40
1
41
1
10
18.8498777051136
20
-6.29107028781434
30
0
41
1
10
19.49479745908
20
-6.59855491012826
30
0
41
1
10
20.1386984948774
20
-6.88665759634068
30
0
41
1
10
21.1013407509546
20
-7.29354367540771
30
0
41
1
10
21.4216433623692
20
-7.42498635214108
30
0
41
1
10
22.0606733647193
20
-7.67994221162871
30
0
41
1
10
22.3792635297572
20
-7.80356640747317
30
0
41
1
10
23.3360644392839
20
-8.15890319299115
30
0
41
1
10
23.974363668387
20
-8.37629663915757
30
0
41
1
10
24.9308102669048
20
-8.67494897447398
30
0
41
1
10
25.2492574313011
20
-8.77006030078405
30
0
41
1
10
25.8863635687054
20
-8.95047188302041
30
0
41
1
10
26.2055374036402
20
-9.03538607727077
30
0
41
1
10
27.1646854029578
20
-9.27458280267112
30
0
41
1
10
27.8061802326326
20
-9.41350440768852
30
0
41
1
10
28.7697852986118
20
-9.59120499067706
30
0
41
1
10
29.0913967575551
20
-9.64517054459429
30
0
41
1
10
29.737308817499
20
-9.74161795887284
30
0
41
1
10
30.0608442302055
20
-9.7841546450735
30
0
41
1
10
30.7065359317317
20
-9.85782883832454
30
0
41
1
10
31.0290382228413
20
-9.88900655429649
30
0
41
1
10
31.6730985638545
20
-9.94007885283895
30
0
41
1
10
31.9943059795938
20
-9.96000625783989
30
0
41
1
10
32.7101535483321
20
-9.99138454099085
30
0
41
1
10
33.1049606327512
20
-10.0000129447013
30
0
41
1
10
33.500043454108
20
-10.0000258806379
30
0
0
SPLINE
5
F5
100
AcDbEntity
8
1
62
256
6
ByLayer
370
18
48
1
60
0
100
AcDbSpline
70
4
71
3
72
8
73
4
40
0
40
0
40
0
40
0
40
1
40
1
40
1
40
1
41
1
10
35.3261054284268
20
-8.93105178312965
30
0
41
1
10
34.966924336504
20
-9.28682331321892
30
0
41
1
10
34.6077974705554
20
-9.63964911087064
30
0
41
1
10
34.2485580817532
20
-9.98975905304115
30
0
0
SPLINE
5
F6
100
AcDbEntity
8
1
62
256
6
ByLayer
370
18
48
1
60
0
100
AcDbSpline
70
4
71
3
72
8
73
4
40
0
40
0
40
0
40
0
40
1
40
1
40
1
40
1
41
1
10
88.8280898127375
20
8.98889722609482
30
0
41
1
10
88.5587007112656
20
8.99595324171466
30
0
41
1
10
88.2892448474523
20
8.99938570903598
30
0
41
1
10
88.0197517847068
20
8.99919760989332
30
0
0
SPLINE
5
F7
100
AcDbEntity
8
1
62
256
6
ByLayer
370
18
48
1
60
0
100
AcDbSpline
70
4
71
3
72
12
73
8
40
0
40
0
40
0
40
0
40
0.130057386649508
40
0.130057386649508
40
0.420038257766338
40
0.420038257766338
40
1
40
1
40
1
40
1
41
1
10
41.4343638696486
20
-8.54053329357183
30
0
41
1
10
41.185756085154
20
-8.58181893696977
30
0
41
1
10
40.9370507363934
20
-8.62019374510675
30
0
41
1
10
40.1333050452972
20
-8.73459602469845
30
0
41
1
10
39.5780621368335
20
-8.79882828111207
30
0
41
1
10
37.9153656498774
20
-8.9459760026283
30
0
41
1
10
36.8086105815191
20
-8.98365468314532
30
0
41
1
10
35.6984033950067
20
-8.9600840110528
30
0
0
SPLINE
5
F8
100
AcDbEntity
8
1
62
256
6
ByLayer
370
18
48
1
60
0
100
AcDbSpline
70
4
71
3
72
8
73
4
40
0
40
0
40
0
40
0
40
1
40
1
40
1
40
1
41
1
10
35.2997180083019
20
-0.246807579066569
30
0
41
1
10
34.770853793867
20
0.0380807762089432
30
0
41
1
10
34.2416043047841
20
0.32132159871901
30
0
41
1
10
33.7113297294291
20
0.600566680099746
30
0
0
SPLINE
5
F9
100
AcDbEntity
8
1
62
256
6
ByLayer
370
18
48
1
60
0
100
AcDbSpline
70
4
71
3
72
52
73
48
40
0
40
0
40
0
40
0
40
0.125000000000007
40
0.125000000000007
40
0.187500000000011
40
0.187500000000011
40
0.250000000000014
40
0.250000000000014
40
0.312500000000018
40
0.312500000000018
40
0.34375000000002
40
0.34375000000002
40
0.375000000000022
40
0.375000000000022
40
0.390625000000023
40
0.390625000000023
40
0.406250000000024
40
0.406250000000024
40
0.437500000000022
40
0.437500000000022
40
0.45312500000002
40
0.45312500000002
40
0.46093750000002
40
0.46093750000002
40
0.46875000000002
40
0.46875000000002
40
0.484375000000019
40
0.484375000000019
40
0.500000000000019
40
0.500000000000019
40
0.531250000000017
40
0.531250000000017
40
0.562500000000016
40
0.562500000000016
40
0.625000000000014
40
0.625000000000014
40
0.656250000000013
40
0.656250000000013
40
0.687500000000012
40
0.687500000000012
40
0.750000000000009
40
0.750000000000009
40
0.875000000000005
40
0.875000000000005
40
0.937500000000002
40
0.937500000000002
40
1
40
1
40
1
40
1
41
1
10
89.1911449596732
20
-4.89223119132944
30
0
41
1
10
88.8620881991815
20
-4.79076504477419
30
0
41
1
10
88.534854610882
20
-4.66248493033331
30
0
41
1
10
88.0468841933973
20
-4.42770820650736
30
0
41
1
10
87.8845514779019
20
-4.34211101293158
30
0
41
1
10
87.5649265125224
20
-4.15630959994721
30
0
41
1
10
87.4067919087279
20
-4.05570148423482
30
0
41
1
10
87.0976007192809
20
-3.83667405232831
30
0
41
1
10
86.9470120521274
20
-3.71886515117845
30
0
41
1
10
86.7300818898573
20
-3.52361753554172
30
0
41
1
10
86.6592816202503
20
-3.45540942467795
30
0
41
1
10
86.5218883074256
20
-3.310283356952
30
0
41
1
10
86.4562284335638
20
-3.23442344936086
30
0
41
1
10
86.3645224803009
20
-3.11333002218564
30
0
41
1
10
86.3350964833799
20
-3.07173276202369
30
0
41
1
10
86.2792666949534
20
-2.98527765077884
30
0
41
1
10
86.2528377685604
20
-2.94033280084329
30
0
41
1
10
86.1816588707512
20
-2.80206869740678
30
0
41
1
10
86.1436028932254
20
-2.70303535006056
30
0
41
1
10
86.1205634695949
20
-2.55225821915349
30
0
41
1
10
86.1188654640813
20
-2.50201436175101
30
0
41
1
10
86.1270078226591
20
-2.43072543317086
30
0
41
1
10
86.131544909039
20
-2.40732234002408
30
0
41
1
10
86.143834333424
20
-2.36317253222049
30
0
41
1
10
86.1515842220635
20
-2.34223011954083
30
0
41
1
10
86.1792681016325
20
-2.282531327627
30
0
41
1
10
86.2036198035161
20
-2.24729605083431
30
0
41
1
10
86.2587413970758
20
-2.1868882064453
30
0
41
1
10
86.2901329012365
20
-2.16089996513378
30
0
41
1
10
86.3895280524165
20
-2.09450261394289
30
0
41
1
10
86.4624662446165
20
-2.0647207354547
30
0
41
1
10
86.6155526143167
20
-2.02080134740984
30
0
41
1
10
86.69396652662
20
-2.00746436200109
30
0
41
1
10
86.9318975519808
20
-1.98311832156483
30
0
41
1
10
87.0944705368461
20
-1.98747885319958
30
0
41
1
10
87.3415541661622
20
-2.01081726692186
30
0
41
1
10
87.4243668025744
20
-2.02158109885193
30
0
41
1
10
87.5892268114917
20
-2.0476932484228
30
0
41
1
10
87.6715119798894
20
-2.06307008621184
30
0
41
1
10
87.918004907152
20
-2.11501032293867
30
0
41
1
10
88.0818543974741
20
-2.15731439429047
30
0
41
1
10
88.5722736806262
20
-2.30232001191411
30
0
41
1
10
88.8977436783196
20
-2.42264399176833
30
0
41
1
10
89.3839917887852
20
-2.63448588750174
30
0
41
1
10
89.5459986947749
20
-2.71060365095832
30
0
41
1
10
89.868028616374
20
-2.87415642517232
30
0
41
1
10
90.0277136294654
20
-2.96136726304098
30
0
41
1
10
90.1857694048433
20
-3.05523551464233
30
0
0
SPLINE
5
FA
100
AcDbEntity
8
1
62
256
6
ByLayer
370
18
48
1
60
0
100
AcDbSpline
70
4
71
3
72
8
73
4
40
0
40
0
40
0
40
0
40
1
40
1
40
1
40
1
41
1
10
35.2997180083021
20
8.92877646741084
30
0
41
1
10
35.4326507309323
20
8.94008114663157
30
0
41
1
10
35.5655426253094
20
8.95051866755605
30
0
41
1
10
35.6984033950067
20
8.9600840110528
30
0
0
SPLINE
5
FB
100
AcDbEntity
8
1
62
256
6
ByLayer
370
18
48
1
60
0
100
AcDbSpline
70
4
71
3
72
94
73
90
40
0
40
0
40
0
40
0
40
0.0337097681764139
40
0.0337097681764139
40
0.0505646522646208
40
0.0505646522646208
40
0.0674195363528277
40
0.0674195363528277
40
0.101129304529242
40
0.101129304529242
40
0.117984188617449
40
0.117984188617449
40
0.134839072705656
40
0.134839072705656
40
0.16854884088207
40
0.16854884088207
40
0.185403724970277
40
0.185403724970277
40
0.202258609058484
40
0.202258609058484
40
0.219113493146691
40
0.219113493146691
40
0.235968377234898
40
0.235968377234898
40
0.269678145411312
40
0.269678145411312
40
0.303387913587725
40
0.303387913587725
40
0.337097681764139
40
0.337097681764139
40
0.370807449940553
40
0.370807449940553
40
0.38766233402876
40
0.38766233402876
40
0.404517218116967
40
0.404517218116967
40
0.43822698629338
40
0.43822698629338
40
0.455081870381587
40
0.455081870381587
40
0.471936754469794
40
0.471936754469794
40
0.505646522646208
40
0.505646522646208
40
0.522501406734415
40
0.522501406734415
40
0.539356290822622
40
0.539356290822622
40
0.573066058999035
40
0.573066058999035
40
0.589920943087241
40
0.589920943087241
40
0.606775827175448
40
0.606775827175448
40
0.640485595351861
40
0.640485595351861
40
0.657340479440068
40
0.657340479440068
40
0.674195363528274
40
0.674195363528274
40
0.691050247616481
40
0.691050247616481
40
0.707905131704687
40
0.707905131704687
40
0.724760015792894
40
0.724760015792894
40
0.741614899881101
40
0.741614899881101
40
0.775324668057514
40
0.775324668057514
40
0.792179552145721
40
0.792179552145721
40
0.809034436233928
40
0.809034436233928
40
0.842744204410345
40
0.842744204410345
40
0.876453972586761
40
0.876453972586761
40
0.910163740763178
40
0.910163740763178
40
0.927018624851386
40
0.927018624851386
40
0.943873508939594
40
0.943873508939594
40
0.960728393027802
40
0.960728393027802
40
0.977583277116011
40
0.977583277116011
40
1
40
1
40
1
40
1
41
1
10
35.7493719600432
20
8.89678628421078
30
0
41
1
10
36.3116630609418
20
8.85892308842401
30
0
41
1
10
36.8727095686015
20
8.80588819782204
30
0
41
1
10
37.7113583617297
20
8.70385767747331
30
0
41
1
10
37.9904539316915
20
8.66610180196071
30
0
41
1
10
38.5473806143161
20
8.5828693909402
30
0
41
1
10
38.8253442452013
20
8.5374372214024
30
0
41
1
10
39.6597733908592
20
8.390982640191
30
0
41
1
10
40.2160820690883
20
8.27952517289208
30
0
41
1
10
41.0494757498793
20
8.09110367222863
30
0
41
1
10
41.3271132390236
20
8.02475847121227
30
0
41
1
10
41.8817604236087
20
7.88462705487521
30
0
41
1
10
42.1590356678616
20
7.81105204602079
30
0
41
1
10
42.9922544557499
20
7.5812910243227
30
0
41
1
10
43.5489667724287
20
7.41560020133667
30
0
41
1
10
44.3848179546497
20
7.14711440426254
30
0
41
1
10
44.6635567181547
20
7.05427047040033
30
0
41
1
10
45.2210905079278
20
6.8614941894522
30
0
41
1
10
45.5002824097435
20
6.76203093188195
30
0
41
1
10
46.0601218726506
20
6.55775515252373
30
0
41
1
10
46.3406729011878
20
6.45282985977678
30
0
41
1
10
46.9027955686526
20
6.23705754381942
30
0
41
1
10
47.1847510443848
20
6.12606036176541
30
0
41
1
10
48.0283616834708
20
5.7853177387579
30
0
41
1
10
48.5872370727181
20
5.54644506060527
30
0
41
1
10
49.7045817008689
20
5.05558784408518
30
0
41
1
10
50.2623750941849
20
4.80265711842543
30
0
41
1
10
51.3749249810222
20
4.27989727147411
30
0
41
1
10
51.929039462784
20
4.00892276999699
30
0
41
1
10
53.0396477821324
20
3.45903552451449
30
0
41
1
10
53.5953064974705
20
3.17879840875338
30
0
41
1
10
54.4283499390613
20
2.74876377361477
30
0
41
1
10
54.7057420634799
20
2.60341032134147
30
0
41
1
10
55.2610530952541
20
2.31062344058753
30
0
41
1
10
55.5391681770597
20
2.16355302765291
30
0
41
1
10
56.3747921671493
20
1.72017686083299
30
0
41
1
10
56.9334478495581
20
1.42148928279528
30
0
41
1
10
57.7728365041866
20
0.966805114826911
30
0
41
1
10
58.052628997252
20
0.813658721896076
30
0
41
1
10
58.6136968228741
20
0.507040442530922
30
0
41
1
10
58.8953971870346
20
0.353458413608621
30
0
41
1
10
59.7390799797588
20
-0.105809537012647
30
0
41
1
10
60.2997897506895
20
-0.410344809975754
30
0
41
1
10
61.1372259025695
20
-0.866731121264081
30
0
41
1
10
61.4155492434982
20
-1.01919222436587
30
0
41
1
10
61.9722760705088
20
-1.32150688087057
30
0
41
1
10
62.250601975672
20
-1.47151641087507
30
0
41
1
10
63.0852550004768
20
-1.91856760841074
30
0
41
1
10
63.6412071439179
20
-2.21274578674266
30
0
41
1
10
64.4733009535457
20
-2.65021168142889
30
0
41
1
10
64.7502064029203
20
-2.79566144901901
30
0
41
1
10
65.304857812716
20
-3.08267939846016
30
0
41
1
10
65.582466147182
20
-3.22450047179049
30
0
41
1
10
66.4158666554327
20
-3.64541708691095
30
0
41
1
10
66.9722207007845
20
-3.92001090543744
30
0
41
1
10
67.8067297298459
20
-4.32468467770866
30
0
41
1
10
68.0848418140833
20
-4.45844908802221
30
0
41
1
10
68.6425888376577
20
-4.72098827518198
30
0
41
1
10
68.9220591398078
20
-4.85004403110906
30
0
41
1
10
69.481984068671
20
-5.10407717085013
30
0
41
1
10
69.7624230771103
20
-5.22907940680162
30
0
41
1
10
70.3241452936559
20
-5.47519883331981
30
0
41
1
10
70.6058328956801
20
-5.59645125722332
30
0
41
1
10
71.1674046993788
20
-5.83445307625195
30
0
41
1
10
71.4474566093072
20
-5.95096852078197
30
0
41
1
10
72.0074060181094
20
-6.17721355896927
30
0
41
1
10
72.2871470380109
20
-6.28719087199744
30
0
41
1
10
73.1253322430163
20
-6.60835093831224
30
0
41
1
10
73.6828041675803
20
-6.81073045012187
30
0
41
1
10
74.5158165830196
20
-7.09809939759833
30
0
41
1
10
74.7932417127319
20
-7.19081994850714
30
0
41
1
10
75.3485051915899
20
-7.36919239303524
30
0
41
1
10
75.6262176574065
20
-7.45499834555031
30
0
41
1
10
76.4592253439793
20
-7.70277056097302
30
0
41
1
10
77.0144525126914
20
-7.85508011455354
30
0
41
1
10
78.1232016010677
20
-8.13474134827376
30
0
41
1
10
78.6788913332539
20
-8.26019257396007
30
0
41
1
10
79.7929588996209
20
-8.48264286901747
30
0
41
1
10
80.3510275830603
20
-8.57988780180716
30
0
41
1
10
81.1890172574539
20
-8.7044214266086
30
0
41
1
10
81.4690018834294
20
-8.74209588999386
30
0
41
1
10
82.0304374434619
20
-8.80973963786758
30
0
41
1
10
82.3121884030236
20
-8.8397628026521
30
0
41
1
10
82.8747694621882
20
-8.89201507455803
30
0
41
1
10
83.1556193652222
20
-8.91425091455002
30
0
41
1
10
83.716300554169
20
-8.95099333513102
30
0
41
1
10
83.9959496117116
20
-8.96552600726812
30
0
41
1
10
84.6468014451179
20
-8.99021406481177
30
0
41
1
10
85.0183896552033
20
-8.99731834123691
30
0
41
1
10
85.3898586222596
20
-8.99756871378631
30
0
0
SPLINE
5
FC
100
AcDbEntity
8
1
62
256
6
ByLayer
370
18
48
1
60
0
100
AcDbSpline
70
4
71
3
72
12
73
8
40
0
40
0
40
0
40
0
40
0.5
40
0.5
40
0.75
40
0.75
40
1
40
1
40
1
40
1
41
1
10
89.2993973418446
20
-8.74772542385236
30
0
41
1
10
89.2127221557292
20
-8.81301129427058
30
0
41
1
10
89.129898831136
20
-8.86634669608748
30
0
41
1
10
89.0114308666874
20
-8.92725601056404
30
0
41
1
10
88.9728808789154
20
-8.94435925572114
30
0
41
1
10
88.8985837742341
20
-8.97167981767322
30
0
41
1
10
88.8627173737754
20
-8.98196554078038
30
0
41
1
10
88.8280898127374
20
-8.98889722609482
30
0
0
SPLINE
5
FD
100
AcDbEntity
8
1
62
256
6
ByLayer
370
18
48
1
60
0
100
AcDbSpline
70
4
71
1
72
4
73
2
40
0
40
0
40
1
40
1
41
1
10
35.1222713388687
20
-8.84183286035559
30
0
41
1
10
35.2986678544734
20
-8.85096765718725
30
0
0
SPLINE
5
FE
100
AcDbEntity
8
1
62
256
6
ByLayer
370
18
48
1
60
0
100
AcDbSpline
70
4
71
3
72
33
73
29
40
0
40
0
40
0
40
0
40
0.0460824788150278
40
0.0862928303352033
40
0.115755568371824
40
0.135916747516224
40
0.155371206411358
40
0.175553169363313
40
0.235185090679973
40
0.282920975399451
40
0.340803407411462
40
0.39778947578234
40
0.459812147296778
40
0.513726543599833
40
0.55159041290118
40
0.598141650531663
40
0.636001867398551
40
0.666454391806023
40
0.702315739014048
40
0.741140760553441
40
0.773197036749843
40
0.793590308005868
40
0.815469522157512
40
0.840407185592958
40
0.869497012240319
40
0.906588368559001
40
0.952099406266243
40
1
40
1
40
1
40
1
41
1
10
36.5358121393852
20
-8.5168866068575
30
0
41
1
10
36.9052949359847
20
-8.51711189422741
30
0
41
1
10
37.5971791106303
20
-8.51753125480536
30
0
41
1
10
38.5251826163682
20
-8.51825374714582
30
0
41
1
10
39.2455257982962
20
-8.51858695228012
30
0
41
1
10
39.7991972106058
20
-8.51894931356023
30
0
41
1
10
40.2785407705944
20
-8.51938126445796
30
0
41
1
10
41.0744378028258
20
-8.52005429308645
30
0
41
1
10
42.097082994474
20
-8.52014592707445
30
0
41
1
10
43.4220040206566
20
-8.5220615075942
30
0
41
1
10
44.7257083721718
20
-8.52152371819477
30
0
41
1
10
46.1439652995169
20
-8.52404359490126
30
0
41
1
10
47.5304055747167
20
-8.52311409195153
30
0
41
1
10
48.7635352511082
20
-8.52488464595822
30
0
41
1
10
49.8726194393728
20
-8.52486325252133
30
0
41
1
10
50.8529813688071
20
-8.52499781270967
30
0
41
1
10
51.7739229332723
20
-8.52653705191034
30
0
41
1
10
52.6091585735328
20
-8.52641329762147
30
0
41
1
10
53.4521352135184
20
-8.52607585394998
30
0
41
1
10
54.3079447857203
20
-8.52808307532879
30
0
41
1
10
55.0397812971631
20
-8.52803123943764
30
0
41
1
10
55.6352128901224
20
-8.52770735584255
30
0
41
1
10
56.1743695944074
20
-8.52762032188767
30
0
41
1
10
56.7820185292355
20
-8.52903335464148
30
0
41
1
10
57.5104714255387
20
-8.52932436564876
30
0
41
1
10
58.4066129947681
20
-8.52884090637536
30
0
41
1
10
59.4526623630617
20
-8.53088383852133
30
0
41
1
10
60.2011955138388
20
-8.53096461153626
30
0
41
1
10
60.5849281945838
20
-8.53094360386913
30
0
0
SPLINE
5
FF
100
AcDbEntity
8
1
62
256
6
ByLayer
370
18
48
1
60
0
100
AcDbSpline
70
4
71
3
72
36
73
32
40
0
40
0
40
0
40
0
40
0.0430083660781609
40
0.0864396313205344
40
0.126740802131736
40
0.163607895910295
40
0.196573264307966
40
0.226186146621958
40
0.261345077168612
40
0.30406803016299
40
0.345266436009812
40
0.380252690943383
40
0.415755310661193
40
0.461367378870812
40
0.510566105967468
40
0.54782525938475
40
0.579668454101838
40
0.616574073925288
40
0.653481982108236
40
0.68766121301007
40
0.716516380344462
40
0.740962925974536
40
0.769203736535647
40
0.802529709043839
40
0.83947367995769
40
0.869681692650044
40
0.891610256425371
40
0.913396749359081
40
0.945667056159253
40
0.987544313150803
40
1
40
1
40
1
40
1
41
1
10
60.6266948439458
20
8.53063076985018
30
0
41
1
10
60.3638679140662
20
8.52962671589827
30
0
41
1
10
59.8295116909557
20
8.52815786052813
30
0
41
1
10
59.0078554482669
20
8.52344174020425
30
0
41
1
10
58.2463334326096
20
8.52811515441883
30
0
41
1
10
57.5524879524592
20
8.52946915915786
30
0
41
1
10
56.915813489405
20
8.52918657752261
30
0
41
1
10
56.2881813130922
20
8.52780801485972
30
0
41
1
10
55.5985040514698
20
8.52772013094608
30
0
41
1
10
54.8342268854693
20
8.52816408644762
30
0
41
1
10
54.0711283803818
20
8.52764695701615
30
0
41
1
10
53.3543491136411
20
8.52610576058154
30
0
41
1
10
52.6092467822013
20
8.52641449417132
30
0
41
1
10
51.7729323318013
20
8.52658705227344
30
0
41
1
10
50.9253447840418
20
8.52513254090297
30
0
41
1
10
50.166125409171
20
8.52475162225309
30
0
41
1
10
49.4858152306198
20
8.52495353398675
30
0
41
1
10
48.8077352618406
20
8.52476494000817
30
0
41
1
10
48.1146728583385
20
8.5238385922315
30
0
41
1
10
47.4732748014499
20
8.52355468861572
30
0
41
1
10
46.9118344502567
20
8.52373026715094
30
0
41
1
10
46.3885997574419
20
8.52368365992163
30
0
41
1
10
45.8365973684183
20
8.52310954422566
30
0
41
1
10
45.2043742337818
20
8.52206049451075
30
0
41
1
10
44.5595700852956
20
8.52199570862297
30
0
41
1
10
43.9879176452669
20
8.52193554789807
30
0
41
1
10
43.5135065100018
20
8.52178613461766
30
0
41
1
10
43.0258533397621
20
8.52132757632307
30
0
41
1
10
42.4101730892237
20
8.52053307507242
30
0
41
1
10
41.8544546049783
20
8.52033767241318
30
0
41
1
10
41.5057655173932
20
8.52018477705175
30
0
41
1
10
41.4258285862026
20
8.5201474628484
30
0
0
SPLINE
5
100
100
AcDbEntity
8
1
62
256
6
ByLayer
370
18
48
1
60
0
100
AcDbSpline
70
4
71
2
72
6
73
3
40
0
40
0
40
0
40
1
40
1
40
1
41
1
10
88.2068685972858
20
-8.54934647274135
30
0
41
1
10
88.5316032756483
20
-8.54995935803029
30
0
41
1
10
88.8531854555429
20
-8.54756021058432
30
0
0
LINE
5
7D
100
AcDbEntity
8
SK1
62
256
6
ByLayer
370
18
48
1
60
0
100
AcDbLine
10
-50
20
6.745
30
0
11
-50
21
6.711774
31
0
39
0
210
0
220
0
230
1
0
LINE
5
7F
100
AcDbEntity
8
SK1
62
256
6
ByLayer
370
18
48
1
60
0
100
AcDbLine
10
0
20
-10
30
0
11
0
21
10
31
0
39
0
210
0
220
0
230
1
0
LINE
5
80
100
AcDbEntity
8
SK1
62
256
6
ByLayer
370
18
48
1
60
0
100
AcDbLine
10
-50
20
6.711774
30
0
11
-50
21
6.30695
31
0
39
0
210
0
220
0
230
1
0
LINE
5
81
100
AcDbEntity
8
SK1
62
256
6
ByLayer
370
13
48
1
60
0
100
AcDbLine
10
-47.7
20
8.93382
30
0
11
-47.7
21
7.979776
31
0
39
0
210
0
220
0
230
1
0
LINE
5
82
100
AcDbEntity
8
SK1
62
256
6
ByLayer
370
18
48
1
60
0
100
AcDbLine
10
-46.745
20
10
30
0
11
-46.745
21
-10
31
0
39
0
210
0
220
0
230
1
0
LINE
5
83
100
AcDbEntity
8
SK1
62
256
6
ByLayer
370
18
48
1
60
0
100
AcDbLine
10
-50
20
5.757943
30
0
11
-50
21
-6.745
31
0
39
0
210
0
220
0
230
1
0
LINE
5
84
100
AcDbEntity
8
SK1
62
256
6
ByLayer
370
18
48
1
60
0
100
AcDbLine
10
-47.6
20
8.123137
30
0
11
-47.6
21
9.013379
31
0
39
0
210
0
220
0
230
1
0
LINE
5
85
100
AcDbEntity
8
1
62
256
6
ByLayer
370
13
48
1
60
0
100
AcDbLine
10
88.953986
20
1.902369
30
0
11
91.967506
21
-0.005261
31
0
39
0
210
0
220
0
230
1
0
LINE
5
86
100
AcDbEntity
8
1
62
256
6
ByLayer
370
13
48
1
60
0
100
AcDbLine
10
89.122424
20
2.034971
30
0
11
91.96967
21
0.232596
31
0
39
0
210
0
220
0
230
1
0
LINE
5
87
100
AcDbEntity
8
1
62
256
6
ByLayer
370
18
48
1
60
0
100
AcDbLine
10
0
20
-10
30
0
11
0
21
10
31
0
39
0
210
0
220
0
230
1
0
LINE
5
88
100
AcDbEntity
8
80
62
256
6
ByLayer
370
18
48
1
60
0
100
AcDbLine
10
0
20
0
30
0
11
-5
21
0
31
0
39
0
210
0
220
0
230
1
0
LINE
5
89
100
AcDbEntity
8
SK4
62
256
6
ByLayer
370
18
48
0.05
60
0
100
AcDbLine
10
97
20
0
30
0
11
-55
21
0
31
0
39
0
210
0
220
0
230
1
0
LINE
5
8B
100
AcDbEntity
8
4
62
256
6
ByLayer
370
18
48
0.05
60
0
100
AcDbLine
10
92
20
0
30
0
11
0
21
0
31
0
39
0
210
0
220
0
230
1
0
LINE
5
8D
100
AcDbEntity
8
SK1
62
256
6
ByLayer
370
18
48
1
60
0
100
AcDbLine
10
0
20
10
30
0
11
-46.745
21
10
31
0
39
0
210
0
220
0
230
1
0
LINE
5
8E
100
AcDbEntity
8
SK1
62
256
6
ByLayer
370
18
48
1
60
0
100
AcDbLine
10
-46.745
20
-10
30
0
11
0
21
-10
31
0
39
0
210
0
220
0
230
1
0
LINE
5
8F
100
AcDbEntity
8
SK1
62
256
6
ByLayer
370
18
48
1
60
0
100
AcDbLine
10
-50
20
-6.745
30
0
11
-46.745
21
-10
31
0
39
0
210
0
220
0
230
1
0
LINE
5
90
100
AcDbEntity
8
SK1
62
256
6
ByLayer
370
18
48
1
60
0
100
AcDbLine
10
-46.745
20
10
30
0
11
-50
21
6.745
31
0
39
0
210
0
220
0
230
1
0
LINE
5
91
100
AcDbEntity
8
1
62
256
6
ByLayer
370
18
48
1
60
0
100
AcDbLine
10
34.204239
20
10
30
0
11
33.503615
21
10
31
0
39
0
210
0
220
0
230
1
0
LINE
5
92
100
AcDbEntity
8
1
62
256
6
ByLayer
370
18
48
1
60
0
100
AcDbLine
10
9.922503
20
10
30
0
11
0
21
10
31
0
39
0
210
0
220
0
230
1
0
LINE
5
93
100
AcDbEntity
8
1
62
256
6
ByLayer
370
18
48
1
60
0
100
AcDbLine
10
0
20
-10
30
0
11
9.922503
21
-10
31
0
39
0
210
0
220
0
230
1
0
LINE
5
94
100
AcDbEntity
8
1
62
256
6
ByLayer
370
18
48
1
60
0
100
AcDbLine
10
33.503615
20
-10
30
0
11
34.204239
21
-10
31
0
39
0
210
0
220
0
230
1
0
LINE
5
95
100
AcDbEntity
8
1
62
256
6
ByLayer
370
18
48
1
60
0
100
AcDbLine
10
35.710235
20
-8.966507
30
0
11
36.32052
21
-8.966888
31
0
39
0
210
0
220
0
230
1
0
LINE
5
96
100
AcDbEntity
8
1
62
256
6
ByLayer
370
18
48
1
60
0
100
AcDbLine
10
88.021708
20
8.999201
30
0
11
85.393561
21
8.997559
31
0
39
0
210
0
220
0
230
1
0
LINE
5
97
100
AcDbEntity
8
1
62
256
6
ByLayer
370
18
48
1
60
0
100
AcDbLine
10
85.393561
20
-8.997559
30
0
11
88.021708
21
-8.999201
31
0
39
0
210
0
220
0
230
1
0
LINE
5
98
100
AcDbEntity
8
1
62
256
6
ByLayer
370
18
48
1
60
0
100
AcDbLine
10
36.32052
20
8.966888
30
0
11
35.710235
21
8.966507
31
0
39
0
210
0
220
0
230
1
0
LINE
5
99
100
AcDbEntity
8
81
62
256
6
ByLayer
370
18
48
1
60
0
100
AcDbLine
10
92
20
0
30
0
11
97
21
0
31
0
39
0
210
0
220
0
230
1
0
LINE
5
9A
100
AcDbEntity
8
2
62
256
6
ByLayer
370
13
48
1
60
0
100
AcDbLine
10
114.236431
20
-10
30
0
11
114.236431
21
39.570813
31
0
39
0
210
0
220
0
230
1
0
LINE
5
9C
100
AcDbEntity
8
2
62
256
6
ByLayer
370
13
48
1
60
0
100
AcDbLine
10
35.8979
20
10
30
0
11
116.236431
21
10
31
0
39
0
210
0
220
0
230
1
0
LINE
5
9D
100
AcDbEntity
8
2
62
256
6
ByLayer
370
13
48
1
60
0
100
AcDbLine
10
35.8979
20
-10
30
0
11
116.236431
21
-10
31
0
39
0
210
0
220
0
230
1
0
LINE
5
9E
100
AcDbEntity
8
1
62
256
6
ByLayer
370
18
48
1
60
1
100
AcDbLine
10
114.236431
20
10
30
0
11
114.697214
21
6.500002
31
0
39
0
210
0
220
0
230
1
0
LINE
5
9F
100
AcDbEntity
8
1
62
256
6
ByLayer
370
18
48
1
60
1
100
AcDbLine
10
114.697214
20
6.500002
30
0
11
113.775647
21
6.499998
31
0
39
0
210
0
220
0
230
1
0
LINE
5
A0
100
AcDbEntity
8
1
62
256
6
ByLayer
370
18
48
1
60
1
100
AcDbLine
10
113.775647
20
6.499998
30
0
11
114.236431
21
10
31
0
39
0
210
0
220
0
230
1
0
LINE
5
A1
100
AcDbEntity
8
1
62
256
6
ByLayer
370
18
48
1
60
1
100
AcDbLine
10
114.236431
20
-10
30
0
11
113.775647
21
-6.500002
31
0
39
0
210
0
220
0
230
1
0
LINE
5
A2
100
AcDbEntity
8
1
62
256
6
ByLayer
370
18
48
1
60
1
100
AcDbLine
10
113.775647
20
-6.500002
30
0
11
114.697214
21
-6.499998
31
0
39
0
210
0
220
0
230
1
0
LINE
5
A3
100
AcDbEntity
8
1
62
256
6
ByLayer
370
18
48
1
60
1
100
AcDbLine
10
114.697214
20
-6.499998
30
0
11
114.236431
21
-10
31
0
39
0
210
0
220
0
230
1
0
LINE
5
A4
100
AcDbEntity
8
SK2
62
256
6
ByLayer
370
13
48
1
60
0
100
AcDbLine
10
-58.625163
20
-10
30
0
11
-58.625163
21
41.732039
31
0
39
0
210
0
220
0
230
1
0
LINE
5
A6
100
AcDbEntity
8
SK2
62
256
6
ByLayer
370
13
48
1
60
0
100
AcDbLine
10
-51.5875
20
10
30
0
11
-60.625163
21
10
31
0
39
0
210
0
220
0
230
1
0
LINE
5
A7
100
AcDbEntity
8
SK2
62
256
6
ByLayer
370
13
48
1
60
0
100
AcDbLine
10
-51.5875
20
-10
30
0
11
-60.625163
21
-10
31
0
39
0
210
0
220
0
230
1
0
LINE
5
A8
100
AcDbEntity
8
1
62
256
6
ByLayer
370
18
48
1
60
1
100
AcDbLine
10
-58.625163
20
10
30
0
11
-58.164379
21
6.500002
31
0
39
0
210
0
220
0
230
1
0
LINE
5
A9
100
AcDbEntity
8
1
62
256
6
ByLayer
370
18
48
1
60
1
100
AcDbLine
10
-58.164379
20
6.500002
30
0
11
-59.085946
21
6.499998
31
0
39
0
210
0
220
0
230
1
0
LINE
5
AA
100
AcDbEntity
8
1
62
256
6
ByLayer
370
18
48
1
60
1
100
AcDbLine
10
-59.085946
20
6.499998
30
0
11
-58.625163
21
10
31
0
39
0
210
0
220
0
230
1
0
LINE
5
AB
100
AcDbEntity
8
1
62
256
6
ByLayer
370
18
48
1
60
1
100
AcDbLine
10
-58.625163
20
-10
30
0
11
-59.085946
21
-6.500002
31
0
39
0
210
0
220
0
230
1
0
LINE
5
AC
100
AcDbEntity
8
1
62
256
6
ByLayer
370
18
48
1
60
1
100
AcDbLine
10
-59.085946
20
-6.500002
30
0
11
-58.164379
21
-6.499998
31
0
39
0
210
0
220
0
230
1
0
LINE
5
AD
100
AcDbEntity
8
1
62
256
6
ByLayer
370
18
48
1
60
1
100
AcDbLine
10
-58.164379
20
-6.499998
30
0
11
-58.625163
21
-10
31
0
39
0
210
0
220
0
230
1
0
LINE
5
AE
100
AcDbEntity
8
2
62
256
6
ByLayer
370
13
48
1
60
0
100
AcDbLine
10
105.970081
20
-9
30
0
11
105.970081
21
39.204896
31
0
39
0
210
0
220
0
230
1
0
LINE
5
AF
100
AcDbEntity
8
2
62
256
6
ByLayer
370
13
48
1
60
0
100
AcDbLine
10
90.8979
20
9
30
0
11
107.970081
21
9
31
0
39
0
210
0
220
0
230
1
0
LINE
5
B0
100
AcDbEntity
8
2
62
256
6
ByLayer
370
13
48
1
60
0
100
AcDbLine
10
90.8979
20
-9
30
0
11
107.970081
21
-9
31
0
39
0
210
0
220
0
230
1
0
LINE
5
B1
100
AcDbEntity
8
1
62
256
6
ByLayer
370
18
48
1
60
1
100
AcDbLine
10
105.970081
20
9
30
0
11
106.430865
21
5.500002
31
0
39
0
210
0
220
0
230
1
0
LINE
5
B2
100
AcDbEntity
8
1
62
256
6
ByLayer
370
18
48
1
60
1
100
AcDbLine
10
106.430865
20
5.500002
30
0
11
105.509297
21
5.499998
31
0
39
0
210
0
220
0
230
1
0
LINE
5
B3
100
AcDbEntity
8
1
62
256
6
ByLayer
370
18
48
1
60
1
100
AcDbLine
10
105.509297
20
5.499998
30
0
11
105.970081
21
9
31
0
39
0
210
0
220
0
230
1
0
LINE
5
B4
100
AcDbEntity
8
1
62
256
6
ByLayer
370
18
48
1
60
1
100
AcDbLine
10
105.970081
20
-9
30
0
11
105.509297
21
-5.500002
31
0
39
0
210
0
220
0
230
1
0
LINE
5
B5
100
AcDbEntity
8
1
62
256
6
ByLayer
370
18
48
1
60
1
100
AcDbLine
10
105.509297
20
-5.500002
30
0
11
106.430865
21
-5.499998
31
0
39
0
210
0
220
0
230
1
0
LINE
5
B6
100
AcDbEntity
8
1
62
256
6
ByLayer
370
18
48
1
60
1
100
AcDbLine
10
106.430865
20
-5.499998
30
0
11
105.970081
21
-9
31
0
39
0
210
0
220
0
230
1
0
LINE
5
B7
100
AcDbEntity
8
SK2
62
256
6
ByLayer
370
13
48
1
60
0
100
AcDbLine
10
33.187868
20
-11.122532
30
0
11
25.713416
21
-18.596984
31
0
39
0
210
0
220
0
230
1
0
LINE
5
B8
100
AcDbEntity
8
SK2
62
256
6
ByLayer
370
13
48
1
60
0
100
AcDbLine
10
33.187868
20
11.122532
30
0
11
25.713416
21
18.596984
31
0
39
0
210
0
220
0
230
1
0
LINE
5
B9
100
AcDbEntity
8
1
62
256
6
ByLayer
370
18
48
1
60
1
100
AcDbLine
10
27.12763
20
-17.18277
30
0
11
24.405976
21
-14.934457
31
0
39
0
210
0
220
0
230
1
0
LINE
5
BA
100
AcDbEntity
8
1
62
256
6
ByLayer
370
18
48
1
60
1
100
AcDbLine
10
24.405976
20
-14.934457
30
0
11
25.080618
21
-14.306648
31
0
39
0
210
0
220
0
230
1
0
LINE
5
BB
100
AcDbEntity
8
1
62
256
6
ByLayer
370
18
48
1
60
1
100
AcDbLine
10
25.080618
20
-14.306648
30
0
11
27.12763
21
-17.18277
31
0
39
0
210
0
220
0
230
1
0
LINE
5
BC
100
AcDbEntity
8
1
62
256
6
ByLayer
370
18
48
1
60
1
100
AcDbLine
10
27.12763
20
17.18277
30
0
11
25.080621
21
14.306651
31
0
39
0
210
0
220
0
230
1
0
LINE
5
BD
100
AcDbEntity
8
1
62
256
6
ByLayer
370
18
48
1
60
1
100
AcDbLine
10
25.080621
20
14.306651
30
0
11
24.405974
21
14.934455
31
0
39
0
210
0
220
0
230
1
0
LINE
5
BE
100
AcDbEntity
8
1
62
256
6
ByLayer
370
18
48
1
60
1
100
AcDbLine
10
24.405974
20
14.934455
30
0
11
27.12763
21
17.18277
31
0
39
0
210
0
220
0
230
1
0
LINE
5
107
100
AcDbEntity
8
1
62
256
6
ByLayer
370
18
48
1
60
1
100
AcDbLine
10
114.236431
20
10
30
0
11
114.697214
21
6.500002
31
0
39
0
210
0
220
0
230
1
0
LINE
5
108
100
AcDbEntity
8
1
62
256
6
ByLayer
370
18
48
1
60
1
100
AcDbLine
10
114.697214
20
6.500002
30
0
11
113.775647
21
6.499998
31
0
39
0
210
0
220
0
230
1
0
LINE
5
109
100
AcDbEntity
8
1
62
256
6
ByLayer
370
18
48
1
60
1
100
AcDbLine
10
113.775647
20
6.499998
30
0
11
114.236431
21
10
31
0
39
0
210
0
220
0
230
1
0
LINE
5
10B
100
AcDbEntity
8
1
62
256
6
ByLayer
370
18
48
1
60
1
100
AcDbLine
10
114.236431
20
-10
30
0
11
113.775647
21
-6.500002
31
0
39
0
210
0
220
0
230
1
0
LINE
5
10C
100
AcDbEntity
8
1
62
256
6
ByLayer
370
18
48
1
60
1
100
AcDbLine
10
113.775647
20
-6.500002
30
0
11
114.697214
21
-6.499998
31
0
39
0
210
0
220
0
230
1
0
LINE
5
10D
100
AcDbEntity
8
1
62
256
6
ByLayer
370
18
48
1
60
1
100
AcDbLine
10
114.697214
20
-6.499998
30
0
11
114.236431
21
-10
31
0
39
0
210
0
220
0
230
1
0
LINE
5
111
100
AcDbEntity
8
1
62
256
6
ByLayer
370
18
48
1
60
1
100
AcDbLine
10
-58.625163
20
10
30
0
11
-58.164379
21
6.500002
31
0
39
0
210
0
220
0
230
1
0
LINE
5
112
100
AcDbEntity
8
1
62
256
6
ByLayer
370
18
48
1
60
1
100
AcDbLine
10
-58.164379
20
6.500002
30
0
11
-59.085946
21
6.499998
31
0
39
0
210
0
220
0
230
1
0
LINE
5
113
100
AcDbEntity
8
1
62
256
6
ByLayer
370
18
48
1
60
1
100
AcDbLine
10
-59.085946
20
6.499998
30
0
11
-58.625163
21
10
31
0
39
0
210
0
220
0
230
1
0
LINE
5
115
100
AcDbEntity
8
1
62
256
6
ByLayer
370
18
48
1
60
1
100
AcDbLine
10
-58.625163
20
-10
30
0
11
-59.085946
21
-6.500002
31
0
39
0
210
0
220
0
230
1
0
LINE
5
116
100
AcDbEntity
8
1
62
256
6
ByLayer
370
18
48
1
60
1
100
AcDbLine
10
-59.085946
20
-6.500002
30
0
11
-58.164379
21
-6.499998
31
0
39
0
210
0
220
0
230
1
0
LINE
5
117
100
AcDbEntity
8
1
62
256
6
ByLayer
370
18
48
1
60
1
100
AcDbLine
10
-58.164379
20
-6.499998
30
0
11
-58.625163
21
-10
31
0
39
0
210
0
220
0
230
1
0
LINE
5
11B
100
AcDbEntity
8
1
62
256
6
ByLayer
370
18
48
1
60
1
100
AcDbLine
10
105.970081
20
9
30
0
11
106.430865
21
5.500002
31
0
39
0
210
0
220
0
230
1
0
LINE
5
11C
100
AcDbEntity
8
1
62
256
6
ByLayer
370
18
48
1
60
1
100
AcDbLine
10
106.430865
20
5.500002
30
0
11
105.509297
21
5.499998
31
0
39
0
210
0
220
0
230
1
0
LINE
5
11D
100
AcDbEntity
8
1
62
256
6
ByLayer
370
18
48
1
60
1
100
AcDbLine
10
105.509297
20
5.499998
30
0
11
105.970081
21
9
31
0
39
0
210
0
220
0
230
1
0
LINE
5
11F
100
AcDbEntity
8
1
62
256
6
ByLayer
370
18
48
1
60
1
100
AcDbLine
10
105.970081
20
-9
30
0
11
105.509297
21
-5.500002
31
0
39
0
210
0
220
0
230
1
0
LINE
5
120
100
AcDbEntity
8
1
62
256
6
ByLayer
370
18
48
1
60
1
100
AcDbLine
10
105.509297
20
-5.500002
30
0
11
106.430865
21
-5.499998
31
0
39
0
210
0
220
0
230
1
0
LINE
5
121
100
AcDbEntity
8
1
62
256
6
ByLayer
370
18
48
1
60
1
100
AcDbLine
10
106.430865
20
-5.499998
30
0
11
105.970081
21
-9
31
0
39
0
210
0
220
0
230
1
0
LINE
5
124
100
AcDbEntity
8
1
62
256
6
ByLayer
370
18
48
1
60
1
100
AcDbLine
10
27.12763
20
-17.18277
30
0
11
24.405976
21
-14.934457
31
0
39
0
210
0
220
0
230
1
0
LINE
5
125
100
AcDbEntity
8
1
62
256
6
ByLayer
370
18
48
1
60
1
100
AcDbLine
10
24.405976
20
-14.934457
30
0
11
25.080618
21
-14.306648
31
0
39
0
210
0
220
0
230
1
0
LINE
5
126
100
AcDbEntity
8
1
62
256
6
ByLayer
370
18
48
1
60
1
100
AcDbLine
10
25.080618
20
-14.306648
30
0
11
27.12763
21
-17.18277
31
0
39
0
210
0
220
0
230
1
0
LINE
5
128
100
AcDbEntity
8
1
62
256
6
ByLayer
370
18
48
1
60
1
100
AcDbLine
10
27.12763
20
17.18277
30
0
11
25.080621
21
14.306651
31
0
39
0
210
0
220
0
230
1
0
LINE
5
129
100
AcDbEntity
8
1
62
256
6
ByLayer
370
18
48
1
60
1
100
AcDbLine
10
25.080621
20
14.306651
30
0
11
24.405974
21
14.934455
31
0
39
0
210
0
220
0
230
1
0
LINE
5
12A
100
AcDbEntity
8
1
62
256
6
ByLayer
370
18
48
1
60
1
100
AcDbLine
10
24.405974
20
14.934455
30
0
11
27.12763
21
17.18277
31
0
39
0
210
0
220
0
230
1
0
MTEXT
5
101
100
AcDbEntity
8
SK6
62
256
6
ByLayer
370
13
48
1
60
0
100
AcDbMText
10
-8.145193
20
41.540328
30
0
210
0
220
0
230
1
1
\W0.7670;462.2-1800-057A1-XM X2BM
40
3.5
41
0
44
1.084337
50
0
71
7
72
5
7
iso_b_vert
0
MTEXT
5
105
100
AcDbEntity
8
2
62
256
6
ByLayer
370
18
48
1
60
0
100
AcDbMText
10
112.671797
20
21.247798
30
0
210
0
220
0
230
1
1
%%c
40
3.5
41
0
44
1.084337
50
90
71
7
72
5
7
iso_b_vert
0
MTEXT
5
106
100
AcDbEntity
8
2
62
256
6
ByLayer
370
18
48
1
60
0
100
AcDbMText
10
112.671797
20
26.470454
30
0
210
0
220
0
230
1
1
\W0.7421;20,000
40
3.5
41
0
44
1.084337
50
90
71
7
72
5
7
iso_b_vert
0
MTEXT
5
10F
100
AcDbEntity
8
SK2
62
256
6
ByLayer
370
18
48
1
60
0
100
AcDbMText
10
-60.189796
20
23.409024
30
0
210
0
220
0
230
1
1
%%c
40
3.5
41
0
44
1.084337
50
90
71
7
72
5
7
iso_b_vert
0
MTEXT
5
110
100
AcDbEntity
8
SK2
62
256
6
ByLayer
370
18
48
1
60
0
100
AcDbMText
10
-60.189796
20
28.63168
30
0
210
0
220
0
230
1
1
\W0.7421;20,000
40
3.5
41
0
44
1.084337
50
90
71
7
72
5
7
iso_b_vert
0
MTEXT
5
119
100
AcDbEntity
8
2
62
256
6
ByLayer
370
18
48
1
60
0
100
AcDbMText
10
104.405448
20
21.756747
30
0
210
0
220
0
230
1
1
%%c
40
3.5
41
0
44
1.084337
50
90
71
7
72
5
7
iso_b_vert
0
MTEXT
5
11A
100
AcDbEntity
8
2
62
256
6
ByLayer
370
18
48
1
60
0
100
AcDbMText
10
104.405448
20
26.979403
30
0
210
0
220
0
230
1
1
\W0.6930;18,000
40
3.5
41
0
44
1.084337
50
90
71
7
72
5
7
iso_b_vert
0
MTEXT
5
123
100
AcDbEntity
8
SK2
62
256
6
ByLayer
370
13
48
1
60
0
100
AcDbMText
10
15.167275
20
-0.291663
30
0
210
0
220
0
230
1
1
\W0.8181;90,0%%d
40
3.5
41
0
44
1.084337
50
0
71
7
72
5
7
iso_b_vert
0
HATCH
5
10A
100
AcDbEntity
8
2
62
256
6
ByLayer
370
13
48
1
60
0
100
AcDbHatch
10
0
20
0
30
0
210
0
220
0
230
1
2
ANSI31
70
0
71
0
91
1
92
5
93
3
72
1
10
114.236430604616
20
10
11
114.697214346169
21
6.50000169255318
72
1
10
114.697214346169
20
6.50000169255318
11
113.775646863064
21
6.49999830744682
72
1
10
113.775646863064
20
6.49999830744682
11
114.236430604616
21
10
97
0
75
0
76
1
52
0
41
0.0062
77
0
78
1
53
45
43
0
44
0
45
-0.0139193969876572
46
0.0139193969876572
79
0
47
0
98
1
10
0
20
0
0
HATCH
5
10E
100
AcDbEntity
8
2
62
256
6
ByLayer
370
13
48
1
60
0
100
AcDbHatch
10
0
20
0
30
0
210
0
220
0
230
1
2
ANSI31
70
0
71
0
91
1
92
5
93
3
72
1
10
114.236430604616
20
-9.99999999999997
11
113.775646863064
21
-6.50000169255316
72
1
10
113.775646863064
20
-6.50000169255316
11
114.697214346169
21
-6.49999830744679
72
1
10
114.697214346169
20
-6.49999830744679
11
114.236430604616
21
-9.99999999999997
97
0
75
0
76
1
52
0
41
0.0062
77
0
78
1
53
45
43
0
44
0
45
-0.0139193969876572
46
0.0139193969876572
79
0
47
0
98
1
10
0
20
0
0
HATCH
5
114
100
AcDbEntity
8
SK2
62
256
6
ByLayer
370
13
48
1
60
0
100
AcDbHatch
10
0
20
0
30
0
210
0
220
0
230
1
2
ANSI31
70
0
71
0
91
1
92
5
93
3
72
1
10
-58.6251625675374
20
10
11
-58.1643788259847
21
6.50000169255318
72
1
10
-58.1643788259847
20
6.50000169255318
11
-59.0859463090902
21
6.49999830744682
72
1
10
-59.0859463090902
20
6.49999830744682
11
-58.6251625675374
21
10
97
0
75
0
76
1
52
0
41
0.0062
77
0
78
1
53
45
43
0
44
0
45
-0.0139193969876572
46
0.0139193969876572
79
0
47
0
98
1
10
0
20
0
0
HATCH
5
118
100
AcDbEntity
8
SK2
62
256
6
ByLayer
370
13
48
1
60
0
100
AcDbHatch
10
0
20
0
30
0
210
0
220
0
230
1
2
ANSI31
70
0
71
0
91
1
92
5
93
3
72
1
10
-58.6251625675374
20
-10
11
-59.0859463090902
21
-6.50000169255318
72
1
10
-59.0859463090902
20
-6.50000169255318
11
-58.1643788259847
21
-6.49999830744682
72
1
10
-58.1643788259847
20
-6.49999830744682
11
-58.6251625675374
21
-10
97
0
75
0
76
1
52
0
41
0.0062
77
0
78
1
53
45
43
0
44
0
45
-0.0139193969876572
46
0.0139193969876572
79
0
47
0
98
1
10
0
20
0
0
HATCH
5
11E
100
AcDbEntity
8
2
62
256
6
ByLayer
370
13
48
1
60
0
100
AcDbHatch
10
0
20
0
30
0
210
0
220
0
230
1
2
ANSI31
70
0
71
0
91
1
92
5
93
3
72
1
10
105.970081101161
20
9
11
106.430864842714
21
5.50000169255318
72
1
10
106.430864842714
20
5.50000169255318
11
105.509297359609
21
5.49999830744682
72
1
10
105.509297359609
20
5.49999830744682
11
105.970081101161
21
9
97
0
75
0
76
1
52
0
41
0.0062
77
0
78
1
53
45
43
0
44
0
45
-0.0139193969876572
46
0.0139193969876572
79
0
47
0
98
1
10
0
20
0
0
HATCH
5
122
100
AcDbEntity
8
2
62
256
6
ByLayer
370
13
48
1
60
0
100
AcDbHatch
10
0
20
0
30
0
210
0
220
0
230
1
2
ANSI31
70
0
71
0
91
1
92
5
93
3
72
1
10
105.970081101161
20
-9
11
105.509297359609
21
-5.50000169255318
72
1
10
105.509297359609
20
-5.50000169255318
11
106.430864842714
21
-5.49999830744682
72
1
10
106.430864842714
20
-5.49999830744682
11
105.970081101161
21
-9
97
0
75
0
76
1
52
0
41
0.0062
77
0
78
1
53
45
43
0
44
0
45
-0.0139193969876572
46
0.0139193969876572
79
0
47
0
98
1
10
0
20
0
0
HATCH
5
127
100
AcDbEntity
8
SK2
62
256
6
ByLayer
370
13
48
1
60
0
100
AcDbHatch
10
0
20
0
30
0
210
0
220
0
230
1
2
ANSI31
70
0
71
0
91
1
92
5
93
3
72
1
10
27.1276295196859
20
-17.1827704803141
11
24.4059760120319
21
-14.9344573364472
72
1
10
24.4059760120319
20
-14.9344573364472
11
25.0806184213316
21
-14.3066482528055
72
1
10
25.0806184213316
20
-14.3066482528055
11
27.1276295196859
21
-17.1827704803141
97
0
75
0
76
1
52
0
41
0.0062
77
0
78
1
53
45
43
0
44
0
45
-0.0139193969876572
46
0.0139193969876572
79
0
47
0
98
1
10
0
20
0
0
HATCH
5
12B
100
AcDbEntity
8
SK2
62
256
6
ByLayer
370
13
48
1
60
0
100
AcDbHatch
10
0
20
0
30
0
210
0
220
0
230
1
2
ANSI31
70
0
71
0
91
1
92
5
93
3
72
1
10
27.1276295196859
20
17.1827704803141
11
25.0806207273941
21
14.3066507309139
72
1
10
25.0806207273941
20
14.3066507309139
11
24.4059737059694
21
14.9344548583388
72
1
10
24.4059737059694
20
14.9344548583388
11
27.1276295196859
21
17.1827704803141
97
0
75
0
76
1
52
0
41
0.0062
77
0
78
1
53
45
43
0
44
0
45
-0.0139193969876572
46
0.0139193969876572
79
0
47
0
98
1
10
0
20
0
0
DIMENSION
5
12D
100
AcDbEntity
8
SK2
62
256
6
ByLayer
370
13
48
1
60
0
100
AcDbDimension
2
_U0
10
89.3104
20
-21.802503
30
0
11
44.6552
21
-21.802503
31
0
70
32
71
1
72
1
41
1
210
0
220
0
230
1
3
Standard
100
AcDbAlignedDimension
13
0
23
0
33
0
14
89.3104
24
-9
34
0
50
0
100
AcDbRotatedDimension
1001
ACAD
1000
DSTYLE
1002
{
1070
   371
1070
    13
1070
   372
1070
    13
1070
   170
1070
     0
1070
   144
1040
1.0
1070
   277
1070
     2
1070
   278
1070
    44
1070
   146
1040
1.0
1070
   345
1005
16
1070
   347
1005
16
1070
   346
1005
16
1070
   344
1005
0
1070
   343
1005
0
1070
   172
1070
     1
1070
    76
1070
     0
1070
    75
1070
     0
1070
   282
1070
     0
1070
   281
1070
     0
1070
    71
1070
     0
1070
    74
1070
     0
1070
   279
1070
     0
1070
   173
1070
     1
1070
   340
1005
102
1070
   271
1070
     2
1070
   272
1070
     2
1070
    77
1070
     1
1070
    73
1070
     1
1070
   171
1070
     3
1070
   274
1070
     4
1070
   177
1070
    35
1070
   176
1070
    35
1070
   178
1070
    35
1070
    48
1040
-0.1
1070
    41
1040
3.5
1070
   147
1040
1.75
1070
    42
1040
1.5875
1070
    44
1040
2.0
1070
   140
1040
3.5
1002
}
1001
ACAD_DSTYLE_DIM_LINETYPE
1070
   380
1005
16
1001
ACAD_DSTYLE_DIM_EXT1_LINETYPE
1070
   381
1005
16
1001
ACAD_DSTYLE_DIM_EXT2_LINETYPE
1070
   382
1005
16
0
DIMENSION
5
146
100
AcDbEntity
8
SK2
62
256
6
ByLayer
370
13
48
1
60
0
100
AcDbDimension
2
_U1
10
92
20
-41.192985
30
0
11
21
21
-41.192985
31
0
70
32
71
1
72
1
41
1
210
0
220
0
230
1
3
Standard
100
AcDbAlignedDimension
13
-50
23
-10
33
0
14
92
24
0
34
0
50
0
100
AcDbRotatedDimension
1001
ACAD
1000
DSTYLE
1002
{
1070
   371
1070
    13
1070
   372
1070
    13
1070
   170
1070
     0
1070
   144
1040
1.0
1070
   277
1070
     2
1070
   278
1070
    44
1070
   146
1040
1.0
1070
   345
1005
16
1070
   347
1005
16
1070
   346
1005
16
1070
   344
1005
0
1070
   343
1005
0
1070
   172
1070
     1
1070
    76
1070
     0
1070
    75
1070
     0
1070
   282
1070
     0
1070
   281
1070
     0
1070
    71
1070
     0
1070
    74
1070
     0
1070
   279
1070
     0
1070
   173
1070
     1
1070
   340
1005
102
1070
   271
1070
     2
1070
   272
1070
     2
1070
    77
1070
     1
1070
    73
1070
     1
1070
   171
1070
     3
1070
   274
1070
     4
1070
   177
1070
    35
1070
   176
1070
    35
1070
   178
1070
    35
1070
    48
1040
-0.1
1070
    41
1040
3.5
1070
   147
1040
1.75
1070
    42
1040
1.5875
1070
    44
1040
2.0
1070
   140
1040
3.5
1002
}
1001
ACAD_DSTYLE_DIM_LINETYPE
1070
   380
1005
16
1001
ACAD_DSTYLE_DIM_EXT1_LINETYPE
1070
   381
1005
16
1001
ACAD_DSTYLE_DIM_EXT2_LINETYPE
1070
   382
1005
16
0
DIMENSION
5
15E
100
AcDbEntity
8
SK2
62
256
6
ByLayer
370
13
48
1
60
0
100
AcDbDimension
2
_U2
10
92
20
20.609119
30
0
11
63.155
21
20.609119
31
0
70
32
71
1
72
1
41
1
210
0
220
0
230
1
3
Standard
100
AcDbAlignedDimension
13
34.31
23
10
33
0
14
92
24
0
34
0
50
0
100
AcDbRotatedDimension
1001
ACAD
1000
DSTYLE
1002
{
1070
   371
1070
    13
1070
   372
1070
    13
1070
   170
1070
     0
1070
   144
1040
1.0
1070
   277
1070
     2
1070
   278
1070
    44
1070
   146
1040
1.0
1070
   345
1005
16
1070
   347
1005
16
1070
   346
1005
16
1070
   344
1005
0
1070
   343
1005
0
1070
   172
1070
     1
1070
    76
1070
     0
1070
    75
1070
     0
1070
   282
1070
     0
1070
   281
1070
     0
1070
    71
1070
     0
1070
    74
1070
     0
1070
   279
1070
     0
1070
   173
1070
     1
1070
   340
1005
102
1070
   271
1070
     2
1070
   272
1070
     2
1070
    77
1070
     1
1070
    73
1070
     1
1070
   171
1070
     3
1070
   274
1070
     4
1070
   177
1070
    35
1070
   176
1070
    35
1070
   178
1070
    35
1070
    48
1040
-0.1
1070
    41
1040
3.5
1070
   147
1040
1.75
1070
    42
1040
1.5875
1070
    44
1040
2.0
1070
   140
1040
3.5
1002
}
1001
ACAD_DSTYLE_DIM_LINETYPE
1070
   380
1005
16
1001
ACAD_DSTYLE_DIM_EXT1_LINETYPE
1070
   381
1005
16
1001
ACAD_DSTYLE_DIM_EXT2_LINETYPE
1070
   382
1005
16
0
DIMENSION
5
176
100
AcDbEntity
8
SK2
62
256
6
ByLayer
370
13
48
1
60
0
100
AcDbDimension
2
_U3
10
89.3104
20
-21.802503
30
0
11
109.5
21
-21.802503
31
0
70
32
71
1
72
1
41
1
210
0
220
0
230
1
3
Standard
100
AcDbAlignedDimension
13
92
23
0
33
0
14
89.3104
24
-9
34
0
50
0
100
AcDbRotatedDimension
1001
ACAD
1000
DSTYLE
1002
{
1070
   371
1070
    13
1070
   372
1070
    13
1070
   170
1070
     0
1070
   144
1040
1.0
1070
   277
1070
     2
1070
   278
1070
    44
1070
   146
1040
1.0
1070
   345
1005
16
1070
   347
1005
16
1070
   346
1005
16
1070
   344
1005
0
1070
   343
1005
0
1070
   172
1070
     1
1070
    76
1070
     0
1070
    75
1070
     0
1070
   282
1070
     0
1070
   281
1070
     0
1070
    71
1070
     0
1070
    74
1070
     0
1070
   279
1070
     0
1070
   173
1070
     1
1070
   340
1005
102
1070
   271
1070
     2
1070
   272
1070
     2
1070
    77
1070
     1
1070
    73
1070
     1
1070
   171
1070
     3
1070
   274
1070
     4
1070
   177
1070
    35
1070
   176
1070
    35
1070
   178
1070
    35
1070
    48
1040
-0.1
1070
    41
1040
3.5
1070
   147
1040
1.75
1070
    42
1040
1.5875
1070
    44
1040
2.0
1070
   140
1040
3.5
1002
}
1001
ACAD_DSTYLE_DIM_LINETYPE
1070
   380
1005
16
1001
ACAD_DSTYLE_DIM_EXT1_LINETYPE
1070
   381
1005
16
1001
ACAD_DSTYLE_DIM_EXT2_LINETYPE
1070
   382
1005
16
0
DIMENSION
5
190
100
AcDbEntity
8
SK2
62
256
6
ByLayer
370
13
48
1
60
0
100
AcDbDimension
2
_U4
10
35.3104
20
13.135371
30
0
11
62.3104
21
13.135371
31
0
70
32
71
1
72
1
41
1
210
0
220
0
230
1
3
Standard
100
AcDbAlignedDimension
13
89.3104
23
9
33
0
14
35.3104
24
9
34
0
50
0
100
AcDbRotatedDimension
1001
ACAD
1000
DSTYLE
1002
{
1070
   371
1070
    13
1070
   372
1070
    13
1070
   170
1070
     0
1070
   144
1040
1.0
1070
   277
1070
     2
1070
   278
1070
    44
1070
   146
1040
1.0
1070
   345
1005
16
1070
   347
1005
16
1070
   346
1005
16
1070
   344
1005
0
1070
   343
1005
0
1070
   172
1070
     1
1070
    76
1070
     0
1070
    75
1070
     0
1070
   282
1070
     0
1070
   281
1070
     0
1070
    71
1070
     0
1070
    74
1070
     0
1070
   279
1070
     0
1070
   173
1070
     1
1070
   340
1005
102
1070
   271
1070
     2
1070
   272
1070
     2
1070
    77
1070
     1
1070
    73
1070
     1
1070
   171
1070
     3
1070
   274
1070
     4
1070
   177
1070
    35
1070
   176
1070
    35
1070
   178
1070
    35
1070
    48
1040
-0.1
1070
    41
1040
3.5
1070
   147
1040
1.75
1070
    42
1040
1.5875
1070
    44
1040
2.0
1070
   140
1040
3.5
1002
}
1001
ACAD_DSTYLE_DIM_LINETYPE
1070
   380
1005
16
1001
ACAD_DSTYLE_DIM_EXT1_LINETYPE
1070
   381
1005
16
1001
ACAD_DSTYLE_DIM_EXT2_LINETYPE
1070
   382
1005
16
0
DIMENSION
5
1A8
100
AcDbEntity
8
SK2
62
256
6
ByLayer
370
13
48
1
60
0
100
AcDbDimension
2
_U5
10
89.3104
20
-30.690158
30
0
11
19.6552
21
-30.690158
31
0
70
32
71
1
72
1
41
1
210
0
220
0
230
1
3
Standard
100
AcDbAlignedDimension
13
-50
23
-10
33
0
14
89.3104
24
-9
34
0
50
0
100
AcDbRotatedDimension
1001
ACAD
1000
DSTYLE
1002
{
1070
   371
1070
    13
1070
   372
1070
    13
1070
   170
1070
     0
1070
   144
1040
1.0
1070
   277
1070
     2
1070
   278
1070
    44
1070
   146
1040
1.0
1070
   345
1005
16
1070
   347
1005
16
1070
   346
1005
16
1070
   344
1005
0
1070
   343
1005
0
1070
   172
1070
     1
1070
    76
1070
     0
1070
    75
1070
     0
1070
   282
1070
     0
1070
   281
1070
     0
1070
    71
1070
     0
1070
    74
1070
     0
1070
   279
1070
     0
1070
   173
1070
     1
1070
   340
1005
102
1070
   271
1070
     2
1070
   272
1070
     2
1070
    77
1070
     1
1070
    73
1070
     1
1070
   171
1070
     3
1070
   274
1070
     4
1070
   177
1070
    35
1070
   176
1070
    35
1070
   178
1070
    35
1070
    48
1040
-0.1
1070
    41
1040
3.5
1070
   147
1040
1.75
1070
    42
1040
1.5875
1070
    44
1040
2.0
1070
   140
1040
3.5
1002
}
1001
ACAD_DSTYLE_DIM_LINETYPE
1070
   380
1005
16
1001
ACAD_DSTYLE_DIM_EXT1_LINETYPE
1070
   381
1005
16
1001
ACAD_DSTYLE_DIM_EXT2_LINETYPE
1070
   382
1005
16
0
ENDSEC
0
SECTION
2
OBJECTS
0
DICTIONARY
5
230
330
0
100
AcDbDictionary
280
0
281
1
3
ACAD_GROUP
350
231
3
ACAD_MLINESTYLE
350
232
0
DICTIONARY
5
231
330
0
100
AcDbDictionary
280
0
281
1
0
DICTIONARY
5
232
330
0
100
AcDbDictionary
280
0
281
1
3
Standard
350
18
0
MLINESTYLE
5
18
330
232
100
AcDbMlineStyle
2
Standard
70
0
3

62
256
51
90
52
90
71
2
49
-0.5
62
256
6
ByLayer
49
0.5
62
256
6
ByLayer
0
RASTERVARIABLES
5
21e
330

100
AcDbRasterVariables
90
0
70
1
71
1
72
1
0
ENDSEC
0
EOF
