0
SECTION
2
HEADER
9
$ACADVER
1
AC1015
9
$DWGCODEPAGE
3
ANSI_1252
9
$HANDSEED
5
243
9
$ANGBASE
50
0
9
$ANGDIR
70
0
9
$ATTMODE
70
1
9
$AUNITS
70
0
9
$AUPREC
70
0
9
$CECOLOR
62
256
9
$CELTSCALE
40
1
9
$CELTYPE
6
ByLayer
9
$CELWEIGHT
370
18
9
$CLAYER
8
0
9
$CMLJUST
70
0
9
$CMLSCALE
40
1
9
$CMLSTYLE
2
Standard
9
$DIMSTYLE
2
Standard
9
$TEXTSIZE
40
0.2
9
$TEXTSTYLE
7
Standard
9
$LUNITS
70
2
9
$LUPREC
70
4
9
$EXTNAMES
290
1
9
$INSUNITS
70
4
9
$LTSCALE
40
1
9
$LWDISPLAY
290
1
9
$PDMODE
70
0
9
$PDSIZE
40
0
9
$PLINEGEN
70
0
0
ENDSEC
0
SECTION
2
CLASSES
0
CLASS
1
RASTERVARIABLES
2
AcDbRasterVariables
3
ISM
90
0
280
0
281
0
0
ENDSEC
0
SECTION
2
TABLES
0
TABLE
2
VPORT
5
239
100
AcDbSymbolTable
0
VPORT
5
1
100
AcDbSymbolTableRecord
100
AcDbViewportTableRecord
2
*Active
70
0
10
0
20
0
11
1
21
1
12
-1
22
1
13
0
23
0
14
0.5
24
0.5
15
10
25
10
16
0
26
0
36
1
17
0
27
0
37
0
0
ENDTAB
0
TABLE
2
LTYPE
5
23a
100
AcDbSymbolTable
0
LTYPE
5
14
100
AcDbSymbolTableRecord
100
AcDbLinetypeTableRecord
70
0
2
ByBlock
3

72
65
73
0
40
0
0
LTYPE
5
15
100
AcDbSymbolTableRecord
100
AcDbLinetypeTableRecord
70
0
2
ByLayer
3

72
65
73
0
40
0
0
LTYPE
5
16
100
AcDbSymbolTableRecord
100
AcDbLinetypeTableRecord
70
0
2
Continuous
3
Solid line
72
65
73
0
40
0
0
LTYPE
5
6E
100
AcDbSymbolTableRecord
100
AcDbLinetypeTableRecord
70
0
2
CENTER
3
____ _ ____ _ ____ _ ____
72
65
73
4
40
47.5
49
22
74
0
49
-8.5
74
0
49
8.5
74
0
49
-8.5
74
0
0
LTYPE
5
6F
100
AcDbSymbolTableRecord
100
AcDbLinetypeTableRecord
70
0
2
DASHED
3
__ __ __ __ __ __ __ __ __
72
65
73
2
40
25.72
49
12.86
74
0
49
-12.86
74
0
0
ENDTAB
0
TABLE
2
LAYER
5
23b
100
AcDbSymbolTable
0
LAYER
5
10
100
AcDbSymbolTableRecord
100
AcDbLayerTableRecord
2
0
70
0
62
7
6
Continuous
290
1
370
-3
390
0
0
LAYER
5
71
100
AcDbSymbolTableRecord
100
AcDbLayerTableRecord
2
80
70
0
62
-6
6
Continuous
290
1
370
-3
390
0
0
LAYER
5
73
100
AcDbSymbolTableRecord
100
AcDbLayerTableRecord
2
81
70
0
62
-3
6
Continuous
290
1
370
-3
390
0
0
LAYER
5
75
100
AcDbSymbolTableRecord
100
AcDbLayerTableRecord
2
1
70
0
62
4
6
Continuous
290
1
370
-3
390
0
0
LAYER
5
8E
100
AcDbSymbolTableRecord
100
AcDbLayerTableRecord
2
4
70
0
62
-2
6
CENTER
290
1
370
-3
390
0
0
LAYER
5
99
100
AcDbSymbolTableRecord
100
AcDbLayerTableRecord
2
2
70
0
62
7
6
Continuous
290
1
370
-3
390
0
0
LAYER
5
136
100
AcDbSymbolTableRecord
100
AcDbLayerTableRecord
2
Defpoints
70
0
62
7
6
Continuous
290
0
370
-3
390
0
0
LAYER
5
225
100
AcDbSymbolTableRecord
100
AcDbLayerTableRecord
2
SK1
70
0
62
4
6
Continuous
290
1
370
-3
390
0
0
LAYER
5
226
100
AcDbSymbolTableRecord
100
AcDbLayerTableRecord
2
SK4
70
0
62
2
6
CENTER
290
1
370
-3
390
0
0
LAYER
5
227
100
AcDbSymbolTableRecord
100
AcDbLayerTableRecord
2
SK2
70
0
62
7
6
Continuous
290
1
370
-3
390
0
0
LAYER
5
228
100
AcDbSymbolTableRecord
100
AcDbLayerTableRecord
2
SK6
70
0
62
5
6
Continuous
290
1
370
-3
390
0
0
ENDTAB
0
TABLE
2
STYLE
5
23c
100
AcDbSymbolTable
0
STYLE
5
11
100
AcDbSymbolTableRecord
100
AcDbTextStyleTableRecord
2
Standard
3
txt
70
0
71
0
40
0
41
1
42
0
50
0
0
STYLE
5
108
100
AcDbSymbolTableRecord
100
AcDbTextStyleTableRecord
2
iso_b_vert
3
simplex.shx
70
0
71
0
40
0
41
1
42
0
50
0
0
STYLE
5
109
100
AcDbSymbolTableRecord
100
AcDbTextStyleTableRecord
2
DWGDirectTextStyle
3
simplex
70
0
71
0
40
0
41
1
42
0
50
0
0
ENDTAB
0
TABLE
2
DIMSTYLE
5
23d
100
AcDbSymbolTable
100
AcDbDimStyleTable
0
DIMSTYLE
105
27
100
AcDbSymbolTableRecord
100
AcDbDimStyleTableRecord
2
Standard
70
0
3
<>
41
0.18
42
0.0625
44
0.18
140
0.18
147
0.09
73
0
74
0
77
1
271
2
275
0
278
52
280
0
340
11
0
ENDTAB
0
TABLE
2
VIEW
5
23e
100
AcDbSymbolTable
0
ENDTAB
0
TABLE
2
UCS
5
23f
100
AcDbSymbolTable
0
ENDTAB
0
TABLE
2
APPID
5
240
100
AcDbSymbolTable
0
APPID
5
12
100
AcDbSymbolTableRecord
100
AcDbRegAppTableRecord
2
ACAD
70
0
0
APPID
5
132
100
AcDbSymbolTableRecord
100
AcDbRegAppTableRecord
2
ACAD_DSTYLE_DIMBREAK
70
0
0
APPID
5
1E4
100
AcDbSymbolTableRecord
100
AcDbRegAppTableRecord
2
ACAD_DSTYLE_DIM_LINETYPE
70
0
0
APPID
5
1E5
100
AcDbSymbolTableRecord
100
AcDbRegAppTableRecord
2
ACAD_DSTYLE_DIM_EXT1_LINETYPE
70
0
0
APPID
5
1E6
100
AcDbSymbolTableRecord
100
AcDbRegAppTableRecord
2
ACAD_DSTYLE_DIM_EXT2_LINETYPE
70
0
0
APPID
5
221
100
AcDbSymbolTableRecord
100
AcDbRegAppTableRecord
2
ACAD_MLEADERVER
70
0
0
ENDTAB
0
TABLE
2
BLOCK_RECORD
5
241
100
AcDbSymbolTable
0
BLOCK_RECORD
5
1F
100
AcDbSymbolTableRecord
100
AcDbBlockTableRecord
2
*Model_Space
340
0
70
0
0
BLOCK_RECORD
5
1B
100
AcDbSymbolTableRecord
100
AcDbBlockTableRecord
2
*Paper_Space
340
0
70
0
0
BLOCK_RECORD
5
23
100
AcDbSymbolTableRecord
100
AcDbBlockTableRecord
2
*Paper_Space0
340
0
70
0
0
BLOCK_RECORD
5
137
100
AcDbSymbolTableRecord
100
AcDbBlockTableRecord
2
*D1
340
0
70
0
0
BLOCK_RECORD
5
143
100
AcDbSymbolTableRecord
100
AcDbBlockTableRecord
2
_U0
340
0
70
0
0
BLOCK_RECORD
5
14F
100
AcDbSymbolTableRecord
100
AcDbBlockTableRecord
2
*D3
340
0
70
0
0
BLOCK_RECORD
5
15B
100
AcDbSymbolTableRecord
100
AcDbBlockTableRecord
2
_U1
340
0
70
0
0
BLOCK_RECORD
5
167
100
AcDbSymbolTableRecord
100
AcDbBlockTableRecord
2
*D5
340
0
70
0
0
BLOCK_RECORD
5
173
100
AcDbSymbolTableRecord
100
AcDbBlockTableRecord
2
_U2
340
0
70
0
0
BLOCK_RECORD
5
17F
100
AcDbSymbolTableRecord
100
AcDbBlockTableRecord
2
*D7
340
0
70
0
0
BLOCK_RECORD
5
18D
100
AcDbSymbolTableRecord
100
AcDbBlockTableRecord
2
_U3
340
0
70
0
0
BLOCK_RECORD
5
199
100
AcDbSymbolTableRecord
100
AcDbBlockTableRecord
2
*D9
340
0
70
0
0
BLOCK_RECORD
5
1A5
100
AcDbSymbolTableRecord
100
AcDbBlockTableRecord
2
_U4
340
0
70
0
0
BLOCK_RECORD
5
1B1
100
AcDbSymbolTableRecord
100
AcDbBlockTableRecord
2
*D11
340
0
70
0
0
BLOCK_RECORD
5
1BD
100
AcDbSymbolTableRecord
100
AcDbBlockTableRecord
2
_U5
340
0
70
0
0
ENDTAB
0
ENDSEC
0
SECTION
2
BLOCKS
0
BLOCK
5
20
100
AcDbEntity
8
0
100
AcDbBlockBegin
2
*Model_Space
70
0
10
0
20
0
30
0
3
*Model_Space
0
ENDBLK
5
21
100
AcDbEntity
8
0
100
AcDbBlockEnd
0
BLOCK
5
1C
100
AcDbEntity
8
0
100
AcDbBlockBegin
2
*Paper_Space
70
0
10
0
20
0
30
0
3
*Paper_Space
0
ENDBLK
5
1D
100
AcDbEntity
8
0
100
AcDbBlockEnd
0
BLOCK
5
24
100
AcDbEntity
8
0
100
AcDbBlockBegin
2
*Paper_Space0
70
0
10
0
20
0
30
0
3
*Paper_Space0
0
ENDBLK
5
25
100
AcDbEntity
8
0
100
AcDbBlockEnd
0
BLOCK
5
138
100
AcDbEntity
8
0
100
AcDbBlockBegin
2
*D1
70
1
10
0
20
0
30
0
3
*D1
0
LINE
5
13A
100
AcDbEntity
8
0
62
256
6
ByLayer
370
-2
48
1
60
0
100
AcDbLine
10
0
20
-1.5875
30
0
11
0
21
-19.427503
31
0
39
0
210
0
220
0
230
1
0
LINE
5
13B
100
AcDbEntity
8
0
62
256
6
ByLayer
370
-2
48
1
60
0
100
AcDbLine
10
60.629
20
-6.2125
30
0
11
60.629
21
-19.427503
31
0
39
0
210
0
220
0
230
1
0
LINE
5
13C
100
AcDbEntity
8
0
62
256
6
ByLayer
370
-2
48
1
60
0
100
AcDbLine
10
3.5
20
-17.427503
30
0
11
57.129
21
-17.427503
31
0
39
0
210
0
220
0
230
1
0
SOLID
5
13D
100
AcDbEntity
8
0
62
256
6
ByLayer
370
-1
48
1
60
0
100
AcDbTrace
10
3.5
20
-16.84417
30
0
11
3.5
21
-18.010837
31
0
12
0
22
-17.427503
32
0
13
0
23
-17.427503
33
0
39
0
210
0
220
0
230
1
0
SOLID
5
13E
100
AcDbEntity
8
0
62
256
6
ByLayer
370
-1
48
1
60
0
100
AcDbTrace
10
57.129
20
-18.010837
30
0
11
57.129
21
-16.84417
31
0
12
60.629
22
-17.427503
32
0
13
60.629
23
-17.427503
33
0
39
0
210
0
220
0
230
1
0
MTEXT
5
13F
100
AcDbEntity
8
0
62
256
6
ByLayer
370
18
48
1
60
0
100
AcDbMText
10
30.3145
20
-10.427503
30
0
210
0
220
0
230
1
1
\A1;60.63
40
3.5
41
0
44
1
50
0
71
5
72
5
7
iso_b_vert
0
POINT
5
140
100
AcDbEntity
8
Defpoints
62
0
6
ByLayer
370
-1
48
1
60
0
100
AcDbPoint
10
0
20
0
30
0
39
0
210
0
220
0
230
1
50
360
0
POINT
5
141
100
AcDbEntity
8
Defpoints
62
0
6
ByLayer
370
-1
48
1
60
0
100
AcDbPoint
10
60.629
20
-4.625
30
0
39
0
210
0
220
0
230
1
50
360
0
POINT
5
142
100
AcDbEntity
8
Defpoints
62
0
6
ByLayer
370
-1
48
1
60
0
100
AcDbPoint
10
60.629
20
-17.427503
30
0
39
0
210
0
220
0
230
1
50
360
0
ENDBLK
5
139
100
AcDbEntity
8
0
100
AcDbBlockEnd
0
BLOCK
5
14A
100
AcDbEntity
8
0
100
AcDbBlockBegin
2
_U0
70
0
10
0
20
0
30
0
3
_U0
0
MTEXT
5
144
100
AcDbEntity
8
SK2
62
256
6
ByLayer
370
13
48
1
60
0
100
AcDbMText
10
25.177201
20
-16.39487
30
0
210
0
220
0
230
1
1
\W0.7317;60,63
40
3.5
41
0
44
1.084337
50
0
71
7
72
5
7
iso_b_vert
0
LINE
5
145
100
AcDbEntity
8
SK2
62
256
6
ByLayer
370
13
48
1
60
0
100
AcDbLine
10
0
20
-1.5875
30
0
11
0
21
-19.427503
31
0
39
0
210
0
220
0
230
1
0
LINE
5
146
100
AcDbEntity
8
SK2
62
256
6
ByLayer
370
13
48
1
60
0
100
AcDbLine
10
60.629
20
-6.2125
30
0
11
60.629
21
-19.427503
31
0
39
0
210
0
220
0
230
1
0
LINE
5
147
100
AcDbEntity
8
SK2
62
256
6
ByLayer
370
13
48
1
60
0
100
AcDbLine
10
0
20
-17.427503
30
0
11
60.629
21
-17.427503
31
0
39
0
210
0
220
0
230
1
0
SOLID
5
148
100
AcDbEntity
8
SK2
62
256
6
ByLayer
370
18
48
1
60
0
100
AcDbTrace
10
0
20
-17.427503
30
0
11
3.499998
21
-16.966719
31
0
12
3.500002
22
-17.888287
32
0
13
3.500002
23
-17.888287
33
0
39
0
210
0
220
0
230
1
0
SOLID
5
149
100
AcDbEntity
8
SK2
62
256
6
ByLayer
370
18
48
1
60
0
100
AcDbTrace
10
60.629
20
-17.427503
30
0
11
57.129002
21
-17.888287
31
0
12
57.128998
22
-16.966719
32
0
13
57.128998
23
-16.966719
33
0
39
0
210
0
220
0
230
1
0
ENDBLK
5
14B
100
AcDbEntity
8
0
100
AcDbBlockEnd
0
BLOCK
5
150
100
AcDbEntity
8
0
100
AcDbBlockBegin
2
*D3
70
1
10
0
20
0
30
0
3
*D3
0
LINE
5
152
100
AcDbEntity
8
0
62
256
6
ByLayer
370
-2
48
1
60
0
100
AcDbLine
10
-45
20
-8.5875
30
0
11
-45
21
-40.192985
31
0
39
0
210
0
220
0
230
1
0
LINE
5
153
100
AcDbEntity
8
0
62
256
6
ByLayer
370
-2
48
1
60
0
100
AcDbLine
10
62
20
-1.5875
30
0
11
62
21
-40.192985
31
0
39
0
210
0
220
0
230
1
0
LINE
5
154
100
AcDbEntity
8
0
62
256
6
ByLayer
370
-2
48
1
60
0
100
AcDbLine
10
-41.5
20
-38.192985
30
0
11
58.5
21
-38.192985
31
0
39
0
210
0
220
0
230
1
0
SOLID
5
155
100
AcDbEntity
8
0
62
256
6
ByLayer
370
-1
48
1
60
0
100
AcDbTrace
10
-41.5
20
-37.609652
30
0
11
-41.5
21
-38.776319
31
0
12
-45
22
-38.192985
32
0
13
-45
23
-38.192985
33
0
39
0
210
0
220
0
230
1
0
SOLID
5
156
100
AcDbEntity
8
0
62
256
6
ByLayer
370
-1
48
1
60
0
100
AcDbTrace
10
58.5
20
-38.776319
30
0
11
58.5
21
-37.609652
31
0
12
62
22
-38.192985
32
0
13
62
23
-38.192985
33
0
39
0
210
0
220
0
230
1
0
MTEXT
5
157
100
AcDbEntity
8
0
62
256
6
ByLayer
370
18
48
1
60
0
100
AcDbMText
10
8.5
20
-31.192985
30
0
210
0
220
0
230
1
1
\A1;107.00
40
3.5
41
0
44
1
50
0
71
5
72
5
7
iso_b_vert
0
POINT
5
158
100
AcDbEntity
8
Defpoints
62
0
6
ByLayer
370
-1
48
1
60
0
100
AcDbPoint
10
-45
20
-7
30
0
39
0
210
0
220
0
230
1
50
360
0
POINT
5
159
100
AcDbEntity
8
Defpoints
62
0
6
ByLayer
370
-1
48
1
60
0
100
AcDbPoint
10
62
20
0
30
0
39
0
210
0
220
0
230
1
50
360
0
POINT
5
15A
100
AcDbEntity
8
Defpoints
62
0
6
ByLayer
370
-1
48
1
60
0
100
AcDbPoint
10
62
20
-38.192985
30
0
39
0
210
0
220
0
230
1
50
360
0
ENDBLK
5
151
100
AcDbEntity
8
0
100
AcDbBlockEnd
0
BLOCK
5
162
100
AcDbEntity
8
0
100
AcDbBlockBegin
2
_U1
70
0
10
0
20
0
30
0
3
_U1
0
MTEXT
5
15C
100
AcDbEntity
8
SK2
62
256
6
ByLayer
370
13
48
1
60
0
100
AcDbMText
10
2.492401
20
-37.160352
30
0
210
0
220
0
230
1
1
\W0.6930;107,00
40
3.5
41
0
44
1.084337
50
0
71
7
72
5
7
iso_b_vert
0
LINE
5
15D
100
AcDbEntity
8
SK2
62
256
6
ByLayer
370
13
48
1
60
0
100
AcDbLine
10
-45
20
-8.5875
30
0
11
-45
21
-40.192985
31
0
39
0
210
0
220
0
230
1
0
LINE
5
15E
100
AcDbEntity
8
SK2
62
256
6
ByLayer
370
13
48
1
60
0
100
AcDbLine
10
62
20
-1.5875
30
0
11
62
21
-40.192985
31
0
39
0
210
0
220
0
230
1
0
LINE
5
15F
100
AcDbEntity
8
SK2
62
256
6
ByLayer
370
13
48
1
60
0
100
AcDbLine
10
-45
20
-38.192985
30
0
11
62
21
-38.192985
31
0
39
0
210
0
220
0
230
1
0
SOLID
5
160
100
AcDbEntity
8
SK2
62
256
6
ByLayer
370
18
48
1
60
0
100
AcDbTrace
10
-45
20
-38.192985
30
0
11
-41.500002
21
-37.732202
31
0
12
-41.499998
22
-38.653769
32
0
13
-41.499998
23
-38.653769
33
0
39
0
210
0
220
0
230
1
0
SOLID
5
161
100
AcDbEntity
8
SK2
62
256
6
ByLayer
370
18
48
1
60
0
100
AcDbTrace
10
62
20
-38.192985
30
0
11
58.500002
21
-38.653769
31
0
12
58.499998
22
-37.732202
32
0
13
58.499998
23
-37.732202
33
0
39
0
210
0
220
0
230
1
0
ENDBLK
5
163
100
AcDbEntity
8
0
100
AcDbBlockEnd
0
BLOCK
5
168
100
AcDbEntity
8
0
100
AcDbBlockBegin
2
*D5
70
1
10
0
20
0
30
0
3
*D5
0
LINE
5
16A
100
AcDbEntity
8
0
62
256
6
ByLayer
370
-2
48
1
60
0
100
AcDbLine
10
31.26
20
7.8325
30
0
11
31.26
21
18.234119
31
0
39
0
210
0
220
0
230
1
0
LINE
5
16B
100
AcDbEntity
8
0
62
256
6
ByLayer
370
-2
48
1
60
0
100
AcDbLine
10
62
20
1.5875
30
0
11
62
21
18.234119
31
0
39
0
210
0
220
0
230
1
0
LINE
5
16C
100
AcDbEntity
8
0
62
256
6
ByLayer
370
-2
48
1
60
0
100
AcDbLine
10
34.76
20
16.234119
30
0
11
58.5
21
16.234119
31
0
39
0
210
0
220
0
230
1
0
SOLID
5
16D
100
AcDbEntity
8
0
62
256
6
ByLayer
370
-1
48
1
60
0
100
AcDbTrace
10
34.76
20
16.817453
30
0
11
34.76
21
15.650786
31
0
12
31.26
22
16.234119
32
0
13
31.26
23
16.234119
33
0
39
0
210
0
220
0
230
1
0
SOLID
5
16E
100
AcDbEntity
8
0
62
256
6
ByLayer
370
-1
48
1
60
0
100
AcDbTrace
10
58.5
20
15.650786
30
0
11
58.5
21
16.817453
31
0
12
62
22
16.234119
32
0
13
62
23
16.234119
33
0
39
0
210
0
220
0
230
1
0
MTEXT
5
16F
100
AcDbEntity
8
0
62
256
6
ByLayer
370
18
48
1
60
0
100
AcDbMText
10
46.63
20
23.234119
30
0
210
0
220
0
230
1
1
\A1;30.74
40
3.5
41
0
44
1
50
0
71
5
72
5
7
iso_b_vert
0
POINT
5
170
100
AcDbEntity
8
Defpoints
62
0
6
ByLayer
370
-1
48
1
60
0
100
AcDbPoint
10
31.26
20
6.245
30
0
39
0
210
0
220
0
230
1
50
360
0
POINT
5
171
100
AcDbEntity
8
Defpoints
62
0
6
ByLayer
370
-1
48
1
60
0
100
AcDbPoint
10
62
20
0
30
0
39
0
210
0
220
0
230
1
50
360
0
POINT
5
172
100
AcDbEntity
8
Defpoints
62
0
6
ByLayer
370
-1
48
1
60
0
100
AcDbPoint
10
62
20
16.234119
30
0
39
0
210
0
220
0
230
1
50
360
0
ENDBLK
5
169
100
AcDbEntity
8
0
100
AcDbBlockEnd
0
BLOCK
5
17A
100
AcDbEntity
8
0
100
AcDbBlockBegin
2
_U2
70
0
10
0
20
0
30
0
3
_U2
0
MTEXT
5
174
100
AcDbEntity
8
SK2
62
256
6
ByLayer
370
13
48
1
60
0
100
AcDbMText
10
41.308435
20
17.266753
30
0
210
0
220
0
230
1
1
\W0.7495;30,74
40
3.5
41
0
44
1.084337
50
0
71
7
72
5
7
iso_b_vert
0
LINE
5
175
100
AcDbEntity
8
SK2
62
256
6
ByLayer
370
13
48
1
60
0
100
AcDbLine
10
31.26
20
7.8325
30
0
11
31.26
21
18.234119
31
0
39
0
210
0
220
0
230
1
0
LINE
5
176
100
AcDbEntity
8
SK2
62
256
6
ByLayer
370
13
48
1
60
0
100
AcDbLine
10
62
20
1.5875
30
0
11
62
21
18.234119
31
0
39
0
210
0
220
0
230
1
0
LINE
5
177
100
AcDbEntity
8
SK2
62
256
6
ByLayer
370
13
48
1
60
0
100
AcDbLine
10
31.26
20
16.234119
30
0
11
62
21
16.234119
31
0
39
0
210
0
220
0
230
1
0
SOLID
5
178
100
AcDbEntity
8
SK2
62
256
6
ByLayer
370
18
48
1
60
0
100
AcDbTrace
10
31.26
20
16.234119
30
0
11
34.759998
21
16.694903
31
0
12
34.760002
22
15.773335
32
0
13
34.760002
23
15.773335
33
0
39
0
210
0
220
0
230
1
0
SOLID
5
179
100
AcDbEntity
8
SK2
62
256
6
ByLayer
370
18
48
1
60
0
100
AcDbTrace
10
62
20
16.234119
30
0
11
58.500002
21
15.773335
31
0
12
58.499998
22
16.694903
32
0
13
58.499998
23
16.694903
33
0
39
0
210
0
220
0
230
1
0
ENDBLK
5
17B
100
AcDbEntity
8
0
100
AcDbBlockEnd
0
BLOCK
5
180
100
AcDbEntity
8
0
100
AcDbBlockBegin
2
*D7
70
1
10
0
20
0
30
0
3
*D7
0
LINE
5
182
100
AcDbEntity
8
0
62
256
6
ByLayer
370
-2
48
1
60
0
100
AcDbLine
10
62
20
-1.5875
30
0
11
62
21
-19.427503
31
0
39
0
210
0
220
0
230
1
0
LINE
5
183
100
AcDbEntity
8
0
62
256
6
ByLayer
370
-2
48
1
60
0
100
AcDbLine
10
60.629
20
-6.2125
30
0
11
60.629
21
-19.427503
31
0
39
0
210
0
220
0
230
1
0
LINE
5
184
100
AcDbEntity
8
0
62
256
6
ByLayer
370
-2
48
1
60
0
100
AcDbLine
10
62
20
-17.427503
30
0
11
89.666667
21
-17.427503
31
0
39
0
210
0
220
0
230
1
0
LINE
5
185
100
AcDbEntity
8
0
62
256
6
ByLayer
370
-2
48
1
60
0
100
AcDbLine
10
65.5
20
-17.427503
30
0
11
69
21
-17.427503
31
0
39
0
210
0
220
0
230
1
0
LINE
5
186
100
AcDbEntity
8
0
62
256
6
ByLayer
370
-2
48
1
60
0
100
AcDbLine
10
57.129
20
-17.427503
30
0
11
53.629
21
-17.427503
31
0
39
0
210
0
220
0
230
1
0
SOLID
5
187
100
AcDbEntity
8
0
62
256
6
ByLayer
370
-1
48
1
60
0
100
AcDbTrace
10
65.5
20
-16.84417
30
0
11
65.5
21
-18.010837
31
0
12
62
22
-17.427503
32
0
13
62
23
-17.427503
33
0
39
0
210
0
220
0
230
1
0
SOLID
5
188
100
AcDbEntity
8
0
62
256
6
ByLayer
370
-1
48
1
60
0
100
AcDbTrace
10
57.129
20
-18.010837
30
0
11
57.129
21
-16.84417
31
0
12
60.629
22
-17.427503
32
0
13
60.629
23
-17.427503
33
0
39
0
210
0
220
0
230
1
0
MTEXT
5
189
100
AcDbEntity
8
0
62
256
6
ByLayer
370
18
48
1
60
0
100
AcDbMText
10
79.333333
20
-10.427503
30
0
210
0
220
0
230
1
1
\A1;1.37
40
3.5
41
0
44
1
50
0
71
5
72
5
7
iso_b_vert
0
POINT
5
18A
100
AcDbEntity
8
Defpoints
62
0
6
ByLayer
370
-1
48
1
60
0
100
AcDbPoint
10
62
20
0
30
0
39
0
210
0
220
0
230
1
50
360
0
POINT
5
18B
100
AcDbEntity
8
Defpoints
62
0
6
ByLayer
370
-1
48
1
60
0
100
AcDbPoint
10
60.629
20
-4.625
30
0
39
0
210
0
220
0
230
1
50
360
0
POINT
5
18C
100
AcDbEntity
8
Defpoints
62
0
6
ByLayer
370
-1
48
1
60
0
100
AcDbPoint
10
60.629
20
-17.427503
30
0
39
0
210
0
220
0
230
1
50
360
0
ENDBLK
5
181
100
AcDbEntity
8
0
100
AcDbBlockEnd
0
BLOCK
5
194
100
AcDbEntity
8
0
100
AcDbBlockBegin
2
_U3
70
0
10
0
20
0
30
0
3
_U3
0
MTEXT
5
18E
100
AcDbEntity
8
SK2
62
256
6
ByLayer
370
13
48
1
60
0
100
AcDbMText
10
68.589293
20
-16.39487
30
0
210
0
220
0
230
1
1
\W0.6367;1,37
40
3.5
41
0
44
1.084337
50
0
71
7
72
5
7
iso_b_vert
0
LINE
5
18F
100
AcDbEntity
8
SK2
62
256
6
ByLayer
370
13
48
1
60
0
100
AcDbLine
10
62
20
-1.5875
30
0
11
62
21
-19.427503
31
0
39
0
210
0
220
0
230
1
0
LINE
5
190
100
AcDbEntity
8
SK2
62
256
6
ByLayer
370
13
48
1
60
0
100
AcDbLine
10
60.629
20
-6.2125
30
0
11
60.629
21
-19.427503
31
0
39
0
210
0
220
0
230
1
0
LINE
5
191
100
AcDbEntity
8
SK2
62
256
6
ByLayer
370
13
48
1
60
0
100
AcDbLine
10
51.879
20
-17.427503
30
0
11
75.559058
21
-17.427503
31
0
39
0
210
0
220
0
230
1
0
SOLID
5
192
100
AcDbEntity
8
SK2
62
256
6
ByLayer
370
18
48
1
60
0
100
AcDbTrace
10
62
20
-17.427503
30
0
11
65.499998
21
-16.966719
31
0
12
65.500002
22
-17.888287
32
0
13
65.500002
23
-17.888287
33
0
39
0
210
0
220
0
230
1
0
SOLID
5
193
100
AcDbEntity
8
SK2
62
256
6
ByLayer
370
18
48
1
60
0
100
AcDbTrace
10
60.629
20
-17.427503
30
0
11
57.129002
21
-17.888287
31
0
12
57.128998
22
-16.966719
32
0
13
57.128998
23
-16.966719
33
0
39
0
210
0
220
0
230
1
0
ENDBLK
5
195
100
AcDbEntity
8
0
100
AcDbBlockEnd
0
BLOCK
5
19A
100
AcDbEntity
8
0
100
AcDbBlockBegin
2
*D9
70
1
10
0
20
0
30
0
3
*D9
0
LINE
5
19C
100
AcDbEntity
8
0
62
256
6
ByLayer
370
-2
48
1
60
0
100
AcDbLine
10
60.629
20
6.2125
30
0
11
60.629
21
10.760371
31
0
39
0
210
0
220
0
230
1
0
LINE
5
19D
100
AcDbEntity
8
0
62
256
6
ByLayer
370
-2
48
1
60
0
100
AcDbLine
10
32.879
20
6.2125
30
0
11
32.879
21
10.760371
31
0
39
0
210
0
220
0
230
1
0
LINE
5
19E
100
AcDbEntity
8
0
62
256
6
ByLayer
370
-2
48
1
60
0
100
AcDbLine
10
57.129
20
8.760371
30
0
11
36.379
21
8.760371
31
0
39
0
210
0
220
0
230
1
0
SOLID
5
19F
100
AcDbEntity
8
0
62
256
6
ByLayer
370
-1
48
1
60
0
100
AcDbTrace
10
57.129
20
8.177038
30
0
11
57.129
21
9.343705
31
0
12
60.629
22
8.760371
32
0
13
60.629
23
8.760371
33
0
39
0
210
0
220
0
230
1
0
SOLID
5
1A0
100
AcDbEntity
8
0
62
256
6
ByLayer
370
-1
48
1
60
0
100
AcDbTrace
10
36.379
20
9.343705
30
0
11
36.379
21
8.177038
31
0
12
32.879
22
8.760371
32
0
13
32.879
23
8.760371
33
0
39
0
210
0
220
0
230
1
0
MTEXT
5
1A1
100
AcDbEntity
8
0
62
256
6
ByLayer
370
18
48
1
60
0
100
AcDbMText
10
46.754
20
15.760371
30
0
210
0
220
0
230
1
1
\A1;27.75
40
3.5
41
0
44
1
50
0
71
5
72
5
7
iso_b_vert
0
POINT
5
1A2
100
AcDbEntity
8
Defpoints
62
0
6
ByLayer
370
-1
48
1
60
0
100
AcDbPoint
10
60.629
20
4.625
30
0
39
0
210
0
220
0
230
1
50
360
0
POINT
5
1A3
100
AcDbEntity
8
Defpoints
62
0
6
ByLayer
370
-1
48
1
60
0
100
AcDbPoint
10
32.879
20
4.625
30
0
39
0
210
0
220
0
230
1
50
360
0
POINT
5
1A4
100
AcDbEntity
8
Defpoints
62
0
6
ByLayer
370
-1
48
1
60
0
100
AcDbPoint
10
32.879
20
8.760371
30
0
39
0
210
0
220
0
230
1
50
360
0
ENDBLK
5
19B
100
AcDbEntity
8
0
100
AcDbBlockEnd
0
BLOCK
5
1AC
100
AcDbEntity
8
0
100
AcDbBlockBegin
2
_U4
70
0
10
0
20
0
30
0
3
_U4
0
MTEXT
5
1A6
100
AcDbEntity
8
SK2
62
256
6
ByLayer
370
13
48
1
60
0
100
AcDbMText
10
41.616701
20
9.793005
30
0
210
0
220
0
230
1
1
\W0.7317;27,75
40
3.5
41
0
44
1.084337
50
0
71
7
72
5
7
iso_b_vert
0
LINE
5
1A7
100
AcDbEntity
8
SK2
62
256
6
ByLayer
370
13
48
1
60
0
100
AcDbLine
10
60.629
20
6.2125
30
0
11
60.629
21
10.760371
31
0
39
0
210
0
220
0
230
1
0
LINE
5
1A8
100
AcDbEntity
8
SK2
62
256
6
ByLayer
370
13
48
1
60
0
100
AcDbLine
10
32.879
20
6.2125
30
0
11
32.879
21
10.760371
31
0
39
0
210
0
220
0
230
1
0
LINE
5
1A9
100
AcDbEntity
8
SK2
62
256
6
ByLayer
370
13
48
1
60
0
100
AcDbLine
10
60.629
20
8.760371
30
0
11
32.879
21
8.760371
31
0
39
0
210
0
220
0
230
1
0
SOLID
5
1AA
100
AcDbEntity
8
SK2
62
256
6
ByLayer
370
18
48
1
60
0
100
AcDbTrace
10
60.629
20
8.760371
30
0
11
57.129002
21
8.299588
31
0
12
57.128998
22
9.221155
32
0
13
57.128998
23
9.221155
33
0
39
0
210
0
220
0
230
1
0
SOLID
5
1AB
100
AcDbEntity
8
SK2
62
256
6
ByLayer
370
18
48
1
60
0
100
AcDbTrace
10
32.879
20
8.760371
30
0
11
36.378998
21
9.221155
31
0
12
36.379002
22
8.299588
32
0
13
36.379002
23
8.299588
33
0
39
0
210
0
220
0
230
1
0
ENDBLK
5
1AD
100
AcDbEntity
8
0
100
AcDbBlockEnd
0
BLOCK
5
1B2
100
AcDbEntity
8
0
100
AcDbBlockBegin
2
*D11
70
1
10
0
20
0
30
0
3
*D11
0
LINE
5
1B4
100
AcDbEntity
8
0
62
256
6
ByLayer
370
-2
48
1
60
0
100
AcDbLine
10
-45
20
-8.5875
30
0
11
-45
21
-29.690158
31
0
39
0
210
0
220
0
230
1
0
LINE
5
1B5
100
AcDbEntity
8
0
62
256
6
ByLayer
370
-2
48
1
60
0
100
AcDbLine
10
60.629
20
-6.2125
30
0
11
60.629
21
-29.690158
31
0
39
0
210
0
220
0
230
1
0
LINE
5
1B6
100
AcDbEntity
8
0
62
256
6
ByLayer
370
-2
48
1
60
0
100
AcDbLine
10
-41.5
20
-27.690158
30
0
11
57.129
21
-27.690158
31
0
39
0
210
0
220
0
230
1
0
SOLID
5
1B7
100
AcDbEntity
8
0
62
256
6
ByLayer
370
-1
48
1
60
0
100
AcDbTrace
10
-41.5
20
-27.106825
30
0
11
-41.5
21
-28.273491
31
0
12
-45
22
-27.690158
32
0
13
-45
23
-27.690158
33
0
39
0
210
0
220
0
230
1
0
SOLID
5
1B8
100
AcDbEntity
8
0
62
256
6
ByLayer
370
-1
48
1
60
0
100
AcDbTrace
10
57.129
20
-28.273491
30
0
11
57.129
21
-27.106825
31
0
12
60.629
22
-27.690158
32
0
13
60.629
23
-27.690158
33
0
39
0
210
0
220
0
230
1
0
MTEXT
5
1B9
100
AcDbEntity
8
0
62
256
6
ByLayer
370
18
48
1
60
0
100
AcDbMText
10
7.8145
20
-20.690158
30
0
210
0
220
0
230
1
1
\A1;105.63
40
3.5
41
0
44
1
50
0
71
5
72
5
7
iso_b_vert
0
POINT
5
1BA
100
AcDbEntity
8
Defpoints
62
0
6
ByLayer
370
-1
48
1
60
0
100
AcDbPoint
10
-45
20
-7
30
0
39
0
210
0
220
0
230
1
50
360
0
POINT
5
1BB
100
AcDbEntity
8
Defpoints
62
0
6
ByLayer
370
-1
48
1
60
0
100
AcDbPoint
10
60.629
20
-4.625
30
0
39
0
210
0
220
0
230
1
50
360
0
POINT
5
1BC
100
AcDbEntity
8
Defpoints
62
0
6
ByLayer
370
-1
48
1
60
0
100
AcDbPoint
10
60.629
20
-27.690158
30
0
39
0
210
0
220
0
230
1
50
360
0
ENDBLK
5
1B3
100
AcDbEntity
8
0
100
AcDbBlockEnd
0
BLOCK
5
1C4
100
AcDbEntity
8
0
100
AcDbBlockBegin
2
_U5
70
0
10
0
20
0
30
0
3
_U5
0
MTEXT
5
1BE
100
AcDbEntity
8
SK2
62
256
6
ByLayer
370
13
48
1
60
0
100
AcDbMText
10
1.806901
20
-26.657524
30
0
210
0
220
0
230
1
1
\W0.6930;105,63
40
3.5
41
0
44
1.084337
50
0
71
7
72
5
7
iso_b_vert
0
LINE
5
1BF
100
AcDbEntity
8
SK2
62
256
6
ByLayer
370
13
48
1
60
0
100
AcDbLine
10
-45
20
-8.5875
30
0
11
-45
21
-29.690158
31
0
39
0
210
0
220
0
230
1
0
LINE
5
1C0
100
AcDbEntity
8
SK2
62
256
6
ByLayer
370
13
48
1
60
0
100
AcDbLine
10
60.629
20
-6.2125
30
0
11
60.629
21
-29.690158
31
0
39
0
210
0
220
0
230
1
0
LINE
5
1C1
100
AcDbEntity
8
SK2
62
256
6
ByLayer
370
13
48
1
60
0
100
AcDbLine
10
-45
20
-27.690158
30
0
11
60.629
21
-27.690158
31
0
39
0
210
0
220
0
230
1
0
SOLID
5
1C2
100
AcDbEntity
8
SK2
62
256
6
ByLayer
370
18
48
1
60
0
100
AcDbTrace
10
-45
20
-27.690158
30
0
11
-41.500002
21
-27.229374
31
0
12
-41.499998
22
-28.150942
32
0
13
-41.499998
23
-28.150942
33
0
39
0
210
0
220
0
230
1
0
SOLID
5
1C3
100
AcDbEntity
8
SK2
62
256
6
ByLayer
370
18
48
1
60
0
100
AcDbTrace
10
60.629
20
-27.690158
30
0
11
57.129002
21
-28.150942
31
0
12
57.128998
22
-27.229374
32
0
13
57.128998
23
-27.229374
33
0
39
0
210
0
220
0
230
1
0
ENDBLK
5
1C5
100
AcDbEntity
8
0
100
AcDbBlockEnd
0
ENDSEC
0
SECTION
2
ENTITIES
0
ARC
5
BD
100
AcDbEntity
8
1
62
256
6
ByLayer
370
18
48
1
60
0
100
AcDbCircle
39
0
10
1.358667
20
-7.045
30
0
40
0.799999999999999
210
0
220
0
230
1
100
AcDbArc
50
90
51
148.121144
0
ARC
5
BE
100
AcDbEntity
8
1
62
256
6
ByLayer
370
18
48
1
60
0
100
AcDbCircle
39
0
10
1.358667
20
7.045
30
0
40
0.799999999999999
210
0
220
0
230
1
100
AcDbArc
50
211.878856
51
270
0
ARC
5
BF
100
AcDbEntity
8
1
62
256
6
ByLayer
370
18
48
1
60
0
100
AcDbCircle
39
0
10
0
20
-6.2
30
0
40
0.799999999999999
210
0
220
0
230
1
100
AcDbArc
50
270
51
328.121144
0
ARC
5
C0
100
AcDbEntity
8
1
62
256
6
ByLayer
370
18
48
1
60
0
100
AcDbCircle
39
0
10
0
20
6.2
30
0
40
0.799999999999999
210
0
220
0
230
1
100
AcDbArc
50
31.878856
51
90
0
ARC
5
C1
100
AcDbEntity
8
SK2
62
256
6
ByLayer
370
13
48
1
60
0
100
AcDbCircle
39
0
10
37.504
20
0
30
0
40
19.9465250214281
210
0
220
0
230
1
100
AcDbArc
50
183.087377
51
225
0
ARC
5
C2
100
AcDbEntity
8
SK2
62
256
6
ByLayer
370
13
48
1
60
0
100
AcDbCircle
39
0
10
37.504
20
0
30
0
40
19.9465250214281
210
0
220
0
230
1
100
AcDbArc
50
135
51
164.215944
0
POINT
5
70
100
AcDbEntity
8
80
62
256
6
ByLayer
370
18
48
1
60
0
100
AcDbPoint
10
0
20
0
30
0
39
0
210
0
220
0
230
1
50
360
0
POINT
5
72
100
AcDbEntity
8
81
62
256
6
ByLayer
370
18
48
1
60
0
100
AcDbPoint
10
62
20
0
30
0
39
0
210
0
220
0
230
1
50
360
0
POINT
5
74
100
AcDbEntity
8
1
62
256
6
ByLayer
370
18
48
1
60
1
100
AcDbPoint
10
60.629
20
-4.625
30
0
39
0
210
0
220
0
230
1
50
360
0
POINT
5
76
100
AcDbEntity
8
1
62
256
6
ByLayer
370
18
48
1
60
1
100
AcDbPoint
10
-45
20
-7
30
0
39
0
210
0
220
0
230
1
50
360
0
POINT
5
77
100
AcDbEntity
8
1
62
256
6
ByLayer
370
18
48
1
60
1
100
AcDbPoint
10
31.26
20
6.245
30
0
39
0
210
0
220
0
230
1
50
360
0
POINT
5
78
100
AcDbEntity
8
1
62
256
6
ByLayer
370
18
48
1
60
1
100
AcDbPoint
10
60.629
20
-4.625
30
0
39
0
210
0
220
0
230
1
50
360
0
POINT
5
79
100
AcDbEntity
8
1
62
256
6
ByLayer
370
18
48
1
60
1
100
AcDbPoint
10
60.629
20
4.625
30
0
39
0
210
0
220
0
230
1
50
360
0
POINT
5
7A
100
AcDbEntity
8
1
62
256
6
ByLayer
370
18
48
1
60
1
100
AcDbPoint
10
32.879
20
4.625
30
0
39
0
210
0
220
0
230
1
50
360
0
POINT
5
7B
100
AcDbEntity
8
1
62
256
6
ByLayer
370
18
48
1
60
1
100
AcDbPoint
10
-45
20
-7
30
0
39
0
210
0
220
0
230
1
50
360
0
POINT
5
7C
100
AcDbEntity
8
1
62
256
6
ByLayer
370
18
48
1
60
1
100
AcDbPoint
10
60.629
20
-4.625
30
0
39
0
210
0
220
0
230
1
50
360
0
SPLINE
5
C3
100
AcDbEntity
8
SK1
62
256
6
ByLayer
370
18
48
1
60
0
100
AcDbSpline
70
4
71
3
72
12
73
8
40
0
40
0
40
0
40
0
40
0.500000000000001
40
0.500000000000001
40
0.75
40
0.75
40
1
40
1
40
1
40
1
41
1
10
-44
20
-6.01242795747822
30
0
41
1
10
-43.9765248032773
20
-6.03515180535231
30
0
41
1
10
-43.9537853574511
20
-6.05620912053837
30
0
41
1
10
-43.9256353788013
20
-6.08036292024309
30
0
41
1
10
-43.9170526356788
20
-6.08732171583978
30
0
41
1
10
-43.9042470853815
20
-6.09629680697432
30
0
41
1
10
-43.9
20
-6.0982706737291
30
0
41
1
10
-43.9
20
-6.09593880238123
30
0
0
SPLINE
5
C4
100
AcDbEntity
8
SK1
62
256
6
ByLayer
370
18
48
1
60
0
100
AcDbSpline
70
4
71
3
72
8
73
4
40
0
40
0
40
0
40
0
40
1
40
1
40
1
40
1
41
1
10
-45
20
-5.04013202893694
30
0
41
1
10
-44.6675856327554
20
-5.36506693028937
30
0
41
1
10
-44.3340969145456
20
-5.68902417300635
30
0
41
1
10
-44
20
-6.0124279574782
30
0
0
SPLINE
5
C5
100
AcDbEntity
8
SK1
62
256
6
ByLayer
370
18
48
1
60
0
100
AcDbSpline
70
4
71
3
72
8
73
4
40
0
40
0
40
0
40
0
40
1
40
1
40
1
40
1
41
1
10
-44
20
-5.21039452032718
30
0
41
1
10
-44.3340969668983
20
-4.88699068517829
30
0
41
1
10
-44.6675856954442
20
-4.56303343186008
30
0
41
1
10
-45
20
-4.2380985917859
30
0
0
SPLINE
5
C6
100
AcDbEntity
8
SK1
62
256
6
ByLayer
370
18
48
1
60
0
100
AcDbSpline
70
4
71
3
72
12
73
8
40
0
40
0
40
0
40
0
40
0.25
40
0.25
40
0.499999999999999
40
0.499999999999999
40
1
40
1
40
1
40
1
41
1
10
-43.9
20
-5.35806804020228
30
0
41
1
10
-43.9
20
-5.34975261091913
30
0
41
1
10
-43.9042016956282
20
-5.33789032649469
30
0
41
1
10
-43.9170234176167
20
-5.31250845312749
30
0
41
1
10
-43.9254954864758
20
-5.29907444713098
30
0
41
1
10
-43.9538426693661
20
-5.25917777631446
30
0
41
1
10
-43.9765304760167
20
-5.23311287702398
30
0
41
1
10
-44
20
-5.21039452032718
30
0
0
SPLINE
5
C7
100
AcDbEntity
8
1
62
256
6
ByLayer
370
18
48
1
60
0
100
AcDbSpline
70
4
71
3
72
8
73
4
40
0
40
0
40
0
40
0
40
1
40
1
40
1
40
1
41
1
10
32.8623108598484
20
-1.33920309155417
30
0
41
1
10
32.6267900271342
20
-1.21649212426456
30
0
41
1
10
32.3913931975551
20
-1.09266421962948
30
0
41
1
10
32.1554716374392
20
-0.968901575604889
30
0
0
SPLINE
5
C8
100
AcDbEntity
8
1
62
256
6
ByLayer
370
18
48
1
60
0
100
AcDbSpline
70
4
71
3
72
8
73
4
40
0
40
0
40
0
40
0
40
1
40
1
40
1
40
1
41
1
10
60.8227585961234
20
-2.02939702476831
30
0
41
1
10
60.5660663978463
20
-2.50265838473084
30
0
41
1
10
60.3167835069991
20
-2.98264917090214
30
0
41
1
10
60.0750082984221
20
-3.46945873120515
30
0
0
SPLINE
5
C9
100
AcDbEntity
8
1
62
256
6
ByLayer
370
18
48
1
60
0
100
AcDbSpline
70
4
71
3
72
12
73
8
40
0
40
0
40
0
40
0
40
0.249999999999997
40
0.249999999999997
40
0.499999999999995
40
0.499999999999995
40
1
40
1
40
1
40
1
41
1
10
32.1554716374392
20
-0.968901575604747
30
0
41
1
10
31.9961166506103
20
-0.913443767668923
30
0
41
1
10
31.8393188841164
20
-0.84624711649451
30
0
41
1
10
31.5293666443732
20
-0.68936490385471
30
0
41
1
10
31.3757079799388
20
-0.599305581681193
30
0
41
1
10
30.9232452929666
20
-0.298844652533546
30
0
41
1
10
30.6326821277858
20
-0.0582495531012341
30
0
41
1
10
30.3470391434791
20
0.21738882806693
30
0
0
SPLINE
5
CA
100
AcDbEntity
8
1
62
256
6
ByLayer
370
13
48
1
60
0
100
AcDbSpline
70
4
71
3
72
8
73
4
40
0
40
0
40
0
40
0
40
1
40
1
40
1
40
1
41
1
10
32.8623108598503
20
-4.47511292497796
30
0
41
1
10
33.4103808049266
20
-4.47123276496049
30
0
41
1
10
33.9576089398025
20
-4.44044808702401
30
0
41
1
10
34.5060610627771
20
-4.38312202376682
30
0
0
SPLINE
5
CB
100
AcDbEntity
8
1
62
256
6
ByLayer
370
18
48
1
60
0
100
AcDbSpline
70
4
71
3
72
10
73
6
40
0
40
0
40
0
40
0
40
0.5
40
0.5
40
1
40
1
40
1
40
1
41
1
10
60.6128256841448
20
-4.49488001605496
30
0
41
1
10
60.8331920573359
20
-3.9226318331597
30
0
41
1
10
61.054863773257
20
-3.35099481625281
30
0
41
1
10
61.4991154477914
20
-2.20808845136617
30
0
41
1
10
61.7215011512722
20
-1.63672131580336
30
0
41
1
10
61.9430152044892
20
-1.06495301290502
30
0
0
SPLINE
5
CC
100
AcDbEntity
8
1
62
256
6
ByLayer
370
18
48
1
60
0
100
AcDbSpline
70
4
71
3
72
18
73
14
40
0
40
0
40
0
40
0
40
0.269677765027905
40
0.269677765027905
40
0.404516647541858
40
0.404516647541858
40
0.53935553005581
40
0.53935553005581
40
0.809033295083718
40
0.809033295083718
40
0.943872177597673
40
0.943872177597673
40
1
40
1
40
1
40
1
41
1
10
60.0750082984221
20
-3.46945873120515
30
0
41
1
10
60.0747709140304
20
-3.62671532062066
30
0
41
1
10
60.0818337507831
20
-3.76475887054659
30
0
41
1
10
60.1037257403863
20
-3.94348030592749
30
0
41
1
10
60.1129202494032
20
-3.99830355365126
30
0
41
1
10
60.1353425993348
20
-4.09819984154683
30
0
41
1
10
60.1484689966561
20
-4.14274168941989
30
0
41
1
10
60.1933151411255
20
-4.25963418300512
30
0
41
1
10
60.2305711592091
20
-4.31589107966454
30
0
41
1
10
60.2983430644069
20
-4.36847126666251
30
0
41
1
10
60.3230097444707
20
-4.38068359763412
30
0
41
1
10
60.3606770060871
20
-4.39021206203455
30
0
41
1
10
60.3720677019019
20
-4.39206587268791
30
0
41
1
10
60.38378273427
20
-4.39298037256159
30
0
0
SPLINE
5
CD
100
AcDbEntity
8
1
62
256
6
ByLayer
370
18
48
1
60
0
100
AcDbSpline
70
4
71
3
72
46
73
42
40
0
40
0
40
0
40
0
40
0.0312499999999992
40
0.0312499999999992
40
0.0624999999999983
40
0.0624999999999983
40
0.124999999999997
40
0.124999999999997
40
0.156249999999996
40
0.156249999999996
40
0.187499999999995
40
0.187499999999995
40
0.249999999999994
40
0.249999999999994
40
0.374999999999993
40
0.374999999999993
40
0.406249999999993
40
0.406249999999993
40
0.437499999999992
40
0.437499999999992
40
0.499999999999992
40
0.499999999999992
40
0.531249999999993
40
0.531249999999993
40
0.562499999999994
40
0.562499999999994
40
0.624999999999994
40
0.624999999999994
40
0.687499999999994
40
0.687499999999994
40
0.718749999999994
40
0.718749999999994
40
0.749999999999995
40
0.749999999999995
40
0.812499999999996
40
0.812499999999996
40
0.843749999999997
40
0.843749999999997
40
0.874999999999997
40
0.874999999999997
40
1
40
1
40
1
40
1
41
1
10
60.3719118760217
20
-4.61890364562925
30
0
41
1
10
60.0890230960719
20
-4.62639835842887
30
0
41
1
10
59.8062154154692
20
-4.62646585784046
30
0
41
1
10
59.2402402539268
20
-4.61179821021045
30
0
41
1
10
58.9568006383568
20
-4.59703840713115
30
0
41
1
10
58.1071173151481
20
-4.53076273209714
30
0
41
1
10
57.5425631215105
20
-4.45739142977746
30
0
41
1
10
56.6951284880967
20
-4.30538843699122
30
0
41
1
10
56.4125249587513
20
-4.2477435124367
30
0
41
1
10
55.8464282103445
20
-4.11889257222637
30
0
41
1
10
55.5627230566673
20
-4.04759875861674
30
0
41
1
10
54.7158456085429
20
-3.81581106149631
30
0
41
1
10
54.1548900579837
20
-3.63694593800713
30
0
41
1
10
52.4758808761541
20
-3.03694348759859
30
0
41
1
10
51.3613665649443
20
-2.5527233135937
30
0
41
1
10
49.9513189208137
20
-1.87561754004398
30
0
41
1
10
49.6680115674727
20
-1.73634256749799
30
0
41
1
10
49.1014908458426
20
-1.45254211239381
30
0
41
1
10
48.8187432572066
20
-1.30827773454192
30
0
41
1
10
47.9709540554898
20
-0.870386032443747
30
0
41
1
10
47.4063159953999
20
-0.571758514138935
30
0
41
1
10
46.55696497328
20
-0.119754701080922
30
0
41
1
10
46.273247764311
20
0.0316645873882067
30
0
41
1
10
45.7072646692993
20
0.333243078874602
30
0
41
1
10
45.4246587830932
20
0.483558051368561
30
0
41
1
10
44.5769392684695
20
0.931106110667486
30
0
41
1
10
44.0120694552238
20
1.22521499934021
30
0
41
1
10
42.8780631834638
20
1.79597353112649
30
0
41
1
10
42.312880838722
20
2.07071513779718
30
0
41
1
10
41.4650808597568
20
2.46023905654098
30
0
41
1
10
41.1824386614156
20
2.58636926825952
30
0
41
1
10
40.6164923357018
20
2.83026088625536
30
0
41
1
10
40.3328118477993
20
2.94813886611135
30
0
41
1
10
39.4830317254176
20
3.28634604304889
30
0
41
1
10
38.9183134299457
20
3.49147155158096
30
0
41
1
10
38.0702007273044
20
3.76405819991584
30
0
41
1
10
37.7873538115507
20
3.84910722778036
30
0
41
1
10
37.2207283901809
20
4.00681059815187
30
0
41
1
10
36.9370731063863
20
4.07938913341175
30
0
41
1
10
35.5235489930581
20
4.40796610424411
30
0
41
1
10
34.4009737416851
20
4.56253197003349
30
0
41
1
10
33.2678295728547
20
4.59910140712563
30
0
0
SPLINE
5
CE
100
AcDbEntity
8
1
62
256
6
ByLayer
370
18
48
1
60
0
100
AcDbSpline
70
4
71
3
72
8
73
4
40
0
40
0
40
0
40
0
40
1
40
1
40
1
40
1
41
1
10
61.9895331539943
20
0.117751299963515
30
0
41
1
10
61.9901933090742
20
0.0960740534669924
30
0
41
1
10
61.9941545700926
20
0.069628355972128
30
0
41
1
10
61.9999644699384
20
0.0417734046599776
30
0
0
SPLINE
5
CF
100
AcDbEntity
8
1
62
256
6
ByLayer
370
18
48
1
60
0
100
AcDbSpline
70
4
71
3
72
34
73
30
40
0
40
0
40
0
40
0
40
0.125
40
0.125
40
0.1875
40
0.1875
40
0.250000000000001
40
0.250000000000001
40
0.312500000000001
40
0.312500000000001
40
0.375000000000001
40
0.375000000000001
40
0.437500000000001
40
0.437500000000001
40
0.500000000000001
40
0.500000000000001
40
0.624999999999999
40
0.624999999999999
40
0.687499999999999
40
0.687499999999999
40
0.749999999999999
40
0.749999999999999
40
0.8125
40
0.8125
40
0.875
40
0.875
40
0.9375
40
0.9375
40
1
40
1
40
1
40
1
41
1
10
20.2235740796277
20
-1.82433005177887
30
0
41
1
10
20.6809657051946
20
-2.14373354848047
30
0
41
1
10
21.1383082511798
20
-2.44802841137536
30
0
41
1
10
21.820063311054
20
-2.88878968606986
30
0
41
1
10
22.0461025593372
20
-3.03365788330936
30
0
41
1
10
22.4986809266579
20
-3.31562929250737
30
0
41
1
10
22.7252864309584
20
-3.45268578418828
30
0
41
1
10
23.1787522211229
20
-3.71948727934017
30
0
41
1
10
23.405648280805
20
-3.84919624096653
30
0
41
1
10
23.8588937340502
20
-4.10207752914269
30
0
41
1
10
24.0854601564814
20
-4.22497772010897
30
0
41
1
10
24.5410453116934
20
-4.46094954055587
30
0
41
1
10
24.7697301730323
20
-4.57439648737446
30
0
41
1
10
25.2284114230345
20
-4.79258525246087
30
0
41
1
10
25.4580619246226
20
-4.89744225438898
30
0
41
1
10
26.1422889590804
20
-5.19511662001824
30
0
41
1
10
26.5977359754209
20
-5.36965571897767
30
0
41
1
10
27.2776182431379
20
-5.59860291612964
30
0
41
1
10
27.5032590746134
20
-5.66962081467426
30
0
41
1
10
27.9558014130684
20
-5.79909083785375
30
0
41
1
10
28.1825106178158
20
-5.8577124187116
30
0
41
1
10
28.6363398922802
20
-5.96304472417918
30
0
41
1
10
28.8634682303619
20
-6.00975663111828
30
0
41
1
10
29.3174416327999
20
-6.09124287102918
30
0
41
1
10
29.5449369167261
20
-6.12574994467838
30
0
41
1
10
30.0023874486379
20
-6.18183011406842
30
0
41
1
10
30.2325642013209
20
-6.2035197231593
30
0
41
1
10
30.6914736638533
20
-6.23381693650327
30
0
41
1
10
30.9198419551816
20
-6.24247045171975
30
0
41
1
10
31.1482159437339
20
-6.24452027615607
30
0
0
SPLINE
5
D0
100
AcDbEntity
8
1
62
256
6
ByLayer
370
18
48
1
60
0
100
AcDbSpline
70
4
71
3
72
40
73
36
40
0
40
0
40
0
40
0
40
0.125000000000016
40
0.125000000000016
40
0.250000000000032
40
0.250000000000032
40
0.31250000000004
40
0.31250000000004
40
0.375000000000047
40
0.375000000000047
40
0.500000000000069
40
0.500000000000069
40
0.562500000000076
40
0.562500000000076
40
0.625000000000084
40
0.625000000000084
40
0.750000000000095
40
0.750000000000095
40
0.875000000000106
40
0.875000000000106
40
0.878906250000103
40
0.878906250000103
40
0.882812500000101
40
0.882812500000101
40
0.890625000000093
40
0.890625000000093
40
0.89453125000009
40
0.89453125000009
40
0.898437500000087
40
0.898437500000087
40
0.90625000000008
40
0.90625000000008
40
0.937500000000054
40
0.937500000000054
40
1
40
1
40
1
40
1
41
1
10
56.1261052295012
20
0.689931941762808
30
0
41
1
10
56.3268705368356
20
0.567049412731535
30
0
41
1
10
56.5299337547126
20
0.454973609462257
30
0
41
1
10
56.9407245428938
20
0.252757746985964
30
0
41
1
10
57.1484352367703
20
0.162538320491109
30
0
41
1
10
57.4639353853201
20
0.0457106944607517
30
0
41
1
10
57.569761291491
20
0.0098682232718659
30
0
41
1
10
57.7829327144286
20
-0.054670220290177
30
0
41
1
10
57.8905762653602
20
-0.0833583287661384
30
0
41
1
10
58.2114357276847
20
-0.156925794678102
30
0
41
1
10
58.423808393008
20
-0.189883152994753
30
0
41
1
10
58.7397978277024
20
-0.212364965798031
30
0
41
1
10
58.8446962433998
20
-0.215333643727348
30
0
41
1
10
59.0535281612637
20
-0.211149242246307
30
0
41
1
10
59.1579406788794
20
-0.203942343251043
30
0
41
1
10
59.4650830204248
20
-0.165318369936131
30
0
41
1
10
59.6616886469799
20
-0.116682185197107
30
0
41
1
10
60.0367931173606
20
0.0314007405871735
30
0
41
1
10
60.216351781615
20
0.131822981913558
30
0
41
1
10
60.3849353352995
20
0.261789746087459
30
0
41
1
10
60.3900294214276
20
0.265753397002641
30
0
41
1
10
60.4001885192566
20
0.273731334378596
30
0
41
1
10
60.4053707688757
20
0.277541441203084
30
0
41
1
10
60.419723942004
20
0.291050473599085
30
0
41
1
10
60.4273844026836
20
0.302999070579915
30
0
41
1
10
60.4324885560807
20
0.324625696747319
30
0
41
1
10
60.4332355393202
20
0.332506836622969
30
0
41
1
10
60.4327271851764
20
0.348371322746829
30
0
41
1
10
60.43156547704
20
0.356392159272929
30
0
41
1
10
60.4277962530039
20
0.380482402745059
30
0
41
1
10
60.42512807804
20
0.396573789509745
30
0
41
1
10
60.4126012273978
20
0.476959892227541
30
0
41
1
10
60.4021701041572
20
0.541273821001511
30
0
41
1
10
60.3697625844401
20
0.734208059833151
30
0
41
1
10
60.3466818844298
20
0.862776489075003
30
0
41
1
10
60.3223598450916
20
0.991299160170286
30
0
0
SPLINE
5
D1
100
AcDbEntity
8
1
62
256
6
ByLayer
370
18
48
1
60
0
100
AcDbSpline
70
4
71
3
72
8
73
4
40
0
40
0
40
0
40
0
40
1
40
1
40
1
40
1
41
1
10
32.8623108598503
20
-1.33920309155513
30
0
41
1
10
32.8623108598503
20
-1.32048990343125
30
0
41
1
10
32.8623108598503
20
-1.30079159708913
30
0
41
1
10
32.8623108598503
20
-1.28012611065841
30
0
0
SPLINE
5
D2
100
AcDbEntity
8
1
62
256
6
ByLayer
370
18
48
1
60
0
100
AcDbSpline
70
4
71
3
72
20
73
16
40
0
40
0
40
0
40
0
40
0.0415479921611848
40
0.0415479921611848
40
0.269520383406566
40
0.269520383406566
40
0.497492774651947
40
0.497492774651947
40
0.611478970274638
40
0.611478970274638
40
0.725465165897328
40
0.725465165897328
40
0.953437557142713
40
0.953437557142713
40
1
40
1
40
1
40
1
41
1
10
46.3466554664155
20
-0.0072946009366603
30
0
41
1
10
46.4506265416271
20
-0.0611485452890292
30
0
41
1
10
46.5545678879127
20
-0.114980696654612
30
0
41
1
10
47.2287411687747
20
-0.463844052408092
30
0
41
1
10
47.7984938421356
20
-0.75748547424152
30
0
41
1
10
48.9412531779577
20
-1.33351812287054
30
0
41
1
10
49.5142905877058
20
-1.61585053717798
30
0
41
1
10
50.3803370009841
20
-2.02297018530368
30
0
41
1
10
50.6699584762205
20
-2.15593644655689
30
0
41
1
10
51.2457908209335
20
-2.41287958410368
30
0
41
1
10
51.5327648242518
20
-2.5372015740804
30
0
41
1
10
52.3917894205434
20
-2.8963584573543
30
0
41
1
10
52.9619566166826
20
-3.11727189334536
30
0
41
1
10
53.6482783993792
20
-3.35744336957885
30
0
41
1
10
53.7646778569726
20
-3.39727351871289
30
0
41
1
10
53.881092290855
20
-3.43617476745885
30
0
0
SPLINE
5
D3
100
AcDbEntity
8
1
62
256
6
ByLayer
370
13
48
1
60
0
100
AcDbSpline
70
4
71
3
72
10
73
6
40
0
40
0
40
0
40
0
40
0.473095390792482
40
0.473095390792482
40
1
40
1
40
1
40
1
41
1
10
53.8810932393218
20
-3.43617508440022
30
0
41
1
10
54.9046219826111
20
-3.77819917644413
30
0
41
1
10
55.9293084155083
20
-4.04841811735051
30
0
41
1
10
58.1250135923179
20
-4.43218679688286
30
0
41
1
10
59.271586223722
20
-4.51928380348863
30
0
41
1
10
60.4258545664993
20
-4.48554293723763
30
0
0
SPLINE
5
D4
100
AcDbEntity
8
1
62
256
6
ByLayer
370
18
48
1
60
0
100
AcDbSpline
70
4
71
3
72
30
73
26
40
0
40
0
40
0
40
0
40
0.124999999999999
40
0.124999999999999
40
0.187499999999998
40
0.187499999999998
40
0.249999999999997
40
0.249999999999997
40
0.374999999999996
40
0.374999999999996
40
0.437499999999997
40
0.437499999999997
40
0.499999999999997
40
0.499999999999997
40
0.624999999999999
40
0.624999999999999
40
0.687499999999999
40
0.687499999999999
40
0.75
40
0.75
40
0.812500000000001
40
0.812500000000001
40
0.875000000000001
40
0.875000000000001
40
1
40
1
40
1
40
1
41
1
10
30.3470391434738
20
0.217388828072046
30
0
41
1
10
29.9279046153541
20
0.519444493810141
30
0
41
1
10
29.5079068534347
20
0.820075588566937
30
0
41
1
10
28.8768463334129
20
1.26920300616504
30
0
41
1
10
28.665935084963
20
1.41807477343758
30
0
41
1
10
28.2425166911143
20
1.71346880708305
30
0
41
1
10
28.0295239346197
20
1.86034393169652
30
0
41
1
10
27.3934013458332
20
2.29426634486481
30
0
41
1
10
26.9730132012146
20
2.5756920780108
30
0
41
1
10
26.3428045455493
20
2.97976342580594
30
0
41
1
10
26.1329149413581
20
3.11161311979782
30
0
41
1
10
25.7136976421358
20
3.36990667946452
30
0
41
1
10
25.5045371317942
20
3.49653678911116
30
0
41
1
10
24.8763493061302
20
3.86642754656543
30
0
41
1
10
24.4563399723155
20
4.09947697458838
30
0
41
1
10
23.8246392084489
20
4.42866415050392
30
0
41
1
10
23.6139331806432
20
4.53511342353107
30
0
41
1
10
23.1906908806879
20
4.73978790319794
30
0
41
1
10
22.9778769147115
20
4.83826848387122
30
0
41
1
10
22.5532331508008
20
5.02575997815666
30
0
41
1
10
22.3412360042027
20
5.1149117468257
30
0
41
1
10
21.9181144822738
20
5.2842089911978
30
0
41
1
10
21.7068578367583
20
5.36423375436829
30
0
41
1
10
21.0724528525641
20
5.58933926383622
30
0
41
1
10
20.648560977898
20
5.71950832895297
30
0
41
1
10
20.2235740796277
20
5.82947436610218
30
0
0
SPLINE
5
D5
100
AcDbEntity
8
1
62
256
6
ByLayer
370
18
48
1
60
0
100
AcDbSpline
70
4
71
3
72
8
73
4
40
0
40
0
40
0
40
0
40
1
40
1
40
1
40
1
41
1
10
61.9430152044891
20
1.06495301290499
30
0
41
1
10
61.964422330271
20
0.748853483326542
30
0
41
1
10
61.9799289847538
20
0.433119537419174
30
0
41
1
10
61.9895331539942
20
0.117751299963544
30
0
0
SPLINE
5
D6
100
AcDbEntity
8
1
62
256
6
ByLayer
370
18
48
1
60
0
100
AcDbSpline
70
4
71
3
72
8
73
4
40
0
40
0
40
0
40
0
40
1
40
1
40
1
40
1
41
1
10
32.8623108598503
20
4.58649671217304
30
0
41
1
10
32.9975843748448
20
4.5923878273066
30
0
41
1
10
33.1327451506787
20
4.59659736366973
30
0
41
1
10
33.2678295728547
20
4.59910140712563
30
0
0
SPLINE
5
D7
100
AcDbEntity
8
1
62
256
6
ByLayer
370
18
48
1
60
0
100
AcDbSpline
70
4
71
3
72
10
73
6
40
0
40
0
40
0
40
0
40
0.5
40
0.5
40
1
40
1
40
1
40
1
41
1
10
60.4412977259928
20
1.09782141065284
30
0
41
1
10
60.6917853139961
20
1.09069901531606
30
0
41
1
10
60.9422967498135
20
1.08338185816279
30
0
41
1
10
61.4428571277596
20
1.0725246661878
30
0
41
1
10
61.6929400654862
20
1.06870699399468
30
0
41
1
10
61.9430152044892
20
1.06495301290499
30
0
0
SPLINE
5
D8
100
AcDbEntity
8
1
62
256
6
ByLayer
370
18
48
1
60
0
100
AcDbSpline
70
4
71
3
72
14
73
10
40
0
40
0
40
0
40
0
40
0.422746067617863
40
0.422746067617863
40
0.634119101426799
40
0.634119101426799
40
0.845492135235735
40
0.845492135235735
40
1
40
1
40
1
40
1
41
1
10
20.2235740796277
20
5.82947436610218
30
0
41
1
10
19.764593801614
20
5.94027796492762
30
0
41
1
10
19.3129958278576
20
6.03215643341005
30
0
41
1
10
18.6405454169716
20
6.13506360011158
30
0
41
1
10
18.4172244587368
20
6.16357958395926
30
0
41
1
10
17.9713216689504
20
6.20827773550778
30
0
41
1
10
17.7483054342318
20
6.22446997716037
30
0
41
1
10
17.3647066621194
20
6.24122485737487
30
0
41
1
10
17.2033930144534
20
6.24484292976751
30
0
41
1
10
17.042639473094
20
6.24499390921696
30
0
0
SPLINE
5
D9
100
AcDbEntity
8
1
62
256
6
ByLayer
370
18
48
1
60
0
100
AcDbSpline
70
4
71
3
72
14
73
10
40
0
40
0
40
0
40
0
40
0.25
40
0.25
40
0.5
40
0.5
40
0.75
40
0.75
40
1
40
1
40
1
40
1
41
1
10
60.3223598450916
20
0.991299160170257
30
0
41
1
10
60.3194732608963
20
1.00655246627508
30
0
41
1
10
60.3197890727087
20
1.02249625050766
30
0
41
1
10
60.3296873185163
20
1.05178545670992
30
0
41
1
10
60.33959300619
20
1.06497706049692
30
0
41
1
10
60.3646573161353
20
1.08387757210798
30
0
41
1
10
60.3795090975468
20
1.08993870127904
30
0
41
1
10
60.4098937734669
20
1.09708238104284
30
0
41
1
10
60.4256488979951
20
1.09826637138642
30
0
41
1
10
60.4412977259921
20
1.09782141065813
30
0
0
SPLINE
5
DA
100
AcDbEntity
8
1
62
256
6
ByLayer
370
18
48
1
60
0
100
AcDbSpline
70
4
71
3
72
10
73
6
40
0
40
0
40
0
40
0
40
0.5
40
0.5
40
1
40
1
40
1
40
1
41
1
10
60.6128256841494
20
4.49488001604098
30
0
41
1
10
60.5686062201679
20
4.52823119575106
30
0
41
1
10
60.5263778543738
20
4.55550392517722
30
0
41
1
10
60.4458769740894
20
4.59718568782367
30
0
41
1
10
60.4074936100828
20
4.61155198267724
30
0
41
1
10
60.3719118760217
20
4.61890364562925
30
0
0
SPLINE
5
DB
100
AcDbEntity
8
1
62
256
6
ByLayer
370
18
48
1
60
0
100
AcDbSpline
70
4
71
3
72
26
73
22
40
0
40
0
40
0
40
0
40
0.0238920910818619
40
0.0238920910818619
40
0.121502881973676
40
0.121502881973676
40
0.21911367286549
40
0.21911367286549
40
0.414335254649114
40
0.414335254649114
40
0.511946045540929
40
0.511946045540929
40
0.609556836432743
40
0.609556836432743
40
0.707167627324557
40
0.707167627324557
40
0.804778418216371
40
0.804778418216371
40
0.902389209108186
40
0.902389209108186
40
1
40
1
40
1
40
1
41
1
10
24.1461846589045
20
4.25546264297853
30
0
41
1
10
24.201813093886
20
4.28491063131605
30
0
41
1
10
24.2574961833802
20
4.31408434262582
30
0
41
1
10
24.5410453116935
20
4.4609495405559
30
0
41
1
10
24.7697301730323
20
4.57439648737451
30
0
41
1
10
25.2284114230347
20
4.7925852524609
30
0
41
1
10
25.4580619246227
20
4.89744225438901
30
0
41
1
10
26.1422889590804
20
5.19511662001827
30
0
41
1
10
26.597735975421
20
5.36965571897773
30
0
41
1
10
27.277618243138
20
5.59860291612966
30
0
41
1
10
27.5032590746135
20
5.66962081467429
30
0
41
1
10
27.9558014130685
20
5.79909083785378
30
0
41
1
10
28.1825106178159
20
5.85771241871163
30
0
41
1
10
28.6363398922803
20
5.96304472417918
30
0
41
1
10
28.863468230362
20
6.00975663111831
30
0
41
1
10
29.3174416328001
20
6.09124287102921
30
0
41
1
10
29.5449369167263
20
6.1257499446784
30
0
41
1
10
30.0023874486381
20
6.18183011406845
30
0
41
1
10
30.2325642013211
20
6.20351972315933
30
0
41
1
10
30.6914736638534
20
6.23381693650327
30
0
41
1
10
30.9198419551819
20
6.24247045171975
30
0
41
1
10
31.1482159437341
20
6.24452027615607
30
0
0
SPLINE
5
DC
100
AcDbEntity
8
1
62
256
6
ByLayer
370
18
48
1
60
0
100
AcDbSpline
70
4
71
3
72
10
73
6
40
0
40
0
40
0
40
0
40
0.511967202005579
40
0.511967202005579
40
1
40
1
40
1
40
1
41
1
10
60.4349947478892
20
-4.39130648432692
30
0
41
1
10
59.2804529580974
20
-4.41019191675207
30
0
41
1
10
58.1329457403343
20
-4.31077355562752
30
0
41
1
10
55.8734673862772
20
-3.89863288384694
30
0
41
1
10
54.7862400318712
20
-3.60077078235781
30
0
41
1
10
53.6990811920288
20
-3.22640164765193
30
0
0
SPLINE
5
DD
100
AcDbEntity
8
1
62
256
6
ByLayer
370
13
48
1
60
0
100
AcDbSpline
70
4
71
3
72
26
73
22
40
0
40
0
40
0
40
0
40
0.01430424921831
40
0.01430424921831
40
0.167291279857514
40
0.167291279857514
40
0.243784795177116
40
0.243784795177116
40
0.320278310496718
40
0.320278310496718
40
0.473265341135922
40
0.473265341135922
40
0.626252371775126
40
0.626252371775126
40
0.77923940241433
40
0.77923940241433
40
0.85573291773393
40
0.85573291773393
40
0.932226433053531
40
0.932226433053531
40
1
40
1
40
1
40
1
41
1
10
53.6990811843736
20
-3.22640164501587
30
0
41
1
10
53.6457640758541
20
-3.20804160500225
30
0
41
1
10
53.5924471321241
20
-3.18949755197599
30
0
41
1
10
52.9688746529228
20
-2.97049666992552
30
0
41
1
10
52.3982972502251
20
-2.74968427387239
30
0
41
1
10
51.5387610787877
20
-2.39206803379969
30
0
41
1
10
51.2516290101172
20
-2.26849409559011
30
0
41
1
10
50.6755175714122
20
-2.01352731062787
30
0
41
1
10
50.385802577773
20
-1.88180020170989
30
0
41
1
10
49.5199379906014
20
-1.47933069198621
30
0
41
1
10
48.9468006897737
20
-1.20095038287729
30
0
41
1
10
47.8036239956273
20
-0.634336887039581
30
0
41
1
10
47.2335761959428
20
-0.346117988121847
30
0
41
1
10
46.0923789382312
20
0.231700387301203
30
0
41
1
10
45.5213347055247
20
0.521517028589926
30
0
41
1
10
44.6602682136036
20
0.949837456260127
30
0
41
1
10
44.3725434876383
20
1.091640344372
30
0
41
1
10
43.7951339439359
20
1.37218046820266
30
0
41
1
10
43.5054850982525
20
1.51080009536079
30
0
41
1
10
42.9621502184453
20
1.76552660922044
30
0
41
1
10
42.707584663733
20
1.8827118345921
30
0
41
1
10
42.453501676892
20
1.99710012573661
30
0
0
SPLINE
5
DE
100
AcDbEntity
8
1
62
256
6
ByLayer
370
18
48
1
60
0
100
AcDbSpline
70
4
71
3
72
24
73
20
40
0
40
0
40
0
40
0
40
0.125000000000006
40
0.125000000000006
40
0.187500000000007
40
0.187500000000007
40
0.250000000000009
40
0.250000000000009
40
0.375000000000008
40
0.375000000000008
40
0.500000000000007
40
0.500000000000007
40
0.625000000000007
40
0.625000000000007
40
0.687500000000006
40
0.687500000000006
40
0.750000000000006
40
0.750000000000006
40
1
40
1
40
1
40
1
41
1
10
56.1261052295012
20
0.689931941762808
30
0
41
1
10
56.1847139843725
20
0.440178702114451
30
0
41
1
10
56.2701715973033
20
0.196085814882537
30
0
41
1
10
56.4325397132027
20
-0.162847233747641
30
0
41
1
10
56.4919132347546
20
-0.280082090618919
30
0
41
1
10
56.6182995340368
20
-0.507452342048026
30
0
41
1
10
56.6855443857372
20
-0.618092855011781
30
0
41
1
10
56.897969243971
20
-0.941981267886234
30
0
41
1
10
57.0548891450313
20
-1.14837379468216
30
0
41
1
10
57.383005378885
20
-1.53363710161332
30
0
41
1
10
57.5549042421235
20
-1.71379957885497
30
0
41
1
10
57.9119432827936
20
-2.05306680827701
30
0
41
1
10
58.0970202676409
20
-2.21227205592535
30
0
41
1
10
58.3828677576618
20
-2.43798851829249
30
0
41
1
10
58.4794506560975
20
-2.51094079438945
30
0
41
1
10
58.6734818514396
20
-2.65152420370146
30
0
41
1
10
58.7711459800349
20
-2.71932785105818
30
0
41
1
10
59.2624402796929
20
-3.04693779883922
30
0
41
1
10
59.6648372815662
20
-3.27311057991531
30
0
41
1
10
60.0750082984221
20
-3.46945873120512
30
0
0
SPLINE
5
DF
100
AcDbEntity
8
1
62
256
6
ByLayer
370
18
48
1
60
0
100
AcDbSpline
70
4
71
3
72
18
73
14
40
0
40
0
40
0
40
0
40
0.0338559203350336
40
0.0338559203350336
40
0.194879933612527
40
0.194879933612527
40
0.35590394689002
40
0.35590394689002
40
0.516927960167514
40
0.516927960167514
40
0.677951973445007
40
0.677951973445007
40
1
40
1
40
1
40
1
41
1
10
24.1679862625836
20
-4.24927165187481
30
0
41
1
10
24.1237387179909
20
-4.27264296891181
30
0
41
1
10
24.079478637715
20
-4.29586413373877
30
0
41
1
10
23.8246392084489
20
-4.42866415050386
30
0
41
1
10
23.6139331806432
20
-4.53511342353104
30
0
41
1
10
23.190690880688
20
-4.73978790319791
30
0
41
1
10
22.9778769147115
20
-4.83826848387119
30
0
41
1
10
22.5532331508008
20
-5.02575997815663
30
0
41
1
10
22.3412360042028
20
-5.1149117468257
30
0
41
1
10
21.9181144822739
20
-5.28420899119777
30
0
41
1
10
21.7068578367583
20
-5.36423375436826
30
0
41
1
10
21.0724528525642
20
-5.58933926383622
30
0
41
1
10
20.648560977898
20
-5.71950832895297
30
0
41
1
10
20.2235740796277
20
-5.82947436610218
30
0
0
SPLINE
5
E0
100
AcDbEntity
8
1
62
256
6
ByLayer
370
18
48
1
60
0
100
AcDbSpline
70
4
71
3
72
8
73
4
40
0
40
0
40
0
40
0
40
1
40
1
40
1
40
1
41
1
10
32.8623108598503
20
4.58649671217304
30
0
41
1
10
32.8623108598503
20
4.58877769076778
30
0
41
1
10
32.8623108598503
20
4.58513879628691
30
0
41
1
10
32.8623108598503
20
4.57564902185223
30
0
0
SPLINE
5
E1
100
AcDbEntity
8
1
62
256
6
ByLayer
370
18
48
1
60
0
100
AcDbSpline
70
4
71
3
72
8
73
4
40
0
40
0
40
0
40
0
40
1
40
1
40
1
40
1
41
1
10
32.8623108598503
20
-4.58649671217304
30
0
41
1
10
32.9975843748448
20
-4.5923878273066
30
0
41
1
10
33.1327451506788
20
-4.59659736366973
30
0
41
1
10
33.2678295728548
20
-4.59910140712563
30
0
0
SPLINE
5
E2
100
AcDbEntity
8
1
62
256
6
ByLayer
370
18
48
1
60
0
100
AcDbSpline
70
4
71
3
72
34
73
30
40
0
40
0
40
0
40
0
40
0.0207874953405928
40
0.0207874953405928
40
0.109806813945992
40
0.109806813945992
40
0.198826132551391
40
0.198826132551391
40
0.28784545115679
40
0.28784545115679
40
0.37686476976219
40
0.37686476976219
40
0.465884088367589
40
0.465884088367589
40
0.554903406972988
40
0.554903406972988
40
0.643922725578387
40
0.643922725578387
40
0.688432384881088
40
0.688432384881088
40
0.732942044183789
40
0.732942044183789
40
0.821961362789192
40
0.821961362789192
40
0.866471022091893
40
0.866471022091893
40
0.910980681394594
40
0.910980681394594
40
1
40
1
40
1
40
1
41
1
10
51.011204053672
20
2.97501120013138
30
0
41
1
10
51.0777710071511
20
3.00229032374679
30
0
41
1
10
51.1444081261865
20
3.02928424757204
30
0
41
1
10
51.4968969562213
20
3.17018549022598
30
0
41
1
10
51.784644588416
20
3.27950832516069
30
0
41
1
10
52.3577594552946
20
3.48779807087178
30
0
41
1
10
52.6424606104376
20
3.58705313413233
30
0
41
1
10
53.2120473095149
20
3.77104506690944
30
0
41
1
10
53.4965452599236
20
3.85639063695794
30
0
41
1
10
54.0640305483015
20
4.01500520211607
30
0
41
1
10
54.3464348390116
20
4.08872311774238
30
0
41
1
10
54.9124672812975
20
4.22135537523434
30
0
41
1
10
55.1958425163024
20
4.28061842804948
30
0
41
1
10
55.7624572699597
20
4.38579521889912
30
0
41
1
10
56.0450615308971
20
4.43201024622761
30
0
41
1
10
56.6122729909922
20
4.50943882633629
30
0
41
1
10
56.8968916973032
20
4.54076976021778
30
0
41
1
10
57.3247366652525
20
4.57694861250442
30
0
41
1
10
57.4675093438676
20
4.58719937830372
30
0
41
1
10
57.7530758548712
20
4.6040560778649
30
0
41
1
10
57.8959381799802
20
4.61063011866867
30
0
41
1
10
58.3258920564512
20
4.62454944901179
30
0
41
1
10
58.6129856705264
20
4.62614488886783
30
0
41
1
10
59.0424474312083
20
4.61732185981725
30
0
41
1
10
59.1854893023049
20
4.6125107040148
30
0
41
1
10
59.4710206190242
20
4.59905993626123
30
0
41
1
10
59.6134771869249
20
4.59039581242507
30
0
41
1
10
60.0412664980893
20
4.55885736520796
30
0
41
1
10
60.3269494046406
20
4.53050608753338
30
0
41
1
10
60.6128256841472
20
4.49488001604061
30
0
0
SPLINE
5
E3
100
AcDbEntity
8
1
62
256
6
ByLayer
370
18
48
1
60
0
100
AcDbSpline
70
4
71
3
72
8
73
4
40
0
40
0
40
0
40
0
40
1
40
1
40
1
40
1
41
1
10
33.0466359525575
20
-4.3763363979441
30
0
41
1
10
32.9852031961167
20
-4.37664084713484
30
0
41
1
10
32.9237624245902
20
-4.37661470766253
30
0
41
1
10
32.8623108598503
20
-4.37625757833769
30
0
0
SPLINE
5
E4
100
AcDbEntity
8
1
62
256
6
ByLayer
370
18
48
1
60
0
100
AcDbSpline
70
4
71
3
72
8
73
4
40
0
40
0
40
0
40
0
40
1
40
1
40
1
40
1
41
1
10
61.9999644699409
20
0.0417734046496889
30
0
41
1
10
62.0000118459931
20
0.0139229160618015
30
0
41
1
10
62.0000118401397
20
-0.0139263570588071
30
0
41
1
10
61.999964469941
20
-0.0417734046530995
30
0
0
SPLINE
5
E5
100
AcDbEntity
8
1
62
256
6
ByLayer
370
18
48
1
60
0
100
AcDbSpline
70
4
71
3
72
8
73
4
40
0
40
0
40
0
40
0
40
1
40
1
40
1
40
1
41
1
10
33.2945816685601
20
4.49230222553038
30
0
41
1
10
33.1637413114766
20
4.50115487402067
30
0
41
1
10
33.0329349644875
20
4.50847177116873
30
0
41
1
10
32.9021392178097
20
4.51423423060942
30
0
0
SPLINE
5
E6
100
AcDbEntity
8
1
62
256
6
ByLayer
370
18
48
1
60
0
100
AcDbSpline
70
4
71
3
72
30
73
26
40
0
40
0
40
0
40
0
40
0.0614608908046107
40
0.0614608908046107
40
0.128499398604281
40
0.128499398604281
40
0.195537906403952
40
0.195537906403952
40
0.329614922003293
40
0.329614922003293
40
0.396653429802963
40
0.396653429802963
40
0.463691937602634
40
0.463691937602634
40
0.597768953201975
40
0.597768953201975
40
0.664807461001646
40
0.664807461001646
40
0.731845968801317
40
0.731845968801317
40
0.865922984400658
40
0.865922984400658
40
0.932961492200329
40
0.932961492200329
40
1
40
1
40
1
40
1
41
1
10
32.8623108598503
20
-4.57567209153021
30
0
41
1
10
32.8623108598503
20
-4.56765457204469
30
0
41
1
10
32.8623108598503
20
-4.55545228569048
30
0
41
1
10
32.8623108598503
20
-4.52127773911536
30
0
41
1
10
32.8623108598503
20
-4.4985125820794
30
0
41
1
10
32.8623108598503
20
-4.44293647866985
30
0
41
1
10
32.8623108598503
20
-4.41010975823215
30
0
41
1
10
32.8623108598503
20
-4.29817927906441
30
0
41
1
10
32.8623108598503
20
-4.20529730821946
30
0
41
1
10
32.8623108598503
20
-4.03905653956539
30
0
41
1
10
32.8623108598502
20
-3.97913764530199
30
0
41
1
10
32.8623108598503
20
-3.85007762191375
30
0
41
1
10
32.8623108598503
20
-3.78068650175905
30
0
41
1
10
32.8623108598503
20
-3.56218560148841
30
0
41
1
10
32.8623108598503
20
-3.401920552696
30
0
41
1
10
32.8623108598503
20
-3.14011684486306
30
0
41
1
10
32.8623108598503
20
-3.04926295435425
30
0
41
1
10
32.8623108598503
20
-2.86023893082736
30
0
41
1
10
32.8623108598503
20
-2.76159982672633
30
0
41
1
10
32.8623108598503
20
-2.45871722756621
30
0
41
1
10
32.8623108598503
20
-2.24750427280296
30
0
41
1
10
32.8623108598503
20
-1.91716375351581
30
0
41
1
10
32.8623108598503
20
-1.80478763682788
30
0
41
1
10
32.8623108598503
20
-1.57543086786299
30
0
41
1
10
32.8623108598503
20
-1.4580340947266
30
0
41
1
10
32.8623108598503
20
-1.3392030915542
30
0
0
SPLINE
5
E7
100
AcDbEntity
8
1
62
256
6
ByLayer
370
18
48
1
60
0
100
AcDbSpline
70
4
71
3
72
85
73
81
40
0
40
0
40
0
40
0
40
0.0624999999999936
40
0.0624999999999936
40
0.0937499999999904
40
0.0937499999999904
40
0.124999999999987
40
0.124999999999987
40
0.187499999999981
40
0.187499999999981
40
0.249999999999974
40
0.249999999999974
40
0.312499999999968
40
0.312499999999968
40
0.343749999999965
40
0.343749999999965
40
0.374999999999961
40
0.374999999999961
40
0.406249999999958
40
0.406249999999958
40
0.437499999999955
40
0.437499999999955
40
0.468749999999952
40
0.468749999999952
40
0.48437499999995
40
0.48437499999995
40
0.499999999999949
40
0.499999999999949
40
0.515624999999947
40
0.515624999999947
40
0.523437499999946
40
0.523437499999946
40
0.531249999999945
40
0.531249999999945
40
0.546874999999943
40
0.546874999999943
40
0.554687499999942
40
0.554687499999942
40
0.562499999999942
40
0.562499999999942
40
0.57812499999994
40
0.57812499999994
40
0.585937499999939
40
0.585937499999939
40
0.593749999999939
40
0.593749999999939
40
0.609374999999937
40
0.609374999999937
40
0.624999999999935
40
0.624999999999935
40
0.656249999999932
40
0.656249999999932
40
0.67187499999993
40
0.67187499999993
40
0.67968749999993
40
0.67968749999993
40
0.68359374999993
40
0.68554687499993
40
0.68554687499993
40
0.68749999999993
40
0.68749999999993
40
0.68945312499993
40
0.68945312499993
40
0.691406249999929
40
0.691406249999929
40
0.69531249999993
40
0.69531249999993
40
0.703124999999931
40
0.703124999999931
40
0.718749999999934
40
0.718749999999934
40
0.749999999999941
40
0.749999999999941
40
0.812499999999956
40
0.812499999999956
40
0.874999999999971
40
0.874999999999971
40
0.937499999999985
40
0.937499999999985
40
1
40
1
40
1
40
1
41
1
10
20.2235740796277
20
-5.82947436610218
30
0
41
1
10
19.7645938016139
20
-5.94027796492765
30
0
41
1
10
19.3129958278574
20
-6.03215643341008
30
0
41
1
10
18.6405454169714
20
-6.13506360011161
30
0
41
1
10
18.4172244587366
20
-6.16357958395929
30
0
41
1
10
17.9713216689501
20
-6.20827773550778
30
0
41
1
10
17.7483054342315
20
-6.2244699771604
30
0
41
1
10
17.0834789575585
20
-6.25350835994439
30
0
41
1
10
16.6453241749177
20
-6.24698509733437
30
0
41
1
10
15.7743804736826
20
-6.18177495259911
30
0
41
1
10
15.3415846854945
20
-6.12319864552666
30
0
41
1
10
14.4795850765115
20
-5.95216969069455
30
0
41
1
10
14.0503484419484
20
-5.83989798906649
30
0
41
1
10
13.4104754128068
20
-5.62564038039818
30
0
41
1
10
13.19722574342
20
-5.54623633395323
30
0
41
1
10
12.7766255246893
20
-5.37155655658307
30
0
41
1
10
12.5693255397598
20
-5.27638169202527
30
0
41
1
10
12.1623184138625
20
-5.06822261463427
30
0
41
1
10
11.9625860324639
20
-4.95527346969985
30
0
41
1
10
11.5733670437581
20
-4.70782218557804
30
0
41
1
10
11.3837444761173
20
-4.57333541941841
30
0
41
1
10
11.0197937591422
20
-4.27617464377744
30
0
41
1
10
10.8477918263784
20
-4.11552834262073
30
0
41
1
10
10.611871652686
20
-3.84983408762088
30
0
41
1
10
10.536755869114
20
-3.75683298890141
30
0
41
1
10
10.3968639820385
20
-3.56181004587717
30
0
41
1
10
10.3326749907402
20
-3.46064772627744
30
0
41
1
10
10.2181669421752
20
-3.24982269816283
30
0
41
1
10
10.1678314515295
20
-3.14016862561564
30
0
41
1
10
10.1052341737427
20
-2.9680204029454
30
0
41
1
10
10.0865361969085
20
-2.90935227668379
30
0
41
1
10
10.0540466607222
20
-2.78914863660228
30
0
41
1
10
10.0401972733813
20
-2.72726172434838
30
0
41
1
10
10.0075275955036
20
-2.5396148925465
30
0
41
1
10
9.99754191971437
20
-2.41246693541751
30
0
41
1
10
10.0019993476525
20
-2.21859517949753
30
0
41
1
10
10.0067203410513
20
-2.15344598765839
30
0
41
1
10
10.0230118351848
20
-2.02207721710636
30
0
41
1
10
10.0345607108215
20
-1.95631399937267
30
0
41
1
10
10.0786401900643
20
-1.76177684159202
30
0
41
1
10
10.120723745703
20
-1.63455064540324
30
0
41
1
10
10.2014694381122
20
-1.44728417884383
30
0
41
1
10
10.2314926873436
20
-1.38516740814353
30
0
41
1
10
10.2961686709661
20
-1.26399232749463
30
0
41
1
10
10.330812580432
20
-1.20484805353362
30
0
41
1
10
10.4409962153534
20
-1.0313511438024
30
0
41
1
10
10.522739899744
20
-0.920904068290639
30
0
41
1
10
10.7000060393815
20
-0.708775424370486
30
0
41
1
10
10.7961076178514
20
-0.606648820667317
30
0
41
1
10
11.0959199515367
20
-0.317512815910817
30
0
41
1
10
11.3120293001066
20
-0.145623026418377
30
0
41
1
10
11.6529101309675
20
0.090662250265666
30
0
41
1
10
11.7693886383227
20
0.165748754578885
30
0
41
1
10
11.9478362093662
20
0.273564184389585
30
0
41
1
10
12.0079828573697
20
0.308720018448213
30
0
41
1
10
12.0988377126279
20
0.360179083227308
30
0
41
1
10
12.1444338974587
20
0.385596330041977
30
0
41
1
10
12.1902749157341
20
0.410560851060751
30
0
41
1
10
12.2208891506993
20
0.427104870370812
30
0
41
1
10
12.2364351019741
20
0.435429875491508
30
0
41
1
10
12.2697381920269
20
0.445775005199437
30
0
41
1
10
12.2867674195761
20
0.44839073248184
30
0
41
1
10
12.3213450199409
20
0.450108659868761
30
0
41
1
10
12.3389259402053
20
0.448820870767406
30
0
41
1
10
12.3912547559521
20
0.444965642962671
30
0
41
1
10
12.4261645124311
20
0.442723215677176
30
0
41
1
10
12.5308382972711
20
0.435233898730502
30
0
41
1
10
12.6005949469158
20
0.429827720511753
30
0
41
1
10
12.8097464856414
20
0.412375216705925
30
0
41
1
10
12.9489870512115
20
0.399097336964985
30
0
41
1
10
13.3661305090281
20
0.354356351191797
30
0
41
1
10
13.6435112954893
20
0.317975392382266
30
0
41
1
10
14.4730233923931
20
0.189438113253061
30
0
41
1
10
15.0185790730056
20
0.0784936032584369
30
0
41
1
10
16.0955513965253
20
-0.190741366457331
30
0
41
1
10
16.6269912778313
20
-0.348950723618998
30
0
41
1
10
17.6769269183805
20
-0.707929368778707
30
0
41
1
10
18.1954143651247
20
-0.908722987774439
30
0
41
1
10
19.2214829010285
20
-1.34514615645099
30
0
41
1
10
19.7262076555591
20
-1.57970014365526
30
0
41
1
10
20.2235740796277
20
-1.82433005177887
30
0
0
SPLINE
5
E8
100
AcDbEntity
8
1
62
256
6
ByLayer
370
18
48
1
60
0
100
AcDbSpline
70
4
71
3
72
14
73
10
40
0
40
0
40
0
40
0
40
0.25
40
0.25
40
0.5
40
0.5
40
0.75
40
0.75
40
1
40
1
40
1
40
1
41
1
10
60.4349947478858
20
-4.39130648432698
30
0
41
1
10
60.4383629555634
20
-4.39085182160468
30
0
41
1
10
60.4410924762534
20
-4.39207539462467
30
0
41
1
10
60.4448649724783
20
-4.39893192132593
30
0
41
1
10
60.4458554511768
20
-4.40464593756451
30
0
41
1
10
60.4449306660628
20
-4.42159559305094
30
0
41
1
10
60.4429386385558
20
-4.43285345034249
30
0
41
1
10
60.4360354591849
20
-4.45831812452198
30
0
41
1
10
60.4311928961775
20
-4.47230623964293
30
0
41
1
10
60.425854566502
20
-4.48554293723754
30
0
0
SPLINE
5
E9
100
AcDbEntity
8
1
62
256
6
ByLayer
370
18
48
1
60
0
100
AcDbSpline
70
4
71
3
72
8
73
4
40
0
40
0
40
0
40
0
40
1
40
1
40
1
40
1
41
1
10
60.4258545665015
20
-4.48554293723879
30
0
41
1
10
60.4079032396038
20
-4.53005429191455
30
0
41
1
10
60.3899210543229
20
-4.57450928242653
30
0
41
1
10
60.3719118760217
20
-4.61890364562925
30
0
0
SPLINE
5
EA
100
AcDbEntity
8
1
62
256
6
ByLayer
370
18
48
1
60
0
100
AcDbSpline
70
4
71
3
72
10
73
6
40
0
40
0
40
0
40
0
40
0.5
40
0.5
40
1
40
1
40
1
40
1
41
1
10
60.6128256841487
20
-4.49488001604155
30
0
41
1
10
60.5686062201672
20
-4.52823119575146
30
0
41
1
10
60.5263778543733
20
-4.55550392517748
30
0
41
1
10
60.4458769740892
20
-4.59718568782375
30
0
41
1
10
60.4074936100826
20
-4.61155198267727
30
0
41
1
10
60.3719118760216
20
-4.61890364562925
30
0
0
SPLINE
5
EB
100
AcDbEntity
8
1
62
256
6
ByLayer
370
18
48
1
60
0
100
AcDbSpline
70
4
71
3
72
28
73
24
40
0
40
0
40
0
40
0
40
0.0625000000000005
40
0.0625000000000005
40
0.125000000000001
40
0.125000000000001
40
0.187500000000001
40
0.187500000000001
40
0.250000000000002
40
0.250000000000002
40
0.375000000000003
40
0.375000000000003
40
0.500000000000004
40
0.500000000000004
40
0.625000000000005
40
0.625000000000005
40
0.750000000000006
40
0.750000000000006
40
0.875000000000007
40
0.875000000000007
40
0.937500000000003
40
0.937500000000003
40
1
40
1
40
1
40
1
41
1
10
61.2908104659055
20
-1.18822897900844
30
0
41
1
10
61.2878647126545
20
-1.2122679683826
30
0
41
1
10
61.283676714289
20
-1.2383151656463
30
0
41
1
10
61.2732081334387
20
-1.29180599590705
30
0
41
1
10
61.2669196980355
20
-1.31944809276772
30
0
41
1
10
61.2522521104675
20
-1.37652897770286
30
0
41
1
10
61.2438360894043
20
-1.40602153369031
30
0
41
1
10
61.2256448370046
20
-1.46438437930297
30
0
41
1
10
61.2157965819947
20
-1.49355963427774
30
0
41
1
10
61.1840809976355
20
-1.58107750655873
30
0
41
1
10
61.1608931556012
20
-1.63712517793641
30
0
41
1
10
61.1119162547706
20
-1.74291815337355
30
0
41
1
10
61.0870549466873
20
-1.79072440787812
30
0
41
1
10
61.0368459937099
20
-1.87701717666673
30
0
41
1
10
61.0118931391389
20
-1.91463335511926
30
0
41
1
10
60.9649019671447
20
-1.97587198557898
30
0
41
1
10
60.9424051019702
20
-2.0001842354192
30
0
41
1
10
60.9005724741838
20
-2.03467242597094
30
0
41
1
10
60.8817293110316
20
-2.04454367771254
30
0
41
1
10
60.8566029236787
20
-2.04786739894686
30
0
41
1
10
60.8487507771123
20
-2.04698837749834
30
0
41
1
10
60.8346503811468
20
-2.04120930256852
30
0
41
1
10
60.8283301910723
20
-2.03633318057703
30
0
41
1
10
60.8227585961234
20
-2.02939702476809
30
0
0
SPLINE
5
EC
100
AcDbEntity
8
1
62
256
6
ByLayer
370
18
48
1
60
0
100
AcDbSpline
70
4
71
3
72
10
73
6
40
0
40
0
40
0
40
0
40
0.5
40
0.5
40
1
40
1
40
1
40
1
41
1
10
61.9999644699454
20
0.0417734046658893
30
0
41
1
10
61.9962293421914
20
0.0264315177153662
30
0
41
1
10
61.991125840222
20
0.0099835854351511
30
0
41
1
10
61.9788196531432
20
-0.0212421316370239
30
0
41
1
10
61.9715790707917
20
-0.036045793126533
30
0
41
1
10
61.9642431142164
20
-0.0480522770897664
30
0
0
SPLINE
5
ED
100
AcDbEntity
8
1
62
256
6
ByLayer
370
18
48
1
60
0
100
AcDbSpline
70
4
71
3
72
54
73
50
40
0
40
0
40
0
40
0
40
0.0399892810130588
40
0.0399892810130588
40
0.079989727637515
40
0.079989727637515
40
0.119990174261971
40
0.119990174261971
40
0.159990620886427
40
0.159990620886427
40
0.199991067510883
40
0.199991067510883
40
0.23999151413534
40
0.23999151413534
40
0.279991960759796
40
0.279991960759796
40
0.319992407384252
40
0.319992407384252
40
0.359992854008708
40
0.359992854008708
40
0.399993300633165
40
0.399993300633165
40
0.439993747257621
40
0.439993747257621
40
0.479994193882077
40
0.479994193882077
40
0.519994640506533
40
0.519994640506533
40
0.559995087130989
40
0.559995087130989
40
0.599995533755446
40
0.599995533755446
40
0.679996427004358
40
0.679996427004358
40
0.719996873628813
40
0.719996873628813
40
0.759997320253268
40
0.759997320253268
40
0.799997766877724
40
0.799997766877724
40
0.839998213502179
40
0.839998213502179
40
0.879998660126634
40
0.879998660126634
40
0.91999910675109
40
0.91999910675109
40
0.959999553375545
40
0.959999553375545
40
1
40
1
40
1
40
1
41
1
10
51.0382651355469
20
-2.97528113051845
30
0
41
1
10
50.7956073760021
20
-3.06574479754272
30
0
41
1
10
50.5529570836085
20
-3.15278379274847
30
0
41
1
10
50.0687461909124
20
-3.31919822182934
30
0
41
1
10
49.826787227134
20
-3.39782033166623
30
0
41
1
10
49.3426320157517
20
-3.54629762457395
30
0
41
1
10
49.100470491617
20
-3.61664751745039
30
0
41
1
10
48.6163988940767
20
-3.74967128623814
30
0
41
1
10
48.3744927600181
20
-3.81220027012191
30
0
41
1
10
47.8896180872022
20
-3.92738687457248
30
0
41
1
10
47.6465177366103
20
-3.98032258393093
30
0
41
1
10
47.1612854826716
20
-4.07738377390345
30
0
41
1
10
46.9191763411886
20
-4.12149714439448
30
0
41
1
10
46.4353210158192
20
-4.19833491141443
30
0
41
1
10
46.1933825015612
20
-4.23153713162606
30
0
41
1
10
45.7091518848113
20
-4.28927414272721
30
0
41
1
10
45.4668997450419
20
-4.31336802462462
30
0
41
1
10
44.9824474872885
20
-4.35063038944082
30
0
41
1
10
44.7399505351568
20
-4.36353118432106
30
0
41
1
10
44.2544891806222
20
-4.38062110876862
30
0
41
1
10
44.0119195244829
20
-4.38436133536248
30
0
41
1
10
43.527316655865
20
-4.38084261071197
30
0
41
1
10
43.285460449929
20
-4.37314178491798
30
0
41
1
10
42.8016633464296
20
-4.34855418744283
30
0
41
1
10
42.5596423736202
20
-4.33174549287679
30
0
41
1
10
42.0750677545225
20
-4.28750858824506
30
0
41
1
10
41.8325309819407
20
-4.25994674401619
30
0
41
1
10
41.3473292361608
20
-4.19439627464928
30
0
41
1
10
41.104667203537
20
-4.1572280384409
30
0
41
1
10
40.619871801234
20
-4.07328296707564
30
0
41
1
10
40.3775545394992
20
-4.02647678455736
30
0
41
1
10
39.6510997816735
20
-3.8708467466943
30
0
41
1
10
39.1678133204112
20
-3.7495755811604
30
0
41
1
10
38.4399061012251
20
-3.54074992191229
30
0
41
1
10
38.1967482411507
20
-3.46667563543281
30
0
41
1
10
37.7117182179988
20
-3.31099386356607
30
0
41
1
10
37.4694641987335
20
-3.22923348610118
30
0
41
1
10
36.9847639346606
20
-3.05844433009281
30
0
41
1
10
36.742317391362
20
-2.96932122035801
30
0
41
1
10
36.2575330559058
20
-2.78463837551954
30
0
41
1
10
36.0153607560383
20
-2.68857298789993
30
0
41
1
10
35.5301343691741
20
-2.49028627908768
30
0
41
1
10
35.2870485489453
20
-2.38795102997278
30
0
41
1
10
34.8016387120625
20
-2.1789148838665
30
0
41
1
10
34.5592011204991
20
-2.07203395384465
30
0
41
1
10
34.0748936124103
20
-1.85251522975031
30
0
41
1
10
33.8327414417759
20
-1.74021880416021
30
0
41
1
10
33.3478310914746
20
-1.51265916206512
30
0
41
1
10
33.105125720799
20
-1.39743383390979
30
0
41
1
10
32.8623108598502
20
-1.28012611065841
30
0
0
SPLINE
5
EE
100
AcDbEntity
8
1
62
256
6
ByLayer
370
18
48
1
60
0
100
AcDbSpline
70
4
71
3
72
21
73
17
40
0
40
0
40
0
40
0
40
0.0525266904943714
40
0.0856462357303553
40
0.218144869188376
40
0.309287451788737
40
0.383926418611437
40
0.483593258215523
40
0.583476464286612
40
0.61679556557229
40
0.68343001936916
40
0.725065611404497
40
0.816602604450841
40
0.866479773110159
40
0.966068147959855
40
1
40
1
40
1
40
1
41
1
10
32.1554716374392
20
-0.968901575604747
30
0
41
1
10
32.1666807820661
20
-1.07176899917977
30
0
41
1
10
32.184960615477
20
-1.23831189448521
30
0
41
1
10
32.2315306380757
20
-1.65592592415066
30
0
41
1
10
32.2863372766778
20
-2.12966651852773
30
0
41
1
10
32.3499750134808
20
-2.63789107043655
30
0
41
1
10
32.4065525388255
20
-3.05635886735612
30
0
41
1
10
32.4649149857567
20
-3.44671592183619
30
0
41
1
10
32.5143487406258
20
-3.73204120556443
30
0
41
1
10
32.5567511570735
20
-3.9478250273979
30
0
41
1
10
32.5867960711426
20
-4.08500020517985
30
0
41
1
10
32.6292065719468
20
-4.25343424172857
30
0
41
1
10
32.6680833492465
20
-4.37843675892648
30
0
41
1
10
32.719324650941
20
-4.50022449211534
30
0
41
1
10
32.7583788401762
20
-4.55800603091467
30
0
41
1
10
32.7868690707451
20
-4.57653390348406
30
0
41
1
10
32.7941145958905
20
-4.57971688535389
30
0
0
SPLINE
5
EF
100
AcDbEntity
8
1
62
256
6
ByLayer
370
18
48
1
60
0
100
AcDbSpline
70
4
71
3
72
9
73
5
40
0
40
0
40
0
40
0
40
0.908094104666228
40
1
40
1
40
1
40
1
41
1
10
32.8173584672173
20
-4.58468832691565
30
0
41
1
10
32.8271016541134
20
-4.58457692345684
30
0
41
1
10
32.8378445294303
20
-4.58141598302871
30
0
41
1
10
32.8486068617333
20
-4.5748937128597
30
0
41
1
10
32.8495961528236
20
-4.57426583618684
30
0
0
SPLINE
5
F0
100
AcDbEntity
8
1
62
256
6
ByLayer
370
18
48
1
60
0
100
AcDbSpline
70
4
71
3
72
72
73
68
40
0
40
0
40
0
40
0
40
0.0337996713214249
40
0.0337996713214249
40
0.0675993426428499
40
0.0675993426428499
40
0.101399013964275
40
0.101399013964275
40
0.1351986852857
40
0.1351986852857
40
0.168998356607125
40
0.168998356607125
40
0.185898192267836
40
0.185898192267836
40
0.202798027928548
40
0.202798027928548
40
0.236597699249972
40
0.236597699249972
40
0.253497534910683
40
0.253497534910683
40
0.270397370571394
40
0.270397370571394
40
0.304197041892815
40
0.304197041892815
40
0.321096877553525
40
0.321096877553525
40
0.337996713214235
40
0.337996713214235
40
0.405596055857074
40
0.405596055857074
40
0.439395727178494
40
0.439395727178494
40
0.473195398499914
40
0.473195398499914
40
0.506995069821334
40
0.506995069821334
40
0.540794741142754
40
0.540794741142754
40
0.574594412464173
40
0.574594412464173
40
0.608394083785593
40
0.608394083785593
40
0.642193755107013
40
0.642193755107013
40
0.675993426428433
40
0.675993426428433
40
0.709793097749852
40
0.709793097749852
40
0.743592769071272
40
0.743592769071272
40
0.777392440392692
40
0.777392440392692
40
0.811192111714112
40
0.811192111714112
40
0.844991783035531
40
0.844991783035531
40
0.878791454356951
40
0.878791454356951
40
0.912591125678371
40
0.912591125678371
40
0.946390796999791
40
0.946390796999791
40
0.963290632660501
40
0.963290632660501
40
0.980190468321212
40
0.980190468321212
40
1
40
1
40
1
40
1
41
1
10
33.29458166856
20
4.49230222553038
30
0
41
1
10
33.5813154261011
20
4.45853786387323
30
0
41
1
10
33.8674449258191
20
4.41775033392037
30
0
41
1
10
34.4375782288997
20
4.32190724231546
30
0
41
1
10
34.7210200681
20
4.26636152210872
30
0
41
1
10
35.2885807696343
20
4.14289159553536
30
0
41
1
10
35.5724196037314
20
4.07487573081497
30
0
41
1
10
36.1393609875308
20
3.92570984539597
30
0
41
1
10
36.421822916175
20
3.8438312039554
30
0
41
1
10
36.9882431032186
20
3.66895549238185
30
0
41
1
10
37.2721644873964
20
3.57603316155826
30
0
41
1
10
37.698495643879
20
3.42774666825218
30
0
41
1
10
37.8406808947864
20
3.37682969290665
30
0
41
1
10
38.1249170669549
20
3.27155890595054
30
0
41
1
10
38.2670492844286
20
3.21730127255108
30
0
41
1
10
38.6945882106263
20
3.05118310262199
30
0
41
1
10
38.9809591360041
20
2.93579452606031
30
0
41
1
10
39.4120022172343
20
2.75492091134055
30
0
41
1
10
39.5555929887192
20
2.6934963588929
30
0
41
1
10
39.8416928705905
20
2.56808864196808
30
0
41
1
10
39.9842757904336
20
2.50403209351586
30
0
41
1
10
40.4119024907434
20
2.30995043180135
30
0
41
1
10
40.6967434090925
20
2.17790388565848
30
0
41
1
10
41.1232271929068
20
1.97525628255028
30
0
41
1
10
41.2652645638798
20
1.9069527967994
30
0
41
1
10
41.5488390402103
20
1.76838540409028
30
0
41
1
10
41.6902708576878
20
1.69793027782424
30
0
41
1
10
42.3976115335007
20
1.34326538234853
30
0
41
1
10
42.9651360464374
20
1.05404878096468
30
0
41
1
10
43.8147660413899
20
0.60425185968478
30
0
41
1
10
44.098865431744
20
0.453839786802121
30
0
41
1
10
44.6688311207247
20
0.152102143175028
30
0
41
1
10
44.9545639364879
20
0.0005256401296663
30
0
41
1
10
45.526494784283
20
-0.306307625381237
30
0
41
1
10
45.8139111825588
20
-0.459453906570133
30
0
41
1
10
46.3861339576328
20
-0.760621018443686
30
0
41
1
10
46.6715454007725
20
-0.909346653040132
30
0
41
1
10
47.2394940949417
20
-1.20590054016176
30
0
41
1
10
47.522902207407
20
-1.35202962281235
30
0
41
1
10
48.0901409846612
20
-1.63729371239458
30
0
41
1
10
48.3737640216681
20
-1.7768481541321
30
0
41
1
10
48.9394316253845
20
-2.0525429602948
30
0
41
1
10
49.2219482114634
20
-2.18780494847596
30
0
41
1
10
49.7889439808051
20
-2.44880547309918
30
0
41
1
10
50.0730783520949
20
-2.57517019242138
30
0
41
1
10
50.6413142853954
20
-2.82163624507751
30
0
41
1
10
50.9253784076324
20
-2.94173094972893
30
0
41
1
10
51.4968969562199
20
-3.17018549022535
30
0
41
1
10
51.7846445884144
20
-3.27950832516009
30
0
41
1
10
52.3577594552931
20
-3.48779807087121
30
0
41
1
10
52.6424606104361
20
-3.58705313413179
30
0
41
1
10
53.2120473095132
20
-3.77104506690893
30
0
41
1
10
53.4965452599218
20
-3.85639063695743
30
0
41
1
10
54.0640305482997
20
-4.01500520211559
30
0
41
1
10
54.3464348390099
20
-4.08872311774195
30
0
41
1
10
54.9124672812957
20
-4.22135537523394
30
0
41
1
10
55.1958425163006
20
-4.28061842804911
30
0
41
1
10
55.7624572699578
20
-4.38579521889881
30
0
41
1
10
56.0450615308952
20
-4.43201024622732
30
0
41
1
10
56.6122729909903
20
-4.50943882633609
30
0
41
1
10
56.8968916973012
20
-4.54076976021759
30
0
41
1
10
57.3247366652505
20
-4.57694861250428
30
0
41
1
10
57.4675093438656
20
-4.58719937830358
30
0
41
1
10
57.7530758548691
20
-4.60405607786478
30
0
41
1
10
57.8959381799782
20
-4.61063011866858
30
0
41
1
10
58.2072495857474
20
-4.62070851668668
30
0
41
1
10
58.375400250229
20
-4.62350766479261
30
0
41
1
10
58.5434577978524
20
-4.62370894328245
30
0
0
SPLINE
5
F1
100
AcDbEntity
8
1
62
256
6
ByLayer
370
18
48
1
60
0
100
AcDbSpline
70
4
71
3
72
8
73
4
40
0
40
0
40
0
40
0
40
1
40
1
40
1
40
1
41
1
10
31.1482159437341
20
6.24452027615607
30
0
41
1
10
31.1364802164603
20
6.24270343591203
30
0
41
1
10
31.1247035361429
20
6.23578456412673
30
0
41
1
10
31.1129093428333
20
6.22377899835635
30
0
0
SPLINE
5
F2
100
AcDbEntity
8
1
62
256
6
ByLayer
370
18
48
1
60
0
100
AcDbSpline
70
4
71
3
72
8
73
4
40
0
40
0
40
0
40
0
40
1
40
1
40
1
40
1
41
1
10
61.9895331539944
20
-0.117751299963373
30
0
41
1
10
61.9901933090744
20
-0.0960740534659124
30
0
41
1
10
61.994154570093
20
-0.0696283559696838
30
0
41
1
10
61.9999644699393
20
-0.0417734046562543
30
0
0
SPLINE
5
F3
100
AcDbEntity
8
1
62
256
6
ByLayer
370
18
48
1
60
0
100
AcDbSpline
70
4
71
3
72
20
73
16
40
0
40
0
40
0
40
0
40
0.0695709702339376
40
0.0695709702339376
40
0.224355102318712
40
0.224355102318712
40
0.379139234403486
40
0.379139234403486
40
0.688707498573033
40
0.688707498573033
40
0.843491630657807
40
0.843491630657807
40
0.99827576274258
40
0.99827576274258
40
1
40
1
40
1
40
1
41
1
10
20.2235740796277
20
-1.7830993660202
30
0
41
1
10
20.2235740796277
20
-1.8637708251897
30
0
41
1
10
20.2235740796277
20
-1.94554815751849
30
0
41
1
10
20.2235740796277
20
-2.21269431073247
30
0
41
1
10
20.2235740796277
20
-2.40213909197735
30
0
41
1
10
20.2235740796277
20
-2.79175008437326
30
0
41
1
10
20.2235740796277
20
-2.99190464968419
30
0
41
1
10
20.2235740796277
20
-3.60262986675949
30
0
41
1
10
20.2235740796277
20
-4.02538220131342
30
0
41
1
10
20.2235740796277
20
-4.68547735397789
30
0
41
1
10
20.2235740796277
20
-4.91093693318058
30
0
41
1
10
20.2235740796277
20
-5.36420079246511
30
0
41
1
10
20.2235740796277
20
-5.59226215743081
30
0
41
1
10
20.2235740796277
20
-5.82435982128754
30
0
41
1
10
20.2235740796277
20
-5.82691700182866
30
0
41
1
10
20.2235740796277
20
-5.82947436598712
30
0
0
SPLINE
5
F4
100
AcDbEntity
8
1
62
256
6
ByLayer
370
18
48
1
60
0
100
AcDbSpline
70
4
71
3
72
8
73
4
40
0
40
0
40
0
40
0
40
1
40
1
40
1
40
1
41
1
10
60.3719118760217
20
4.61890364562925
30
0
41
1
10
60.2252339042687
20
4.6227896579077
30
0
41
1
10
60.0785777354879
20
4.62467891763373
30
0
41
1
10
59.931906987625
20
4.62457503376908
30
0
0
SPLINE
5
F5
100
AcDbEntity
8
1
62
256
6
ByLayer
370
18
48
1
60
0
100
AcDbSpline
70
4
71
3
72
8
73
4
40
0
40
0
40
0
40
0
40
1
40
1
40
1
40
1
41
1
10
35.433733252516
20
-4.38671026940486
30
0
41
1
10
34.7128075163807
20
-4.50407237101086
30
0
41
1
10
33.9924797046387
20
-4.57571510895011
30
0
41
1
10
33.2678295728548
20
-4.59910140712563
30
0
0
SPLINE
5
F6
100
AcDbEntity
8
1
62
256
6
ByLayer
370
18
48
1
60
0
100
AcDbSpline
70
4
71
3
72
10
73
6
40
0
40
0
40
0
40
0
40
0.5
40
0.5
40
1
40
1
40
1
40
1
41
1
10
60.6128256841472
20
4.49488001604888
30
0
41
1
10
60.8331891358558
20
3.92263941966962
30
0
41
1
10
61.0548614582511
20
3.3510007769213
30
0
41
1
10
61.4991149546378
20
2.20808971512397
30
0
41
1
10
61.7214990438509
20
1.63672675544314
30
0
41
1
10
61.9430152044892
20
1.06495301290499
30
0
0
SPLINE
5
F7
100
AcDbEntity
8
1
62
256
6
ByLayer
370
18
48
1
60
0
100
AcDbSpline
70
4
71
3
72
12
73
8
40
0
40
0
40
0
40
0
40
0.25
40
0.25
40
0.5
40
0.5
40
1
40
1
40
1
40
1
41
1
10
32.9021392178097
20
4.51423423060942
30
0
41
1
10
32.7549437115532
20
4.66505528663745
30
0
41
1
10
32.6081827612391
20
4.81423195489074
30
0
41
1
10
32.3148898781604
20
5.109540897725
30
0
41
1
10
32.1684360584386
20
5.25561836124788
30
0
41
1
10
31.7296295905046
20
5.68891382706929
30
0
41
1
10
31.4380930305884
20
5.97100473911595
30
0
41
1
10
31.1482159437343
20
6.24452027615575
30
0
0
SPLINE
5
F8
100
AcDbEntity
8
1
62
256
6
ByLayer
370
18
48
1
60
0
100
AcDbSpline
70
4
71
3
72
40
73
36
40
0
40
0
40
0
40
0
40
0.0624999999999996
40
0.0624999999999996
40
0.124999999999999
40
0.124999999999999
40
0.250000000000007
40
0.250000000000007
40
0.31250000000001
40
0.31250000000001
40
0.375000000000014
40
0.375000000000014
40
0.406250000000016
40
0.406250000000016
40
0.437500000000017
40
0.437500000000017
40
0.453125000000018
40
0.453125000000018
40
0.468750000000019
40
0.468750000000019
40
0.500000000000017
40
0.500000000000017
40
0.531250000000015
40
0.531250000000015
40
0.562500000000013
40
0.562500000000013
40
0.625000000000009
40
0.625000000000009
40
0.687500000000004
40
0.687500000000004
40
0.75
40
0.75
40
0.875
40
0.875
40
1
40
1
40
1
40
1
41
1
10
60.8227585961232
20
-2.02939702476806
30
0
41
1
10
60.7545493817362
20
-2.01020414100574
30
0
41
1
10
60.6864133899351
20
-1.98776108446992
30
0
41
1
10
60.5502866936286
20
-1.93642602113576
30
0
41
1
10
60.482045467987
20
-1.90741297085299
30
0
41
1
10
60.2795688211367
20
-1.81076947779263
30
0
41
1
10
60.1478260521379
20
-1.73455765340751
30
0
41
1
10
59.9576071204493
20
-1.59335968447667
30
0
41
1
10
59.8957563646466
20
-1.54190835314657
30
0
41
1
10
59.7791115117495
20
-1.42711347927178
30
0
41
1
10
59.7242992361736
20
-1.36434233613207
30
0
41
1
10
59.6563347715128
20
-1.25655347971465
30
0
41
1
10
59.6360341690055
20
-1.21796310772467
30
0
41
1
10
59.6062799185128
20
-1.13708824740687
30
0
41
1
10
59.5970561176203
20
-1.0950925267442
30
0
41
1
10
59.5971015247534
20
-1.03343605643283
30
0
41
1
10
59.5994108706243
20
-1.01392787015234
30
0
41
1
10
59.608448128973
20
-0.976922147368015
30
0
41
1
10
59.6152912658232
20
-0.959340969997157
30
0
41
1
10
59.640738976753
20
-0.912022762380929
30
0
41
1
10
59.6644480101573
20
-0.886722409086559
30
0
41
1
10
59.7170526496617
20
-0.846594170044455
30
0
41
1
10
59.7465736172469
20
-0.831193525874056
30
0
41
1
10
59.8073016324481
20
-0.8072894449476
30
0
41
1
10
59.8388448897766
20
-0.798597394141467
30
0
41
1
10
59.9358933690574
20
-0.779207663214947
30
0
41
1
10
60.003237990537
20
-0.775245600973506
30
0
41
1
10
60.1379903434726
20
-0.777751540133551
30
0
41
1
10
60.2060260289613
20
-0.784323840697624
30
0
41
1
10
60.3430548140711
20
-0.80519055402624
30
0
41
1
10
60.4121914480875
20
-0.819585123783298
30
0
41
1
10
60.618592554502
20
-0.872097664138977
30
0
41
1
10
60.7560566162145
20
-0.919540362181323
30
0
41
1
10
61.0275975598445
20
-1.03635875797679
30
0
41
1
10
61.1609128776374
20
-1.10510143828415
30
0
41
1
10
61.2908104659067
20
-1.18822897900998
30
0
0
SPLINE
5
F9
100
AcDbEntity
8
1
62
256
6
ByLayer
370
18
48
1
60
0
100
AcDbSpline
70
4
71
3
72
8
73
4
40
0
40
0
40
0
40
0
40
1
40
1
40
1
40
1
41
1
10
61.9642431142165
20
-0.0480522770897664
30
0
41
1
10
61.7347889698692
20
-0.423591237296222
30
0
41
1
10
61.5102900688885
20
-0.803630745616971
30
0
41
1
10
61.2908104659079
20
-1.18822897900492
30
0
0
SPLINE
5
FA
100
AcDbEntity
8
1
62
256
6
ByLayer
370
18
48
1
60
0
100
AcDbSpline
70
4
71
3
72
8
73
4
40
0
40
0
40
0
40
0
40
1
40
1
40
1
40
1
41
1
10
33.2678295728547
20
4.59910140712563
30
0
41
1
10
33.2767824584242
20
4.58358237330924
30
0
41
1
10
33.2860954379673
20
4.5478549447144
30
0
41
1
10
33.29458166856
20
4.49230222553038
30
0
0
SPLINE
5
FB
100
AcDbEntity
8
1
62
256
6
ByLayer
370
18
48
1
60
0
100
AcDbSpline
70
4
71
3
72
38
73
34
40
0
40
0
40
0
40
0
40
0.0487514013446316
40
0.0487514013446316
40
0.108204438760591
40
0.108204438760591
40
0.167657476176551
40
0.167657476176551
40
0.227110513592511
40
0.227110513592511
40
0.286563551008471
40
0.286563551008471
40
0.346016588424431
40
0.346016588424431
40
0.405469625840391
40
0.405469625840391
40
0.464922663256351
40
0.464922663256351
40
0.52437570067231
40
0.52437570067231
40
0.643281775504233
40
0.643281775504233
40
0.702734812920194
40
0.702734812920194
40
0.762187850336155
40
0.762187850336155
40
0.821640887752116
40
0.821640887752116
40
0.881093925168078
40
0.881093925168078
40
0.940546962584039
40
0.940546962584039
40
1
40
1
40
1
40
1
41
1
10
43.8983661386333
20
4.38302319032979
30
0
41
1
10
44.096957178587
20
4.38288690639578
30
0
41
1
10
44.295568653171
20
4.37914207430723
30
0
41
1
10
44.7363369497575
20
4.36369795160059
30
0
41
1
10
44.9784072846135
20
4.35088480098185
30
0
41
1
10
45.4635235438607
20
4.31368320201375
30
0
41
1
10
45.7067476528593
20
4.28953545925657
30
0
41
1
10
46.191961496575
20
4.23173171637634
30
0
41
1
10
46.4342043126008
20
4.19849609653005
30
0
41
1
10
46.9182091372289
20
4.12166682098129
30
0
41
1
10
47.1601363520011
20
4.07759481797265
30
0
41
1
10
47.6445892389098
20
3.98072703986668
30
0
41
1
10
47.8869186332682
20
3.92799179765584
30
0
41
1
10
48.3716984162775
20
3.81290004136233
30
0
41
1
10
48.6143471973724
20
3.75022053590422
30
0
41
1
10
49.0997967811201
20
3.61684713320028
30
0
41
1
10
49.3424285915566
20
3.54636067490301
30
0
41
1
10
49.8271098134386
20
3.39772073738104
30
0
41
1
10
50.0691002365801
20
3.31907796123431
30
0
41
1
10
50.7948253420084
20
3.06965525743149
30
0
41
1
10
51.2795795356659
20
2.88857566337819
30
0
41
1
10
52.007816590316
20
2.59713586174146
30
0
41
1
10
52.250382527996
20
2.49666580078232
30
0
41
1
10
52.7352753229471
20
2.29180430487804
30
0
41
1
10
52.9776622704688
20
2.18709864604921
30
0
41
1
10
53.4619685057162
20
1.97165332950266
30
0
41
1
10
53.7038850298052
20
1.86095534367971
30
0
41
1
10
54.187862467169
20
1.63526956937784
30
0
41
1
10
54.4301648220259
20
1.52073718176629
30
0
41
1
10
54.9155016769914
20
1.28828883998645
30
0
41
1
10
55.1587340572797
20
1.1699946889814
30
0
41
1
10
55.6432492718355
20
0.931190383136595
30
0
41
1
10
55.8847584623144
20
0.810568240651605
30
0
41
1
10
56.1261052295008
20
0.689931941762524
30
0
0
SPLINE
5
FC
100
AcDbEntity
8
1
62
256
6
ByLayer
370
18
48
1
60
0
100
AcDbSpline
70
4
71
3
72
12
73
8
40
0
40
0
40
0
40
0
40
0.223351787223526
40
0.223351787223526
40
0.482234524815684
40
0.482234524815684
40
1
40
1
40
1
40
1
41
1
10
32.8415564008098
20
-4.57624095844091
30
0
41
1
10
32.7146607874182
20
-4.70597479582378
30
0
41
1
10
32.5880559366987
20
-4.83449712878542
30
0
41
1
10
32.3148898781603
20
-5.109540897725
30
0
41
1
10
32.1684360584385
20
-5.25561836124788
30
0
41
1
10
31.7296295905045
20
-5.68891382706931
30
0
41
1
10
31.4380930305883
20
-5.97100473911593
30
0
41
1
10
31.1482159437342
20
-6.24452027615572
30
0
0
SPLINE
5
FD
100
AcDbEntity
8
1
62
256
6
ByLayer
370
18
48
1
60
0
100
AcDbSpline
70
4
71
3
72
36
73
32
40
0
40
0
40
0
40
0
40
0.084627657214584
40
0.084627657214584
40
0.117319526599777
40
0.117319526599777
40
0.150011395984971
40
0.150011395984971
40
0.215395134755358
40
0.215395134755358
40
0.346162612296133
40
0.346162612296133
40
0.378854481681327
40
0.378854481681327
40
0.411546351066521
40
0.411546351066521
40
0.476930089836908
40
0.476930089836908
40
0.542313828607294
40
0.542313828607294
40
0.575005697992488
40
0.575005697992488
40
0.607697567377681
40
0.607697567377681
40
0.738465044918454
40
0.738465044918454
40
0.803848783688841
40
0.803848783688841
40
0.869232522459227
40
0.869232522459227
40
1
40
1
40
1
40
1
41
1
10
31.1129097407053
20
-6.2237794033571
30
0
41
1
10
31.0912775868633
20
-6.20175977277469
30
0
41
1
10
31.0695865174675
20
-6.16262822391886
30
0
41
1
10
31.0396349590502
20
-6.08478896135077
30
0
41
1
10
31.0313430224598
20
-6.06053453428183
30
0
41
1
10
31.0147369252447
20
-6.00681432172885
30
0
41
1
10
31.0063857816166
20
-5.9772538787569
30
0
41
1
10
30.9813095839918
20
-5.88138217580499
30
0
41
1
10
30.964604196078
20
-5.80801644033701
30
0
41
1
10
30.9141336140548
20
-5.56044944646612
30
0
41
1
10
30.8817580743767
20
-5.35897955283951
30
0
41
1
10
30.8394762781953
20
-5.06049078700397
30
0
41
1
10
30.8309367971795
20
-4.99830184751335
30
0
41
1
10
30.8139762732686
20
-4.87051589944193
30
0
41
1
10
30.8055360099975
20
-4.80479064977834
30
0
41
1
10
30.7804325909433
20
-4.60220850222112
30
0
41
1
10
30.7640652052637
20
-4.45995324531714
30
0
41
1
10
30.7312473997722
20
-4.16126801657467
30
0
41
1
10
30.7145849597863
20
-4.00485128976231
30
0
41
1
10
30.6891543728976
20
-3.75944741983832
30
0
41
1
10
30.6806441856724
20
-3.67584393385587
30
0
41
1
10
30.6637219981073
20
-3.5049499779264
30
0
41
1
10
30.6553061240915
20
-3.41773728747535
30
0
41
1
10
30.6136379271803
20
-2.97736648595483
30
0
41
1
10
30.5804611902242
20
-2.60773994421135
30
0
41
1
10
30.5304656386335
20
-2.02785736274475
30
0
41
1
10
30.5138576057326
20
-1.83028435242483
30
0
41
1
10
30.4802537036444
20
-1.42631812054074
30
0
41
1
10
30.4635749765779
20
-1.22285710454562
30
0
41
1
10
30.4135273716736
20
-0.610405208526572
30
0
41
1
10
30.3806838354772
20
-0.198357222857851
30
0
41
1
10
30.3470391434743
20
0.217388828066703
30
0
0
SPLINE
5
FE
100
AcDbEntity
8
1
62
256
6
ByLayer
370
18
48
1
60
0
100
AcDbSpline
70
4
71
3
72
8
73
4
40
0
40
0
40
0
40
0
40
1
40
1
40
1
40
1
41
1
10
61.9430152044892
20
-1.06495301290502
30
0
41
1
10
61.9644178431778
20
-0.748919740145396
30
0
41
1
10
61.9799269705749
20
-0.433185676201589
30
0
41
1
10
61.9895331539943
20
-0.117751299963487
30
0
0
SPLINE
5
FF
100
AcDbEntity
8
1
62
256
6
ByLayer
370
18
48
1
60
0
100
AcDbSpline
70
4
71
1
72
4
73
2
40
0
40
0
40
1
40
1
41
1
10
32.7798400584567
20
-4.57146926061083
30
0
41
1
10
32.8618278270633
20
-4.57575506900974
30
0
0
SPLINE
5
100
100
AcDbEntity
8
1
62
256
6
ByLayer
370
18
48
1
60
0
100
AcDbSpline
70
4
71
2
72
6
73
3
40
0
40
0
40
0
40
1
40
1
40
1
41
1
10
60.1148292866387
20
-4.39355700870135
30
0
41
1
10
60.2512271437088
20
-4.39399129963607
30
0
41
1
10
60.3862573923806
20
-4.39294082836568
30
0
0
SPLINE
5
101
100
AcDbEntity
8
1
62
256
6
ByLayer
370
18
48
1
60
0
100
AcDbSpline
70
4
71
3
72
23
73
19
40
0
40
0
40
0
40
0
40
0.0913951543781429
40
0.168575771095124
40
0.226719468499537
40
0.276750276035077
40
0.323294903946943
40
0.381590689452818
40
0.475623077003684
40
0.558037850898217
40
0.634260974775341
40
0.688552439569232
40
0.742005907293078
40
0.806743081255097
40
0.879228189473387
40
0.922699308690031
40
0.990431754160918
40
1
40
1
40
1
40
1
41
1
10
43.8994392622951
20
4.3829060185013
30
0
41
1
10
43.6419638041374
20
4.38239746549027
30
0
41
1
10
43.1670186686504
20
4.38177831851647
30
0
41
1
10
42.5263378688602
20
4.38174758766877
30
0
41
1
10
42.005100259367
20
4.38222585211039
30
0
41
1
10
41.5684401857182
20
4.38106252095267
30
0
41
1
10
41.1314765014714
20
4.38099350117267
30
0
41
1
10
40.5702524088041
20
4.38150932249337
30
0
41
1
10
39.9078205757415
20
4.37998892968596
30
0
41
1
10
39.1947908128732
20
4.38052500288148
30
0
41
1
10
38.5939118778823
20
4.37994976576923
30
0
41
1
10
38.0747587727401
20
4.37934243231328
30
0
41
1
10
37.5880235663361
20
4.37953776252988
30
0
41
1
10
37.0499422863601
20
4.37920664787913
30
0
41
1
10
36.5400360916319
20
4.37863823830313
30
0
41
1
10
36.0216695088329
20
4.37858763806085
30
0
41
1
10
35.6808651818655
20
4.37837253177813
30
0
41
1
10
35.4627245555386
20
4.37820305809282
30
0
41
1
10
35.4357231381297
20
4.37818183403874
30
0
0
SPLINE
5
102
100
AcDbEntity
8
1
62
256
6
ByLayer
370
18
48
1
60
0
100
AcDbSpline
70
4
71
2
72
6
73
3
40
0
40
0
40
0
40
1
40
1
40
1
41
1
10
46.3322886754665
20
0.000125383805738
30
0
41
1
10
46.3322780272412
20
0.0001313297905483
30
0
41
1
10
46.3322673790268
20
0.0001374458114185
30
0
0
SPLINE
5
103
100
AcDbEntity
8
1
62
256
6
ByLayer
370
18
48
1
60
0
100
AcDbSpline
70
4
71
3
72
32
73
28
40
0
40
0
40
0
40
0
40
0.0617646352712858
40
0.106609340923611
40
0.141026734716837
40
0.172525111650836
40
0.201133479276801
40
0.226511089852052
40
0.248526262355506
40
0.269428535925626
40
0.31939394963261
40
0.367506489439505
40
0.408049044684958
40
0.45730713334291
40
0.503375869562966
40
0.532012236001241
40
0.566012372438526
40
0.615904616368977
40
0.661817578521929
40
0.702186247785236
40
0.747747491999992
40
0.794133572841479
40
0.82676207216365
40
0.852022084455063
40
0.890413975329025
40
0.941962862509878
40
1
40
1
40
1
40
1
41
1
10
33.000193263105
20
-4.37625462722468
30
0
41
1
10
33.2227350036715
20
-4.3765498330805
30
0
41
1
10
33.6076858700876
20
-4.3770048486644
30
0
41
1
10
34.120838265148
20
-4.37726437973976
30
0
41
1
10
34.5221537209835
20
-4.37769796371049
30
0
41
1
10
34.8655207880402
20
-4.377765238721
30
0
41
1
10
35.1760954198692
20
-4.37794336789662
30
0
41
1
10
35.4522008254604
20
-4.37820794874088
30
0
41
1
10
35.7003214462559
20
-4.37838299370858
30
0
41
1
10
36.0377540974263
20
-4.37857524182894
30
0
41
1
10
36.4700244900323
20
-4.37859265511673
30
0
41
1
10
36.9736021609208
20
-4.37910374698214
30
0
41
1
10
37.474642187138
20
-4.37950694916148
30
0
41
1
10
37.9682569404411
20
-4.37937859274018
30
0
41
1
10
38.4185972701853
20
-4.37966755962657
30
0
41
1
10
38.8135616075902
20
-4.38024955371708
30
0
41
1
10
39.2222072182936
20
-4.38041402853108
30
0
41
1
10
39.6928983615692
20
-4.37983003353546
30
0
41
1
10
40.1882895099316
20
-4.38067570939788
30
0
41
1
10
40.6656670184395
20
-4.38139610725247
30
0
41
1
10
41.14668411368
20
-4.38094614646297
30
0
41
1
10
41.5991904825859
20
-4.38119558343874
30
0
41
1
10
41.9780199921408
20
-4.38202490885254
30
0
41
1
10
42.327789565921
20
-4.38211975666258
30
0
41
1
10
42.7463207010011
20
-4.38175677347482
30
0
41
1
10
43.2839255180043
20
-4.38241800642598
30
0
41
1
10
43.6820413297762
20
-4.38271557958851
30
0
41
1
10
43.8928821349103
20
-4.38292781618665
30
0
0
SPLINE
5
104
100
AcDbEntity
8
1
62
256
6
ByLayer
370
18
48
1
60
0
100
AcDbSpline
70
4
71
2
72
6
73
3
40
0
40
0
40
0
40
1
40
1
40
1
41
1
10
32.7807508039088
20
4.57211354897257
30
0
41
1
10
31.9505341852097
20
5.39519727493843
30
0
41
1
10
31.1205251761398
20
6.21607086230367
30
0
0
SPLINE
5
105
100
AcDbEntity
8
1
62
256
6
ByLayer
370
18
48
1
60
0
100
AcDbSpline
70
4
71
2
72
6
73
3
40
0
40
0
40
0
40
1
40
1
40
1
41
1
10
46.3322673790267
20
-0.0001374458114469
30
0
41
1
10
46.332278027241
20
-0.0001313297905767
30
0
41
1
10
46.3322886754664
20
-0.0001253838057664
30
0
0
SPLINE
5
106
100
AcDbEntity
8
1
62
256
6
ByLayer
370
18
48
1
60
0
100
AcDbSpline
70
4
71
2
72
6
73
3
40
0
40
0
40
0
40
1
40
1
40
1
41
1
10
31.1205251761397
20
-6.21607086230378
30
0
41
1
10
31.9505341852096
20
-5.39519727493848
30
0
41
1
10
32.7807508039088
20
-4.57211354897262
30
0
0
LINE
5
7D
100
AcDbEntity
8
SK1
62
256
6
ByLayer
370
18
48
1
60
0
100
AcDbLine
10
-45
20
-5.055
30
0
11
-45
21
-5.040132
31
0
39
0
210
0
220
0
230
1
0
LINE
5
7F
100
AcDbEntity
8
SK1
62
256
6
ByLayer
370
13
48
1
60
0
100
AcDbLine
10
-44
20
-5.210347
30
0
11
-44
21
-6.012428
31
0
39
0
210
0
220
0
230
1
0
LINE
5
80
100
AcDbEntity
8
SK1
62
256
6
ByLayer
370
18
48
1
60
0
100
AcDbLine
10
-45
20
5.055
30
0
11
-45
21
-4.238099
31
0
39
0
210
0
220
0
230
1
0
LINE
5
81
100
AcDbEntity
8
SK1
62
256
6
ByLayer
370
18
48
1
60
0
100
AcDbLine
10
-45
20
-4.238
30
0
11
-45
21
-5.040132
31
0
39
0
210
0
220
0
230
1
0
LINE
5
82
100
AcDbEntity
8
SK1
62
256
6
ByLayer
370
18
48
1
60
0
100
AcDbLine
10
-43.055
20
7
30
0
11
-43.055
21
-7
31
0
39
0
210
0
220
0
230
1
0
LINE
5
83
100
AcDbEntity
8
SK1
62
256
6
ByLayer
370
18
48
1
60
0
100
AcDbLine
10
0
20
-7
30
0
11
0
21
7
31
0
39
0
210
0
220
0
230
1
0
LINE
5
84
100
AcDbEntity
8
SK1
62
256
6
ByLayer
370
18
48
1
60
0
100
AcDbLine
10
-43.9
20
-6.095939
30
0
11
-43.9
21
-5.358068
31
0
39
0
210
0
220
0
230
1
0
LINE
5
85
100
AcDbEntity
8
1
62
256
6
ByLayer
370
18
48
1
60
0
100
AcDbLine
10
0
20
-7
30
0
11
0
21
7
31
0
39
0
210
0
220
0
230
1
0
LINE
5
86
100
AcDbEntity
8
1
62
256
6
ByLayer
370
13
48
1
60
0
100
AcDbLine
10
0.679333
20
6.6225
30
0
11
0.679333
21
-6.6225
31
0
39
0
210
0
220
0
230
1
0
LINE
5
87
100
AcDbEntity
8
1
62
256
6
ByLayer
370
13
48
1
60
0
100
AcDbLine
10
1.358667
20
6.245
30
0
11
1.358667
21
-6.245
31
0
39
0
210
0
220
0
230
1
0
LINE
5
88
100
AcDbEntity
8
1
62
256
6
ByLayer
370
13
48
1
60
0
100
AcDbLine
10
60.441298
20
1.097821
30
0
11
61.989533
21
0.117751
31
0
39
0
210
0
220
0
230
1
0
LINE
5
89
100
AcDbEntity
8
1
62
256
6
ByLayer
370
13
48
1
60
0
100
AcDbLine
10
60.32236
20
0.991299
30
0
11
61.964243
21
-0.048052
31
0
39
0
210
0
220
0
230
1
0
LINE
5
8A
100
AcDbEntity
8
80
62
256
6
ByLayer
370
18
48
1
60
0
100
AcDbLine
10
0
20
0
30
0
11
-5
21
0
31
0
39
0
210
0
220
0
230
1
0
LINE
5
8B
100
AcDbEntity
8
SK4
62
256
6
ByLayer
370
18
48
0.05
60
0
100
AcDbLine
10
67
20
0
30
0
11
-50
21
0
31
0
39
0
210
0
220
0
230
1
0
LINE
5
8D
100
AcDbEntity
8
4
62
256
6
ByLayer
370
18
48
0.05
60
0
100
AcDbLine
10
62
20
0
30
0
11
0
21
0
31
0
39
0
210
0
220
0
230
1
0
LINE
5
8F
100
AcDbEntity
8
SK1
62
256
6
ByLayer
370
18
48
1
60
0
100
AcDbLine
10
-43.055
20
-7
30
0
11
0
21
-7
31
0
39
0
210
0
220
0
230
1
0
LINE
5
90
100
AcDbEntity
8
SK1
62
256
6
ByLayer
370
18
48
1
60
0
100
AcDbLine
10
0
20
7
30
0
11
-43.055
21
7
31
0
39
0
210
0
220
0
230
1
0
LINE
5
91
100
AcDbEntity
8
SK1
62
256
6
ByLayer
370
18
48
1
60
0
100
AcDbLine
10
-45
20
-5.055
30
0
11
-43.055
21
-7
31
0
39
0
210
0
220
0
230
1
0
LINE
5
92
100
AcDbEntity
8
SK1
62
256
6
ByLayer
370
18
48
1
60
0
100
AcDbLine
10
-43.055
20
7
30
0
11
-45
21
5.055
31
0
39
0
210
0
220
0
230
1
0
LINE
5
93
100
AcDbEntity
8
1
62
256
6
ByLayer
370
18
48
1
60
0
100
AcDbLine
10
59.933197
20
4.624576
30
0
11
58.553148
21
4.623713
31
0
39
0
210
0
220
0
230
1
0
LINE
5
94
100
AcDbEntity
8
1
62
256
6
ByLayer
370
18
48
1
60
0
100
AcDbLine
10
58.553148
20
-4.623713
30
0
11
59.933197
21
-4.624576
31
0
39
0
210
0
220
0
230
1
0
LINE
5
95
100
AcDbEntity
8
1
62
256
6
ByLayer
370
18
48
1
60
0
100
AcDbLine
10
17.034512
20
6.245
30
0
11
1.358667
21
6.245
31
0
39
0
210
0
220
0
230
1
0
LINE
5
96
100
AcDbEntity
8
1
62
256
6
ByLayer
370
18
48
1
60
0
100
AcDbLine
10
1.358667
20
-6.245
30
0
11
17.034512
21
-6.245
31
0
39
0
210
0
220
0
230
1
0
LINE
5
97
100
AcDbEntity
8
81
62
256
6
ByLayer
370
18
48
1
60
0
100
AcDbLine
10
62
20
0
30
0
11
67
21
0
31
0
39
0
210
0
220
0
230
1
0
LINE
5
98
100
AcDbEntity
8
2
62
256
6
ByLayer
370
13
48
1
60
0
100
AcDbLine
10
84.236431
20
-6.245
30
0
11
84.236431
21
34.68948
31
0
39
0
210
0
220
0
230
1
0
LINE
5
9A
100
AcDbEntity
8
2
62
256
6
ByLayer
370
13
48
1
60
0
100
AcDbLine
10
32.8465
20
6.245
30
0
11
86.236431
21
6.245
31
0
39
0
210
0
220
0
230
1
0
LINE
5
9B
100
AcDbEntity
8
2
62
256
6
ByLayer
370
13
48
1
60
0
100
AcDbLine
10
32.8465
20
-6.245
30
0
11
86.236431
21
-6.245
31
0
39
0
210
0
220
0
230
1
0
LINE
5
9C
100
AcDbEntity
8
1
62
256
6
ByLayer
370
18
48
1
60
1
100
AcDbLine
10
84.236431
20
6.245
30
0
11
84.697214
21
2.745002
31
0
39
0
210
0
220
0
230
1
0
LINE
5
9D
100
AcDbEntity
8
1
62
256
6
ByLayer
370
18
48
1
60
1
100
AcDbLine
10
84.697214
20
2.745002
30
0
11
83.775647
21
2.744998
31
0
39
0
210
0
220
0
230
1
0
LINE
5
9E
100
AcDbEntity
8
1
62
256
6
ByLayer
370
18
48
1
60
1
100
AcDbLine
10
83.775647
20
2.744998
30
0
11
84.236431
21
6.245
31
0
39
0
210
0
220
0
230
1
0
LINE
5
9F
100
AcDbEntity
8
1
62
256
6
ByLayer
370
18
48
1
60
1
100
AcDbLine
10
84.236431
20
-6.245
30
0
11
83.775647
21
-2.745002
31
0
39
0
210
0
220
0
230
1
0
LINE
5
A0
100
AcDbEntity
8
1
62
256
6
ByLayer
370
18
48
1
60
1
100
AcDbLine
10
83.775647
20
-2.745002
30
0
11
84.697214
21
-2.744998
31
0
39
0
210
0
220
0
230
1
0
LINE
5
A1
100
AcDbEntity
8
1
62
256
6
ByLayer
370
18
48
1
60
1
100
AcDbLine
10
84.697214
20
-2.744998
30
0
11
84.236431
21
-6.245
31
0
39
0
210
0
220
0
230
1
0
LINE
5
A2
100
AcDbEntity
8
SK2
62
256
6
ByLayer
370
13
48
1
60
0
100
AcDbLine
10
-53.625163
20
-7
30
0
11
-53.625163
21
38.225706
31
0
39
0
210
0
220
0
230
1
0
LINE
5
A4
100
AcDbEntity
8
SK2
62
256
6
ByLayer
370
13
48
1
60
0
100
AcDbLine
10
-46.5875
20
7
30
0
11
-55.625163
21
7
31
0
39
0
210
0
220
0
230
1
0
LINE
5
A5
100
AcDbEntity
8
SK2
62
256
6
ByLayer
370
13
48
1
60
0
100
AcDbLine
10
-46.5875
20
-7
30
0
11
-55.625163
21
-7
31
0
39
0
210
0
220
0
230
1
0
LINE
5
A6
100
AcDbEntity
8
1
62
256
6
ByLayer
370
18
48
1
60
1
100
AcDbLine
10
-53.625163
20
7
30
0
11
-53.164379
21
3.500002
31
0
39
0
210
0
220
0
230
1
0
LINE
5
A7
100
AcDbEntity
8
1
62
256
6
ByLayer
370
18
48
1
60
1
100
AcDbLine
10
-53.164379
20
3.500002
30
0
11
-54.085946
21
3.499998
31
0
39
0
210
0
220
0
230
1
0
LINE
5
A8
100
AcDbEntity
8
1
62
256
6
ByLayer
370
18
48
1
60
1
100
AcDbLine
10
-54.085946
20
3.499998
30
0
11
-53.625163
21
7
31
0
39
0
210
0
220
0
230
1
0
LINE
5
A9
100
AcDbEntity
8
1
62
256
6
ByLayer
370
18
48
1
60
1
100
AcDbLine
10
-53.625163
20
-7
30
0
11
-54.085946
21
-3.500002
31
0
39
0
210
0
220
0
230
1
0
LINE
5
AA
100
AcDbEntity
8
1
62
256
6
ByLayer
370
18
48
1
60
1
100
AcDbLine
10
-54.085946
20
-3.500002
30
0
11
-53.164379
21
-3.499998
31
0
39
0
210
0
220
0
230
1
0
LINE
5
AB
100
AcDbEntity
8
1
62
256
6
ByLayer
370
18
48
1
60
1
100
AcDbLine
10
-53.164379
20
-3.499998
30
0
11
-53.625163
21
-7
31
0
39
0
210
0
220
0
230
1
0
LINE
5
AC
100
AcDbEntity
8
2
62
256
6
ByLayer
370
13
48
1
60
0
100
AcDbLine
10
75.970081
20
-4.625
30
0
11
75.970081
21
33.08983
31
0
39
0
210
0
220
0
230
1
0
LINE
5
AD
100
AcDbEntity
8
2
62
256
6
ByLayer
370
13
48
1
60
0
100
AcDbLine
10
62.2165
20
4.625
30
0
11
77.970081
21
4.625
31
0
39
0
210
0
220
0
230
1
0
LINE
5
AE
100
AcDbEntity
8
2
62
256
6
ByLayer
370
13
48
1
60
0
100
AcDbLine
10
62.2165
20
-4.625
30
0
11
77.970081
21
-4.625
31
0
39
0
210
0
220
0
230
1
0
LINE
5
AF
100
AcDbEntity
8
1
62
256
6
ByLayer
370
18
48
1
60
1
100
AcDbLine
10
75.970081
20
4.625
30
0
11
76.430865
21
1.125002
31
0
39
0
210
0
220
0
230
1
0
LINE
5
B0
100
AcDbEntity
8
1
62
256
6
ByLayer
370
18
48
1
60
1
100
AcDbLine
10
76.430865
20
1.125002
30
0
11
75.509297
21
1.124998
31
0
39
0
210
0
220
0
230
1
0
LINE
5
B1
100
AcDbEntity
8
1
62
256
6
ByLayer
370
18
48
1
60
1
100
AcDbLine
10
75.509297
20
1.124998
30
0
11
75.970081
21
4.625
31
0
39
0
210
0
220
0
230
1
0
LINE
5
B2
100
AcDbEntity
8
1
62
256
6
ByLayer
370
18
48
1
60
1
100
AcDbLine
10
75.970081
20
-4.625
30
0
11
75.509297
21
-1.125002
31
0
39
0
210
0
220
0
230
1
0
LINE
5
B3
100
AcDbEntity
8
1
62
256
6
ByLayer
370
18
48
1
60
1
100
AcDbLine
10
75.509297
20
-1.125002
30
0
11
76.430865
21
-1.124998
31
0
39
0
210
0
220
0
230
1
0
LINE
5
B4
100
AcDbEntity
8
1
62
256
6
ByLayer
370
18
48
1
60
1
100
AcDbLine
10
76.430865
20
-1.124998
30
0
11
75.970081
21
-4.625
31
0
39
0
210
0
220
0
230
1
0
LINE
5
B5
100
AcDbEntity
8
SK2
62
256
6
ByLayer
370
13
48
1
60
0
100
AcDbLine
10
30.136468
20
-7.367532
30
0
11
21.985463
21
-15.518537
31
0
39
0
210
0
220
0
230
1
0
LINE
5
B6
100
AcDbEntity
8
SK2
62
256
6
ByLayer
370
13
48
1
60
0
100
AcDbLine
10
30.136468
20
7.367532
30
0
11
21.985463
21
15.518537
31
0
39
0
210
0
220
0
230
1
0
LINE
5
B7
100
AcDbEntity
8
1
62
256
6
ByLayer
370
18
48
1
60
1
100
AcDbLine
10
23.399677
20
-14.104323
30
0
11
20.695664
21
-11.834825
31
0
39
0
210
0
220
0
230
1
0
LINE
5
B8
100
AcDbEntity
8
1
62
256
6
ByLayer
370
18
48
1
60
1
100
AcDbLine
10
20.695664
20
-11.834825
30
0
11
21.375188
21
-11.212303
31
0
39
0
210
0
220
0
230
1
0
LINE
5
B9
100
AcDbEntity
8
1
62
256
6
ByLayer
370
18
48
1
60
1
100
AcDbLine
10
21.375188
20
-11.212303
30
0
11
23.399677
21
-14.104323
31
0
39
0
210
0
220
0
230
1
0
LINE
5
BA
100
AcDbEntity
8
1
62
256
6
ByLayer
370
18
48
1
60
1
100
AcDbLine
10
23.399677
20
14.104323
30
0
11
21.375191
21
11.212306
31
0
39
0
210
0
220
0
230
1
0
LINE
5
BB
100
AcDbEntity
8
1
62
256
6
ByLayer
370
18
48
1
60
1
100
AcDbLine
10
21.375191
20
11.212306
30
0
11
20.695662
21
11.834822
31
0
39
0
210
0
220
0
230
1
0
LINE
5
BC
100
AcDbEntity
8
1
62
256
6
ByLayer
370
18
48
1
60
1
100
AcDbLine
10
20.695662
20
11.834822
30
0
11
23.399677
21
14.104323
31
0
39
0
210
0
220
0
230
1
0
LINE
5
10D
100
AcDbEntity
8
1
62
256
6
ByLayer
370
18
48
1
60
1
100
AcDbLine
10
84.236431
20
6.245
30
0
11
84.697214
21
2.745002
31
0
39
0
210
0
220
0
230
1
0
LINE
5
10E
100
AcDbEntity
8
1
62
256
6
ByLayer
370
18
48
1
60
1
100
AcDbLine
10
84.697214
20
2.745002
30
0
11
83.775647
21
2.744998
31
0
39
0
210
0
220
0
230
1
0
LINE
5
10F
100
AcDbEntity
8
1
62
256
6
ByLayer
370
18
48
1
60
1
100
AcDbLine
10
83.775647
20
2.744998
30
0
11
84.236431
21
6.245
31
0
39
0
210
0
220
0
230
1
0
LINE
5
111
100
AcDbEntity
8
1
62
256
6
ByLayer
370
18
48
1
60
1
100
AcDbLine
10
84.236431
20
-6.245
30
0
11
83.775647
21
-2.745002
31
0
39
0
210
0
220
0
230
1
0
LINE
5
112
100
AcDbEntity
8
1
62
256
6
ByLayer
370
18
48
1
60
1
100
AcDbLine
10
83.775647
20
-2.745002
30
0
11
84.697214
21
-2.744998
31
0
39
0
210
0
220
0
230
1
0
LINE
5
113
100
AcDbEntity
8
1
62
256
6
ByLayer
370
18
48
1
60
1
100
AcDbLine
10
84.697214
20
-2.744998
30
0
11
84.236431
21
-6.245
31
0
39
0
210
0
220
0
230
1
0
LINE
5
117
100
AcDbEntity
8
1
62
256
6
ByLayer
370
18
48
1
60
1
100
AcDbLine
10
-53.625163
20
7
30
0
11
-53.164379
21
3.500002
31
0
39
0
210
0
220
0
230
1
0
LINE
5
118
100
AcDbEntity
8
1
62
256
6
ByLayer
370
18
48
1
60
1
100
AcDbLine
10
-53.164379
20
3.500002
30
0
11
-54.085946
21
3.499998
31
0
39
0
210
0
220
0
230
1
0
LINE
5
119
100
AcDbEntity
8
1
62
256
6
ByLayer
370
18
48
1
60
1
100
AcDbLine
10
-54.085946
20
3.499998
30
0
11
-53.625163
21
7
31
0
39
0
210
0
220
0
230
1
0
LINE
5
11B
100
AcDbEntity
8
1
62
256
6
ByLayer
370
18
48
1
60
1
100
AcDbLine
10
-53.625163
20
-7
30
0
11
-54.085946
21
-3.500002
31
0
39
0
210
0
220
0
230
1
0
LINE
5
11C
100
AcDbEntity
8
1
62
256
6
ByLayer
370
18
48
1
60
1
100
AcDbLine
10
-54.085946
20
-3.500002
30
0
11
-53.164379
21
-3.499998
31
0
39
0
210
0
220
0
230
1
0
LINE
5
11D
100
AcDbEntity
8
1
62
256
6
ByLayer
370
18
48
1
60
1
100
AcDbLine
10
-53.164379
20
-3.499998
30
0
11
-53.625163
21
-7
31
0
39
0
210
0
220
0
230
1
0
LINE
5
121
100
AcDbEntity
8
1
62
256
6
ByLayer
370
18
48
1
60
1
100
AcDbLine
10
75.970081
20
4.625
30
0
11
76.430865
21
1.125002
31
0
39
0
210
0
220
0
230
1
0
LINE
5
122
100
AcDbEntity
8
1
62
256
6
ByLayer
370
18
48
1
60
1
100
AcDbLine
10
76.430865
20
1.125002
30
0
11
75.509297
21
1.124998
31
0
39
0
210
0
220
0
230
1
0
LINE
5
123
100
AcDbEntity
8
1
62
256
6
ByLayer
370
18
48
1
60
1
100
AcDbLine
10
75.509297
20
1.124998
30
0
11
75.970081
21
4.625
31
0
39
0
210
0
220
0
230
1
0
LINE
5
125
100
AcDbEntity
8
1
62
256
6
ByLayer
370
18
48
1
60
1
100
AcDbLine
10
75.970081
20
-4.625
30
0
11
75.509297
21
-1.125002
31
0
39
0
210
0
220
0
230
1
0
LINE
5
126
100
AcDbEntity
8
1
62
256
6
ByLayer
370
18
48
1
60
1
100
AcDbLine
10
75.509297
20
-1.125002
30
0
11
76.430865
21
-1.124998
31
0
39
0
210
0
220
0
230
1
0
LINE
5
127
100
AcDbEntity
8
1
62
256
6
ByLayer
370
18
48
1
60
1
100
AcDbLine
10
76.430865
20
-1.124998
30
0
11
75.970081
21
-4.625
31
0
39
0
210
0
220
0
230
1
0
LINE
5
12A
100
AcDbEntity
8
1
62
256
6
ByLayer
370
18
48
1
60
1
100
AcDbLine
10
23.399677
20
-14.104323
30
0
11
20.695664
21
-11.834825
31
0
39
0
210
0
220
0
230
1
0
LINE
5
12B
100
AcDbEntity
8
1
62
256
6
ByLayer
370
18
48
1
60
1
100
AcDbLine
10
20.695664
20
-11.834825
30
0
11
21.375188
21
-11.212303
31
0
39
0
210
0
220
0
230
1
0
LINE
5
12C
100
AcDbEntity
8
1
62
256
6
ByLayer
370
18
48
1
60
1
100
AcDbLine
10
21.375188
20
-11.212303
30
0
11
23.399677
21
-14.104323
31
0
39
0
210
0
220
0
230
1
0
LINE
5
12E
100
AcDbEntity
8
1
62
256
6
ByLayer
370
18
48
1
60
1
100
AcDbLine
10
23.399677
20
14.104323
30
0
11
21.375191
21
11.212306
31
0
39
0
210
0
220
0
230
1
0
LINE
5
12F
100
AcDbEntity
8
1
62
256
6
ByLayer
370
18
48
1
60
1
100
AcDbLine
10
21.375191
20
11.212306
30
0
11
20.695662
21
11.834822
31
0
39
0
210
0
220
0
230
1
0
LINE
5
130
100
AcDbEntity
8
1
62
256
6
ByLayer
370
18
48
1
60
1
100
AcDbLine
10
20.695662
20
11.834822
30
0
11
23.399677
21
14.104323
31
0
39
0
210
0
220
0
230
1
0
MTEXT
5
107
100
AcDbEntity
8
SK6
62
256
6
ByLayer
370
13
48
1
60
0
100
AcDbMText
10
-21.082626
20
37.165328
30
0
210
0
220
0
230
1
1
\W0.7776;462.2-0925-030A1-XM X2BM
40
3.5
41
0
44
1.084337
50
0
71
7
72
5
7
iso_b_vert
0
MTEXT
5
10B
100
AcDbEntity
8
2
62
256
6
ByLayer
370
18
48
1
60
0
100
AcDbMText
10
82.671797
20
16.872798
30
0
210
0
220
0
230
1
1
%%c
40
3.5
41
0
44
1.084337
50
90
71
7
72
5
7
iso_b_vert
0
MTEXT
5
10C
100
AcDbEntity
8
2
62
256
6
ByLayer
370
18
48
1
60
0
100
AcDbMText
10
82.671797
20
22.095454
30
0
210
0
220
0
230
1
1
\W0.7145;12,490
40
3.5
41
0
44
1.084337
50
90
71
7
72
5
7
iso_b_vert
0
MTEXT
5
115
100
AcDbEntity
8
SK2
62
256
6
ByLayer
370
18
48
1
60
0
100
AcDbMText
10
-55.189796
20
20.409024
30
0
210
0
220
0
230
1
1
%%c
40
3.5
41
0
44
1.084337
50
90
71
7
72
5
7
iso_b_vert
0
MTEXT
5
116
100
AcDbEntity
8
SK2
62
256
6
ByLayer
370
18
48
1
60
0
100
AcDbMText
10
-55.189796
20
25.63168
30
0
210
0
220
0
230
1
1
\W0.7145;14,000
40
3.5
41
0
44
1.084337
50
90
71
7
72
5
7
iso_b_vert
0
MTEXT
5
11F
100
AcDbEntity
8
2
62
256
6
ByLayer
370
18
48
1
60
0
100
AcDbMText
10
74.405448
20
17.381747
30
0
210
0
220
0
230
1
1
%%c
40
3.5
41
0
44
1.084337
50
90
71
7
72
5
7
iso_b_vert
0
MTEXT
5
120
100
AcDbEntity
8
2
62
256
6
ByLayer
370
18
48
1
60
0
100
AcDbMText
10
74.405448
20
22.604403
30
0
210
0
220
0
230
1
1
\W0.7317;9,250
40
3.5
41
0
44
1.084337
50
90
71
7
72
5
7
iso_b_vert
0
MTEXT
5
129
100
AcDbEntity
8
SK2
62
256
6
ByLayer
370
13
48
1
60
0
100
AcDbMText
10
12.735875
20
-0.291663
30
0
210
0
220
0
230
1
1
\W0.8181;90,0%%d
40
3.5
41
0
44
1.084337
50
0
71
7
72
5
7
iso_b_vert
0
HATCH
5
110
100
AcDbEntity
8
2
62
256
6
ByLayer
370
13
48
1
60
0
100
AcDbHatch
10
0
20
0
30
0
210
0
220
0
230
1
2
ANSI31
70
0
71
0
91
1
92
5
93
3
72
1
10
84.2364306046164
20
6.24500000000001
11
84.6972143461692
21
2.74500169255319
72
1
10
84.6972143461692
20
2.74500169255319
11
83.7756468630637
21
2.74499830744682
72
1
10
83.7756468630637
20
2.74499830744682
11
84.2364306046164
21
6.24500000000001
97
0
75
0
76
1
52
0
41
0.0062
77
0
78
1
53
45
43
0
44
0
45
-0.0139193969876572
46
0.0139193969876572
79
0
47
0
98
1
10
0
20
0
0
HATCH
5
114
100
AcDbEntity
8
2
62
256
6
ByLayer
370
13
48
1
60
0
100
AcDbHatch
10
0
20
0
30
0
210
0
220
0
230
1
2
ANSI31
70
0
71
0
91
1
92
5
93
3
72
1
10
84.2364306046164
20
-6.24499999999998
11
83.7756468630637
21
-2.74500169255316
72
1
10
83.7756468630637
20
-2.74500169255316
11
84.6972143461692
21
-2.74499830744679
72
1
10
84.6972143461692
20
-2.74499830744679
11
84.2364306046164
21
-6.24499999999998
97
0
75
0
76
1
52
0
41
0.0062
77
0
78
1
53
45
43
0
44
0
45
-0.0139193969876572
46
0.0139193969876572
79
0
47
0
98
1
10
0
20
0
0
HATCH
5
11A
100
AcDbEntity
8
SK2
62
256
6
ByLayer
370
13
48
1
60
0
100
AcDbHatch
10
0
20
0
30
0
210
0
220
0
230
1
2
ANSI31
70
0
71
0
91
1
92
5
93
3
72
1
10
-53.6251625675374
20
7
11
-53.1643788259847
21
3.50000169255318
72
1
10
-53.1643788259847
20
3.50000169255318
11
-54.0859463090902
21
3.49999830744682
72
1
10
-54.0859463090902
20
3.49999830744682
11
-53.6251625675374
21
7
97
0
75
0
76
1
52
0
41
0.0062
77
0
78
1
53
45
43
0
44
0
45
-0.0139193969876572
46
0.0139193969876572
79
0
47
0
98
1
10
0
20
0
0
HATCH
5
11E
100
AcDbEntity
8
SK2
62
256
6
ByLayer
370
13
48
1
60
0
100
AcDbHatch
10
0
20
0
30
0
210
0
220
0
230
1
2
ANSI31
70
0
71
0
91
1
92
5
93
3
72
1
10
-53.6251625675374
20
-7
11
-54.0859463090902
21
-3.50000169255318
72
1
10
-54.0859463090902
20
-3.50000169255318
11
-53.1643788259847
21
-3.49999830744682
72
1
10
-53.1643788259847
20
-3.49999830744682
11
-53.6251625675374
21
-7
97
0
75
0
76
1
52
0
41
0.0062
77
0
78
1
53
45
43
0
44
0
45
-0.0139193969876572
46
0.0139193969876572
79
0
47
0
98
1
10
0
20
0
0
HATCH
5
124
100
AcDbEntity
8
2
62
256
6
ByLayer
370
13
48
1
60
0
100
AcDbHatch
10
0
20
0
30
0
210
0
220
0
230
1
2
ANSI31
70
0
71
0
91
1
92
5
93
3
72
1
10
75.9700811011614
20
4.625
11
76.4308648427142
21
1.12500169255318
72
1
10
76.4308648427142
20
1.12500169255318
11
75.5092973596087
21
1.12499830744682
72
1
10
75.5092973596087
20
1.12499830744682
11
75.9700811011614
21
4.625
97
0
75
0
76
1
52
0
41
0.0062
77
0
78
1
53
45
43
0
44
0
45
-0.0139193969876572
46
0.0139193969876572
79
0
47
0
98
1
10
0
20
0
0
HATCH
5
128
100
AcDbEntity
8
2
62
256
6
ByLayer
370
13
48
1
60
0
100
AcDbHatch
10
0
20
0
30
0
210
0
220
0
230
1
2
ANSI31
70
0
71
0
91
1
92
5
93
3
72
1
10
75.9700811011614
20
-4.625
11
75.5092973596087
21
-1.12500169255318
72
1
10
75.5092973596087
20
-1.12500169255318
11
76.4308648427142
21
-1.12499830744682
72
1
10
76.4308648427142
20
-1.12499830744682
11
75.9700811011614
21
-4.625
97
0
75
0
76
1
52
0
41
0.0062
77
0
78
1
53
45
43
0
44
0
45
-0.0139193969876572
46
0.0139193969876572
79
0
47
0
98
1
10
0
20
0
0
HATCH
5
12D
100
AcDbEntity
8
SK2
62
256
6
ByLayer
370
13
48
1
60
0
100
AcDbHatch
10
0
20
0
30
0
210
0
220
0
230
1
2
ANSI31
70
0
71
0
91
1
92
5
93
3
72
1
10
23.3996768962409
20
-14.1043231037588
11
20.6956638112606
21
-11.8348246911431
72
1
10
20.6956638112606
20
-11.8348246911431
11
21.3751883101736
21
-11.2123031402665
72
1
10
21.3751883101736
20
-11.2123031402665
11
23.3996768962409
21
-14.1043231037588
97
0
75
0
76
1
52
0
41
0.0062
77
0
78
1
53
45
43
0
44
0
45
-0.0139193969876572
46
0.0139193969876572
79
0
47
0
98
1
10
0
20
0
0
HATCH
5
131
100
AcDbEntity
8
SK2
62
256
6
ByLayer
370
13
48
1
60
0
100
AcDbHatch
10
0
20
0
30
0
210
0
220
0
230
1
2
ANSI31
70
0
71
0
91
1
92
5
93
3
72
1
10
23.3996768962412
20
14.1043231037588
11
21.375190596814
21
11.2123056363079
72
1
10
21.375190596814
20
11.2123056363079
11
20.6956615246207
21
11.834822195102
72
1
10
20.6956615246207
20
11.834822195102
11
23.3996768962412
21
14.1043231037588
97
0
75
0
76
1
52
0
41
0.0062
77
0
78
1
53
45
43
0
44
0
45
-0.0139193969876572
46
0.0139193969876572
79
0
47
0
98
1
10
0
20
0
0
DIMENSION
5
133
100
AcDbEntity
8
SK2
62
256
6
ByLayer
370
13
48
1
60
0
100
AcDbDimension
2
_U0
10
60.629
20
-17.427503
30
0
11
30.3145
21
-17.427503
31
0
70
32
71
1
72
1
41
1
210
0
220
0
230
1
3
Standard
100
AcDbAlignedDimension
13
0
23
0
33
0
14
60.629
24
-4.625
34
0
50
0
100
AcDbRotatedDimension
1001
ACAD
1000
DSTYLE
1002
{
1070
   371
1070
    13
1070
   372
1070
    13
1070
   170
1070
     0
1070
   144
1040
1.0
1070
   277
1070
     2
1070
   278
1070
    44
1070
   146
1040
1.0
1070
   345
1005
16
1070
   347
1005
16
1070
   346
1005
16
1070
   344
1005
0
1070
   343
1005
0
1070
   172
1070
     1
1070
    76
1070
     0
1070
    75
1070
     0
1070
   282
1070
     0
1070
   281
1070
     0
1070
    71
1070
     0
1070
    74
1070
     0
1070
   279
1070
     0
1070
   173
1070
     1
1070
   340
1005
108
1070
   271
1070
     2
1070
   272
1070
     2
1070
    77
1070
     1
1070
    73
1070
     1
1070
   171
1070
     3
1070
   274
1070
     4
1070
   177
1070
    35
1070
   176
1070
    35
1070
   178
1070
    35
1070
    48
1040
-0.1
1070
    41
1040
3.5
1070
   147
1040
1.75
1070
    42
1040
1.5875
1070
    44
1040
2.0
1070
   140
1040
3.5
1002
}
1001
ACAD_DSTYLE_DIM_LINETYPE
1070
   380
1005
16
1001
ACAD_DSTYLE_DIM_EXT1_LINETYPE
1070
   381
1005
16
1001
ACAD_DSTYLE_DIM_EXT2_LINETYPE
1070
   382
1005
16
0
DIMENSION
5
14C
100
AcDbEntity
8
SK2
62
256
6
ByLayer
370
13
48
1
60
0
100
AcDbDimension
2
_U1
10
62
20
-38.192985
30
0
11
8.5
21
-38.192985
31
0
70
32
71
1
72
1
41
1
210
0
220
0
230
1
3
Standard
100
AcDbAlignedDimension
13
-45
23
-7
33
0
14
62
24
0
34
0
50
0
100
AcDbRotatedDimension
1001
ACAD
1000
DSTYLE
1002
{
1070
   371
1070
    13
1070
   372
1070
    13
1070
   170
1070
     0
1070
   144
1040
1.0
1070
   277
1070
     2
1070
   278
1070
    44
1070
   146
1040
1.0
1070
   345
1005
16
1070
   347
1005
16
1070
   346
1005
16
1070
   344
1005
0
1070
   343
1005
0
1070
   172
1070
     1
1070
    76
1070
     0
1070
    75
1070
     0
1070
   282
1070
     0
1070
   281
1070
     0
1070
    71
1070
     0
1070
    74
1070
     0
1070
   279
1070
     0
1070
   173
1070
     1
1070
   340
1005
108
1070
   271
1070
     2
1070
   272
1070
     2
1070
    77
1070
     1
1070
    73
1070
     1
1070
   171
1070
     3
1070
   274
1070
     4
1070
   177
1070
    35
1070
   176
1070
    35
1070
   178
1070
    35
1070
    48
1040
-0.1
1070
    41
1040
3.5
1070
   147
1040
1.75
1070
    42
1040
1.5875
1070
    44
1040
2.0
1070
   140
1040
3.5
1002
}
1001
ACAD_DSTYLE_DIM_LINETYPE
1070
   380
1005
16
1001
ACAD_DSTYLE_DIM_EXT1_LINETYPE
1070
   381
1005
16
1001
ACAD_DSTYLE_DIM_EXT2_LINETYPE
1070
   382
1005
16
0
DIMENSION
5
164
100
AcDbEntity
8
SK2
62
256
6
ByLayer
370
13
48
1
60
0
100
AcDbDimension
2
_U2
10
62
20
16.234119
30
0
11
46.63
21
16.234119
31
0
70
32
71
1
72
1
41
1
210
0
220
0
230
1
3
Standard
100
AcDbAlignedDimension
13
31.26
23
6.245
33
0
14
62
24
0
34
0
50
0
100
AcDbRotatedDimension
1001
ACAD
1000
DSTYLE
1002
{
1070
   371
1070
    13
1070
   372
1070
    13
1070
   170
1070
     0
1070
   144
1040
1.0
1070
   277
1070
     2
1070
   278
1070
    44
1070
   146
1040
1.0
1070
   345
1005
16
1070
   347
1005
16
1070
   346
1005
16
1070
   344
1005
0
1070
   343
1005
0
1070
   172
1070
     1
1070
    76
1070
     0
1070
    75
1070
     0
1070
   282
1070
     0
1070
   281
1070
     0
1070
    71
1070
     0
1070
    74
1070
     0
1070
   279
1070
     0
1070
   173
1070
     1
1070
   340
1005
108
1070
   271
1070
     2
1070
   272
1070
     2
1070
    77
1070
     1
1070
    73
1070
     1
1070
   171
1070
     3
1070
   274
1070
     4
1070
   177
1070
    35
1070
   176
1070
    35
1070
   178
1070
    35
1070
    48
1040
-0.1
1070
    41
1040
3.5
1070
   147
1040
1.75
1070
    42
1040
1.5875
1070
    44
1040
2.0
1070
   140
1040
3.5
1002
}
1001
ACAD_DSTYLE_DIM_LINETYPE
1070
   380
1005
16
1001
ACAD_DSTYLE_DIM_EXT1_LINETYPE
1070
   381
1005
16
1001
ACAD_DSTYLE_DIM_EXT2_LINETYPE
1070
   382
1005
16
0
DIMENSION
5
17C
100
AcDbEntity
8
SK2
62
256
6
ByLayer
370
13
48
1
60
0
100
AcDbDimension
2
_U3
10
60.629
20
-17.427503
30
0
11
79.333333
21
-17.427503
31
0
70
32
71
1
72
1
41
1
210
0
220
0
230
1
3
Standard
100
AcDbAlignedDimension
13
62
23
0
33
0
14
60.629
24
-4.625
34
0
50
0
100
AcDbRotatedDimension
1001
ACAD
1000
DSTYLE
1002
{
1070
   371
1070
    13
1070
   372
1070
    13
1070
   170
1070
     0
1070
   144
1040
1.0
1070
   277
1070
     2
1070
   278
1070
    44
1070
   146
1040
1.0
1070
   345
1005
16
1070
   347
1005
16
1070
   346
1005
16
1070
   344
1005
0
1070
   343
1005
0
1070
   172
1070
     1
1070
    76
1070
     0
1070
    75
1070
     0
1070
   282
1070
     0
1070
   281
1070
     0
1070
    71
1070
     0
1070
    74
1070
     0
1070
   279
1070
     0
1070
   173
1070
     1
1070
   340
1005
108
1070
   271
1070
     2
1070
   272
1070
     2
1070
    77
1070
     1
1070
    73
1070
     1
1070
   171
1070
     3
1070
   274
1070
     4
1070
   177
1070
    35
1070
   176
1070
    35
1070
   178
1070
    35
1070
    48
1040
-0.1
1070
    41
1040
3.5
1070
   147
1040
1.75
1070
    42
1040
1.5875
1070
    44
1040
2.0
1070
   140
1040
3.5
1002
}
1001
ACAD_DSTYLE_DIM_LINETYPE
1070
   380
1005
16
1001
ACAD_DSTYLE_DIM_EXT1_LINETYPE
1070
   381
1005
16
1001
ACAD_DSTYLE_DIM_EXT2_LINETYPE
1070
   382
1005
16
0
DIMENSION
5
196
100
AcDbEntity
8
SK2
62
256
6
ByLayer
370
13
48
1
60
0
100
AcDbDimension
2
_U4
10
32.879
20
8.760371
30
0
11
46.754
21
8.760371
31
0
70
32
71
1
72
1
41
1
210
0
220
0
230
1
3
Standard
100
AcDbAlignedDimension
13
60.629
23
4.625
33
0
14
32.879
24
4.625
34
0
50
0
100
AcDbRotatedDimension
1001
ACAD
1000
DSTYLE
1002
{
1070
   371
1070
    13
1070
   372
1070
    13
1070
   170
1070
     0
1070
   144
1040
1.0
1070
   277
1070
     2
1070
   278
1070
    44
1070
   146
1040
1.0
1070
   345
1005
16
1070
   347
1005
16
1070
   346
1005
16
1070
   344
1005
0
1070
   343
1005
0
1070
   172
1070
     1
1070
    76
1070
     0
1070
    75
1070
     0
1070
   282
1070
     0
1070
   281
1070
     0
1070
    71
1070
     0
1070
    74
1070
     0
1070
   279
1070
     0
1070
   173
1070
     1
1070
   340
1005
108
1070
   271
1070
     2
1070
   272
1070
     2
1070
    77
1070
     1
1070
    73
1070
     1
1070
   171
1070
     3
1070
   274
1070
     4
1070
   177
1070
    35
1070
   176
1070
    35
1070
   178
1070
    35
1070
    48
1040
-0.1
1070
    41
1040
3.5
1070
   147
1040
1.75
1070
    42
1040
1.5875
1070
    44
1040
2.0
1070
   140
1040
3.5
1002
}
1001
ACAD_DSTYLE_DIM_LINETYPE
1070
   380
1005
16
1001
ACAD_DSTYLE_DIM_EXT1_LINETYPE
1070
   381
1005
16
1001
ACAD_DSTYLE_DIM_EXT2_LINETYPE
1070
   382
1005
16
0
DIMENSION
5
1AE
100
AcDbEntity
8
SK2
62
256
6
ByLayer
370
13
48
1
60
0
100
AcDbDimension
2
_U5
10
60.629
20
-27.690158
30
0
11
7.8145
21
-27.690158
31
0
70
32
71
1
72
1
41
1
210
0
220
0
230
1
3
Standard
100
AcDbAlignedDimension
13
-45
23
-7
33
0
14
60.629
24
-4.625
34
0
50
0
100
AcDbRotatedDimension
1001
ACAD
1000
DSTYLE
1002
{
1070
   371
1070
    13
1070
   372
1070
    13
1070
   170
1070
     0
1070
   144
1040
1.0
1070
   277
1070
     2
1070
   278
1070
    44
1070
   146
1040
1.0
1070
   345
1005
16
1070
   347
1005
16
1070
   346
1005
16
1070
   344
1005
0
1070
   343
1005
0
1070
   172
1070
     1
1070
    76
1070
     0
1070
    75
1070
     0
1070
   282
1070
     0
1070
   281
1070
     0
1070
    71
1070
     0
1070
    74
1070
     0
1070
   279
1070
     0
1070
   173
1070
     1
1070
   340
1005
108
1070
   271
1070
     2
1070
   272
1070
     2
1070
    77
1070
     1
1070
    73
1070
     1
1070
   171
1070
     3
1070
   274
1070
     4
1070
   177
1070
    35
1070
   176
1070
    35
1070
   178
1070
    35
1070
    48
1040
-0.1
1070
    41
1040
3.5
1070
   147
1040
1.75
1070
    42
1040
1.5875
1070
    44
1040
2.0
1070
   140
1040
3.5
1002
}
1001
ACAD_DSTYLE_DIM_LINETYPE
1070
   380
1005
16
1001
ACAD_DSTYLE_DIM_EXT1_LINETYPE
1070
   381
1005
16
1001
ACAD_DSTYLE_DIM_EXT2_LINETYPE
1070
   382
1005
16
0
ENDSEC
0
SECTION
2
OBJECTS
0
DICTIONARY
5
236
330
0
100
AcDbDictionary
280
0
281
1
3
ACAD_GROUP
350
237
3
ACAD_MLINESTYLE
350
238
0
DICTIONARY
5
237
330
0
100
AcDbDictionary
280
0
281
1
0
DICTIONARY
5
238
330
0
100
AcDbDictionary
280
0
281
1
3
Standard
350
18
0
MLINESTYLE
5
18
330
238
100
AcDbMlineStyle
2
Standard
70
0
3

62
256
51
90
52
90
71
2
49
-0.5
62
256
6
ByLayer
49
0.5
62
256
6
ByLayer
0
RASTERVARIABLES
5
224
330

100
AcDbRasterVariables
90
0
70
1
71
1
72
1
0
ENDSEC
0
EOF
