0
SECTION
2
HEADER
9
$ACADVER
1
AC1015
9
$DWGCODEPAGE
3
ANSI_1252
9
$HANDSEED
5
23d
9
$ANGBASE
50
0
9
$ANGDIR
70
0
9
$ATTMODE
70
1
9
$AUNITS
70
0
9
$AUPREC
70
0
9
$CECOLOR
62
256
9
$CELTSCALE
40
1
9
$CELTYPE
6
ByLayer
9
$CELWEIGHT
370
18
9
$CLAYER
8
0
9
$CMLJUST
70
0
9
$CMLSCALE
40
1
9
$CMLSTYLE
2
Standard
9
$DIMSTYLE
2
Standard
9
$TEXTSIZE
40
0.2
9
$TEXTSTYLE
7
Standard
9
$LUNITS
70
2
9
$LUPREC
70
4
9
$EXTNAMES
290
1
9
$INSUNITS
70
4
9
$LTSCALE
40
1
9
$LWDISPLAY
290
1
9
$PDMODE
70
0
9
$PDSIZE
40
0
9
$PLINEGEN
70
0
0
ENDSEC
0
SECTION
2
CLASSES
0
CLASS
1
RASTERVARIABLES
2
AcDbRasterVariables
3
ISM
90
0
280
0
281
0
0
ENDSEC
0
SECTION
2
TABLES
0
TABLE
2
VPORT
5
233
100
AcDbSymbolTable
0
VPORT
5
1
100
AcDbSymbolTableRecord
100
AcDbViewportTableRecord
2
*Active
70
0
10
0
20
0
11
1
21
1
12
-1
22
1
13
0
23
0
14
0.5
24
0.5
15
10
25
10
16
0
26
0
36
1
17
0
27
0
37
0
0
ENDTAB
0
TABLE
2
LTYPE
5
234
100
AcDbSymbolTable
0
LTYPE
5
14
100
AcDbSymbolTableRecord
100
AcDbLinetypeTableRecord
70
0
2
ByBlock
3

72
65
73
0
40
0
0
LTYPE
5
15
100
AcDbSymbolTableRecord
100
AcDbLinetypeTableRecord
70
0
2
ByLayer
3

72
65
73
0
40
0
0
LTYPE
5
16
100
AcDbSymbolTableRecord
100
AcDbLinetypeTableRecord
70
0
2
Continuous
3
Solid line
72
65
73
0
40
0
0
LTYPE
5
6E
100
AcDbSymbolTableRecord
100
AcDbLinetypeTableRecord
70
0
2
CENTER
3
____ _ ____ _ ____ _ ____
72
65
73
4
40
47.5
49
22
74
0
49
-8.5
74
0
49
8.5
74
0
49
-8.5
74
0
0
LTYPE
5
6F
100
AcDbSymbolTableRecord
100
AcDbLinetypeTableRecord
70
0
2
DASHED
3
__ __ __ __ __ __ __ __ __
72
65
73
2
40
25.72
49
12.86
74
0
49
-12.86
74
0
0
ENDTAB
0
TABLE
2
LAYER
5
235
100
AcDbSymbolTable
0
LAYER
5
10
100
AcDbSymbolTableRecord
100
AcDbLayerTableRecord
2
0
70
0
62
7
6
Continuous
290
1
370
-3
390
0
0
LAYER
5
71
100
AcDbSymbolTableRecord
100
AcDbLayerTableRecord
2
80
70
0
62
-6
6
Continuous
290
1
370
-3
390
0
0
LAYER
5
73
100
AcDbSymbolTableRecord
100
AcDbLayerTableRecord
2
81
70
0
62
-3
6
Continuous
290
1
370
-3
390
0
0
LAYER
5
75
100
AcDbSymbolTableRecord
100
AcDbLayerTableRecord
2
1
70
0
62
4
6
Continuous
290
1
370
-3
390
0
0
LAYER
5
8E
100
AcDbSymbolTableRecord
100
AcDbLayerTableRecord
2
4
70
0
62
-2
6
CENTER
290
1
370
-3
390
0
0
LAYER
5
9B
100
AcDbSymbolTableRecord
100
AcDbLayerTableRecord
2
2
70
0
62
7
6
Continuous
290
1
370
-3
390
0
0
LAYER
5
130
100
AcDbSymbolTableRecord
100
AcDbLayerTableRecord
2
Defpoints
70
0
62
7
6
Continuous
290
0
370
-3
390
0
0
LAYER
5
21f
100
AcDbSymbolTableRecord
100
AcDbLayerTableRecord
2
SK1
70
0
62
4
6
Continuous
290
1
370
-3
390
0
0
LAYER
5
220
100
AcDbSymbolTableRecord
100
AcDbLayerTableRecord
2
SK4
70
0
62
2
6
CENTER
290
1
370
-3
390
0
0
LAYER
5
221
100
AcDbSymbolTableRecord
100
AcDbLayerTableRecord
2
SK2
70
0
62
7
6
Continuous
290
1
370
-3
390
0
0
LAYER
5
222
100
AcDbSymbolTableRecord
100
AcDbLayerTableRecord
2
SK6
70
0
62
5
6
Continuous
290
1
370
-3
390
0
0
ENDTAB
0
TABLE
2
STYLE
5
236
100
AcDbSymbolTable
0
STYLE
5
11
100
AcDbSymbolTableRecord
100
AcDbTextStyleTableRecord
2
Standard
3
txt
70
0
71
0
40
0
41
1
42
0
50
0
0
STYLE
5
102
100
AcDbSymbolTableRecord
100
AcDbTextStyleTableRecord
2
iso_b_vert
3
simplex.shx
70
0
71
0
40
0
41
1
42
0
50
0
0
STYLE
5
103
100
AcDbSymbolTableRecord
100
AcDbTextStyleTableRecord
2
DWGDirectTextStyle
3
simplex
70
0
71
0
40
0
41
1
42
0
50
0
0
ENDTAB
0
TABLE
2
DIMSTYLE
5
237
100
AcDbSymbolTable
100
AcDbDimStyleTable
0
DIMSTYLE
105
27
100
AcDbSymbolTableRecord
100
AcDbDimStyleTableRecord
2
Standard
70
0
3
<>
41
0.18
42
0.0625
44
0.18
140
0.18
147
0.09
73
0
74
0
77
1
271
2
275
0
278
52
280
0
340
11
0
ENDTAB
0
TABLE
2
VIEW
5
238
100
AcDbSymbolTable
0
ENDTAB
0
TABLE
2
UCS
5
239
100
AcDbSymbolTable
0
ENDTAB
0
TABLE
2
APPID
5
23a
100
AcDbSymbolTable
0
APPID
5
12
100
AcDbSymbolTableRecord
100
AcDbRegAppTableRecord
2
ACAD
70
0
0
APPID
5
12C
100
AcDbSymbolTableRecord
100
AcDbRegAppTableRecord
2
ACAD_DSTYLE_DIMBREAK
70
0
0
APPID
5
1DE
100
AcDbSymbolTableRecord
100
AcDbRegAppTableRecord
2
ACAD_DSTYLE_DIM_LINETYPE
70
0
0
APPID
5
1DF
100
AcDbSymbolTableRecord
100
AcDbRegAppTableRecord
2
ACAD_DSTYLE_DIM_EXT1_LINETYPE
70
0
0
APPID
5
1E0
100
AcDbSymbolTableRecord
100
AcDbRegAppTableRecord
2
ACAD_DSTYLE_DIM_EXT2_LINETYPE
70
0
0
APPID
5
21B
100
AcDbSymbolTableRecord
100
AcDbRegAppTableRecord
2
ACAD_MLEADERVER
70
0
0
ENDTAB
0
TABLE
2
BLOCK_RECORD
5
23b
100
AcDbSymbolTable
0
BLOCK_RECORD
5
1F
100
AcDbSymbolTableRecord
100
AcDbBlockTableRecord
2
*Model_Space
340
0
70
0
0
BLOCK_RECORD
5
1B
100
AcDbSymbolTableRecord
100
AcDbBlockTableRecord
2
*Paper_Space
340
0
70
0
0
BLOCK_RECORD
5
23
100
AcDbSymbolTableRecord
100
AcDbBlockTableRecord
2
*Paper_Space0
340
0
70
0
0
BLOCK_RECORD
5
131
100
AcDbSymbolTableRecord
100
AcDbBlockTableRecord
2
*D1
340
0
70
0
0
BLOCK_RECORD
5
13D
100
AcDbSymbolTableRecord
100
AcDbBlockTableRecord
2
_U0
340
0
70
0
0
BLOCK_RECORD
5
149
100
AcDbSymbolTableRecord
100
AcDbBlockTableRecord
2
*D3
340
0
70
0
0
BLOCK_RECORD
5
155
100
AcDbSymbolTableRecord
100
AcDbBlockTableRecord
2
_U1
340
0
70
0
0
BLOCK_RECORD
5
161
100
AcDbSymbolTableRecord
100
AcDbBlockTableRecord
2
*D5
340
0
70
0
0
BLOCK_RECORD
5
16D
100
AcDbSymbolTableRecord
100
AcDbBlockTableRecord
2
_U2
340
0
70
0
0
BLOCK_RECORD
5
179
100
AcDbSymbolTableRecord
100
AcDbBlockTableRecord
2
*D7
340
0
70
0
0
BLOCK_RECORD
5
187
100
AcDbSymbolTableRecord
100
AcDbBlockTableRecord
2
_U3
340
0
70
0
0
BLOCK_RECORD
5
193
100
AcDbSymbolTableRecord
100
AcDbBlockTableRecord
2
*D9
340
0
70
0
0
BLOCK_RECORD
5
19F
100
AcDbSymbolTableRecord
100
AcDbBlockTableRecord
2
_U4
340
0
70
0
0
BLOCK_RECORD
5
1AB
100
AcDbSymbolTableRecord
100
AcDbBlockTableRecord
2
*D11
340
0
70
0
0
BLOCK_RECORD
5
1B7
100
AcDbSymbolTableRecord
100
AcDbBlockTableRecord
2
_U5
340
0
70
0
0
ENDTAB
0
ENDSEC
0
SECTION
2
BLOCKS
0
BLOCK
5
20
100
AcDbEntity
8
0
100
AcDbBlockBegin
2
*Model_Space
70
0
10
0
20
0
30
0
3
*Model_Space
0
ENDBLK
5
21
100
AcDbEntity
8
0
100
AcDbBlockEnd
0
BLOCK
5
1C
100
AcDbEntity
8
0
100
AcDbBlockBegin
2
*Paper_Space
70
0
10
0
20
0
30
0
3
*Paper_Space
0
ENDBLK
5
1D
100
AcDbEntity
8
0
100
AcDbBlockEnd
0
BLOCK
5
24
100
AcDbEntity
8
0
100
AcDbBlockBegin
2
*Paper_Space0
70
0
10
0
20
0
30
0
3
*Paper_Space0
0
ENDBLK
5
25
100
AcDbEntity
8
0
100
AcDbBlockEnd
0
BLOCK
5
132
100
AcDbEntity
8
0
100
AcDbBlockBegin
2
*D1
70
1
10
0
20
0
30
0
3
*D1
0
LINE
5
134
100
AcDbEntity
8
0
62
256
6
ByLayer
370
-2
48
1
60
0
100
AcDbLine
10
0
20
-1.5875
30
0
11
0
21
-20.502503
31
0
39
0
210
0
220
0
230
1
0
LINE
5
135
100
AcDbEntity
8
0
62
256
6
ByLayer
370
-2
48
1
60
0
100
AcDbLine
10
65.305
20
-7.2875
30
0
11
65.305
21
-20.502503
31
0
39
0
210
0
220
0
230
1
0
LINE
5
136
100
AcDbEntity
8
0
62
256
6
ByLayer
370
-2
48
1
60
0
100
AcDbLine
10
3.5
20
-18.502503
30
0
11
61.805
21
-18.502503
31
0
39
0
210
0
220
0
230
1
0
SOLID
5
137
100
AcDbEntity
8
0
62
256
6
ByLayer
370
-1
48
1
60
0
100
AcDbTrace
10
3.5
20
-17.91917
30
0
11
3.5
21
-19.085837
31
0
12
0
22
-18.502503
32
0
13
0
23
-18.502503
33
0
39
0
210
0
220
0
230
1
0
SOLID
5
138
100
AcDbEntity
8
0
62
256
6
ByLayer
370
-1
48
1
60
0
100
AcDbTrace
10
61.805
20
-19.085837
30
0
11
61.805
21
-17.91917
31
0
12
65.305
22
-18.502503
32
0
13
65.305
23
-18.502503
33
0
39
0
210
0
220
0
230
1
0
MTEXT
5
139
100
AcDbEntity
8
0
62
256
6
ByLayer
370
18
48
1
60
0
100
AcDbMText
10
32.6525
20
-11.502503
30
0
210
0
220
0
230
1
1
\A1;65.31
40
3.5
41
0
44
1
50
0
71
5
72
5
7
iso_b_vert
0
POINT
5
13A
100
AcDbEntity
8
Defpoints
62
0
6
ByLayer
370
-1
48
1
60
0
100
AcDbPoint
10
0
20
0
30
0
39
0
210
0
220
0
230
1
50
360
0
POINT
5
13B
100
AcDbEntity
8
Defpoints
62
0
6
ByLayer
370
-1
48
1
60
0
100
AcDbPoint
10
65.305
20
-5.7
30
0
39
0
210
0
220
0
230
1
50
360
0
POINT
5
13C
100
AcDbEntity
8
Defpoints
62
0
6
ByLayer
370
-1
48
1
60
0
100
AcDbPoint
10
65.305
20
-18.502503
30
0
39
0
210
0
220
0
230
1
50
360
0
ENDBLK
5
133
100
AcDbEntity
8
0
100
AcDbBlockEnd
0
BLOCK
5
144
100
AcDbEntity
8
0
100
AcDbBlockBegin
2
_U0
70
0
10
0
20
0
30
0
3
_U0
0
MTEXT
5
13E
100
AcDbEntity
8
SK2
62
256
6
ByLayer
370
13
48
1
60
0
100
AcDbMText
10
27.515201
20
-17.46987
30
0
210
0
220
0
230
1
1
\W0.7317;65,30
40
3.5
41
0
44
1.084337
50
0
71
7
72
5
7
iso_b_vert
0
LINE
5
13F
100
AcDbEntity
8
SK2
62
256
6
ByLayer
370
13
48
1
60
0
100
AcDbLine
10
0
20
-1.5875
30
0
11
0
21
-20.502503
31
0
39
0
210
0
220
0
230
1
0
LINE
5
140
100
AcDbEntity
8
SK2
62
256
6
ByLayer
370
13
48
1
60
0
100
AcDbLine
10
65.305
20
-7.2875
30
0
11
65.305
21
-20.502503
31
0
39
0
210
0
220
0
230
1
0
LINE
5
141
100
AcDbEntity
8
SK2
62
256
6
ByLayer
370
13
48
1
60
0
100
AcDbLine
10
0
20
-18.502503
30
0
11
65.305
21
-18.502503
31
0
39
0
210
0
220
0
230
1
0
SOLID
5
142
100
AcDbEntity
8
SK2
62
256
6
ByLayer
370
18
48
1
60
0
100
AcDbTrace
10
0
20
-18.502503
30
0
11
3.499998
21
-18.041719
31
0
12
3.500002
22
-18.963287
32
0
13
3.500002
23
-18.963287
33
0
39
0
210
0
220
0
230
1
0
SOLID
5
143
100
AcDbEntity
8
SK2
62
256
6
ByLayer
370
18
48
1
60
0
100
AcDbTrace
10
65.305
20
-18.502503
30
0
11
61.805002
21
-18.963287
31
0
12
61.804998
22
-18.041719
32
0
13
61.804998
23
-18.041719
33
0
39
0
210
0
220
0
230
1
0
ENDBLK
5
145
100
AcDbEntity
8
0
100
AcDbBlockEnd
0
BLOCK
5
14A
100
AcDbEntity
8
0
100
AcDbBlockBegin
2
*D3
70
1
10
0
20
0
30
0
3
*D3
0
LINE
5
14C
100
AcDbEntity
8
0
62
256
6
ByLayer
370
-2
48
1
60
0
100
AcDbLine
10
-48
20
-9.5875
30
0
11
-48
21
-41.192985
31
0
39
0
210
0
220
0
230
1
0
LINE
5
14D
100
AcDbEntity
8
0
62
256
6
ByLayer
370
-2
48
1
60
0
100
AcDbLine
10
67
20
-1.5875
30
0
11
67
21
-41.192985
31
0
39
0
210
0
220
0
230
1
0
LINE
5
14E
100
AcDbEntity
8
0
62
256
6
ByLayer
370
-2
48
1
60
0
100
AcDbLine
10
-44.5
20
-39.192985
30
0
11
63.5
21
-39.192985
31
0
39
0
210
0
220
0
230
1
0
SOLID
5
14F
100
AcDbEntity
8
0
62
256
6
ByLayer
370
-1
48
1
60
0
100
AcDbTrace
10
-44.5
20
-38.609652
30
0
11
-44.5
21
-39.776319
31
0
12
-48
22
-39.192985
32
0
13
-48
23
-39.192985
33
0
39
0
210
0
220
0
230
1
0
SOLID
5
150
100
AcDbEntity
8
0
62
256
6
ByLayer
370
-1
48
1
60
0
100
AcDbTrace
10
63.5
20
-39.776319
30
0
11
63.5
21
-38.609652
31
0
12
67
22
-39.192985
32
0
13
67
23
-39.192985
33
0
39
0
210
0
220
0
230
1
0
MTEXT
5
151
100
AcDbEntity
8
0
62
256
6
ByLayer
370
18
48
1
60
0
100
AcDbMText
10
9.5
20
-32.192985
30
0
210
0
220
0
230
1
1
\A1;115.00
40
3.5
41
0
44
1
50
0
71
5
72
5
7
iso_b_vert
0
POINT
5
152
100
AcDbEntity
8
Defpoints
62
0
6
ByLayer
370
-1
48
1
60
0
100
AcDbPoint
10
-48
20
-8
30
0
39
0
210
0
220
0
230
1
50
360
0
POINT
5
153
100
AcDbEntity
8
Defpoints
62
0
6
ByLayer
370
-1
48
1
60
0
100
AcDbPoint
10
67
20
0
30
0
39
0
210
0
220
0
230
1
50
360
0
POINT
5
154
100
AcDbEntity
8
Defpoints
62
0
6
ByLayer
370
-1
48
1
60
0
100
AcDbPoint
10
67
20
-39.192985
30
0
39
0
210
0
220
0
230
1
50
360
0
ENDBLK
5
14B
100
AcDbEntity
8
0
100
AcDbBlockEnd
0
BLOCK
5
15C
100
AcDbEntity
8
0
100
AcDbBlockBegin
2
_U1
70
0
10
0
20
0
30
0
3
_U1
0
MTEXT
5
156
100
AcDbEntity
8
SK2
62
256
6
ByLayer
370
13
48
1
60
0
100
AcDbMText
10
3.929835
20
-38.160352
30
0
210
0
220
0
230
1
1
\W0.6440;115,00
40
3.5
41
0
44
1.084337
50
0
71
7
72
5
7
iso_b_vert
0
LINE
5
157
100
AcDbEntity
8
SK2
62
256
6
ByLayer
370
13
48
1
60
0
100
AcDbLine
10
-48
20
-9.5875
30
0
11
-48
21
-41.192985
31
0
39
0
210
0
220
0
230
1
0
LINE
5
158
100
AcDbEntity
8
SK2
62
256
6
ByLayer
370
13
48
1
60
0
100
AcDbLine
10
67
20
-1.5875
30
0
11
67
21
-41.192985
31
0
39
0
210
0
220
0
230
1
0
LINE
5
159
100
AcDbEntity
8
SK2
62
256
6
ByLayer
370
13
48
1
60
0
100
AcDbLine
10
-48
20
-39.192985
30
0
11
67
21
-39.192985
31
0
39
0
210
0
220
0
230
1
0
SOLID
5
15A
100
AcDbEntity
8
SK2
62
256
6
ByLayer
370
18
48
1
60
0
100
AcDbTrace
10
-48
20
-39.192985
30
0
11
-44.500002
21
-38.732202
31
0
12
-44.499998
22
-39.653769
32
0
13
-44.499998
23
-39.653769
33
0
39
0
210
0
220
0
230
1
0
SOLID
5
15B
100
AcDbEntity
8
SK2
62
256
6
ByLayer
370
18
48
1
60
0
100
AcDbTrace
10
67
20
-39.192985
30
0
11
63.500002
21
-39.653769
31
0
12
63.499998
22
-38.732202
32
0
13
63.499998
23
-38.732202
33
0
39
0
210
0
220
0
230
1
0
ENDBLK
5
15D
100
AcDbEntity
8
0
100
AcDbBlockEnd
0
BLOCK
5
162
100
AcDbEntity
8
0
100
AcDbBlockBegin
2
*D5
70
1
10
0
20
0
30
0
3
*D5
0
LINE
5
164
100
AcDbEntity
8
0
62
256
6
ByLayer
370
-2
48
1
60
0
100
AcDbLine
10
29.11
20
9.2825
30
0
11
29.11
21
19.309119
31
0
39
0
210
0
220
0
230
1
0
LINE
5
165
100
AcDbEntity
8
0
62
256
6
ByLayer
370
-2
48
1
60
0
100
AcDbLine
10
67
20
1.5875
30
0
11
67
21
19.309119
31
0
39
0
210
0
220
0
230
1
0
LINE
5
166
100
AcDbEntity
8
0
62
256
6
ByLayer
370
-2
48
1
60
0
100
AcDbLine
10
32.61
20
17.309119
30
0
11
63.5
21
17.309119
31
0
39
0
210
0
220
0
230
1
0
SOLID
5
167
100
AcDbEntity
8
0
62
256
6
ByLayer
370
-1
48
1
60
0
100
AcDbTrace
10
32.61
20
17.892453
30
0
11
32.61
21
16.725786
31
0
12
29.11
22
17.309119
32
0
13
29.11
23
17.309119
33
0
39
0
210
0
220
0
230
1
0
SOLID
5
168
100
AcDbEntity
8
0
62
256
6
ByLayer
370
-1
48
1
60
0
100
AcDbTrace
10
63.5
20
16.725786
30
0
11
63.5
21
17.892453
31
0
12
67
22
17.309119
32
0
13
67
23
17.309119
33
0
39
0
210
0
220
0
230
1
0
MTEXT
5
169
100
AcDbEntity
8
0
62
256
6
ByLayer
370
18
48
1
60
0
100
AcDbMText
10
48.055
20
24.309119
30
0
210
0
220
0
230
1
1
\A1;37.89
40
3.5
41
0
44
1
50
0
71
5
72
5
7
iso_b_vert
0
POINT
5
16A
100
AcDbEntity
8
Defpoints
62
0
6
ByLayer
370
-1
48
1
60
0
100
AcDbPoint
10
29.11
20
7.695
30
0
39
0
210
0
220
0
230
1
50
360
0
POINT
5
16B
100
AcDbEntity
8
Defpoints
62
0
6
ByLayer
370
-1
48
1
60
0
100
AcDbPoint
10
67
20
0
30
0
39
0
210
0
220
0
230
1
50
360
0
POINT
5
16C
100
AcDbEntity
8
Defpoints
62
0
6
ByLayer
370
-1
48
1
60
0
100
AcDbPoint
10
67
20
17.309119
30
0
39
0
210
0
220
0
230
1
50
360
0
ENDBLK
5
163
100
AcDbEntity
8
0
100
AcDbBlockEnd
0
BLOCK
5
174
100
AcDbEntity
8
0
100
AcDbBlockBegin
2
_U2
70
0
10
0
20
0
30
0
3
_U2
0
MTEXT
5
16E
100
AcDbEntity
8
SK2
62
256
6
ByLayer
370
13
48
1
60
0
100
AcDbMText
10
42.917701
20
18.341753
30
0
210
0
220
0
230
1
1
\W0.7402;37,89
40
3.5
41
0
44
1.084337
50
0
71
7
72
5
7
iso_b_vert
0
LINE
5
16F
100
AcDbEntity
8
SK2
62
256
6
ByLayer
370
13
48
1
60
0
100
AcDbLine
10
29.11
20
9.2825
30
0
11
29.11
21
19.309119
31
0
39
0
210
0
220
0
230
1
0
LINE
5
170
100
AcDbEntity
8
SK2
62
256
6
ByLayer
370
13
48
1
60
0
100
AcDbLine
10
67
20
1.5875
30
0
11
67
21
19.309119
31
0
39
0
210
0
220
0
230
1
0
LINE
5
171
100
AcDbEntity
8
SK2
62
256
6
ByLayer
370
13
48
1
60
0
100
AcDbLine
10
29.11
20
17.309119
30
0
11
67
21
17.309119
31
0
39
0
210
0
220
0
230
1
0
SOLID
5
172
100
AcDbEntity
8
SK2
62
256
6
ByLayer
370
18
48
1
60
0
100
AcDbTrace
10
29.11
20
17.309119
30
0
11
32.609998
21
17.769903
31
0
12
32.610002
22
16.848335
32
0
13
32.610002
23
16.848335
33
0
39
0
210
0
220
0
230
1
0
SOLID
5
173
100
AcDbEntity
8
SK2
62
256
6
ByLayer
370
18
48
1
60
0
100
AcDbTrace
10
67
20
17.309119
30
0
11
63.500002
21
16.848335
31
0
12
63.499998
22
17.769903
32
0
13
63.499998
23
17.769903
33
0
39
0
210
0
220
0
230
1
0
ENDBLK
5
175
100
AcDbEntity
8
0
100
AcDbBlockEnd
0
BLOCK
5
17A
100
AcDbEntity
8
0
100
AcDbBlockBegin
2
*D7
70
1
10
0
20
0
30
0
3
*D7
0
LINE
5
17C
100
AcDbEntity
8
0
62
256
6
ByLayer
370
-2
48
1
60
0
100
AcDbLine
10
67
20
-1.5875
30
0
11
67
21
-20.502503
31
0
39
0
210
0
220
0
230
1
0
LINE
5
17D
100
AcDbEntity
8
0
62
256
6
ByLayer
370
-2
48
1
60
0
100
AcDbLine
10
65.305
20
-7.2875
30
0
11
65.305
21
-20.502503
31
0
39
0
210
0
220
0
230
1
0
LINE
5
17E
100
AcDbEntity
8
0
62
256
6
ByLayer
370
-2
48
1
60
0
100
AcDbLine
10
67
20
-18.502503
30
0
11
94.666667
21
-18.502503
31
0
39
0
210
0
220
0
230
1
0
LINE
5
17F
100
AcDbEntity
8
0
62
256
6
ByLayer
370
-2
48
1
60
0
100
AcDbLine
10
70.5
20
-18.502503
30
0
11
74
21
-18.502503
31
0
39
0
210
0
220
0
230
1
0
LINE
5
180
100
AcDbEntity
8
0
62
256
6
ByLayer
370
-2
48
1
60
0
100
AcDbLine
10
61.805
20
-18.502503
30
0
11
58.305
21
-18.502503
31
0
39
0
210
0
220
0
230
1
0
SOLID
5
181
100
AcDbEntity
8
0
62
256
6
ByLayer
370
-1
48
1
60
0
100
AcDbTrace
10
70.5
20
-17.91917
30
0
11
70.5
21
-19.085837
31
0
12
67
22
-18.502503
32
0
13
67
23
-18.502503
33
0
39
0
210
0
220
0
230
1
0
SOLID
5
182
100
AcDbEntity
8
0
62
256
6
ByLayer
370
-1
48
1
60
0
100
AcDbTrace
10
61.805
20
-19.085837
30
0
11
61.805
21
-17.91917
31
0
12
65.305
22
-18.502503
32
0
13
65.305
23
-18.502503
33
0
39
0
210
0
220
0
230
1
0
MTEXT
5
183
100
AcDbEntity
8
0
62
256
6
ByLayer
370
18
48
1
60
0
100
AcDbMText
10
84.333333
20
-11.502503
30
0
210
0
220
0
230
1
1
\A1;1.70
40
3.5
41
0
44
1
50
0
71
5
72
5
7
iso_b_vert
0
POINT
5
184
100
AcDbEntity
8
Defpoints
62
0
6
ByLayer
370
-1
48
1
60
0
100
AcDbPoint
10
67
20
0
30
0
39
0
210
0
220
0
230
1
50
360
0
POINT
5
185
100
AcDbEntity
8
Defpoints
62
0
6
ByLayer
370
-1
48
1
60
0
100
AcDbPoint
10
65.305
20
-5.7
30
0
39
0
210
0
220
0
230
1
50
360
0
POINT
5
186
100
AcDbEntity
8
Defpoints
62
0
6
ByLayer
370
-1
48
1
60
0
100
AcDbPoint
10
65.305
20
-18.502503
30
0
39
0
210
0
220
0
230
1
50
360
0
ENDBLK
5
17B
100
AcDbEntity
8
0
100
AcDbBlockEnd
0
BLOCK
5
18E
100
AcDbEntity
8
0
100
AcDbBlockBegin
2
_U3
70
0
10
0
20
0
30
0
3
_U3
0
MTEXT
5
188
100
AcDbEntity
8
SK2
62
256
6
ByLayer
370
13
48
1
60
0
100
AcDbMText
10
73.589293
20
-17.46987
30
0
210
0
220
0
230
1
1
\W0.6367;1,70
40
3.5
41
0
44
1.084337
50
0
71
7
72
5
7
iso_b_vert
0
LINE
5
189
100
AcDbEntity
8
SK2
62
256
6
ByLayer
370
13
48
1
60
0
100
AcDbLine
10
67
20
-1.5875
30
0
11
67
21
-20.502503
31
0
39
0
210
0
220
0
230
1
0
LINE
5
18A
100
AcDbEntity
8
SK2
62
256
6
ByLayer
370
13
48
1
60
0
100
AcDbLine
10
65.305
20
-7.2875
30
0
11
65.305
21
-20.502503
31
0
39
0
210
0
220
0
230
1
0
LINE
5
18B
100
AcDbEntity
8
SK2
62
256
6
ByLayer
370
13
48
1
60
0
100
AcDbLine
10
56.555
20
-18.502503
30
0
11
80.559058
21
-18.502503
31
0
39
0
210
0
220
0
230
1
0
SOLID
5
18C
100
AcDbEntity
8
SK2
62
256
6
ByLayer
370
18
48
1
60
0
100
AcDbTrace
10
67
20
-18.502503
30
0
11
70.499998
21
-18.041719
31
0
12
70.500002
22
-18.963287
32
0
13
70.500002
23
-18.963287
33
0
39
0
210
0
220
0
230
1
0
SOLID
5
18D
100
AcDbEntity
8
SK2
62
256
6
ByLayer
370
18
48
1
60
0
100
AcDbTrace
10
65.305
20
-18.502503
30
0
11
61.805002
21
-18.963287
31
0
12
61.804998
22
-18.041719
32
0
13
61.804998
23
-18.041719
33
0
39
0
210
0
220
0
230
1
0
ENDBLK
5
18F
100
AcDbEntity
8
0
100
AcDbBlockEnd
0
BLOCK
5
194
100
AcDbEntity
8
0
100
AcDbBlockBegin
2
*D9
70
1
10
0
20
0
30
0
3
*D9
0
LINE
5
196
100
AcDbEntity
8
0
62
256
6
ByLayer
370
-2
48
1
60
0
100
AcDbLine
10
65.305
20
7.2875
30
0
11
65.305
21
11.835371
31
0
39
0
210
0
220
0
230
1
0
LINE
5
197
100
AcDbEntity
8
0
62
256
6
ByLayer
370
-2
48
1
60
0
100
AcDbLine
10
31.105
20
7.2875
30
0
11
31.105
21
11.835371
31
0
39
0
210
0
220
0
230
1
0
LINE
5
198
100
AcDbEntity
8
0
62
256
6
ByLayer
370
-2
48
1
60
0
100
AcDbLine
10
61.805
20
9.835371
30
0
11
34.605
21
9.835371
31
0
39
0
210
0
220
0
230
1
0
SOLID
5
199
100
AcDbEntity
8
0
62
256
6
ByLayer
370
-1
48
1
60
0
100
AcDbTrace
10
61.805
20
9.252038
30
0
11
61.805
21
10.418705
31
0
12
65.305
22
9.835371
32
0
13
65.305
23
9.835371
33
0
39
0
210
0
220
0
230
1
0
SOLID
5
19A
100
AcDbEntity
8
0
62
256
6
ByLayer
370
-1
48
1
60
0
100
AcDbTrace
10
34.605
20
10.418705
30
0
11
34.605
21
9.252038
31
0
12
31.105
22
9.835371
32
0
13
31.105
23
9.835371
33
0
39
0
210
0
220
0
230
1
0
MTEXT
5
19B
100
AcDbEntity
8
0
62
256
6
ByLayer
370
18
48
1
60
0
100
AcDbMText
10
48.205
20
16.835371
30
0
210
0
220
0
230
1
1
\A1;34.20
40
3.5
41
0
44
1
50
0
71
5
72
5
7
iso_b_vert
0
POINT
5
19C
100
AcDbEntity
8
Defpoints
62
0
6
ByLayer
370
-1
48
1
60
0
100
AcDbPoint
10
65.305
20
5.7
30
0
39
0
210
0
220
0
230
1
50
360
0
POINT
5
19D
100
AcDbEntity
8
Defpoints
62
0
6
ByLayer
370
-1
48
1
60
0
100
AcDbPoint
10
31.105
20
5.7
30
0
39
0
210
0
220
0
230
1
50
360
0
POINT
5
19E
100
AcDbEntity
8
Defpoints
62
0
6
ByLayer
370
-1
48
1
60
0
100
AcDbPoint
10
31.105
20
9.835371
30
0
39
0
210
0
220
0
230
1
50
360
0
ENDBLK
5
195
100
AcDbEntity
8
0
100
AcDbBlockEnd
0
BLOCK
5
1A6
100
AcDbEntity
8
0
100
AcDbBlockBegin
2
_U4
70
0
10
0
20
0
30
0
3
_U4
0
MTEXT
5
1A0
100
AcDbEntity
8
SK2
62
256
6
ByLayer
370
13
48
1
60
0
100
AcDbMText
10
42.883435
20
10.868005
30
0
210
0
220
0
230
1
1
\W0.7581;34,20
40
3.5
41
0
44
1.084337
50
0
71
7
72
5
7
iso_b_vert
0
LINE
5
1A1
100
AcDbEntity
8
SK2
62
256
6
ByLayer
370
13
48
1
60
0
100
AcDbLine
10
65.305
20
7.2875
30
0
11
65.305
21
11.835371
31
0
39
0
210
0
220
0
230
1
0
LINE
5
1A2
100
AcDbEntity
8
SK2
62
256
6
ByLayer
370
13
48
1
60
0
100
AcDbLine
10
31.105
20
7.2875
30
0
11
31.105
21
11.835371
31
0
39
0
210
0
220
0
230
1
0
LINE
5
1A3
100
AcDbEntity
8
SK2
62
256
6
ByLayer
370
13
48
1
60
0
100
AcDbLine
10
65.305
20
9.835371
30
0
11
31.105
21
9.835371
31
0
39
0
210
0
220
0
230
1
0
SOLID
5
1A4
100
AcDbEntity
8
SK2
62
256
6
ByLayer
370
18
48
1
60
0
100
AcDbTrace
10
65.305
20
9.835371
30
0
11
61.805002
21
9.374588
31
0
12
61.804998
22
10.296155
32
0
13
61.804998
23
10.296155
33
0
39
0
210
0
220
0
230
1
0
SOLID
5
1A5
100
AcDbEntity
8
SK2
62
256
6
ByLayer
370
18
48
1
60
0
100
AcDbTrace
10
31.105
20
9.835371
30
0
11
34.604998
21
10.296155
31
0
12
34.605002
22
9.374588
32
0
13
34.605002
23
9.374588
33
0
39
0
210
0
220
0
230
1
0
ENDBLK
5
1A7
100
AcDbEntity
8
0
100
AcDbBlockEnd
0
BLOCK
5
1AC
100
AcDbEntity
8
0
100
AcDbBlockBegin
2
*D11
70
1
10
0
20
0
30
0
3
*D11
0
LINE
5
1AE
100
AcDbEntity
8
0
62
256
6
ByLayer
370
-2
48
1
60
0
100
AcDbLine
10
-48
20
-9.5875
30
0
11
-48
21
-30.690158
31
0
39
0
210
0
220
0
230
1
0
LINE
5
1AF
100
AcDbEntity
8
0
62
256
6
ByLayer
370
-2
48
1
60
0
100
AcDbLine
10
65.305
20
-7.2875
30
0
11
65.305
21
-30.690158
31
0
39
0
210
0
220
0
230
1
0
LINE
5
1B0
100
AcDbEntity
8
0
62
256
6
ByLayer
370
-2
48
1
60
0
100
AcDbLine
10
-44.5
20
-28.690158
30
0
11
61.805
21
-28.690158
31
0
39
0
210
0
220
0
230
1
0
SOLID
5
1B1
100
AcDbEntity
8
0
62
256
6
ByLayer
370
-1
48
1
60
0
100
AcDbTrace
10
-44.5
20
-28.106825
30
0
11
-44.5
21
-29.273491
31
0
12
-48
22
-28.690158
32
0
13
-48
23
-28.690158
33
0
39
0
210
0
220
0
230
1
0
SOLID
5
1B2
100
AcDbEntity
8
0
62
256
6
ByLayer
370
-1
48
1
60
0
100
AcDbTrace
10
61.805
20
-29.273491
30
0
11
61.805
21
-28.106825
31
0
12
65.305
22
-28.690158
32
0
13
65.305
23
-28.690158
33
0
39
0
210
0
220
0
230
1
0
MTEXT
5
1B3
100
AcDbEntity
8
0
62
256
6
ByLayer
370
18
48
1
60
0
100
AcDbMText
10
8.6525
20
-21.690158
30
0
210
0
220
0
230
1
1
\A1;113.31
40
3.5
41
0
44
1
50
0
71
5
72
5
7
iso_b_vert
0
POINT
5
1B4
100
AcDbEntity
8
Defpoints
62
0
6
ByLayer
370
-1
48
1
60
0
100
AcDbPoint
10
-48
20
-8
30
0
39
0
210
0
220
0
230
1
50
360
0
POINT
5
1B5
100
AcDbEntity
8
Defpoints
62
0
6
ByLayer
370
-1
48
1
60
0
100
AcDbPoint
10
65.305
20
-5.7
30
0
39
0
210
0
220
0
230
1
50
360
0
POINT
5
1B6
100
AcDbEntity
8
Defpoints
62
0
6
ByLayer
370
-1
48
1
60
0
100
AcDbPoint
10
65.305
20
-28.690158
30
0
39
0
210
0
220
0
230
1
50
360
0
ENDBLK
5
1AD
100
AcDbEntity
8
0
100
AcDbBlockEnd
0
BLOCK
5
1BE
100
AcDbEntity
8
0
100
AcDbBlockBegin
2
_U5
70
0
10
0
20
0
30
0
3
_U5
0
MTEXT
5
1B8
100
AcDbEntity
8
SK2
62
256
6
ByLayer
370
13
48
1
60
0
100
AcDbMText
10
3.082335
20
-27.657524
30
0
210
0
220
0
230
1
1
\W0.6440;113,30
40
3.5
41
0
44
1.084337
50
0
71
7
72
5
7
iso_b_vert
0
LINE
5
1B9
100
AcDbEntity
8
SK2
62
256
6
ByLayer
370
13
48
1
60
0
100
AcDbLine
10
-48
20
-9.5875
30
0
11
-48
21
-30.690158
31
0
39
0
210
0
220
0
230
1
0
LINE
5
1BA
100
AcDbEntity
8
SK2
62
256
6
ByLayer
370
13
48
1
60
0
100
AcDbLine
10
65.305
20
-7.2875
30
0
11
65.305
21
-30.690158
31
0
39
0
210
0
220
0
230
1
0
LINE
5
1BB
100
AcDbEntity
8
SK2
62
256
6
ByLayer
370
13
48
1
60
0
100
AcDbLine
10
-48
20
-28.690158
30
0
11
65.305
21
-28.690158
31
0
39
0
210
0
220
0
230
1
0
SOLID
5
1BC
100
AcDbEntity
8
SK2
62
256
6
ByLayer
370
18
48
1
60
0
100
AcDbTrace
10
-48
20
-28.690158
30
0
11
-44.500002
21
-28.229374
31
0
12
-44.499998
22
-29.150942
32
0
13
-44.499998
23
-29.150942
33
0
39
0
210
0
220
0
230
1
0
SOLID
5
1BD
100
AcDbEntity
8
SK2
62
256
6
ByLayer
370
18
48
1
60
0
100
AcDbTrace
10
65.305
20
-28.690158
30
0
11
61.805002
21
-29.150942
31
0
12
61.804998
22
-28.229374
32
0
13
61.804998
23
-28.229374
33
0
39
0
210
0
220
0
230
1
0
ENDBLK
5
1BF
100
AcDbEntity
8
0
100
AcDbBlockEnd
0
ENDSEC
0
SECTION
2
ENTITIES
0
ARC
5
BF
100
AcDbEntity
8
1
62
256
6
ByLayer
370
18
48
1
60
0
100
AcDbCircle
39
0
10
0.939667
20
-8.495
30
0
40
0.800000000000002
210
0
220
0
230
1
100
AcDbArc
50
90
51
125.965088
0
ARC
5
C0
100
AcDbEntity
8
1
62
256
6
ByLayer
370
18
48
1
60
0
100
AcDbCircle
39
0
10
0.939667
20
8.495
30
0
40
0.800000000000002
210
0
220
0
230
1
100
AcDbArc
50
234.034912
51
270
0
ARC
5
C1
100
AcDbEntity
8
1
62
256
6
ByLayer
370
18
48
1
60
0
100
AcDbCircle
39
0
10
0
20
-7.2
30
0
40
0.800000000000001
210
0
220
0
230
1
100
AcDbArc
50
270
51
305.965088
0
ARC
5
C2
100
AcDbEntity
8
1
62
256
6
ByLayer
370
18
48
1
60
0
100
AcDbCircle
39
0
10
0
20
7.2
30
0
40
0.800000000000001
210
0
220
0
230
1
100
AcDbArc
50
54.034912
51
90
0
ARC
5
C3
100
AcDbEntity
8
SK2
62
256
6
ByLayer
370
13
48
1
60
0
100
AcDbCircle
39
0
10
36.805
20
0
30
0
40
21.0154379710899
210
0
220
0
230
1
100
AcDbArc
50
182.930203
51
225
0
ARC
5
C4
100
AcDbEntity
8
SK2
62
256
6
ByLayer
370
13
48
1
60
0
100
AcDbCircle
39
0
10
36.805
20
0
30
0
40
21.0154379710899
210
0
220
0
230
1
100
AcDbArc
50
135
51
165.038079
0
POINT
5
70
100
AcDbEntity
8
80
62
256
6
ByLayer
370
18
48
1
60
0
100
AcDbPoint
10
0
20
0
30
0
39
0
210
0
220
0
230
1
50
360
0
POINT
5
72
100
AcDbEntity
8
81
62
256
6
ByLayer
370
18
48
1
60
0
100
AcDbPoint
10
67
20
0
30
0
39
0
210
0
220
0
230
1
50
360
0
POINT
5
74
100
AcDbEntity
8
1
62
256
6
ByLayer
370
18
48
1
60
1
100
AcDbPoint
10
65.305
20
-5.7
30
0
39
0
210
0
220
0
230
1
50
360
0
POINT
5
76
100
AcDbEntity
8
1
62
256
6
ByLayer
370
18
48
1
60
1
100
AcDbPoint
10
-48
20
-8
30
0
39
0
210
0
220
0
230
1
50
360
0
POINT
5
77
100
AcDbEntity
8
1
62
256
6
ByLayer
370
18
48
1
60
1
100
AcDbPoint
10
29.11
20
7.695
30
0
39
0
210
0
220
0
230
1
50
360
0
POINT
5
78
100
AcDbEntity
8
1
62
256
6
ByLayer
370
18
48
1
60
1
100
AcDbPoint
10
65.305
20
-5.7
30
0
39
0
210
0
220
0
230
1
50
360
0
POINT
5
79
100
AcDbEntity
8
1
62
256
6
ByLayer
370
18
48
1
60
1
100
AcDbPoint
10
65.305
20
5.7
30
0
39
0
210
0
220
0
230
1
50
360
0
POINT
5
7A
100
AcDbEntity
8
1
62
256
6
ByLayer
370
18
48
1
60
1
100
AcDbPoint
10
31.105
20
5.7
30
0
39
0
210
0
220
0
230
1
50
360
0
POINT
5
7B
100
AcDbEntity
8
1
62
256
6
ByLayer
370
18
48
1
60
1
100
AcDbPoint
10
-48
20
-8
30
0
39
0
210
0
220
0
230
1
50
360
0
POINT
5
7C
100
AcDbEntity
8
1
62
256
6
ByLayer
370
18
48
1
60
1
100
AcDbPoint
10
65.305
20
-5.7
30
0
39
0
210
0
220
0
230
1
50
360
0
SPLINE
5
C5
100
AcDbEntity
8
SK1
62
256
6
ByLayer
370
18
48
1
60
0
100
AcDbSpline
70
4
71
3
72
12
73
8
40
0
40
0
40
0
40
0
40
0.249999999999998
40
0.249999999999998
40
0.499999999999996
40
0.499999999999996
40
1
40
1
40
1
40
1
41
1
10
-46.4
20
6.92777055180102
30
0
41
1
10
-46.4
20
6.9319162442188
30
0
41
1
10
-46.4041640203491
20
6.93185925928211
30
0
41
1
10
-46.4170552197607
20
6.92615856560641
30
0
41
1
10
-46.4255471163326
20
6.92072847203525
30
0
41
1
10
-46.4540060778302
20
6.90007812871994
30
0
41
1
10
-46.4766801706343
20
6.88077760201872
30
0
41
1
10
-46.5
20
6.85906051615021
30
0
0
SPLINE
5
C6
100
AcDbEntity
8
SK1
62
256
6
ByLayer
370
18
48
1
60
0
100
AcDbSpline
70
4
71
3
72
8
73
4
40
0
40
0
40
0
40
0
40
1
40
1
40
1
40
1
41
1
10
-48
20
4.45597418667506
30
0
41
1
10
-47.5014366463571
20
4.92496545616876
30
0
41
1
10
-47.0011254121268
20
5.39238244297351
30
0
41
1
10
-46.5
20
5.85906611528443
30
0
0
SPLINE
5
C7
100
AcDbEntity
8
SK1
62
256
6
ByLayer
370
18
48
1
60
0
100
AcDbSpline
70
4
71
3
72
8
73
4
40
0
40
0
40
0
40
0
40
1
40
1
40
1
40
1
41
1
10
-46.5
20
6.85906051615021
30
0
41
1
10
-47.0011331150089
20
6.39236967036695
30
0
41
1
10
-47.5014464288663
20
5.92495065477095
30
0
41
1
10
-48
20
5.45596858754081
30
0
0
SPLINE
5
C8
100
AcDbEntity
8
SK1
62
256
6
ByLayer
370
18
48
1
60
0
100
AcDbSpline
70
4
71
3
72
12
73
8
40
0
40
0
40
0
40
0
40
0.499999999999999
40
0.499999999999999
40
0.75
40
0.75
40
1
40
1
40
1
40
1
41
1
10
-46.5
20
5.85906611528443
30
0
41
1
10
-46.4766765617276
20
5.88078656202387
30
0
41
1
10
-46.4539377815664
20
5.90641266861658
30
0
41
1
10
-46.4257150407642
20
5.94615457786009
30
0
41
1
10
-46.4170867124434
20
5.95997555163638
30
0
41
1
10
-46.4042310471649
20
5.98613097132033
30
0
41
1
10
-46.4
20
5.99871053307027
30
0
41
1
10
-46.4
20
6.00777570300454
30
0
0
SPLINE
5
C9
100
AcDbEntity
8
1
62
256
6
ByLayer
370
18
48
1
60
0
100
AcDbSpline
70
4
71
3
72
8
73
4
40
0
40
0
40
0
40
0
40
1
40
1
40
1
40
1
41
1
10
31.090468532985
20
-0.226154356301692
30
0
41
1
10
30.7984680820517
20
-0.0580745866552661
30
0
41
1
10
30.5062225445425
20
0.109035677326119
30
0
41
1
10
30.2132504177675
20
0.274343537117261
30
0
0
SPLINE
5
CA
100
AcDbEntity
8
1
62
256
6
ByLayer
370
18
48
1
60
0
100
AcDbSpline
70
4
71
3
72
30
73
26
40
0
40
0
40
0
40
0
40
0.0624999999999971
40
0.0624999999999971
40
0.124999999999994
40
0.124999999999994
40
0.187499999999991
40
0.187499999999991
40
0.249999999999989
40
0.249999999999989
40
0.312499999999986
40
0.312499999999986
40
0.374999999999983
40
0.374999999999983
40
0.499999999999986
40
0.499999999999986
40
0.62499999999999
40
0.62499999999999
40
0.749999999999993
40
0.749999999999993
40
0.874999999999996
40
0.874999999999996
40
0.937499999999998
40
0.937499999999998
40
1
40
1
40
1
40
1
41
1
10
66.1855110516642
20
-1.3559810252444
30
0
41
1
10
66.1821727769155
20
-1.38514987276017
30
0
41
1
10
66.1772898343269
20
-1.41686338381624
30
0
41
1
10
66.1648037072789
20
-1.48245691927821
30
0
41
1
10
66.157234818191
20
-1.51634966501499
30
0
41
1
10
66.1394963662592
20
-1.58630676390879
30
0
41
1
10
66.1292274078222
20
-1.62263581760695
30
0
41
1
10
66.1069406729323
20
-1.69457791032346
30
0
41
1
10
66.0948553881121
20
-1.73050857205661
30
0
41
1
10
66.0688905636218
20
-1.8023003606709
30
0
41
1
10
66.0550857512864
20
-1.83790923780654
30
0
41
1
10
66.0267315882634
20
-1.90665815681635
30
0
41
1
10
66.0120740182327
20
-1.94009970087271
30
0
41
1
10
65.9667376243818
20
-2.03773232425445
30
0
41
1
10
65.9359121710212
20
-2.0967111594305
30
0
41
1
10
65.8738741950866
20
-2.20260487502654
30
0
41
1
10
65.8430071383636
20
-2.24871158702061
30
0
41
1
10
65.7849893031015
20
-2.32340091198233
30
0
41
1
10
65.7572373627498
20
-2.35288050762694
30
0
41
1
10
65.7057446614446
20
-2.39420278419283
30
0
41
1
10
65.6825946238737
20
-2.40570436239935
30
0
41
1
10
65.6518145424164
20
-2.40863872280443
30
0
41
1
10
65.6422271086487
20
-2.40713754903328
30
0
41
1
10
65.6250604952427
20
-2.39915160491702
30
0
41
1
10
65.6173911417882
20
-2.39269105534635
30
0
41
1
10
65.6106630378458
20
-2.38366123272692
30
0
0
SPLINE
5
CB
100
AcDbEntity
8
1
62
256
6
ByLayer
370
18
48
1
60
0
100
AcDbSpline
70
4
71
3
72
75
73
71
40
0
40
0
40
0
40
0
40
0.0625000000000096
40
0.0625000000000096
40
0.0937500000000143
40
0.0937500000000143
40
0.125000000000019
40
0.125000000000019
40
0.187500000000027
40
0.187500000000027
40
0.250000000000034
40
0.250000000000034
40
0.312500000000043
40
0.312500000000043
40
0.343750000000047
40
0.343750000000047
40
0.375000000000051
40
0.375000000000051
40
0.406250000000055
40
0.406250000000055
40
0.43750000000006
40
0.43750000000006
40
0.468750000000064
40
0.468750000000064
40
0.484375000000066
40
0.484375000000066
40
0.500000000000068
40
0.500000000000068
40
0.51562500000007
40
0.51562500000007
40
0.523437500000071
40
0.523437500000071
40
0.531250000000072
40
0.531250000000072
40
0.562500000000076
40
0.562500000000076
40
0.578125000000078
40
0.578125000000078
40
0.59375000000008
40
0.59375000000008
40
0.625000000000084
40
0.625000000000084
40
0.640625000000086
40
0.640625000000086
40
0.656250000000088
40
0.656250000000088
40
0.687500000000093
40
0.687500000000093
40
0.695312500000094
40
0.695312500000094
40
0.697265625000094
40
0.697265625000094
40
0.699218750000093
40
0.699218750000093
40
0.701171875000093
40
0.701171875000093
40
0.703125000000093
40
0.718750000000088
40
0.718750000000088
40
0.750000000000079
40
0.750000000000079
40
0.81250000000006
40
0.81250000000006
40
0.84375000000005
40
0.84375000000005
40
0.875000000000041
40
0.875000000000041
40
0.937500000000021
40
0.937500000000021
40
1
40
1
40
1
40
1
41
1
10
16.5870131272267
20
-7.65991925748949
30
0
41
1
10
16.0702299069018
20
-7.69649474471154
30
0
41
1
10
15.5637765552184
20
-7.70519946040992
30
0
41
1
10
14.8105572474839
20
-7.6710712773247
30
0
41
1
10
14.5605572896308
20
-7.6518754254906
30
0
41
1
10
14.0613640700879
20
-7.59737135305326
30
0
41
1
10
13.8116548359115
20
-7.56195918784854
30
0
41
1
10
13.067366258033
20
-7.43214749741776
30
0
41
1
10
12.5767145479059
20
-7.3142835056471
30
0
41
1
10
11.5996002844516
20
-7.0186898205888
30
0
41
1
10
11.1131319675683
20
-6.84109056218989
30
0
41
1
10
10.1418583107593
20
-6.42603351765433
30
0
41
1
10
9.65702338146562
20
-6.18877786865124
30
0
41
1
10
8.93268957871555
20
-5.78229220121878
30
0
41
1
10
8.69196692301304
20
-5.63833301100652
30
0
41
1
10
8.21751669580581
20
-5.33452152512959
30
0
41
1
10
7.98317979051691
20
-5.17436137243396
30
0
41
1
10
7.52211439879906
20
-4.8349577650331
30
0
41
1
10
7.29536311080361
20
-4.65575096970844
30
0
41
1
10
6.85243096085472
20
-4.27384346942333
30
0
41
1
10
6.63852341665205
20
-4.07312948877157
30
0
41
1
10
6.2313366960274
20
-3.64751108199016
30
0
41
1
10
6.03792934203148
20
-3.42266723898578
30
0
41
1
10
5.77017011988568
20
-3.06064075389807
30
0
41
1
10
5.68468007745278
20
-2.93580114346375
30
0
41
1
10
5.52316235228457
20
-2.67592752852136
30
0
41
1
10
5.44679884282763
20
-2.54013697863445
30
0
41
1
10
5.30909735024662
20
-2.26159147061881
30
0
41
1
10
5.24747193431807
20
-2.1185202573881
30
0
41
1
10
5.16825632638842
20
-1.8971132582997
30
0
41
1
10
5.14406217884365
20
-1.82217402420943
30
0
41
1
10
5.10060720568546
20
-1.66978330022289
30
0
41
1
10
5.08130834557255
20
-1.59208143065979
30
0
41
1
10
4.99985985596334
20
-1.20285513294121
30
0
41
1
10
4.98106637422444
20
-0.88502724550068
30
0
41
1
10
5.03986048172101
20
-0.399519770261094
30
0
41
1
10
5.07338426220127
20
-0.241699692290354
30
0
41
1
10
5.16640598039035
20
0.0664383993670867
30
0
41
1
10
5.22607981172274
20
0.217071101525221
30
0
41
1
10
5.44112265147257
20
0.656282359754357
30
0
41
1
10
5.6247720739604
20
0.919016849973104
30
0
41
1
10
5.94334547930191
20
1.281349087074
30
0
41
1
10
6.05704616156291
20
1.39674417416643
30
0
41
1
10
6.29199456889532
20
1.61368005830832
30
0
41
1
10
6.4138522313749
20
1.71597809673941
30
0
41
1
10
6.79048943742939
20
2.00748611294341
30
0
41
1
10
7.05621186047793
20
2.1814867856763
30
0
41
1
10
7.40239076311869
20
2.37997847757953
30
0
41
1
10
7.47240094454889
20
2.41874351656986
30
0
41
1
10
7.56045312693311
20
2.46589969308553
30
0
41
1
10
7.5780053721036
20
2.47543755885735
30
0
41
1
10
7.61679417667972
20
2.48729002059056
30
0
41
1
10
7.63789671324935
20
2.49080628027042
30
0
41
1
10
7.67913185938224
20
2.49242846487965
30
0
41
1
10
7.69956891056879
20
2.49084547974482
30
0
41
1
10
7.74050038976515
20
2.48844018591672
30
0
41
1
10
7.92466994690585
20
2.47732231194695
30
0
41
1
10
8.1086407810599
20
2.46355956334173
30
0
41
1
10
8.59876032195024
20
2.42058024994125
30
0
41
1
10
8.92443052836265
20
2.38357882159289
30
0
41
1
10
9.89597498635609
20
2.24792211926174
30
0
41
1
10
10.537318355489
20
2.12452905190261
30
0
41
1
10
11.4901215625851
20
1.88951361254391
30
0
41
1
10
11.8061481448576
20
1.80286580837662
30
0
41
1
10
12.430624579123
20
1.61447120809962
30
0
41
1
10
12.7396605423589
20
1.51256542187943
30
0
41
1
10
13.657680731959
20
1.18465328928372
30
0
41
1
10
14.2575660751282
20
0.936426751046952
30
0
41
1
10
15.43658582705
20
0.387354117489878
30
0
41
1
10
16.0157308073099
20
0.0865259922804285
30
0
41
1
10
16.5870131272265
20
-0.235485667301816
30
0
0
SPLINE
5
CC
100
AcDbEntity
8
1
62
256
6
ByLayer
370
18
48
1
60
0
100
AcDbSpline
70
4
71
3
72
8
73
4
40
0
40
0
40
0
40
0
40
1
40
1
40
1
40
1
41
1
10
31.5277694941788
20
-5.67397745039744
30
0
41
1
10
31.3967232029619
20
-5.66410535229875
30
0
41
1
10
31.265801137712
20
-5.65272946469989
30
0
41
1
10
31.1346238307784
20
-5.63987593739236
30
0
0
SPLINE
5
CD
100
AcDbEntity
8
1
62
256
6
ByLayer
370
18
48
1
60
0
100
AcDbSpline
70
4
71
3
72
38
73
34
40
0
40
0
40
0
40
0
40
0.125000000000001
40
0.125000000000001
40
0.187500000000001
40
0.187500000000001
40
0.250000000000001
40
0.250000000000001
40
0.312500000000001
40
0.312500000000001
40
0.343750000000001
40
0.343750000000001
40
0.375000000000002
40
0.375000000000002
40
0.437500000000002
40
0.437500000000002
40
0.500000000000002
40
0.500000000000002
40
0.562500000000002
40
0.562500000000002
40
0.593750000000001
40
0.593750000000001
40
0.625000000000001
40
0.625000000000001
40
0.750000000000001
40
0.750000000000001
40
0.812500000000001
40
0.812500000000001
40
0.875
40
0.875
40
0.9375
40
0.9375
40
1
40
1
40
1
40
1
41
1
10
28.9721656747144
20
-7.38436535432902
30
0
41
1
10
28.9306144252079
20
-7.23968373168182
30
0
41
1
10
28.8895638319676
20
-7.04711261617339
30
0
41
1
10
28.8271058485463
20
-6.68553292256297
30
0
41
1
10
28.8060429274813
20
-6.55214920243213
30
0
41
1
10
28.7644012370917
20
-6.2664507762116
30
0
41
1
10
28.7437135163083
20
-6.11363784913417
30
0
41
1
10
28.7024520699805
20
-5.78847814473608
30
0
41
1
10
28.6820190184146
20
-5.61612315075851
30
0
41
1
10
28.6511555316063
20
-5.34280198785908
30
0
41
1
10
28.6407606200886
20
-5.24922983808565
30
0
41
1
10
28.6196916703426
20
-5.05707865853958
30
0
41
1
10
28.6090233359366
20
-4.95820492258886
30
0
41
1
10
28.577112552802
20
-4.65643389709666
30
0
41
1
10
28.5559461643585
20
-4.44855352114217
30
0
41
1
10
28.5148740824106
20
-4.01972571265267
30
0
41
1
10
28.4947905798617
20
-3.79878740698661
30
0
41
1
10
28.4537953388323
20
-3.34399219684244
30
0
41
1
10
28.4328011496624
20
-3.11014385489591
30
0
41
1
10
28.4011312523494
20
-2.74936683874134
30
0
41
1
10
28.3905681167617
20
-2.62726921627254
30
0
41
1
10
28.3697100345913
20
-2.3824412816515
30
0
41
1
10
28.3593740343488
20
-2.2593918619246
30
0
41
1
10
28.3078488266588
20
-1.64104503421868
30
0
41
1
10
28.266406693364
20
-1.1365970253776
30
0
41
1
10
28.2041569258441
20
-0.36515734268113
30
0
41
1
10
28.1832835293661
20
-0.104135736529685
30
0
41
1
10
28.1417447503795
20
0.4127252370441
30
0
41
1
10
28.1211177035881
20
0.669252086260087
30
0
41
1
10
28.0796061654287
20
1.17854209073428
30
0
41
1
10
28.0589212113435
20
1.43132127670825
30
0
41
1
10
28.0179509016902
20
1.93314097932114
30
0
41
1
10
27.9969861519855
20
2.18250328114354
30
0
41
1
10
27.975969179191
20
2.42912410108767
30
0
0
SPLINE
5
CE
100
AcDbEntity
8
1
62
256
6
ByLayer
370
18
48
1
60
0
100
AcDbSpline
70
4
71
3
72
12
73
8
40
0
40
0
40
0
40
0
40
0.5
40
0.5
40
0.75
40
0.75
40
1
40
1
40
1
40
1
41
1
10
31.1346238307784
20
5.63987593739242
30
0
41
1
10
30.7711025171102
20
5.95999515205341
30
0
41
1
10
30.4091963034629
20
6.26648987917622
30
0
41
1
10
29.8682519669575
20
6.70368909085036
30
0
41
1
10
29.6881377025465
20
6.84574970617953
30
0
41
1
10
29.3293851048117
20
7.12121645088084
30
0
41
1
10
29.1507061712977
20
7.25453845333354
30
0
41
1
10
28.9721656747147
20
7.3843653543282
30
0
0
SPLINE
5
CF
100
AcDbEntity
8
1
62
256
6
ByLayer
370
18
48
1
60
0
100
AcDbSpline
70
4
71
3
72
8
73
4
40
0
40
0
40
0
40
0
40
1
40
1
40
1
40
1
41
1
10
64.9855842931574
20
5.69403459636376
30
0
41
1
10
64.8367364675132
20
5.6978151111548
30
0
41
1
10
64.6879018911139
20
5.69964660723312
30
0
41
1
10
64.5390468632312
20
5.69953079823685
30
0
0
SPLINE
5
D0
100
AcDbEntity
8
1
62
256
6
ByLayer
370
18
48
1
60
0
100
AcDbSpline
70
4
71
3
72
10
73
6
40
0
40
0
40
0
40
0
40
0.186991923257014
40
0.186991923257014
40
1
40
1
40
1
40
1
41
1
10
36.6453053443621
20
-5.40323469042229
30
0
41
1
10
36.3223333521248
20
-5.46057989636176
30
0
41
1
10
36.0003810293229
20
-5.50906335414228
30
0
41
1
10
34.2820276877609
20
-5.72072622652163
30
0
41
1
10
32.8968283636721
20
-5.72437593527889
30
0
41
1
10
31.4924422511826
20
-5.55694656129961
30
0
0
SPLINE
5
D1
100
AcDbEntity
8
1
62
256
6
ByLayer
370
18
48
1
60
0
100
AcDbSpline
70
4
71
3
72
14
73
10
40
0
40
0
40
0
40
0
40
0.25
40
0.25
40
0.5
40
0.5
40
0.75
40
0.75
40
1
40
1
40
1
40
1
41
1
10
65.071243390651
20
-5.41196365845789
30
0
41
1
10
65.0746601885558
20
-5.41150214429905
30
0
41
1
10
65.0774595772459
20
-5.41267258893547
30
0
41
1
10
65.0814036077748
20
-5.41936915145766
30
0
41
1
10
65.0824995466471
20
-5.42496566584933
30
0
41
1
10
65.0817561779411
20
-5.44178867892583
30
0
41
1
10
65.0798265663845
20
-5.45308799066916
30
0
41
1
10
65.0728295584921
20
-5.47895494418034
30
0
41
1
10
65.0678632167154
20
-5.49317568799393
30
0
41
1
10
65.0624069811659
20
-5.50654033848281
30
0
0
SPLINE
5
D2
100
AcDbEntity
8
1
62
256
6
ByLayer
370
18
48
1
60
0
100
AcDbSpline
70
4
71
3
72
8
73
4
40
0
40
0
40
0
40
0
40
1
40
1
40
1
40
1
41
1
10
65.2915134334094
20
-5.53879607698721
30
0
41
1
10
65.1782599326222
20
-5.62437376405043
30
0
41
1
10
65.0764051630943
20
-5.67723924839595
30
0
41
1
10
64.9855842931574
20
-5.69403459636379
30
0
0
SPLINE
5
D3
100
AcDbEntity
8
1
62
256
6
ByLayer
370
18
48
1
60
0
100
AcDbSpline
70
4
71
3
72
8
73
4
40
0
40
0
40
0
40
0
40
1
40
1
40
1
40
1
41
1
10
31.090468532995
20
-5.48464159318357
30
0
41
1
10
31.2245448155965
20
-5.51022366886801
30
0
41
1
10
31.3585268233479
20
-5.53433459030606
30
0
41
1
10
31.4924422511826
20
-5.55694656129964
30
0
0
SPLINE
5
D4
100
AcDbEntity
8
1
62
256
6
ByLayer
370
18
48
1
60
0
100
AcDbSpline
70
4
71
3
72
44
73
40
40
0
40
0
40
0
40
0
40
0.0625000000000067
40
0.0625000000000067
40
0.125000000000013
40
0.125000000000013
40
0.25000000000002
40
0.25000000000002
40
0.312500000000023
40
0.312500000000023
40
0.343750000000025
40
0.343750000000025
40
0.375000000000027
40
0.375000000000027
40
0.406250000000028
40
0.406250000000028
40
0.421875000000029
40
0.421875000000029
40
0.43750000000003
40
0.43750000000003
40
0.468750000000031
40
0.468750000000031
40
0.484375000000031
40
0.484375000000031
40
0.50000000000003
40
0.50000000000003
40
0.531250000000028
40
0.531250000000028
40
0.562500000000026
40
0.562500000000026
40
0.625000000000022
40
0.625000000000022
40
0.687500000000019
40
0.687500000000019
40
0.750000000000015
40
0.750000000000015
40
0.875000000000007
40
0.875000000000007
40
1
40
1
40
1
40
1
41
1
10
65.6106630378456
20
-2.38366123272686
30
0
41
1
10
65.5277316675193
20
-2.35944968573671
30
0
41
1
10
65.4448856292917
20
-2.33135560554391
30
0
41
1
10
65.2793644058014
20
-2.267393789956
30
0
41
1
10
65.1963791826176
20
-2.23136776953731
30
0
41
1
10
64.9507240416131
20
-2.11197550740116
30
0
41
1
10
64.7908586444761
20
-2.01819314875081
30
0
41
1
10
64.5600659247073
20
-1.84479903588306
30
0
41
1
10
64.4851358574609
20
-1.78175877766756
30
0
41
1
10
64.3791221835936
20
-1.67623909642487
30
0
41
1
10
64.3449135063444
20
-1.63923925614904
30
0
41
1
10
64.280549339
20
-1.56135385528174
30
0
41
1
10
64.250232819752
20
-1.52039689596484
30
0
41
1
10
64.1954567210926
20
-1.43215921121384
30
0
41
1
10
64.1712988033299
20
-1.38537295867204
30
0
41
1
10
64.1447946893509
20
-1.31111581439566
30
0
41
1
10
64.1378090499728
20
-1.2862275948201
30
0
41
1
10
64.1283414819769
20
-1.23612029891427
30
0
41
1
10
64.1258798233585
20
-1.21049994263834
30
0
41
1
10
64.1270662114902
20
-1.13647733559023
30
0
41
1
10
64.1396836801819
20
-1.09058393718953
30
0
41
1
10
64.171731690422
20
-1.03385511948437
30
0
41
1
10
64.1844982872835
20
-1.01680523290744
30
0
41
1
10
64.2124139897938
20
-0.986616534140694
30
0
41
1
10
64.2276837100923
20
-0.973276615513782
30
0
41
1
10
64.2765767965009
20
-0.937381153745065
30
0
41
1
10
64.3122466860665
20
-0.919553371386485
30
0
41
1
10
64.3863956318419
20
-0.891565670223088
30
0
41
1
10
64.4253130598197
20
-0.881365765252639
30
0
41
1
10
64.543807980098
20
-0.859155789568234
30
0
41
1
10
64.6247518055142
20
-0.855153053928206
30
0
41
1
10
64.7888543124178
20
-0.859436494993048
30
0
41
1
10
64.8724505421063
20
-0.868056029411861
30
0
41
1
10
65.0390978912858
20
-0.894378359826845
30
0
41
1
10
65.1221539872253
20
-0.912066965057278
30
0
41
1
10
65.3706773647223
20
-0.976044685698469
30
0
41
1
10
65.535516939021
20
-1.03295462964937
30
0
41
1
10
65.8636381280719
20
-1.17313524699009
30
0
41
1
10
66.0274386779553
20
-1.25665530604871
30
0
41
1
10
66.1855110516643
20
-1.35598102524437
30
0
0
SPLINE
5
D5
100
AcDbEntity
8
1
62
256
6
ByLayer
370
18
48
1
60
0
100
AcDbSpline
70
4
71
3
72
8
73
4
40
0
40
0
40
0
40
0
40
1
40
1
40
1
40
1
41
1
10
65.0624069811602
20
-5.50654033849685
30
0
41
1
10
65.0368448830405
20
-5.56915283094386
30
0
41
1
10
65.0112361130409
20
-5.63165029064461
30
0
41
1
10
64.9855842931574
20
-5.69403459636376
30
0
0
SPLINE
5
D6
100
AcDbEntity
8
1
62
256
6
ByLayer
370
18
48
1
60
0
100
AcDbSpline
70
4
71
3
72
30
73
26
40
0
40
0
40
0
40
0
40
0.0625000000000015
40
0.0625000000000015
40
0.125000000000003
40
0.125000000000003
40
0.250000000000004
40
0.250000000000004
40
0.312500000000004
40
0.312500000000004
40
0.375000000000005
40
0.375000000000005
40
0.437500000000005
40
0.437500000000005
40
0.500000000000005
40
0.500000000000005
40
0.625000000000004
40
0.625000000000004
40
0.687500000000003
40
0.687500000000003
40
0.750000000000003
40
0.750000000000003
40
0.875000000000001
40
0.875000000000001
40
1
40
1
40
1
40
1
41
1
10
27.9759691791896
20
2.4291241011037
30
0
41
1
10
27.7383254905148
20
2.60462466463699
30
0
41
1
10
27.5008498703531
20
2.77778648891473
30
0
41
1
10
27.0264318021701
20
3.11966150348977
30
0
41
1
10
26.7896160556947
20
3.28851238517933
30
0
41
1
10
26.0773693055376
20
3.78528724212555
30
0
41
1
10
25.599999117239
20
4.10428039243257
30
0
41
1
10
24.8881385212669
20
4.55972439668355
30
0
41
1
10
24.6513674012439
20
4.70795618719114
30
0
41
1
10
24.176939667911
20
4.99529967160046
30
0
41
1
10
23.9394513646849
20
5.13459671043913
30
0
41
1
10
23.4638191635835
20
5.4043406595118
30
0
41
1
10
23.2254068770525
20
5.53494252567052
30
0
41
1
10
22.7501543733941
20
5.78633938590082
30
0
41
1
10
22.5131463854185
20
5.90714416471005
30
0
41
1
10
21.801328245861
20
6.25278206264395
30
0
41
1
10
21.326253086465
20
6.46145124342939
30
0
41
1
10
20.6133626965995
20
6.74189615982456
30
0
41
1
10
20.3755495997883
20
6.82980050111127
30
0
41
1
10
19.9009621624142
20
6.99253960905384
30
0
41
1
10
19.6639781910325
20
7.06763824660698
30
0
41
1
10
18.9538617182184
20
7.27433224245758
30
0
41
1
10
18.4825117406219
20
7.38769153479723
30
0
41
1
10
17.5373911871535
20
7.56275799083315
30
0
41
1
10
17.0631098077047
20
7.62450040865809
30
0
41
1
10
16.5870131272267
20
7.65991925748949
30
0
0
SPLINE
5
D7
100
AcDbEntity
8
1
62
256
6
ByLayer
370
18
48
1
60
0
100
AcDbSpline
70
4
71
3
72
10
73
6
40
0
40
0
40
0
40
0
40
0.5
40
0.5
40
1
40
1
40
1
40
1
41
1
10
31.4924422511826
20
-5.55694656129961
30
0
41
1
10
31.4980999895229
20
-5.58952084197151
30
0
41
1
10
31.5047568359744
20
-5.61547408185629
30
0
41
1
10
31.5163328941083
20
-5.65443867983709
30
0
41
1
10
31.5223465276211
20
-5.66744435757963
30
0
41
1
10
31.5277694941788
20
-5.67397745039744
30
0
0
SPLINE
5
D8
100
AcDbEntity
8
1
62
256
6
ByLayer
370
18
48
1
60
0
100
AcDbSpline
70
4
71
3
72
47
73
43
40
0
40
0
40
0
40
0
40
0.0366250798390803
40
0.0366250798390803
40
0.190353779965557
40
0.190353779965557
40
0.267218130028795
40
0.267218130028795
40
0.305650305060414
40
0.305650305060414
40
0.324866392576223
40
0.324866392576223
40
0.334474436334128
40
0.33927845821308
40
0.33927845821308
40
0.344082480092033
40
0.344082480092033
40
0.348886501970985
40
0.348886501970985
40
0.353690523849938
40
0.353690523849938
40
0.363298567607843
40
0.363298567607843
40
0.382514655123652
40
0.382514655123652
40
0.420946830155271
40
0.420946830155271
40
0.497811180218509
40
0.497811180218509
40
0.651539880344986
40
0.651539880344986
40
0.728404230408224
40
0.728404230408224
40
0.805268580471462
40
0.805268580471462
40
0.882132930534701
40
0.882132930534701
40
0.92056510556632
40
0.92056510556632
40
0.958997280597938
40
0.958997280597938
40
1
40
1
40
1
40
1
41
1
10
16.5870131272266
20
-0.218941257339139
30
0
41
1
10
16.5870131272266
20
-0.237981171849867
30
0
41
1
10
16.5870131272267
20
-0.258941844899169
30
0
41
1
10
16.5870131272267
20
-0.377657057760871
30
0
41
1
10
16.5870131272267
20
-0.506710580068813
30
0
41
1
10
16.5870131272267
20
-0.749051289006928
30
0
41
1
10
16.5870131272267
20
-0.837895360907197
30
0
41
1
10
16.5870131272267
20
-0.982134187946428
30
0
41
1
10
16.5870131272267
20
-1.03208290611249
30
0
41
1
10
16.5870131272267
20
-1.10978727406112
30
0
41
1
10
16.5870131272267
20
-1.13615494025745
30
0
41
1
10
16.5870131272267
20
-1.17637999831922
30
0
41
1
10
16.5870131272266
20
-1.19666189337536
30
0
41
1
10
16.5870131272267
20
-1.21719728756409
30
0
41
1
10
16.5870131272267
20
-1.23094382837041
30
0
41
1
10
16.5870131272267
20
-1.23790225189529
30
0
41
1
10
16.5870131272267
20
-1.25641884198726
30
0
41
1
10
16.5870131272267
20
-1.26734417591493
30
0
41
1
10
16.5870131272267
20
-1.29256868411991
30
0
41
1
10
16.5870131272267
20
-1.30677115937215
30
0
41
1
10
16.5870131272267
20
-1.34932097430456
30
0
41
1
10
16.5870131272267
20
-1.37775961426888
30
0
41
1
10
16.5870131272267
20
-1.46329283754179
30
0
41
1
10
16.5870131272267
20
-1.52059749241565
30
0
41
1
10
16.5870131272267
20
-1.69307078430427
30
0
41
1
10
16.5870131272267
20
-1.80890103583795
30
0
41
1
10
16.5870131272267
20
-2.15895452197313
30
0
41
1
10
16.5870131272267
20
-2.39573614980156
30
0
41
1
10
16.5870131272267
20
-3.11661493261889
30
0
41
1
10
16.5870131272267
20
-3.61114743874475
30
0
41
1
10
16.5870131272267
20
-4.37652012500121
30
0
41
1
10
16.5870131272267
20
-4.63432180587048
30
0
41
1
10
16.5870131272267
20
-5.15080144349972
30
0
41
1
10
16.5870131272267
20
-5.41016582040726
30
0
41
1
10
16.5870131272267
20
-5.93125940093447
30
0
41
1
10
16.5870131272267
20
-6.1929879160522
30
0
41
1
10
16.5870131272267
20
-6.58749394683599
30
0
41
1
10
16.5870131272267
20
-6.71961319154315
30
0
41
1
10
16.5870131272267
20
-6.98294651035286
30
0
41
1
10
16.5870131272267
20
-7.11401123892551
30
0
41
1
10
16.5870131272267
20
-7.3836456647399
30
0
41
1
10
16.5870131272267
20
-7.52213830283984
30
0
41
1
10
16.5870131272267
20
-7.65991925734679
30
0
0
SPLINE
5
D9
100
AcDbEntity
8
1
62
256
6
ByLayer
370
18
48
1
60
0
100
AcDbSpline
70
4
71
3
72
12
73
8
40
0
40
0
40
0
40
0
40
0.197271613447618
40
0.197271613447618
40
0.598635806723809
40
0.598635806723809
40
1
40
1
40
1
40
1
41
1
10
33.7556173138752
20
-5.39528922804098
30
0
41
1
10
33.5802159217376
20
-5.39525551856255
30
0
41
1
10
33.4048689464286
20
-5.39266596763738
30
0
41
1
10
32.8727590648576
20
-5.37707921287918
30
0
41
1
10
32.516040683131
20
-5.35609051474697
30
0
41
1
10
31.8015659735185
20
-5.29303104031664
30
0
41
1
10
31.4453618785108
20
-5.25112566656713
30
0
41
1
10
31.0904685330208
20
-5.19932075185281
30
0
0
SPLINE
5
DA
100
AcDbEntity
8
1
62
256
6
ByLayer
370
18
48
1
60
0
100
AcDbSpline
70
4
71
3
72
8
73
4
40
0
40
0
40
0
40
0
40
1
40
1
40
1
40
1
41
1
10
66.9999616193193
20
0.0481991970037541
30
0
41
1
10
67.000012795948
20
0.0160648993274037
30
0
41
1
10
67.0000127904283
20
-0.0160683651470777
30
0
41
1
10
66.9999616193193
20
-0.0481991969996898
30
0
0
SPLINE
5
DB
100
AcDbEntity
8
1
62
256
6
ByLayer
370
18
48
1
60
0
100
AcDbSpline
70
4
71
3
72
8
73
4
40
0
40
0
40
0
40
0
40
1
40
1
40
1
40
1
41
1
10
66.9893569619086
20
-0.125091723086598
30
0
41
1
10
66.9900119606881
20
-0.103178759537087
30
0
41
1
10
66.9940458354354
20
-0.07639432535575
30
0
41
1
10
66.9999616193194
20
-0.0481991970000877
30
0
0
SPLINE
5
DC
100
AcDbEntity
8
1
62
256
6
ByLayer
370
18
48
1
60
0
100
AcDbSpline
70
4
71
3
72
40
73
36
40
0
40
0
40
0
40
0
40
0.125000000000002
40
0.125000000000002
40
0.250000000000004
40
0.250000000000004
40
0.312500000000005
40
0.312500000000005
40
0.375000000000006
40
0.375000000000006
40
0.500000000000003
40
0.500000000000003
40
0.5625
40
0.5625
40
0.624999999999997
40
0.624999999999997
40
0.74999999999999
40
0.74999999999999
40
0.812499999999989
40
0.812499999999989
40
0.874999999999988
40
0.874999999999988
40
0.882812499999988
40
0.882812499999988
40
0.890624999999989
40
0.890624999999989
40
0.898437499999989
40
0.898437499999989
40
0.90234374999999
40
0.90234374999999
40
0.90624999999999
40
0.90624999999999
40
0.937499999999993
40
0.937499999999993
40
1
40
1
40
1
40
1
41
1
10
59.724677203183
20
1.06547725400142
30
0
41
1
10
59.9692697667128
20
0.898178633282328
30
0
41
1
10
60.2175960755866
20
0.743331634402807
30
0
41
1
10
60.722972170961
20
0.462729455856902
30
0
41
1
10
60.9800494777211
20
0.337066053167746
30
0
41
1
10
61.3725969858262
20
0.171686883958898
30
0
41
1
10
61.5049864540944
20
0.120359303075219
30
0
41
1
10
61.7691096932392
20
0.0273012722326484
30
0
41
1
10
61.9011132427648
20
-0.0145776568023166
30
0
41
1
10
62.2969385089928
20
-0.125369545584078
30
0
41
1
10
62.5605724680559
20
-0.179247400443046
30
0
41
1
10
62.9555502088879
20
-0.222171833762218
30
0
41
1
10
63.0875832095903
20
-0.230399038370933
30
0
41
1
10
63.349354689983
20
-0.233345515795804
30
0
41
1
10
63.4784306785027
20
-0.228082681870347
30
0
41
1
10
63.8598341942424
20
-0.19061500854599
30
0
41
1
10
64.106456512744
20
-0.137174824631842
30
0
41
1
10
64.4616836829525
20
-0.0022762345910792
30
0
41
1
10
64.5764324283246
20
0.0515570996980728
30
0
41
1
10
64.7964092032455
20
0.178334440093494
30
0
41
1
10
64.9015987800294
20
0.250865275019976
30
0
41
1
10
65.0138594596672
20
0.342163433610523
30
0
41
1
10
65.0262535447636
20
0.352447579981487
30
0
41
1
10
65.0508581943711
20
0.373275220721098
30
0
41
1
10
65.063526302232
20
0.383877448877087
30
0
41
1
10
65.0795732324418
20
0.41424987291245
30
0
41
1
10
65.0835631129606
20
0.433208931280888
30
0
41
1
10
65.0819705239646
20
0.462953724106626
30
0
41
1
10
65.0805512508002
20
0.472916950413037
30
0
41
1
10
65.0776566438198
20
0.492846450570482
30
0
41
1
10
65.076196832139
20
0.502811880613962
30
0
41
1
10
65.063000376683
20
0.592503912148089
30
0
41
1
10
65.0507343195877
20
0.672249121943764
30
0
41
1
10
65.0124924489003
20
0.911475357544759
30
0
41
1
10
64.9850696771334
20
1.0709980039785
30
0
41
1
10
64.9560737666088
20
1.23039591078481
30
0
0
SPLINE
5
DD
100
AcDbEntity
8
1
62
256
6
ByLayer
370
18
48
1
60
0
100
AcDbSpline
70
4
71
3
72
10
73
6
40
0
40
0
40
0
40
0
40
0.5
40
0.5
40
1
40
1
40
1
40
1
41
1
10
65.2915134334023
20
5.53879607701012
30
0
41
1
10
65.5640919287762
20
4.83373855645536
30
0
41
1
10
65.8380233746927
20
4.12930837442721
30
0
41
1
10
66.385487909401
20
2.72017507964597
30
0
41
1
10
66.6591359761406
20
2.01552936215666
30
0
41
1
10
66.9314780583703
20
1.31029396551429
30
0
0
SPLINE
5
DE
100
AcDbEntity
8
1
62
256
6
ByLayer
370
18
48
1
60
0
100
AcDbSpline
70
4
71
3
72
38
73
34
40
0
40
0
40
0
40
0
40
0.0082645796932987
40
0.0082645796932987
40
0.0743802743804121
40
0.0743802743804121
40
0.140495969067526
40
0.140495969067526
40
0.206611663754639
40
0.206611663754639
40
0.272727358441752
40
0.272727358441752
40
0.338843053128866
40
0.338843053128866
40
0.404958747815979
40
0.404958747815979
40
0.471074442503093
40
0.471074442503093
40
0.537190137190206
40
0.537190137190206
40
0.603305831877319
40
0.603305831877319
40
0.669421526564433
40
0.669421526564433
40
0.735537221251546
40
0.735537221251546
40
0.80165291593866
40
0.80165291593866
40
0.867768610625773
40
0.867768610625773
40
0.933884305312887
40
0.933884305312887
40
1
40
1
40
1
40
1
41
1
10
46.1966316055149
20
5.40220046115562
30
0
41
1
10
46.2339645372013
20
5.40220056386474
30
0
41
1
10
46.2712941519414
20
5.40209291622995
30
0
41
1
10
46.6072075183988
20
5.40016463253943
30
0
41
1
10
46.9053725757115
20
5.39113263601132
30
0
41
1
10
47.500993891276
20
5.35725567693856
30
0
41
1
10
47.7983352172305
20
5.33280382746702
30
0
41
1
10
48.3944072540319
20
5.27073870721776
30
0
41
1
10
48.6927650849356
20
5.23289485476562
30
0
41
1
10
49.2900054584657
20
5.1410582246755
30
0
41
1
10
49.5887511036413
20
5.08736110444795
30
0
41
1
10
50.184851836872
20
4.9669915097553
30
0
41
1
10
50.4831552408535
20
4.90107496116289
30
0
41
1
10
51.0792418783717
20
4.75476790533898
30
0
41
1
10
51.3771027916588
20
4.67459717480375
30
0
41
1
10
51.9728442840959
20
4.502199427824
30
0
41
1
10
52.2709465319865
20
4.41081458963774
30
0
41
1
10
52.8688115460932
20
4.21461749768733
30
0
41
1
10
53.1674892772804
20
4.10980850928073
30
0
41
1
10
53.7634790426982
20
3.88877600299591
30
0
41
1
10
54.0608414930992
20
3.77235210840806
30
0
41
1
10
54.6566935212616
20
3.53136122963639
30
0
41
1
10
54.9548356862451
20
3.4063769200479
30
0
41
1
10
55.5511742847099
20
3.14744433289695
30
0
41
1
10
55.849508767127
20
3.01344918451039
30
0
41
1
10
56.4463451097295
20
2.73661255581843
30
0
41
1
10
56.7447209405411
20
2.5948870007733
30
0
41
1
10
57.340692918142
20
2.30428765899652
30
0
41
1
10
57.6383300048403
20
2.15558111712159
30
0
41
1
10
58.2332980215608
20
1.85187539800822
30
0
41
1
10
58.5309032423994
20
1.69724807496823
30
0
41
1
10
59.1274424259892
20
1.38457576416266
30
0
41
1
10
59.4263710394747
20
1.22585453401831
30
0
41
1
10
59.724677203183
20
1.06547725400142
30
0
0
SPLINE
5
DF
100
AcDbEntity
8
1
62
256
6
ByLayer
370
18
48
1
60
0
100
AcDbSpline
70
4
71
3
72
20
73
16
40
0
40
0
40
0
40
0
40
0.0118099825011145
40
0.0118099825011145
40
0.133591260914185
40
0.133591260914185
40
0.377153817740325
40
0.377153817740325
40
0.620716374566466
40
0.620716374566466
40
0.742497652979534
40
0.742497652979534
40
0.864278931392602
40
0.864278931392602
40
1
40
1
40
1
40
1
41
1
10
49.0544669753539
20
-0.0073586247076207
30
0
41
1
10
49.0889667753873
20
-0.0265991566842843
30
0
41
1
10
49.1234470731119
20
-0.0458302043737149
30
0
41
1
10
49.5132128751789
20
-0.26322643219271
30
0
41
1
10
49.8670984481755
20
-0.460590010318356
30
0
41
1
10
50.9261718863323
20
-1.04726756619252
30
0
41
1
10
51.6285425198434
20
-1.43154635440644
30
0
41
1
10
53.0337309494603
20
-2.17279740372499
30
0
41
1
10
53.7366376982312
20
-2.52960795645404
30
0
41
1
10
54.796696049199
20
-3.03508902678431
30
0
41
1
10
55.1510176625951
20
-3.1985880629905
30
0
41
1
10
55.862604205454
20
-3.5138196565371
30
0
41
1
10
56.2202920555653
20
-3.66569266191112
30
0
41
1
10
56.9713636373535
20
-3.96905042558512
30
0
41
1
10
57.3655395576229
20
-4.11901572519778
30
0
41
1
10
57.7586690758358
20
-4.25848118249334
30
0
0
SPLINE
5
E0
100
AcDbEntity
8
1
62
256
6
ByLayer
370
13
48
1
60
0
100
AcDbSpline
70
4
71
3
72
14
73
10
40
0
40
0
40
0
40
0
40
0.419071869342969
40
0.419071869342969
40
0.709535934671484
40
0.709535934671484
40
0.854767967335742
40
0.854767967335742
40
1
40
1
40
1
40
1
41
1
10
57.7586700183851
20
-4.25848151686932
30
0
41
1
10
58.776546322448
20
-4.61958024174515
30
0
41
1
10
59.7874077977319
20
-4.91029050073442
30
0
41
1
10
61.5059282352257
20
-5.26641692078121
30
0
41
1
10
62.2115559414831
20
-5.37354303748415
30
0
41
1
10
63.2788032761304
20
-5.47161036680134
30
0
41
1
10
63.6363169273059
20
-5.49381214620198
30
0
41
1
10
64.3494950129784
20
-5.51641967093721
30
0
41
1
10
64.7058462279046
20
-5.51690609132075
30
0
41
1
10
65.062406981135
20
-5.50654033848372
30
0
0
SPLINE
5
E1
100
AcDbEntity
8
1
62
256
6
ByLayer
370
18
48
1
60
0
100
AcDbSpline
70
4
71
3
72
8
73
4
40
0
40
0
40
0
40
0
40
1
40
1
40
1
40
1
41
1
10
16.5870131272267
20
7.65991925748949
30
0
41
1
10
16.2645415724665
20
7.68274227837472
30
0
41
1
10
15.9460921913339
20
7.69471316879313
30
0
41
1
10
15.6302016552707
20
7.69496062951688
30
0
0
SPLINE
5
E2
100
AcDbEntity
8
1
62
256
6
ByLayer
370
18
48
1
60
0
100
AcDbSpline
70
4
71
3
72
25
73
21
40
0
40
0
40
0
40
0
40
0.0181527240057342
40
0.0748083801754871
40
0.188132469855882
40
0.266078300632182
40
0.329911643547521
40
0.386717533585549
40
0.415152293860182
40
0.500582250144496
40
0.529078505945552
40
0.586071104983126
40
0.621682732916466
40
0.699975281744477
40
0.742635590016153
40
0.827818739815242
40
0.92680755829368
40
0.969001076210882
40
0.983024508963296
40
1
40
1
40
1
40
1
41
1
10
30.2132504177675
20
0.274343537117261
30
0
41
1
10
30.2188324284183
20
0.221989182139055
30
0
41
1
10
30.2418379136535
20
0.0060462099567928
30
0
41
1
10
30.2997124344235
20
-0.538100928233575
30
0
41
1
10
30.375965972491
20
-1.24945436893174
30
0
41
1
10
30.4544013500544
20
-1.95595937235632
30
0
41
1
10
30.5153957008021
20
-2.48369156474163
30
0
41
1
10
30.5611328591562
20
-2.86187091010592
30
0
41
1
10
30.6134341980772
20
-3.27790056302513
30
0
41
1
10
30.6569774870674
20
-3.60462274391514
30
0
41
1
10
30.7092395032978
20
-3.96861238909628
30
0
41
1
10
30.7462664246689
20
-4.21077968056738
30
0
41
1
10
30.7985341095541
20
-4.52640442397339
30
0
41
1
10
30.8464469245604
20
-4.7849988777661
30
0
41
1
10
30.9096007081241
20
-5.07882437354775
30
0
41
1
10
30.9791970208061
20
-5.34533030258257
30
0
41
1
10
31.0488779764588
20
-5.52524912100182
30
0
41
1
10
31.0969481489503
20
-5.60040110399362
30
0
41
1
10
31.1196867906972
20
-5.62666556245415
30
0
41
1
10
31.1293346904918
20
-5.63562337480457
30
0
41
1
10
31.1346238307784
20
-5.63987593739239
30
0
0
SPLINE
5
E3
100
AcDbEntity
8
1
62
256
6
ByLayer
370
18
48
1
60
0
100
AcDbSpline
70
4
71
3
72
26
73
22
40
0
40
0
40
0
40
0
40
0.125
40
0.125
40
0.25
40
0.25
40
0.375
40
0.375
40
0.499999999999999
40
0.499999999999999
40
0.5625
40
0.5625
40
0.625
40
0.625
40
0.75
40
0.75
40
0.8125
40
0.8125
40
0.875
40
0.875
40
1
40
1
40
1
40
1
41
1
10
31.090468532995
20
-5.48464159318357
30
0
41
1
10
31.090468532995
20
-5.41017288251075
30
0
41
1
10
31.090468532995
20
-5.31287974229792
30
0
41
1
10
31.090468532995
20
-5.07444933018363
30
0
41
1
10
31.090468532995
20
-4.93314343528931
30
0
41
1
10
31.090468532995
20
-4.60463126880563
30
0
41
1
10
31.090468532995
20
-4.42167264921721
30
0
41
1
10
31.090468532995
20
-4.02064393125565
30
0
41
1
10
31.090468532995
20
-3.80237011677772
30
0
41
1
10
31.090468532995
20
-3.44762765164199
30
0
41
1
10
31.0904685329949
20
-3.3251099412042
30
0
41
1
10
31.0904685329949
20
-3.07526648738116
30
0
41
1
10
31.090468532995
20
-2.94744089977468
30
0
41
1
10
31.090468532995
20
-2.55543003289967
30
0
41
1
10
31.090468532995
20
-2.28273762122069
30
0
41
1
10
31.090468532995
20
-1.85621186350878
30
0
41
1
10
31.090468532995
20
-1.71071079958119
30
0
41
1
10
31.090468532995
20
-1.41892814220739
30
0
41
1
10
31.0904685329949
20
-1.27207377521111
30
0
41
1
10
31.090468532995
20
-0.828680543752938
30
0
41
1
10
31.090468532995
20
-0.529334880464774
30
0
41
1
10
31.090468532995
20
-0.226154356301692
30
0
0
SPLINE
5
E4
100
AcDbEntity
8
1
62
256
6
ByLayer
370
18
48
1
60
0
100
AcDbSpline
70
4
71
3
72
8
73
4
40
0
40
0
40
0
40
0
40
1
40
1
40
1
40
1
41
1
10
31.5277694941788
20
-5.67397745039744
30
0
41
1
10
31.6650157561183
20
-5.67736632370492
30
0
41
1
10
31.8023056966024
20
-5.67909071346307
30
0
41
1
10
31.9396028011223
20
-5.67916762131512
30
0
0
SPLINE
5
E5
100
AcDbEntity
8
1
62
256
6
ByLayer
370
18
48
1
60
0
100
AcDbSpline
70
4
71
3
72
28
73
24
40
0
40
0
40
0
40
0
40
0.037442414326945
40
0.037442414326945
40
0.13369817289425
40
0.13369817289425
40
0.229953931461556
40
0.229953931461556
40
0.326209690028861
40
0.326209690028861
40
0.422465448596167
40
0.422465448596167
40
0.518721207163472
40
0.518721207163472
40
0.614976965730778
40
0.614976965730778
40
0.711232724298084
40
0.711232724298084
40
0.807488482865389
40
0.807488482865389
40
0.903744241432695
40
0.903744241432695
40
1
40
1
40
1
40
1
41
1
10
54.3323615688534
20
3.66078299433687
30
0
41
1
10
54.4691688844362
20
3.72171534236017
30
0
41
1
10
54.6060390651689
20
3.78151312215508
30
0
41
1
10
55.0947796933161
20
3.99004738905373
30
0
41
1
10
55.4468038207288
20
4.13169595328012
30
0
41
1
10
56.1498032808466
20
4.39991471191451
30
0
41
1
10
56.4998128101967
20
4.52742475134335
30
0
41
1
10
57.202860837166
20
4.76257039366374
30
0
41
1
10
57.55600838439
20
4.87090721891576
30
0
41
1
10
58.2605608212161
20
5.06932510414879
30
0
41
1
10
58.6107783966342
20
5.15996638698911
30
0
41
1
10
59.3132455791314
20
5.31939454514887
30
0
41
1
10
59.6650319515922
20
5.38871505576304
30
0
41
1
10
60.3683234167198
20
5.50746796814181
30
0
41
1
10
60.7192634696968
20
5.55717772073754
30
0
41
1
10
61.4236993506902
20
5.63409417414698
30
0
41
1
10
61.7759551726929
20
5.66165190329326
30
0
41
1
10
62.479140144631
20
5.69552377394129
30
0
41
1
10
62.8291972874632
20
5.7017240182318
30
0
41
1
10
63.5325410362191
20
5.69221584746933
30
0
41
1
10
63.8857084759017
20
5.67667833911398
30
0
41
1
10
64.5899616923065
20
5.62399170373121
30
0
41
1
10
64.9401357217722
20
5.58646336538786
30
0
41
1
10
65.2915134334019
20
5.53879607698667
30
0
0
SPLINE
5
E6
100
AcDbEntity
8
1
62
256
6
ByLayer
370
18
48
1
60
0
100
AcDbSpline
70
4
71
3
72
14
73
10
40
0
40
0
40
0
40
0
40
0.25
40
0.25
40
0.5
40
0.5
40
0.75
40
0.75
40
1
40
1
40
1
40
1
41
1
10
64.9560737666088
20
1.23039591078484
30
0
41
1
10
64.9533131736106
20
1.24557159375223
30
0
41
1
10
64.9537203055733
20
1.26141083751548
30
0
41
1
10
64.9635377230537
20
1.29053926875093
30
0
41
1
10
64.9732545841661
20
1.30372049762929
30
0
41
1
10
64.9979771740278
20
1.322834860971
30
0
41
1
10
65.0126752674717
20
1.32906753804482
30
0
41
1
10
65.0427559929426
20
1.3365291656213
30
0
41
1
10
65.0584228599732
20
1.33787878104923
30
0
41
1
10
65.073976733125
20
1.33757328686499
30
0
0
SPLINE
5
E7
100
AcDbEntity
8
1
62
256
6
ByLayer
370
18
48
1
60
0
100
AcDbSpline
70
4
71
3
72
8
73
4
40
0
40
0
40
0
40
0
40
1
40
1
40
1
40
1
41
1
10
66.9893569619085
20
0.125091723086768
30
0
41
1
10
66.9900119606879
20
0.103178759542317
30
0
41
1
10
66.9940458354335
20
0.0763943253681987
30
0
41
1
10
66.9999616193152
20
0.0481991970198123
30
0
0
SPLINE
5
E8
100
AcDbEntity
8
1
62
256
6
ByLayer
370
18
48
1
60
0
100
AcDbSpline
70
4
71
3
72
12
73
8
40
0
40
0
40
0
40
0
40
0.5
40
0.5
40
0.75
40
0.75
40
1
40
1
40
1
40
1
41
1
10
65.0739767331254
20
1.33757328686218
30
0
41
1
10
65.3837807601756
20
1.33148841478098
30
0
41
1
10
65.6936323860507
20
1.32507142853717
30
0
41
1
10
66.1581827415167
20
1.3170303915544
30
0
41
1
10
66.3130024668323
20
1.31456211001947
30
0
41
1
10
66.6224384654048
20
1.31104510531779
30
0
41
1
10
66.7770039835907
20
1.31035051858052
30
0
41
1
10
66.9314780583626
20
1.31029396551131
30
0
0
SPLINE
5
E9
100
AcDbEntity
8
1
62
256
6
ByLayer
370
18
48
1
60
0
100
AcDbSpline
70
4
71
3
72
8
73
4
40
0
40
0
40
0
40
0
40
1
40
1
40
1
40
1
41
1
10
66.9644040055745
20
-0.0409252358606125
30
0
41
1
10
66.6993928950743
20
-0.474389754658461
30
0
41
1
10
66.439740201242
20
-0.912721963397473
30
0
41
1
10
66.1855110516642
20
-1.3559810252444
30
0
0
SPLINE
5
EA
100
AcDbEntity
8
1
62
256
6
ByLayer
370
18
48
1
60
0
100
AcDbSpline
70
4
71
3
72
8
73
4
40
0
40
0
40
0
40
0
40
1
40
1
40
1
40
1
41
1
10
65.6106630378458
20
-2.38366123272686
30
0
41
1
10
65.2725162171105
20
-3.00367907810181
30
0
41
1
10
64.944716596856
20
-3.63309652168323
30
0
41
1
10
64.6274112388323
20
-4.27204715722567
30
0
0
SPLINE
5
EB
100
AcDbEntity
8
1
62
256
6
ByLayer
370
18
48
1
60
0
100
AcDbSpline
70
4
71
3
72
8
73
4
40
0
40
0
40
0
40
0
40
1
40
1
40
1
40
1
41
1
10
66.9314780583715
20
-1.31029396551134
30
0
41
1
10
66.9582623617584
20
-0.914846523937143
30
0
41
1
10
66.9775593964686
20
-0.519778903487946
30
0
41
1
10
66.9893569619085
20
-0.12509172308674
30
0
0
SPLINE
5
EC
100
AcDbEntity
8
1
62
256
6
ByLayer
370
18
48
1
60
0
100
AcDbSpline
70
4
71
3
72
12
73
8
40
0
40
0
40
0
40
0
40
0.500000000000004
40
0.500000000000004
40
0.750000000000002
40
0.750000000000002
40
1
40
1
40
1
40
1
41
1
10
31.1346238307784
20
-5.63987593739242
30
0
41
1
10
30.7711025132981
20
-5.95999515541024
30
0
41
1
10
30.4091963022666
20
-6.26648987993087
30
0
41
1
10
29.8682519798543
20
-6.70368908053317
30
0
41
1
10
29.6881377117439
20
-6.8457496990678
30
0
41
1
10
29.3293851027466
20
-7.12121645251614
30
0
41
1
10
29.1507061684907
20
-7.25453845537461
30
0
41
1
10
28.9721656747148
20
-7.38436535432817
30
0
0
SPLINE
5
ED
100
AcDbEntity
8
1
62
256
6
ByLayer
370
18
48
1
60
0
100
AcDbSpline
70
4
71
3
72
8
73
4
40
0
40
0
40
0
40
0
40
1
40
1
40
1
40
1
41
1
10
31.5277694941786
20
5.67397745039744
30
0
41
1
10
31.3967232029618
20
5.66410535229875
30
0
41
1
10
31.265801137712
20
5.65272946469989
30
0
41
1
10
31.1346238307784
20
5.63987593739239
30
0
0
SPLINE
5
EE
100
AcDbEntity
8
1
62
256
6
ByLayer
370
18
48
1
60
0
100
AcDbSpline
70
4
71
3
72
46
73
42
40
0
40
0
40
0
40
0
40
0.0332850316574179
40
0.0332850316574179
40
0.0665700633148359
40
0.0665700633148359
40
0.133140126629672
40
0.133140126629672
40
0.199710189944508
40
0.199710189944508
40
0.232995221601925
40
0.232995221601925
40
0.266280253259343
40
0.266280253259343
40
0.332850316574177
40
0.332850316574177
40
0.366135348231595
40
0.366135348231595
40
0.399420379889012
40
0.399420379889012
40
0.532560506518682
40
0.532560506518682
40
0.5658455381761
40
0.5658455381761
40
0.599130569833517
40
0.599130569833517
40
0.665700633148354
40
0.665700633148354
40
0.698985664805772
40
0.698985664805772
40
0.73227069646319
40
0.73227069646319
40
0.798840759778026
40
0.798840759778026
40
0.865410823092861
40
0.865410823092861
40
0.898695854750279
40
0.898695854750279
40
0.931980886407696
40
0.931980886407696
40
1
40
1
40
1
40
1
41
1
10
64.9855842931574
20
-5.69403459636376
30
0
41
1
10
64.634941347186
20
-5.70294040898062
30
0
41
1
10
64.2843719264376
20
-5.70103035724449
30
0
41
1
10
63.5824990112143
20
-5.67562332908165
30
0
41
1
10
63.2310001727
20
-5.65205598948705
30
0
41
1
10
62.1823040056441
20
-5.55002563177038
30
0
41
1
10
61.4881284047611
20
-5.44023405226272
30
0
41
1
10
60.1020952190457
20
-5.14277573949903
30
0
41
1
10
59.410099966332
20
-4.95519898588321
30
0
41
1
10
58.3680492321653
20
-4.61987347487272
30
0
41
1
10
58.0200390986022
20
-4.49908738293018
30
0
41
1
10
57.3217385204027
20
-4.240207690077
30
0
41
1
10
56.9707775836616
20
-4.10182737232503
30
0
41
1
10
55.9178178468764
20
-3.66407057552596
30
0
41
1
10
55.2184569740643
20
-3.34347017734748
30
0
41
1
10
54.1674203594199
20
-2.82787412142886
30
0
41
1
10
53.8165013396624
20
-2.65009330185489
30
0
41
1
10
53.1140226810214
20
-2.28492679664046
30
0
41
1
10
52.7643160453852
20
-2.09844823410731
30
0
41
1
10
51.021079304491
20
-1.15072852071762
30
0
41
1
10
49.6426999950625
20
-0.344764538303707
30
0
41
1
10
47.901938497705
20
0.655598729309759
30
0
41
1
10
47.5529635428972
20
0.855437514851729
30
0
41
1
10
46.8520832575211
20
1.25237274933977
30
0
41
1
10
46.5001665353672
20
1.44949132726148
30
0
41
1
10
45.4484074894546
20
2.02990913680773
30
0
41
1
10
44.7489784793633
20
2.40324916466616
30
0
41
1
10
43.6965518738533
20
2.93337628232834
30
0
41
1
10
43.3446653170928
20
3.1053996092069
30
0
41
1
10
42.6446316931554
20
3.43512042950715
30
0
41
1
10
42.295886398036
20
3.59315524148576
30
0
41
1
10
41.2521377377416
20
4.04534572062303
30
0
41
1
10
40.5594499440681
20
4.31735372036013
30
0
41
1
10
39.1729442945145
20
4.79430375086415
30
0
41
1
10
38.4790559750999
20
4.99916979794804
30
0
41
1
10
37.4316302970927
20
5.24986457555377
30
0
41
1
10
37.0808342339379
20
5.32406758864826
30
0
41
1
10
36.3783296097455
20
5.45208069960901
30
0
41
1
10
36.0283216194961
20
5.50562169553285
30
0
41
1
10
34.9653404216411
20
5.63655731173083
30
0
41
1
10
34.2547071843692
20
5.68051041562694
30
0
41
1
10
33.5430265136335
20
5.6801492023784
30
0
0
SPLINE
5
EF
100
AcDbEntity
8
1
62
256
6
ByLayer
370
13
48
1
60
0
100
AcDbSpline
70
4
71
3
72
14
73
10
40
0
40
0
40
0
40
0
40
0.258464487429505
40
0.258464487429505
40
0.516928974859009
40
0.516928974859009
40
0.775393462288513
40
0.775393462288513
40
1
40
1
40
1
40
1
41
1
10
31.0904685329935
20
-5.3243527514625
30
0
41
1
10
31.4453911352122
20
-5.37313258120992
30
0
41
1
10
31.8018174742639
20
-5.41177746912317
30
0
41
1
10
32.5161975478166
20
-5.46777499749467
30
0
41
1
10
32.8728819436653
20
-5.48501986980392
30
0
41
1
10
33.5863619291662
20
-5.49802249696177
30
0
41
1
10
33.9431173196016
20
-5.49377676673586
30
0
41
1
10
34.6108499195379
20
-5.46563978238547
30
0
41
1
10
34.9201659589938
20
-5.44444979397991
30
0
41
1
10
35.2285101038392
20
-5.41541819217025
30
0
0
SPLINE
5
F0
100
AcDbEntity
8
1
62
256
6
ByLayer
370
18
48
1
60
0
100
AcDbSpline
70
4
71
3
72
58
73
54
40
0
40
0
40
0
40
0
40
0.0369984997444559
40
0.0369984997444559
40
0.0755185597546776
40
0.0755185597546776
40
0.114038619764899
40
0.114038619764899
40
0.152558679775121
40
0.152558679775121
40
0.191078739785343
40
0.191078739785343
40
0.229598799795565
40
0.229598799795565
40
0.268118859805786
40
0.268118859805786
40
0.306638919816008
40
0.306638919816008
40
0.34515897982623
40
0.34515897982623
40
0.383679039836452
40
0.383679039836452
40
0.422199099846673
40
0.422199099846673
40
0.460719159856895
40
0.460719159856895
40
0.499239219867117
40
0.499239219867117
40
0.537759279877339
40
0.537759279877339
40
0.576279339887561
40
0.576279339887561
40
0.614799399897782
40
0.614799399897782
40
0.653319459908004
40
0.653319459908004
40
0.691839519918226
40
0.691839519918226
40
0.730359579928448
40
0.730359579928448
40
0.768879639938669
40
0.768879639938669
40
0.807399699948891
40
0.807399699948891
40
0.845919759959113
40
0.845919759959113
40
0.884439819969335
40
0.884439819969335
40
0.922959879979556
40
0.922959879979556
40
0.961479939989778
40
0.961479939989778
40
1
40
1
40
1
40
1
41
1
10
54.3222599150175
20
-3.66660252688612
30
0
41
1
10
54.0359886251391
20
-3.78207764663463
30
0
41
1
10
53.7500611268327
20
-3.89377818369007
30
0
41
1
10
53.1649679882636
20
-4.11071638363305
30
0
41
1
10
52.8657717026169
20
-4.21565269119844
30
0
41
1
10
52.2688738608769
20
-4.41145680983249
30
0
41
1
10
51.9710898117472
20
-4.50272784693584
30
0
41
1
10
51.3757390426768
20
-4.67497100872177
30
0
41
1
10
51.0779395252297
20
-4.75510939522269
30
0
41
1
10
50.4816722298208
20
-4.90141702543448
30
0
41
1
10
50.1831249298955
20
-4.9673701772374
30
0
41
1
10
49.5862684654671
20
-5.08783225120837
30
0
41
1
10
49.2877117307918
20
-5.1414426822883
30
0
41
1
10
48.691329120524
20
-5.23308370631426
30
0
41
1
10
48.3932350419722
20
-5.27087654663973
30
0
41
1
10
47.7974130258106
20
-5.33288400913037
30
0
41
1
10
47.5000599246053
20
-5.35732731504427
30
0
41
1
10
46.9041142062241
20
-5.39118562244937
30
0
41
1
10
46.6055889803927
20
-5.4002057649347
30
0
41
1
10
46.0075557196968
20
-5.40357482556217
30
0
41
1
10
45.7093217135802
20
-5.39843421960234
30
0
41
1
10
45.1135340199634
20
-5.37337879879064
30
0
41
1
10
44.815698203816
20
-5.35290745038694
30
0
41
1
10
44.2196141807652
20
-5.29693018875855
30
0
41
1
10
43.9213574994574
20
-5.26282813549838
30
0
41
1
10
43.3253506440951
20
-5.17927125395408
30
0
41
1
10
43.0266622168231
20
-5.12987049974396
30
0
41
1
10
42.4291710205404
20
-5.01655047652829
30
0
41
1
10
42.1306110483935
20
-4.95392734293648
30
0
41
1
10
41.534259049552
20
-4.81532746788284
30
0
41
1
10
41.2368245856568
20
-4.73880039122437
30
0
41
1
10
40.6409649773388
20
-4.57238572670872
30
0
41
1
10
40.3426899335629
20
-4.48327347767309
30
0
41
1
10
39.7454206977154
20
-4.29370636276877
30
0
41
1
10
39.4463790629653
20
-4.19228511862332
30
0
41
1
10
38.8497291951128
20
-3.97756394876609
30
0
41
1
10
38.551587771821
20
-3.86483994282605
30
0
41
1
10
37.9552495962448
20
-3.63079787898155
30
0
41
1
10
37.6570298505263
20
-3.50898339848908
30
0
41
1
10
37.0613646527007
20
-3.25380858369607
30
0
41
1
10
36.7633097444949
20
-3.12120328894142
30
0
41
1
10
36.1659431408127
20
-2.84948477795348
30
0
41
1
10
35.8666277888639
20
-2.70978349015004
30
0
41
1
10
35.2694581856977
20
-2.42243013135052
30
0
41
1
10
34.9716139318612
20
-2.27427855100117
30
0
41
1
10
34.3750730274106
20
-1.97411747695631
30
0
41
1
10
34.0765462097531
20
-1.82171392077063
30
0
41
1
10
33.4787155689349
20
-1.5114938984392
30
0
41
1
10
33.1798619254053
20
-1.35321717203965
30
0
41
1
10
32.5832284711867
20
-1.0341054371506
30
0
41
1
10
32.2849156440612
20
-0.873511763059582
30
0
41
1
10
31.6878798012393
20
-0.550611188624714
30
0
41
1
10
31.3890648501709
20
-0.388432211380206
30
0
41
1
10
31.090468532995
20
-0.224819689444075
30
0
0
SPLINE
5
F1
100
AcDbEntity
8
1
62
256
6
ByLayer
370
18
48
1
60
0
100
AcDbSpline
70
4
71
3
72
22
73
18
40
0
40
0
40
0
40
0
40
0.0013481693417751
40
0.0013481693417751
40
0.1012133524076
40
0.1012133524076
40
0.201078535473425
40
0.201078535473425
40
0.40080890160507
40
0.40080890160507
40
0.500674084670893
40
0.500674084670893
40
0.600539267736716
40
0.600539267736716
40
0.800269633868358
40
0.800269633868358
40
1
40
1
40
1
40
1
41
1
10
23.7112665611782
20
-5.26400399383209
30
0
41
1
10
23.7080561884828
20
-5.26582636391922
30
0
41
1
10
23.7048457561785
20
-5.26764792767497
30
0
41
1
10
23.4638191635835
20
-5.40434065951183
30
0
41
1
10
23.2254068770525
20
-5.53494252567052
30
0
41
1
10
22.7501543733941
20
-5.78633938590085
30
0
41
1
10
22.5131463854185
20
-5.90714416471008
30
0
41
1
10
21.8013282458609
20
-6.25278206264389
30
0
41
1
10
21.3262530864649
20
-6.46145124342939
30
0
41
1
10
20.6133626965995
20
-6.74189615982459
30
0
41
1
10
20.3755495997883
20
-6.82980050111127
30
0
41
1
10
19.9009621624141
20
-6.99253960905384
30
0
41
1
10
19.6639781910324
20
-7.06763824660698
30
0
41
1
10
18.9538617182184
20
-7.27433224245758
30
0
41
1
10
18.4825117406219
20
-7.38769153479723
30
0
41
1
10
17.5373911871534
20
-7.56275799083315
30
0
41
1
10
17.0631098077047
20
-7.62450040865809
30
0
41
1
10
16.5870131272267
20
-7.65991925748949
30
0
0
SPLINE
5
F2
100
AcDbEntity
8
1
62
256
6
ByLayer
370
18
48
1
60
0
100
AcDbSpline
70
4
71
3
72
14
73
10
40
0
40
0
40
0
40
0
40
0.182580616686795
40
0.182580616686795
40
0.365161233373589
40
0.365161233373589
40
0.730322466747178
40
0.730322466747178
40
1
40
1
40
1
40
1
41
1
10
65.0712433906706
20
-5.41196365845755
30
0
41
1
10
64.7146447066521
20
-5.41824436938867
30
0
41
1
10
64.3582446834303
20
-5.41386748978485
30
0
41
1
10
63.644981141316
20
-5.38388635864445
30
0
41
1
10
63.2874942617477
20
-5.35820128378793
30
0
41
1
10
62.2204716495832
20
-5.25044917792653
30
0
41
1
10
61.5147536794918
20
-5.13780807885243
30
0
41
1
10
60.2912956614978
20
-4.87648573699434
30
0
41
1
10
59.7725983380431
20
-4.74493723156206
30
0
41
1
10
59.2534635041087
20
-4.59422883600874
30
0
0
SPLINE
5
F3
100
AcDbEntity
8
1
62
256
6
ByLayer
370
13
48
1
60
0
100
AcDbSpline
70
4
71
3
72
22
73
18
40
0
40
0
40
0
40
0
40
0.194037555885469
40
0.194037555885469
40
0.270946047937218
40
0.270946047937218
40
0.347854539988967
40
0.347854539988967
40
0.501671524092466
40
0.501671524092466
40
0.655488508195966
40
0.655488508195966
40
0.732397000247717
40
0.732397000247717
40
0.809305492299468
40
0.809305492299468
40
1
40
1
40
1
40
1
41
1
10
59.2534627087278
20
-4.59422860510423
30
0
41
1
10
58.3667119405976
20
-4.33679875446862
30
0
41
1
10
57.4786846395895
20
-4.02346581534485
30
0
41
1
10
56.2267275563163
20
-3.5174814727369
30
0
41
1
10
55.8689842196928
20
-3.36579794813227
30
0
41
1
10
55.1575361291627
20
-3.05160959970826
30
0
41
1
10
54.8032318851422
20
-2.88888440816768
30
0
41
1
10
53.7431004516912
20
-2.38646975495325
30
0
41
1
10
53.0399925288828
20
-2.03266447410567
30
0
41
1
10
51.6341472211178
20
-1.29953065979222
30
0
41
1
10
50.9313759698862
20
-0.920292883896565
30
0
41
1
10
49.8717380019006
20
-0.342608004008042
30
0
41
1
10
49.5176737159964
20
-0.148477826533849
30
0
41
1
10
48.8067298950006
20
0.240925056661695
30
0
41
1
10
48.4488764547311
20
0.436626447903223
30
0
41
1
10
47.2106823609968
20
1.11026884924593
30
0
41
1
10
46.3362473347224
20
1.57794034550679
30
0
41
1
10
45.4627222484102
20
2.02129677260533
30
0
0
SPLINE
5
F4
100
AcDbEntity
8
1
62
256
6
ByLayer
370
18
48
1
60
0
100
AcDbSpline
70
4
71
3
72
28
73
24
40
0
40
0
40
0
40
0
40
0.125000000000003
40
0.125000000000003
40
0.156250000000003
40
0.156250000000003
40
0.187500000000004
40
0.187500000000004
40
0.250000000000005
40
0.250000000000005
40
0.312500000000007
40
0.312500000000007
40
0.375000000000008
40
0.375000000000008
40
0.500000000000007
40
0.500000000000007
40
0.562500000000007
40
0.562500000000007
40
0.625000000000006
40
0.625000000000006
40
0.750000000000006
40
0.750000000000006
40
1
40
1
40
1
40
1
41
1
10
59.724677203183
20
1.06547725400145
30
0
41
1
10
59.7822667171597
20
0.747295795359122
30
0
41
1
10
59.876792346693
20
0.434486688689248
30
0
41
1
10
60.0345467391541
20
0.0492347342458004
30
0
41
1
10
60.0680379053257
20
-0.0273400454117905
30
0
41
1
10
60.137913137344
20
-0.177929924055661
30
0
41
1
10
60.1743980271571
20
-0.252196233859053
30
0
41
1
10
60.2881627898458
20
-0.472129808002165
30
0
41
1
10
60.3697404482177
20
-0.614939899284252
30
0
41
1
10
60.5429866810734
20
-0.893851628467104
30
0
41
1
10
60.6348610002815
20
-1.03022514520379
30
0
41
1
10
60.8268551705259
20
-1.29572420294531
30
0
41
1
10
60.9261390906869
20
-1.42374874152179
30
0
41
1
10
61.2324403622617
20
-1.79567576107871
30
0
41
1
10
61.447729974201
20
-2.02768645247039
30
0
41
1
10
61.7845957789397
20
-2.35567542194397
30
0
41
1
10
61.8992541049592
20
-2.46159848064511
30
0
41
1
10
62.132841242747
20
-2.66730556050047
30
0
41
1
10
62.2520888295401
20
-2.76735335895066
30
0
41
1
10
62.6127348278901
20
-3.05671444468214
30
0
41
1
10
62.857105270191
20
-3.23546046872227
30
0
41
1
10
63.6000935515144
20
-3.73619623186306
30
0
41
1
10
64.1084271334065
20
-4.02326313031475
30
0
41
1
10
64.6274112388325
20
-4.27204715722564
30
0
0
SPLINE
5
F5
100
AcDbEntity
8
1
62
256
6
ByLayer
370
18
48
1
60
0
100
AcDbSpline
70
4
71
3
72
32
73
28
40
0
40
0
40
0
40
0
40
0.125
40
0.125
40
0.1875
40
0.1875
40
0.250000000000001
40
0.250000000000001
40
0.312500000000001
40
0.312500000000001
40
0.375000000000001
40
0.375000000000001
40
0.499999999999999
40
0.499999999999999
40
0.562499999999999
40
0.562499999999999
40
0.624999999999999
40
0.624999999999999
40
0.6875
40
0.6875
40
0.75
40
0.75
40
0.8125
40
0.8125
40
0.875
40
0.875
40
1
40
1
40
1
40
1
41
1
10
16.5870131272265
20
-0.235485667301845
30
0
41
1
10
17.1020599015441
20
-0.641851778711327
30
0
41
1
10
17.6193483102576
20
-1.04002003176606
30
0
41
1
10
18.3937487608183
20
-1.63154022273309
30
0
41
1
10
18.6510147681231
20
-1.82850790936152
30
0
41
1
10
19.1668019833353
20
-2.21823059825837
30
0
41
1
10
19.4259217693717
20
-2.41061039770656
30
0
41
1
10
19.9430701141328
20
-2.78880860127828
30
0
41
1
10
20.2014031299931
20
-2.97487650045665
30
0
41
1
10
20.716916074882
20
-3.34172795850341
30
0
41
1
10
20.973706264553
20
-3.52293409382097
30
0
41
1
10
21.7475395191421
20
-4.0525364294752
30
0
41
1
10
22.2673727312919
20
-4.38919042690264
30
0
41
1
10
23.0396810825723
20
-4.86796050254108
30
0
41
1
10
23.2969146326272
20
-5.02259107682997
30
0
41
1
10
23.8130149632787
20
-5.32006268297951
30
0
41
1
10
24.0715068638907
20
-5.46328947500959
30
0
41
1
10
24.5888140519828
20
-5.73918966666929
30
0
41
1
10
24.847255229867
20
-5.87211632705274
30
0
41
1
10
25.3624657540681
20
-6.12514987962641
30
0
41
1
10
25.6204361550041
20
-6.24478005694723
30
0
41
1
10
26.1367277486657
20
-6.47082394129023
30
0
41
1
10
26.395007150679
20
-6.57727029009618
30
0
41
1
10
26.9112671318938
20
-6.77728387177007
30
0
41
1
10
27.1690954027894
20
-6.87127097814996
30
0
41
1
10
27.9435936978184
20
-7.12976953185432
30
0
41
1
10
28.4594774832095
20
-7.27149726346639
30
0
41
1
10
28.9721656747144
20
-7.38436535432902
30
0
0
SPLINE
5
F6
100
AcDbEntity
8
1
62
256
6
ByLayer
370
18
48
1
60
0
100
AcDbSpline
70
4
71
3
72
18
73
14
40
0
40
0
40
0
40
0
40
0.116510265726954
40
0.116510265726954
40
0.263758554772462
40
0.263758554772462
40
0.411006843817969
40
0.411006843817969
40
0.558255132863477
40
0.558255132863477
40
0.705503421908985
40
0.705503421908985
40
1
40
1
40
1
40
1
41
1
10
23.7166236144951
20
5.26375442843798
30
0
41
1
10
23.9209421776079
20
5.37962981829853
30
0
41
1
10
24.1255007014881
20
5.49208650409494
30
0
41
1
10
24.5888140519828
20
5.73918966666929
30
0
41
1
10
24.8472552298669
20
5.87211632705271
30
0
41
1
10
25.3624657540681
20
6.12514987962638
30
0
41
1
10
25.620436155004
20
6.24478005694721
30
0
41
1
10
26.1367277486657
20
6.47082394129023
30
0
41
1
10
26.395007150679
20
6.57727029009618
30
0
41
1
10
26.9112671318939
20
6.77728387177004
30
0
41
1
10
27.1690954027893
20
6.87127097814996
30
0
41
1
10
27.9435936978184
20
7.12976953185429
30
0
41
1
10
28.4594774832095
20
7.27149726346639
30
0
41
1
10
28.9721656747144
20
7.38436535432899
30
0
0
SPLINE
5
F7
100
AcDbEntity
8
1
62
256
6
ByLayer
370
18
48
1
60
0
100
AcDbSpline
70
4
71
3
72
8
73
4
40
0
40
0
40
0
40
0
40
1
40
1
40
1
40
1
41
1
10
66.9314780583715
20
1.3102939655108
30
0
41
1
10
66.9582669046118
20
0.914779452574493
30
0
41
1
10
66.9775613978466
20
0.519711947449849
30
0
41
1
10
66.9893569619085
20
0.125091723086768
30
0
0
SPLINE
5
F8
100
AcDbEntity
8
1
62
256
6
ByLayer
370
18
48
1
60
0
100
AcDbSpline
70
4
71
3
72
12
73
8
40
0
40
0
40
0
40
0
40
0.249999999999998
40
0.249999999999998
40
0.499999999999996
40
0.499999999999996
40
1
40
1
40
1
40
1
41
1
10
30.2132504177675
20
0.274343537117289
30
0
41
1
10
30.0144037989411
20
0.404983673648076
30
0
41
1
10
29.819204376129
20
0.549647983974694
30
0
41
1
10
29.4339792241535
20
0.865531812462592
30
0
41
1
10
29.2433801470622
20
1.03742408236596
30
0
41
1
10
28.6848858756706
20
1.58405925266749
30
0
41
1
10
28.3269884145244
20
1.98909181464165
30
0
41
1
10
27.9759691792051
20
2.42912410108426
30
0
0
SPLINE
5
F9
100
AcDbEntity
8
1
62
256
6
ByLayer
370
18
48
1
60
0
100
AcDbSpline
70
4
71
3
72
8
73
4
40
0
40
0
40
0
40
0
40
1
40
1
40
1
40
1
41
1
10
65.2915134334095
20
5.53879607698715
30
0
41
1
10
65.1782599326222
20
5.6243737640504
30
0
41
1
10
65.0764051630944
20
5.67723924839595
30
0
41
1
10
64.9855842931574
20
5.69403459636379
30
0
0
SPLINE
5
FA
100
AcDbEntity
8
1
62
256
6
ByLayer
370
18
48
1
60
0
100
AcDbSpline
70
4
71
3
72
10
73
6
40
0
40
0
40
0
40
0
40
0.5
40
0.5
40
1
40
1
40
1
40
1
41
1
10
65.291513433402
20
-5.53879607701111
30
0
41
1
10
65.5640899980051
20
-4.8337435506304
30
0
41
1
10
65.8380219168664
20
-4.12931212250808
30
0
41
1
10
66.3854846401598
20
-2.72018349868768
30
0
41
1
10
66.6591383186149
20
-2.01552329627205
30
0
41
1
10
66.9314780583715
20
-1.31029396551134
30
0
0
SPLINE
5
FB
100
AcDbEntity
8
1
62
256
6
ByLayer
370
18
48
1
60
0
100
AcDbSpline
70
4
71
3
72
18
73
14
40
0
40
0
40
0
40
0
40
0.269292040473892
40
0.269292040473892
40
0.403938060710839
40
0.403938060710839
40
0.538584080947785
40
0.538584080947785
40
0.807876121421677
40
0.807876121421677
40
0.942522141658622
40
0.942522141658622
40
1
40
1
40
1
40
1
41
1
10
64.6274112388324
20
-4.27204715722567
30
0
41
1
10
64.6270038284191
20
-4.46648756481366
30
0
41
1
10
64.6356261753086
20
-4.6371790332862
30
0
41
1
10
64.6625318594273
20
-4.85818164853967
30
0
41
1
10
64.6738467796002
20
-4.9259771077981
30
0
41
1
10
64.7014654827158
20
-5.04951457526795
30
0
41
1
10
64.7176394226026
20
-5.10458215610802
30
0
41
1
10
64.7729282425964
20
-5.24912164466789
30
0
41
1
10
64.8188887896848
20
-5.31869080970483
30
0
41
1
10
64.9025381137694
20
-5.38371695703697
30
0
41
1
10
64.9329929072741
20
-5.39882088874654
30
0
41
1
10
64.9798392458158
20
-5.41069199916367
30
0
41
1
10
64.9942701828645
20
-5.41301266205338
30
0
41
1
10
65.0091231264263
20
-5.41411240105344
30
0
0
SPLINE
5
FC
100
AcDbEntity
8
1
62
256
6
ByLayer
370
18
48
1
60
0
100
AcDbSpline
70
4
71
3
72
88
73
84
40
0
40
0
40
0
40
0
40
0.0335897841166919
40
0.0335897841166919
40
0.0503846761750379
40
0.0503846761750379
40
0.0671795682333838
40
0.0671795682333838
40
0.100769352350076
40
0.100769352350076
40
0.117564244408422
40
0.117564244408422
40
0.134359136466769
40
0.134359136466769
40
0.167948920583462
40
0.167948920583462
40
0.184743812641809
40
0.184743812641809
40
0.201538704700155
40
0.201538704700155
40
0.235128488816849
40
0.235128488816849
40
0.251923380875196
40
0.251923380875196
40
0.268718272933543
40
0.268718272933543
40
0.302308057050237
40
0.302308057050237
40
0.319102949108585
40
0.319102949108585
40
0.335897841166932
40
0.335897841166932
40
0.369487625283628
40
0.369487625283628
40
0.386282517341976
40
0.386282517341976
40
0.403077409400324
40
0.403077409400324
40
0.436667193517022
40
0.436667193517022
40
0.453462085575371
40
0.453462085575371
40
0.47025697763372
40
0.47025697763372
40
0.503846761750417
40
0.503846761750417
40
0.520641653808765
40
0.520641653808765
40
0.537436545867114
40
0.537436545867114
40
0.57102632998381
40
0.57102632998381
40
0.587821222042158
40
0.587821222042158
40
0.604616114100506
40
0.604616114100506
40
0.638205898217202
40
0.638205898217202
40
0.655000790275551
40
0.655000790275551
40
0.671795682333899
40
0.671795682333899
40
0.705385466450596
40
0.705385466450596
40
0.722180358508944
40
0.722180358508944
40
0.738975250567292
40
0.738975250567292
40
0.772565034683989
40
0.772565034683989
40
0.806154818800685
40
0.806154818800685
40
0.839744602917382
40
0.839744602917382
40
0.873334387034079
40
0.873334387034079
40
0.906924171150776
40
0.906924171150776
40
0.940513955267473
40
0.940513955267473
40
0.974103739384169
40
0.974103739384169
40
1
40
1
40
1
40
1
41
1
10
31.5277694941786
20
5.67397745039744
30
0
41
1
10
31.8796931987456
20
5.68266712129858
30
0
41
1
10
32.231904089898
20
5.68041280695172
30
0
41
1
10
32.7597277834618
20
5.6610453156681
30
0
41
1
10
32.9356177038193
20
5.65192002483269
30
0
41
1
10
33.2868487164965
20
5.62817647369579
30
0
41
1
10
33.4620772745391
20
5.61350359948867
30
0
41
1
10
33.9889618591534
20
5.56162806626554
30
0
41
1
10
34.3417585639036
20
5.51659234453703
30
0
41
1
10
34.8710631685392
20
5.43333951376897
30
0
41
1
10
35.0473020843576
20
5.40302245942272
30
0
41
1
10
35.3989158285876
20
5.33694764670716
30
0
41
1
10
35.5742244865211
20
5.30112328431994
30
0
41
1
10
36.1009724012881
20
5.18672073242888
30
0
41
1
10
36.4528425065643
20
5.10110161634148
30
0
41
1
10
36.9807145365582
20
4.95817759229982
30
0
41
1
10
37.1567164896425
20
4.90814048935837
30
0
41
1
10
37.5083259267205
20
4.80274882003945
30
0
41
1
10
37.6839158045352
20
4.74734965500062
30
0
41
1
10
38.2122920565405
20
4.57515018640154
30
0
41
1
10
38.5648144660575
20
4.45250012030013
30
0
41
1
10
39.0926909453624
20
4.25610932525021
30
0
41
1
10
39.2685465582703
20
4.18859869685465
30
0
41
1
10
39.6195595793242
20
4.04883913724248
30
0
41
1
10
39.7947485016129
20
3.97660657404842
30
0
41
1
10
40.3215110062689
20
3.7555168659176
30
0
41
1
10
40.6737969181513
20
3.60176477852173
30
0
41
1
10
41.2028661002827
20
3.36032449377467
30
0
41
1
10
41.3793191317631
20
3.27808413475549
30
0
41
1
10
41.7309730844151
20
3.10978812216098
30
0
41
1
10
41.9063828695661
20
3.02378003972544
30
0
41
1
10
42.4333928901128
20
2.7632032313042
30
0
41
1
10
42.7852703969536
20
2.58539726066502
30
0
41
1
10
43.3128569408435
20
2.31108699277874
30
0
41
1
10
43.4886986844489
20
2.21840740156796
30
0
41
1
10
43.8398794506624
20
2.02976600181319
30
0
41
1
10
44.0153461785703
20
1.9339990465576
30
0
41
1
10
44.5432672538624
20
1.64547475188385
30
0
41
1
10
44.8964951482716
20
1.45081667455011
30
0
41
1
10
45.42448343466
20
1.15518897867204
30
0
41
1
10
45.600302507509
20
1.05598137072462
30
0
41
1
10
45.951154066026
20
0.855480027568575
30
0
41
1
10
46.1263641390059
20
0.754488619188322
30
0
41
1
10
46.6530722052037
20
0.452281448007341
30
0
41
1
10
47.0051438919571
20
0.250977247842741
30
0
41
1
10
47.5336045276621
20
-0.0525396114302623
30
0
41
1
10
47.7099303850324
20
-0.154049709823397
30
0
41
1
10
48.0617152605233
20
-0.3579615168278
30
0
41
1
10
48.2373001189125
20
-0.459907737969615
30
0
41
1
10
48.7646751944799
20
-0.76304140902019
30
0
41
1
10
49.116606597195
20
-0.962384225505275
30
0
41
1
10
49.6439851720939
20
-1.25912039993983
30
0
41
1
10
49.8196723116713
20
-1.35768346763527
30
0
41
1
10
50.1704951931503
20
-1.55466130684121
30
0
41
1
10
50.3459021174951
20
-1.65261504753141
30
0
41
1
10
50.8734553312875
20
-1.94262821775942
30
0
41
1
10
51.2268780394425
20
-2.13182171205438
30
0
41
1
10
51.7550594495363
20
-2.40927052053084
30
0
41
1
10
51.9308538327537
20
-2.50080487600104
30
0
41
1
10
52.2816297176745
20
-2.68236173821808
30
0
41
1
10
52.4569296035111
20
-2.77188164205401
30
0
41
1
10
52.983681622757
20
-3.03502216528619
30
0
41
1
10
53.3355860588913
20
-3.20388256471421
30
0
41
1
10
53.8635179734187
20
-3.4488692534463
30
0
41
1
10
54.0394529944491
20
-3.52921821168721
30
0
41
1
10
54.3910479772147
20
-3.6874708779873
30
0
41
1
10
54.5669777919894
20
-3.76484658473726
30
0
41
1
10
55.0947796933158
20
-3.99004738905361
30
0
41
1
10
55.4468038207283
20
-4.13169595327997
30
0
41
1
10
56.1498032808463
20
-4.39991471191439
30
0
41
1
10
56.4998128101963
20
-4.5274247513432
30
0
41
1
10
57.2028608371656
20
-4.76257039366362
30
0
41
1
10
57.5560083843897
20
-4.87090721891565
30
0
41
1
10
58.2605608212157
20
-5.0693251041487
30
0
41
1
10
58.6107783966338
20
-5.159966386989
30
0
41
1
10
59.313245579131
20
-5.31939454514881
30
0
41
1
10
59.6650319515919
20
-5.38871505576296
30
0
41
1
10
60.3683234167194
20
-5.50746796814175
30
0
41
1
10
60.7192634696964
20
-5.55717772073749
30
0
41
1
10
61.4236993506898
20
-5.63409417414695
30
0
41
1
10
61.7759551726925
20
-5.66165190329323
30
0
41
1
10
62.3986101524123
20
-5.69164470714014
30
0
41
1
10
62.6687600783625
20
-5.69832056172547
30
0
41
1
10
62.9394409152248
20
-5.6985152142025
30
0
0
SPLINE
5
FD
100
AcDbEntity
8
1
62
256
6
ByLayer
370
18
48
1
60
0
100
AcDbSpline
70
4
71
3
72
10
73
6
40
0
40
0
40
0
40
0
40
0.5
40
0.5
40
1
40
1
40
1
40
1
41
1
10
66.9999616193264
20
0.048199197029021
30
0
41
1
10
66.9962162823603
20
0.0329498797295003
30
0
41
1
10
66.9911230457118
20
0.0166264372916771
30
0
41
1
10
66.9788745274384
20
-0.0143473696533931
30
0
41
1
10
66.9716873351534
20
-0.0290122826819754
30
0
41
1
10
66.9644040055745
20
-0.0409252358605556
30
0
0
SPLINE
5
FE
100
AcDbEntity
8
1
62
256
6
ByLayer
370
18
48
1
60
0
100
AcDbSpline
70
4
71
3
72
28
73
24
40
0
40
0
40
0
40
0
40
0.0797590885763471
40
0.155354943008143
40
0.215299390540491
40
0.276818185636546
40
0.347203030437345
40
0.40649375269752
40
0.478042633289619
40
0.511950903146978
40
0.538125705099288
40
0.560555851422083
40
0.59712512964125
40
0.642894226074431
40
0.68049831514389
40
0.709650673858472
40
0.761464582788475
40
0.813993885381178
40
0.828679115999115
40
0.848306673438278
40
0.875930878247115
40
0.932390000873195
40
1
40
1
40
1
40
1
41
1
10
33.6830247594191
20
-5.39523344676556
30
0
41
1
10
34.0147902636348
20
-5.39500907449204
30
0
41
1
10
34.6608633755126
20
-5.394860383555
30
0
41
1
10
35.5498988076829
20
-5.39684652463672
30
0
41
1
10
36.3730739390833
20
-5.39696570350139
30
0
41
1
10
37.1722330763818
20
-5.39756069729464
30
0
41
1
10
37.9696773998424
20
-5.39813998565967
30
0
41
1
10
38.8072402817072
20
-5.39790483080751
30
0
41
1
10
39.4943442656593
20
-5.39913693923671
30
0
41
1
10
40.0426264026742
20
-5.39906959964176
30
0
41
1
10
40.3865570027669
20
-5.39894720201943
30
0
41
1
10
40.7416140996174
20
-5.39929798488171
30
0
41
1
10
41.1783406986647
20
-5.40018061724481
30
0
41
1
10
41.6783267172584
20
-5.40023273354274
30
0
41
1
10
42.1473900813099
20
-5.39984148838039
30
0
41
1
10
42.641656191097
20
-5.40009237147731
30
0
41
1
10
43.1981123331759
20
-5.40154024184892
30
0
41
1
10
43.6943582505935
20
-5.40117686805928
30
0
41
1
10
44.0562243453526
20
-5.4009664481662
30
0
41
1
10
44.3143970597654
20
-5.40089714280296
30
0
41
1
10
44.7467189922505
20
-5.40203367821812
30
0
41
1
10
45.37906082768
20
-5.40237708710865
30
0
41
1
10
45.8962098927051
20
-5.40244153389756
30
0
41
1
10
46.1780164450449
20
-5.4022846538262
30
0
0
SPLINE
5
FF
100
AcDbEntity
8
1
62
256
6
ByLayer
370
18
48
1
60
0
100
AcDbSpline
70
4
71
2
72
6
73
3
40
0
40
0
40
0
40
1
40
1
40
1
41
1
10
64.7362056640206
20
-5.41465328381713
30
0
41
1
10
64.8748776785066
20
-5.41505958872099
30
0
41
1
10
65.0122027996938
20
-5.41408962210429
30
0
0
SPLINE
5
100
100
AcDbEntity
8
1
62
256
6
ByLayer
370
18
48
1
60
0
100
AcDbSpline
70
4
71
3
72
25
73
21
40
0
40
0
40
0
40
0
40
0.0695742164295873
40
0.136775039662688
40
0.194511015730939
40
0.238768820870389
40
0.268797101681717
40
0.301816878174363
40
0.34987720425156
40
0.411397963523823
40
0.464254044992394
40
0.511716928883358
40
0.56919583513534
40
0.62449600599446
40
0.682345593018098
40
0.744336138856821
40
0.822988368702406
40
0.909101075793914
40
0.971736482787591
40
1
40
1
40
1
40
1
41
1
10
46.1930404185063
20
5.40221636491088
30
0
41
1
10
45.9732803366596
20
5.40191549321406
30
0
41
1
10
45.5406569807304
20
5.40141480898885
30
0
41
1
10
44.9179433008262
20
5.40179294965776
30
0
41
1
10
44.3843135273066
20
5.40097106039863
30
0
41
1
10
43.9661080433748
20
5.40092216961457
30
0
41
1
10
43.6235998264378
20
5.40116730155381
30
0
41
1
10
43.2704185803236
20
5.40131661912937
30
0
41
1
10
42.8157363897463
20
5.40075627734021
30
0
41
1
10
42.2982001416606
20
5.39963693644671
30
0
41
1
10
41.7824479080381
20
5.40019003708102
30
0
41
1
10
41.279603434396
20
5.40023817079455
30
0
41
1
10
40.7689708185709
20
5.39932147089613
30
0
41
1
10
40.2252333789004
20
5.3988931163309
30
0
41
1
10
39.6671211246181
20
5.39919724490656
30
0
41
1
10
39.0345995079073
20
5.39865134818538
30
0
41
1
10
38.3120068362624
20
5.39783606875503
30
0
41
1
10
37.5873665438145
20
5.39804387310849
30
0
41
1
10
37.0232912667418
20
5.39735988149494
30
0
41
1
10
36.7336315020646
20
5.39720150909929
30
0
41
1
10
36.6435664644883
20
5.39716159154654
30
0
0
LINE
5
7D
100
AcDbEntity
8
SK1
62
256
6
ByLayer
370
18
48
1
60
0
100
AcDbLine
10
-46.4
20
6.007776
30
0
11
-46.4
21
6.927771
31
0
39
0
210
0
220
0
230
1
0
LINE
5
7F
100
AcDbEntity
8
SK1
62
256
6
ByLayer
370
18
48
1
60
0
100
AcDbLine
10
-48
20
5.55
30
0
11
-48
21
5.455969
31
0
39
0
210
0
220
0
230
1
0
LINE
5
80
100
AcDbEntity
8
SK1
62
256
6
ByLayer
370
18
48
1
60
0
100
AcDbLine
10
-45.55
20
8
30
0
11
-45.55
21
-8
31
0
39
0
210
0
220
0
230
1
0
LINE
5
81
100
AcDbEntity
8
SK1
62
256
6
ByLayer
370
18
48
1
60
0
100
AcDbLine
10
-48
20
4.455974
30
0
11
-48
21
-5.55
31
0
39
0
210
0
220
0
230
1
0
LINE
5
82
100
AcDbEntity
8
SK1
62
256
6
ByLayer
370
18
48
1
60
0
100
AcDbLine
10
-48
20
5.455969
30
0
11
-48
21
4.455946
31
0
39
0
210
0
220
0
230
1
0
LINE
5
83
100
AcDbEntity
8
SK1
62
256
6
ByLayer
370
18
48
1
60
0
100
AcDbLine
10
0
20
-8
30
0
11
0
21
8
31
0
39
0
210
0
220
0
230
1
0
LINE
5
84
100
AcDbEntity
8
SK1
62
256
6
ByLayer
370
13
48
1
60
0
100
AcDbLine
10
-46.5
20
6.859061
30
0
11
-46.5
21
5.858899
31
0
39
0
210
0
220
0
230
1
0
LINE
5
85
100
AcDbEntity
8
1
62
256
6
ByLayer
370
13
48
1
60
0
100
AcDbLine
10
64.956074
20
1.230396
30
0
11
66.964404
21
-0.040925
31
0
39
0
210
0
220
0
230
1
0
LINE
5
86
100
AcDbEntity
8
1
62
256
6
ByLayer
370
13
48
1
60
0
100
AcDbLine
10
65.073977
20
1.337573
30
0
11
66.989357
21
0.125092
31
0
39
0
210
0
220
0
230
1
0
LINE
5
87
100
AcDbEntity
8
1
62
256
6
ByLayer
370
13
48
1
60
0
100
AcDbLine
10
0.939667
20
7.695
30
0
11
0.939667
21
-7.695
31
0
39
0
210
0
220
0
230
1
0
LINE
5
88
100
AcDbEntity
8
1
62
256
6
ByLayer
370
13
48
1
60
0
100
AcDbLine
10
0.469834
20
7.8475
30
0
11
0.469834
21
-7.8475
31
0
39
0
210
0
220
0
230
1
0
LINE
5
89
100
AcDbEntity
8
1
62
256
6
ByLayer
370
18
48
1
60
0
100
AcDbLine
10
0
20
-8
30
0
11
0
21
8
31
0
39
0
210
0
220
0
230
1
0
LINE
5
8A
100
AcDbEntity
8
80
62
256
6
ByLayer
370
18
48
1
60
0
100
AcDbLine
10
0
20
0
30
0
11
-5
21
0
31
0
39
0
210
0
220
0
230
1
0
LINE
5
8B
100
AcDbEntity
8
SK4
62
256
6
ByLayer
370
18
48
0.05
60
0
100
AcDbLine
10
72
20
0
30
0
11
-53
21
0
31
0
39
0
210
0
220
0
230
1
0
LINE
5
8D
100
AcDbEntity
8
4
62
256
6
ByLayer
370
18
48
0.05
60
0
100
AcDbLine
10
67
20
0
30
0
11
0
21
0
31
0
39
0
210
0
220
0
230
1
0
LINE
5
8F
100
AcDbEntity
8
SK1
62
256
6
ByLayer
370
18
48
1
60
0
100
AcDbLine
10
-48
20
-5.55
30
0
11
-45.55
21
-8
31
0
39
0
210
0
220
0
230
1
0
LINE
5
90
100
AcDbEntity
8
SK1
62
256
6
ByLayer
370
18
48
1
60
0
100
AcDbLine
10
-45.55
20
8
30
0
11
-48
21
5.55
31
0
39
0
210
0
220
0
230
1
0
LINE
5
91
100
AcDbEntity
8
SK1
62
256
6
ByLayer
370
18
48
1
60
0
100
AcDbLine
10
-45.55
20
-8
30
0
11
0
21
-8
31
0
39
0
210
0
220
0
230
1
0
LINE
5
92
100
AcDbEntity
8
SK1
62
256
6
ByLayer
370
18
48
1
60
0
100
AcDbLine
10
0
20
8
30
0
11
-45.55
21
8
31
0
39
0
210
0
220
0
230
1
0
LINE
5
93
100
AcDbEntity
8
1
62
256
6
ByLayer
370
18
48
1
60
0
100
AcDbLine
10
31.939147
20
-5.679155
30
0
11
33.540882
21
-5.680157
31
0
39
0
210
0
220
0
230
1
0
LINE
5
94
100
AcDbEntity
8
1
62
256
6
ByLayer
370
18
48
1
60
0
100
AcDbLine
10
64.541602
20
5.699532
30
0
11
62.942061
21
5.698532
31
0
39
0
210
0
220
0
230
1
0
LINE
5
95
100
AcDbEntity
8
1
62
256
6
ByLayer
370
18
48
1
60
0
100
AcDbLine
10
62.942061
20
-5.698532
30
0
11
64.541602
21
-5.699532
31
0
39
0
210
0
220
0
230
1
0
LINE
5
96
100
AcDbEntity
8
1
62
256
6
ByLayer
370
18
48
1
60
0
100
AcDbLine
10
33.540882
20
5.680157
30
0
11
31.939147
21
5.679155
31
0
39
0
210
0
220
0
230
1
0
LINE
5
97
100
AcDbEntity
8
1
62
256
6
ByLayer
370
18
48
1
60
0
100
AcDbLine
10
15.629251
20
7.695
30
0
11
0.939667
21
7.695
31
0
39
0
210
0
220
0
230
1
0
LINE
5
98
100
AcDbEntity
8
1
62
256
6
ByLayer
370
18
48
1
60
0
100
AcDbLine
10
0.939667
20
-7.695
30
0
11
15.629251
21
-7.695
31
0
39
0
210
0
220
0
230
1
0
LINE
5
99
100
AcDbEntity
8
81
62
256
6
ByLayer
370
18
48
1
60
0
100
AcDbLine
10
67
20
0
30
0
11
72
21
0
31
0
39
0
210
0
220
0
230
1
0
LINE
5
9A
100
AcDbEntity
8
2
62
256
6
ByLayer
370
13
48
1
60
0
100
AcDbLine
10
89.236431
20
-7.695
30
0
11
89.236431
21
35.395947
31
0
39
0
210
0
220
0
230
1
0
LINE
5
9C
100
AcDbEntity
8
2
62
256
6
ByLayer
370
13
48
1
60
0
100
AcDbLine
10
30.6975
20
7.695
30
0
11
91.236431
21
7.695
31
0
39
0
210
0
220
0
230
1
0
LINE
5
9D
100
AcDbEntity
8
2
62
256
6
ByLayer
370
13
48
1
60
0
100
AcDbLine
10
30.6975
20
-7.695
30
0
11
91.236431
21
-7.695
31
0
39
0
210
0
220
0
230
1
0
LINE
5
9E
100
AcDbEntity
8
1
62
256
6
ByLayer
370
18
48
1
60
1
100
AcDbLine
10
89.236431
20
7.695
30
0
11
89.697214
21
4.195002
31
0
39
0
210
0
220
0
230
1
0
LINE
5
9F
100
AcDbEntity
8
1
62
256
6
ByLayer
370
18
48
1
60
1
100
AcDbLine
10
89.697214
20
4.195002
30
0
11
88.775647
21
4.194998
31
0
39
0
210
0
220
0
230
1
0
LINE
5
A0
100
AcDbEntity
8
1
62
256
6
ByLayer
370
18
48
1
60
1
100
AcDbLine
10
88.775647
20
4.194998
30
0
11
89.236431
21
7.695
31
0
39
0
210
0
220
0
230
1
0
LINE
5
A1
100
AcDbEntity
8
1
62
256
6
ByLayer
370
18
48
1
60
1
100
AcDbLine
10
89.236431
20
-7.695
30
0
11
88.775647
21
-4.195002
31
0
39
0
210
0
220
0
230
1
0
LINE
5
A2
100
AcDbEntity
8
1
62
256
6
ByLayer
370
18
48
1
60
1
100
AcDbLine
10
88.775647
20
-4.195002
30
0
11
89.697214
21
-4.194998
31
0
39
0
210
0
220
0
230
1
0
LINE
5
A3
100
AcDbEntity
8
1
62
256
6
ByLayer
370
18
48
1
60
1
100
AcDbLine
10
89.697214
20
-4.194998
30
0
11
89.236431
21
-7.695
31
0
39
0
210
0
220
0
230
1
0
LINE
5
A4
100
AcDbEntity
8
SK2
62
256
6
ByLayer
370
13
48
1
60
0
100
AcDbLine
10
-56.625163
20
-8
30
0
11
-56.625163
21
38.857173
31
0
39
0
210
0
220
0
230
1
0
LINE
5
A6
100
AcDbEntity
8
SK2
62
256
6
ByLayer
370
13
48
1
60
0
100
AcDbLine
10
-49.5875
20
8
30
0
11
-58.625163
21
8
31
0
39
0
210
0
220
0
230
1
0
LINE
5
A7
100
AcDbEntity
8
SK2
62
256
6
ByLayer
370
13
48
1
60
0
100
AcDbLine
10
-49.5875
20
-8
30
0
11
-58.625163
21
-8
31
0
39
0
210
0
220
0
230
1
0
LINE
5
A8
100
AcDbEntity
8
1
62
256
6
ByLayer
370
18
48
1
60
1
100
AcDbLine
10
-56.625163
20
8
30
0
11
-56.164379
21
4.500002
31
0
39
0
210
0
220
0
230
1
0
LINE
5
A9
100
AcDbEntity
8
1
62
256
6
ByLayer
370
18
48
1
60
1
100
AcDbLine
10
-56.164379
20
4.500002
30
0
11
-57.085946
21
4.499998
31
0
39
0
210
0
220
0
230
1
0
LINE
5
AA
100
AcDbEntity
8
1
62
256
6
ByLayer
370
18
48
1
60
1
100
AcDbLine
10
-57.085946
20
4.499998
30
0
11
-56.625163
21
8
31
0
39
0
210
0
220
0
230
1
0
LINE
5
AB
100
AcDbEntity
8
1
62
256
6
ByLayer
370
18
48
1
60
1
100
AcDbLine
10
-56.625163
20
-8
30
0
11
-57.085946
21
-4.500002
31
0
39
0
210
0
220
0
230
1
0
LINE
5
AC
100
AcDbEntity
8
1
62
256
6
ByLayer
370
18
48
1
60
1
100
AcDbLine
10
-57.085946
20
-4.500002
30
0
11
-56.164379
21
-4.499998
31
0
39
0
210
0
220
0
230
1
0
LINE
5
AD
100
AcDbEntity
8
1
62
256
6
ByLayer
370
18
48
1
60
1
100
AcDbLine
10
-56.164379
20
-4.499998
30
0
11
-56.625163
21
-8
31
0
39
0
210
0
220
0
230
1
0
LINE
5
AE
100
AcDbEntity
8
2
62
256
6
ByLayer
370
13
48
1
60
0
100
AcDbLine
10
80.970081
20
-5.7
30
0
11
80.970081
21
35.398563
31
0
39
0
210
0
220
0
230
1
0
LINE
5
AF
100
AcDbEntity
8
2
62
256
6
ByLayer
370
13
48
1
60
0
100
AcDbLine
10
66.8925
20
5.7
30
0
11
82.970081
21
5.7
31
0
39
0
210
0
220
0
230
1
0
LINE
5
B0
100
AcDbEntity
8
2
62
256
6
ByLayer
370
13
48
1
60
0
100
AcDbLine
10
66.8925
20
-5.7
30
0
11
82.970081
21
-5.7
31
0
39
0
210
0
220
0
230
1
0
LINE
5
B1
100
AcDbEntity
8
1
62
256
6
ByLayer
370
18
48
1
60
1
100
AcDbLine
10
80.970081
20
5.7
30
0
11
81.430865
21
2.200002
31
0
39
0
210
0
220
0
230
1
0
LINE
5
B2
100
AcDbEntity
8
1
62
256
6
ByLayer
370
18
48
1
60
1
100
AcDbLine
10
81.430865
20
2.200002
30
0
11
80.509297
21
2.199998
31
0
39
0
210
0
220
0
230
1
0
LINE
5
B3
100
AcDbEntity
8
1
62
256
6
ByLayer
370
18
48
1
60
1
100
AcDbLine
10
80.509297
20
2.199998
30
0
11
80.970081
21
5.7
31
0
39
0
210
0
220
0
230
1
0
LINE
5
B4
100
AcDbEntity
8
1
62
256
6
ByLayer
370
18
48
1
60
1
100
AcDbLine
10
80.970081
20
-5.7
30
0
11
80.509297
21
-2.200002
31
0
39
0
210
0
220
0
230
1
0
LINE
5
B5
100
AcDbEntity
8
1
62
256
6
ByLayer
370
18
48
1
60
1
100
AcDbLine
10
80.509297
20
-2.200002
30
0
11
81.430865
21
-2.199998
31
0
39
0
210
0
220
0
230
1
0
LINE
5
B6
100
AcDbEntity
8
1
62
256
6
ByLayer
370
18
48
1
60
1
100
AcDbLine
10
81.430865
20
-2.199998
30
0
11
80.970081
21
-5.7
31
0
39
0
210
0
220
0
230
1
0
LINE
5
B7
100
AcDbEntity
8
SK2
62
256
6
ByLayer
370
13
48
1
60
0
100
AcDbLine
10
27.987468
20
-8.817532
30
0
11
20.530628
21
-16.274372
31
0
39
0
210
0
220
0
230
1
0
LINE
5
B8
100
AcDbEntity
8
SK2
62
256
6
ByLayer
370
13
48
1
60
0
100
AcDbLine
10
27.987468
20
8.817532
30
0
11
20.530628
21
16.274372
31
0
39
0
210
0
220
0
230
1
0
LINE
5
B9
100
AcDbEntity
8
1
62
256
6
ByLayer
370
18
48
1
60
1
100
AcDbLine
10
21.944841
20
-14.860159
30
0
11
19.235808
21
-12.596655
31
0
39
0
210
0
220
0
230
1
0
LINE
5
BA
100
AcDbEntity
8
1
62
256
6
ByLayer
370
18
48
1
60
1
100
AcDbLine
10
19.235808
20
-12.596655
30
0
11
19.913952
21
-11.97263
31
0
39
0
210
0
220
0
230
1
0
LINE
5
BB
100
AcDbEntity
8
1
62
256
6
ByLayer
370
18
48
1
60
1
100
AcDbLine
10
19.913952
20
-11.97263
30
0
11
21.944841
21
-14.860159
31
0
39
0
210
0
220
0
230
1
0
LINE
5
BC
100
AcDbEntity
8
1
62
256
6
ByLayer
370
18
48
1
60
1
100
AcDbLine
10
21.944841
20
14.860159
30
0
11
19.913954
21
11.972633
31
0
39
0
210
0
220
0
230
1
0
LINE
5
BD
100
AcDbEntity
8
1
62
256
6
ByLayer
370
18
48
1
60
1
100
AcDbLine
10
19.913954
20
11.972633
30
0
11
19.235806
21
12.596653
31
0
39
0
210
0
220
0
230
1
0
LINE
5
BE
100
AcDbEntity
8
1
62
256
6
ByLayer
370
18
48
1
60
1
100
AcDbLine
10
19.235806
20
12.596653
30
0
11
21.944841
21
14.860159
31
0
39
0
210
0
220
0
230
1
0
LINE
5
107
100
AcDbEntity
8
1
62
256
6
ByLayer
370
18
48
1
60
1
100
AcDbLine
10
89.236431
20
7.695
30
0
11
89.697214
21
4.195002
31
0
39
0
210
0
220
0
230
1
0
LINE
5
108
100
AcDbEntity
8
1
62
256
6
ByLayer
370
18
48
1
60
1
100
AcDbLine
10
89.697214
20
4.195002
30
0
11
88.775647
21
4.194998
31
0
39
0
210
0
220
0
230
1
0
LINE
5
109
100
AcDbEntity
8
1
62
256
6
ByLayer
370
18
48
1
60
1
100
AcDbLine
10
88.775647
20
4.194998
30
0
11
89.236431
21
7.695
31
0
39
0
210
0
220
0
230
1
0
LINE
5
10B
100
AcDbEntity
8
1
62
256
6
ByLayer
370
18
48
1
60
1
100
AcDbLine
10
89.236431
20
-7.695
30
0
11
88.775647
21
-4.195002
31
0
39
0
210
0
220
0
230
1
0
LINE
5
10C
100
AcDbEntity
8
1
62
256
6
ByLayer
370
18
48
1
60
1
100
AcDbLine
10
88.775647
20
-4.195002
30
0
11
89.697214
21
-4.194998
31
0
39
0
210
0
220
0
230
1
0
LINE
5
10D
100
AcDbEntity
8
1
62
256
6
ByLayer
370
18
48
1
60
1
100
AcDbLine
10
89.697214
20
-4.194998
30
0
11
89.236431
21
-7.695
31
0
39
0
210
0
220
0
230
1
0
LINE
5
111
100
AcDbEntity
8
1
62
256
6
ByLayer
370
18
48
1
60
1
100
AcDbLine
10
-56.625163
20
8
30
0
11
-56.164379
21
4.500002
31
0
39
0
210
0
220
0
230
1
0
LINE
5
112
100
AcDbEntity
8
1
62
256
6
ByLayer
370
18
48
1
60
1
100
AcDbLine
10
-56.164379
20
4.500002
30
0
11
-57.085946
21
4.499998
31
0
39
0
210
0
220
0
230
1
0
LINE
5
113
100
AcDbEntity
8
1
62
256
6
ByLayer
370
18
48
1
60
1
100
AcDbLine
10
-57.085946
20
4.499998
30
0
11
-56.625163
21
8
31
0
39
0
210
0
220
0
230
1
0
LINE
5
115
100
AcDbEntity
8
1
62
256
6
ByLayer
370
18
48
1
60
1
100
AcDbLine
10
-56.625163
20
-8
30
0
11
-57.085946
21
-4.500002
31
0
39
0
210
0
220
0
230
1
0
LINE
5
116
100
AcDbEntity
8
1
62
256
6
ByLayer
370
18
48
1
60
1
100
AcDbLine
10
-57.085946
20
-4.500002
30
0
11
-56.164379
21
-4.499998
31
0
39
0
210
0
220
0
230
1
0
LINE
5
117
100
AcDbEntity
8
1
62
256
6
ByLayer
370
18
48
1
60
1
100
AcDbLine
10
-56.164379
20
-4.499998
30
0
11
-56.625163
21
-8
31
0
39
0
210
0
220
0
230
1
0
LINE
5
11B
100
AcDbEntity
8
1
62
256
6
ByLayer
370
18
48
1
60
1
100
AcDbLine
10
80.970081
20
5.7
30
0
11
81.430865
21
2.200002
31
0
39
0
210
0
220
0
230
1
0
LINE
5
11C
100
AcDbEntity
8
1
62
256
6
ByLayer
370
18
48
1
60
1
100
AcDbLine
10
81.430865
20
2.200002
30
0
11
80.509297
21
2.199998
31
0
39
0
210
0
220
0
230
1
0
LINE
5
11D
100
AcDbEntity
8
1
62
256
6
ByLayer
370
18
48
1
60
1
100
AcDbLine
10
80.509297
20
2.199998
30
0
11
80.970081
21
5.7
31
0
39
0
210
0
220
0
230
1
0
LINE
5
11F
100
AcDbEntity
8
1
62
256
6
ByLayer
370
18
48
1
60
1
100
AcDbLine
10
80.970081
20
-5.7
30
0
11
80.509297
21
-2.200002
31
0
39
0
210
0
220
0
230
1
0
LINE
5
120
100
AcDbEntity
8
1
62
256
6
ByLayer
370
18
48
1
60
1
100
AcDbLine
10
80.509297
20
-2.200002
30
0
11
81.430865
21
-2.199998
31
0
39
0
210
0
220
0
230
1
0
LINE
5
121
100
AcDbEntity
8
1
62
256
6
ByLayer
370
18
48
1
60
1
100
AcDbLine
10
81.430865
20
-2.199998
30
0
11
80.970081
21
-5.7
31
0
39
0
210
0
220
0
230
1
0
LINE
5
124
100
AcDbEntity
8
1
62
256
6
ByLayer
370
18
48
1
60
1
100
AcDbLine
10
21.944841
20
-14.860159
30
0
11
19.235808
21
-12.596655
31
0
39
0
210
0
220
0
230
1
0
LINE
5
125
100
AcDbEntity
8
1
62
256
6
ByLayer
370
18
48
1
60
1
100
AcDbLine
10
19.235808
20
-12.596655
30
0
11
19.913952
21
-11.97263
31
0
39
0
210
0
220
0
230
1
0
LINE
5
126
100
AcDbEntity
8
1
62
256
6
ByLayer
370
18
48
1
60
1
100
AcDbLine
10
19.913952
20
-11.97263
30
0
11
21.944841
21
-14.860159
31
0
39
0
210
0
220
0
230
1
0
LINE
5
128
100
AcDbEntity
8
1
62
256
6
ByLayer
370
18
48
1
60
1
100
AcDbLine
10
21.944841
20
14.860159
30
0
11
19.913954
21
11.972633
31
0
39
0
210
0
220
0
230
1
0
LINE
5
129
100
AcDbEntity
8
1
62
256
6
ByLayer
370
18
48
1
60
1
100
AcDbLine
10
19.913954
20
11.972633
30
0
11
19.235806
21
12.596653
31
0
39
0
210
0
220
0
230
1
0
LINE
5
12A
100
AcDbEntity
8
1
62
256
6
ByLayer
370
18
48
1
60
1
100
AcDbLine
10
19.235806
20
12.596653
30
0
11
21.944841
21
14.860159
31
0
39
0
210
0
220
0
230
1
0
MTEXT
5
101
100
AcDbEntity
8
SK6
62
256
6
ByLayer
370
13
48
1
60
0
100
AcDbMText
10
-19.392027
20
38.240328
30
0
210
0
220
0
230
1
1
\W0.7610;462.2-1140-037A1-XM X2BM
40
3.5
41
0
44
1.084337
50
0
71
7
72
5
7
iso_b_vert
0
MTEXT
5
105
100
AcDbEntity
8
2
62
256
6
ByLayer
370
18
48
1
60
0
100
AcDbMText
10
87.671797
20
17.947798
30
0
210
0
220
0
230
1
1
%%c
40
3.5
41
0
44
1.084337
50
90
71
7
72
5
7
iso_b_vert
0
MTEXT
5
106
100
AcDbEntity
8
2
62
256
6
ByLayer
370
18
48
1
60
0
100
AcDbMText
10
87.671797
20
23.170454
30
0
210
0
220
0
230
1
1
\W0.6930;15,390
40
3.5
41
0
44
1.084337
50
90
71
7
72
5
7
iso_b_vert
0
MTEXT
5
10F
100
AcDbEntity
8
SK2
62
256
6
ByLayer
370
18
48
1
60
0
100
AcDbMText
10
-58.189796
20
21.409024
30
0
210
0
220
0
230
1
1
%%c
40
3.5
41
0
44
1.084337
50
90
71
7
72
5
7
iso_b_vert
0
MTEXT
5
110
100
AcDbEntity
8
SK2
62
256
6
ByLayer
370
18
48
1
60
0
100
AcDbMText
10
-58.189796
20
26.63168
30
0
210
0
220
0
230
1
1
\W0.6930;16,000
40
3.5
41
0
44
1.084337
50
90
71
7
72
5
7
iso_b_vert
0
MTEXT
5
119
100
AcDbEntity
8
2
62
256
6
ByLayer
370
18
48
1
60
0
100
AcDbMText
10
79.405448
20
18.456747
30
0
210
0
220
0
230
1
1
%%c
40
3.5
41
0
44
1.084337
50
90
71
7
72
5
7
iso_b_vert
0
MTEXT
5
11A
100
AcDbEntity
8
2
62
256
6
ByLayer
370
18
48
1
60
0
100
AcDbMText
10
79.405448
20
23.679403
30
0
210
0
220
0
230
1
1
\W0.6654;11,400
40
3.5
41
0
44
1.084337
50
90
71
7
72
5
7
iso_b_vert
0
MTEXT
5
123
100
AcDbEntity
8
SK2
62
256
6
ByLayer
370
13
48
1
60
0
100
AcDbMText
10
10.961875
20
-0.291663
30
0
210
0
220
0
230
1
1
\W0.8181;90,0%%d
40
3.5
41
0
44
1.084337
50
0
71
7
72
5
7
iso_b_vert
0
HATCH
5
10A
100
AcDbEntity
8
2
62
256
6
ByLayer
370
13
48
1
60
0
100
AcDbHatch
10
0
20
0
30
0
210
0
220
0
230
1
2
ANSI31
70
0
71
0
91
1
92
5
93
3
72
1
10
89.2364306046164
20
7.69500000000002
11
89.6972143461692
21
4.19500169255321
72
1
10
89.6972143461692
20
4.19500169255321
11
88.7756468630637
21
4.19499830744684
72
1
10
88.7756468630637
20
4.19499830744684
11
89.2364306046164
21
7.69500000000002
97
0
75
0
76
1
52
0
41
0.0062
77
0
78
1
53
45
43
0
44
0
45
-0.0139193969876572
46
0.0139193969876572
79
0
47
0
98
1
10
0
20
0
0
HATCH
5
10E
100
AcDbEntity
8
2
62
256
6
ByLayer
370
13
48
1
60
0
100
AcDbHatch
10
0
20
0
30
0
210
0
220
0
230
1
2
ANSI31
70
0
71
0
91
1
92
5
93
3
72
1
10
89.2364306046164
20
-7.69499999999999
11
88.7756468630637
21
-4.19500169255318
72
1
10
88.7756468630637
20
-4.19500169255318
11
89.6972143461692
21
-4.19499830744681
72
1
10
89.6972143461692
20
-4.19499830744681
11
89.2364306046164
21
-7.69499999999999
97
0
75
0
76
1
52
0
41
0.0062
77
0
78
1
53
45
43
0
44
0
45
-0.0139193969876572
46
0.0139193969876572
79
0
47
0
98
1
10
0
20
0
0
HATCH
5
114
100
AcDbEntity
8
SK2
62
256
6
ByLayer
370
13
48
1
60
0
100
AcDbHatch
10
0
20
0
30
0
210
0
220
0
230
1
2
ANSI31
70
0
71
0
91
1
92
5
93
3
72
1
10
-56.6251625675374
20
8
11
-56.1643788259847
21
4.50000169255318
72
1
10
-56.1643788259847
20
4.50000169255318
11
-57.0859463090902
21
4.49999830744682
72
1
10
-57.0859463090902
20
4.49999830744682
11
-56.6251625675374
21
8
97
0
75
0
76
1
52
0
41
0.0062
77
0
78
1
53
45
43
0
44
0
45
-0.0139193969876572
46
0.0139193969876572
79
0
47
0
98
1
10
0
20
0
0
HATCH
5
118
100
AcDbEntity
8
SK2
62
256
6
ByLayer
370
13
48
1
60
0
100
AcDbHatch
10
0
20
0
30
0
210
0
220
0
230
1
2
ANSI31
70
0
71
0
91
1
92
5
93
3
72
1
10
-56.6251625675374
20
-8
11
-57.0859463090902
21
-4.50000169255318
72
1
10
-57.0859463090902
20
-4.50000169255318
11
-56.1643788259847
21
-4.49999830744682
72
1
10
-56.1643788259847
20
-4.49999830744682
11
-56.6251625675374
21
-8
97
0
75
0
76
1
52
0
41
0.0062
77
0
78
1
53
45
43
0
44
0
45
-0.0139193969876572
46
0.0139193969876572
79
0
47
0
98
1
10
0
20
0
0
HATCH
5
11E
100
AcDbEntity
8
2
62
256
6
ByLayer
370
13
48
1
60
0
100
AcDbHatch
10
0
20
0
30
0
210
0
220
0
230
1
2
ANSI31
70
0
71
0
91
1
92
5
93
3
72
1
10
80.9700811011615
20
5.70000000000002
11
81.4308648427142
21
2.2000016925532
72
1
10
81.4308648427142
20
2.2000016925532
11
80.5092973596088
21
2.19999830744683
72
1
10
80.5092973596088
20
2.19999830744683
11
80.9700811011615
21
5.70000000000002
97
0
75
0
76
1
52
0
41
0.0062
77
0
78
1
53
45
43
0
44
0
45
-0.0139193969876572
46
0.0139193969876572
79
0
47
0
98
1
10
0
20
0
0
HATCH
5
122
100
AcDbEntity
8
2
62
256
6
ByLayer
370
13
48
1
60
0
100
AcDbHatch
10
0
20
0
30
0
210
0
220
0
230
1
2
ANSI31
70
0
71
0
91
1
92
5
93
3
72
1
10
80.9700811011615
20
-5.69999999999999
11
80.5092973596088
21
-2.20000169255317
72
1
10
80.5092973596088
20
-2.20000169255317
11
81.4308648427142
21
-2.1999983074468
72
1
10
81.4308648427142
20
-2.1999983074468
11
80.9700811011615
21
-5.69999999999999
97
0
75
0
76
1
52
0
41
0.0062
77
0
78
1
53
45
43
0
44
0
45
-0.0139193969876572
46
0.0139193969876572
79
0
47
0
98
1
10
0
20
0
0
HATCH
5
127
100
AcDbEntity
8
SK2
62
256
6
ByLayer
370
13
48
1
60
0
100
AcDbHatch
10
0
20
0
30
0
210
0
220
0
230
1
2
ANSI31
70
0
71
0
91
1
92
5
93
3
72
1
10
21.944841301037
20
-14.8601586989629
11
19.2358078362178
21
-12.5966553313711
72
1
10
19.2358078362178
20
-12.5966553313711
11
19.9139517625117
21
-11.972630138643
72
1
10
19.9139517625117
20
-11.972630138643
11
21.944841301037
21
-14.8601586989629
97
0
75
0
76
1
52
0
41
0.0062
77
0
78
1
53
45
43
0
44
0
45
-0.0139193969876572
46
0.0139193969876572
79
0
47
0
98
1
10
0
20
0
0
HATCH
5
12B
100
AcDbEntity
8
SK2
62
256
6
ByLayer
370
13
48
1
60
0
100
AcDbHatch
10
0
20
0
30
0
210
0
220
0
230
1
2
ANSI31
70
0
71
0
91
1
92
5
93
3
72
1
10
21.9448413010371
20
14.8601586989629
11
19.9139540546752
21
11.9726326296131
72
1
10
19.9139540546752
20
11.9726326296131
11
19.2358055440545
21
12.596652840401
72
1
10
19.2358055440545
20
12.596652840401
11
21.9448413010371
21
14.8601586989629
97
0
75
0
76
1
52
0
41
0.0062
77
0
78
1
53
45
43
0
44
0
45
-0.0139193969876572
46
0.0139193969876572
79
0
47
0
98
1
10
0
20
0
0
DIMENSION
5
12D
100
AcDbEntity
8
SK2
62
256
6
ByLayer
370
13
48
1
60
0
100
AcDbDimension
2
_U0
10
65.305
20
-18.502503
30
0
11
32.6525
21
-18.502503
31
0
70
32
71
1
72
1
41
1
210
0
220
0
230
1
3
Standard
100
AcDbAlignedDimension
13
0
23
0
33
0
14
65.305
24
-5.7
34
0
50
0
100
AcDbRotatedDimension
1001
ACAD
1000
DSTYLE
1002
{
1070
   371
1070
    13
1070
   372
1070
    13
1070
   170
1070
     0
1070
   144
1040
1.0
1070
   277
1070
     2
1070
   278
1070
    44
1070
   146
1040
1.0
1070
   345
1005
16
1070
   347
1005
16
1070
   346
1005
16
1070
   344
1005
0
1070
   343
1005
0
1070
   172
1070
     1
1070
    76
1070
     0
1070
    75
1070
     0
1070
   282
1070
     0
1070
   281
1070
     0
1070
    71
1070
     0
1070
    74
1070
     0
1070
   279
1070
     0
1070
   173
1070
     1
1070
   340
1005
102
1070
   271
1070
     2
1070
   272
1070
     2
1070
    77
1070
     1
1070
    73
1070
     1
1070
   171
1070
     3
1070
   274
1070
     4
1070
   177
1070
    35
1070
   176
1070
    35
1070
   178
1070
    35
1070
    48
1040
-0.1
1070
    41
1040
3.5
1070
   147
1040
1.75
1070
    42
1040
1.5875
1070
    44
1040
2.0
1070
   140
1040
3.5
1002
}
1001
ACAD_DSTYLE_DIM_LINETYPE
1070
   380
1005
16
1001
ACAD_DSTYLE_DIM_EXT1_LINETYPE
1070
   381
1005
16
1001
ACAD_DSTYLE_DIM_EXT2_LINETYPE
1070
   382
1005
16
0
DIMENSION
5
146
100
AcDbEntity
8
SK2
62
256
6
ByLayer
370
13
48
1
60
0
100
AcDbDimension
2
_U1
10
67
20
-39.192985
30
0
11
9.5
21
-39.192985
31
0
70
32
71
1
72
1
41
1
210
0
220
0
230
1
3
Standard
100
AcDbAlignedDimension
13
-48
23
-8
33
0
14
67
24
0
34
0
50
0
100
AcDbRotatedDimension
1001
ACAD
1000
DSTYLE
1002
{
1070
   371
1070
    13
1070
   372
1070
    13
1070
   170
1070
     0
1070
   144
1040
1.0
1070
   277
1070
     2
1070
   278
1070
    44
1070
   146
1040
1.0
1070
   345
1005
16
1070
   347
1005
16
1070
   346
1005
16
1070
   344
1005
0
1070
   343
1005
0
1070
   172
1070
     1
1070
    76
1070
     0
1070
    75
1070
     0
1070
   282
1070
     0
1070
   281
1070
     0
1070
    71
1070
     0
1070
    74
1070
     0
1070
   279
1070
     0
1070
   173
1070
     1
1070
   340
1005
102
1070
   271
1070
     2
1070
   272
1070
     2
1070
    77
1070
     1
1070
    73
1070
     1
1070
   171
1070
     3
1070
   274
1070
     4
1070
   177
1070
    35
1070
   176
1070
    35
1070
   178
1070
    35
1070
    48
1040
-0.1
1070
    41
1040
3.5
1070
   147
1040
1.75
1070
    42
1040
1.5875
1070
    44
1040
2.0
1070
   140
1040
3.5
1002
}
1001
ACAD_DSTYLE_DIM_LINETYPE
1070
   380
1005
16
1001
ACAD_DSTYLE_DIM_EXT1_LINETYPE
1070
   381
1005
16
1001
ACAD_DSTYLE_DIM_EXT2_LINETYPE
1070
   382
1005
16
0
DIMENSION
5
15E
100
AcDbEntity
8
SK2
62
256
6
ByLayer
370
13
48
1
60
0
100
AcDbDimension
2
_U2
10
67
20
17.309119
30
0
11
48.055
21
17.309119
31
0
70
32
71
1
72
1
41
1
210
0
220
0
230
1
3
Standard
100
AcDbAlignedDimension
13
29.11
23
7.695
33
0
14
67
24
0
34
0
50
0
100
AcDbRotatedDimension
1001
ACAD
1000
DSTYLE
1002
{
1070
   371
1070
    13
1070
   372
1070
    13
1070
   170
1070
     0
1070
   144
1040
1.0
1070
   277
1070
     2
1070
   278
1070
    44
1070
   146
1040
1.0
1070
   345
1005
16
1070
   347
1005
16
1070
   346
1005
16
1070
   344
1005
0
1070
   343
1005
0
1070
   172
1070
     1
1070
    76
1070
     0
1070
    75
1070
     0
1070
   282
1070
     0
1070
   281
1070
     0
1070
    71
1070
     0
1070
    74
1070
     0
1070
   279
1070
     0
1070
   173
1070
     1
1070
   340
1005
102
1070
   271
1070
     2
1070
   272
1070
     2
1070
    77
1070
     1
1070
    73
1070
     1
1070
   171
1070
     3
1070
   274
1070
     4
1070
   177
1070
    35
1070
   176
1070
    35
1070
   178
1070
    35
1070
    48
1040
-0.1
1070
    41
1040
3.5
1070
   147
1040
1.75
1070
    42
1040
1.5875
1070
    44
1040
2.0
1070
   140
1040
3.5
1002
}
1001
ACAD_DSTYLE_DIM_LINETYPE
1070
   380
1005
16
1001
ACAD_DSTYLE_DIM_EXT1_LINETYPE
1070
   381
1005
16
1001
ACAD_DSTYLE_DIM_EXT2_LINETYPE
1070
   382
1005
16
0
DIMENSION
5
176
100
AcDbEntity
8
SK2
62
256
6
ByLayer
370
13
48
1
60
0
100
AcDbDimension
2
_U3
10
65.305
20
-18.502503
30
0
11
84.333333
21
-18.502503
31
0
70
32
71
1
72
1
41
1
210
0
220
0
230
1
3
Standard
100
AcDbAlignedDimension
13
67
23
0
33
0
14
65.305
24
-5.7
34
0
50
0
100
AcDbRotatedDimension
1001
ACAD
1000
DSTYLE
1002
{
1070
   371
1070
    13
1070
   372
1070
    13
1070
   170
1070
     0
1070
   144
1040
1.0
1070
   277
1070
     2
1070
   278
1070
    44
1070
   146
1040
1.0
1070
   345
1005
16
1070
   347
1005
16
1070
   346
1005
16
1070
   344
1005
0
1070
   343
1005
0
1070
   172
1070
     1
1070
    76
1070
     0
1070
    75
1070
     0
1070
   282
1070
     0
1070
   281
1070
     0
1070
    71
1070
     0
1070
    74
1070
     0
1070
   279
1070
     0
1070
   173
1070
     1
1070
   340
1005
102
1070
   271
1070
     2
1070
   272
1070
     2
1070
    77
1070
     1
1070
    73
1070
     1
1070
   171
1070
     3
1070
   274
1070
     4
1070
   177
1070
    35
1070
   176
1070
    35
1070
   178
1070
    35
1070
    48
1040
-0.1
1070
    41
1040
3.5
1070
   147
1040
1.75
1070
    42
1040
1.5875
1070
    44
1040
2.0
1070
   140
1040
3.5
1002
}
1001
ACAD_DSTYLE_DIM_LINETYPE
1070
   380
1005
16
1001
ACAD_DSTYLE_DIM_EXT1_LINETYPE
1070
   381
1005
16
1001
ACAD_DSTYLE_DIM_EXT2_LINETYPE
1070
   382
1005
16
0
DIMENSION
5
190
100
AcDbEntity
8
SK2
62
256
6
ByLayer
370
13
48
1
60
0
100
AcDbDimension
2
_U4
10
31.105
20
9.835371
30
0
11
48.205
21
9.835371
31
0
70
32
71
1
72
1
41
1
210
0
220
0
230
1
3
Standard
100
AcDbAlignedDimension
13
65.305
23
5.7
33
0
14
31.105
24
5.7
34
0
50
0
100
AcDbRotatedDimension
1001
ACAD
1000
DSTYLE
1002
{
1070
   371
1070
    13
1070
   372
1070
    13
1070
   170
1070
     0
1070
   144
1040
1.0
1070
   277
1070
     2
1070
   278
1070
    44
1070
   146
1040
1.0
1070
   345
1005
16
1070
   347
1005
16
1070
   346
1005
16
1070
   344
1005
0
1070
   343
1005
0
1070
   172
1070
     1
1070
    76
1070
     0
1070
    75
1070
     0
1070
   282
1070
     0
1070
   281
1070
     0
1070
    71
1070
     0
1070
    74
1070
     0
1070
   279
1070
     0
1070
   173
1070
     1
1070
   340
1005
102
1070
   271
1070
     2
1070
   272
1070
     2
1070
    77
1070
     1
1070
    73
1070
     1
1070
   171
1070
     3
1070
   274
1070
     4
1070
   177
1070
    35
1070
   176
1070
    35
1070
   178
1070
    35
1070
    48
1040
-0.1
1070
    41
1040
3.5
1070
   147
1040
1.75
1070
    42
1040
1.5875
1070
    44
1040
2.0
1070
   140
1040
3.5
1002
}
1001
ACAD_DSTYLE_DIM_LINETYPE
1070
   380
1005
16
1001
ACAD_DSTYLE_DIM_EXT1_LINETYPE
1070
   381
1005
16
1001
ACAD_DSTYLE_DIM_EXT2_LINETYPE
1070
   382
1005
16
0
DIMENSION
5
1A8
100
AcDbEntity
8
SK2
62
256
6
ByLayer
370
13
48
1
60
0
100
AcDbDimension
2
_U5
10
65.305
20
-28.690158
30
0
11
8.6525
21
-28.690158
31
0
70
32
71
1
72
1
41
1
210
0
220
0
230
1
3
Standard
100
AcDbAlignedDimension
13
-48
23
-8
33
0
14
65.305
24
-5.7
34
0
50
0
100
AcDbRotatedDimension
1001
ACAD
1000
DSTYLE
1002
{
1070
   371
1070
    13
1070
   372
1070
    13
1070
   170
1070
     0
1070
   144
1040
1.0
1070
   277
1070
     2
1070
   278
1070
    44
1070
   146
1040
1.0
1070
   345
1005
16
1070
   347
1005
16
1070
   346
1005
16
1070
   344
1005
0
1070
   343
1005
0
1070
   172
1070
     1
1070
    76
1070
     0
1070
    75
1070
     0
1070
   282
1070
     0
1070
   281
1070
     0
1070
    71
1070
     0
1070
    74
1070
     0
1070
   279
1070
     0
1070
   173
1070
     1
1070
   340
1005
102
1070
   271
1070
     2
1070
   272
1070
     2
1070
    77
1070
     1
1070
    73
1070
     1
1070
   171
1070
     3
1070
   274
1070
     4
1070
   177
1070
    35
1070
   176
1070
    35
1070
   178
1070
    35
1070
    48
1040
-0.1
1070
    41
1040
3.5
1070
   147
1040
1.75
1070
    42
1040
1.5875
1070
    44
1040
2.0
1070
   140
1040
3.5
1002
}
1001
ACAD_DSTYLE_DIM_LINETYPE
1070
   380
1005
16
1001
ACAD_DSTYLE_DIM_EXT1_LINETYPE
1070
   381
1005
16
1001
ACAD_DSTYLE_DIM_EXT2_LINETYPE
1070
   382
1005
16
0
ENDSEC
0
SECTION
2
OBJECTS
0
DICTIONARY
5
230
330
0
100
AcDbDictionary
280
0
281
1
3
ACAD_GROUP
350
231
3
ACAD_MLINESTYLE
350
232
0
DICTIONARY
5
231
330
0
100
AcDbDictionary
280
0
281
1
0
DICTIONARY
5
232
330
0
100
AcDbDictionary
280
0
281
1
3
Standard
350
18
0
MLINESTYLE
5
18
330
232
100
AcDbMlineStyle
2
Standard
70
0
3

62
256
51
90
52
90
71
2
49
-0.5
62
256
6
ByLayer
49
0.5
62
256
6
ByLayer
0
RASTERVARIABLES
5
21e
330

100
AcDbRasterVariables
90
0
70
1
71
1
72
1
0
ENDSEC
0
EOF
