0
SECTION
2
HEADER
9
$ACADVER
1
AC1015
9
$DWGCODEPAGE
3
ANSI_1252
9
$HANDSEED
5
239
9
$ANGBASE
50
0
9
$ANGDIR
70
0
9
$ATTMODE
70
1
9
$AUNITS
70
0
9
$AUPREC
70
0
9
$CECOLOR
62
256
9
$CELTSCALE
40
1
9
$CELTYPE
6
ByLayer
9
$CELWEIGHT
370
18
9
$CLAYER
8
0
9
$CMLJUST
70
0
9
$CMLSCALE
40
1
9
$CMLSTYLE
2
Standard
9
$DIMSTYLE
2
Standard
9
$TEXTSIZE
40
0.2
9
$TEXTSTYLE
7
Standard
9
$LUNITS
70
2
9
$LUPREC
70
4
9
$EXTNAMES
290
1
9
$INSUNITS
70
4
9
$LTSCALE
40
1
9
$LWDISPLAY
290
1
9
$PDMODE
70
0
9
$PDSIZE
40
0
9
$PLINEGEN
70
0
0
ENDSEC
0
SECTION
2
CLASSES
0
CLASS
1
RASTERVARIABLES
2
AcDbRasterVariables
3
ISM
90
0
280
0
281
0
0
ENDSEC
0
SECTION
2
TABLES
0
TABLE
2
VPORT
5
22f
100
AcDbSymbolTable
0
VPORT
5
1
100
AcDbSymbolTableRecord
100
AcDbViewportTableRecord
2
*Active
70
0
10
0
20
0
11
1
21
1
12
-1
22
1
13
0
23
0
14
0.5
24
0.5
15
10
25
10
16
0
26
0
36
1
17
0
27
0
37
0
0
ENDTAB
0
TABLE
2
LTYPE
5
230
100
AcDbSymbolTable
0
LTYPE
5
14
100
AcDbSymbolTableRecord
100
AcDbLinetypeTableRecord
70
0
2
ByBlock
3

72
65
73
0
40
0
0
LTYPE
5
15
100
AcDbSymbolTableRecord
100
AcDbLinetypeTableRecord
70
0
2
ByLayer
3

72
65
73
0
40
0
0
LTYPE
5
16
100
AcDbSymbolTableRecord
100
AcDbLinetypeTableRecord
70
0
2
Continuous
3
Solid line
72
65
73
0
40
0
0
LTYPE
5
6E
100
AcDbSymbolTableRecord
100
AcDbLinetypeTableRecord
70
0
2
CENTER
3
____ _ ____ _ ____ _ ____
72
65
73
4
40
47.5
49
22
74
0
49
-8.5
74
0
49
8.5
74
0
49
-8.5
74
0
0
LTYPE
5
6F
100
AcDbSymbolTableRecord
100
AcDbLinetypeTableRecord
70
0
2
DASHED
3
__ __ __ __ __ __ __ __ __
72
65
73
2
40
25.72
49
12.86
74
0
49
-12.86
74
0
0
ENDTAB
0
TABLE
2
LAYER
5
231
100
AcDbSymbolTable
0
LAYER
5
10
100
AcDbSymbolTableRecord
100
AcDbLayerTableRecord
2
0
70
0
62
7
6
Continuous
290
1
370
-3
390
0
0
LAYER
5
71
100
AcDbSymbolTableRecord
100
AcDbLayerTableRecord
2
80
70
0
62
-6
6
Continuous
290
1
370
-3
390
0
0
LAYER
5
73
100
AcDbSymbolTableRecord
100
AcDbLayerTableRecord
2
81
70
0
62
-3
6
Continuous
290
1
370
-3
390
0
0
LAYER
5
75
100
AcDbSymbolTableRecord
100
AcDbLayerTableRecord
2
1
70
0
62
4
6
Continuous
290
1
370
-3
390
0
0
LAYER
5
8C
100
AcDbSymbolTableRecord
100
AcDbLayerTableRecord
2
4
70
0
62
-2
6
CENTER
290
1
370
-3
390
0
0
LAYER
5
99
100
AcDbSymbolTableRecord
100
AcDbLayerTableRecord
2
2
70
0
62
7
6
Continuous
290
1
370
-3
390
0
0
LAYER
5
12C
100
AcDbSymbolTableRecord
100
AcDbLayerTableRecord
2
Defpoints
70
0
62
7
6
Continuous
290
0
370
-3
390
0
0
LAYER
5
21b
100
AcDbSymbolTableRecord
100
AcDbLayerTableRecord
2
SK1
70
0
62
4
6
Continuous
290
1
370
-3
390
0
0
LAYER
5
21c
100
AcDbSymbolTableRecord
100
AcDbLayerTableRecord
2
SK4
70
0
62
2
6
CENTER
290
1
370
-3
390
0
0
LAYER
5
21d
100
AcDbSymbolTableRecord
100
AcDbLayerTableRecord
2
SK2
70
0
62
7
6
Continuous
290
1
370
-3
390
0
0
LAYER
5
21e
100
AcDbSymbolTableRecord
100
AcDbLayerTableRecord
2
SK6
70
0
62
5
6
Continuous
290
1
370
-3
390
0
0
ENDTAB
0
TABLE
2
STYLE
5
232
100
AcDbSymbolTable
0
STYLE
5
11
100
AcDbSymbolTableRecord
100
AcDbTextStyleTableRecord
2
Standard
3
txt
70
0
71
0
40
0
41
1
42
0
50
0
0
STYLE
5
FE
100
AcDbSymbolTableRecord
100
AcDbTextStyleTableRecord
2
iso_b_vert
3
simplex.shx
70
0
71
0
40
0
41
1
42
0
50
0
0
STYLE
5
FF
100
AcDbSymbolTableRecord
100
AcDbTextStyleTableRecord
2
DWGDirectTextStyle
3
simplex
70
0
71
0
40
0
41
1
42
0
50
0
0
ENDTAB
0
TABLE
2
DIMSTYLE
5
233
100
AcDbSymbolTable
100
AcDbDimStyleTable
0
DIMSTYLE
105
27
100
AcDbSymbolTableRecord
100
AcDbDimStyleTableRecord
2
Standard
70
0
3
<>
41
0.18
42
0.0625
44
0.18
140
0.18
147
0.09
73
0
74
0
77
1
271
2
275
0
278
52
280
0
340
11
0
ENDTAB
0
TABLE
2
VIEW
5
234
100
AcDbSymbolTable
0
ENDTAB
0
TABLE
2
UCS
5
235
100
AcDbSymbolTable
0
ENDTAB
0
TABLE
2
APPID
5
236
100
AcDbSymbolTable
0
APPID
5
12
100
AcDbSymbolTableRecord
100
AcDbRegAppTableRecord
2
ACAD
70
0
0
APPID
5
128
100
AcDbSymbolTableRecord
100
AcDbRegAppTableRecord
2
ACAD_DSTYLE_DIMBREAK
70
0
0
APPID
5
1DA
100
AcDbSymbolTableRecord
100
AcDbRegAppTableRecord
2
ACAD_DSTYLE_DIM_LINETYPE
70
0
0
APPID
5
1DB
100
AcDbSymbolTableRecord
100
AcDbRegAppTableRecord
2
ACAD_DSTYLE_DIM_EXT1_LINETYPE
70
0
0
APPID
5
1DC
100
AcDbSymbolTableRecord
100
AcDbRegAppTableRecord
2
ACAD_DSTYLE_DIM_EXT2_LINETYPE
70
0
0
APPID
5
217
100
AcDbSymbolTableRecord
100
AcDbRegAppTableRecord
2
ACAD_MLEADERVER
70
0
0
ENDTAB
0
TABLE
2
BLOCK_RECORD
5
237
100
AcDbSymbolTable
0
BLOCK_RECORD
5
1F
100
AcDbSymbolTableRecord
100
AcDbBlockTableRecord
2
*Model_Space
340
0
70
0
0
BLOCK_RECORD
5
1B
100
AcDbSymbolTableRecord
100
AcDbBlockTableRecord
2
*Paper_Space
340
0
70
0
0
BLOCK_RECORD
5
23
100
AcDbSymbolTableRecord
100
AcDbBlockTableRecord
2
*Paper_Space0
340
0
70
0
0
BLOCK_RECORD
5
12D
100
AcDbSymbolTableRecord
100
AcDbBlockTableRecord
2
*D1
340
0
70
0
0
BLOCK_RECORD
5
139
100
AcDbSymbolTableRecord
100
AcDbBlockTableRecord
2
_U0
340
0
70
0
0
BLOCK_RECORD
5
145
100
AcDbSymbolTableRecord
100
AcDbBlockTableRecord
2
*D3
340
0
70
0
0
BLOCK_RECORD
5
151
100
AcDbSymbolTableRecord
100
AcDbBlockTableRecord
2
_U1
340
0
70
0
0
BLOCK_RECORD
5
15D
100
AcDbSymbolTableRecord
100
AcDbBlockTableRecord
2
*D5
340
0
70
0
0
BLOCK_RECORD
5
169
100
AcDbSymbolTableRecord
100
AcDbBlockTableRecord
2
_U2
340
0
70
0
0
BLOCK_RECORD
5
175
100
AcDbSymbolTableRecord
100
AcDbBlockTableRecord
2
*D7
340
0
70
0
0
BLOCK_RECORD
5
183
100
AcDbSymbolTableRecord
100
AcDbBlockTableRecord
2
_U3
340
0
70
0
0
BLOCK_RECORD
5
18F
100
AcDbSymbolTableRecord
100
AcDbBlockTableRecord
2
*D9
340
0
70
0
0
BLOCK_RECORD
5
19B
100
AcDbSymbolTableRecord
100
AcDbBlockTableRecord
2
_U4
340
0
70
0
0
BLOCK_RECORD
5
1A7
100
AcDbSymbolTableRecord
100
AcDbBlockTableRecord
2
*D11
340
0
70
0
0
BLOCK_RECORD
5
1B3
100
AcDbSymbolTableRecord
100
AcDbBlockTableRecord
2
_U5
340
0
70
0
0
ENDTAB
0
ENDSEC
0
SECTION
2
BLOCKS
0
BLOCK
5
20
100
AcDbEntity
8
0
100
AcDbBlockBegin
2
*Model_Space
70
0
10
0
20
0
30
0
3
*Model_Space
0
ENDBLK
5
21
100
AcDbEntity
8
0
100
AcDbBlockEnd
0
BLOCK
5
1C
100
AcDbEntity
8
0
100
AcDbBlockBegin
2
*Paper_Space
70
0
10
0
20
0
30
0
3
*Paper_Space
0
ENDBLK
5
1D
100
AcDbEntity
8
0
100
AcDbBlockEnd
0
BLOCK
5
24
100
AcDbEntity
8
0
100
AcDbBlockBegin
2
*Paper_Space0
70
0
10
0
20
0
30
0
3
*Paper_Space0
0
ENDBLK
5
25
100
AcDbEntity
8
0
100
AcDbBlockEnd
0
BLOCK
5
12E
100
AcDbEntity
8
0
100
AcDbBlockBegin
2
*D1
70
1
10
0
20
0
30
0
3
*D1
0
LINE
5
130
100
AcDbEntity
8
0
62
256
6
ByLayer
370
-2
48
1
60
0
100
AcDbLine
10
0
20
-1.5875
30
0
11
0
21
-21.552503
31
0
39
0
210
0
220
0
230
1
0
LINE
5
131
100
AcDbEntity
8
0
62
256
6
ByLayer
370
-2
48
1
60
0
100
AcDbLine
10
72.9885
20
-8.3375
30
0
11
72.9885
21
-21.552503
31
0
39
0
210
0
220
0
230
1
0
LINE
5
132
100
AcDbEntity
8
0
62
256
6
ByLayer
370
-2
48
1
60
0
100
AcDbLine
10
3.5
20
-19.552503
30
0
11
69.4885
21
-19.552503
31
0
39
0
210
0
220
0
230
1
0
SOLID
5
133
100
AcDbEntity
8
0
62
256
6
ByLayer
370
-1
48
1
60
0
100
AcDbTrace
10
3.5
20
-18.96917
30
0
11
3.5
21
-20.135837
31
0
12
0
22
-19.552503
32
0
13
0
23
-19.552503
33
0
39
0
210
0
220
0
230
1
0
SOLID
5
134
100
AcDbEntity
8
0
62
256
6
ByLayer
370
-1
48
1
60
0
100
AcDbTrace
10
69.4885
20
-20.135837
30
0
11
69.4885
21
-18.96917
31
0
12
72.9885
22
-19.552503
32
0
13
72.9885
23
-19.552503
33
0
39
0
210
0
220
0
230
1
0
MTEXT
5
135
100
AcDbEntity
8
0
62
256
6
ByLayer
370
18
48
1
60
0
100
AcDbMText
10
36.49425
20
-12.552503
30
0
210
0
220
0
230
1
1
\A1;72.99
40
3.5
41
0
44
1
50
0
71
5
72
5
7
iso_b_vert
0
POINT
5
136
100
AcDbEntity
8
Defpoints
62
0
6
ByLayer
370
-1
48
1
60
0
100
AcDbPoint
10
0
20
0
30
0
39
0
210
0
220
0
230
1
50
360
0
POINT
5
137
100
AcDbEntity
8
Defpoints
62
0
6
ByLayer
370
-1
48
1
60
0
100
AcDbPoint
10
72.9885
20
-6.75
30
0
39
0
210
0
220
0
230
1
50
360
0
POINT
5
138
100
AcDbEntity
8
Defpoints
62
0
6
ByLayer
370
-1
48
1
60
0
100
AcDbPoint
10
72.9885
20
-19.552503
30
0
39
0
210
0
220
0
230
1
50
360
0
ENDBLK
5
12F
100
AcDbEntity
8
0
100
AcDbBlockEnd
0
BLOCK
5
140
100
AcDbEntity
8
0
100
AcDbBlockBegin
2
_U0
70
0
10
0
20
0
30
0
3
_U0
0
MTEXT
5
13A
100
AcDbEntity
8
SK2
62
256
6
ByLayer
370
13
48
1
60
0
100
AcDbMText
10
31.356951
20
-18.51987
30
0
210
0
220
0
230
1
1
\W0.7402;72,99
40
3.5
41
0
44
1.084337
50
0
71
7
72
5
7
iso_b_vert
0
LINE
5
13B
100
AcDbEntity
8
SK2
62
256
6
ByLayer
370
13
48
1
60
0
100
AcDbLine
10
0
20
-1.5875
30
0
11
0
21
-21.552503
31
0
39
0
210
0
220
0
230
1
0
LINE
5
13C
100
AcDbEntity
8
SK2
62
256
6
ByLayer
370
13
48
1
60
0
100
AcDbLine
10
72.9885
20
-8.3375
30
0
11
72.9885
21
-21.552503
31
0
39
0
210
0
220
0
230
1
0
LINE
5
13D
100
AcDbEntity
8
SK2
62
256
6
ByLayer
370
13
48
1
60
0
100
AcDbLine
10
0
20
-19.552503
30
0
11
72.9885
21
-19.552503
31
0
39
0
210
0
220
0
230
1
0
SOLID
5
13E
100
AcDbEntity
8
SK2
62
256
6
ByLayer
370
18
48
1
60
0
100
AcDbTrace
10
0
20
-19.552503
30
0
11
3.499998
21
-19.091719
31
0
12
3.500002
22
-20.013287
32
0
13
3.500002
23
-20.013287
33
0
39
0
210
0
220
0
230
1
0
SOLID
5
13F
100
AcDbEntity
8
SK2
62
256
6
ByLayer
370
18
48
1
60
0
100
AcDbTrace
10
72.9885
20
-19.552503
30
0
11
69.488502
21
-20.013287
31
0
12
69.488498
22
-19.091719
32
0
13
69.488498
23
-19.091719
33
0
39
0
210
0
220
0
230
1
0
ENDBLK
5
141
100
AcDbEntity
8
0
100
AcDbBlockEnd
0
BLOCK
5
146
100
AcDbEntity
8
0
100
AcDbBlockBegin
2
*D3
70
1
10
0
20
0
30
0
3
*D3
0
LINE
5
148
100
AcDbEntity
8
0
62
256
6
ByLayer
370
-2
48
1
60
0
100
AcDbLine
10
-48
20
-10.5875
30
0
11
-48
21
-42.192985
31
0
39
0
210
0
220
0
230
1
0
LINE
5
149
100
AcDbEntity
8
0
62
256
6
ByLayer
370
-2
48
1
60
0
100
AcDbLine
10
75
20
-1.5875
30
0
11
75
21
-42.192985
31
0
39
0
210
0
220
0
230
1
0
LINE
5
14A
100
AcDbEntity
8
0
62
256
6
ByLayer
370
-2
48
1
60
0
100
AcDbLine
10
-44.5
20
-40.192985
30
0
11
71.5
21
-40.192985
31
0
39
0
210
0
220
0
230
1
0
SOLID
5
14B
100
AcDbEntity
8
0
62
256
6
ByLayer
370
-1
48
1
60
0
100
AcDbTrace
10
-44.5
20
-39.609652
30
0
11
-44.5
21
-40.776319
31
0
12
-48
22
-40.192985
32
0
13
-48
23
-40.192985
33
0
39
0
210
0
220
0
230
1
0
SOLID
5
14C
100
AcDbEntity
8
0
62
256
6
ByLayer
370
-1
48
1
60
0
100
AcDbTrace
10
71.5
20
-40.776319
30
0
11
71.5
21
-39.609652
31
0
12
75
22
-40.192985
32
0
13
75
23
-40.192985
33
0
39
0
210
0
220
0
230
1
0
MTEXT
5
14D
100
AcDbEntity
8
0
62
256
6
ByLayer
370
18
48
1
60
0
100
AcDbMText
10
13.5
20
-33.192985
30
0
210
0
220
0
230
1
1
\A1;123.00
40
3.5
41
0
44
1
50
0
71
5
72
5
7
iso_b_vert
0
POINT
5
14E
100
AcDbEntity
8
Defpoints
62
0
6
ByLayer
370
-1
48
1
60
0
100
AcDbPoint
10
-48
20
-9
30
0
39
0
210
0
220
0
230
1
50
360
0
POINT
5
14F
100
AcDbEntity
8
Defpoints
62
0
6
ByLayer
370
-1
48
1
60
0
100
AcDbPoint
10
75
20
0
30
0
39
0
210
0
220
0
230
1
50
360
0
POINT
5
150
100
AcDbEntity
8
Defpoints
62
0
6
ByLayer
370
-1
48
1
60
0
100
AcDbPoint
10
75
20
-40.192985
30
0
39
0
210
0
220
0
230
1
50
360
0
ENDBLK
5
147
100
AcDbEntity
8
0
100
AcDbBlockEnd
0
BLOCK
5
158
100
AcDbEntity
8
0
100
AcDbBlockBegin
2
_U1
70
0
10
0
20
0
30
0
3
_U1
0
MTEXT
5
152
100
AcDbEntity
8
SK2
62
256
6
ByLayer
370
13
48
1
60
0
100
AcDbMText
10
7.492401
20
-39.160352
30
0
210
0
220
0
230
1
1
\W0.6930;123,00
40
3.5
41
0
44
1.084337
50
0
71
7
72
5
7
iso_b_vert
0
LINE
5
153
100
AcDbEntity
8
SK2
62
256
6
ByLayer
370
13
48
1
60
0
100
AcDbLine
10
-48
20
-10.5875
30
0
11
-48
21
-42.192985
31
0
39
0
210
0
220
0
230
1
0
LINE
5
154
100
AcDbEntity
8
SK2
62
256
6
ByLayer
370
13
48
1
60
0
100
AcDbLine
10
75
20
-1.5875
30
0
11
75
21
-42.192985
31
0
39
0
210
0
220
0
230
1
0
LINE
5
155
100
AcDbEntity
8
SK2
62
256
6
ByLayer
370
13
48
1
60
0
100
AcDbLine
10
-48
20
-40.192985
30
0
11
75
21
-40.192985
31
0
39
0
210
0
220
0
230
1
0
SOLID
5
156
100
AcDbEntity
8
SK2
62
256
6
ByLayer
370
18
48
1
60
0
100
AcDbTrace
10
-48
20
-40.192985
30
0
11
-44.500002
21
-39.732202
31
0
12
-44.499998
22
-40.653769
32
0
13
-44.499998
23
-40.653769
33
0
39
0
210
0
220
0
230
1
0
SOLID
5
157
100
AcDbEntity
8
SK2
62
256
6
ByLayer
370
18
48
1
60
0
100
AcDbTrace
10
75
20
-40.192985
30
0
11
71.500002
21
-40.653769
31
0
12
71.499998
22
-39.732202
32
0
13
71.499998
23
-39.732202
33
0
39
0
210
0
220
0
230
1
0
ENDBLK
5
159
100
AcDbEntity
8
0
100
AcDbBlockEnd
0
BLOCK
5
15E
100
AcDbEntity
8
0
100
AcDbBlockBegin
2
*D5
70
1
10
0
20
0
30
0
3
*D5
0
LINE
5
160
100
AcDbEntity
8
0
62
256
6
ByLayer
370
-2
48
1
60
0
100
AcDbLine
10
30.24
20
10.5875
30
0
11
30.24
21
20.359119
31
0
39
0
210
0
220
0
230
1
0
LINE
5
161
100
AcDbEntity
8
0
62
256
6
ByLayer
370
-2
48
1
60
0
100
AcDbLine
10
75
20
1.5875
30
0
11
75
21
20.359119
31
0
39
0
210
0
220
0
230
1
0
LINE
5
162
100
AcDbEntity
8
0
62
256
6
ByLayer
370
-2
48
1
60
0
100
AcDbLine
10
33.74
20
18.359119
30
0
11
71.5
21
18.359119
31
0
39
0
210
0
220
0
230
1
0
SOLID
5
163
100
AcDbEntity
8
0
62
256
6
ByLayer
370
-1
48
1
60
0
100
AcDbTrace
10
33.74
20
18.942453
30
0
11
33.74
21
17.775786
31
0
12
30.24
22
18.359119
32
0
13
30.24
23
18.359119
33
0
39
0
210
0
220
0
230
1
0
SOLID
5
164
100
AcDbEntity
8
0
62
256
6
ByLayer
370
-1
48
1
60
0
100
AcDbTrace
10
71.5
20
17.775786
30
0
11
71.5
21
18.942453
31
0
12
75
22
18.359119
32
0
13
75
23
18.359119
33
0
39
0
210
0
220
0
230
1
0
MTEXT
5
165
100
AcDbEntity
8
0
62
256
6
ByLayer
370
18
48
1
60
0
100
AcDbMText
10
52.62
20
25.359119
30
0
210
0
220
0
230
1
1
\A1;44.76
40
3.5
41
0
44
1
50
0
71
5
72
5
7
iso_b_vert
0
POINT
5
166
100
AcDbEntity
8
Defpoints
62
0
6
ByLayer
370
-1
48
1
60
0
100
AcDbPoint
10
30.24
20
9
30
0
39
0
210
0
220
0
230
1
50
360
0
POINT
5
167
100
AcDbEntity
8
Defpoints
62
0
6
ByLayer
370
-1
48
1
60
0
100
AcDbPoint
10
75
20
0
30
0
39
0
210
0
220
0
230
1
50
360
0
POINT
5
168
100
AcDbEntity
8
Defpoints
62
0
6
ByLayer
370
-1
48
1
60
0
100
AcDbPoint
10
75
20
18.359119
30
0
39
0
210
0
220
0
230
1
50
360
0
ENDBLK
5
15F
100
AcDbEntity
8
0
100
AcDbBlockEnd
0
BLOCK
5
170
100
AcDbEntity
8
0
100
AcDbBlockBegin
2
_U2
70
0
10
0
20
0
30
0
3
_U2
0
MTEXT
5
16A
100
AcDbEntity
8
SK2
62
256
6
ByLayer
370
13
48
1
60
0
100
AcDbMText
10
47.114168
20
19.391753
30
0
210
0
220
0
230
1
1
\W0.7845;44,76
40
3.5
41
0
44
1.084337
50
0
71
7
72
5
7
iso_b_vert
0
LINE
5
16B
100
AcDbEntity
8
SK2
62
256
6
ByLayer
370
13
48
1
60
0
100
AcDbLine
10
30.24
20
10.5875
30
0
11
30.24
21
20.359119
31
0
39
0
210
0
220
0
230
1
0
LINE
5
16C
100
AcDbEntity
8
SK2
62
256
6
ByLayer
370
13
48
1
60
0
100
AcDbLine
10
75
20
1.5875
30
0
11
75
21
20.359119
31
0
39
0
210
0
220
0
230
1
0
LINE
5
16D
100
AcDbEntity
8
SK2
62
256
6
ByLayer
370
13
48
1
60
0
100
AcDbLine
10
30.24
20
18.359119
30
0
11
75
21
18.359119
31
0
39
0
210
0
220
0
230
1
0
SOLID
5
16E
100
AcDbEntity
8
SK2
62
256
6
ByLayer
370
18
48
1
60
0
100
AcDbTrace
10
30.24
20
18.359119
30
0
11
33.739998
21
18.819903
31
0
12
33.740002
22
17.898335
32
0
13
33.740002
23
17.898335
33
0
39
0
210
0
220
0
230
1
0
SOLID
5
16F
100
AcDbEntity
8
SK2
62
256
6
ByLayer
370
18
48
1
60
0
100
AcDbTrace
10
75
20
18.359119
30
0
11
71.500002
21
17.898335
31
0
12
71.499998
22
18.819903
32
0
13
71.499998
23
18.819903
33
0
39
0
210
0
220
0
230
1
0
ENDBLK
5
171
100
AcDbEntity
8
0
100
AcDbBlockEnd
0
BLOCK
5
176
100
AcDbEntity
8
0
100
AcDbBlockBegin
2
*D7
70
1
10
0
20
0
30
0
3
*D7
0
LINE
5
178
100
AcDbEntity
8
0
62
256
6
ByLayer
370
-2
48
1
60
0
100
AcDbLine
10
75
20
-1.5875
30
0
11
75
21
-21.552503
31
0
39
0
210
0
220
0
230
1
0
LINE
5
179
100
AcDbEntity
8
0
62
256
6
ByLayer
370
-2
48
1
60
0
100
AcDbLine
10
72.9885
20
-8.3375
30
0
11
72.9885
21
-21.552503
31
0
39
0
210
0
220
0
230
1
0
LINE
5
17A
100
AcDbEntity
8
0
62
256
6
ByLayer
370
-2
48
1
60
0
100
AcDbLine
10
75
20
-19.552503
30
0
11
102.166667
21
-19.552503
31
0
39
0
210
0
220
0
230
1
0
LINE
5
17B
100
AcDbEntity
8
0
62
256
6
ByLayer
370
-2
48
1
60
0
100
AcDbLine
10
78.5
20
-19.552503
30
0
11
82
21
-19.552503
31
0
39
0
210
0
220
0
230
1
0
LINE
5
17C
100
AcDbEntity
8
0
62
256
6
ByLayer
370
-2
48
1
60
0
100
AcDbLine
10
69.4885
20
-19.552503
30
0
11
65.9885
21
-19.552503
31
0
39
0
210
0
220
0
230
1
0
SOLID
5
17D
100
AcDbEntity
8
0
62
256
6
ByLayer
370
-1
48
1
60
0
100
AcDbTrace
10
78.5
20
-18.96917
30
0
11
78.5
21
-20.135837
31
0
12
75
22
-19.552503
32
0
13
75
23
-19.552503
33
0
39
0
210
0
220
0
230
1
0
SOLID
5
17E
100
AcDbEntity
8
0
62
256
6
ByLayer
370
-1
48
1
60
0
100
AcDbTrace
10
69.4885
20
-20.135837
30
0
11
69.4885
21
-18.96917
31
0
12
72.9885
22
-19.552503
32
0
13
72.9885
23
-19.552503
33
0
39
0
210
0
220
0
230
1
0
MTEXT
5
17F
100
AcDbEntity
8
0
62
256
6
ByLayer
370
18
48
1
60
0
100
AcDbMText
10
92.083333
20
-12.552503
30
0
210
0
220
0
230
1
1
\A1;2.01
40
3.5
41
0
44
1
50
0
71
5
72
5
7
iso_b_vert
0
POINT
5
180
100
AcDbEntity
8
Defpoints
62
0
6
ByLayer
370
-1
48
1
60
0
100
AcDbPoint
10
75
20
0
30
0
39
0
210
0
220
0
230
1
50
360
0
POINT
5
181
100
AcDbEntity
8
Defpoints
62
0
6
ByLayer
370
-1
48
1
60
0
100
AcDbPoint
10
72.9885
20
-6.75
30
0
39
0
210
0
220
0
230
1
50
360
0
POINT
5
182
100
AcDbEntity
8
Defpoints
62
0
6
ByLayer
370
-1
48
1
60
0
100
AcDbPoint
10
72.9885
20
-19.552503
30
0
39
0
210
0
220
0
230
1
50
360
0
ENDBLK
5
177
100
AcDbEntity
8
0
100
AcDbBlockEnd
0
BLOCK
5
18A
100
AcDbEntity
8
0
100
AcDbBlockBegin
2
_U3
70
0
10
0
20
0
30
0
3
_U3
0
MTEXT
5
184
100
AcDbEntity
8
SK2
62
256
6
ByLayer
370
13
48
1
60
0
100
AcDbMText
10
81.589293
20
-18.51987
30
0
210
0
220
0
230
1
1
\W0.6993;2,01
40
3.5
41
0
44
1.084337
50
0
71
7
72
5
7
iso_b_vert
0
LINE
5
185
100
AcDbEntity
8
SK2
62
256
6
ByLayer
370
13
48
1
60
0
100
AcDbLine
10
75
20
-1.5875
30
0
11
75
21
-21.552503
31
0
39
0
210
0
220
0
230
1
0
LINE
5
186
100
AcDbEntity
8
SK2
62
256
6
ByLayer
370
13
48
1
60
0
100
AcDbLine
10
72.9885
20
-8.3375
30
0
11
72.9885
21
-21.552503
31
0
39
0
210
0
220
0
230
1
0
LINE
5
187
100
AcDbEntity
8
SK2
62
256
6
ByLayer
370
13
48
1
60
0
100
AcDbLine
10
64.2385
20
-19.552503
30
0
11
88.559058
21
-19.552503
31
0
39
0
210
0
220
0
230
1
0
SOLID
5
188
100
AcDbEntity
8
SK2
62
256
6
ByLayer
370
18
48
1
60
0
100
AcDbTrace
10
75
20
-19.552503
30
0
11
78.499998
21
-19.091719
31
0
12
78.500002
22
-20.013287
32
0
13
78.500002
23
-20.013287
33
0
39
0
210
0
220
0
230
1
0
SOLID
5
189
100
AcDbEntity
8
SK2
62
256
6
ByLayer
370
18
48
1
60
0
100
AcDbTrace
10
72.9885
20
-19.552503
30
0
11
69.488502
21
-20.013287
31
0
12
69.488498
22
-19.091719
32
0
13
69.488498
23
-19.091719
33
0
39
0
210
0
220
0
230
1
0
ENDBLK
5
18B
100
AcDbEntity
8
0
100
AcDbBlockEnd
0
BLOCK
5
190
100
AcDbEntity
8
0
100
AcDbBlockBegin
2
*D9
70
1
10
0
20
0
30
0
3
*D9
0
LINE
5
192
100
AcDbEntity
8
0
62
256
6
ByLayer
370
-2
48
1
60
0
100
AcDbLine
10
72.9885
20
8.3375
30
0
11
72.9885
21
12.885371
31
0
39
0
210
0
220
0
230
1
0
LINE
5
193
100
AcDbEntity
8
0
62
256
6
ByLayer
370
-2
48
1
60
0
100
AcDbLine
10
32.4885
20
8.3375
30
0
11
32.4885
21
12.885371
31
0
39
0
210
0
220
0
230
1
0
LINE
5
194
100
AcDbEntity
8
0
62
256
6
ByLayer
370
-2
48
1
60
0
100
AcDbLine
10
69.4885
20
10.885371
30
0
11
35.9885
21
10.885371
31
0
39
0
210
0
220
0
230
1
0
SOLID
5
195
100
AcDbEntity
8
0
62
256
6
ByLayer
370
-1
48
1
60
0
100
AcDbTrace
10
69.4885
20
10.302038
30
0
11
69.4885
21
11.468705
31
0
12
72.9885
22
10.885371
32
0
13
72.9885
23
10.885371
33
0
39
0
210
0
220
0
230
1
0
SOLID
5
196
100
AcDbEntity
8
0
62
256
6
ByLayer
370
-1
48
1
60
0
100
AcDbTrace
10
35.9885
20
11.468705
30
0
11
35.9885
21
10.302038
31
0
12
32.4885
22
10.885371
32
0
13
32.4885
23
10.885371
33
0
39
0
210
0
220
0
230
1
0
MTEXT
5
197
100
AcDbEntity
8
0
62
256
6
ByLayer
370
18
48
1
60
0
100
AcDbMText
10
52.7385
20
17.885371
30
0
210
0
220
0
230
1
1
\A1;40.50
40
3.5
41
0
44
1
50
0
71
5
72
5
7
iso_b_vert
0
POINT
5
198
100
AcDbEntity
8
Defpoints
62
0
6
ByLayer
370
-1
48
1
60
0
100
AcDbPoint
10
72.9885
20
6.75
30
0
39
0
210
0
220
0
230
1
50
360
0
POINT
5
199
100
AcDbEntity
8
Defpoints
62
0
6
ByLayer
370
-1
48
1
60
0
100
AcDbPoint
10
32.4885
20
6.75
30
0
39
0
210
0
220
0
230
1
50
360
0
POINT
5
19A
100
AcDbEntity
8
Defpoints
62
0
6
ByLayer
370
-1
48
1
60
0
100
AcDbPoint
10
32.4885
20
10.885371
30
0
39
0
210
0
220
0
230
1
50
360
0
ENDBLK
5
191
100
AcDbEntity
8
0
100
AcDbBlockEnd
0
BLOCK
5
1A2
100
AcDbEntity
8
0
100
AcDbBlockBegin
2
_U4
70
0
10
0
20
0
30
0
3
_U4
0
MTEXT
5
19C
100
AcDbEntity
8
SK2
62
256
6
ByLayer
370
13
48
1
60
0
100
AcDbMText
10
47.416935
20
11.918005
30
0
210
0
220
0
230
1
1
\W0.7581;40,50
40
3.5
41
0
44
1.084337
50
0
71
7
72
5
7
iso_b_vert
0
LINE
5
19D
100
AcDbEntity
8
SK2
62
256
6
ByLayer
370
13
48
1
60
0
100
AcDbLine
10
72.9885
20
8.3375
30
0
11
72.9885
21
12.885371
31
0
39
0
210
0
220
0
230
1
0
LINE
5
19E
100
AcDbEntity
8
SK2
62
256
6
ByLayer
370
13
48
1
60
0
100
AcDbLine
10
32.4885
20
8.3375
30
0
11
32.4885
21
12.885371
31
0
39
0
210
0
220
0
230
1
0
LINE
5
19F
100
AcDbEntity
8
SK2
62
256
6
ByLayer
370
13
48
1
60
0
100
AcDbLine
10
72.9885
20
10.885371
30
0
11
32.4885
21
10.885371
31
0
39
0
210
0
220
0
230
1
0
SOLID
5
1A0
100
AcDbEntity
8
SK2
62
256
6
ByLayer
370
18
48
1
60
0
100
AcDbTrace
10
72.9885
20
10.885371
30
0
11
69.488502
21
10.424588
31
0
12
69.488498
22
11.346155
32
0
13
69.488498
23
11.346155
33
0
39
0
210
0
220
0
230
1
0
SOLID
5
1A1
100
AcDbEntity
8
SK2
62
256
6
ByLayer
370
18
48
1
60
0
100
AcDbTrace
10
32.4885
20
10.885371
30
0
11
35.988498
21
11.346155
31
0
12
35.988502
22
10.424588
32
0
13
35.988502
23
10.424588
33
0
39
0
210
0
220
0
230
1
0
ENDBLK
5
1A3
100
AcDbEntity
8
0
100
AcDbBlockEnd
0
BLOCK
5
1A8
100
AcDbEntity
8
0
100
AcDbBlockBegin
2
*D11
70
1
10
0
20
0
30
0
3
*D11
0
LINE
5
1AA
100
AcDbEntity
8
0
62
256
6
ByLayer
370
-2
48
1
60
0
100
AcDbLine
10
-48
20
-10.5875
30
0
11
-48
21
-31.690158
31
0
39
0
210
0
220
0
230
1
0
LINE
5
1AB
100
AcDbEntity
8
0
62
256
6
ByLayer
370
-2
48
1
60
0
100
AcDbLine
10
72.9885
20
-8.3375
30
0
11
72.9885
21
-31.690158
31
0
39
0
210
0
220
0
230
1
0
LINE
5
1AC
100
AcDbEntity
8
0
62
256
6
ByLayer
370
-2
48
1
60
0
100
AcDbLine
10
-44.5
20
-29.690158
30
0
11
69.4885
21
-29.690158
31
0
39
0
210
0
220
0
230
1
0
SOLID
5
1AD
100
AcDbEntity
8
0
62
256
6
ByLayer
370
-1
48
1
60
0
100
AcDbTrace
10
-44.5
20
-29.106825
30
0
11
-44.5
21
-30.273491
31
0
12
-48
22
-29.690158
32
0
13
-48
23
-29.690158
33
0
39
0
210
0
220
0
230
1
0
SOLID
5
1AE
100
AcDbEntity
8
0
62
256
6
ByLayer
370
-1
48
1
60
0
100
AcDbTrace
10
69.4885
20
-30.273491
30
0
11
69.4885
21
-29.106825
31
0
12
72.9885
22
-29.690158
32
0
13
72.9885
23
-29.690158
33
0
39
0
210
0
220
0
230
1
0
MTEXT
5
1AF
100
AcDbEntity
8
0
62
256
6
ByLayer
370
18
48
1
60
0
100
AcDbMText
10
12.49425
20
-22.690158
30
0
210
0
220
0
230
1
1
\A1;120.99
40
3.5
41
0
44
1
50
0
71
5
72
5
7
iso_b_vert
0
POINT
5
1B0
100
AcDbEntity
8
Defpoints
62
0
6
ByLayer
370
-1
48
1
60
0
100
AcDbPoint
10
-48
20
-9
30
0
39
0
210
0
220
0
230
1
50
360
0
POINT
5
1B1
100
AcDbEntity
8
Defpoints
62
0
6
ByLayer
370
-1
48
1
60
0
100
AcDbPoint
10
72.9885
20
-6.75
30
0
39
0
210
0
220
0
230
1
50
360
0
POINT
5
1B2
100
AcDbEntity
8
Defpoints
62
0
6
ByLayer
370
-1
48
1
60
0
100
AcDbPoint
10
72.9885
20
-29.690158
30
0
39
0
210
0
220
0
230
1
50
360
0
ENDBLK
5
1A9
100
AcDbEntity
8
0
100
AcDbBlockEnd
0
BLOCK
5
1BA
100
AcDbEntity
8
0
100
AcDbBlockBegin
2
_U5
70
0
10
0
20
0
30
0
3
_U5
0
MTEXT
5
1B4
100
AcDbEntity
8
SK2
62
256
6
ByLayer
370
13
48
1
60
0
100
AcDbMText
10
6.486651
20
-28.657524
30
0
210
0
220
0
230
1
1
\W0.6996;120,99
40
3.5
41
0
44
1.084337
50
0
71
7
72
5
7
iso_b_vert
0
LINE
5
1B5
100
AcDbEntity
8
SK2
62
256
6
ByLayer
370
13
48
1
60
0
100
AcDbLine
10
-48
20
-10.5875
30
0
11
-48
21
-31.690158
31
0
39
0
210
0
220
0
230
1
0
LINE
5
1B6
100
AcDbEntity
8
SK2
62
256
6
ByLayer
370
13
48
1
60
0
100
AcDbLine
10
72.9885
20
-8.3375
30
0
11
72.9885
21
-31.690158
31
0
39
0
210
0
220
0
230
1
0
LINE
5
1B7
100
AcDbEntity
8
SK2
62
256
6
ByLayer
370
13
48
1
60
0
100
AcDbLine
10
-48
20
-29.690158
30
0
11
72.9885
21
-29.690158
31
0
39
0
210
0
220
0
230
1
0
SOLID
5
1B8
100
AcDbEntity
8
SK2
62
256
6
ByLayer
370
18
48
1
60
0
100
AcDbTrace
10
-48
20
-29.690158
30
0
11
-44.500002
21
-29.229374
31
0
12
-44.499998
22
-30.150942
32
0
13
-44.499998
23
-30.150942
33
0
39
0
210
0
220
0
230
1
0
SOLID
5
1B9
100
AcDbEntity
8
SK2
62
256
6
ByLayer
370
18
48
1
60
0
100
AcDbTrace
10
72.9885
20
-29.690158
30
0
11
69.488502
21
-30.150942
31
0
12
69.488498
22
-29.229374
32
0
13
69.488498
23
-29.229374
33
0
39
0
210
0
220
0
230
1
0
ENDBLK
5
1BB
100
AcDbEntity
8
0
100
AcDbBlockEnd
0
ENDSEC
0
SECTION
2
ENTITIES
0
ARC
5
BD
100
AcDbEntity
8
SK2
62
256
6
ByLayer
370
13
48
1
60
0
100
AcDbCircle
39
0
10
39.2385
20
0
30
0
40
22.0600635827599
210
0
220
0
230
1
100
AcDbArc
50
182.791334
51
225
0
ARC
5
BE
100
AcDbEntity
8
SK2
62
256
6
ByLayer
370
13
48
1
60
0
100
AcDbCircle
39
0
10
39.2385
20
0
30
0
40
22.0600635827599
210
0
220
0
230
1
100
AcDbArc
50
135
51
165.761935
0
POINT
5
70
100
AcDbEntity
8
80
62
256
6
ByLayer
370
18
48
1
60
0
100
AcDbPoint
10
0
20
0
30
0
39
0
210
0
220
0
230
1
50
360
0
POINT
5
72
100
AcDbEntity
8
81
62
256
6
ByLayer
370
18
48
1
60
0
100
AcDbPoint
10
75
20
0
30
0
39
0
210
0
220
0
230
1
50
360
0
POINT
5
74
100
AcDbEntity
8
1
62
256
6
ByLayer
370
18
48
1
60
1
100
AcDbPoint
10
72.9885
20
-6.75
30
0
39
0
210
0
220
0
230
1
50
360
0
POINT
5
76
100
AcDbEntity
8
1
62
256
6
ByLayer
370
18
48
1
60
1
100
AcDbPoint
10
-48
20
-9
30
0
39
0
210
0
220
0
230
1
50
360
0
POINT
5
77
100
AcDbEntity
8
1
62
256
6
ByLayer
370
18
48
1
60
1
100
AcDbPoint
10
30.24
20
9
30
0
39
0
210
0
220
0
230
1
50
360
0
POINT
5
78
100
AcDbEntity
8
1
62
256
6
ByLayer
370
18
48
1
60
1
100
AcDbPoint
10
72.9885
20
-6.75
30
0
39
0
210
0
220
0
230
1
50
360
0
POINT
5
79
100
AcDbEntity
8
1
62
256
6
ByLayer
370
18
48
1
60
1
100
AcDbPoint
10
72.9885
20
6.75
30
0
39
0
210
0
220
0
230
1
50
360
0
POINT
5
7A
100
AcDbEntity
8
1
62
256
6
ByLayer
370
18
48
1
60
1
100
AcDbPoint
10
32.4885
20
6.75
30
0
39
0
210
0
220
0
230
1
50
360
0
POINT
5
7B
100
AcDbEntity
8
1
62
256
6
ByLayer
370
18
48
1
60
1
100
AcDbPoint
10
-48
20
-9
30
0
39
0
210
0
220
0
230
1
50
360
0
POINT
5
7C
100
AcDbEntity
8
1
62
256
6
ByLayer
370
18
48
1
60
1
100
AcDbPoint
10
72.9885
20
-6.75
30
0
39
0
210
0
220
0
230
1
50
360
0
SPLINE
5
BF
100
AcDbEntity
8
SK1
62
256
6
ByLayer
370
18
48
1
60
0
100
AcDbSpline
70
4
71
3
72
12
73
8
40
0
40
0
40
0
40
0
40
0.25
40
0.25
40
0.500000000000001
40
0.500000000000001
40
1
40
1
40
1
40
1
41
1
10
-46.1
20
-0.659421506178745
30
0
41
1
10
-46.1
20
-0.676170024362051
30
0
41
1
10
-46.1041745743607
20
-0.692179855775521
30
0
41
1
10
-46.1170332025337
20
-0.719341727277964
30
0
41
1
10
-46.125516867034
20
-0.730500309344819
30
0
41
1
10
-46.1539367625989
20
-0.757769576153663
30
0
41
1
10
-46.1766247086701
20
-0.767791138302925
30
0
41
1
10
-46.2
20
-0.769968295287384
30
0
0
SPLINE
5
C0
100
AcDbEntity
8
SK1
62
256
6
ByLayer
370
18
48
1
60
0
100
AcDbSpline
70
4
71
3
72
8
73
4
40
0
40
0
40
0
40
0
40
1
40
1
40
1
40
1
41
1
10
-48
20
-2.04891592658356
30
0
41
1
10
-47.4020921789448
20
-2.10527654682954
30
0
41
1
10
-46.8016149479572
20
-2.1614107602139
30
0
41
1
10
-46.2
20
-2.21744472220382
30
0
0
SPLINE
5
C1
100
AcDbEntity
8
SK1
62
256
6
ByLayer
370
18
48
1
60
0
100
AcDbSpline
70
4
71
3
72
12
73
8
40
0
40
0
40
0
40
0
40
0.499999999999999
40
0.499999999999999
40
0.749999999999999
40
0.749999999999999
40
1
40
1
40
1
40
1
41
1
10
-46.2
20
-2.21744472220385
30
0
41
1
10
-46.1766202203863
20
-2.21962229722362
30
0
41
1
10
-46.153872809496
20
-2.21401625263829
30
0
41
1
10
-46.12567398283
20
-2.19307664349824
30
0
41
1
10
-46.1170638079665
20
-2.18373192930508
30
0
41
1
10
-46.1042330689809
20
-2.15992205312702
30
0
41
1
10
-46.1
20
-2.14502042271477
30
0
41
1
10
-46.1
20
-2.12883064347972
30
0
0
SPLINE
5
C2
100
AcDbEntity
8
SK1
62
256
6
ByLayer
370
18
48
1
60
0
100
AcDbSpline
70
4
71
3
72
8
73
4
40
0
40
0
40
0
40
0
40
1
40
1
40
1
40
1
41
1
10
-46.2
20
-0.769968295287356
30
0
41
1
10
-46.8016138754324
20
-0.826002157383158
30
0
41
1
10
-47.4020907980359
20
-0.882136340492934
30
0
41
1
10
-48
20
-0.938497090907617
30
0
0
SPLINE
5
C3
100
AcDbEntity
8
SK1
62
256
6
ByLayer
370
18
48
1
60
0
100
AcDbSpline
70
4
71
3
72
8
73
4
40
0
40
0
40
0
40
0
40
1
40
1
40
1
40
1
41
1
10
-46.2
20
0.769968295287327
30
0
41
1
10
-46.8016138754324
20
0.82600215738313
30
0
41
1
10
-47.4020907980359
20
0.882136340492906
30
0
41
1
10
-48
20
0.938497090907589
30
0
0
SPLINE
5
C4
100
AcDbEntity
8
SK1
62
256
6
ByLayer
370
18
48
1
60
0
100
AcDbSpline
70
4
71
3
72
12
73
8
40
0
40
0
40
0
40
0
40
0.249999999999996
40
0.249999999999996
40
0.499999999999992
40
0.499999999999992
40
1
40
1
40
1
40
1
41
1
10
-46.1
20
0.659421506178717
30
0
41
1
10
-46.1
20
0.676170024362023
30
0
41
1
10
-46.1041745743607
20
0.692179855775493
30
0
41
1
10
-46.1170332025337
20
0.719341727277936
30
0
41
1
10
-46.125516867034
20
0.730500309344819
30
0
41
1
10
-46.153936762599
20
0.757769576153635
30
0
41
1
10
-46.1766247086701
20
0.767791138302897
30
0
41
1
10
-46.2
20
0.769968295287327
30
0
0
SPLINE
5
C5
100
AcDbEntity
8
1
62
256
6
ByLayer
370
18
48
1
60
0
100
AcDbSpline
70
4
71
3
72
94
73
90
40
0
40
0
40
0
40
0
40
0.0168053206555484
40
0.0168053206555484
40
0.0336106413110969
40
0.0336106413110969
40
0.0672212826221938
40
0.0672212826221938
40
0.0840266032777422
40
0.0840266032777422
40
0.100831923933291
40
0.100831923933291
40
0.134442565244388
40
0.134442565244388
40
0.151247885899937
40
0.151247885899937
40
0.168053206555485
40
0.168053206555485
40
0.201663847866583
40
0.201663847866583
40
0.218469168522132
40
0.218469168522132
40
0.235274489177681
40
0.235274489177681
40
0.268885130488779
40
0.268885130488779
40
0.285690451144329
40
0.285690451144329
40
0.302495771799879
40
0.302495771799879
40
0.336106413110977
40
0.336106413110977
40
0.352911733766526
40
0.352911733766526
40
0.369717054422075
40
0.369717054422075
40
0.403327695733172
40
0.403327695733172
40
0.420133016388721
40
0.420133016388721
40
0.43693833704427
40
0.43693833704427
40
0.470548978355368
40
0.470548978355368
40
0.487354299010916
40
0.487354299010916
40
0.504159619666465
40
0.504159619666465
40
0.537770260977562
40
0.537770260977562
40
0.57138090228866
40
0.57138090228866
40
0.604991543599758
40
0.604991543599758
40
0.638602184910856
40
0.638602184910856
40
0.655407505566404
40
0.655407505566404
40
0.672212826221952
40
0.672212826221952
40
0.705823467533049
40
0.705823467533049
40
0.739434108844146
40
0.739434108844146
40
0.756239429499695
40
0.756239429499695
40
0.773044750155243
40
0.773044750155243
40
0.80665539146634
40
0.80665539146634
40
0.823460712121889
40
0.823460712121889
40
0.840266032777438
40
0.840266032777438
40
0.857071353432986
40
0.857071353432986
40
0.873876674088535
40
0.873876674088535
40
0.890681994744084
40
0.890681994744084
40
0.907487315399633
40
0.907487315399633
40
0.941097956710729
40
0.941097956710729
40
0.957903277366278
40
0.957903277366278
40
0.974708598021826
40
0.974708598021826
40
1
40
1
40
1
40
1
41
1
10
32.9174889789265
20
6.72444214523807
30
0
41
1
10
33.1280906024733
20
6.72606078248396
30
0
41
1
10
33.3382475524498
20
6.7245034048502
30
0
41
1
10
33.7572692664988
20
6.7150092100012
30
0
41
1
10
33.9659295019688
20
6.70701980802249
30
0
41
1
10
34.5921775166112
20
6.67371767560027
30
0
41
1
10
35.009593889252
20
6.63919213587832
30
0
41
1
10
35.6344227698094
20
6.56915795513328
30
0
41
1
10
35.842531779026
20
6.54277760009876
30
0
41
1
10
36.2579689484596
20
6.4836928238324
30
0
41
1
10
36.4651514891806
20
6.45088775724898
30
0
41
1
10
37.0879298277376
20
6.34408052560116
30
0
41
1
10
37.5041444682716
20
6.261543711126
30
0
41
1
10
38.1287904465108
20
6.12020286631696
30
0
41
1
10
38.3371101965312
20
6.07019180749757
30
0
41
1
10
38.753494311322
20
5.96389024598162
30
0
41
1
10
38.9614780723966
20
5.90749859361318
30
0
41
1
10
39.5875512805523
20
5.73090100677686
30
0
41
1
10
40.0070470219044
20
5.60281658525622
30
0
41
1
10
40.6382704192761
20
5.39387530009768
30
0
41
1
10
40.8493240927525
20
5.32136592576541
30
0
41
1
10
41.2694618737864
20
5.17090164357737
30
0
41
1
10
41.4787762337403
20
5.09291900826278
30
0
41
1
10
42.1069307870001
20
4.85380251035682
30
0
41
1
10
42.5252203630503
20
4.68666324005585
30
0
41
1
10
43.1507793185172
20
4.42317510814448
30
0
41
1
10
43.3590252976926
20
4.33326182782838
30
0
41
1
10
43.7744463793621
20
4.1484963731707
30
0
41
1
10
43.9817917216996
20
4.05386534320868
30
0
41
1
10
44.6048538068502
20
3.76630864265309
30
0
41
1
10
45.0208479485601
20
3.5687240149168
30
0
41
1
10
45.6445897173251
20
3.2618700980924
30
0
41
1
10
45.8524936300491
20
3.15788260766979
30
0
41
1
10
46.2677609735287
20
2.94559577166325
30
0
41
1
10
46.4753984476107
20
2.837720844139
30
0
41
1
10
47.1001053561334
20
2.51184137655321
30
0
41
1
10
47.5182734827563
20
2.29051335092998
30
0
41
1
10
48.1469433328348
20
1.95041313153388
30
0
41
1
10
48.35675367123
20
1.83572011715131
30
0
41
1
10
48.7763925946964
20
1.60267714215254
30
0
41
1
10
48.9869196560978
20
1.48494466104719
30
0
41
1
10
49.6176313157106
20
1.13264284579051
30
0
41
1
10
50.0371738525752
20
0.897576952949578
30
0
41
1
10
50.6640491777861
20
0.542714696460223
30
0
41
1
10
50.8725695387593
20
0.423993990611962
30
0
41
1
10
51.2883949651749
20
0.185083782392894
30
0
41
1
10
51.4962354573174
20
0.0658639915282038
30
0
41
1
10
52.1201537503242
20
-0.29000935879327
30
0
41
1
10
52.5362772980368
20
-0.525518938459271
30
0
41
1
10
53.3674582267011
20
-0.995626559712207
30
0
41
1
10
53.7815072666825
20
-1.23198616441888
30
0
41
1
10
54.6133810874195
20
-1.69518384363576
30
0
41
1
10
55.0305728173441
20
-1.92316252194911
30
0
41
1
10
55.8660652908144
20
-2.37429677635441
30
0
41
1
10
56.2834308966363
20
-2.59904143210872
30
0
41
1
10
56.9141326779907
20
-2.92588050125085
30
0
41
1
10
57.1252063032763
20
-3.0335291636566
30
0
41
1
10
57.5460125952471
20
-3.24525683515097
30
0
41
1
10
57.7559981851285
20
-3.34941677902708
30
0
41
1
10
58.3844344114298
20
-3.65725175782956
30
0
41
1
10
58.800513380323
20
-3.85747839875586
30
0
41
1
10
59.6339062853259
20
-4.23763328940936
30
0
41
1
10
60.0503709655823
20
-4.41898555778894
30
0
41
1
10
60.6736378217711
20
-4.67950351351504
30
0
41
1
10
60.880899439553
20
-4.76473469032243
30
0
41
1
10
61.2954631244071
20
-4.93059080265763
30
0
41
1
10
61.5030043749113
20
-5.01093045712895
30
0
41
1
10
62.126399443523
20
-5.24432121919398
30
0
41
1
10
62.5428570715619
20
-5.38999287605452
30
0
41
1
10
63.1677322974209
20
-5.5946836951822
30
0
41
1
10
63.375776569262
20
-5.66087247553477
30
0
41
1
10
63.7926449650745
20
-5.78778147673046
30
0
41
1
10
64.0016238702798
20
-5.84836737339481
30
0
41
1
10
64.4206335196263
20
-5.96388671622262
30
0
41
1
10
64.6306271378379
20
-6.0188555307947
30
0
41
1
10
65.0513927735112
20
-6.12335005145178
30
0
41
1
10
65.262406868633
20
-6.17288514485207
30
0
41
1
10
65.6826298585773
20
-6.2660531612508
30
0
41
1
10
65.8918173920287
20
-6.30992459708918
30
0
41
1
10
66.3099214596035
20
-6.39116953336105
30
0
41
1
10
66.5188803135495
20
-6.42854530070667
30
0
41
1
10
67.1453735989913
20
-6.53126686287635
30
0
41
1
10
67.5624249458432
20
-6.58733209449161
30
0
41
1
10
68.185868742121
20
-6.65339370015926
30
0
41
1
10
68.3930330139808
20
-6.67245818837262
30
0
41
1
10
68.8078143181942
20
-6.70413692886487
30
0
41
1
10
69.0154021535911
20
-6.71678755989973
30
0
41
1
10
69.5357534169269
20
-6.74066565413432
30
0
41
1
10
69.8486516269754
20
-6.74799520086654
30
0
41
1
10
70.1614649715422
20
-6.74824944096497
30
0
0
SPLINE
5
C6
100
AcDbEntity
8
1
62
256
6
ByLayer
370
18
48
1
60
0
100
AcDbSpline
70
4
71
3
72
8
73
4
40
0
40
0
40
0
40
0
40
1
40
1
40
1
40
1
41
1
10
72.6164014946191
20
6.74258093482652
30
0
41
1
10
72.434140802409
20
6.74727991041345
30
0
41
1
10
72.2518868095464
20
6.74956391200277
30
0
41
1
10
72.0695974275285
20
6.7494340741946
30
0
0
SPLINE
5
C7
100
AcDbEntity
8
1
62
256
6
ByLayer
370
18
48
1
60
0
100
AcDbSpline
70
4
71
3
72
14
73
10
40
0
40
0
40
0
40
0
40
0.138581088911931
40
0.138581088911931
40
0.353935816683948
40
0.353935816683948
40
0.569290544455966
40
0.569290544455966
40
1
40
1
40
1
40
1
41
1
10
38.6555923258792
20
-6.40363460906121
30
0
41
1
10
38.3885345298248
20
-6.45018518230791
30
0
41
1
10
38.1216675567526
20
-6.49178748784288
30
0
41
1
10
37.440198526766
20
-6.58525388913367
30
0
41
1
10
37.0256759969278
20
-6.63003936227852
30
0
41
1
10
36.1956476884642
20
-6.69497382697472
30
0
41
1
10
35.7797976599876
20
-6.7151159567409
30
0
41
1
10
34.5348353733553
20
-6.73800563974197
30
0
41
1
10
33.7066709610183
20
-6.70341267414102
30
0
41
1
10
32.8758658998785
20
-6.61941532575264
30
0
0
SPLINE
5
C8
100
AcDbEntity
8
1
62
256
6
ByLayer
370
18
48
1
60
0
100
AcDbSpline
70
4
71
3
72
10
73
6
40
0
40
0
40
0
40
0
40
0.5
40
0.5
40
1
40
1
40
1
40
1
41
1
10
74.9999675937964
20
0.0481961118673837
30
0
41
1
10
74.9952276465075
20
0.0266003459762771
30
0
41
1
10
74.9884110568692
20
0.0031322208613744
30
0
41
1
10
74.9713419536084
20
-0.0418613797425564
30
0
41
1
10
74.9609760808432
20
-0.0634834114684679
30
0
41
1
10
74.950460755426
20
-0.0806879792336304
30
0
0
SPLINE
5
C9
100
AcDbEntity
8
1
62
256
6
ByLayer
370
18
48
1
60
0
100
AcDbSpline
70
4
71
3
72
10
73
6
40
0
40
0
40
0
40
0
40
0.5
40
0.5
40
1
40
1
40
1
40
1
41
1
10
32.8758658998785
20
-6.61941532575267
30
0
41
1
10
32.8824006671943
20
-6.65224954193991
30
0
41
1
10
32.8901374985454
20
-6.67731203452297
30
0
41
1
10
32.9040536166315
20
-6.71225968546881
30
0
41
1
10
32.9109945093381
20
-6.72214059282823
30
0
41
1
10
32.9174889789267
20
-6.72444214523807
30
0
0
SPLINE
5
CA
100
AcDbEntity
8
1
62
256
6
ByLayer
370
18
48
1
60
0
100
AcDbSpline
70
4
71
3
72
12
73
8
40
0
40
0
40
0
40
0
40
0.250000000000002
40
0.250000000000002
40
0.500000000000004
40
0.500000000000004
40
1
40
1
40
1
40
1
41
1
10
32.5246181032847
20
-6.69784531514307
30
0
41
1
10
32.3204359535772
20
-6.88346501114606
30
0
41
1
10
32.1168038890927
20
-7.06570543348516
30
0
41
1
10
31.7104995751979
20
-7.42308301699151
30
0
41
1
10
31.5078769983641
20
-7.59811765714917
30
0
41
1
10
30.9006361180182
20
-8.11317204002023
30
0
41
1
10
30.4962521954857
20
-8.44425495352502
30
0
41
1
10
30.0933523388004
20
-8.76126236502373
30
0
0
SPLINE
5
CB
100
AcDbEntity
8
1
62
256
6
ByLayer
370
18
48
1
60
0
100
AcDbSpline
70
4
71
3
72
38
73
34
40
0
40
0
40
0
40
0
40
0.0662620285054785
40
0.0662620285054785
40
0.132957597897944
40
0.132957597897944
40
0.19965316729041
40
0.19965316729041
40
0.266348736682876
40
0.266348736682876
40
0.333044306075341
40
0.333044306075341
40
0.399739875467807
40
0.399739875467807
40
0.466435444860272
40
0.466435444860272
40
0.533131014252738
40
0.533131014252738
40
0.599826583645204
40
0.599826583645204
40
0.66652215303767
40
0.66652215303767
40
0.733217722430135
40
0.733217722430135
40
0.799913291822601
40
0.799913291822601
40
0.866608861215067
40
0.866608861215067
40
0.933304430607532
40
0.933304430607532
40
0.966652215303766
40
0.966652215303766
40
1
40
1
40
1
40
1
41
1
10
50.4521714102528
20
6.39737096217172
30
0
41
1
10
50.7994252980583
20
6.39735448197689
30
0
41
1
10
51.1469872513727
20
6.38968118036775
30
0
41
1
10
51.846787328411
20
6.35675908755741
30
0
41
1
10
52.1986483389312
20
6.33116107077853
30
0
41
1
10
52.9040521115317
20
6.2637018895185
30
0
41
1
10
53.257778091569
20
6.2218163108565
30
0
41
1
10
53.9646104597543
20
6.12153390507302
30
0
41
1
10
54.3177047448549
20
6.06253473055284
30
0
41
1
10
55.023231821644
20
5.92838429582233
30
0
41
1
10
55.3756701580365
20
5.8534719768725
30
0
41
1
10
56.0804694524174
20
5.68843672725319
30
0
41
1
10
56.433594381438
20
5.59809090149031
30
0
41
1
10
57.1405829496023
20
5.40262153690347
30
0
41
1
10
57.4947220631009
20
5.29787130508197
30
0
41
1
10
58.2008499142484
20
5.07509313522621
30
0
41
1
10
58.5532576674315
20
4.95584636564936
30
0
41
1
10
59.2586839858414
20
4.70445711670192
30
0
41
1
10
59.611284035993
20
4.57212298030822
30
0
41
1
10
60.3164930658121
20
4.29547080381454
30
0
41
1
10
60.6687882992517
20
4.1506045447573
30
0
41
1
10
61.3755683341363
20
3.85236038030169
30
0
41
1
10
61.7297498344471
20
3.69860862890712
30
0
41
1
10
62.4360023915932
20
3.38126328836506
30
0
41
1
10
62.788425982415
20
3.21726913254557
30
0
41
1
10
63.4927013358312
20
2.88006302752348
30
0
41
1
10
63.8453424677656
20
2.70826835913883
30
0
41
1
10
64.5507961640176
20
2.35735936598868
30
0
41
1
10
64.9036753287599
20
2.1782985845017
30
0
41
1
10
65.4334201272296
20
1.90461389970977
30
0
41
1
10
65.6101229245008
20
1.81240560180484
30
0
41
1
10
65.962986574118
20
1.62772784868955
30
0
41
1
10
66.1393557717487
20
1.53535365022671
30
0
41
1
10
66.3154592662558
20
1.44255845910399
30
0
0
SPLINE
5
CC
100
AcDbEntity
8
1
62
256
6
ByLayer
370
18
48
1
60
0
100
AcDbSpline
70
4
71
3
72
8
73
4
40
0
40
0
40
0
40
0
40
1
40
1
40
1
40
1
41
1
10
73.2483466566059
20
-3.03809806136707
30
0
41
1
10
72.8854635000337
20
-3.70873883428624
30
0
41
1
10
72.5327589245027
20
-4.38862831040882
30
0
41
1
10
72.1903640465678
20
-5.07788562796216
30
0
0
SPLINE
5
CD
100
AcDbEntity
8
1
62
256
6
ByLayer
370
18
48
1
60
0
100
AcDbSpline
70
4
71
3
72
26
73
22
40
0
40
0
40
0
40
0
40
0.0035084502055733
40
0.0035084502055733
40
0.0323319816923223
40
0.0323319816923223
40
0.0899790446658202
40
0.0899790446658202
40
0.205273170612815
40
0.205273170612815
40
0.32056729655981
40
0.32056729655981
40
0.435861422506805
40
0.435861422506805
40
0.666449674400796
40
0.666449674400796
40
0.781743800347791
40
0.781743800347791
40
0.897037926294786
40
0.897037926294786
40
1
40
1
40
1
40
1
41
1
10
16.5259068493172
20
-1.72951676520077
30
0
41
1
10
16.5259068493172
20
-1.73656913373475
30
0
41
1
10
16.5259068493172
20
-1.74362716363871
30
0
41
1
10
16.5259068493172
20
-1.80872116967336
30
0
41
1
10
16.5259068493172
20
-1.86713245963716
30
0
41
1
10
16.5259068493172
20
-2.04351821705498
30
0
41
1
10
16.5259068493172
20
-2.16258557150934
30
0
41
1
10
16.5259068493172
20
-2.5239691468868
30
0
41
1
10
16.5259068493172
20
-2.77058208487327
30
0
41
1
10
16.5259068493172
20
-3.27565888227088
30
0
41
1
10
16.5259068493172
20
-3.53317752941243
30
0
41
1
10
16.5259068493172
20
-4.05826052519222
30
0
41
1
10
16.5259068493172
20
-4.32659487458841
30
0
41
1
10
16.5259068493172
20
-5.14130028654873
30
0
41
1
10
16.5259068493174
20
-5.69697092358297
30
0
41
1
10
16.5259068493174
20
-6.5509812229397
30
0
41
1
10
16.5259068493173
20
-6.8390873945682
30
0
41
1
10
16.5259068493173
20
-7.42275366749325
30
0
41
1
10
16.5259068493172
20
-7.71477259906038
30
0
41
1
10
16.5259068493172
20
-8.26678228669326
30
0
41
1
10
16.5259068493172
20
-8.52708599254288
30
0
41
1
10
16.5259068493172
20
-8.78717876516518
30
0
0
SPLINE
5
CE
100
AcDbEntity
8
1
62
256
6
ByLayer
370
18
48
1
60
0
100
AcDbSpline
70
4
71
3
72
8
73
4
40
0
40
0
40
0
40
0
40
1
40
1
40
1
40
1
41
1
10
32.9174889789266
20
-6.72444214523807
30
0
41
1
10
32.7866013864328
20
-6.7167947085089
30
0
41
1
10
32.6556400773543
20
-6.70792722195841
30
0
41
1
10
32.5246181032852
20
-6.69784531514313
30
0
0
SPLINE
5
CF
100
AcDbEntity
8
1
62
256
6
ByLayer
370
18
48
1
60
0
100
AcDbSpline
70
4
71
3
72
8
73
4
40
0
40
0
40
0
40
0
40
1
40
1
40
1
40
1
41
1
10
32.9174889789266
20
6.72444214523807
30
0
41
1
10
32.7866013864316
20
6.71679470850884
30
0
41
1
10
32.6556400773517
20
6.70792722195824
30
0
41
1
10
32.5246181032814
20
6.69784531514284
30
0
0
SPLINE
5
D0
100
AcDbEntity
8
1
62
256
6
ByLayer
370
18
48
1
60
0
100
AcDbSpline
70
4
71
3
72
32
73
28
40
0
40
0
40
0
40
0
40
0.0624999999999992
40
0.0624999999999992
40
0.124999999999998
40
0.124999999999998
40
0.187499999999998
40
0.187499999999998
40
0.249999999999997
40
0.249999999999997
40
0.374999999999995
40
0.374999999999995
40
0.437499999999995
40
0.437499999999995
40
0.499999999999996
40
0.499999999999996
40
0.562499999999996
40
0.562499999999996
40
0.624999999999996
40
0.624999999999996
40
0.749999999999997
40
0.749999999999997
40
0.812499999999998
40
0.812499999999998
40
0.874999999999999
40
0.874999999999999
40
1
40
1
40
1
40
1
41
1
10
28.8846345972368
20
2.71435074704527
30
0
41
1
10
28.6290222332008
20
2.90054985800214
30
0
41
1
10
28.3733647734877
20
3.08502708560744
30
0
41
1
10
27.8607403120828
20
3.4490038610997
30
0
41
1
10
27.6039265095253
20
3.62869881451712
30
0
41
1
10
27.0892641056463
20
3.98344089801165
30
0
41
1
10
26.8314120006813
20
4.15848453883493
30
0
41
1
10
26.3147969224624
20
4.50400497590428
30
0
41
1
10
26.0555281112889
20
4.67491259272842
30
0
41
1
10
25.2793381924182
20
5.17389420668931
30
0
41
1
10
24.7641314868066
20
5.4895881473627
30
0
41
1
10
23.9947774743129
20
5.93857935483246
30
0
41
1
10
23.7391424787172
20
6.08436099510118
30
0
41
1
10
23.227613789751
20
6.36631652798482
30
0
41
1
10
22.9717992805733
20
6.50258588467071
30
0
41
1
10
22.4599947455493
20
6.76571216808327
30
0
41
1
10
22.204002975202
20
6.89256902846199
30
0
41
1
10
21.6919090631412
20
7.13688779094869
30
0
41
1
10
21.436023854391
20
7.25451653075834
30
0
41
1
10
20.6669117423043
20
7.59205915013169
30
0
41
1
10
20.1514480941649
20
7.7961372636004
30
0
41
1
10
19.3738146452297
20
8.06996326892045
30
0
41
1
10
19.1143822641571
20
8.15573635322471
30
0
41
1
10
18.5971868652094
20
8.31524666287092
30
0
41
1
10
18.338601193999
20
8.38885942376407
30
0
41
1
10
17.5626350796666
20
8.59131362366455
30
0
41
1
10
17.0445489592957
20
8.70164752352926
30
0
41
1
10
16.5259068493172
20
8.7871787652127
30
0
0
SPLINE
5
D1
100
AcDbEntity
8
1
62
256
6
ByLayer
370
18
48
1
60
0
100
AcDbSpline
70
4
71
3
72
8
73
4
40
0
40
0
40
0
40
0
40
1
40
1
40
1
40
1
41
1
10
32.9174889789267
20
-6.72444214523807
30
0
41
1
10
32.966979211386
20
-6.72482251615932
30
0
41
1
10
33.0164448878877
20
-6.7250274998033
30
0
41
1
10
33.0658833946183
20
-6.72505691832174
30
0
0
SPLINE
5
D2
100
AcDbEntity
8
1
62
256
6
ByLayer
370
18
48
1
60
0
100
AcDbSpline
70
4
71
3
72
40
73
36
40
0
40
0
40
0
40
0
40
0.0332564071963315
40
0.0332564071963315
40
0.0815935868365167
40
0.0815935868365167
40
0.129930766476702
40
0.129930766476702
40
0.22660512575707
40
0.22660512575707
40
0.274942305397253
40
0.274942305397253
40
0.323279485037435
40
0.323279485037435
40
0.371616664677618
40
0.371616664677618
40
0.419953844317801
40
0.419953844317801
40
0.468291023957984
40
0.468291023957984
40
0.516628203598167
40
0.516628203598167
40
0.613302562878535
40
0.613302562878535
40
0.661639742518718
40
0.661639742518718
40
0.709976922158901
40
0.709976922158901
40
0.806651281439269
40
0.806651281439269
40
0.854988461079451
40
0.854988461079451
40
0.903325640719634
40
0.903325640719634
40
1
40
1
40
1
40
1
41
1
10
60.0367599824703
20
4.41065845872035
30
0
41
1
10
60.1798939664379
20
4.4722636659954
30
0
41
1
10
60.3229444994951
20
4.53291797555659
30
0
41
1
10
60.6736378217736
20
4.67950351351612
30
0
41
1
10
60.8808994395555
20
4.76473469032348
30
0
41
1
10
61.2954631244097
20
4.93059080265868
30
0
41
1
10
61.5030043749139
20
5.01093045712994
30
0
41
1
10
62.1263994435256
20
5.24432121919494
30
0
41
1
10
62.5428570715647
20
5.38999287605543
30
0
41
1
10
63.1677322974237
20
5.59468369518314
30
0
41
1
10
63.3757765692649
20
5.66087247553568
30
0
41
1
10
63.7926449650774
20
5.78778147673131
30
0
41
1
10
64.0016238702827
20
5.84836737339566
30
0
41
1
10
64.4206335196292
20
5.96388671622341
30
0
41
1
10
64.6306271378409
20
6.01885553079546
30
0
41
1
10
65.0513927735142
20
6.12335005145252
30
0
41
1
10
65.262406868636
20
6.17288514485278
30
0
41
1
10
65.6826298585804
20
6.26605316125145
30
0
41
1
10
65.8918173920318
20
6.30992459708983
30
0
41
1
10
66.3099214596066
20
6.39116953336165
30
0
41
1
10
66.5188803135527
20
6.42854530070721
30
0
41
1
10
67.1453735989945
20
6.53126686287683
30
0
41
1
10
67.5624249458465
20
6.58733209449201
30
0
41
1
10
68.1858687421242
20
6.6533937001596
30
0
41
1
10
68.3930330139841
20
6.6724581883729
30
0
41
1
10
68.8078143181975
20
6.70413692886507
30
0
41
1
10
69.0154021535944
20
6.7167875598999
30
0
41
1
10
69.6385862843377
20
6.74538449133416
30
0
41
1
10
70.0545280234697
20
6.75205795009282
30
0
41
1
10
70.6779022419639
20
6.74327344104697
30
0
41
1
10
70.885328210433
20
6.73715076495247
30
0
41
1
10
71.301290877406
20
6.71860947999121
30
0
41
1
10
71.5097527078865
20
6.70621192760345
30
0
41
1
10
72.1363627946845
20
6.65969919832986
30
0
41
1
10
72.555691216685
20
6.61633275800352
30
0
41
1
10
72.9757532516053
20
6.55988483592941
30
0
0
SPLINE
5
D3
100
AcDbEntity
8
1
62
256
6
ByLayer
370
18
48
1
60
0
100
AcDbSpline
70
4
71
3
72
12
73
8
40
0
40
0
40
0
40
0
40
0.25
40
0.25
40
0.5
40
0.5
40
1
40
1
40
1
40
1
41
1
10
31.4118987003243
20
0.287536908628681
30
0
41
1
10
31.1876934356652
20
0.436104939181661
30
0
41
1
10
30.9677978255779
20
0.600808127353702
30
0
41
1
10
30.5334692217235
20
0.958035484747313
30
0
41
1
10
30.3184435796877
20
1.15151703570234
30
0
41
1
10
29.6865874107705
20
1.76539894623596
30
0
41
1
10
29.2812756540991
20
2.21954088986729
30
0
41
1
10
28.884634597237
20
2.71435074704513
30
0
0
SPLINE
5
D4
100
AcDbEntity
8
1
62
256
6
ByLayer
370
18
48
1
60
0
100
AcDbSpline
70
4
71
3
72
8
73
4
40
0
40
0
40
0
40
0
40
1
40
1
40
1
40
1
41
1
10
74.9218799242706
20
1.5251449966251
30
0
41
1
10
74.953014771801
20
1.06094328555355
30
0
41
1
10
74.975432087053
20
0.597249383331672
30
0
41
1
10
74.9891252193356
20
0.134063677371813
30
0
0
SPLINE
5
D5
100
AcDbEntity
8
1
62
256
6
ByLayer
370
18
48
1
60
0
100
AcDbSpline
70
4
71
3
72
12
73
8
40
0
40
0
40
0
40
0
40
0.0665108015744637
40
0.0665108015744637
40
0.533255400787232
40
0.533255400787232
40
1
40
1
40
1
40
1
41
1
10
35.1827654342981
20
-6.38879222409739
30
0
41
1
10
35.1225086113074
20
-6.3887666200832
30
0
41
1
10
35.0622459947971
20
-6.38849162704454
30
0
41
1
10
34.5790270127926
20
-6.38428525157519
30
0
41
1
10
34.1561116216283
20
-6.36822655974799
30
0
41
1
10
33.3143753714124
20
-6.31218384347582
30
0
41
1
10
32.8948712104511
20
-6.27219259238976
30
0
41
1
10
32.4761712154224
20
-6.22055543835899
30
0
0
SPLINE
5
D6
100
AcDbEntity
8
1
62
256
6
ByLayer
370
18
48
1
60
0
100
AcDbSpline
70
4
71
3
72
8
73
4
40
0
40
0
40
0
40
0
40
1
40
1
40
1
40
1
41
1
10
32.4761712153876
20
-0.310956103076649
30
0
41
1
10
32.1217918241589
20
-0.110156093271286
30
0
41
1
10
31.766887966548
20
0.0893187493350069
30
0
41
1
10
31.4118987003243
20
0.287536908628653
30
0
0
SPLINE
5
D7
100
AcDbEntity
8
1
62
256
6
ByLayer
370
18
48
1
60
0
100
AcDbSpline
70
4
71
3
72
34
73
30
40
0
40
0
40
0
40
0
40
0.125
40
0.125
40
0.1875
40
0.1875
40
0.25
40
0.25
40
0.312499999999999
40
0.312499999999999
40
0.374999999999999
40
0.374999999999999
40
0.437499999999999
40
0.437499999999999
40
0.499999999999999
40
0.499999999999999
40
0.562499999999999
40
0.562499999999999
40
0.624999999999999
40
0.624999999999999
40
0.687499999999999
40
0.687499999999999
40
0.749999999999998
40
0.749999999999998
40
0.874999999999998
40
0.874999999999998
40
0.937499999999999
40
0.937499999999999
40
1
40
1
40
1
40
1
41
1
10
16.525906849317
20
-1.70851379722026
30
0
41
1
10
17.0941788540618
20
-2.13849976463234
30
0
41
1
10
17.6621201259696
20
-2.55407579080131
30
0
41
1
10
18.5098570321747
20
-3.16196838611276
30
0
41
1
10
18.7914883764998
20
-3.36230310510655
30
0
41
1
10
19.3531490642366
20
-3.75793502588982
30
0
41
1
10
19.6343382242384
20
-3.9518156900356
30
0
41
1
10
20.1974500995178
20
-4.33182037632213
30
0
41
1
10
20.4792505615554
20
-4.51809169179245
30
0
41
1
10
21.0429233533803
20
-4.88362520798563
30
0
41
1
10
21.3245347523783
20
-5.06317439628484
30
0
41
1
10
21.8882860906253
20
-5.41457426739456
30
0
41
1
10
22.1713936169349
20
-5.58537617237116
30
0
41
1
10
22.7397453590486
20
-5.91754916384821
30
0
41
1
10
23.025577390931
20
-6.07935848347853
30
0
41
1
10
23.5954108318873
20
-6.39198458053329
30
0
41
1
10
23.8785862975365
20
-6.54306683951089
30
0
41
1
10
24.4438009880989
20
-6.83262599328987
30
0
41
1
10
24.726349549877
20
-6.97068168118892
30
0
41
1
10
25.2909061465022
20
-7.23407057253797
30
0
41
1
10
25.5728597418041
20
-7.35944663644804
30
0
41
1
10
26.1357653803755
20
-7.59786291579442
30
0
41
1
10
26.4161500382355
20
-7.71127502855967
30
0
41
1
10
27.2588810791577
20
-8.03062080158395
30
0
41
1
10
27.8235301594081
20
-8.21556751134239
30
0
41
1
10
28.6718011910935
20
-8.45245518399648
30
0
41
1
10
28.9542287782741
20
-8.52482644920573
30
0
41
1
10
29.5222105074948
20
-8.65437822432028
30
0
41
1
10
29.808114157323
20
-8.71170119048153
30
0
41
1
10
30.0933523387994
20
-8.76126236503401
30
0
0
SPLINE
5
D8
100
AcDbEntity
8
1
62
256
6
ByLayer
370
18
48
1
60
0
100
AcDbSpline
70
4
71
3
72
8
73
4
40
0
40
0
40
0
40
0
40
1
40
1
40
1
40
1
41
1
10
74.9891252193356
20
0.134063677371813
30
0
41
1
10
74.9898593550835
20
0.109230704342167
30
0
41
1
10
74.9939152833888
20
0.079626775350647
30
0
41
1
10
74.9999675937965
20
0.0481961118673553
30
0
0
SPLINE
5
D9
100
AcDbEntity
8
1
62
256
6
ByLayer
370
18
48
1
60
0
100
AcDbSpline
70
4
71
3
72
10
73
6
40
0
40
0
40
0
40
0
40
0.70113930180572
40
0.70113930180572
40
1
40
1
40
1
40
1
41
1
10
16.5259068493172
20
8.78717876521273
30
0
41
1
10
15.9211027575271
20
8.88355350119136
30
0
41
1
10
15.3281595925945
20
8.94966650258866
30
0
41
1
10
14.4888501375133
20
8.99333944144101
30
0
41
1
10
14.2388341768203
20
8.99998591050559
30
0
41
1
10
13.9891511411338
20
8.99999942667003
30
0
0
SPLINE
5
DA
100
AcDbEntity
8
1
62
256
6
ByLayer
370
18
48
1
60
0
100
AcDbSpline
70
4
71
3
72
8
73
4
40
0
40
0
40
0
40
0
40
1
40
1
40
1
40
1
41
1
10
32.4761712154016
20
-6.55536955372179
30
0
41
1
10
32.6094712415915
20
-6.57794321844298
30
0
41
1
10
32.7426957668522
20
-6.59929824362791
30
0
41
1
10
32.8758658998785
20
-6.61941532575267
30
0
0
SPLINE
5
DB
100
AcDbEntity
8
1
62
256
6
ByLayer
370
18
48
1
60
0
100
AcDbSpline
70
4
71
3
72
20
73
16
40
0
40
0
40
0
40
0
40
0.0987693242482015
40
0.0987693242482015
40
0.211423158717177
40
0.211423158717177
40
0.324076993186152
40
0.324076993186152
40
0.549384662124099
40
0.549384662124099
40
0.662038496593075
40
0.662038496593075
40
0.77469233106205
40
0.77469233106205
40
1
40
1
40
1
40
1
41
1
10
23.3888074214094
20
-6.27725044581936
30
0
41
1
10
23.1645545202188
20
-6.39983525397798
30
0
41
1
10
22.9402594961929
20
-6.51880095443994
30
0
41
1
10
22.4599947455494
20
-6.76571216808318
30
0
41
1
10
22.2040029752021
20
-6.89256902846191
30
0
41
1
10
21.6919090631413
20
-7.13688779094861
30
0
41
1
10
21.4360238543911
20
-7.25451653075828
30
0
41
1
10
20.6669117423044
20
-7.59205915013163
30
0
41
1
10
20.151448094165
20
-7.79613726360034
30
0
41
1
10
19.3738146452298
20
-8.06996326892042
30
0
41
1
10
19.1143822641571
20
-8.15573635322465
30
0
41
1
10
18.5971868652096
20
-8.31524666287092
30
0
41
1
10
18.3386011939991
20
-8.38885942376405
30
0
41
1
10
17.5626350796666
20
-8.59131362366452
30
0
41
1
10
17.0445489592957
20
-8.70164752352926
30
0
41
1
10
16.5259068493172
20
-8.7871787652127
30
0
0
SPLINE
5
DC
100
AcDbEntity
8
1
62
256
6
ByLayer
370
18
48
1
60
0
100
AcDbSpline
70
4
71
3
72
20
73
16
40
0
40
0
40
0
40
0
40
0.115491012397682
40
0.115491012397682
40
0.241849439198014
40
0.241849439198014
40
0.368207865998345
40
0.368207865998345
40
0.494566292798677
40
0.494566292798677
40
0.747283146399341
40
0.747283146399341
40
0.87364157319967
40
0.87364157319967
40
1
40
1
40
1
40
1
41
1
10
23.3839687214424
20
6.27588573175228
30
0
41
1
10
23.6441154527887
20
6.41792551954276
30
0
41
1
10
23.9028918481214
20
6.55551855879031
30
0
41
1
10
24.4438009880992
20
6.83262599328992
30
0
41
1
10
24.7263495498772
20
6.97068168118898
30
0
41
1
10
25.2909061465024
20
7.23407057253806
30
0
41
1
10
25.5728597418043
20
7.3594466364481
30
0
41
1
10
26.1357653803757
20
7.59786291579451
30
0
41
1
10
26.4161500382357
20
7.71127502855973
30
0
41
1
10
27.258881079158
20
8.03062080158404
30
0
41
1
10
27.8235301594084
20
8.21556751134247
30
0
41
1
10
28.6718011910938
20
8.45245518399653
30
0
41
1
10
28.9542287782744
20
8.52482644920579
30
0
41
1
10
29.5222105074951
20
8.65437822432037
30
0
41
1
10
29.8081141573234
20
8.71170119048159
30
0
41
1
10
30.0933523387997
20
8.76126236503407
30
0
0
SPLINE
5
DD
100
AcDbEntity
8
1
62
256
6
ByLayer
370
18
48
1
60
0
100
AcDbSpline
70
4
71
3
72
12
73
8
40
0
40
0
40
0
40
0
40
0.25
40
0.25
40
0.5
40
0.5
40
1
40
1
40
1
40
1
41
1
10
72.9757532516053
20
6.55988483592944
30
0
41
1
10
73.1360438810316
20
6.13948936334549
30
0
41
1
10
73.2973086856603
20
5.71953567823005
30
0
41
1
10
73.6207676961161
20
4.88003592573455
30
0
41
1
10
73.7829901246204
20
4.46050298154134
30
0
41
1
10
74.270374677433
20
3.20220566707093
30
0
41
1
10
74.5962804674659
20
2.36375325740943
30
0
41
1
10
74.9218799242705
20
1.5251449966251
30
0
0
SPLINE
5
DE
100
AcDbEntity
8
1
62
256
6
ByLayer
370
18
48
1
60
0
100
AcDbSpline
70
4
71
3
72
36
73
32
40
0
40
0
40
0
40
0
40
0.125
40
0.125
40
0.1875
40
0.1875
40
0.21875
40
0.21875
40
0.25
40
0.25
40
0.375
40
0.375
40
0.40625
40
0.40625
40
0.4375
40
0.4375
40
0.5
40
0.5
40
0.5625
40
0.5625
40
0.59375
40
0.59375
40
0.625
40
0.625
40
0.75
40
0.75
40
0.8125
40
0.8125
40
0.875
40
0.875
40
1
40
1
40
1
40
1
41
1
10
30.0933523387898
20
-8.76126236503237
30
0
41
1
10
30.0425325019229
20
-8.61901307718111
30
0
41
1
10
29.9925974195419
20
-8.41693388476259
30
0
41
1
10
29.9173212575923
20
-8.02680810869569
30
0
41
1
10
29.8920930718314
20
-7.88215390224991
30
0
41
1
10
29.8539849790449
20
-7.64253814984051
30
0
41
1
10
29.8412539500995
20
-7.55899083181609
30
0
41
1
10
29.815959416528
20
-7.38627188098147
30
0
41
1
10
29.8033607581703
20
-7.29688246214741
30
0
41
1
10
29.7405330624711
20
-6.8350314489837
30
0
41
1
10
29.6909695370995
20
-6.41831021734845
30
0
41
1
10
29.6273535255301
20
-5.83764729008632
30
0
41
1
10
29.6145827418101
20
-5.71822049135599
30
0
41
1
10
29.5891685859987
20
-5.4744548484957
30
0
41
1
10
29.5765754916836
20
-5.35056766287377
30
0
41
1
10
29.539226503543
20
-4.97300926542377
30
0
41
1
10
29.5144791569355
20
-4.71348385496827
30
0
41
1
10
29.4639908084681
20
-4.17916206327854
30
0
41
1
10
29.4384145305894
20
-3.90435522738142
30
0
41
1
10
29.4001935312908
20
-3.4804699026129
30
0
41
1
10
29.3875051792944
20
-3.33722288988707
30
0
41
1
10
29.3621934815069
20
-3.04675268113169
30
0
41
1
10
29.3495467403697
20
-2.89934593503298
30
0
41
1
10
29.2867655939938
20
-2.16083868762081
30
0
41
1
10
29.2366646427289
20
-1.55904416591164
30
0
41
1
10
29.1612731811545
20
-0.64026568090415
30
0
41
1
10
29.1365158272686
20
-0.33119914293286
30
0
41
1
10
29.0857425608367
20
0.292158379376161
30
0
41
1
10
29.0603644634993
20
0.601125420239214
30
0
41
1
10
28.9849404862478
20
1.5202372395886
30
0
41
1
10
28.9354573217267
20
2.12265941236635
30
0
41
1
10
28.884634597237
20
2.71435074704513
30
0
0
SPLINE
5
DF
100
AcDbEntity
8
1
62
256
6
ByLayer
370
18
48
1
60
0
100
AcDbSpline
70
4
71
3
72
30
73
26
40
0
40
0
40
0
40
0
40
0.0624999999999976
40
0.0624999999999976
40
0.124999999999995
40
0.124999999999995
40
0.187499999999992
40
0.187499999999992
40
0.24999999999999
40
0.24999999999999
40
0.312499999999987
40
0.312499999999987
40
0.374999999999984
40
0.374999999999984
40
0.499999999999986
40
0.499999999999986
40
0.624999999999988
40
0.624999999999988
40
0.74999999999999
40
0.74999999999999
40
0.874999999999992
40
0.874999999999992
40
0.937499999999996
40
0.937499999999996
40
1
40
1
40
1
40
1
41
1
10
73.9297462295216
20
-1.81058901420684
30
0
41
1
10
73.9250806232113
20
-1.84579464429007
30
0
41
1
10
73.9186557748923
20
-1.88378198159165
30
0
41
1
10
73.902893835205
20
-1.96152670087906
30
0
41
1
10
73.8935337229995
20
-2.00161017252242
30
0
41
1
10
73.8718762797492
20
-2.08420798112954
30
0
41
1
10
73.859523141183
20
-2.126811488664
30
0
41
1
10
73.8329390304321
20
-2.21099680608219
30
0
41
1
10
73.8186016136847
20
-2.25301430556598
30
0
41
1
10
73.7879230744905
20
-2.33691277108545
30
0
41
1
10
73.771734342659
20
-2.37833772989336
30
0
41
1
10
73.7385156829548
20
-2.45844268816566
30
0
41
1
10
73.7213793430535
20
-2.49741316652071
30
0
41
1
10
73.6684742473431
20
-2.6112003427809
30
0
41
1
10
73.632587091565
20
-2.68003762102791
30
0
41
1
10
73.5604675990603
20
-2.80397224520573
30
0
41
1
10
73.5244846922507
20
-2.85838474861572
30
0
41
1
10
73.4567607469788
20
-2.94733824854146
30
0
41
1
10
73.4245012922405
20
-2.98279657202789
30
0
41
1
10
73.363671430201
20
-3.03478717334659
30
0
41
1
10
73.3361918899287
20
-3.05042769277102
30
0
41
1
10
73.299301753207
20
-3.05819372216848
30
0
41
1
10
73.2876569012712
20
-3.0580908649292
30
0
41
1
10
73.266468936435
20
-3.05225684151503
30
0
41
1
10
73.256894494374
20
-3.04658174337044
30
0
41
1
10
73.2483466566057
20
-3.03809806136724
30
0
0
SPLINE
5
E0
100
AcDbEntity
8
1
62
256
6
ByLayer
370
18
48
1
60
0
100
AcDbSpline
70
4
71
3
72
20
73
16
40
0
40
0
40
0
40
0
40
0.172848209149835
40
0.172848209149835
40
0.240898538304002
40
0.240898538304002
40
0.30894886745817
40
0.30894886745817
40
0.445049525766508
40
0.445049525766508
40
0.717250842383185
40
0.717250842383185
40
0.989452158999862
40
0.989452158999862
40
1
40
1
40
1
40
1
41
1
10
53.5469080852831
20
-0.0143735903076276
30
0
41
1
10
54.0788207237425
20
-0.30712177829804
30
0
41
1
10
54.6123599461741
20
-0.600689714507809
30
0
41
1
10
55.3596887278622
20
-1.00829621648779
30
0
41
1
10
55.5714023392478
20
-1.12332472542226
30
0
41
1
10
55.9932730546369
20
-1.35135201150939
30
0
41
1
10
56.2037208788983
20
-1.46451995026959
30
0
41
1
10
56.8338051889624
20
-1.80116615600548
30
0
41
1
10
57.2521683591465
20
-2.02180769811253
30
0
41
1
10
58.503987455241
20
-2.66940668881225
30
0
41
1
10
59.3343280070788
20
-3.08175993014112
30
0
41
1
10
60.9943562385236
20
-3.85565634776839
30
0
41
1
10
61.8240983876449
20
-4.21699654877727
30
0
41
1
10
62.6902389465606
20
-4.55871787904928
30
0
41
1
10
62.7225558401966
20
-4.57141748618778
30
0
41
1
10
62.7548789012466
20
-4.58406847784673
30
0
0
SPLINE
5
E1
100
AcDbEntity
8
1
62
256
6
ByLayer
370
13
48
1
60
0
100
AcDbSpline
70
4
71
3
72
14
73
10
40
0
40
0
40
0
40
0
40
0.116440567822387
40
0.116440567822387
40
0.24266334384776
40
0.24266334384776
40
0.495108895898505
40
0.495108895898505
40
1
40
1
40
1
40
1
41
1
10
62.7548779692683
20
-4.58406811307771
30
0
41
1
10
63.1396253920544
20
-4.73465523743221
30
0
41
1
10
63.5252466497419
20
-4.87835423690009
30
0
41
1
10
64.3317291630326
20
-5.16189148041749
30
0
41
1
10
64.7532719911514
20
-5.30056189416328
30
0
41
1
10
66.0213102525655
20
-5.68635831888389
30
0
41
1
10
66.8597247298229
20
-5.89969733940598
30
0
41
1
10
69.3670996649381
20
-6.4016321804956
30
0
41
1
10
71.0289842148307
20
-6.55206367402715
30
0
41
1
10
72.7146865287036
20
-6.50214625616954
30
0
0
SPLINE
5
E2
100
AcDbEntity
8
1
62
256
6
ByLayer
370
18
48
1
60
0
100
AcDbSpline
70
4
71
3
72
8
73
4
40
0
40
0
40
0
40
0
40
1
40
1
40
1
40
1
41
1
10
74.9218799242705
20
-1.52514499662516
30
0
41
1
10
74.9530104036727
20
-1.06100841169959
30
0
41
1
10
74.9754301649187
20
-0.59731440170259
30
0
41
1
10
74.9891252193356
20
-0.134063677371785
30
0
0
SPLINE
5
E3
100
AcDbEntity
8
1
62
256
6
ByLayer
370
18
48
1
60
0
100
AcDbSpline
70
4
71
3
72
12
73
8
40
0
40
0
40
0
40
0
40
0.25
40
0.25
40
0.5
40
0.5
40
1
40
1
40
1
40
1
41
1
10
72.9757532515998
20
-6.55988483594396
30
0
41
1
10
73.1360409699996
20
-6.13949699813151
30
0
41
1
10
73.2973045677322
20
-5.71954639395037
30
0
41
1
10
73.620762507379
20
-4.88004936436786
30
0
41
1
10
73.7829851233079
20
-4.46051590692534
30
0
41
1
10
74.2703709627034
20
-3.20221523086576
30
0
41
1
10
74.5962772462437
20
-2.36376155393282
30
0
41
1
10
74.9218799242705
20
-1.52514499662513
30
0
0
SPLINE
5
E4
100
AcDbEntity
8
1
62
256
6
ByLayer
370
18
48
1
60
0
100
AcDbSpline
70
4
71
3
72
8
73
4
40
0
40
0
40
0
40
0
40
1
40
1
40
1
40
1
41
1
10
72.7146865288486
20
-6.5021462562442
30
0
41
1
10
72.6819889065609
20
-6.58244574027728
30
0
41
1
10
72.6492254325904
20
-6.66258971283256
30
0
41
1
10
72.6164014946192
20
-6.74258093482652
30
0
0
SPLINE
5
E5
100
AcDbEntity
8
1
62
256
6
ByLayer
370
18
48
1
60
0
100
AcDbSpline
70
4
71
3
72
41
73
37
40
0
40
0
40
0
40
0
40
0.124999999999995
40
0.124999999999995
40
0.24999999999999
40
0.24999999999999
40
0.312499999999988
40
0.312499999999988
40
0.374999999999986
40
0.374999999999986
40
0.499999999999981
40
0.499999999999981
40
0.56249999999998
40
0.56249999999998
40
0.62499999999998
40
0.62499999999998
40
0.749999999999979
40
0.749999999999979
40
0.81249999999998
40
0.81249999999998
40
0.874999999999981
40
0.874999999999981
40
0.890624999999983
40
0.890624999999983
40
0.898437499999984
40
0.898437499999984
40
0.906249999999985
40
0.906249999999985
40
0.910156249999986
40
0.910156249999986
40
0.914062499999986
40
0.914062499999986
40
0.921874999999987
40
0.93749999999999
40
0.93749999999999
40
1
40
1
40
1
40
1
41
1
10
66.315459266256
20
1.44255845910419
30
0
41
1
10
66.6018883417278
20
1.24035311842681
30
0
41
1
10
66.8930906233182
20
1.05366597958431
30
0
41
1
10
67.4853797741189
20
0.71242754978212
30
0
41
1
10
67.7864137412121
20
0.557704268401437
30
0
41
1
10
68.2463842883031
20
0.352992351780245
30
0
41
1
10
68.4017690370989
20
0.289548078603758
30
0
41
1
10
68.7125236835501
20
0.174150170343267
30
0
41
1
10
68.8678694547154
20
0.122056126879016
30
0
41
1
10
69.3338095635554
20
-0.0169585602448024
30
0
41
1
10
69.6443076120368
20
-0.086774383429173
30
0
41
1
10
70.1098276329137
20
-0.151164609294057
30
0
41
1
10
70.2649631205286
20
-0.165903865124534
30
0
41
1
10
70.5751463276711
20
-0.179791246287408
30
0
41
1
10
70.7282913989663
20
-0.178729498958802
30
0
41
1
10
71.1802270810369
20
-0.148077470258329
30
0
41
1
10
71.4726813276347
20
-0.0941785345634116
30
0
41
1
10
71.8954405439101
20
0.0469698212516505
30
0
41
1
10
72.0335576616608
20
0.104308538538845
30
0
41
1
10
72.2989373761847
20
0.23940300059644
30
0
41
1
10
72.4269595769653
20
0.317498062206283
30
0
41
1
10
72.5791763581964
20
0.427982556643428
30
0
41
1
10
72.6090176891847
20
0.451079114994684
30
0
41
1
10
72.6540367423708
20
0.485298989867715
30
0
41
1
10
72.6688275207629
20
0.497492775819211
30
0
41
1
10
72.6889045567848
20
0.532297813307622
30
0
41
1
10
72.6942613900193
20
0.554037810766943
30
0
41
1
10
72.6936575544423
20
0.588736938385239
30
0
41
1
10
72.6921819397766
20
0.600550715605749
30
0
41
1
10
72.6890485077588
20
0.624128894154012
30
0
41
1
10
72.6873949042566
20
0.635922198085126
30
0
41
1
10
72.6828923273278
20
0.671279885991794
30
0
41
1
10
72.6737359709711
20
0.742002158361686
30
0
41
1
10
72.6641370401674
20
0.812749588638525
30
0
41
1
10
72.6312125875425
20
1.04858589506958
30
0
41
1
10
72.601909898909
20
1.23733716373931
30
0
41
1
10
72.5701733444397
20
1.42609096676242
30
0
0
SPLINE
5
E6
100
AcDbEntity
8
1
62
256
6
ByLayer
370
18
48
1
60
0
100
AcDbSpline
70
4
71
3
72
8
73
4
40
0
40
0
40
0
40
0
40
1
40
1
40
1
40
1
41
1
10
74.9999675937965
20
0.0481961118673553
30
0
41
1
10
75.0000108041182
20
0.0160638457039681
30
0
41
1
10
75.0000107998702
20
-0.016067004660556
30
0
41
1
10
74.9999675937964
20
-0.0481961118675258
30
0
0
SPLINE
5
E7
100
AcDbEntity
8
1
62
256
6
ByLayer
370
18
48
1
60
0
100
AcDbSpline
70
4
71
3
72
26
73
22
40
0
40
0
40
0
40
0
40
0.0373513510454407
40
0.0651327674127943
40
0.127626990607703
40
0.204010755198293
40
0.280446281789571
40
0.34304853878007
40
0.398756669349944
40
0.426640725224232
40
0.510408836738681
40
0.538349272607849
40
0.59423429519851
40
0.629156621326812
40
0.705933439626203
40
0.747767315831249
40
0.831299095976832
40
0.928365779610486
40
0.969742463225792
40
0.983494200259725
40
1
40
1
40
1
40
1
41
1
10
31.4118987003243
20
0.287536908628653
30
0
41
1
10
31.4257669614681
20
0.15737424059995
30
0
41
1
10
31.4499535661877
20
-0.0699692950286988
30
0
41
1
10
31.4973570615096
20
-0.515365036120755
30
0
41
1
10
31.5592750208429
20
-1.09503540505213
30
0
41
1
10
31.6392732973831
20
-1.83157705231278
30
0
41
1
10
31.7192532858376
20
-2.54388325170791
30
0
41
1
10
31.7914785601437
20
-3.15903075966173
30
0
41
1
10
31.8456418098331
20
-3.59807143422657
30
0
41
1
10
31.9075751764109
20
-4.07931984668747
30
0
41
1
10
31.9591405940014
20
-4.45535278615137
30
0
41
1
10
32.0210341066216
20
-4.87209900777256
30
0
41
1
10
32.0648819153746
20
-5.1480283046715
30
0
41
1
10
32.126775290533
20
-5.50545567609302
30
0
41
1
10
32.1835140744927
20
-5.79567154321921
30
0
41
1
10
32.2583015404741
20
-6.12127588030844
30
0
41
1
10
32.3407160035543
20
-6.41094865717835
30
0
41
1
10
32.423238785518
20
-6.59668847785062
30
0
41
1
10
32.4801604302321
20
-6.66639392242666
30
0
41
1
10
32.5070351967358
20
-6.68827840625664
30
0
41
1
10
32.5184075697595
20
-6.6949634350635
30
0
41
1
10
32.5246181032852
20
-6.6978453151431
30
0
0
SPLINE
5
E8
100
AcDbEntity
8
1
62
256
6
ByLayer
370
18
48
1
60
0
100
AcDbSpline
70
4
71
3
72
14
73
10
40
0
40
0
40
0
40
0
40
0.25
40
0.25
40
0.5
40
0.5
40
0.75
40
0.75
40
1
40
1
40
1
40
1
41
1
10
72.5701733444398
20
1.42609096676242
30
0
41
1
10
72.566800603729
20
1.44615041071981
30
0
41
1
10
72.567810341621
20
1.46703610125022
30
0
41
1
10
72.581947160147
20
1.50508180149424
30
0
41
1
10
72.5954144430431
20
1.52202139676237
30
0
41
1
10
72.628748006613
20
1.54630791416264
30
0
41
1
10
72.6483070390314
20
1.55413141424074
30
0
41
1
10
72.6882356843986
20
1.5634091753293
30
0
41
1
10
72.7089474796931
20
1.56499516357874
30
0
41
1
10
72.729507520277
20
1.564455805329
30
0
0
SPLINE
5
E9
100
AcDbEntity
8
1
62
256
6
ByLayer
370
18
48
1
60
0
100
AcDbSpline
70
4
71
3
72
26
73
22
40
0
40
0
40
0
40
0
40
0.125
40
0.125
40
0.25
40
0.25
40
0.312500000000002
40
0.312500000000002
40
0.375000000000003
40
0.375000000000003
40
0.500000000000003
40
0.500000000000003
40
0.562500000000001
40
0.562500000000001
40
0.625
40
0.625
40
0.75
40
0.75
40
0.875
40
0.875
40
1
40
1
40
1
40
1
41
1
10
66.3154592662561
20
1.44255845910419
30
0
41
1
10
66.3703217199388
20
1.05651252187968
30
0
41
1
10
66.4728897049896
20
0.673696052211483
30
0
41
1
10
66.7607335345051
20
-0.0834003305920987
30
0
41
1
10
66.9395693216832
20
-0.441761269672554
30
0
41
1
10
67.2476148836296
20
-0.956294954141725
30
0
41
1
10
67.3575815498272
20
-1.12463436322037
30
0
41
1
10
67.5860544987086
20
-1.4492037890225
30
0
41
1
10
67.7046928583795
20
-1.60580008938047
30
0
41
1
10
68.0719501168458
20
-2.06093186231536
30
0
41
1
10
68.3317086599748
20
-2.34507193627559
30
0
41
1
10
68.7396882143009
20
-2.74757961602208
30
0
41
1
10
68.8788940324363
20
-2.87774843250188
30
0
41
1
10
69.1629184015799
20
-3.13021527046735
30
0
41
1
10
69.3065299892188
20
-3.25151897376725
30
0
41
1
10
69.7415212478312
20
-3.60261884024664
30
0
41
1
10
70.0370440964819
20
-3.81964480909991
30
0
41
1
10
70.6373973208491
20
-4.22500888000607
30
0
41
1
10
70.9422431590312
20
-4.41329932330379
30
0
41
1
10
71.5602213861096
20
-4.76433921910356
30
0
41
1
10
71.8733462950218
20
-4.92711172657891
30
0
41
1
10
72.1903640465679
20
-5.07788562796213
30
0
0
SPLINE
5
EA
100
AcDbEntity
8
1
62
256
6
ByLayer
370
18
48
1
60
0
100
AcDbSpline
70
4
71
3
72
87
73
83
40
0
40
0
40
0
40
0
40
0.0624999999999987
40
0.0624999999999987
40
0.093749999999998
40
0.093749999999998
40
0.124999999999997
40
0.124999999999997
40
0.187499999999997
40
0.187499999999997
40
0.249999999999996
40
0.249999999999996
40
0.312499999999995
40
0.312499999999995
40
0.343749999999995
40
0.343749999999995
40
0.374999999999994
40
0.374999999999994
40
0.390624999999994
40
0.390624999999994
40
0.406249999999994
40
0.406249999999994
40
0.437499999999993
40
0.437499999999993
40
0.468749999999993
40
0.468749999999993
40
0.484374999999992
40
0.484374999999992
40
0.499999999999992
40
0.499999999999992
40
0.507812499999992
40
0.507812499999992
40
0.515624999999992
40
0.515624999999992
40
0.531249999999992
40
0.531249999999992
40
0.546874999999992
40
0.546874999999992
40
0.554687499999992
40
0.554687499999992
40
0.562499999999992
40
0.562499999999992
40
0.578124999999992
40
0.578124999999992
40
0.585937499999992
40
0.585937499999992
40
0.593749999999992
40
0.593749999999992
40
0.609374999999992
40
0.609374999999992
40
0.624999999999992
40
0.624999999999992
40
0.656249999999992
40
0.656249999999992
40
0.671874999999992
40
0.671874999999992
40
0.679687499999992
40
0.679687499999992
40
0.683593749999991
40
0.683593749999991
40
0.685546874999991
40
0.685546874999991
40
0.687499999999991
40
0.687499999999991
40
0.691406249999991
40
0.691406249999991
40
0.695312499999991
40
0.703124999999991
40
0.703124999999991
40
0.718749999999992
40
0.718749999999992
40
0.749999999999993
40
0.749999999999993
40
0.781249999999994
40
0.781249999999994
40
0.812499999999994
40
0.812499999999994
40
0.874999999999996
40
0.874999999999996
40
0.937499999999998
40
0.937499999999998
40
1
40
1
40
1
40
1
41
1
10
16.5259068493172
20
-8.78717876521273
30
0
41
1
10
15.9211027575271
20
-8.88355350119133
30
0
41
1
10
15.3281595925944
20
-8.94966650258863
30
0
41
1
10
14.4454503245926
20
-8.99559772337076
30
0
41
1
10
14.1523430957436
20
-9.00209409822335
30
0
41
1
10
13.5668126053376
20
-8.99672504720962
30
0
41
1
10
13.2739239105932
20
-8.9848005799762
30
0
41
1
10
12.4010168859797
20
-8.92142403387822
30
0
41
1
10
11.8247636346311
20
-8.8425049517883
30
0
41
1
10
10.6758960938276
20
-8.61382760191023
30
0
41
1
10
10.1032752425442
20
-8.46423822616595
30
0
41
1
10
8.95942625509198
20
-8.09392363235801
30
0
41
1
10
8.38816261810015
20
-7.87345150323736
30
0
41
1
10
7.53505923781836
20
-7.4824429581617
30
0
41
1
10
7.25132586388699
20
-7.34186635017514
30
0
41
1
10
6.69211030357394
20
-7.04083711981329
30
0
41
1
10
6.41593427222782
20
-6.88011167497618
30
0
41
1
10
6.00861071242696
20
-6.62123551666062
30
0
41
1
10
5.87400104475225
20
-6.53196555171508
30
0
41
1
10
5.60753681279448
20
-6.34684799822165
30
0
41
1
10
5.47549418838281
20
-6.25085193237985
30
0
41
1
10
5.08636000606975
20
-5.95337570802872
30
0
41
1
10
4.83579589074796
20
-5.74236781818999
30
0
41
1
10
4.35928084779871
20
-5.28804441086436
30
0
41
1
10
4.13318793875052
20
-5.04488643197664
30
0
41
1
10
3.821741024869
20
-4.64631884627036
30
0
41
1
10
3.7222698511755
20
-4.50717211981995
30
0
41
1
10
3.53817913226445
20
-4.21942931025552
30
0
41
1
10
3.45326239988606
20
-4.07056976157767
30
0
41
1
10
3.33891627491335
20
-3.83839161184261
30
0
41
1
10
3.30298680282851
20
-3.75950977196277
30
0
41
1
10
3.23602436120984
20
-3.59845207262077
30
0
41
1
10
3.20489258816207
20
-3.51596358711538
30
0
41
1
10
3.1206821319322
20
-3.26572454368065
30
0
41
1
10
3.07670129317299
20
-3.09537154884592
30
0
41
1
10
3.0164310070254
20
-2.74689411406703
30
0
41
1
10
3.00014162109042
20
-2.56877073873832
30
0
41
1
10
2.99993421803208
20
-2.29500893096298
30
0
41
1
10
3.00398094466939
20
-2.20258266982111
30
0
41
1
10
3.02021066384614
20
-2.01997067836075
30
0
41
1
10
3.03238168558121
20
-1.92922972954045
30
0
41
1
10
3.08087063291163
20
-1.65871020371756
30
0
41
1
10
3.12915547821808
20
-1.48063419244175
30
0
41
1
10
3.22492922874267
20
-1.21697211081826
30
0
41
1
10
3.26094106556687
20
-1.12929514253793
30
0
41
1
10
3.33912250596629
20
-0.958270493759755
30
0
41
1
10
3.38136439266728
20
-0.874610164994778
30
0
41
1
10
3.51672600567409
20
-0.628715321735939
30
0
41
1
10
3.61849122848491
20
-0.471574132984273
30
0
41
1
10
3.84175378537964
20
-0.168966398653907
30
0
41
1
10
3.96400912180286
20
-0.0228697855635289
30
0
41
1
10
4.34814875599639
20
0.390896211797383
30
0
41
1
10
4.62876518554248
20
0.637461142623835
30
0
41
1
10
5.07579854744745
20
0.976342055170335
30
0
41
1
10
5.22924575917929
20
1.0840388925179
30
0
41
1
10
5.46529706606145
20
1.23863117324967
30
0
41
1
10
5.54485465883181
20
1.28892688177126
30
0
41
1
10
5.66522576887104
20
1.36251756048702
30
0
41
1
10
5.70553978814394
20
1.38674988328958
30
0
41
1
10
5.76624437880338
20
1.42264050403506
30
0
41
1
10
5.78600430272334
20
1.43548659635385
30
0
41
1
10
5.82803888544083
20
1.45647740110624
30
0
41
1
10
5.85129611746106
20
1.46370616170952
30
0
41
1
10
5.92123234787039
20
1.47653950935089
30
0
41
1
10
5.96846265220546
20
1.47189600028827
30
0
41
1
10
6.06266791297492
20
1.46816955823485
30
0
41
1
10
6.20394917398335
20
1.46209645874788
30
0
41
1
10
6.34514599229436
20
1.45457501772873
30
0
41
1
10
6.62742778148623
20
1.43760401162166
30
0
41
1
10
6.81551903923275
20
1.42371456092386
30
0
41
1
10
7.37851520554486
20
1.37441336349255
30
0
41
1
10
7.75237602853008
20
1.33137843686828
30
0
41
1
10
8.49720251804237
20
1.22516131025443
30
0
41
1
10
8.86816977591212
20
1.16199012585807
30
0
41
1
10
9.60723203266386
20
1.01548303043691
30
0
41
1
10
9.97474971403952
20
0.932216245979845
30
0
41
1
10
11.0644080285048
20
0.655199359364502
30
0
41
1
10
11.7763274379766
20
0.433398399332305
30
0
41
1
10
13.1738535481833
20
-0.0768650560104334
30
0
41
1
10
13.8594205827576
20
-0.365426512602568
30
0
41
1
10
15.208100324554
20
-0.998654212364272
30
0
41
1
10
15.871225313539
20
-1.34328611952338
30
0
41
1
10
16.525906849317
20
-1.70851379722026
30
0
0
SPLINE
5
EB
100
AcDbEntity
8
1
62
256
6
ByLayer
370
18
48
1
60
0
100
AcDbSpline
70
4
71
3
72
12
73
8
40
0
40
0
40
0
40
0
40
0.25
40
0.25
40
0.5
40
0.5
40
1
40
1
40
1
40
1
41
1
10
72.7295075202775
20
1.564455805325
30
0
41
1
10
72.9124004813602
20
1.55965791463245
30
0
41
1
10
73.0952602808616
20
1.5551185069888
30
0
41
1
10
73.4606857756233
20
1.54833213247372
30
0
41
1
10
73.6433653409995
20
1.54519758745846
30
0
41
1
10
74.1914266920837
20
1.53561736487561
30
0
41
1
10
74.5567902030552
20
1.52931413255322
30
0
41
1
10
74.9218799242705
20
1.5251449966251
30
0
0
SPLINE
5
EC
100
AcDbEntity
8
1
62
256
6
ByLayer
370
18
48
1
60
0
100
AcDbSpline
70
4
71
3
72
8
73
4
40
0
40
0
40
0
40
0
40
1
40
1
40
1
40
1
41
1
10
72.9757532516053
20
6.55988483592941
30
0
41
1
10
72.8419122421153
20
6.66087015464811
30
0
41
1
10
72.7224417326811
20
6.72250126297502
30
0
41
1
10
72.6164014946192
20
6.74258093482655
30
0
0
SPLINE
5
ED
100
AcDbEntity
8
1
62
256
6
ByLayer
370
18
48
1
60
0
100
AcDbSpline
70
4
71
3
72
64
73
60
40
0
40
0
40
0
40
0
40
0.0021299799186875
40
0.0021299799186875
40
0.040509596075661
40
0.040509596075661
40
0.0788892122326344
40
0.0788892122326344
40
0.117268828389608
40
0.117268828389608
40
0.155648444546581
40
0.155648444546581
40
0.194028060703555
40
0.194028060703555
40
0.232407676860528
40
0.232407676860528
40
0.270787293017502
40
0.270787293017502
40
0.309166909174475
40
0.309166909174475
40
0.347546525331448
40
0.347546525331448
40
0.385926141488422
40
0.385926141488422
40
0.424305757645395
40
0.424305757645395
40
0.462685373802369
40
0.462685373802369
40
0.501064989959342
40
0.501064989959342
40
0.539444606116316
40
0.539444606116316
40
0.577824222273289
40
0.577824222273289
40
0.597014030351776
40
0.597014030351776
40
0.616203838430262
40
0.616203838430262
40
0.654583454587236
40
0.654583454587236
40
0.692963070744209
40
0.692963070744209
40
0.731342686901183
40
0.731342686901183
40
0.769722303058156
40
0.769722303058156
40
0.808101919215129
40
0.808101919215129
40
0.846481535372103
40
0.846481535372103
40
0.865671343450589
40
0.865671343450589
40
0.884861151529076
40
0.884861151529076
40
0.923240767686051
40
0.923240767686051
40
0.961620383843025
40
0.961620383843025
40
1
40
1
40
1
40
1
41
1
10
60.0178238571971
20
-4.41258564348283
30
0
41
1
10
59.9982191093301
20
-4.42031425885594
30
0
41
1
10
59.978615235347
20
-4.42802236716318
30
0
41
1
10
59.6057912349809
20
-4.57422131862566
30
0
41
1
10
59.2528141626541
20
-4.70662497185083
30
0
41
1
10
58.5471534703356
20
-4.95794433078288
30
0
41
1
10
58.1949052585347
20
-5.07705059082537
30
0
41
1
10
57.4896353030484
20
-5.29939288752917
30
0
41
1
10
57.1365025579646
20
-5.4038071210951
30
0
41
1
10
56.4291370705601
20
-5.59926513805294
30
0
41
1
10
56.074966322805
20
-5.68980088522397
30
0
41
1
10
55.371050553808
20
-5.85447705584517
30
0
41
1
10
55.0198842823602
20
-5.929039506339
30
0
41
1
10
54.3185841799877
20
-6.06234874473029
30
0
41
1
10
53.968472149934
20
-6.12085971453217
30
0
41
1
10
53.2694794792637
20
-6.22027969832621
30
0
41
1
10
52.9209616733921
20
-6.26176527460723
30
0
41
1
10
52.2230538056893
20
-6.32912826722426
30
0
41
1
10
51.8739967504517
20
-6.35496541012262
30
0
41
1
10
51.1754037266668
20
-6.38881703850683
30
0
41
1
10
50.8262542446943
20
-6.39696317289
30
0
41
1
10
50.1268789155843
20
-6.39774984749235
30
0
41
1
10
49.7764601513134
20
-6.39022374524515
30
0
41
1
10
49.0736777710786
20
-6.35713108430369
30
0
41
1
10
48.7211730348144
20
-6.33135040465234
30
0
41
1
10
48.0151579345875
20
-6.26358171142562
30
0
41
1
10
47.6611813807207
20
-6.22172514496035
30
0
41
1
10
46.9547867068097
20
-6.12097176177477
30
0
41
1
10
46.6017877519828
20
-6.06149058407516
30
0
41
1
10
45.89628790549
20
-5.92867044133769
30
0
41
1
10
45.5442593626996
20
-5.85426249420885
30
0
41
1
10
44.8386419113792
20
-5.6894495554676
30
0
41
1
10
44.4852971681359
20
-5.59846282010992
30
0
41
1
10
43.9545089334632
20
-5.45209181451477
30
0
41
1
10
43.7773899214331
20
-5.40165614638613
30
0
41
1
10
43.4240560686711
20
-5.29677233817475
30
0
41
1
10
43.2476285798656
20
-5.2424306329554
30
0
41
1
10
42.718313961327
20
-5.07435946809227
30
0
41
1
10
42.365543208161
20
-4.95506110524428
30
0
41
1
10
41.6598843612363
20
-4.70482478088297
30
0
41
1
10
41.3069852421101
20
-4.57412078604403
30
0
41
1
10
40.6017788496344
20
-4.29823254453694
30
0
41
1
10
40.2486668156095
20
-4.15396758243097
30
0
41
1
10
39.5408621064012
20
-3.85522877922833
30
0
41
1
10
39.1869910736045
20
-3.70159821192007
30
0
41
1
10
38.4805930613241
20
-3.38377345544652
30
0
41
1
10
38.1282898484311
20
-3.21871821800374
30
0
41
1
10
37.4224648131717
20
-2.8824816386165
30
0
41
1
10
37.069310961381
20
-2.71108595675102
30
0
41
1
10
36.5390651734096
20
-2.44843829503463
30
0
41
1
10
36.3621929161585
20
-2.36004513327055
30
0
41
1
10
36.008597103786
20
-2.18051800152716
30
0
41
1
10
35.831784008826
20
-2.08971316437174
30
0
41
1
10
35.3016467910853
20
-1.81638154777434
30
0
41
1
10
34.9483663002837
20
-1.63248568388016
30
0
41
1
10
34.2419847027397
20
-1.26108941901717
30
0
41
1
10
33.8888439004054
20
-1.07351959246236
30
0
41
1
10
33.1832006143877
20
-0.694006865478599
30
0
41
1
10
32.8300120660424
20
-0.503449290745692
30
0
41
1
10
32.4761712154017
20
-0.312514397129547
30
0
0
SPLINE
5
EE
100
AcDbEntity
8
1
62
256
6
ByLayer
370
18
48
1
60
0
100
AcDbSpline
70
4
71
3
72
12
73
8
40
0
40
0
40
0
40
0
40
0.249999999999998
40
0.249999999999998
40
0.499999999999996
40
0.499999999999996
40
1
40
1
40
1
40
1
41
1
10
32.5246181032846
20
6.69784531514307
30
0
41
1
10
32.3204359464391
20
6.88346501763522
30
0
41
1
10
32.1168038789123
20
7.06570544253267
30
0
41
1
10
31.7104995672535
20
7.42308302388622
30
0
41
1
10
31.5078769958351
20
7.59811765922939
30
0
41
1
10
30.9006361428416
20
8.113172019095
30
0
41
1
10
30.4962521782515
20
8.4442549670851
30
0
41
1
10
30.0933523388007
20
8.76126236502344
30
0
0
SPLINE
5
EF
100
AcDbEntity
8
1
62
256
6
ByLayer
370
18
48
1
60
0
100
AcDbSpline
70
4
71
3
72
12
73
8
40
0
40
0
40
0
40
0
40
0.637896420479659
40
0.637896420479659
40
0.956844630719491
40
0.956844630719491
40
1
40
1
40
1
40
1
41
1
10
72.7233820092878
20
-6.4078269795192
30
0
41
1
10
71.0374128260568
20
-6.44156764547512
30
0
41
1
10
69.374716968512
20
-6.278060970132
30
0
41
1
10
66.866187123222
20
-5.76211998366793
30
0
41
1
10
66.0274098197066
20
-5.54504937795249
30
0
41
1
10
65.0674202383814
20
-5.25006433849669
30
0
41
1
10
64.9531425099885
20
-5.21420377304514
30
0
41
1
10
64.838990875816
20
-5.17765729445298
30
0
0
SPLINE
5
F0
100
AcDbEntity
8
1
62
256
6
ByLayer
370
13
48
1
60
0
100
AcDbSpline
70
4
71
3
72
22
73
18
40
0
40
0
40
0
40
0
40
0.144756448790212
40
0.144756448790212
40
0.479571650885866
40
0.479571650885866
40
0.563275451409779
40
0.563275451409779
40
0.605127351671737
40
0.605127351671737
40
0.646979251933695
40
0.646979251933695
40
0.814386852981529
40
0.814386852981529
40
0.981794454029364
40
0.981794454029364
40
1
40
1
40
1
40
1
41
1
10
64.8389905141959
20
-5.17765717867763
30
0
41
1
10
64.1094822574469
20
-4.94409977759162
30
0
41
1
10
63.3851238119685
20
-4.68252901215365
30
0
41
1
10
60.9960389841954
20
-3.73909938259212
30
0
41
1
10
59.3434496549236
20
-2.95551235358144
30
0
41
1
10
57.2560269607487
20
-1.88567851825067
30
0
41
1
10
56.8374666378786
20
-1.66719222553974
30
0
41
1
10
56.207121813075
20
-1.33417321747098
30
0
41
1
10
55.9965919939201
20
-1.22228044461406
30
0
41
1
10
55.5745678498341
20
-0.996941343374516
30
0
41
1
10
55.3628484264066
20
-0.883360485057722
30
0
41
1
10
54.3075744871323
20
-0.315315733537062
30
0
41
1
10
53.469768521088
20
0.141091653892119
30
0
41
1
10
51.798934093298
20
1.04296494074359
30
0
41
1
10
50.9655579924201
20
1.48774171812542
30
0
41
1
10
50.0396237168238
20
1.9663739425626
30
0
41
1
10
49.9487798419456
20
2.01315640924551
30
0
41
1
10
49.8579056422664
20
2.05976611706802
30
0
0
SPLINE
5
F1
100
AcDbEntity
8
1
62
256
6
ByLayer
370
18
48
1
60
0
100
AcDbSpline
70
4
71
3
72
18
73
14
40
0
40
0
40
0
40
0
40
0.25
40
0.25
40
0.375
40
0.375
40
0.499999999999999
40
0.499999999999999
40
0.75
40
0.75
40
0.875
40
0.875
40
1
40
1
40
1
40
1
41
1
10
72.1903640465678
20
-5.0778856279621
30
0
41
1
10
72.1904749627006
20
-5.30675608438054
30
0
41
1
10
72.2012856383748
20
-5.50739572825233
30
0
41
1
10
72.2340667100376
20
-5.76672697139293
30
0
41
1
10
72.2477754744295
20
-5.84619346785365
30
0
41
1
10
72.2811083324985
20
-5.99080769060066
30
0
41
1
10
72.3005784229609
20
-6.05517553158671
30
0
41
1
10
72.3669958865703
20
-6.22377641490559
30
0
41
1
10
72.4220511393951
20
-6.30441825866939
30
0
41
1
10
72.5220492767654
20
-6.37878118268563
30
0
41
1
10
72.5584270723216
20
-6.39577946704617
30
0
41
1
10
72.6368103172249
20
-6.41371681257777
30
0
41
1
10
72.6787005657349
20
-6.41469226427432
30
0
41
1
10
72.7233820092519
20
-6.40782697951886
30
0
0
SPLINE
5
F2
100
AcDbEntity
8
1
62
256
6
ByLayer
370
18
48
1
60
0
100
AcDbSpline
70
4
71
3
72
54
73
50
40
0
40
0
40
0
40
0
40
0.0329886066639973
40
0.0329886066639973
40
0.0659772133279945
40
0.0659772133279945
40
0.131954426655989
40
0.131954426655989
40
0.164943033319987
40
0.164943033319987
40
0.197931639983984
40
0.197931639983984
40
0.230920246647982
40
0.230920246647982
40
0.26390885331198
40
0.26390885331198
40
0.329886066639976
40
0.329886066639976
40
0.362874673303974
40
0.362874673303974
40
0.395863279967972
40
0.395863279967972
40
0.461840493295968
40
0.461840493295968
40
0.527817706623964
40
0.527817706623964
40
0.560806313287962
40
0.560806313287962
40
0.59379491995196
40
0.59379491995196
40
0.659772133279957
40
0.659772133279957
40
0.725749346607953
40
0.725749346607953
40
0.758737953271951
40
0.758737953271951
40
0.791726559935949
40
0.791726559935949
40
0.857703773263945
40
0.857703773263945
40
0.890692379927943
40
0.890692379927943
40
0.923680986591942
40
0.923680986591942
40
0.95666959325594
40
0.95666959325594
40
0.989658199919939
40
0.989658199919939
40
1
40
1
40
1
40
1
41
1
10
72.6164014946192
20
-6.74258093482655
30
0
41
1
10
72.201701345845
20
-6.75327257574682
30
0
41
1
10
71.787035879927
20
-6.75146177575692
30
0
41
1
10
70.9567827583701
20
-6.7228620237974
30
0
41
1
10
70.5417776556187
20
-6.69606485959559
30
0
41
1
10
69.2992002931734
20
-6.57898519493975
30
0
41
1
10
68.4725585949539
20
-6.45197601562492
30
0
41
1
10
67.2284722219129
20
-6.19088851452861
30
0
41
1
10
66.8129400743584
20
-6.09204818787904
30
0
41
1
10
65.9841075540605
20
-5.87282708947052
30
0
41
1
10
65.5702230277592
20
-5.75232576573512
30
0
41
1
10
64.7424011704718
20
-5.49062532549706
30
0
41
1
10
64.3284534097856
20
-5.34943800830465
30
0
41
1
10
63.4994319399003
20
-5.0474011267147
30
0
41
1
10
63.0838378494674
20
-4.88628946480571
30
0
41
1
10
61.8398849621304
20
-4.37799145676186
30
0
41
1
10
61.0131672096772
20
-4.00533664310558
30
0
41
1
10
59.7700821319028
20
-3.40534516554163
30
0
41
1
10
59.354651448841
20
-3.19823585881497
30
0
41
1
10
58.5246001993796
20
-2.77340167675979
30
0
41
1
10
58.1103672831631
20
-2.55580451656039
30
0
41
1
10
56.8683547638166
20
-1.89028209035064
30
0
41
1
10
56.0406254519747
20
-1.42982238000261
30
0
41
1
10
54.3793615569767
20
-0.491297039629984
30
0
41
1
10
53.5520479289841
20
-0.0171948267982884
30
0
41
1
10
52.3097674422398
20
0.690147307884473
30
0
41
1
10
51.8953642502191
20
0.925131972695993
30
0
41
1
10
51.0648475246644
20
1.39158928232356
30
0
41
1
10
50.6501860394993
20
1.62240923700745
30
0
41
1
10
49.411930249033
20
2.30162754592274
30
0
41
1
10
48.591429388593
20
2.73759096616905
30
0
41
1
10
46.9522904649236
20
3.56332199020204
30
0
41
1
10
46.133485544598
20
3.95281501471206
30
0
41
1
10
44.9001535480882
20
4.49233433583302
30
0
41
1
10
44.4881432728084
20
4.66465718001672
30
0
41
1
10
43.6613057751328
20
4.99269703308232
30
0
41
1
10
43.2455790343244
20
5.14871620611007
30
0
41
1
10
42.0006273322491
20
5.58628406504815
30
0
41
1
10
41.1734832482325
20
5.83770123305237
30
0
41
1
10
39.9302282331309
20
6.14835548448457
30
0
41
1
10
39.5150481966627
20
6.24088970573254
30
0
41
1
10
38.6842350997101
20
6.40255352977908
30
0
41
1
10
38.2694877397809
20
6.47151331552124
30
0
41
1
10
37.4401985267659
20
6.58525388913367
30
0
41
1
10
37.0256759969277
20
6.63003936227852
30
0
41
1
10
36.1956476884641
20
6.69497382697475
30
0
41
1
10
35.7797976599875
20
6.7151159567409
30
0
41
1
10
35.2347132837336
20
6.72513779331803
30
0
41
1
10
35.1046608189173
20
6.72630485569348
30
0
41
1
10
34.9746356941953
20
6.72624876501075
30
0
0
SPLINE
5
F3
100
AcDbEntity
8
1
62
256
6
ByLayer
370
18
48
1
60
0
100
AcDbSpline
70
4
71
3
72
24
73
20
40
0
40
0
40
0
40
0
40
0.125
40
0.125
40
0.25
40
0.25
40
0.375
40
0.375
40
0.5
40
0.5
40
0.625
40
0.625
40
0.75
40
0.75
40
0.8125
40
0.8125
40
0.875
40
0.875
40
1
40
1
40
1
40
1
41
1
10
32.4761712154016
20
-6.55536955372179
30
0
41
1
10
32.4761712154016
20
-6.47838905025679
30
0
41
1
10
32.4761712154017
20
-6.37264126652889
30
0
41
1
10
32.4761712154016
20
-6.10588231998847
30
0
41
1
10
32.4761712154016
20
-5.94440684333219
30
0
41
1
10
32.4761712154016
20
-5.56445529950076
30
0
41
1
10
32.4761712154017
20
-5.35101220112026
30
0
41
1
10
32.4761712154017
20
-4.87863556219693
30
0
41
1
10
32.4761712154016
20
-4.61970595666043
30
0
41
1
10
32.4761712154017
20
-4.0549229709035
30
0
41
1
10
32.4761712154016
20
-3.75590622533062
30
0
41
1
10
32.4761712154016
20
-3.12867688072208
30
0
41
1
10
32.4761712154017
20
-2.80005600780305
30
0
41
1
10
32.4761712154017
20
-2.28376672058479
30
0
41
1
10
32.4761712154017
20
-2.1087318536207
30
0
41
1
10
32.4761712154016
20
-1.7569786647073
30
0
41
1
10
32.4761712154017
20
-1.57964820850157
30
0
41
1
10
32.4761712154017
20
-1.04335560928095
30
0
41
1
10
32.4761712154017
20
-0.680098467144575
30
0
41
1
10
32.4761712154016
20
-0.310956103076677
30
0
0
SPLINE
5
F4
100
AcDbEntity
8
1
62
256
6
ByLayer
370
18
48
1
60
0
100
AcDbSpline
70
4
71
3
72
8
73
4
40
0
40
0
40
0
40
0
40
1
40
1
40
1
40
1
41
1
10
72.9757532516043
20
-6.55988483593018
30
0
41
1
10
72.8419122421147
20
-6.66087015464842
30
0
41
1
10
72.7224417326809
20
-6.72250126297507
30
0
41
1
10
72.6164014946192
20
-6.74258093482655
30
0
0
SPLINE
5
F5
100
AcDbEntity
8
1
62
256
6
ByLayer
370
18
48
1
60
0
100
AcDbSpline
70
4
71
3
72
46
73
42
40
0
40
0
40
0
40
0
40
0.125000000000014
40
0.125000000000014
40
0.187500000000019
40
0.187500000000019
40
0.250000000000023
40
0.250000000000023
40
0.312500000000028
40
0.312500000000028
40
0.34375000000003
40
0.34375000000003
40
0.375000000000033
40
0.375000000000033
40
0.390625000000032
40
0.390625000000032
40
0.406250000000031
40
0.406250000000031
40
0.43750000000003
40
0.43750000000003
40
0.453125000000029
40
0.453125000000029
40
0.468750000000028
40
0.468750000000028
40
0.500000000000027
40
0.500000000000027
40
0.531250000000025
40
0.531250000000025
40
0.562500000000023
40
0.562500000000023
40
0.62500000000002
40
0.62500000000002
40
0.687500000000017
40
0.687500000000017
40
0.750000000000013
40
0.750000000000013
40
0.81250000000001
40
0.81250000000001
40
0.875000000000007
40
0.875000000000007
40
1
40
1
40
1
40
1
41
1
10
73.2483466566059
20
-3.03809806136704
30
0
41
1
10
73.0357264592701
20
-2.97973780671955
30
0
41
1
10
72.823517451554
20
-2.90164030419831
30
0
41
1
10
72.5068301322588
20
-2.75396203090165
30
0
41
1
10
72.4025818686328
20
-2.70002440585739
30
0
41
1
10
72.1970386392532
20
-2.58156110538158
30
0
41
1
10
72.0957297341234
20
-2.51708540486797
30
0
41
1
10
71.896896281553
20
-2.37456646963841
30
0
41
1
10
71.7993590524881
20
-2.29658456321957
30
0
41
1
10
71.660756786995
20
-2.16693390493035
30
0
41
1
10
71.615519125334
20
-2.12123831369294
30
0
41
1
10
71.5296560506997
20
-2.02511436712521
30
0
41
1
10
71.4890312055729
20
-1.97480403686674
30
0
41
1
10
71.4332057260741
20
-1.89435602812887
30
0
41
1
10
71.4154591315228
20
-1.86669992363235
30
0
41
1
10
71.3822411414893
20
-1.80917005433895
30
0
41
1
10
71.3666414997925
20
-1.77901385620356
30
0
41
1
10
71.3258467557989
20
-1.68646292812872
30
0
41
1
10
71.3062137922822
20
-1.62055863546516
30
0
41
1
10
71.2989335707428
20
-1.52417420178506
30
0
41
1
10
71.3002780427702
20
-1.49186324567594
30
0
41
1
10
71.3108420190804
20
-1.43219859710572
30
0
41
1
10
71.3200947688568
20
-1.40403830169376
30
0
41
1
10
71.357481572027
20
-1.32759854433095
30
0
41
1
10
71.3944990261882
20
-1.28792669294629
30
0
41
1
10
71.47739337784
20
-1.22636816089545
30
0
41
1
10
71.5239202552392
20
-1.20374118755009
30
0
41
1
10
71.6204513801918
20
-1.16930075340187
30
0
41
1
10
71.6703032868359
20
-1.1575230212591
30
0
41
1
10
71.8229328302088
20
-1.13273560556081
30
0
41
1
10
71.9292452399374
20
-1.13023323319638
30
0
41
1
10
72.1411938983678
20
-1.14114985754114
30
0
41
1
10
72.2476641033037
20
-1.15471317592994
30
0
41
1
10
72.4613010194956
20
-1.19322409271319
30
0
41
1
10
72.5684731487496
20
-1.21826024738598
30
0
41
1
10
72.7834063552204
20
-1.27795881326864
30
0
41
1
10
72.8906757863045
20
-1.31252975091374
30
0
41
1
10
73.1030047040327
20
-1.38954047174303
30
0
41
1
10
73.2083653070862
20
-1.4320699160827
30
0
41
1
10
73.5220427028722
20
-1.5716946878334
30
0
41
1
10
73.728125142199
20
-1.67997513763356
30
0
41
1
10
73.9297462295227
20
-1.81058901420786
30
0
0
SPLINE
5
F6
100
AcDbEntity
8
1
62
256
6
ByLayer
370
13
48
1
60
0
100
AcDbSpline
70
4
71
3
72
14
73
10
40
0
40
0
40
0
40
0
40
0.276167470832657
40
0.276167470832657
40
0.552334941665315
40
0.552334941665315
40
0.828502412497972
40
0.828502412497972
40
1
40
1
40
1
40
1
41
1
10
32.4761712154008
20
-6.34229363967793
30
0
41
1
10
32.8948416040322
20
-6.39077504422639
30
0
41
1
10
33.3143553165673
20
-6.42738647802679
30
0
41
1
10
34.1562049986696
20
-6.4762185343717
30
0
41
1
10
34.5792883444552
20
-6.48843367982778
30
0
41
1
10
35.4251445815159
20
-6.48772225829057
30
0
41
1
10
35.8477125635648
20
-6.47488739039221
30
0
41
1
10
36.5330291305725
20
-6.43401167778498
30
0
41
1
10
36.7957446871443
20
-6.41354183828995
30
0
41
1
10
37.0584589016713
20
-6.38832467458008
30
0
0
SPLINE
5
F7
100
AcDbEntity
8
1
62
256
6
ByLayer
370
18
48
1
60
0
100
AcDbSpline
70
4
71
3
72
14
73
10
40
0
40
0
40
0
40
0
40
0.25
40
0.25
40
0.5
40
0.5
40
0.75
40
0.75
40
1
40
1
40
1
40
1
41
1
10
72.723382009244
20
-6.40782697952005
30
0
41
1
10
72.7268222547511
20
-6.40729838726401
30
0
41
1
10
72.7296405096354
20
-6.40841615562942
30
0
41
1
10
72.7336146189809
20
-6.41503637023354
30
0
41
1
10
72.7347203095816
20
-6.42061198120703
30
0
41
1
10
72.7339896604187
20
-6.43740953319789
30
0
41
1
10
72.7320645877986
20
-6.44870085209939
30
0
41
1
10
72.7250874622221
20
-6.4745490587753
30
0
41
1
10
72.7201350861552
20
-6.48876557869525
30
0
41
1
10
72.7146865288811
20
-6.50214625616428
30
0
0
SPLINE
5
F8
100
AcDbEntity
8
1
62
256
6
ByLayer
370
18
48
1
60
0
100
AcDbSpline
70
4
71
3
72
8
73
4
40
0
40
0
40
0
40
0
40
1
40
1
40
1
40
1
41
1
10
74.950460755426
20
-0.0806879792336304
30
0
41
1
10
74.6023808051062
20
-0.650196278347323
30
0
41
1
10
74.2621076564964
20
-1.22679817839531
30
0
41
1
10
73.9297462295232
20
-1.81058901420445
30
0
0
SPLINE
5
F9
100
AcDbEntity
8
1
62
256
6
ByLayer
370
18
48
1
60
0
100
AcDbSpline
70
4
71
3
72
8
73
4
40
0
40
0
40
0
40
0
40
1
40
1
40
1
40
1
41
1
10
74.9891252193356
20
-0.134063677371643
30
0
41
1
10
74.9898593550836
20
-0.10923070434211
30
0
41
1
10
74.9939152833888
20
-0.0796267753507607
30
0
41
1
10
74.9999675937965
20
-0.0481961118676395
30
0
0
SPLINE
5
FA
100
AcDbEntity
8
1
62
256
6
ByLayer
370
18
48
1
60
0
100
AcDbSpline
70
4
71
3
72
28
73
24
40
0
40
0
40
0
40
0
40
0.069923047111539
40
0.136051063106828
40
0.191295692230588
40
0.23364090220592
40
0.262631224526206
40
0.292686140559011
40
0.336701556323794
40
0.408487012891549
40
0.467956185067815
40
0.528433723904832
40
0.600624764884011
40
0.647034041036912
40
0.690989140057435
40
0.727784848428436
40
0.758357333246408
40
0.799058574842042
40
0.851447370105711
40
0.89767451778353
40
0.933832095486569
40
0.976864781168767
40
1
40
1
40
1
40
1
41
1
10
50.4628685000479
20
6.39735983403912
30
0
41
1
10
50.1891003187606
20
6.39732421421769
30
0
41
1
10
49.6558690659023
20
6.39719942060586
30
0
41
1
10
48.8985700247429
20
6.3961286970393
30
0
41
1
10
48.258762794898
20
6.39626426394582
30
0
41
1
10
47.7627139191837
20
6.39608523023074
30
0
41
1
10
47.36215749033
20
6.39613559157235
30
0
41
1
10
46.95697913268
20
6.39594452167253
30
0
41
1
10
46.3814717547081
20
6.39445189499293
30
0
41
1
10
45.6905062371679
20
6.39521847017335
30
0
41
1
10
44.9344222957977
20
6.39518599192201
30
0
41
1
10
44.1767928475869
20
6.39341316780786
30
0
41
1
10
43.4706518326174
20
6.39399440190513
30
0
41
1
10
42.8296589768458
20
6.39379668332364
30
0
41
1
10
42.3282411112766
20
6.39309277340058
30
0
41
1
10
41.8892672106574
20
6.39261293377896
30
0
41
1
10
41.4631309402506
20
6.39268630656369
30
0
41
1
10
40.9755014800987
20
6.39263181390541
30
0
41
1
10
40.4261475996311
20
6.39233505839147
30
0
41
1
10
39.8947058967187
20
6.39165490772453
30
0
41
1
10
39.4001589812848
20
6.3915836575581
30
0
41
1
10
38.9966805643043
20
6.391554064552
30
0
41
1
10
38.735767666525
20
6.3914178221867
30
0
41
1
10
38.644540954156
20
6.39135739891896
30
0
0
SPLINE
5
FB
100
AcDbEntity
8
1
62
256
6
ByLayer
370
18
48
1
60
0
100
AcDbSpline
70
4
71
3
72
35
73
31
40
0
40
0
40
0
40
0
40
0.0577388263889253
40
0.105683842327367
40
0.140991688691521
40
0.167735246165539
40
0.187457457196824
40
0.210424512994611
40
0.239146747925095
40
0.272601077089197
40
0.311590807959726
40
0.35159803318278
40
0.379702554094243
40
0.401943214839891
40
0.43193717777528
40
0.469355620847501
40
0.509643528111001
40
0.543890518612284
40
0.579720034030252
40
0.626957717123341
40
0.671655820780277
40
0.708171168750757
40
0.760714238241479
40
0.812216617943806
40
0.826849240703553
40
0.84616619205981
40
0.873816863290797
40
0.90980773205233
40
0.954154157562989
40
1
40
1
40
1
40
1
41
1
10
35.1651486108291
20
-6.3887783519879
30
0
41
1
10
35.4589538518268
20
-6.38894145765548
30
0
41
1
10
35.9966663753027
20
-6.38927211277792
30
0
41
1
10
36.7159177350239
20
-6.38984095098354
30
0
41
1
10
37.2741858635799
20
-6.39026613230189
30
0
41
1
10
37.6906410506551
20
-6.39041297515345
30
0
41
1
10
38.0442802903552
20
-6.39081300459816
30
0
41
1
10
38.4080387214858
20
-6.39120285293546
30
0
41
1
10
38.8418039227159
20
-6.39151566670844
30
0
41
1
10
39.3571665084294
20
-6.39158888688203
30
0
41
1
10
39.9300422215587
20
-6.39164984351189
30
0
41
1
10
40.4756315083636
20
-6.39237395195309
30
0
41
1
10
40.9359262997663
20
-6.39259529239195
30
0
41
1
10
41.345175264849
20
-6.39269752947533
30
0
41
1
10
41.8018424320833
20
-6.39255493219582
30
0
41
1
10
42.3504371384594
20
-6.39308293888416
30
0
41
1
10
42.9208069145189
20
-6.3938174057532
30
0
41
1
10
43.4829577876393
20
-6.39394143483997
30
0
41
1
10
44.0804885975286
20
-6.39353123070612
30
0
41
1
10
44.7314034642168
20
-6.39477551739699
30
0
41
1
10
45.3857667974256
20
-6.39531424341345
30
0
41
1
10
46.0671754855056
20
-6.39472353624183
30
0
41
1
10
46.7832077066168
20
-6.39540976552763
30
0
41
1
10
47.3878893024908
20
-6.39627943440229
30
0
41
1
10
47.8230296085029
20
-6.39616089279917
30
0
41
1
10
48.1368139714356
20
-6.39614116091624
30
0
41
1
10
48.5594361459752
20
-6.39638393680158
30
0
41
1
10
49.1095628507669
20
-6.39752522809584
30
0
41
1
10
49.7523670546095
20
-6.39764756213438
30
0
41
1
10
50.2117930653529
20
-6.39757215879362
30
0
41
1
10
50.4453182626914
20
-6.3974228427326
30
0
0
SPLINE
5
FC
100
AcDbEntity
8
1
62
256
6
ByLayer
370
18
48
1
60
0
100
AcDbSpline
70
4
71
2
72
6
73
3
40
0
40
0
40
0
40
1
40
1
40
1
41
1
10
72.2840075914743
20
-6.41207054892641
30
0
41
1
10
72.4662552216704
20
-6.41263219409407
30
0
41
1
10
72.6467325585656
20
-6.41142956368441
30
0
0
LINE
5
7D
100
AcDbEntity
8
SK1
62
256
6
ByLayer
370
18
48
1
60
0
100
AcDbLine
10
-48
20
-0.938497
30
0
11
-48
21
-2.048916
31
0
39
0
210
0
220
0
230
1
0
LINE
5
7F
100
AcDbEntity
8
SK1
62
256
6
ByLayer
370
18
48
1
60
0
100
AcDbLine
10
-48
20
6.25
30
0
11
-48
21
0.938497
31
0
39
0
210
0
220
0
230
1
0
LINE
5
80
100
AcDbEntity
8
SK1
62
256
6
ByLayer
370
13
48
1
60
0
100
AcDbLine
10
-46.2
20
-0.769968
30
0
11
-46.2
21
-2.217445
31
0
39
0
210
0
220
0
230
1
0
LINE
5
81
100
AcDbEntity
8
SK1
62
256
6
ByLayer
370
18
48
1
60
0
100
AcDbLine
10
-48
20
-6.25
30
0
11
-48
21
-2.048916
31
0
39
0
210
0
220
0
230
1
0
LINE
5
82
100
AcDbEntity
8
SK1
62
256
6
ByLayer
370
18
48
1
60
0
100
AcDbLine
10
-45.25
20
9
30
0
11
-45.25
21
-9
31
0
39
0
210
0
220
0
230
1
0
LINE
5
83
100
AcDbEntity
8
SK1
62
256
6
ByLayer
370
18
48
1
60
0
100
AcDbLine
10
-46.1
20
-2.128831
30
0
11
-46.1
21
0.659422
31
0
39
0
210
0
220
0
230
1
0
LINE
5
84
100
AcDbEntity
8
SK1
62
256
6
ByLayer
370
18
48
1
60
0
100
AcDbLine
10
0
20
-9
30
0
11
0
21
9
31
0
39
0
210
0
220
0
230
1
0
LINE
5
85
100
AcDbEntity
8
1
62
256
6
ByLayer
370
18
48
1
60
0
100
AcDbLine
10
0
20
-9
30
0
11
0
21
9
31
0
39
0
210
0
220
0
230
1
0
LINE
5
86
100
AcDbEntity
8
1
62
256
6
ByLayer
370
13
48
1
60
0
100
AcDbLine
10
72.570173
20
1.426091
30
0
11
74.950461
21
-0.080688
31
0
39
0
210
0
220
0
230
1
0
LINE
5
87
100
AcDbEntity
8
1
62
256
6
ByLayer
370
13
48
1
60
0
100
AcDbLine
10
72.729508
20
1.564456
30
0
11
74.989125
21
0.134064
31
0
39
0
210
0
220
0
230
1
0
LINE
5
88
100
AcDbEntity
8
80
62
256
6
ByLayer
370
18
48
1
60
0
100
AcDbLine
10
0
20
0
30
0
11
-5
21
0
31
0
39
0
210
0
220
0
230
1
0
LINE
5
89
100
AcDbEntity
8
SK4
62
256
6
ByLayer
370
18
48
0.05
60
0
100
AcDbLine
10
80
20
0
30
0
11
-53
21
0
31
0
39
0
210
0
220
0
230
1
0
LINE
5
8B
100
AcDbEntity
8
4
62
256
6
ByLayer
370
18
48
0.05
60
0
100
AcDbLine
10
75
20
0
30
0
11
0
21
0
31
0
39
0
210
0
220
0
230
1
0
LINE
5
8D
100
AcDbEntity
8
SK1
62
256
6
ByLayer
370
18
48
1
60
0
100
AcDbLine
10
-48
20
-6.25
30
0
11
-45.25
21
-9
31
0
39
0
210
0
220
0
230
1
0
LINE
5
8E
100
AcDbEntity
8
SK1
62
256
6
ByLayer
370
18
48
1
60
0
100
AcDbLine
10
-45.25
20
9
30
0
11
-48
21
6.25
31
0
39
0
210
0
220
0
230
1
0
LINE
5
8F
100
AcDbEntity
8
SK1
62
256
6
ByLayer
370
18
48
1
60
0
100
AcDbLine
10
0
20
9
30
0
11
-45.25
21
9
31
0
39
0
210
0
220
0
230
1
0
LINE
5
90
100
AcDbEntity
8
SK1
62
256
6
ByLayer
370
18
48
1
60
0
100
AcDbLine
10
-45.25
20
-9
30
0
11
0
21
-9
31
0
39
0
210
0
220
0
230
1
0
LINE
5
91
100
AcDbEntity
8
1
62
256
6
ByLayer
370
18
48
1
60
0
100
AcDbLine
10
13.99342
20
9
30
0
11
0
21
9
31
0
39
0
210
0
220
0
230
1
0
LINE
5
92
100
AcDbEntity
8
1
62
256
6
ByLayer
370
18
48
1
60
0
100
AcDbLine
10
0
20
-9
30
0
11
13.99342
21
-9
31
0
39
0
210
0
220
0
230
1
0
LINE
5
93
100
AcDbEntity
8
1
62
256
6
ByLayer
370
18
48
1
60
0
100
AcDbLine
10
33.064063
20
-6.725055
30
0
11
34.97044
21
-6.726246
31
0
39
0
210
0
220
0
230
1
0
LINE
5
94
100
AcDbEntity
8
1
62
256
6
ByLayer
370
18
48
1
60
0
100
AcDbLine
10
72.071253
20
6.749434
30
0
11
70.162872
21
6.748242
31
0
39
0
210
0
220
0
230
1
0
LINE
5
95
100
AcDbEntity
8
1
62
256
6
ByLayer
370
18
48
1
60
0
100
AcDbLine
10
70.162872
20
-6.748242
30
0
11
72.071253
21
-6.749434
31
0
39
0
210
0
220
0
230
1
0
LINE
5
96
100
AcDbEntity
8
1
62
256
6
ByLayer
370
18
48
1
60
0
100
AcDbLine
10
34.97044
20
6.726246
30
0
11
33.064063
21
6.725055
31
0
39
0
210
0
220
0
230
1
0
LINE
5
97
100
AcDbEntity
8
81
62
256
6
ByLayer
370
18
48
1
60
0
100
AcDbLine
10
75
20
0
30
0
11
80
21
0
31
0
39
0
210
0
220
0
230
1
0
LINE
5
98
100
AcDbEntity
8
2
62
256
6
ByLayer
370
13
48
1
60
0
100
AcDbLine
10
97.236431
20
-9
30
0
11
97.236431
21
36.445947
31
0
39
0
210
0
220
0
230
1
0
LINE
5
9A
100
AcDbEntity
8
2
62
256
6
ByLayer
370
13
48
1
60
0
100
AcDbLine
10
31.826
20
9
30
0
11
99.236431
21
9
31
0
39
0
210
0
220
0
230
1
0
LINE
5
9B
100
AcDbEntity
8
2
62
256
6
ByLayer
370
13
48
1
60
0
100
AcDbLine
10
31.826
20
-9
30
0
11
99.236431
21
-9
31
0
39
0
210
0
220
0
230
1
0
LINE
5
9C
100
AcDbEntity
8
1
62
256
6
ByLayer
370
18
48
1
60
1
100
AcDbLine
10
97.236431
20
9
30
0
11
97.697214
21
5.500002
31
0
39
0
210
0
220
0
230
1
0
LINE
5
9D
100
AcDbEntity
8
1
62
256
6
ByLayer
370
18
48
1
60
1
100
AcDbLine
10
97.697214
20
5.500002
30
0
11
96.775647
21
5.499998
31
0
39
0
210
0
220
0
230
1
0
LINE
5
9E
100
AcDbEntity
8
1
62
256
6
ByLayer
370
18
48
1
60
1
100
AcDbLine
10
96.775647
20
5.499998
30
0
11
97.236431
21
9
31
0
39
0
210
0
220
0
230
1
0
LINE
5
9F
100
AcDbEntity
8
1
62
256
6
ByLayer
370
18
48
1
60
1
100
AcDbLine
10
97.236431
20
-9
30
0
11
96.775647
21
-5.500002
31
0
39
0
210
0
220
0
230
1
0
LINE
5
A0
100
AcDbEntity
8
1
62
256
6
ByLayer
370
18
48
1
60
1
100
AcDbLine
10
96.775647
20
-5.500002
30
0
11
97.697214
21
-5.499998
31
0
39
0
210
0
220
0
230
1
0
LINE
5
A1
100
AcDbEntity
8
1
62
256
6
ByLayer
370
18
48
1
60
1
100
AcDbLine
10
97.697214
20
-5.499998
30
0
11
97.236431
21
-9
31
0
39
0
210
0
220
0
230
1
0
LINE
5
A2
100
AcDbEntity
8
SK2
62
256
6
ByLayer
370
13
48
1
60
0
100
AcDbLine
10
-56.625163
20
-9
30
0
11
-56.625163
21
39.857173
31
0
39
0
210
0
220
0
230
1
0
LINE
5
A4
100
AcDbEntity
8
SK2
62
256
6
ByLayer
370
13
48
1
60
0
100
AcDbLine
10
-49.5875
20
9
30
0
11
-58.625163
21
9
31
0
39
0
210
0
220
0
230
1
0
LINE
5
A5
100
AcDbEntity
8
SK2
62
256
6
ByLayer
370
13
48
1
60
0
100
AcDbLine
10
-49.5875
20
-9
30
0
11
-58.625163
21
-9
31
0
39
0
210
0
220
0
230
1
0
LINE
5
A6
100
AcDbEntity
8
1
62
256
6
ByLayer
370
18
48
1
60
1
100
AcDbLine
10
-56.625163
20
9
30
0
11
-56.164379
21
5.500002
31
0
39
0
210
0
220
0
230
1
0
LINE
5
A7
100
AcDbEntity
8
1
62
256
6
ByLayer
370
18
48
1
60
1
100
AcDbLine
10
-56.164379
20
5.500002
30
0
11
-57.085946
21
5.499998
31
0
39
0
210
0
220
0
230
1
0
LINE
5
A8
100
AcDbEntity
8
1
62
256
6
ByLayer
370
18
48
1
60
1
100
AcDbLine
10
-57.085946
20
5.499998
30
0
11
-56.625163
21
9
31
0
39
0
210
0
220
0
230
1
0
LINE
5
A9
100
AcDbEntity
8
1
62
256
6
ByLayer
370
18
48
1
60
1
100
AcDbLine
10
-56.625163
20
-9
30
0
11
-57.085946
21
-5.500002
31
0
39
0
210
0
220
0
230
1
0
LINE
5
AA
100
AcDbEntity
8
1
62
256
6
ByLayer
370
18
48
1
60
1
100
AcDbLine
10
-57.085946
20
-5.500002
30
0
11
-56.164379
21
-5.499998
31
0
39
0
210
0
220
0
230
1
0
LINE
5
AB
100
AcDbEntity
8
1
62
256
6
ByLayer
370
18
48
1
60
1
100
AcDbLine
10
-56.164379
20
-5.499998
30
0
11
-56.625163
21
-9
31
0
39
0
210
0
220
0
230
1
0
LINE
5
AC
100
AcDbEntity
8
2
62
256
6
ByLayer
370
13
48
1
60
0
100
AcDbLine
10
88.970081
20
-6.75
30
0
11
88.970081
21
36.954896
31
0
39
0
210
0
220
0
230
1
0
LINE
5
AD
100
AcDbEntity
8
2
62
256
6
ByLayer
370
13
48
1
60
0
100
AcDbLine
10
74.576
20
6.75
30
0
11
90.970081
21
6.75
31
0
39
0
210
0
220
0
230
1
0
LINE
5
AE
100
AcDbEntity
8
2
62
256
6
ByLayer
370
13
48
1
60
0
100
AcDbLine
10
74.576
20
-6.75
30
0
11
90.970081
21
-6.75
31
0
39
0
210
0
220
0
230
1
0
LINE
5
AF
100
AcDbEntity
8
1
62
256
6
ByLayer
370
18
48
1
60
1
100
AcDbLine
10
88.970081
20
6.75
30
0
11
89.430865
21
3.250002
31
0
39
0
210
0
220
0
230
1
0
LINE
5
B0
100
AcDbEntity
8
1
62
256
6
ByLayer
370
18
48
1
60
1
100
AcDbLine
10
89.430865
20
3.250002
30
0
11
88.509297
21
3.249998
31
0
39
0
210
0
220
0
230
1
0
LINE
5
B1
100
AcDbEntity
8
1
62
256
6
ByLayer
370
18
48
1
60
1
100
AcDbLine
10
88.509297
20
3.249998
30
0
11
88.970081
21
6.75
31
0
39
0
210
0
220
0
230
1
0
LINE
5
B2
100
AcDbEntity
8
1
62
256
6
ByLayer
370
18
48
1
60
1
100
AcDbLine
10
88.970081
20
-6.75
30
0
11
88.509297
21
-3.250002
31
0
39
0
210
0
220
0
230
1
0
LINE
5
B3
100
AcDbEntity
8
1
62
256
6
ByLayer
370
18
48
1
60
1
100
AcDbLine
10
88.509297
20
-3.250002
30
0
11
89.430865
21
-3.249998
31
0
39
0
210
0
220
0
230
1
0
LINE
5
B4
100
AcDbEntity
8
1
62
256
6
ByLayer
370
18
48
1
60
1
100
AcDbLine
10
89.430865
20
-3.249998
30
0
11
88.970081
21
-6.75
31
0
39
0
210
0
220
0
230
1
0
LINE
5
B5
100
AcDbEntity
8
SK2
62
256
6
ByLayer
370
13
48
1
60
0
100
AcDbLine
10
29.115968
20
-10.122532
30
0
11
22.225466
21
-17.013034
31
0
39
0
210
0
220
0
230
1
0
LINE
5
B6
100
AcDbEntity
8
SK2
62
256
6
ByLayer
370
13
48
1
60
0
100
AcDbLine
10
29.115968
20
10.122532
30
0
11
22.225466
21
17.013034
31
0
39
0
210
0
220
0
230
1
0
LINE
5
B7
100
AcDbEntity
8
1
62
256
6
ByLayer
370
18
48
1
60
1
100
AcDbLine
10
23.639679
20
-15.598821
30
0
11
20.926218
21
-13.340628
31
0
39
0
210
0
220
0
230
1
0
LINE
5
B8
100
AcDbEntity
8
1
62
256
6
ByLayer
370
18
48
1
60
1
100
AcDbLine
10
20.926218
20
-13.340628
30
0
11
21.603138
21
-12.715275
31
0
39
0
210
0
220
0
230
1
0
LINE
5
B9
100
AcDbEntity
8
1
62
256
6
ByLayer
370
18
48
1
60
1
100
AcDbLine
10
21.603138
20
-12.715275
30
0
11
23.639679
21
-15.598821
31
0
39
0
210
0
220
0
230
1
0
LINE
5
BA
100
AcDbEntity
8
1
62
256
6
ByLayer
370
18
48
1
60
1
100
AcDbLine
10
23.639679
20
15.598821
30
0
11
21.60314
21
12.715278
31
0
39
0
210
0
220
0
230
1
0
LINE
5
BB
100
AcDbEntity
8
1
62
256
6
ByLayer
370
18
48
1
60
1
100
AcDbLine
10
21.60314
20
12.715278
30
0
11
20.926215
21
13.340625
31
0
39
0
210
0
220
0
230
1
0
LINE
5
BC
100
AcDbEntity
8
1
62
256
6
ByLayer
370
18
48
1
60
1
100
AcDbLine
10
20.926215
20
13.340625
30
0
11
23.639679
21
15.598821
31
0
39
0
210
0
220
0
230
1
0
LINE
5
103
100
AcDbEntity
8
1
62
256
6
ByLayer
370
18
48
1
60
1
100
AcDbLine
10
97.236431
20
9
30
0
11
97.697214
21
5.500002
31
0
39
0
210
0
220
0
230
1
0
LINE
5
104
100
AcDbEntity
8
1
62
256
6
ByLayer
370
18
48
1
60
1
100
AcDbLine
10
97.697214
20
5.500002
30
0
11
96.775647
21
5.499998
31
0
39
0
210
0
220
0
230
1
0
LINE
5
105
100
AcDbEntity
8
1
62
256
6
ByLayer
370
18
48
1
60
1
100
AcDbLine
10
96.775647
20
5.499998
30
0
11
97.236431
21
9
31
0
39
0
210
0
220
0
230
1
0
LINE
5
107
100
AcDbEntity
8
1
62
256
6
ByLayer
370
18
48
1
60
1
100
AcDbLine
10
97.236431
20
-9
30
0
11
96.775647
21
-5.500002
31
0
39
0
210
0
220
0
230
1
0
LINE
5
108
100
AcDbEntity
8
1
62
256
6
ByLayer
370
18
48
1
60
1
100
AcDbLine
10
96.775647
20
-5.500002
30
0
11
97.697214
21
-5.499998
31
0
39
0
210
0
220
0
230
1
0
LINE
5
109
100
AcDbEntity
8
1
62
256
6
ByLayer
370
18
48
1
60
1
100
AcDbLine
10
97.697214
20
-5.499998
30
0
11
97.236431
21
-9
31
0
39
0
210
0
220
0
230
1
0
LINE
5
10D
100
AcDbEntity
8
1
62
256
6
ByLayer
370
18
48
1
60
1
100
AcDbLine
10
-56.625163
20
9
30
0
11
-56.164379
21
5.500002
31
0
39
0
210
0
220
0
230
1
0
LINE
5
10E
100
AcDbEntity
8
1
62
256
6
ByLayer
370
18
48
1
60
1
100
AcDbLine
10
-56.164379
20
5.500002
30
0
11
-57.085946
21
5.499998
31
0
39
0
210
0
220
0
230
1
0
LINE
5
10F
100
AcDbEntity
8
1
62
256
6
ByLayer
370
18
48
1
60
1
100
AcDbLine
10
-57.085946
20
5.499998
30
0
11
-56.625163
21
9
31
0
39
0
210
0
220
0
230
1
0
LINE
5
111
100
AcDbEntity
8
1
62
256
6
ByLayer
370
18
48
1
60
1
100
AcDbLine
10
-56.625163
20
-9
30
0
11
-57.085946
21
-5.500002
31
0
39
0
210
0
220
0
230
1
0
LINE
5
112
100
AcDbEntity
8
1
62
256
6
ByLayer
370
18
48
1
60
1
100
AcDbLine
10
-57.085946
20
-5.500002
30
0
11
-56.164379
21
-5.499998
31
0
39
0
210
0
220
0
230
1
0
LINE
5
113
100
AcDbEntity
8
1
62
256
6
ByLayer
370
18
48
1
60
1
100
AcDbLine
10
-56.164379
20
-5.499998
30
0
11
-56.625163
21
-9
31
0
39
0
210
0
220
0
230
1
0
LINE
5
117
100
AcDbEntity
8
1
62
256
6
ByLayer
370
18
48
1
60
1
100
AcDbLine
10
88.970081
20
6.75
30
0
11
89.430865
21
3.250002
31
0
39
0
210
0
220
0
230
1
0
LINE
5
118
100
AcDbEntity
8
1
62
256
6
ByLayer
370
18
48
1
60
1
100
AcDbLine
10
89.430865
20
3.250002
30
0
11
88.509297
21
3.249998
31
0
39
0
210
0
220
0
230
1
0
LINE
5
119
100
AcDbEntity
8
1
62
256
6
ByLayer
370
18
48
1
60
1
100
AcDbLine
10
88.509297
20
3.249998
30
0
11
88.970081
21
6.75
31
0
39
0
210
0
220
0
230
1
0
LINE
5
11B
100
AcDbEntity
8
1
62
256
6
ByLayer
370
18
48
1
60
1
100
AcDbLine
10
88.970081
20
-6.75
30
0
11
88.509297
21
-3.250002
31
0
39
0
210
0
220
0
230
1
0
LINE
5
11C
100
AcDbEntity
8
1
62
256
6
ByLayer
370
18
48
1
60
1
100
AcDbLine
10
88.509297
20
-3.250002
30
0
11
89.430865
21
-3.249998
31
0
39
0
210
0
220
0
230
1
0
LINE
5
11D
100
AcDbEntity
8
1
62
256
6
ByLayer
370
18
48
1
60
1
100
AcDbLine
10
89.430865
20
-3.249998
30
0
11
88.970081
21
-6.75
31
0
39
0
210
0
220
0
230
1
0
LINE
5
120
100
AcDbEntity
8
1
62
256
6
ByLayer
370
18
48
1
60
1
100
AcDbLine
10
23.639679
20
-15.598821
30
0
11
20.926218
21
-13.340628
31
0
39
0
210
0
220
0
230
1
0
LINE
5
121
100
AcDbEntity
8
1
62
256
6
ByLayer
370
18
48
1
60
1
100
AcDbLine
10
20.926218
20
-13.340628
30
0
11
21.603138
21
-12.715275
31
0
39
0
210
0
220
0
230
1
0
LINE
5
122
100
AcDbEntity
8
1
62
256
6
ByLayer
370
18
48
1
60
1
100
AcDbLine
10
21.603138
20
-12.715275
30
0
11
23.639679
21
-15.598821
31
0
39
0
210
0
220
0
230
1
0
LINE
5
124
100
AcDbEntity
8
1
62
256
6
ByLayer
370
18
48
1
60
1
100
AcDbLine
10
23.639679
20
15.598821
30
0
11
21.60314
21
12.715278
31
0
39
0
210
0
220
0
230
1
0
LINE
5
125
100
AcDbEntity
8
1
62
256
6
ByLayer
370
18
48
1
60
1
100
AcDbLine
10
21.60314
20
12.715278
30
0
11
20.926215
21
13.340625
31
0
39
0
210
0
220
0
230
1
0
LINE
5
126
100
AcDbEntity
8
1
62
256
6
ByLayer
370
18
48
1
60
1
100
AcDbLine
10
20.926215
20
13.340625
30
0
11
23.639679
21
15.598821
31
0
39
0
210
0
220
0
230
1
0
MTEXT
5
FD
100
AcDbEntity
8
SK6
62
256
6
ByLayer
370
13
48
1
60
0
100
AcDbMText
10
-16.013727
20
39.290328
30
0
210
0
220
0
230
1
1
\W0.7763;462.2-1350-044A1-XM X2BM
40
3.5
41
0
44
1.084337
50
0
71
7
72
5
7
iso_b_vert
0
MTEXT
5
101
100
AcDbEntity
8
2
62
256
6
ByLayer
370
18
48
1
60
0
100
AcDbMText
10
95.671797
20
18.997798
30
0
210
0
220
0
230
1
1
%%c
40
3.5
41
0
44
1.084337
50
90
71
7
72
5
7
iso_b_vert
0
MTEXT
5
102
100
AcDbEntity
8
2
62
256
6
ByLayer
370
18
48
1
60
0
100
AcDbMText
10
95.671797
20
24.220454
30
0
210
0
220
0
230
1
1
\W0.6930;18,000
40
3.5
41
0
44
1.084337
50
90
71
7
72
5
7
iso_b_vert
0
MTEXT
5
10B
100
AcDbEntity
8
SK2
62
256
6
ByLayer
370
18
48
1
60
0
100
AcDbMText
10
-58.189796
20
22.409024
30
0
210
0
220
0
230
1
1
%%c
40
3.5
41
0
44
1.084337
50
90
71
7
72
5
7
iso_b_vert
0
MTEXT
5
10C
100
AcDbEntity
8
SK2
62
256
6
ByLayer
370
18
48
1
60
0
100
AcDbMText
10
-58.189796
20
27.63168
30
0
210
0
220
0
230
1
1
\W0.6930;18,000
40
3.5
41
0
44
1.084337
50
90
71
7
72
5
7
iso_b_vert
0
MTEXT
5
115
100
AcDbEntity
8
2
62
256
6
ByLayer
370
18
48
1
60
0
100
AcDbMText
10
87.405448
20
19.506747
30
0
210
0
220
0
230
1
1
%%c
40
3.5
41
0
44
1.084337
50
90
71
7
72
5
7
iso_b_vert
0
MTEXT
5
116
100
AcDbEntity
8
2
62
256
6
ByLayer
370
18
48
1
60
0
100
AcDbMText
10
87.405448
20
24.729403
30
0
210
0
220
0
230
1
1
\W0.6930;13,500
40
3.5
41
0
44
1.084337
50
90
71
7
72
5
7
iso_b_vert
0
MTEXT
5
11F
100
AcDbEntity
8
SK2
62
256
6
ByLayer
370
13
48
1
60
0
100
AcDbMText
10
12.345375
20
-0.291663
30
0
210
0
220
0
230
1
1
\W0.8181;90,0%%d
40
3.5
41
0
44
1.084337
50
0
71
7
72
5
7
iso_b_vert
0
HATCH
5
106
100
AcDbEntity
8
2
62
256
6
ByLayer
370
13
48
1
60
0
100
AcDbHatch
10
0
20
0
30
0
210
0
220
0
230
1
2
ANSI31
70
0
71
0
91
1
92
5
93
3
72
1
10
97.2364306046164
20
9
11
97.6972143461692
21
5.50000169255318
72
1
10
97.6972143461692
20
5.50000169255318
11
96.7756468630637
21
5.49999830744682
72
1
10
96.7756468630637
20
5.49999830744682
11
97.2364306046164
21
9
97
0
75
0
76
1
52
0
41
0.0062
77
0
78
1
53
45
43
0
44
0
45
-0.0139193969876572
46
0.0139193969876572
79
0
47
0
98
1
10
0
20
0
0
HATCH
5
10A
100
AcDbEntity
8
2
62
256
6
ByLayer
370
13
48
1
60
0
100
AcDbHatch
10
0
20
0
30
0
210
0
220
0
230
1
2
ANSI31
70
0
71
0
91
1
92
5
93
3
72
1
10
97.2364306046164
20
-9
11
96.7756468630637
21
-5.50000169255318
72
1
10
96.7756468630637
20
-5.50000169255318
11
97.6972143461692
21
-5.49999830744682
72
1
10
97.6972143461692
20
-5.49999830744682
11
97.2364306046164
21
-9
97
0
75
0
76
1
52
0
41
0.0062
77
0
78
1
53
45
43
0
44
0
45
-0.0139193969876572
46
0.0139193969876572
79
0
47
0
98
1
10
0
20
0
0
HATCH
5
110
100
AcDbEntity
8
SK2
62
256
6
ByLayer
370
13
48
1
60
0
100
AcDbHatch
10
0
20
0
30
0
210
0
220
0
230
1
2
ANSI31
70
0
71
0
91
1
92
5
93
3
72
1
10
-56.6251625675374
20
9
11
-56.1643788259847
21
5.50000169255318
72
1
10
-56.1643788259847
20
5.50000169255318
11
-57.0859463090902
21
5.49999830744682
72
1
10
-57.0859463090902
20
5.49999830744682
11
-56.6251625675374
21
9
97
0
75
0
76
1
52
0
41
0.0062
77
0
78
1
53
45
43
0
44
0
45
-0.0139193969876572
46
0.0139193969876572
79
0
47
0
98
1
10
0
20
0
0
HATCH
5
114
100
AcDbEntity
8
SK2
62
256
6
ByLayer
370
13
48
1
60
0
100
AcDbHatch
10
0
20
0
30
0
210
0
220
0
230
1
2
ANSI31
70
0
71
0
91
1
92
5
93
3
72
1
10
-56.6251625675374
20
-9
11
-57.0859463090902
21
-5.50000169255318
72
1
10
-57.0859463090902
20
-5.50000169255318
11
-56.1643788259847
21
-5.49999830744682
72
1
10
-56.1643788259847
20
-5.49999830744682
11
-56.6251625675374
21
-9
97
0
75
0
76
1
52
0
41
0.0062
77
0
78
1
53
45
43
0
44
0
45
-0.0139193969876572
46
0.0139193969876572
79
0
47
0
98
1
10
0
20
0
0
HATCH
5
11A
100
AcDbEntity
8
2
62
256
6
ByLayer
370
13
48
1
60
0
100
AcDbHatch
10
0
20
0
30
0
210
0
220
0
230
1
2
ANSI31
70
0
71
0
91
1
92
5
93
3
72
1
10
88.9700811011615
20
6.75
11
89.4308648427142
21
3.25000169255318
72
1
10
89.4308648427142
20
3.25000169255318
11
88.5092973596088
21
3.24999830744682
72
1
10
88.5092973596088
20
3.24999830744682
11
88.9700811011615
21
6.75
97
0
75
0
76
1
52
0
41
0.0062
77
0
78
1
53
45
43
0
44
0
45
-0.0139193969876572
46
0.0139193969876572
79
0
47
0
98
1
10
0
20
0
0
HATCH
5
11E
100
AcDbEntity
8
2
62
256
6
ByLayer
370
13
48
1
60
0
100
AcDbHatch
10
0
20
0
30
0
210
0
220
0
230
1
2
ANSI31
70
0
71
0
91
1
92
5
93
3
72
1
10
88.9700811011615
20
-6.75
11
88.5092973596088
21
-3.25000169255318
72
1
10
88.5092973596088
20
-3.25000169255318
11
89.4308648427142
21
-3.24999830744682
72
1
10
89.4308648427142
20
-3.24999830744682
11
88.9700811011615
21
-6.75
97
0
75
0
76
1
52
0
41
0.0062
77
0
78
1
53
45
43
0
44
0
45
-0.0139193969876572
46
0.0139193969876572
79
0
47
0
98
1
10
0
20
0
0
HATCH
5
123
100
AcDbEntity
8
SK2
62
256
6
ByLayer
370
13
48
1
60
0
100
AcDbHatch
10
0
20
0
30
0
210
0
220
0
230
1
2
ANSI31
70
0
71
0
91
1
92
5
93
3
72
1
10
23.6396794472241
20
-15.5988205527759
11
20.926217719846
21
-13.340627633058
72
1
10
20.926217719846
20
-13.340627633058
11
21.6031380851067
21
-12.7152753763066
72
1
10
21.6031380851067
20
-12.7152753763066
11
23.6396794472241
21
-15.5988205527759
97
0
75
0
76
1
52
0
41
0.0062
77
0
78
1
53
45
43
0
44
0
45
-0.0139193969876572
46
0.0139193969876572
79
0
47
0
98
1
10
0
20
0
0
HATCH
5
127
100
AcDbEntity
8
SK2
62
256
6
ByLayer
370
13
48
1
60
0
100
AcDbHatch
10
0
20
0
30
0
210
0
220
0
230
1
2
ANSI31
70
0
71
0
91
1
92
5
93
3
72
1
10
23.6396794472241
20
15.5988205527759
11
21.6031403821447
21
12.7152778627823
72
1
10
21.6031403821447
20
12.7152778627823
11
20.926215422808
21
13.3406251465822
72
1
10
20.926215422808
20
13.3406251465822
11
23.6396794472241
21
15.5988205527759
97
0
75
0
76
1
52
0
41
0.0062
77
0
78
1
53
45
43
0
44
0
45
-0.0139193969876572
46
0.0139193969876572
79
0
47
0
98
1
10
0
20
0
0
DIMENSION
5
129
100
AcDbEntity
8
SK2
62
256
6
ByLayer
370
13
48
1
60
0
100
AcDbDimension
2
_U0
10
72.9885
20
-19.552503
30
0
11
36.49425
21
-19.552503
31
0
70
32
71
1
72
1
41
1
210
0
220
0
230
1
3
Standard
100
AcDbAlignedDimension
13
0
23
0
33
0
14
72.9885
24
-6.75
34
0
50
0
100
AcDbRotatedDimension
1001
ACAD
1000
DSTYLE
1002
{
1070
   371
1070
    13
1070
   372
1070
    13
1070
   170
1070
     0
1070
   144
1040
1.0
1070
   277
1070
     2
1070
   278
1070
    44
1070
   146
1040
1.0
1070
   345
1005
16
1070
   347
1005
16
1070
   346
1005
16
1070
   344
1005
0
1070
   343
1005
0
1070
   172
1070
     1
1070
    76
1070
     0
1070
    75
1070
     0
1070
   282
1070
     0
1070
   281
1070
     0
1070
    71
1070
     0
1070
    74
1070
     0
1070
   279
1070
     0
1070
   173
1070
     1
1070
   340
1005
FE
1070
   271
1070
     2
1070
   272
1070
     2
1070
    77
1070
     1
1070
    73
1070
     1
1070
   171
1070
     3
1070
   274
1070
     4
1070
   177
1070
    35
1070
   176
1070
    35
1070
   178
1070
    35
1070
    48
1040
-0.1
1070
    41
1040
3.5
1070
   147
1040
1.75
1070
    42
1040
1.5875
1070
    44
1040
2.0
1070
   140
1040
3.5
1002
}
1001
ACAD_DSTYLE_DIM_LINETYPE
1070
   380
1005
16
1001
ACAD_DSTYLE_DIM_EXT1_LINETYPE
1070
   381
1005
16
1001
ACAD_DSTYLE_DIM_EXT2_LINETYPE
1070
   382
1005
16
0
DIMENSION
5
142
100
AcDbEntity
8
SK2
62
256
6
ByLayer
370
13
48
1
60
0
100
AcDbDimension
2
_U1
10
75
20
-40.192985
30
0
11
13.5
21
-40.192985
31
0
70
32
71
1
72
1
41
1
210
0
220
0
230
1
3
Standard
100
AcDbAlignedDimension
13
-48
23
-9
33
0
14
75
24
0
34
0
50
0
100
AcDbRotatedDimension
1001
ACAD
1000
DSTYLE
1002
{
1070
   371
1070
    13
1070
   372
1070
    13
1070
   170
1070
     0
1070
   144
1040
1.0
1070
   277
1070
     2
1070
   278
1070
    44
1070
   146
1040
1.0
1070
   345
1005
16
1070
   347
1005
16
1070
   346
1005
16
1070
   344
1005
0
1070
   343
1005
0
1070
   172
1070
     1
1070
    76
1070
     0
1070
    75
1070
     0
1070
   282
1070
     0
1070
   281
1070
     0
1070
    71
1070
     0
1070
    74
1070
     0
1070
   279
1070
     0
1070
   173
1070
     1
1070
   340
1005
FE
1070
   271
1070
     2
1070
   272
1070
     2
1070
    77
1070
     1
1070
    73
1070
     1
1070
   171
1070
     3
1070
   274
1070
     4
1070
   177
1070
    35
1070
   176
1070
    35
1070
   178
1070
    35
1070
    48
1040
-0.1
1070
    41
1040
3.5
1070
   147
1040
1.75
1070
    42
1040
1.5875
1070
    44
1040
2.0
1070
   140
1040
3.5
1002
}
1001
ACAD_DSTYLE_DIM_LINETYPE
1070
   380
1005
16
1001
ACAD_DSTYLE_DIM_EXT1_LINETYPE
1070
   381
1005
16
1001
ACAD_DSTYLE_DIM_EXT2_LINETYPE
1070
   382
1005
16
0
DIMENSION
5
15A
100
AcDbEntity
8
SK2
62
256
6
ByLayer
370
13
48
1
60
0
100
AcDbDimension
2
_U2
10
75
20
18.359119
30
0
11
52.62
21
18.359119
31
0
70
32
71
1
72
1
41
1
210
0
220
0
230
1
3
Standard
100
AcDbAlignedDimension
13
30.24
23
9
33
0
14
75
24
0
34
0
50
0
100
AcDbRotatedDimension
1001
ACAD
1000
DSTYLE
1002
{
1070
   371
1070
    13
1070
   372
1070
    13
1070
   170
1070
     0
1070
   144
1040
1.0
1070
   277
1070
     2
1070
   278
1070
    44
1070
   146
1040
1.0
1070
   345
1005
16
1070
   347
1005
16
1070
   346
1005
16
1070
   344
1005
0
1070
   343
1005
0
1070
   172
1070
     1
1070
    76
1070
     0
1070
    75
1070
     0
1070
   282
1070
     0
1070
   281
1070
     0
1070
    71
1070
     0
1070
    74
1070
     0
1070
   279
1070
     0
1070
   173
1070
     1
1070
   340
1005
FE
1070
   271
1070
     2
1070
   272
1070
     2
1070
    77
1070
     1
1070
    73
1070
     1
1070
   171
1070
     3
1070
   274
1070
     4
1070
   177
1070
    35
1070
   176
1070
    35
1070
   178
1070
    35
1070
    48
1040
-0.1
1070
    41
1040
3.5
1070
   147
1040
1.75
1070
    42
1040
1.5875
1070
    44
1040
2.0
1070
   140
1040
3.5
1002
}
1001
ACAD_DSTYLE_DIM_LINETYPE
1070
   380
1005
16
1001
ACAD_DSTYLE_DIM_EXT1_LINETYPE
1070
   381
1005
16
1001
ACAD_DSTYLE_DIM_EXT2_LINETYPE
1070
   382
1005
16
0
DIMENSION
5
172
100
AcDbEntity
8
SK2
62
256
6
ByLayer
370
13
48
1
60
0
100
AcDbDimension
2
_U3
10
72.9885
20
-19.552503
30
0
11
92.083333
21
-19.552503
31
0
70
32
71
1
72
1
41
1
210
0
220
0
230
1
3
Standard
100
AcDbAlignedDimension
13
75
23
0
33
0
14
72.9885
24
-6.75
34
0
50
0
100
AcDbRotatedDimension
1001
ACAD
1000
DSTYLE
1002
{
1070
   371
1070
    13
1070
   372
1070
    13
1070
   170
1070
     0
1070
   144
1040
1.0
1070
   277
1070
     2
1070
   278
1070
    44
1070
   146
1040
1.0
1070
   345
1005
16
1070
   347
1005
16
1070
   346
1005
16
1070
   344
1005
0
1070
   343
1005
0
1070
   172
1070
     1
1070
    76
1070
     0
1070
    75
1070
     0
1070
   282
1070
     0
1070
   281
1070
     0
1070
    71
1070
     0
1070
    74
1070
     0
1070
   279
1070
     0
1070
   173
1070
     1
1070
   340
1005
FE
1070
   271
1070
     2
1070
   272
1070
     2
1070
    77
1070
     1
1070
    73
1070
     1
1070
   171
1070
     3
1070
   274
1070
     4
1070
   177
1070
    35
1070
   176
1070
    35
1070
   178
1070
    35
1070
    48
1040
-0.1
1070
    41
1040
3.5
1070
   147
1040
1.75
1070
    42
1040
1.5875
1070
    44
1040
2.0
1070
   140
1040
3.5
1002
}
1001
ACAD_DSTYLE_DIM_LINETYPE
1070
   380
1005
16
1001
ACAD_DSTYLE_DIM_EXT1_LINETYPE
1070
   381
1005
16
1001
ACAD_DSTYLE_DIM_EXT2_LINETYPE
1070
   382
1005
16
0
DIMENSION
5
18C
100
AcDbEntity
8
SK2
62
256
6
ByLayer
370
13
48
1
60
0
100
AcDbDimension
2
_U4
10
32.4885
20
10.885371
30
0
11
52.7385
21
10.885371
31
0
70
32
71
1
72
1
41
1
210
0
220
0
230
1
3
Standard
100
AcDbAlignedDimension
13
72.9885
23
6.75
33
0
14
32.4885
24
6.75
34
0
50
0
100
AcDbRotatedDimension
1001
ACAD
1000
DSTYLE
1002
{
1070
   371
1070
    13
1070
   372
1070
    13
1070
   170
1070
     0
1070
   144
1040
1.0
1070
   277
1070
     2
1070
   278
1070
    44
1070
   146
1040
1.0
1070
   345
1005
16
1070
   347
1005
16
1070
   346
1005
16
1070
   344
1005
0
1070
   343
1005
0
1070
   172
1070
     1
1070
    76
1070
     0
1070
    75
1070
     0
1070
   282
1070
     0
1070
   281
1070
     0
1070
    71
1070
     0
1070
    74
1070
     0
1070
   279
1070
     0
1070
   173
1070
     1
1070
   340
1005
FE
1070
   271
1070
     2
1070
   272
1070
     2
1070
    77
1070
     1
1070
    73
1070
     1
1070
   171
1070
     3
1070
   274
1070
     4
1070
   177
1070
    35
1070
   176
1070
    35
1070
   178
1070
    35
1070
    48
1040
-0.1
1070
    41
1040
3.5
1070
   147
1040
1.75
1070
    42
1040
1.5875
1070
    44
1040
2.0
1070
   140
1040
3.5
1002
}
1001
ACAD_DSTYLE_DIM_LINETYPE
1070
   380
1005
16
1001
ACAD_DSTYLE_DIM_EXT1_LINETYPE
1070
   381
1005
16
1001
ACAD_DSTYLE_DIM_EXT2_LINETYPE
1070
   382
1005
16
0
DIMENSION
5
1A4
100
AcDbEntity
8
SK2
62
256
6
ByLayer
370
13
48
1
60
0
100
AcDbDimension
2
_U5
10
72.9885
20
-29.690158
30
0
11
12.49425
21
-29.690158
31
0
70
32
71
1
72
1
41
1
210
0
220
0
230
1
3
Standard
100
AcDbAlignedDimension
13
-48
23
-9
33
0
14
72.9885
24
-6.75
34
0
50
0
100
AcDbRotatedDimension
1001
ACAD
1000
DSTYLE
1002
{
1070
   371
1070
    13
1070
   372
1070
    13
1070
   170
1070
     0
1070
   144
1040
1.0
1070
   277
1070
     2
1070
   278
1070
    44
1070
   146
1040
1.0
1070
   345
1005
16
1070
   347
1005
16
1070
   346
1005
16
1070
   344
1005
0
1070
   343
1005
0
1070
   172
1070
     1
1070
    76
1070
     0
1070
    75
1070
     0
1070
   282
1070
     0
1070
   281
1070
     0
1070
    71
1070
     0
1070
    74
1070
     0
1070
   279
1070
     0
1070
   173
1070
     1
1070
   340
1005
FE
1070
   271
1070
     2
1070
   272
1070
     2
1070
    77
1070
     1
1070
    73
1070
     1
1070
   171
1070
     3
1070
   274
1070
     4
1070
   177
1070
    35
1070
   176
1070
    35
1070
   178
1070
    35
1070
    48
1040
-0.1
1070
    41
1040
3.5
1070
   147
1040
1.75
1070
    42
1040
1.5875
1070
    44
1040
2.0
1070
   140
1040
3.5
1002
}
1001
ACAD_DSTYLE_DIM_LINETYPE
1070
   380
1005
16
1001
ACAD_DSTYLE_DIM_EXT1_LINETYPE
1070
   381
1005
16
1001
ACAD_DSTYLE_DIM_EXT2_LINETYPE
1070
   382
1005
16
0
ENDSEC
0
SECTION
2
OBJECTS
0
DICTIONARY
5
22c
330
0
100
AcDbDictionary
280
0
281
1
3
ACAD_GROUP
350
22d
3
ACAD_MLINESTYLE
350
22e
0
DICTIONARY
5
22d
330
0
100
AcDbDictionary
280
0
281
1
0
DICTIONARY
5
22e
330
0
100
AcDbDictionary
280
0
281
1
3
Standard
350
18
0
MLINESTYLE
5
18
330
22e
100
AcDbMlineStyle
2
Standard
70
0
3

62
256
51
90
52
90
71
2
49
-0.5
62
256
6
ByLayer
49
0.5
62
256
6
ByLayer
0
RASTERVARIABLES
5
21a
330

100
AcDbRasterVariables
90
0
70
1
71
1
72
1
0
ENDSEC
0
EOF
