0
SECTION
2
HEADER
9
$ACADVER
1
AC1015
9
$DWGCODEPAGE
3
ANSI_1252
9
$HANDSEED
5
240
9
$ANGBASE
50
0
9
$ANGDIR
70
0
9
$ATTMODE
70
1
9
$AUNITS
70
0
9
$AUPREC
70
0
9
$CECOLOR
62
256
9
$CELTSCALE
40
1
9
$CELTYPE
6
ByLayer
9
$CELWEIGHT
370
18
9
$CLAYER
8
0
9
$CMLJUST
70
0
9
$CMLSCALE
40
1
9
$CMLSTYLE
2
Standard
9
$DIMSTYLE
2
Standard
9
$TEXTSIZE
40
0.2
9
$TEXTSTYLE
7
Standard
9
$LUNITS
70
2
9
$LUPREC
70
4
9
$EXTNAMES
290
1
9
$INSUNITS
70
4
9
$LTSCALE
40
1
9
$LWDISPLAY
290
1
9
$PDMODE
70
0
9
$PDSIZE
40
0
9
$PLINEGEN
70
0
0
ENDSEC
0
SECTION
2
CLASSES
0
CLASS
1
RASTERVARIABLES
2
AcDbRasterVariables
3
ISM
90
0
280
0
281
0
0
ENDSEC
0
SECTION
2
TABLES
0
TABLE
2
VPORT
5
236
100
AcDbSymbolTable
0
VPORT
5
1
100
AcDbSymbolTableRecord
100
AcDbViewportTableRecord
2
*Active
70
0
10
0
20
0
11
1
21
1
12
-1
22
1
13
0
23
0
14
0.5
24
0.5
15
10
25
10
16
0
26
0
36
1
17
0
27
0
37
0
0
ENDTAB
0
TABLE
2
LTYPE
5
237
100
AcDbSymbolTable
0
LTYPE
5
14
100
AcDbSymbolTableRecord
100
AcDbLinetypeTableRecord
70
0
2
ByBlock
3

72
65
73
0
40
0
0
LTYPE
5
15
100
AcDbSymbolTableRecord
100
AcDbLinetypeTableRecord
70
0
2
ByLayer
3

72
65
73
0
40
0
0
LTYPE
5
16
100
AcDbSymbolTableRecord
100
AcDbLinetypeTableRecord
70
0
2
Continuous
3
Solid line
72
65
73
0
40
0
0
LTYPE
5
6E
100
AcDbSymbolTableRecord
100
AcDbLinetypeTableRecord
70
0
2
CENTER
3
____ _ ____ _ ____ _ ____
72
65
73
4
40
47.5
49
22
74
0
49
-8.5
74
0
49
8.5
74
0
49
-8.5
74
0
0
LTYPE
5
6F
100
AcDbSymbolTableRecord
100
AcDbLinetypeTableRecord
70
0
2
DASHED
3
__ __ __ __ __ __ __ __ __
72
65
73
2
40
25.72
49
12.86
74
0
49
-12.86
74
0
0
ENDTAB
0
TABLE
2
LAYER
5
238
100
AcDbSymbolTable
0
LAYER
5
10
100
AcDbSymbolTableRecord
100
AcDbLayerTableRecord
2
0
70
0
62
7
6
Continuous
290
1
370
-3
390
0
0
LAYER
5
71
100
AcDbSymbolTableRecord
100
AcDbLayerTableRecord
2
80
70
0
62
-6
6
Continuous
290
1
370
-3
390
0
0
LAYER
5
73
100
AcDbSymbolTableRecord
100
AcDbLayerTableRecord
2
81
70
0
62
-3
6
Continuous
290
1
370
-3
390
0
0
LAYER
5
75
100
AcDbSymbolTableRecord
100
AcDbLayerTableRecord
2
1
70
0
62
4
6
Continuous
290
1
370
-3
390
0
0
LAYER
5
8C
100
AcDbSymbolTableRecord
100
AcDbLayerTableRecord
2
4
70
0
62
-2
6
CENTER
290
1
370
-3
390
0
0
LAYER
5
99
100
AcDbSymbolTableRecord
100
AcDbLayerTableRecord
2
2
70
0
62
7
6
Continuous
290
1
370
-3
390
0
0
LAYER
5
133
100
AcDbSymbolTableRecord
100
AcDbLayerTableRecord
2
Defpoints
70
0
62
7
6
Continuous
290
0
370
-3
390
0
0
LAYER
5
222
100
AcDbSymbolTableRecord
100
AcDbLayerTableRecord
2
SK1
70
0
62
4
6
Continuous
290
1
370
-3
390
0
0
LAYER
5
223
100
AcDbSymbolTableRecord
100
AcDbLayerTableRecord
2
SK4
70
0
62
2
6
CENTER
290
1
370
-3
390
0
0
LAYER
5
224
100
AcDbSymbolTableRecord
100
AcDbLayerTableRecord
2
SK2
70
0
62
7
6
Continuous
290
1
370
-3
390
0
0
LAYER
5
225
100
AcDbSymbolTableRecord
100
AcDbLayerTableRecord
2
SK6
70
0
62
5
6
Continuous
290
1
370
-3
390
0
0
ENDTAB
0
TABLE
2
STYLE
5
239
100
AcDbSymbolTable
0
STYLE
5
11
100
AcDbSymbolTableRecord
100
AcDbTextStyleTableRecord
2
Standard
3
txt
70
0
71
0
40
0
41
1
42
0
50
0
0
STYLE
5
105
100
AcDbSymbolTableRecord
100
AcDbTextStyleTableRecord
2
iso_b_vert
3
simplex.shx
70
0
71
0
40
0
41
1
42
0
50
0
0
STYLE
5
106
100
AcDbSymbolTableRecord
100
AcDbTextStyleTableRecord
2
DWGDirectTextStyle
3
simplex
70
0
71
0
40
0
41
1
42
0
50
0
0
ENDTAB
0
TABLE
2
DIMSTYLE
5
23a
100
AcDbSymbolTable
100
AcDbDimStyleTable
0
DIMSTYLE
105
27
100
AcDbSymbolTableRecord
100
AcDbDimStyleTableRecord
2
Standard
70
0
3
<>
41
0.18
42
0.0625
44
0.18
140
0.18
147
0.09
73
0
74
0
77
1
271
2
275
0
278
52
280
0
340
11
0
ENDTAB
0
TABLE
2
VIEW
5
23b
100
AcDbSymbolTable
0
ENDTAB
0
TABLE
2
UCS
5
23c
100
AcDbSymbolTable
0
ENDTAB
0
TABLE
2
APPID
5
23d
100
AcDbSymbolTable
0
APPID
5
12
100
AcDbSymbolTableRecord
100
AcDbRegAppTableRecord
2
ACAD
70
0
0
APPID
5
12F
100
AcDbSymbolTableRecord
100
AcDbRegAppTableRecord
2
ACAD_DSTYLE_DIMBREAK
70
0
0
APPID
5
1E1
100
AcDbSymbolTableRecord
100
AcDbRegAppTableRecord
2
ACAD_DSTYLE_DIM_LINETYPE
70
0
0
APPID
5
1E2
100
AcDbSymbolTableRecord
100
AcDbRegAppTableRecord
2
ACAD_DSTYLE_DIM_EXT1_LINETYPE
70
0
0
APPID
5
1E3
100
AcDbSymbolTableRecord
100
AcDbRegAppTableRecord
2
ACAD_DSTYLE_DIM_EXT2_LINETYPE
70
0
0
APPID
5
21E
100
AcDbSymbolTableRecord
100
AcDbRegAppTableRecord
2
ACAD_MLEADERVER
70
0
0
ENDTAB
0
TABLE
2
BLOCK_RECORD
5
23e
100
AcDbSymbolTable
0
BLOCK_RECORD
5
1F
100
AcDbSymbolTableRecord
100
AcDbBlockTableRecord
2
*Model_Space
340
0
70
0
0
BLOCK_RECORD
5
1B
100
AcDbSymbolTableRecord
100
AcDbBlockTableRecord
2
*Paper_Space
340
0
70
0
0
BLOCK_RECORD
5
23
100
AcDbSymbolTableRecord
100
AcDbBlockTableRecord
2
*Paper_Space0
340
0
70
0
0
BLOCK_RECORD
5
134
100
AcDbSymbolTableRecord
100
AcDbBlockTableRecord
2
*D1
340
0
70
0
0
BLOCK_RECORD
5
140
100
AcDbSymbolTableRecord
100
AcDbBlockTableRecord
2
_U0
340
0
70
0
0
BLOCK_RECORD
5
14C
100
AcDbSymbolTableRecord
100
AcDbBlockTableRecord
2
*D3
340
0
70
0
0
BLOCK_RECORD
5
158
100
AcDbSymbolTableRecord
100
AcDbBlockTableRecord
2
_U1
340
0
70
0
0
BLOCK_RECORD
5
164
100
AcDbSymbolTableRecord
100
AcDbBlockTableRecord
2
*D5
340
0
70
0
0
BLOCK_RECORD
5
170
100
AcDbSymbolTableRecord
100
AcDbBlockTableRecord
2
_U2
340
0
70
0
0
BLOCK_RECORD
5
17C
100
AcDbSymbolTableRecord
100
AcDbBlockTableRecord
2
*D7
340
0
70
0
0
BLOCK_RECORD
5
18A
100
AcDbSymbolTableRecord
100
AcDbBlockTableRecord
2
_U3
340
0
70
0
0
BLOCK_RECORD
5
196
100
AcDbSymbolTableRecord
100
AcDbBlockTableRecord
2
*D9
340
0
70
0
0
BLOCK_RECORD
5
1A2
100
AcDbSymbolTableRecord
100
AcDbBlockTableRecord
2
_U4
340
0
70
0
0
BLOCK_RECORD
5
1AE
100
AcDbSymbolTableRecord
100
AcDbBlockTableRecord
2
*D11
340
0
70
0
0
BLOCK_RECORD
5
1BA
100
AcDbSymbolTableRecord
100
AcDbBlockTableRecord
2
_U5
340
0
70
0
0
ENDTAB
0
ENDSEC
0
SECTION
2
BLOCKS
0
BLOCK
5
20
100
AcDbEntity
8
0
100
AcDbBlockBegin
2
*Model_Space
70
0
10
0
20
0
30
0
3
*Model_Space
0
ENDBLK
5
21
100
AcDbEntity
8
0
100
AcDbBlockEnd
0
BLOCK
5
1C
100
AcDbEntity
8
0
100
AcDbBlockBegin
2
*Paper_Space
70
0
10
0
20
0
30
0
3
*Paper_Space
0
ENDBLK
5
1D
100
AcDbEntity
8
0
100
AcDbBlockEnd
0
BLOCK
5
24
100
AcDbEntity
8
0
100
AcDbBlockBegin
2
*Paper_Space0
70
0
10
0
20
0
30
0
3
*Paper_Space0
0
ENDBLK
5
25
100
AcDbEntity
8
0
100
AcDbBlockEnd
0
BLOCK
5
135
100
AcDbEntity
8
0
100
AcDbBlockBegin
2
*D1
70
1
10
0
20
0
30
0
3
*D1
0
LINE
5
137
100
AcDbEntity
8
0
62
256
6
ByLayer
370
-2
48
1
60
0
100
AcDbLine
10
0
20
-1.5875
30
0
11
0
21
-18.527503
31
0
39
0
210
0
220
0
230
1
0
LINE
5
138
100
AcDbEntity
8
0
62
256
6
ByLayer
370
-2
48
1
60
0
100
AcDbLine
10
47.9003
20
-5.3125
30
0
11
47.9003
21
-18.527503
31
0
39
0
210
0
220
0
230
1
0
LINE
5
139
100
AcDbEntity
8
0
62
256
6
ByLayer
370
-2
48
1
60
0
100
AcDbLine
10
3.5
20
-16.527503
30
0
11
44.4003
21
-16.527503
31
0
39
0
210
0
220
0
230
1
0
SOLID
5
13A
100
AcDbEntity
8
0
62
256
6
ByLayer
370
-1
48
1
60
0
100
AcDbTrace
10
3.5
20
-15.94417
30
0
11
3.5
21
-17.110837
31
0
12
0
22
-16.527503
32
0
13
0
23
-16.527503
33
0
39
0
210
0
220
0
230
1
0
SOLID
5
13B
100
AcDbEntity
8
0
62
256
6
ByLayer
370
-1
48
1
60
0
100
AcDbTrace
10
44.4003
20
-17.110837
30
0
11
44.4003
21
-15.94417
31
0
12
47.9003
22
-16.527503
32
0
13
47.9003
23
-16.527503
33
0
39
0
210
0
220
0
230
1
0
MTEXT
5
13C
100
AcDbEntity
8
0
62
256
6
ByLayer
370
18
48
1
60
0
100
AcDbMText
10
23.95015
20
-9.527503
30
0
210
0
220
0
230
1
1
\A1;47.90
40
3.5
41
0
44
1
50
0
71
5
72
5
7
iso_b_vert
0
POINT
5
13D
100
AcDbEntity
8
Defpoints
62
0
6
ByLayer
370
-1
48
1
60
0
100
AcDbPoint
10
0
20
0
30
0
39
0
210
0
220
0
230
1
50
360
0
POINT
5
13E
100
AcDbEntity
8
Defpoints
62
0
6
ByLayer
370
-1
48
1
60
0
100
AcDbPoint
10
47.9003
20
-3.725
30
0
39
0
210
0
220
0
230
1
50
360
0
POINT
5
13F
100
AcDbEntity
8
Defpoints
62
0
6
ByLayer
370
-1
48
1
60
0
100
AcDbPoint
10
47.9003
20
-16.527503
30
0
39
0
210
0
220
0
230
1
50
360
0
ENDBLK
5
136
100
AcDbEntity
8
0
100
AcDbBlockEnd
0
BLOCK
5
147
100
AcDbEntity
8
0
100
AcDbBlockBegin
2
_U0
70
0
10
0
20
0
30
0
3
_U0
0
MTEXT
5
141
100
AcDbEntity
8
SK2
62
256
6
ByLayer
370
13
48
1
60
0
100
AcDbMText
10
18.628585
20
-15.49487
30
0
210
0
220
0
230
1
1
\W0.7581;47,90
40
3.5
41
0
44
1.084337
50
0
71
7
72
5
7
iso_b_vert
0
LINE
5
142
100
AcDbEntity
8
SK2
62
256
6
ByLayer
370
13
48
1
60
0
100
AcDbLine
10
0
20
-1.5875
30
0
11
0
21
-18.527503
31
0
39
0
210
0
220
0
230
1
0
LINE
5
143
100
AcDbEntity
8
SK2
62
256
6
ByLayer
370
13
48
1
60
0
100
AcDbLine
10
47.9003
20
-5.3125
30
0
11
47.9003
21
-18.527503
31
0
39
0
210
0
220
0
230
1
0
LINE
5
144
100
AcDbEntity
8
SK2
62
256
6
ByLayer
370
13
48
1
60
0
100
AcDbLine
10
0
20
-16.527503
30
0
11
47.9003
21
-16.527503
31
0
39
0
210
0
220
0
230
1
0
SOLID
5
145
100
AcDbEntity
8
SK2
62
256
6
ByLayer
370
18
48
1
60
0
100
AcDbTrace
10
0
20
-16.527503
30
0
11
3.499998
21
-16.066719
31
0
12
3.500002
22
-16.988287
32
0
13
3.500002
23
-16.988287
33
0
39
0
210
0
220
0
230
1
0
SOLID
5
146
100
AcDbEntity
8
SK2
62
256
6
ByLayer
370
18
48
1
60
0
100
AcDbTrace
10
47.9003
20
-16.527503
30
0
11
44.400302
21
-16.988287
31
0
12
44.400298
22
-16.066719
32
0
13
44.400298
23
-16.066719
33
0
39
0
210
0
220
0
230
1
0
ENDBLK
5
148
100
AcDbEntity
8
0
100
AcDbBlockEnd
0
BLOCK
5
14D
100
AcDbEntity
8
0
100
AcDbBlockBegin
2
*D3
70
1
10
0
20
0
30
0
3
*D3
0
LINE
5
14F
100
AcDbEntity
8
0
62
256
6
ByLayer
370
-2
48
1
60
0
100
AcDbLine
10
-40
20
-6.5875
30
0
11
-40
21
-38.192985
31
0
39
0
210
0
220
0
230
1
0
LINE
5
150
100
AcDbEntity
8
0
62
256
6
ByLayer
370
-2
48
1
60
0
100
AcDbLine
10
49
20
-1.5875
30
0
11
49
21
-38.192985
31
0
39
0
210
0
220
0
230
1
0
LINE
5
151
100
AcDbEntity
8
0
62
256
6
ByLayer
370
-2
48
1
60
0
100
AcDbLine
10
-36.5
20
-36.192985
30
0
11
45.5
21
-36.192985
31
0
39
0
210
0
220
0
230
1
0
SOLID
5
152
100
AcDbEntity
8
0
62
256
6
ByLayer
370
-1
48
1
60
0
100
AcDbTrace
10
-36.5
20
-35.609652
30
0
11
-36.5
21
-36.776319
31
0
12
-40
22
-36.192985
32
0
13
-40
23
-36.192985
33
0
39
0
210
0
220
0
230
1
0
SOLID
5
153
100
AcDbEntity
8
0
62
256
6
ByLayer
370
-1
48
1
60
0
100
AcDbTrace
10
45.5
20
-36.776319
30
0
11
45.5
21
-35.609652
31
0
12
49
22
-36.192985
32
0
13
49
23
-36.192985
33
0
39
0
210
0
220
0
230
1
0
MTEXT
5
154
100
AcDbEntity
8
0
62
256
6
ByLayer
370
18
48
1
60
0
100
AcDbMText
10
4.5
20
-29.192985
30
0
210
0
220
0
230
1
1
\A1;89.00
40
3.5
41
0
44
1
50
0
71
5
72
5
7
iso_b_vert
0
POINT
5
155
100
AcDbEntity
8
Defpoints
62
0
6
ByLayer
370
-1
48
1
60
0
100
AcDbPoint
10
-40
20
-5
30
0
39
0
210
0
220
0
230
1
50
360
0
POINT
5
156
100
AcDbEntity
8
Defpoints
62
0
6
ByLayer
370
-1
48
1
60
0
100
AcDbPoint
10
49
20
0
30
0
39
0
210
0
220
0
230
1
50
360
0
POINT
5
157
100
AcDbEntity
8
Defpoints
62
0
6
ByLayer
370
-1
48
1
60
0
100
AcDbPoint
10
49
20
-36.192985
30
0
39
0
210
0
220
0
230
1
50
360
0
ENDBLK
5
14E
100
AcDbEntity
8
0
100
AcDbBlockEnd
0
BLOCK
5
15F
100
AcDbEntity
8
0
100
AcDbBlockBegin
2
_U1
70
0
10
0
20
0
30
0
3
_U1
0
MTEXT
5
159
100
AcDbEntity
8
SK2
62
256
6
ByLayer
370
13
48
1
60
0
100
AcDbMText
10
-0.637299
20
-35.160352
30
0
210
0
220
0
230
1
1
\W0.7317;89,00
40
3.5
41
0
44
1.084337
50
0
71
7
72
5
7
iso_b_vert
0
LINE
5
15A
100
AcDbEntity
8
SK2
62
256
6
ByLayer
370
13
48
1
60
0
100
AcDbLine
10
-40
20
-6.5875
30
0
11
-40
21
-38.192985
31
0
39
0
210
0
220
0
230
1
0
LINE
5
15B
100
AcDbEntity
8
SK2
62
256
6
ByLayer
370
13
48
1
60
0
100
AcDbLine
10
49
20
-1.5875
30
0
11
49
21
-38.192985
31
0
39
0
210
0
220
0
230
1
0
LINE
5
15C
100
AcDbEntity
8
SK2
62
256
6
ByLayer
370
13
48
1
60
0
100
AcDbLine
10
-40
20
-36.192985
30
0
11
49
21
-36.192985
31
0
39
0
210
0
220
0
230
1
0
SOLID
5
15D
100
AcDbEntity
8
SK2
62
256
6
ByLayer
370
18
48
1
60
0
100
AcDbTrace
10
-40
20
-36.192985
30
0
11
-36.500002
21
-35.732202
31
0
12
-36.499998
22
-36.653769
32
0
13
-36.499998
23
-36.653769
33
0
39
0
210
0
220
0
230
1
0
SOLID
5
15E
100
AcDbEntity
8
SK2
62
256
6
ByLayer
370
18
48
1
60
0
100
AcDbTrace
10
49
20
-36.192985
30
0
11
45.500002
21
-36.653769
31
0
12
45.499998
22
-35.732202
32
0
13
45.499998
23
-35.732202
33
0
39
0
210
0
220
0
230
1
0
ENDBLK
5
160
100
AcDbEntity
8
0
100
AcDbBlockEnd
0
BLOCK
5
165
100
AcDbEntity
8
0
100
AcDbBlockBegin
2
*D5
70
1
10
0
20
0
30
0
3
*D5
0
LINE
5
167
100
AcDbEntity
8
0
62
256
6
ByLayer
370
-2
48
1
60
0
100
AcDbLine
10
24.28
20
6.5875
30
0
11
24.28
21
17.334119
31
0
39
0
210
0
220
0
230
1
0
LINE
5
168
100
AcDbEntity
8
0
62
256
6
ByLayer
370
-2
48
1
60
0
100
AcDbLine
10
49
20
1.5875
30
0
11
49
21
17.334119
31
0
39
0
210
0
220
0
230
1
0
LINE
5
169
100
AcDbEntity
8
0
62
256
6
ByLayer
370
-2
48
1
60
0
100
AcDbLine
10
27.78
20
15.334119
30
0
11
45.5
21
15.334119
31
0
39
0
210
0
220
0
230
1
0
SOLID
5
16A
100
AcDbEntity
8
0
62
256
6
ByLayer
370
-1
48
1
60
0
100
AcDbTrace
10
27.78
20
15.917453
30
0
11
27.78
21
14.750786
31
0
12
24.28
22
15.334119
32
0
13
24.28
23
15.334119
33
0
39
0
210
0
220
0
230
1
0
SOLID
5
16B
100
AcDbEntity
8
0
62
256
6
ByLayer
370
-1
48
1
60
0
100
AcDbTrace
10
45.5
20
14.750786
30
0
11
45.5
21
15.917453
31
0
12
49
22
15.334119
32
0
13
49
23
15.334119
33
0
39
0
210
0
220
0
230
1
0
MTEXT
5
16C
100
AcDbEntity
8
0
62
256
6
ByLayer
370
18
48
1
60
0
100
AcDbMText
10
36.64
20
22.334119
30
0
210
0
220
0
230
1
1
\A1;24.72
40
3.5
41
0
44
1
50
0
71
5
72
5
7
iso_b_vert
0
POINT
5
16D
100
AcDbEntity
8
Defpoints
62
0
6
ByLayer
370
-1
48
1
60
0
100
AcDbPoint
10
24.28
20
5
30
0
39
0
210
0
220
0
230
1
50
360
0
POINT
5
16E
100
AcDbEntity
8
Defpoints
62
0
6
ByLayer
370
-1
48
1
60
0
100
AcDbPoint
10
49
20
0
30
0
39
0
210
0
220
0
230
1
50
360
0
POINT
5
16F
100
AcDbEntity
8
Defpoints
62
0
6
ByLayer
370
-1
48
1
60
0
100
AcDbPoint
10
49
20
15.334119
30
0
39
0
210
0
220
0
230
1
50
360
0
ENDBLK
5
166
100
AcDbEntity
8
0
100
AcDbBlockEnd
0
BLOCK
5
177
100
AcDbEntity
8
0
100
AcDbBlockBegin
2
_U2
70
0
10
0
20
0
30
0
3
_U2
0
MTEXT
5
171
100
AcDbEntity
8
SK2
62
256
6
ByLayer
370
13
48
1
60
0
100
AcDbMText
10
31.318435
20
16.366753
30
0
210
0
220
0
230
1
1
\W0.7581;24,72
40
3.5
41
0
44
1.084337
50
0
71
7
72
5
7
iso_b_vert
0
LINE
5
172
100
AcDbEntity
8
SK2
62
256
6
ByLayer
370
13
48
1
60
0
100
AcDbLine
10
24.28
20
6.5875
30
0
11
24.28
21
17.334119
31
0
39
0
210
0
220
0
230
1
0
LINE
5
173
100
AcDbEntity
8
SK2
62
256
6
ByLayer
370
13
48
1
60
0
100
AcDbLine
10
49
20
1.5875
30
0
11
49
21
17.334119
31
0
39
0
210
0
220
0
230
1
0
LINE
5
174
100
AcDbEntity
8
SK2
62
256
6
ByLayer
370
13
48
1
60
0
100
AcDbLine
10
24.28
20
15.334119
30
0
11
49
21
15.334119
31
0
39
0
210
0
220
0
230
1
0
SOLID
5
175
100
AcDbEntity
8
SK2
62
256
6
ByLayer
370
18
48
1
60
0
100
AcDbTrace
10
24.28
20
15.334119
30
0
11
27.779998
21
15.794903
31
0
12
27.780002
22
14.873335
32
0
13
27.780002
23
14.873335
33
0
39
0
210
0
220
0
230
1
0
SOLID
5
176
100
AcDbEntity
8
SK2
62
256
6
ByLayer
370
18
48
1
60
0
100
AcDbTrace
10
49
20
15.334119
30
0
11
45.500002
21
14.873335
31
0
12
45.499998
22
15.794903
32
0
13
45.499998
23
15.794903
33
0
39
0
210
0
220
0
230
1
0
ENDBLK
5
178
100
AcDbEntity
8
0
100
AcDbBlockEnd
0
BLOCK
5
17D
100
AcDbEntity
8
0
100
AcDbBlockBegin
2
*D7
70
1
10
0
20
0
30
0
3
*D7
0
LINE
5
17F
100
AcDbEntity
8
0
62
256
6
ByLayer
370
-2
48
1
60
0
100
AcDbLine
10
49
20
-1.5875
30
0
11
49
21
-18.527503
31
0
39
0
210
0
220
0
230
1
0
LINE
5
180
100
AcDbEntity
8
0
62
256
6
ByLayer
370
-2
48
1
60
0
100
AcDbLine
10
47.9003
20
-5.3125
30
0
11
47.9003
21
-18.527503
31
0
39
0
210
0
220
0
230
1
0
LINE
5
181
100
AcDbEntity
8
0
62
256
6
ByLayer
370
-2
48
1
60
0
100
AcDbLine
10
49
20
-16.527503
30
0
11
76.666667
21
-16.527503
31
0
39
0
210
0
220
0
230
1
0
LINE
5
182
100
AcDbEntity
8
0
62
256
6
ByLayer
370
-2
48
1
60
0
100
AcDbLine
10
52.5
20
-16.527503
30
0
11
56
21
-16.527503
31
0
39
0
210
0
220
0
230
1
0
LINE
5
183
100
AcDbEntity
8
0
62
256
6
ByLayer
370
-2
48
1
60
0
100
AcDbLine
10
44.4003
20
-16.527503
30
0
11
40.9003
21
-16.527503
31
0
39
0
210
0
220
0
230
1
0
SOLID
5
184
100
AcDbEntity
8
0
62
256
6
ByLayer
370
-1
48
1
60
0
100
AcDbTrace
10
52.5
20
-15.94417
30
0
11
52.5
21
-17.110837
31
0
12
49
22
-16.527503
32
0
13
49
23
-16.527503
33
0
39
0
210
0
220
0
230
1
0
SOLID
5
185
100
AcDbEntity
8
0
62
256
6
ByLayer
370
-1
48
1
60
0
100
AcDbTrace
10
44.4003
20
-17.110837
30
0
11
44.4003
21
-15.94417
31
0
12
47.9003
22
-16.527503
32
0
13
47.9003
23
-16.527503
33
0
39
0
210
0
220
0
230
1
0
MTEXT
5
186
100
AcDbEntity
8
0
62
256
6
ByLayer
370
18
48
1
60
0
100
AcDbMText
10
66.333333
20
-9.527503
30
0
210
0
220
0
230
1
1
\A1;1.10
40
3.5
41
0
44
1
50
0
71
5
72
5
7
iso_b_vert
0
POINT
5
187
100
AcDbEntity
8
Defpoints
62
0
6
ByLayer
370
-1
48
1
60
0
100
AcDbPoint
10
49
20
0
30
0
39
0
210
0
220
0
230
1
50
360
0
POINT
5
188
100
AcDbEntity
8
Defpoints
62
0
6
ByLayer
370
-1
48
1
60
0
100
AcDbPoint
10
47.9003
20
-3.725
30
0
39
0
210
0
220
0
230
1
50
360
0
POINT
5
189
100
AcDbEntity
8
Defpoints
62
0
6
ByLayer
370
-1
48
1
60
0
100
AcDbPoint
10
47.9003
20
-16.527503
30
0
39
0
210
0
220
0
230
1
50
360
0
ENDBLK
5
17E
100
AcDbEntity
8
0
100
AcDbBlockEnd
0
BLOCK
5
191
100
AcDbEntity
8
0
100
AcDbBlockBegin
2
_U3
70
0
10
0
20
0
30
0
3
_U3
0
MTEXT
5
18B
100
AcDbEntity
8
SK2
62
256
6
ByLayer
370
13
48
1
60
0
100
AcDbMText
10
56.026726
20
-15.49487
30
0
210
0
220
0
230
1
1
\W0.5583;1,10
40
3.5
41
0
44
1.084337
50
0
71
7
72
5
7
iso_b_vert
0
LINE
5
18C
100
AcDbEntity
8
SK2
62
256
6
ByLayer
370
13
48
1
60
0
100
AcDbLine
10
49
20
-1.5875
30
0
11
49
21
-18.527503
31
0
39
0
210
0
220
0
230
1
0
LINE
5
18D
100
AcDbEntity
8
SK2
62
256
6
ByLayer
370
13
48
1
60
0
100
AcDbLine
10
47.9003
20
-5.3125
30
0
11
47.9003
21
-18.527503
31
0
39
0
210
0
220
0
230
1
0
LINE
5
18E
100
AcDbEntity
8
SK2
62
256
6
ByLayer
370
13
48
1
60
0
100
AcDbLine
10
39.1503
20
-16.527503
30
0
11
62.121624
21
-16.527503
31
0
39
0
210
0
220
0
230
1
0
SOLID
5
18F
100
AcDbEntity
8
SK2
62
256
6
ByLayer
370
18
48
1
60
0
100
AcDbTrace
10
49
20
-16.527503
30
0
11
52.499998
21
-16.066719
31
0
12
52.500002
22
-16.988287
32
0
13
52.500002
23
-16.988287
33
0
39
0
210
0
220
0
230
1
0
SOLID
5
190
100
AcDbEntity
8
SK2
62
256
6
ByLayer
370
18
48
1
60
0
100
AcDbTrace
10
47.9003
20
-16.527503
30
0
11
44.400302
21
-16.988287
31
0
12
44.400298
22
-16.066719
32
0
13
44.400298
23
-16.066719
33
0
39
0
210
0
220
0
230
1
0
ENDBLK
5
192
100
AcDbEntity
8
0
100
AcDbBlockEnd
0
BLOCK
5
197
100
AcDbEntity
8
0
100
AcDbBlockBegin
2
*D9
70
1
10
0
20
0
30
0
3
*D9
0
LINE
5
199
100
AcDbEntity
8
0
62
256
6
ByLayer
370
-2
48
1
60
0
100
AcDbLine
10
47.9003
20
5.3125
30
0
11
47.9003
21
9.860371
31
0
39
0
210
0
220
0
230
1
0
LINE
5
19A
100
AcDbEntity
8
0
62
256
6
ByLayer
370
-2
48
1
60
0
100
AcDbLine
10
25.5503
20
5.3125
30
0
11
25.5503
21
9.860371
31
0
39
0
210
0
220
0
230
1
0
LINE
5
19B
100
AcDbEntity
8
0
62
256
6
ByLayer
370
-2
48
1
60
0
100
AcDbLine
10
44.4003
20
7.860371
30
0
11
29.0503
21
7.860371
31
0
39
0
210
0
220
0
230
1
0
SOLID
5
19C
100
AcDbEntity
8
0
62
256
6
ByLayer
370
-1
48
1
60
0
100
AcDbTrace
10
44.4003
20
7.277038
30
0
11
44.4003
21
8.443705
31
0
12
47.9003
22
7.860371
32
0
13
47.9003
23
7.860371
33
0
39
0
210
0
220
0
230
1
0
SOLID
5
19D
100
AcDbEntity
8
0
62
256
6
ByLayer
370
-1
48
1
60
0
100
AcDbTrace
10
29.0503
20
8.443705
30
0
11
29.0503
21
7.277038
31
0
12
25.5503
22
7.860371
32
0
13
25.5503
23
7.860371
33
0
39
0
210
0
220
0
230
1
0
MTEXT
5
19E
100
AcDbEntity
8
0
62
256
6
ByLayer
370
18
48
1
60
0
100
AcDbMText
10
36.7253
20
14.860371
30
0
210
0
220
0
230
1
1
\A1;22.35
40
3.5
41
0
44
1
50
0
71
5
72
5
7
iso_b_vert
0
POINT
5
19F
100
AcDbEntity
8
Defpoints
62
0
6
ByLayer
370
-1
48
1
60
0
100
AcDbPoint
10
47.9003
20
3.725
30
0
39
0
210
0
220
0
230
1
50
360
0
POINT
5
1A0
100
AcDbEntity
8
Defpoints
62
0
6
ByLayer
370
-1
48
1
60
0
100
AcDbPoint
10
25.5503
20
3.725
30
0
39
0
210
0
220
0
230
1
50
360
0
POINT
5
1A1
100
AcDbEntity
8
Defpoints
62
0
6
ByLayer
370
-1
48
1
60
0
100
AcDbPoint
10
25.5503
20
7.860371
30
0
39
0
210
0
220
0
230
1
50
360
0
ENDBLK
5
198
100
AcDbEntity
8
0
100
AcDbBlockEnd
0
BLOCK
5
1A9
100
AcDbEntity
8
0
100
AcDbBlockBegin
2
_U4
70
0
10
0
20
0
30
0
3
_U4
0
MTEXT
5
1A3
100
AcDbEntity
8
SK2
62
256
6
ByLayer
370
13
48
1
60
0
100
AcDbMText
10
31.588001
20
8.893005
30
0
210
0
220
0
230
1
1
\W0.7317;22,35
40
3.5
41
0
44
1.084337
50
0
71
7
72
5
7
iso_b_vert
0
LINE
5
1A4
100
AcDbEntity
8
SK2
62
256
6
ByLayer
370
13
48
1
60
0
100
AcDbLine
10
47.9003
20
5.3125
30
0
11
47.9003
21
9.860371
31
0
39
0
210
0
220
0
230
1
0
LINE
5
1A5
100
AcDbEntity
8
SK2
62
256
6
ByLayer
370
13
48
1
60
0
100
AcDbLine
10
25.5503
20
5.3125
30
0
11
25.5503
21
9.860371
31
0
39
0
210
0
220
0
230
1
0
LINE
5
1A6
100
AcDbEntity
8
SK2
62
256
6
ByLayer
370
13
48
1
60
0
100
AcDbLine
10
47.9003
20
7.860371
30
0
11
25.5503
21
7.860371
31
0
39
0
210
0
220
0
230
1
0
SOLID
5
1A7
100
AcDbEntity
8
SK2
62
256
6
ByLayer
370
18
48
1
60
0
100
AcDbTrace
10
47.9003
20
7.860371
30
0
11
44.400302
21
7.399588
31
0
12
44.400298
22
8.321155
32
0
13
44.400298
23
8.321155
33
0
39
0
210
0
220
0
230
1
0
SOLID
5
1A8
100
AcDbEntity
8
SK2
62
256
6
ByLayer
370
18
48
1
60
0
100
AcDbTrace
10
25.5503
20
7.860371
30
0
11
29.050298
21
8.321155
31
0
12
29.050302
22
7.399588
32
0
13
29.050302
23
7.399588
33
0
39
0
210
0
220
0
230
1
0
ENDBLK
5
1AA
100
AcDbEntity
8
0
100
AcDbBlockEnd
0
BLOCK
5
1AF
100
AcDbEntity
8
0
100
AcDbBlockBegin
2
*D11
70
1
10
0
20
0
30
0
3
*D11
0
LINE
5
1B1
100
AcDbEntity
8
0
62
256
6
ByLayer
370
-2
48
1
60
0
100
AcDbLine
10
-40
20
-6.5875
30
0
11
-40
21
-27.690158
31
0
39
0
210
0
220
0
230
1
0
LINE
5
1B2
100
AcDbEntity
8
0
62
256
6
ByLayer
370
-2
48
1
60
0
100
AcDbLine
10
47.9003
20
-5.3125
30
0
11
47.9003
21
-27.690158
31
0
39
0
210
0
220
0
230
1
0
LINE
5
1B3
100
AcDbEntity
8
0
62
256
6
ByLayer
370
-2
48
1
60
0
100
AcDbLine
10
-36.5
20
-25.690158
30
0
11
44.4003
21
-25.690158
31
0
39
0
210
0
220
0
230
1
0
SOLID
5
1B4
100
AcDbEntity
8
0
62
256
6
ByLayer
370
-1
48
1
60
0
100
AcDbTrace
10
-36.5
20
-25.106825
30
0
11
-36.5
21
-26.273491
31
0
12
-40
22
-25.690158
32
0
13
-40
23
-25.690158
33
0
39
0
210
0
220
0
230
1
0
SOLID
5
1B5
100
AcDbEntity
8
0
62
256
6
ByLayer
370
-1
48
1
60
0
100
AcDbTrace
10
44.4003
20
-26.273491
30
0
11
44.4003
21
-25.106825
31
0
12
47.9003
22
-25.690158
32
0
13
47.9003
23
-25.690158
33
0
39
0
210
0
220
0
230
1
0
MTEXT
5
1B6
100
AcDbEntity
8
0
62
256
6
ByLayer
370
18
48
1
60
0
100
AcDbMText
10
3.95015
20
-18.690158
30
0
210
0
220
0
230
1
1
\A1;87.90
40
3.5
41
0
44
1
50
0
71
5
72
5
7
iso_b_vert
0
POINT
5
1B7
100
AcDbEntity
8
Defpoints
62
0
6
ByLayer
370
-1
48
1
60
0
100
AcDbPoint
10
-40
20
-5
30
0
39
0
210
0
220
0
230
1
50
360
0
POINT
5
1B8
100
AcDbEntity
8
Defpoints
62
0
6
ByLayer
370
-1
48
1
60
0
100
AcDbPoint
10
47.9003
20
-3.725
30
0
39
0
210
0
220
0
230
1
50
360
0
POINT
5
1B9
100
AcDbEntity
8
Defpoints
62
0
6
ByLayer
370
-1
48
1
60
0
100
AcDbPoint
10
47.9003
20
-25.690158
30
0
39
0
210
0
220
0
230
1
50
360
0
ENDBLK
5
1B0
100
AcDbEntity
8
0
100
AcDbBlockEnd
0
BLOCK
5
1C1
100
AcDbEntity
8
0
100
AcDbBlockBegin
2
_U5
70
0
10
0
20
0
30
0
3
_U5
0
MTEXT
5
1BB
100
AcDbEntity
8
SK2
62
256
6
ByLayer
370
13
48
1
60
0
100
AcDbMText
10
-1.187149
20
-24.657524
30
0
210
0
220
0
230
1
1
\W0.7317;87,90
40
3.5
41
0
44
1.084337
50
0
71
7
72
5
7
iso_b_vert
0
LINE
5
1BC
100
AcDbEntity
8
SK2
62
256
6
ByLayer
370
13
48
1
60
0
100
AcDbLine
10
-40
20
-6.5875
30
0
11
-40
21
-27.690158
31
0
39
0
210
0
220
0
230
1
0
LINE
5
1BD
100
AcDbEntity
8
SK2
62
256
6
ByLayer
370
13
48
1
60
0
100
AcDbLine
10
47.9003
20
-5.3125
30
0
11
47.9003
21
-27.690158
31
0
39
0
210
0
220
0
230
1
0
LINE
5
1BE
100
AcDbEntity
8
SK2
62
256
6
ByLayer
370
13
48
1
60
0
100
AcDbLine
10
-40
20
-25.690158
30
0
11
47.9003
21
-25.690158
31
0
39
0
210
0
220
0
230
1
0
SOLID
5
1BF
100
AcDbEntity
8
SK2
62
256
6
ByLayer
370
18
48
1
60
0
100
AcDbTrace
10
-40
20
-25.690158
30
0
11
-36.500002
21
-25.229374
31
0
12
-36.499998
22
-26.150942
32
0
13
-36.499998
23
-26.150942
33
0
39
0
210
0
220
0
230
1
0
SOLID
5
1C0
100
AcDbEntity
8
SK2
62
256
6
ByLayer
370
18
48
1
60
0
100
AcDbTrace
10
47.9003
20
-25.690158
30
0
11
44.400302
21
-26.150942
31
0
12
44.400298
22
-25.229374
32
0
13
44.400298
23
-25.229374
33
0
39
0
210
0
220
0
230
1
0
ENDBLK
5
1C2
100
AcDbEntity
8
0
100
AcDbBlockEnd
0
ENDSEC
0
SECTION
2
ENTITIES
0
ARC
5
BD
100
AcDbEntity
8
SK2
62
256
6
ByLayer
370
13
48
1
60
0
100
AcDbCircle
39
0
10
29.2753
20
0
30
0
40
19.0521479481263
210
0
220
0
230
1
100
AcDbArc
50
183.232461
51
225
0
ARC
5
BE
100
AcDbEntity
8
SK2
62
256
6
ByLayer
370
13
48
1
60
0
100
AcDbCircle
39
0
10
29.2753
20
0
30
0
40
19.0521479481263
210
0
220
0
230
1
100
AcDbArc
50
135
51
163.454198
0
POINT
5
70
100
AcDbEntity
8
80
62
256
6
ByLayer
370
18
48
1
60
0
100
AcDbPoint
10
0
20
0
30
0
39
0
210
0
220
0
230
1
50
360
0
POINT
5
72
100
AcDbEntity
8
81
62
256
6
ByLayer
370
18
48
1
60
0
100
AcDbPoint
10
49
20
0
30
0
39
0
210
0
220
0
230
1
50
360
0
POINT
5
74
100
AcDbEntity
8
1
62
256
6
ByLayer
370
18
48
1
60
1
100
AcDbPoint
10
47.9003
20
-3.725
30
0
39
0
210
0
220
0
230
1
50
360
0
POINT
5
76
100
AcDbEntity
8
1
62
256
6
ByLayer
370
18
48
1
60
1
100
AcDbPoint
10
-40
20
-5
30
0
39
0
210
0
220
0
230
1
50
360
0
POINT
5
77
100
AcDbEntity
8
1
62
256
6
ByLayer
370
18
48
1
60
1
100
AcDbPoint
10
24.28
20
5
30
0
39
0
210
0
220
0
230
1
50
360
0
POINT
5
78
100
AcDbEntity
8
1
62
256
6
ByLayer
370
18
48
1
60
1
100
AcDbPoint
10
47.9003
20
-3.725
30
0
39
0
210
0
220
0
230
1
50
360
0
POINT
5
79
100
AcDbEntity
8
1
62
256
6
ByLayer
370
18
48
1
60
1
100
AcDbPoint
10
47.9003
20
3.725
30
0
39
0
210
0
220
0
230
1
50
360
0
POINT
5
7A
100
AcDbEntity
8
1
62
256
6
ByLayer
370
18
48
1
60
1
100
AcDbPoint
10
25.5503
20
3.725
30
0
39
0
210
0
220
0
230
1
50
360
0
POINT
5
7B
100
AcDbEntity
8
1
62
256
6
ByLayer
370
18
48
1
60
1
100
AcDbPoint
10
-40
20
-5
30
0
39
0
210
0
220
0
230
1
50
360
0
POINT
5
7C
100
AcDbEntity
8
1
62
256
6
ByLayer
370
18
48
1
60
1
100
AcDbPoint
10
47.9003
20
-3.725
30
0
39
0
210
0
220
0
230
1
50
360
0
SPLINE
5
BF
100
AcDbEntity
8
SK1
62
256
6
ByLayer
370
18
48
1
60
0
100
AcDbSpline
70
4
71
3
72
12
73
8
40
0
40
0
40
0
40
0
40
0.500000000000001
40
0.500000000000001
40
0.75
40
0.75
40
1
40
1
40
1
40
1
41
1
10
-39.35
20
4.2917081720075
30
0
41
1
10
-39.326410372972
20
4.3157155330008
30
0
41
1
10
-39.303688617819
20
4.33960388892467
30
0
41
1
10
-39.2755992296169
20
4.370174285525
30
0
41
1
10
-39.2670477807071
20
4.37969888897689
30
0
41
1
10
-39.2542670006875
20
4.39459020895563
30
0
41
1
10
-39.25
20
4.40002199346111
30
0
41
1
10
-39.25
20
4.40110163794816
30
0
0
SPLINE
5
C0
100
AcDbEntity
8
SK1
62
256
6
ByLayer
370
18
48
1
60
0
100
AcDbSpline
70
4
71
3
72
8
73
4
40
0
40
0
40
0
40
0
40
1
40
1
40
1
40
1
41
1
10
-40
20
-3.62681990147073
30
0
41
1
10
-39.7840125153856
20
-3.8490911204342
30
0
41
1
10
-39.5672333335849
20
-4.07062798905434
30
0
41
1
10
-39.35
20
-4.2917081720075
30
0
0
SPLINE
5
C1
100
AcDbEntity
8
SK1
62
256
6
ByLayer
370
18
48
1
60
0
100
AcDbSpline
70
4
71
3
72
12
73
8
40
0
40
0
40
0
40
0
40
0.249999999999998
40
0.249999999999998
40
0.499999999999996
40
0.499999999999996
40
1
40
1
40
1
40
1
41
1
10
-39.25
20
-4.14637948303346
30
0
41
1
10
-39.25
20
-4.14058246999346
30
0
41
1
10
-39.254235624227
20
-4.13081297154767
30
0
41
1
10
-39.2670201311554
20
-4.10870633948349
30
0
41
1
10
-39.2754786511825
20
-4.09638748706914
30
0
41
1
10
-39.3037388067419
20
-4.05876850584573
30
0
41
1
10
-39.3264172660865
20
-4.03268390124853
30
0
41
1
10
-39.35
20
-4.0086835554356
30
0
0
SPLINE
5
C2
100
AcDbEntity
8
SK1
62
256
6
ByLayer
370
18
48
1
60
0
100
AcDbSpline
70
4
71
3
72
8
73
4
40
0
40
0
40
0
40
0
40
1
40
1
40
1
40
1
41
1
10
-40
20
3.6268199014707
30
0
41
1
10
-39.7840125153856
20
3.8490911204342
30
0
41
1
10
-39.5672333335849
20
4.07062798905434
30
0
41
1
10
-39.35
20
4.2917081720075
30
0
0
SPLINE
5
C3
100
AcDbEntity
8
SK1
62
256
6
ByLayer
370
18
48
1
60
0
100
AcDbSpline
70
4
71
3
72
8
73
4
40
0
40
0
40
0
40
0
40
1
40
1
40
1
40
1
41
1
10
-39.35
20
-4.00868355543557
30
0
41
1
10
-39.5672421991579
20
-3.78759434991454
30
0
41
1
10
-39.7840146944434
20
-3.56606426140905
30
0
41
1
10
-40
20
-3.34379528489882
30
0
0
SPLINE
5
C4
100
AcDbEntity
8
SK1
62
256
6
ByLayer
370
18
48
1
60
0
100
AcDbSpline
70
4
71
3
72
12
73
8
40
0
40
0
40
0
40
0
40
0.5
40
0.5
40
0.75
40
0.75
40
1
40
1
40
1
40
1
41
1
10
-39.35
20
-4.2917081720075
30
0
41
1
10
-39.326410372972
20
-4.3157155330008
30
0
41
1
10
-39.303688617819
20
-4.33960388892467
30
0
41
1
10
-39.2755992296169
20
-4.370174285525
30
0
41
1
10
-39.2670477807071
20
-4.37969888897689
30
0
41
1
10
-39.2542670006875
20
-4.39459020895566
30
0
41
1
10
-39.25
20
-4.40002199346111
30
0
41
1
10
-39.25
20
-4.40110163794816
30
0
0
SPLINE
5
C5
100
AcDbEntity
8
1
62
256
6
ByLayer
370
18
48
1
60
0
100
AcDbSpline
70
4
71
3
72
8
73
4
40
0
40
0
40
0
40
0
40
1
40
1
40
1
40
1
41
1
10
48.9999558788411
20
0.0417765557696157
30
0
41
1
10
49.0000147105264
20
0.013923873785302
30
0
41
1
10
49.0000147019431
20
-0.0139279373178454
30
0
41
1
10
48.9999558788412
20
-0.0417765557514826
30
0
0
SPLINE
5
C6
100
AcDbEntity
8
1
62
256
6
ByLayer
370
18
48
1
60
0
100
AcDbSpline
70
4
71
3
72
8
73
4
40
0
40
0
40
0
40
0
40
1
40
1
40
1
40
1
41
1
10
47.8785320298624
20
3.62337552138121
30
0
41
1
10
47.8078226865737
20
3.67612102084743
30
0
41
1
10
47.7448512704166
20
3.70845386141946
30
0
41
1
10
47.6889122534405
20
3.72005425342894
30
0
0
SPLINE
5
C7
100
AcDbEntity
8
1
62
256
6
ByLayer
370
18
48
1
60
0
100
AcDbSpline
70
4
71
3
72
8
73
4
40
0
40
0
40
0
40
0
40
1
40
1
40
1
40
1
41
1
10
47.9111671774242
20
-1.89448146718965
30
0
41
1
10
47.7537272420285
20
-2.19056225323476
30
0
41
1
10
47.5998537194193
20
-2.48987946649828
30
0
41
1
10
47.4495824592208
20
-2.79246563958546
30
0
0
SPLINE
5
C8
100
AcDbEntity
8
1
62
256
6
ByLayer
370
18
48
1
60
0
100
AcDbSpline
70
4
71
3
72
36
73
32
40
0
40
0
40
0
40
0
40
0.0775593137316793
40
0.0775593137316793
40
0.13521185662345
40
0.13521185662345
40
0.19286439951522
40
0.19286439951522
40
0.25051694240699
40
0.25051694240699
40
0.30816948529876
40
0.30816948529876
40
0.365822028190531
40
0.365822028190531
40
0.423474571082301
40
0.423474571082301
40
0.481127113974071
40
0.481127113974071
40
0.538779656865841
40
0.538779656865841
40
0.654084742649382
40
0.654084742649382
40
0.711737285541152
40
0.711737285541152
40
0.769389828432922
40
0.769389828432922
40
0.827042371324693
40
0.827042371324693
40
0.884694914216463
40
0.884694914216463
40
1
40
1
40
1
40
1
41
1
10
34.1070166750687
20
3.52931719964212
30
0
41
1
10
34.3696939980533
20
3.5292490185148
30
0
41
1
10
34.6319622716776
20
3.52223907904499
30
0
41
1
10
35.0889817864178
20
3.49840610371456
30
0
41
1
10
35.2839716822911
20
3.48510934554781
30
0
41
1
10
35.6739186281452
20
3.45013562054984
30
0
41
1
10
35.8688503554972
20
3.42860687036475
30
0
41
1
10
36.2590294644595
20
3.37864764043562
30
0
41
1
10
36.4544476212761
20
3.35049254397606
30
0
41
1
10
36.8453950943059
20
3.28668990905536
30
0
41
1
10
37.0405883979745
20
3.25073496457065
30
0
41
1
10
37.4304975332889
20
3.1722272171566
30
0
41
1
10
37.6252476278798
20
3.12981487384079
30
0
41
1
10
38.0148148672607
20
3.03839258261303
30
0
41
1
10
38.209734814147
20
2.98934169450794
30
0
41
1
10
38.5996662372972
20
2.885139050357
30
0
41
1
10
38.7946134021497
20
2.83012920538891
30
0
41
1
10
39.1848227850971
20
2.7140728383458
30
0
41
1
10
39.3803117080685
20
2.65276331627334
30
0
41
1
10
39.9662029318249
20
2.4605475266205
30
0
41
1
10
40.3556829643438
20
2.3208496394661
30
0
41
1
10
40.9399444337231
20
2.098262222691
30
0
41
1
10
41.1348686460753
20
2.02218166159017
30
0
41
1
10
41.5248471782498
20
1.86609584083763
30
0
41
1
10
41.7198260955512
20
1.78587837466176
30
0
41
1
10
42.1101919066577
20
1.62081118748898
30
0
41
1
10
42.3056202235273
20
1.53605725055542
30
0
41
1
10
42.6959185924016
20
1.36449635707743
30
0
41
1
10
42.8909104003106
20
1.2774363874116
30
0
41
1
10
43.4751504721563
20
1.01176137903639
30
0
41
1
10
43.8640557711935
20
0.829419460339921
30
0
41
1
10
44.2537763323172
20
0.644930375163938
30
0
0
SPLINE
5
C9
100
AcDbEntity
8
1
62
256
6
ByLayer
370
18
48
1
60
0
100
AcDbSpline
70
4
71
3
72
8
73
4
40
0
40
0
40
0
40
0
40
1
40
1
40
1
40
1
41
1
10
25.5285110346938
20
-1.43203212290484
30
0
41
1
10
25.3345054936562
20
-1.33840293481563
30
0
41
1
10
25.1402811596848
20
-1.24414221265468
30
0
41
1
10
24.9457993502685
20
-1.14933046920981
30
0
0
SPLINE
5
CA
100
AcDbEntity
8
1
62
256
6
ByLayer
370
18
48
1
60
0
100
AcDbSpline
70
4
71
3
72
28
73
24
40
0
40
0
40
0
40
0
40
0.145552012214817
40
0.145552012214817
40
0.291104024429634
40
0.291104024429634
40
0.363880030537042
40
0.363880030537042
40
0.436656036644451
40
0.436656036644451
40
0.50943204275186
40
0.50943204275186
40
0.582208048859268
40
0.582208048859268
40
0.654984054966677
40
0.654984054966677
40
0.727760061074085
40
0.727760061074085
40
0.873312073288902
40
0.873312073288902
40
0.94608807939631
40
0.94608807939631
40
1
40
1
40
1
40
1
41
1
10
15.6257478113085
20
-2.68251443747931
30
0
41
1
10
15.9846672511126
20
-2.89153835035125
30
0
41
1
10
16.3434112184181
20
-3.08652963522388
30
0
41
1
10
17.0568519794767
20
-3.45446883922264
30
0
41
1
10
17.4113925358244
20
-3.62729370149387
30
0
41
1
10
17.9450332049722
20
-3.86468803331636
30
0
41
1
10
18.12303603483
20
-3.94039541029005
30
0
41
1
10
18.4787956371308
20
-4.08535740849058
30
0
41
1
10
18.6563605387735
20
-4.15474801545761
30
0
41
1
10
19.0128913660759
20
-4.28555284046232
30
0
41
1
10
19.191739685474
20
-4.34709285238603
30
0
41
1
10
19.5503930162684
20
-4.46259178657763
30
0
41
1
10
19.7304991678481
20
-4.51662812391069
30
0
41
1
10
20.0898034463799
20
-4.61689462427827
30
0
41
1
10
20.2686963611806
20
-4.66278320335107
30
0
41
1
10
20.6263554063668
20
-4.74551364325336
30
0
41
1
10
20.8049562236527
20
-4.78247169590287
30
0
41
1
10
21.3396723167294
20
-4.88054375225272
30
0
41
1
10
21.6936698837986
20
-4.92905363970917
30
0
41
1
10
22.2265148414067
20
-4.97505719242665
30
0
41
1
10
22.4042953458128
20
-4.986013322926
30
0
41
1
10
22.7137697871782
20
-4.99748288941845
30
0
41
1
10
22.8453342685351
20
-4.99996269286896
30
0
41
1
10
22.9770089237584
20
-4.99999795165658
30
0
0
SPLINE
5
CB
100
AcDbEntity
8
1
62
256
6
ByLayer
370
18
48
1
60
0
100
AcDbSpline
70
4
71
3
72
42
73
38
40
0
40
0
40
0
40
0
40
0.0625000000000134
40
0.0625000000000134
40
0.125000000000027
40
0.125000000000027
40
0.250000000000046
40
0.250000000000046
40
0.312500000000052
40
0.312500000000052
40
0.375000000000057
40
0.375000000000057
40
0.40625000000006
40
0.40625000000006
40
0.437500000000063
40
0.437500000000063
40
0.453125000000064
40
0.453125000000064
40
0.468750000000065
40
0.468750000000065
40
0.484375000000066
40
0.484375000000066
40
0.500000000000067
40
0.500000000000067
40
0.531250000000063
40
0.531250000000063
40
0.562500000000059
40
0.562500000000059
40
0.625000000000051
40
0.625000000000051
40
0.687500000000042
40
0.687500000000042
40
0.750000000000034
40
0.750000000000034
40
0.875000000000017
40
0.875000000000017
40
1
40
1
40
1
40
1
41
1
10
47.9111671774238
20
-1.89448146718931
30
0
41
1
10
47.843518915287
20
-1.87509643305185
30
0
41
1
10
47.7759575938721
20
-1.85257059007972
30
0
41
1
10
47.6410064450441
20
-1.80132353489401
30
0
41
1
10
47.5733998142094
20
-1.77249873008907
30
0
41
1
10
47.3724761135277
20
-1.67671554567841
30
0
41
1
10
47.2416682519919
20
-1.6015353583729
30
0
41
1
10
47.0524469596401
20
-1.46356333577177
30
0
41
1
10
46.9906552681275
20
-1.41331545716361
30
0
41
1
10
46.8736359558245
20
-1.30184040861812
30
0
41
1
10
46.8181188916873
20
-1.24084907750242
30
0
41
1
10
46.7476775856303
20
-1.13669244451367
30
0
41
1
10
46.7261691377932
20
-1.09935599384457
30
0
41
1
10
46.6929399433447
20
-1.02067455690167
30
0
41
1
10
46.681290522404
20
-0.979463530196142
30
0
41
1
10
46.6776501578901
20
-0.917477172302654
30
0
41
1
10
46.6788129181834
20
-0.897648682811933
30
0
41
1
10
46.686063379206
20
-0.859734648048288
30
0
41
1
10
46.6921579437326
20
-0.841974316029223
30
0
41
1
10
46.7081480939937
20
-0.809983831301764
30
0
41
1
10
46.7181632504472
20
-0.795493644206601
30
0
41
1
10
46.7403994986985
20
-0.770137687545571
30
0
41
1
10
46.7527169548547
20
-0.759055850898307
30
0
41
1
10
46.792423602746
20
-0.729475898185086
30
0
41
1
10
46.8216574785873
20
-0.71516564671083
30
0
41
1
10
46.8825051348256
20
-0.693098944342182
30
0
41
1
10
46.9145187581512
20
-0.685328456393762
30
0
41
1
10
47.0115272460606
20
-0.669070694666203
30
0
41
1
10
47.0778359283496
20
-0.667173437370593
30
0
41
1
10
47.2122739755004
20
-0.673327350198861
30
0
41
1
10
47.2806640180618
20
-0.681671635972094
30
0
41
1
10
47.4164382721561
20
-0.705451812479993
30
0
41
1
10
47.4841372193628
20
-0.720930915808054
30
0
41
1
10
47.6867821113691
20
-0.775987926881555
30
0
41
1
10
47.8212884829913
20
-0.82394948908572
30
0
41
1
10
48.089210207418
20
-0.940680809379415
30
0
41
1
10
48.2224051705294
20
-1.00927644297786
30
0
41
1
10
48.3517112071505
20
-1.0908266814491
30
0
0
SPLINE
5
CC
100
AcDbEntity
8
1
62
256
6
ByLayer
370
18
48
1
60
0
100
AcDbSpline
70
4
71
3
72
12
73
8
40
0
40
0
40
0
40
0
40
0.288035666770936
40
0.288035666770936
40
0.868930663263121
40
0.868930663263121
40
1
40
1
40
1
40
1
41
1
10
15.6257478113085
20
-2.66920707123506
30
0
41
1
10
15.6257478113085
20
-2.80694799114164
30
0
41
1
10
15.6257478113085
20
-2.94976094229412
30
0
41
1
10
15.6257478113085
20
-3.38818563884766
30
0
41
1
10
15.6257478113085
20
-3.69415724425369
30
0
41
1
10
15.6257478113085
20
-4.0865389946361
30
0
41
1
10
15.6257478113085
20
-4.15960387267765
30
0
41
1
10
15.6257478113085
20
-4.23338507123768
30
0
0
SPLINE
5
CD
100
AcDbEntity
8
1
62
256
6
ByLayer
370
13
48
1
60
0
100
AcDbSpline
70
4
71
3
72
8
73
4
40
0
40
0
40
0
40
0
40
1
40
1
40
1
40
1
41
1
10
25.5285110346935
20
-3.5742698503002
30
0
41
1
10
25.6593951694084
20
-3.56370019843556
30
0
41
1
10
25.7902549390477
20
-3.55140501107513
30
0
41
1
10
25.9211198592318
20
-3.53740382416984
30
0
0
SPLINE
5
CE
100
AcDbEntity
8
1
62
256
6
ByLayer
370
18
48
1
60
0
100
AcDbSpline
70
4
71
3
72
28
73
24
40
0
40
0
40
0
40
0
40
0.049307027012082
40
0.049307027012082
40
0.135733660920074
40
0.135733660920074
40
0.222160294828066
40
0.222160294828066
40
0.308586928736057
40
0.308586928736057
40
0.395013562644049
40
0.395013562644049
40
0.481440196552041
40
0.481440196552041
40
0.654293464368024
40
0.654293464368024
40
0.740720098276018
40
0.740720098276018
40
0.827146732184012
40
0.827146732184012
40
0.913573366092006
40
0.913573366092006
40
1
40
1
40
1
40
1
41
1
10
39.950431272943
20
2.45914622455857
30
0
41
1
10
40.0802334539642
20
2.50848551344353
30
0
41
1
10
40.2101064754709
20
2.55665750705126
30
0
41
1
10
40.5676520712136
20
2.68630397590704
30
0
41
1
10
40.7949857310173
20
2.76601036648771
30
0
41
1
10
41.2514498213964
20
2.91619727264236
30
0
41
1
10
41.4804716590232
20
2.98688074055733
30
0
41
1
10
41.9396091655723
20
3.12002136181835
30
0
41
1
10
42.1698626881266
20
3.1830412909936
30
0
41
1
10
42.6296307541076
20
3.29853822263811
30
0
41
1
10
42.8590933361105
20
3.35094444219456
30
0
41
1
10
43.3168962730758
20
3.44572705102837
30
0
41
1
10
43.5448908729995
20
3.48835223031961
30
0
41
1
10
44.2276526524586
20
3.60063434603185
30
0
41
1
10
44.6829652311051
20
3.65401023090939
30
0
41
1
10
45.363779530441
20
3.70310778505109
30
0
41
1
10
45.591009848143
20
3.71403618060137
30
0
41
1
10
46.0463714615406
20
3.72516189341965
30
0
41
1
10
46.274428794532
20
3.72540704508066
30
0
41
1
10
46.7303486518663
20
3.71492100019708
30
0
41
1
10
46.9588073336
20
3.70418409892625
30
0
41
1
10
47.4176742984247
20
3.67196213963538
30
0
41
1
10
47.6483243047106
20
3.65048502977868
30
0
41
1
10
47.8785320298553
20
3.62337552138158
30
0
0
SPLINE
5
CF
100
AcDbEntity
8
1
62
256
6
ByLayer
370
18
48
1
60
0
100
AcDbSpline
70
4
71
3
72
38
73
34
40
0
40
0
40
0
40
0
40
0.249999999999992
40
0.249999999999992
40
0.312499999999993
40
0.312499999999993
40
0.374999999999994
40
0.374999999999994
40
0.49999999999999
40
0.49999999999999
40
0.562499999999988
40
0.562499999999988
40
0.624999999999986
40
0.624999999999986
40
0.749999999999982
40
0.749999999999982
40
0.81249999999998
40
0.81249999999998
40
0.874999999999977
40
0.874999999999977
40
0.89062499999998
40
0.89062499999998
40
0.898437499999981
40
0.898437499999981
40
0.906249999999982
40
0.906249999999982
40
0.914062499999983
40
0.914062499999983
40
0.921874999999984
40
0.921874999999984
40
0.937499999999987
40
0.937499999999987
40
1
40
1
40
1
40
1
41
1
10
44.2537763323172
20
0.644930375163966
30
0
41
1
10
44.5719127243777
20
0.445237558836197
30
0
41
1
10
44.8983680242796
20
0.277026815585202
30
0
41
1
10
45.3194023290515
20
0.115828810573305
30
0
41
1
10
45.4044522870318
20
0.0860809917455754
30
0
41
1
10
45.5738882396874
20
0.0326068056207305
30
0
41
1
10
45.6584949844009
20
0.0087802871720726
30
0
41
1
10
45.9119722970643
20
-0.0537261129262276
30
0
41
1
10
46.08050784408
20
-0.0836395711826583
30
0
41
1
10
46.3325076770392
20
-0.107485065920997
30
0
41
1
10
46.4163715908036
20
-0.111874080804966
30
0
41
1
10
46.5837909446444
20
-0.112580343480971
30
0
41
1
10
46.666796530244
20
-0.108913548143136
30
0
41
1
10
46.9113385917731
20
-0.0851532858221447
30
0
41
1
10
47.0693109101462
20
-0.052385659246454
30
0
41
1
10
47.2975116696619
20
0.0260881662595978
30
0
41
1
10
47.3724053525534
20
0.0573102879874909
30
0
41
1
10
47.5172331143955
20
0.129897473955793
30
0
41
1
10
47.5871905023345
20
0.171243451158745
30
0
41
1
10
47.6710816811897
20
0.229461121864318
30
0
41
1
10
47.6876710355748
20
0.241423084467613
30
0
41
1
10
47.712268737727
20
0.259848741045147
30
0
41
1
10
47.7207970406687
20
0.265544017592788
30
0
41
1
10
47.7355360148907
20
0.280188132277772
30
0
41
1
10
47.741269372297
20
0.290064138989862
30
0
41
1
10
47.7458220144338
20
0.313502064201288
30
0
41
1
10
47.7441353898439
20
0.326658341490088
30
0
41
1
10
47.7407599566107
20
0.352356563225754
30
0
41
1
10
47.7393501492136
20
0.365186171164908
30
0
41
1
10
47.7346306509309
20
0.403709387216935
30
0
41
1
10
47.7313623055755
20
0.429400074821672
30
0
41
1
10
47.7144420303153
20
0.557862947768598
30
0
41
1
10
47.6990555003173
20
0.660706089051359
30
0
41
1
10
47.6821223663908
20
0.763560866824264
30
0
0
SPLINE
5
D0
100
AcDbEntity
8
1
62
256
6
ByLayer
370
18
48
1
60
0
100
AcDbSpline
70
4
71
3
72
11
73
7
40
0
40
0
40
0
40
0
40
0.177617779832841
40
0.64978395767558
40
0.917956933871663
40
1
40
1
40
1
40
1
41
1
10
25.4375618151793
20
3.68659991416089
30
0
41
1
10
25.4450307283086
20
3.68660179543088
30
0
41
1
10
25.472370082323
20
3.67925304915084
30
0
41
1
10
25.5110853988102
20
3.63056291354394
30
0
41
1
10
25.545998286172
20
3.5480375285901
30
0
41
1
10
25.5609315791832
20
3.50498009410751
30
0
41
1
10
25.5644338752279
20
3.49446023495346
30
0
0
SPLINE
5
D1
100
AcDbEntity
8
1
62
256
6
ByLayer
370
18
48
1
60
0
100
AcDbSpline
70
4
71
3
72
8
73
4
40
0
40
0
40
0
40
0
40
1
40
1
40
1
40
1
41
1
10
47.6889122534405
20
3.72005425342894
30
0
41
1
10
47.564672945335
20
3.72319864583844
30
0
41
1
10
47.4404635229056
20
3.72472930867045
30
0
41
1
10
47.3162540397713
20
3.72464947119451
30
0
0
SPLINE
5
D2
100
AcDbEntity
8
1
62
256
6
ByLayer
370
18
48
1
60
0
100
AcDbSpline
70
4
71
3
72
8
73
4
40
0
40
0
40
0
40
0
40
1
40
1
40
1
40
1
41
1
10
26.5971771799833
20
-3.53300464646983
30
0
41
1
10
26.3770800778385
20
-3.56708958922837
30
0
41
1
10
26.1566300517522
20
-3.59643059718056
30
0
41
1
10
25.9356394640298
20
-3.62086190135489
30
0
0
SPLINE
5
D3
100
AcDbEntity
8
1
62
256
6
ByLayer
370
18
48
1
60
0
100
AcDbSpline
70
4
71
3
72
8
73
4
40
0
40
0
40
0
40
0
40
1
40
1
40
1
40
1
41
1
10
25.9356394640298
20
3.62086190135489
30
0
41
1
10
25.9427690660599
20
3.57712754461917
30
0
41
1
10
25.9501332092236
20
3.5182282569933
30
0
41
1
10
25.9568770357346
20
3.44440012958879
30
0
0
SPLINE
5
D4
100
AcDbEntity
8
1
62
256
6
ByLayer
370
18
48
1
60
0
100
AcDbSpline
70
4
71
3
72
12
73
8
40
0
40
0
40
0
40
0
40
0.340077927499079
40
0.340077927499079
40
0.680155854998157
40
0.680155854998157
40
1
40
1
40
1
40
1
41
1
10
47.7339523721678
20
-3.53746136670881
30
0
41
1
10
47.2685391450803
20
-3.54320595721094
30
0
41
1
10
46.803604999742
20
-3.52734536747661
30
0
41
1
10
45.8717336271794
20
-3.45303180728982
30
0
41
1
10
45.4086553503689
20
-3.39492967734432
30
0
41
1
10
44.5136637949645
20
-3.24437946201897
30
0
41
1
10
44.081324873146
20
-3.15419470189738
30
0
41
1
10
43.649193358391
20
-3.0481676235145
30
0
0
SPLINE
5
D5
100
AcDbEntity
8
1
62
256
6
ByLayer
370
13
48
1
60
0
100
AcDbSpline
70
4
71
3
72
24
73
20
40
0
40
0
40
0
40
0
40
0.129412212948113
40
0.129412212948113
40
0.251557146642362
40
0.251557146642362
40
0.312629613489486
40
0.312629613489486
40
0.373702080336611
40
0.373702080336611
40
0.617991947725106
40
0.617991947725106
40
0.740136881419353
40
0.740136881419353
40
0.801209348266477
40
0.801209348266477
40
0.8622818151136
40
0.8622818151136
40
1
40
1
40
1
40
1
41
1
10
43.6491929351577
20
-3.04816751967067
30
0
41
1
10
43.1623870883535
20
-2.92872562532665
30
0
41
1
10
42.675844451555
20
-2.78917899319993
30
0
41
1
10
41.7271782437777
20
-2.48266363116517
30
0
41
1
10
41.2650887951876
20
-2.31790428662313
30
0
41
1
10
40.5676142748711
20
-2.04955776572967
30
0
41
1
10
40.3343488617809
20
-1.95656602077378
30
0
41
1
10
39.8701942358123
20
-1.76598733589222
30
0
41
1
10
39.6387694128313
20
-1.66820839521372
30
0
41
1
10
38.4840333851888
20
-1.16862421420859
30
0
41
1
10
37.5679501918556
20
-0.73458513631553
30
0
41
1
10
36.1867067537843
20
-0.0706569095961527
30
0
41
1
10
35.7252282168523
20
0.153052387680589
30
0
41
1
10
35.0288779270424
20
0.48684885400209
30
0
41
1
10
34.79556777368
20
0.598110797297522
30
0
41
1
10
34.330486805918
20
0.817873742872393
30
0
41
1
10
34.0986598490778
20
0.926346202698426
30
0
41
1
10
33.3456671815958
20
1.27337245336972
30
0
41
1
10
32.8266202608209
20
1.50455777830675
30
0
41
1
10
32.3080199996347
20
1.72258462860492
30
0
0
SPLINE
5
D6
100
AcDbEntity
8
1
62
256
6
ByLayer
370
18
48
1
60
0
100
AcDbSpline
70
4
71
3
72
10
73
6
40
0
40
0
40
0
40
0
40
0.5
40
0.5
40
1
40
1
40
1
40
1
41
1
10
25.5644338752279
20
3.49446023495349
30
0
41
1
10
25.3344046416456
20
3.73789955529972
30
0
41
1
10
25.1049010145475
20
3.97959678469974
30
0
41
1
10
24.646531387216
20
4.45910963601528
30
0
41
1
10
24.4179137498663
20
4.69672878963686
30
0
41
1
10
24.189348533647
20
4.93200029621661
30
0
0
SPLINE
5
D7
100
AcDbEntity
8
1
62
256
6
ByLayer
370
18
48
1
60
0
100
AcDbSpline
70
4
71
3
72
26
73
22
40
0
40
0
40
0
40
0
40
0.125000000000003
40
0.125000000000003
40
0.187500000000003
40
0.187500000000003
40
0.250000000000002
40
0.250000000000002
40
0.375000000000002
40
0.375000000000002
40
0.500000000000001
40
0.500000000000001
40
0.625000000000001
40
0.625000000000001
40
0.75
40
0.75
40
0.8125
40
0.8125
40
0.874999999999999
40
0.874999999999999
40
1
40
1
40
1
40
1
41
1
10
23.5136649793855
20
-0.338331925868175
30
0
41
1
10
23.1861654139647
20
-0.115624483819346
30
0
41
1
10
22.8591618483716
20
0.109306536773971
30
0
41
1
10
22.366093389966
20
0.445146440580061
30
0
41
1
10
22.20134364042
20
0.556881576280205
30
0
41
1
10
21.8710790685676
20
0.779969463193794
30
0
41
1
10
21.7053373029201
20
0.891632638754231
30
0
41
1
10
21.2105193931577
20
1.22360960502698
30
0
41
1
10
20.8821509329219
20
1.43999472037899
30
0
41
1
10
20.2271033611679
20
1.86145042307214
30
0
41
1
10
19.9012289032991
20
2.06761138348662
30
0
41
1
10
19.2483780989551
20
2.46484723894136
30
0
41
1
10
18.9215759455492
20
2.65622528704586
30
0
41
1
10
18.26759838755
20
3.02478615144744
30
0
41
1
10
17.9392743850167
20
3.20053069126178
30
0
41
1
10
17.4440015029648
20
3.45023650223726
30
0
41
1
10
17.2784325814329
20
3.53142924697556
30
0
41
1
10
16.9477198795856
20
3.68769627370375
30
0
41
1
10
16.7826958787853
20
3.76317480565942
30
0
41
1
10
16.2873517884567
20
3.98040954379437
30
0
41
1
10
15.9566108935509
20
4.11292959998079
30
0
41
1
10
15.6257478113085
20
4.23338507131822
30
0
0
SPLINE
5
D8
100
AcDbEntity
8
1
62
256
6
ByLayer
370
18
48
1
60
0
100
AcDbSpline
70
4
71
3
72
10
73
6
40
0
40
0
40
0
40
0
40
0.5
40
0.5
40
1
40
1
40
1
40
1
41
1
10
24.9457993502685
20
-1.14933046920973
30
0
41
1
10
24.6920181118956
20
-1.08692843603339
30
0
41
1
10
24.4487407541195
20
-0.985263212790187
30
0
41
1
10
23.9732009586259
20
-0.712385045071386
30
0
41
1
10
23.7397866616418
20
-0.540071856540209
30
0
41
1
10
23.5136649794021
20
-0.338331925882841
30
0
0
SPLINE
5
D9
100
AcDbEntity
8
1
62
256
6
ByLayer
370
18
48
1
60
0
100
AcDbSpline
70
4
71
3
72
10
73
6
40
0
40
0
40
0
40
0
40
0.5
40
0.5
40
1
40
1
40
1
40
1
41
1
10
47.8785320298575
20
-3.6233755213957
30
0
41
1
10
48.0529497676132
20
-3.15630436312563
30
0
41
1
10
48.2305630458477
20
-2.69044893209761
30
0
41
1
10
48.5898251030994
20
-1.76027575460066
30
0
41
1
10
48.7715216581621
20
-1.2959487580396
30
0
41
1
10
48.9544986909884
20
-0.832342898845411
30
0
0
SPLINE
5
DA
100
AcDbEntity
8
1
62
256
6
ByLayer
370
18
48
1
60
0
100
AcDbSpline
70
4
71
3
72
8
73
4
40
0
40
0
40
0
40
0
40
1
40
1
40
1
40
1
41
1
10
48.9642543417472
20
-0.0480593843851693
30
0
41
1
10
48.7549189986042
20
-0.390971091236224
30
0
41
1
10
48.5507131213849
20
-0.738537655538067
30
0
41
1
10
48.3517112071516
20
-1.09082668144492
30
0
0
SPLINE
5
DB
100
AcDbEntity
8
1
62
256
6
ByLayer
370
18
48
1
60
0
100
AcDbSpline
70
4
71
3
72
19
73
15
40
0
40
0
40
0
40
0
40
0.05541322259784
40
0.124698971977767
40
0.263281582995463
40
0.358608775980446
40
0.436676437791146
40
0.540915582611984
40
0.645386493925116
40
0.680235045832749
40
0.793471728961255
40
0.889209996634693
40
0.94137679783128
40
1
40
1
40
1
40
1
41
1
10
24.9457993502685
20
-1.14933046920973
30
0
41
1
10
24.9549031385574
20
-1.23045841382566
30
0
41
1
10
24.9753938376865
20
-1.41100271419217
30
0
41
1
10
25.0186736190864
20
-1.78056526115247
30
0
41
1
10
25.0685105097655
20
-2.17840835422351
30
0
41
1
10
25.1197657490345
20
-2.54496979700969
30
0
41
1
10
25.165330829526
20
-2.83866638172529
30
0
41
1
10
25.2123403809054
20
-3.10307058633325
30
0
41
1
10
25.2521517260487
20
-3.28614474180546
30
0
41
1
10
25.2934185448038
20
-3.44520905658544
30
0
41
1
10
25.3332624449629
20
-3.56698274100245
30
0
41
1
10
25.375971159772
20
-3.64657343513244
30
0
41
1
10
25.4097853446446
20
-3.68029379642442
30
0
41
1
10
25.4279450904821
20
-3.68659734569246
30
0
41
1
10
25.4375611824388
20
-3.6865999139967
30
0
0
SPLINE
5
DC
100
AcDbEntity
8
1
62
256
6
ByLayer
370
18
48
1
60
0
100
AcDbSpline
70
4
71
3
72
12
73
8
40
0
40
0
40
0
40
0
40
0.0917951784602926
40
0.0917951784602926
40
0.394530118973526
40
0.394530118973526
40
1
40
1
40
1
40
1
41
1
10
17.2635334896103
20
-3.53767244139132
30
0
41
1
10
17.2133743597749
20
-3.56189825707708
30
0
41
1
10
17.1632155230429
20
-3.58587114485974
30
0
41
1
10
16.9477198795855
20
-3.68769627370378
30
0
41
1
10
16.7826958787852
20
-3.76317480565945
30
0
41
1
10
16.2873517884567
20
-3.98040954379437
30
0
41
1
10
15.9566108935509
20
-4.11292959998079
30
0
41
1
10
15.6257478113085
20
-4.2333850713182
30
0
0
SPLINE
5
DD
100
AcDbEntity
8
1
62
256
6
ByLayer
370
18
48
1
60
0
100
AcDbSpline
70
4
71
3
72
64
73
60
40
0
40
0
40
0
40
0
40
0.0339011689287724
40
0.0339011689287724
40
0.0678023378575448
40
0.0678023378575448
40
0.101703506786317
40
0.101703506786317
40
0.13560467571509
40
0.13560467571509
40
0.169505844643862
40
0.169505844643862
40
0.203407013572634
40
0.203407013572634
40
0.237308182501407
40
0.237308182501407
40
0.271209351430179
40
0.271209351430179
40
0.305110520358951
40
0.305110520358951
40
0.339011689287724
40
0.339011689287724
40
0.372912858216496
40
0.372912858216496
40
0.406814027145269
40
0.406814027145269
40
0.440715196074041
40
0.440715196074041
40
0.474616365002814
40
0.474616365002814
40
0.508517533931586
40
0.508517533931586
40
0.542418702860358
40
0.542418702860358
40
0.576319871789131
40
0.576319871789131
40
0.610221040717903
40
0.610221040717903
40
0.644122209646675
40
0.644122209646675
40
0.678023378575448
40
0.678023378575448
40
0.71192454750422
40
0.71192454750422
40
0.745825716432993
40
0.745825716432993
40
0.779726885361765
40
0.779726885361765
40
0.813628054290537
40
0.813628054290537
40
0.84752922321931
40
0.84752922321931
40
0.881430392148082
40
0.881430392148082
40
0.949232730005625
40
0.949232730005625
40
0.983133898934397
40
0.983133898934397
40
1
40
1
40
1
40
1
41
1
10
25.9568770357586
20
3.44440012958918
30
0
41
1
10
26.186699805699
20
3.40089549034636
30
0
41
1
10
26.415986432886
20
3.35254565098032
30
0
41
1
10
26.8739321432095
20
3.24688645069148
30
0
41
1
10
27.1025270452867
20
3.18955056160885
30
0
41
1
10
27.5579309099811
20
3.06472056979643
30
0
41
1
10
27.7853096295567
20
2.99780354889876
30
0
41
1
10
28.2404930655604
20
2.8564244821269
30
0
41
1
10
28.4682108574818
20
2.78190416396052
30
0
41
1
10
28.9228344296841
20
2.62371871558321
30
0
41
1
10
29.149872081698
20
2.54016300260244
30
0
41
1
10
29.6054418318493
20
2.36712347541905
30
0
41
1
10
29.8337734804906
20
2.27739990217361
30
0
41
1
10
30.290799261284
20
2.09029627378732
30
0
41
1
10
30.5192151825625
20
1.99237074103351
30
0
41
1
10
30.9783549624026
20
1.79198070615189
30
0
41
1
10
31.2094447822586
20
1.68903179330152
30
0
41
1
10
31.6697576604383
20
1.47852998889203
30
0
41
1
10
31.8986127632525
20
1.37017369499921
30
0
41
1
10
32.3559094954377
20
1.15151307885657
30
0
41
1
10
32.5843631695332
20
1.04124109865111
30
0
41
1
10
33.0404977463559
20
0.818088937717107
30
0
41
1
10
33.2677928665188
20
0.704440933827982
30
0
41
1
10
33.7222501440905
20
0.47578696148301
30
0
41
1
10
33.94969364781
20
0.361347156502063
30
0
41
1
10
34.4048154008107
20
0.131874153991049
30
0
41
1
10
34.6322326261224
20
0.0163139448862921
30
0
41
1
10
35.087100699505
20
-0.215836122196492
30
0
41
1
10
35.3150883305267
20
-0.331334775792527
30
0
41
1
10
35.7723097819922
20
-0.560880670850821
30
0
41
1
10
36.0014216072794
20
-0.67517538087219
30
0
41
1
10
36.4600240632512
20
-0.904138146082744
30
0
41
1
10
36.6906885815777
20
-1.01774898602187
30
0
41
1
10
37.1508901746059
20
-1.23977163228062
30
0
41
1
10
37.3804613831124
20
-1.3483737358666
30
0
41
1
10
37.8374166500075
20
-1.5629735531615
30
0
41
1
10
38.0652538295612
20
-1.66805345781128
30
0
41
1
10
38.5210427934808
20
-1.87136739351646
30
0
41
1
10
38.7488694123878
20
-1.9698708086143
30
0
41
1
10
39.2034470553536
20
-2.16219521227316
30
0
41
1
10
39.430148990686
20
-2.25603667792871
30
0
41
1
10
39.8846956248714
20
-2.43534532119912
30
0
41
1
10
40.1123271046793
20
-2.52120258801159
30
0
41
1
10
40.5676520712229
20
-2.68630397591031
30
0
41
1
10
40.7949857310263
20
-2.7660103664908
30
0
41
1
10
41.251449821405
20
-2.91619727264506
30
0
41
1
10
41.4804716590317
20
-2.98688074055986
30
0
41
1
10
41.9396091655802
20
-3.12002136182053
30
0
41
1
10
42.1698626881343
20
-3.18304129099565
30
0
41
1
10
42.6296307541148
20
-3.29853822263982
30
0
41
1
10
42.8590933361175
20
-3.3509444421961
30
0
41
1
10
43.3168962730823
20
-3.44572705102962
30
0
41
1
10
43.5448908730057
20
-3.48835223032071
30
0
41
1
10
44.2276526524641
20
-3.60063434603259
30
0
41
1
10
44.6829652311102
20
-3.65401023090993
30
0
41
1
10
45.3637795304454
20
-3.70310778505132
30
0
41
1
10
45.5910098481471
20
-3.71403618060151
30
0
41
1
10
45.9319636663028
20
-3.72236660230036
30
0
41
1
10
46.0453298733491
20
-3.72381796036314
30
0
41
1
10
46.158730916044
20
-3.72393211955784
30
0
0
SPLINE
5
DE
100
AcDbEntity
8
1
62
256
6
ByLayer
370
18
48
1
60
0
100
AcDbSpline
70
4
71
3
72
8
73
4
40
0
40
0
40
0
40
0
40
1
40
1
40
1
40
1
41
1
10
24.189348533659
20
4.93200029620505
30
0
41
1
10
24.1659213360007
20
4.97967545143217
30
0
41
1
10
24.1426981319027
20
5.00202906085192
30
0
41
1
10
24.1194243255852
20
4.99989238198555
30
0
0
SPLINE
5
DF
100
AcDbEntity
8
1
62
256
6
ByLayer
370
18
48
1
60
0
100
AcDbSpline
70
4
71
3
72
8
73
4
40
0
40
0
40
0
40
0
40
1
40
1
40
1
40
1
41
1
10
47.7243354424551
20
-3.63195589106525
30
0
41
1
10
47.7125434112963
20
-3.66135042170154
30
0
41
1
10
47.7007351554589
20
-3.69071710861618
30
0
41
1
10
47.6889122534405
20
-3.72005425342897
30
0
0
SPLINE
5
E0
100
AcDbEntity
8
1
62
256
6
ByLayer
370
18
48
1
60
0
100
AcDbSpline
70
4
71
3
72
30
73
26
40
0
40
0
40
0
40
0
40
0.0056451509441043
40
0.0056451509441043
40
0.0766704973052397
40
0.0766704973052397
40
0.147695843666375
40
0.147695843666375
40
0.289746536388646
40
0.289746536388646
40
0.360771882749781
40
0.360771882749781
40
0.431797229110917
40
0.431797229110917
40
0.573847921833187
40
0.573847921833187
40
0.644873268194323
40
0.644873268194323
40
0.715898614555458
40
0.715898614555458
40
0.857949307277729
40
0.857949307277729
40
0.928974653638864
40
0.928974653638864
40
1
40
1
40
1
40
1
41
1
10
25.5285110346935
20
-3.69133867786877
30
0
41
1
10
25.5285110346935
20
-3.69139588529725
30
0
41
1
10
25.5285110346935
20
-3.69142617963331
30
0
41
1
10
25.5285110346935
20
-3.6914723448001
30
0
41
1
10
25.5285110346935
20
-3.68725106741252
30
0
41
1
10
25.5285110346935
20
-3.67008574713444
30
0
41
1
10
25.5285110346934
20
-3.65704266326247
30
0
41
1
10
25.5285110346935
20
-3.60535606087743
30
0
41
1
10
25.5285110346935
20
-3.55422976650303
30
0
41
1
10
25.5285110346934
20
-3.45309956369289
30
0
41
1
10
25.5285110346935
20
-3.41530040280318
30
0
41
1
10
25.5285110346935
20
-3.33133156665829
30
0
41
1
10
25.5285110346935
20
-3.28494252688429
30
0
41
1
10
25.5285110346935
20
-3.13555140825989
30
0
41
1
10
25.5285110346935
20
-3.02190561523591
30
0
41
1
10
25.5285110346935
20
-2.83081046787547
30
0
41
1
10
25.5285110346935
20
-2.7636473039577
30
0
41
1
10
25.5285110346935
20
-2.622263160232
30
0
41
1
10
25.5285110346935
20
-2.54771912798009
30
0
41
1
10
25.5285110346935
20
-2.31723967724315
30
0
41
1
10
25.5285110346935
20
-2.15369227268582
30
0
41
1
10
25.5285110346935
20
-1.89387731861339
30
0
41
1
10
25.5285110346934
20
-1.80484665497772
30
0
41
1
10
25.5285110346934
20
-1.6218104384551
30
0
41
1
10
25.5285110346935
20
-1.52738229271196
30
0
41
1
10
25.5285110346935
20
-1.43203212290484
30
0
0
SPLINE
5
E1
100
AcDbEntity
8
1
62
256
6
ByLayer
370
18
48
1
60
0
100
AcDbSpline
70
4
71
3
72
14
73
10
40
0
40
0
40
0
40
0
40
0.25
40
0.25
40
0.5
40
0.5
40
0.75
40
0.75
40
1
40
1
40
1
40
1
41
1
10
47.7339523479983
20
-3.53746136700713
30
0
41
1
10
47.7372555162885
20
-3.53710153925394
30
0
41
1
10
47.7399067853972
20
-3.53844286639071
30
0
41
1
10
47.7435038361521
20
-3.54554893650101
30
0
41
1
10
47.7443957143326
20
-3.55139915519587
30
0
41
1
10
47.7433028554615
20
-3.56852007456288
30
0
41
1
10
47.7412514434154
20
-3.57977398121631
30
0
41
1
10
47.7343745358263
20
-3.60500560955646
30
0
41
1
10
47.7296009848615
20
-3.61883023480647
30
0
41
1
10
47.7243354424552
20
-3.63195589106479
30
0
0
SPLINE
5
E2
100
AcDbEntity
8
1
62
256
6
ByLayer
370
18
48
1
60
0
100
AcDbSpline
70
4
71
3
72
8
73
4
40
0
40
0
40
0
40
0
40
1
40
1
40
1
40
1
41
1
10
25.5285110346935
20
-3.6397991548595
30
0
41
1
10
25.664342758103
20
-3.63542358996861
30
0
41
1
10
25.8000380119883
20
-3.62911708272929
30
0
41
1
10
25.9356394640298
20
-3.62086190135489
30
0
0
SPLINE
5
E3
100
AcDbEntity
8
1
62
256
6
ByLayer
370
18
48
1
60
0
100
AcDbSpline
70
4
71
3
72
8
73
4
40
0
40
0
40
0
40
0
40
1
40
1
40
1
40
1
41
1
10
47.8785320298625
20
-3.62337552138109
30
0
41
1
10
47.8078226865738
20
-3.67612102084738
30
0
41
1
10
47.7448512704167
20
-3.70845386141943
30
0
41
1
10
47.6889122534405
20
-3.72005425342894
30
0
0
SPLINE
5
E4
100
AcDbEntity
8
1
62
256
6
ByLayer
370
18
48
1
60
0
100
AcDbSpline
70
4
71
3
72
9
73
5
40
0
40
0
40
0
40
0
40
0.5
40
1
40
1
40
1
40
1
41
1
10
47.8053259618647
20
0.867382817805293
30
0
41
1
10
47.996922898953
20
0.8608331801085
30
0
41
1
10
48.3799565370676
20
0.849402482084685
30
0
41
1
10
48.7630015070533
20
0.837853782509228
30
0
41
1
10
48.954498690987
20
0.832342898848793
30
0
0
SPLINE
5
E5
100
AcDbEntity
8
1
62
256
6
ByLayer
370
18
48
1
60
0
100
AcDbSpline
70
4
71
3
72
8
73
4
40
0
40
0
40
0
40
0
40
1
40
1
40
1
40
1
41
1
10
48.9894777949999
20
0.11778634353351
30
0
41
1
10
48.9901605028451
20
0.096097821482175
30
0
41
1
10
48.9941359801383
20
0.0696426445118732
30
0
41
1
10
48.9999558788379
20
0.0417765557811265
30
0
0
SPLINE
5
E6
100
AcDbEntity
8
1
62
256
6
ByLayer
370
18
48
1
60
0
100
AcDbSpline
70
4
71
3
72
8
73
4
40
0
40
0
40
0
40
0
40
1
40
1
40
1
40
1
41
1
10
25.5285110346935
20
-1.43203212290467
30
0
41
1
10
25.5285110346935
20
-1.41376761979001
30
0
41
1
10
25.5285110346935
20
-1.39457785832675
30
0
41
1
10
25.5285110346935
20
-1.37447771509389
30
0
0
SPLINE
5
E7
100
AcDbEntity
8
1
62
256
6
ByLayer
370
18
48
1
60
0
100
AcDbSpline
70
4
71
3
72
16
73
12
40
0
40
0
40
0
40
0
40
0.273898776732531
40
0.273898776732531
40
0.410848165098796
40
0.410848165098796
40
0.547797553465061
40
0.547797553465061
40
0.821696330197589
40
0.821696330197589
40
1
40
1
40
1
40
1
41
1
10
47.4495824592207
20
-2.79246563958549
30
0
41
1
10
47.4493361493812
20
-2.91820047750497
30
0
41
1
10
47.4548730000029
20
-3.02872430881271
30
0
41
1
10
47.4721194742098
20
-3.17207581945206
30
0
41
1
10
47.4793695874068
20
-3.21609990609682
30
0
41
1
10
47.4970576860899
20
-3.29643687447646
30
0
41
1
10
47.5074300327814
20
-3.33237493035523
30
0
41
1
10
47.5428625373899
20
-3.42685503848693
30
0
41
1
10
47.5723105264635
20
-3.47266059579826
30
0
41
1
10
47.6312619367835
20
-3.52057493542074
30
0
41
1
10
47.6572565166322
20
-3.53224978101372
30
0
41
1
10
47.6858208959489
20
-3.53665437994928
30
0
0
SPLINE
5
E8
100
AcDbEntity
8
1
62
256
6
ByLayer
370
18
48
1
60
0
100
AcDbSpline
70
4
71
3
72
8
73
4
40
0
40
0
40
0
40
0
40
1
40
1
40
1
40
1
41
1
10
25.9568770357588
20
3.44440012959032
30
0
41
1
10
25.8262772305686
20
3.46293831299292
30
0
41
1
10
25.6955067068784
20
3.47964154814446
30
0
41
1
10
25.564433875228
20
3.49446023495349
30
0
0
SPLINE
5
E9
100
AcDbEntity
8
1
62
256
6
ByLayer
370
18
48
1
60
0
100
AcDbSpline
70
4
71
3
72
8
73
4
40
0
40
0
40
0
40
0
40
1
40
1
40
1
40
1
41
1
10
48.9544986909871
20
0.832342898848793
30
0
41
1
10
48.9703291017536
20
0.593885696838015
30
0
41
1
10
48.9819887811273
20
0.355700179830336
30
0
41
1
10
48.9894777949999
20
0.117786343533538
30
0
0
SPLINE
5
EA
100
AcDbEntity
8
1
62
256
6
ByLayer
370
18
48
1
60
0
100
AcDbSpline
70
4
71
3
72
22
73
18
40
0
40
0
40
0
40
0
40
0.125
40
0.125
40
0.1875
40
0.1875
40
0.25
40
0.25
40
0.375
40
0.375
40
0.5
40
0.5
40
0.625
40
0.625
40
0.75
40
0.75
40
1
40
1
40
1
40
1
41
1
10
44.2537763323173
20
0.644930375163966
30
0
41
1
10
44.2950726276719
20
0.439183392490662
30
0
41
1
10
44.3595352617083
20
0.237822329860165
30
0
41
1
10
44.4855546574503
20
-0.0586672838012703
30
0
41
1
10
44.5323907324136
20
-0.156155475893854
30
0
41
1
10
44.6326003643833
20
-0.344760720062453
30
0
41
1
10
44.6862366420445
20
-0.436511346035729
30
0
41
1
10
44.856437884323
20
-0.705048102978509
30
0
41
1
10
44.9832252133917
20
-0.876196934996443
30
0
41
1
10
45.2494865340106
20
-1.19525101539054
30
0
41
1
10
45.3894674778418
20
-1.3442227946289
30
0
41
1
10
45.6804565560324
20
-1.62517510401358
30
0
41
1
10
45.8315061080185
20
-1.75709181580044
30
0
41
1
10
46.1432190570032
20
-2.00611174404889
30
0
41
1
10
46.3021847220666
20
-2.12188271654395
30
0
41
1
10
46.7842391793185
20
-2.44566639847227
30
0
41
1
10
47.1136140135009
20
-2.63145052756761
30
0
41
1
10
47.4495824592208
20
-2.79246563958546
30
0
0
SPLINE
5
EB
100
AcDbEntity
8
1
62
256
6
ByLayer
370
18
48
1
60
0
100
AcDbSpline
70
4
71
3
72
52
73
48
40
0
40
0
40
0
40
0
40
0.0265489218412522
40
0.0265489218412522
40
0.107669845021146
40
0.107669845021146
40
0.148230306611094
40
0.148230306611094
40
0.188790768201041
40
0.188790768201041
40
0.22935122979099
40
0.22935122979099
40
0.269911691380938
40
0.269911691380938
40
0.310472152970885
40
0.310472152970885
40
0.351032614560833
40
0.351032614560833
40
0.391593076150781
40
0.391593076150781
40
0.432153537740729
40
0.432153537740729
40
0.513274460920625
40
0.513274460920625
40
0.553834922510573
40
0.553834922510573
40
0.594395384100521
40
0.594395384100521
40
0.634955845690469
40
0.634955845690469
40
0.675516307280417
40
0.675516307280417
40
0.716076768870365
40
0.716076768870365
40
0.756637230460313
40
0.756637230460313
40
0.797197692050261
40
0.797197692050261
40
0.837758153640208
40
0.837758153640208
40
0.878318615230156
40
0.878318615230156
40
0.918879076820104
40
0.918879076820104
40
0.959439538410052
40
0.959439538410052
40
1
40
1
40
1
40
1
41
1
10
39.9566641811559
20
-2.46000011504577
30
0
41
1
10
39.8289375101276
20
-2.50433253592112
30
0
41
1
10
39.7011158023475
20
-2.54753106893054
30
0
41
1
10
39.1821822900041
20
-2.71771712620446
30
0
41
1
10
38.7924379621317
20
-2.83366789965476
30
0
41
1
10
38.207647571061
20
-2.98987736308339
30
0
41
1
10
38.012731762389
20
-3.03890503341646
30
0
41
1
10
37.62309765517
20
-3.13029556929877
30
0
41
1
10
37.428277822062
20
-3.17270023614145
30
0
41
1
10
37.0381655501094
20
-3.25119640722079
30
0
41
1
10
36.8427193013312
20
-3.28716365933147
30
0
41
1
10
36.451704449422
20
-3.35090265147002
30
0
41
1
10
36.256601026135
20
-3.37898541061278
30
0
41
1
10
35.8666672066686
20
-3.42885925690138
30
0
41
1
10
35.6718264771393
20
-3.45035114377734
30
0
41
1
10
35.2819911415258
20
-3.48525880280954
30
0
41
1
10
35.0870216866222
20
-3.4985312401414
30
0
41
1
10
34.6972725304524
20
-3.51881008138739
30
0
41
1
10
34.5023996187314
20
-3.52540993035203
30
0
41
1
10
34.1120717536441
20
-3.53074045366768
30
0
41
1
10
33.9163868088643
20
-3.52943955585678
30
0
41
1
10
33.3300703158141
20
-3.5143043453366
30
0
41
1
10
32.9406756407827
20
-3.49011593529687
30
0
41
1
10
32.3558285146661
20
-3.42959877932381
30
0
41
1
10
32.160806596001
20
-3.40644089443796
30
0
41
1
10
31.7709006002229
20
-3.35269985200824
30
0
41
1
10
31.5759288120456
20
-3.3221511815708
30
0
41
1
10
31.1853557002667
20
-3.25383438904956
30
0
41
1
10
30.9896174829499
20
-3.216109505974
30
0
41
1
10
30.5989089366514
20
-3.13420489787012
30
0
41
1
10
30.4038968837234
20
-3.08986722519302
30
0
41
1
10
30.0141277079388
20
-2.99359205325058
30
0
41
1
10
29.8193032487875
20
-2.94173391113986
30
0
41
1
10
29.4294024705474
20
-2.8339123389533
30
0
41
1
10
29.2343464884044
20
-2.77733402825564
30
0
41
1
10
28.8443287942576
20
-2.65795881338991
30
0
41
1
10
28.6492984189358
20
-2.59526643685265
30
0
41
1
10
28.2586060582251
20
-2.4644869074618
30
0
41
1
10
28.0629872964596
20
-2.39662902082955
30
0
41
1
10
27.6725741644373
20
-2.25519875308129
30
0
41
1
10
27.47769350126
20
-2.18132404239455
30
0
41
1
10
27.0881132840657
20
-2.02977322862472
30
0
41
1
10
26.8933871694276
20
-1.95219677802964
30
0
41
1
10
26.5036822866898
20
-1.79355741962641
30
0
41
1
10
26.3087044997468
20
-1.71253140549504
30
0
41
1
10
25.9188030883417
20
-1.54627821617527
30
0
41
1
10
25.7238294549234
20
-1.46113792514689
30
0
41
1
10
25.5285110346934
20
-1.37447771509386
30
0
0
SPLINE
5
EC
100
AcDbEntity
8
1
62
256
6
ByLayer
370
18
48
1
60
0
100
AcDbSpline
70
4
71
3
72
8
73
4
40
0
40
0
40
0
40
0
40
1
40
1
40
1
40
1
41
1
10
48.989477795
20
-0.117786343533396
30
0
41
1
10
48.9901605028454
20
-0.0960978214728243
30
0
41
1
10
48.9941359801416
20
-0.0696426444893916
30
0
41
1
10
48.9999558788453
20
-0.0417765557454288
30
0
0
SPLINE
5
ED
100
AcDbEntity
8
1
62
256
6
ByLayer
370
18
48
1
60
0
100
AcDbSpline
70
4
71
3
72
28
73
24
40
0
40
0
40
0
40
0
40
0.0624999999999995
40
0.0624999999999995
40
0.124999999999999
40
0.124999999999999
40
0.187499999999999
40
0.187499999999999
40
0.249999999999998
40
0.249999999999998
40
0.374999999999997
40
0.374999999999997
40
0.499999999999996
40
0.499999999999996
40
0.624999999999995
40
0.624999999999995
40
0.749999999999994
40
0.749999999999994
40
0.874999999999993
40
0.874999999999993
40
0.937499999999996
40
0.937499999999996
40
1
40
1
40
1
40
1
41
1
10
48.3517112071498
20
-1.09082668144771
30
0
41
1
10
48.3490139779225
20
-1.11349066980159
30
0
41
1
10
48.3451474915071
20
-1.1380872397724
30
0
41
1
10
48.3353737858241
20
-1.1888683553706
30
0
41
1
10
48.3294894852899
20
-1.21507793841985
30
0
41
1
10
48.3157654165063
20
-1.26912266623671
30
0
41
1
10
48.3078449127939
20
-1.29718046773451
30
0
41
1
10
48.2906914337149
20
-1.35274130080603
30
0
41
1
10
48.2814113585682
20
-1.38047214950569
30
0
41
1
10
48.2515723086768
20
-1.46353288525958
30
0
41
1
10
48.2295689981538
20
-1.51716740095512
30
0
41
1
10
48.1834725281147
20
-1.61765410927052
30
0
41
1
10
48.1599109178521
20
-1.66341662921889
30
0
41
1
10
48.112726087685
20
-1.74545875451736
30
0
41
1
10
48.0891840497343
20
-1.78144217186463
30
0
41
1
10
48.0450036922113
20
-1.83997518164796
30
0
41
1
10
48.0239822977045
20
-1.86318202328135
30
0
41
1
10
47.984614926007
20
-1.89663468289271
30
0
41
1
10
47.9669122711372
20
-1.90638150403583
30
0
41
1
10
47.9432899765623
20
-1.91032403157746
30
0
41
1
10
47.9358711852132
20
-1.90979648502068
30
0
41
1
10
47.9224938582405
20
-1.90495499303597
30
0
41
1
10
47.9164858431547
20
-1.90067333942093
30
0
41
1
10
47.9111671774241
20
-1.89448146718934
30
0
0
SPLINE
5
EE
100
AcDbEntity
8
1
62
256
6
ByLayer
370
18
48
1
60
0
100
AcDbSpline
70
4
71
3
72
28
73
24
40
0
40
0
40
0
40
0
40
0.0738102577024934
40
0.0738102577024934
40
0.150992736227285
40
0.150992736227285
40
0.228175214752077
40
0.228175214752077
40
0.30535769327687
40
0.30535769327687
40
0.382540171801662
40
0.382540171801662
40
0.459722650326454
40
0.459722650326454
40
0.536905128851246
40
0.536905128851246
40
0.69127008590083
40
0.69127008590083
40
0.768452564425624
40
0.768452564425624
40
0.845635042950416
40
0.845635042950416
40
1
40
1
40
1
40
1
41
1
10
17.2572929468596
20
3.54891997887935
30
0
41
1
10
17.4272151603491
20
3.63087912408741
30
0
41
1
10
17.5970446185405
20
3.70988251954293
30
0
41
1
10
17.945033204969
20
3.86468803331496
30
0
41
1
10
18.1230360348266
20
3.94039541028857
30
0
41
1
10
18.4787956371268
20
4.08535740848902
30
0
41
1
10
18.6563605387693
20
4.15474801545599
30
0
41
1
10
19.0128913660712
20
4.28555284046067
30
0
41
1
10
19.191739685469
20
4.34709285238435
30
0
41
1
10
19.5503930162629
20
4.46259178657596
30
0
41
1
10
19.7304991678423
20
4.51662812390899
30
0
41
1
10
20.0898034463737
20
4.61689462427663
30
0
41
1
10
20.2686963611742
20
4.66278320334948
30
0
41
1
10
20.6263554063599
20
4.74551364325185
30
0
41
1
10
20.8049562236456
20
4.78247169590142
30
0
41
1
10
21.3396723167215
20
4.8805437522515
30
0
41
1
10
21.6936698837902
20
4.92905363970817
30
0
41
1
10
22.2265148413976
20
4.97505719242599
30
0
41
1
10
22.4042953458034
20
4.98601332292549
30
0
41
1
10
22.7598511500471
20
4.99919073079369
30
0
41
1
10
22.9373884103117
20
5.00140411615405
30
0
41
1
10
23.4710658335246
20
4.99459741149155
30
0
41
1
10
23.8294279305243
20
4.97240120015681
30
0
41
1
10
24.1893485336478
20
4.93200029620479
30
0
0
SPLINE
5
EF
100
AcDbEntity
8
1
62
256
6
ByLayer
370
18
48
1
60
0
100
AcDbSpline
70
4
71
3
72
74
73
70
40
0
40
0
40
0
40
0
40
0.0624999999999991
40
0.0624999999999991
40
0.124999999999998
40
0.124999999999998
40
0.187499999999997
40
0.187499999999997
40
0.249999999999996
40
0.249999999999996
40
0.281249999999996
40
0.281249999999996
40
0.312499999999995
40
0.312499999999995
40
0.374999999999994
40
0.374999999999994
40
0.406249999999992
40
0.406249999999992
40
0.437499999999991
40
0.437499999999991
40
0.46874999999999
40
0.46874999999999
40
0.48437499999999
40
0.48437499999999
40
0.499999999999989
40
0.499999999999989
40
0.507812499999989
40
0.507812499999989
40
0.515624999999989
40
0.515624999999989
40
0.531249999999989
40
0.531249999999989
40
0.546874999999989
40
0.546874999999989
40
0.562499999999989
40
0.562499999999989
40
0.570312499999988
40
0.570312499999988
40
0.578124999999988
40
0.578124999999988
40
0.593749999999988
40
0.593749999999988
40
0.624999999999988
40
0.624999999999988
40
0.656249999999988
40
0.656249999999988
40
0.671874999999988
40
0.671874999999988
40
0.673828124999988
40
0.673828124999988
40
0.675781249999988
40
0.675781249999988
40
0.677734374999987
40
0.677734374999987
40
0.679687499999987
40
0.679687499999987
40
0.687499999999988
40
0.687499999999988
40
0.749999999999991
40
0.749999999999991
40
0.812499999999994
40
0.812499999999994
40
0.874999999999996
40
0.874999999999996
40
0.906249999999997
40
0.906249999999997
40
0.937499999999998
40
0.937499999999998
40
1
40
1
40
1
40
1
41
1
10
15.6257478113085
20
-4.23338507131822
30
0
41
1
10
15.2460722975958
20
-4.37255483753623
30
0
41
1
10
14.8716391499735
20
-4.49682994954861
30
0
41
1
10
14.1253472432413
20
-4.70719902659212
30
0
41
1
10
13.7524841828121
20
-4.79339799632987
30
0
41
1
10
13.0125598720903
20
-4.92168455513428
30
0
41
1
10
12.6445378895969
20
-4.96424577767621
30
0
41
1
10
11.9086178160682
20
-5.00588857648128
30
0
41
1
10
11.5407180761392
20
-5.00507133840065
30
0
41
1
10
10.988139821468
20
-4.97038788419593
30
0
41
1
10
10.8038461313454
20
-4.95323422749598
30
0
41
1
10
10.4351813267901
20
-4.90720061043658
30
0
41
1
10
10.2514499991509
20
-4.87839009938207
30
0
41
1
10
9.7046987851428
20
-4.77401112605739
30
0
41
1
10
9.34502780169259
20
-4.68089169579915
30
0
41
1
10
8.8189308263706
20
-4.49639609850075
30
0
41
1
10
8.64619390133379
20
-4.42737730402271
30
0
41
1
10
8.31194530721518
20
-4.27288062025886
30
0
41
1
10
8.14990748564071
20
-4.18729478342269
30
0
41
1
10
7.84048007091943
20
-3.9946327168642
30
0
41
1
10
7.69295135095871
20
-3.88771625984688
30
0
41
1
10
7.48920054668719
20
-3.70394365377166
30
0
41
1
10
7.42395442799102
20
-3.63838017732925
30
0
41
1
10
7.30300476548521
20
-3.49861609157253
30
0
41
1
10
7.24765886800975
20
-3.42492802372482
30
0
41
1
10
7.17456836744697
20
-3.30734538825152
30
0
41
1
10
7.15186873089806
20
-3.26697045650954
30
0
41
1
10
7.11032289075013
20
-3.1835415292426
30
0
41
1
10
7.09150530750259
20
-3.14047748649025
30
0
41
1
10
7.0425864768894
20
-3.00918206298911
30
0
41
1
10
7.01960021303532
20
-2.91815674090947
30
0
41
1
10
6.99673299426178
20
-2.72814349533905
30
0
41
1
10
6.99728929184039
20
-2.62772092815877
30
0
41
1
10
7.02467868959627
20
-2.42923051275474
30
0
41
1
10
7.05106949447509
20
-2.33034233933435
30
0
41
1
10
7.10917122739045
20
-2.18282603253797
30
0
41
1
10
7.13176425464206
20
-2.13358920527486
30
0
41
1
10
7.18169291304085
20
-2.03782683082403
30
0
41
1
10
7.20911494497804
20
-1.99101427655282
30
0
41
1
10
7.29794389037897
20
-1.85347697021575
30
0
41
1
10
7.36587388789451
20
-1.76563620287732
30
0
41
1
10
7.59142989821632
20
-1.51209922570368
30
0
41
1
10
7.76348242558811
20
-1.36348783534925
30
0
41
1
10
8.1328152830356
20
-1.09300303890839
30
0
41
1
10
8.33119604454205
20
-0.97114944674118
30
0
41
1
10
8.63774441828042
20
-0.806376059885764
30
0
41
1
10
8.74175405549045
20
-0.75429230815044
30
0
41
1
10
8.86013902958058
20
-0.69867493172913
30
0
41
1
10
8.87349260927047
20
-0.692799444326965
30
0
41
1
10
8.90233134531192
20
-0.68600779000883
30
0
41
1
10
8.91666674511117
20
-0.684641028065869
30
0
41
1
10
8.94522512336169
20
-0.684625199743351
30
0
41
1
10
8.95944202275865
20
-0.686122925490082
30
0
41
1
10
8.9879050366541
20
-0.68841205142769
30
0
41
1
10
9.00213920414751
20
-0.68949225754028
30
0
41
1
10
9.07329704923703
20
-0.695207026376409
30
0
41
1
10
9.13021749254455
20
-0.700126305131533
30
0
41
1
10
9.64208480388729
20
-0.747486456830529
30
0
41
1
10
10.095467956896
20
-0.811816635579106
30
0
41
1
10
10.9894650588021
20
-0.98118238045987
30
0
41
1
10
11.4304919720099
20
-1.08618832766604
30
0
41
1
10
12.3013679193924
20
-1.3321803330953
30
0
41
1
10
12.7311767377744
20
-1.47329482774413
30
0
41
1
10
13.3684622550412
20
-1.70677057673325
30
0
41
1
10
13.5798980508374
20
-1.78832582725343
30
0
41
1
10
13.9984398779532
20
-1.95664856017058
30
0
41
1
10
14.2057339028742
20
-2.04348707551648
30
0
41
1
10
14.8223973946564
20
-2.3098459181146
30
0
41
1
10
15.2264963856139
20
-2.49527765779206
30
0
41
1
10
15.6257478113085
20
-2.68251443747931
30
0
0
SPLINE
5
F0
100
AcDbEntity
8
1
62
256
6
ByLayer
370
18
48
1
60
0
100
AcDbSpline
70
4
71
3
72
10
73
6
40
0
40
0
40
0
40
0
40
0.5
40
0.5
40
1
40
1
40
1
40
1
41
1
10
48.9999558788466
20
0.0417765557876066
30
0
41
1
10
48.9962251017845
20
0.0264341564928827
30
0
41
1
10
48.991124538855
20
0.009985808559037
30
0
41
1
10
48.9788237581492
20
-0.0212431523325733
30
0
41
1
10
48.9715862703969
20
-0.0360489702332245
30
0
41
1
10
48.9642543417472
20
-0.0480593843851125
30
0
0
SPLINE
5
F1
100
AcDbEntity
8
1
62
256
6
ByLayer
370
18
48
1
60
0
100
AcDbSpline
70
4
71
3
72
8
73
4
40
0
40
0
40
0
40
0
40
1
40
1
40
1
40
1
41
1
10
24.1893485336598
20
-4.93200029620346
30
0
41
1
10
24.1832474125914
20
-4.94441628800229
30
0
41
1
10
24.1771601270295
20
-4.95511489024642
30
0
41
1
10
24.1710821800132
20
-4.96411078555354
30
0
0
SPLINE
5
F2
100
AcDbEntity
8
1
62
256
6
ByLayer
370
18
48
1
60
0
100
AcDbSpline
70
4
71
3
72
34
73
30
40
0
40
0
40
0
40
0
40
0.0241720999577251
40
0.0241720999577251
40
0.0938740928178878
40
0.0938740928178878
40
0.128725089247969
40
0.128725089247969
40
0.163576085678051
40
0.163576085678051
40
0.302980071398376
40
0.302980071398376
40
0.372682064258539
40
0.372682064258539
40
0.442384057118702
40
0.442384057118702
40
0.512086049978865
40
0.512086049978865
40
0.546937046408946
40
0.546937046408946
40
0.581788042839027
40
0.581788042839027
40
0.721192028559351
40
0.721192028559351
40
0.790894021419514
40
0.790894021419514
40
0.860596014279676
40
0.860596014279676
40
1
40
1
40
1
40
1
41
1
10
24.1194243090683
20
-4.99989238046919
30
0
41
1
10
24.1145421802839
20
-4.99944416852603
30
0
41
1
10
24.1096578248404
20
-4.99791830710177
30
0
41
1
10
24.0906713043794
20
-4.98783718316969
30
0
41
1
10
24.0767921750086
20
-4.97138069973997
30
0
41
1
10
24.055711315992
20
-4.93285271968955
30
0
41
1
10
24.0486145630276
20
-4.91764983695549
30
0
41
1
10
24.0344443802199
20
-4.8829287402759
30
0
41
1
10
24.0273551445351
20
-4.86339112396553
30
0
41
1
10
23.9919446250348
20
-4.75501471519064
30
0
41
1
10
23.9644514795547
20
-4.63443123554984
30
0
41
1
10
23.9219911056333
20
-4.40237204815278
30
0
41
1
10
23.9074919341681
20
-4.31594277104347
30
0
41
1
10
23.8791791661179
20
-4.12945418959637
30
0
41
1
10
23.8653829940684
20
-4.02909922106085
30
0
41
1
10
23.8376864729107
20
-3.81448280974709
30
0
41
1
10
23.8235672611599
20
-3.7002333199402
30
0
41
1
10
23.8021696216817
20
-3.51831281754781
30
0
41
1
10
23.7950410778028
20
-3.455909089817
30
0
41
1
10
23.7808588095367
20
-3.32750405988486
30
0
41
1
10
23.7737770692178
20
-3.26135782339907
30
0
41
1
10
23.7386462937943
20
-2.92530733689207
30
0
41
1
10
23.710546010336
20
-2.63730310136859
30
0
41
1
10
23.6684728184523
20
-2.17722010397731
30
0
41
1
10
23.6544650206401
20
-2.01906293428323
30
0
41
1
10
23.6261008866912
20
-1.69330261947678
30
0
41
1
10
23.6120291317034
20
-1.52844462051479
30
0
41
1
10
23.5697132594389
20
-1.02818128520289
30
0
41
1
10
23.5420331552992
20
-0.687094022733561
30
0
41
1
10
23.5136649793874
20
-0.338331925885029
30
0
0
SPLINE
5
F3
100
AcDbEntity
8
1
62
256
6
ByLayer
370
18
48
1
60
0
100
AcDbSpline
70
4
71
3
72
14
73
10
40
0
40
0
40
0
40
0
40
0.287564447139866
40
0.287564447139866
40
0.575128894279732
40
0.575128894279732
40
0.862693341419598
40
0.862693341419598
40
1
40
1
40
1
40
1
41
1
10
15.6257478113085
20
4.23338507131822
30
0
41
1
10
15.2460722975954
20
4.37255483753637
30
0
41
1
10
14.8716391499727
20
4.4968299495489
30
0
41
1
10
14.1253472432396
20
4.70719902659255
30
0
41
1
10
13.75248418281
20
4.79339799633033
30
0
41
1
10
13.0125598720875
20
4.9216845551347
30
0
41
1
10
12.6445378895936
20
4.96424577767652
30
0
41
1
10
12.1008838000981
20
4.99500900684041
30
0
41
1
10
11.9252034943483
20
5.00001747754015
30
0
41
1
10
11.7494774913637
20
5.00002004175991
30
0
0
SPLINE
5
F4
100
AcDbEntity
8
1
62
256
6
ByLayer
370
18
48
1
60
0
100
AcDbSpline
70
4
71
3
72
10
73
6
40
0
40
0
40
0
40
0
40
0.5
40
0.5
40
1
40
1
40
1
40
1
41
1
10
47.8785320298558
20
3.62337552140028
30
0
41
1
10
48.0529826932399
20
3.15621619198635
30
0
41
1
10
48.2305981447215
20
2.6903575573244
30
0
41
1
10
48.5898346777477
20
1.76025146425198
30
0
41
1
10
48.7715088881254
20
1.29598111326871
30
0
41
1
10
48.954498690987
20
0.832342898848793
30
0
0
SPLINE
5
F5
100
AcDbEntity
8
1
62
256
6
ByLayer
370
18
48
1
60
0
100
AcDbSpline
70
4
71
3
72
8
73
4
40
0
40
0
40
0
40
0
40
1
40
1
40
1
40
1
41
1
10
25.5285110346934
20
3.6397991548595
30
0
41
1
10
25.6643427581029
20
3.63542358996861
30
0
41
1
10
25.8000380119884
20
3.62911708272927
30
0
41
1
10
25.9356394640298
20
3.62086190135489
30
0
0
SPLINE
5
F6
100
AcDbEntity
8
1
62
256
6
ByLayer
370
18
48
1
60
0
100
AcDbSpline
70
4
71
3
72
8
73
4
40
0
40
0
40
0
40
0
40
1
40
1
40
1
40
1
41
1
10
24.2313680017666
20
-4.88872227366517
30
0
41
1
10
24.2173612365833
20
-4.90315706459802
30
0
41
1
10
24.2033547866978
20
-4.91758308824717
30
0
41
1
10
24.1893485336599
20
-4.93200029620326
30
0
0
SPLINE
5
F7
100
AcDbEntity
8
1
62
256
6
ByLayer
370
18
48
1
60
0
100
AcDbSpline
70
4
71
3
72
8
73
4
40
0
40
0
40
0
40
0
40
1
40
1
40
1
40
1
41
1
10
48.954498690987
20
-0.832342898849049
30
0
41
1
10
48.9703252194754
20
-0.593944176506909
30
0
41
1
10
48.9819869436166
20
-0.355758554567643
30
0
41
1
10
48.9894777949999
20
-0.117786343533481
30
0
0
SPLINE
5
F8
100
AcDbEntity
8
1
62
256
6
ByLayer
370
18
48
1
60
0
100
AcDbSpline
70
4
71
3
72
8
73
4
40
0
40
0
40
0
40
0
40
1
40
1
40
1
40
1
41
1
10
25.5285110346934
20
3.6397991548595
30
0
41
1
10
25.5285110346934
20
3.67285771587706
30
0
41
1
10
25.5285110346935
20
3.68995211251442
30
0
41
1
10
25.5285110346935
20
3.69133815485949
30
0
0
SPLINE
5
F9
100
AcDbEntity
8
1
62
256
6
ByLayer
370
18
48
1
60
0
100
AcDbSpline
70
4
71
3
72
14
73
10
40
0
40
0
40
0
40
0
40
0.25
40
0.25
40
0.5
40
0.5
40
0.75
40
0.75
40
1
40
1
40
1
40
1
41
1
10
47.6821223663909
20
0.763560866824292
30
0
41
1
10
47.6795999016928
20
0.778882752725025
30
0
41
1
10
47.6805160574792
20
0.794823629842625
30
0
41
1
10
47.6917820862321
20
0.823701437829953
30
0
41
1
10
47.702355466375
20
0.836410681605969
30
0
41
1
10
47.7281534061585
20
0.854451079001421
30
0
41
1
10
47.7431672999305
20
0.86017566512092
30
0
41
1
10
47.773793466844
20
0.866870449305765
30
0
41
1
10
47.7896151803703
20
0.86791988238096
30
0
41
1
10
47.8053259618641
20
0.867382817810409
30
0
0
SPLINE
5
FA
100
AcDbEntity
8
1
62
256
6
ByLayer
370
18
48
1
60
0
100
AcDbSpline
70
4
71
3
72
40
73
36
40
0
40
0
40
0
40
0
40
0.0624999999999987
40
0.0624999999999987
40
0.0937499999999988
40
0.0937499999999988
40
0.124999999999999
40
0.124999999999999
40
0.187499999999999
40
0.187499999999999
40
0.218749999999999
40
0.218749999999999
40
0.249999999999999
40
0.249999999999999
40
0.3125
40
0.3125
40
0.375
40
0.375
40
0.4375
40
0.4375
40
0.5
40
0.5
40
0.5625
40
0.5625
40
0.625000000000001
40
0.625000000000001
40
0.687500000000001
40
0.687500000000001
40
0.750000000000001
40
0.750000000000001
40
0.812500000000001
40
0.812500000000001
40
0.875000000000001
40
0.875000000000001
40
1
40
1
40
1
40
1
41
1
10
47.6889122534405
20
-3.72005425342894
30
0
41
1
10
47.2354857613844
20
-3.73153009663534
30
0
41
1
10
46.7824573387516
20
-3.72151148214309
30
0
41
1
10
46.1013281781617
20
-3.67447734579619
30
0
41
1
10
45.8741149302373
20
-3.65345739547064
30
0
41
1
10
45.4206480836293
20
-3.60107676153777
30
0
41
1
10
45.1941698024822
20
-3.56970063344841
30
0
41
1
10
44.5149267051796
20
-3.46037122093386
30
0
41
1
10
44.0622870345338
20
-3.36724683674234
30
0
41
1
10
43.3811924191869
20
-3.19893413703639
30
0
41
1
10
43.1539628121746
20
-3.13807732973999
30
0
41
1
10
42.7005170132327
20
-3.00776072151552
30
0
41
1
10
42.4740531312204
20
-2.93823929165663
30
0
41
1
10
41.7948079266869
20
-2.71737489379572
30
0
41
1
10
41.3421018856779
20
-2.55382080349548
30
0
41
1
10
40.4338186799546
20
-2.19826726449855
30
0
41
1
10
39.9801624956066
20
-2.0070154666515
30
0
41
1
10
39.0742292868074
20
-1.60450593753137
30
0
41
1
10
38.6214885728035
20
-1.3928463319061
30
0
41
1
10
37.7130573921907
20
-0.954705573846951
30
0
41
1
10
37.2594584465518
20
-0.729360874479539
30
0
41
1
10
36.3535265641518
20
-0.273424363038373
30
0
41
1
10
35.9006668023968
20
-0.0426961933108601
30
0
41
1
10
34.9920121722414
20
0.418078117958658
30
0
41
1
10
34.5385425406506
20
0.646850011721853
30
0
41
1
10
33.6325735676535
20
1.09389536414366
30
0
41
1
10
33.179639321938
20
1.31226592128385
30
0
41
1
10
32.2707587065718
20
1.73276157429061
30
0
41
1
10
31.8173596649906
20
1.93361289168746
30
0
41
1
10
30.9112785699909
20
2.31062173888145
30
0
41
1
10
30.4583223557307
20
2.48691656806267
30
0
41
1
10
29.5492611008313
20
2.80981236519847
30
0
41
1
10
29.096801662995
20
2.95518431001332
30
0
41
1
10
27.7425945165276
20
3.33719442636291
30
0
41
1
10
26.8436802839128
20
3.52047472332214
30
0
41
1
10
25.9356394640298
20
3.62086190135489
30
0
0
SPLINE
5
FB
100
AcDbEntity
8
1
62
256
6
ByLayer
370
18
48
1
60
0
100
AcDbSpline
70
4
71
3
72
16
73
12
40
0
40
0
40
0
40
0
40
0.131829508645123
40
0.131829508645123
40
0.582914972335105
40
0.582914972335105
40
0.695686338257598
40
0.695686338257598
40
0.808457704180091
40
0.808457704180091
40
1
40
1
40
1
40
1
41
1
10
35.8345144821516
20
-0.0091011153898251
30
0
41
1
10
36.1044943451065
20
-0.142982012054801
30
0
41
1
10
36.3737593375211
20
-0.276518947165584
30
0
41
1
10
37.5627348940289
20
-0.862352999663926
30
0
41
1
10
38.4780682777609
20
-1.30425923773197
30
0
41
1
10
39.632523297377
20
-1.80982781887567
30
0
41
1
10
39.8639265106762
20
-1.90861075394764
30
0
41
1
10
40.3281165807784
20
-2.10081421330315
30
0
41
1
10
40.5614425024634
20
-2.19442381572185
30
0
41
1
10
41.1884771707594
20
-2.43668971661617
30
0
41
1
10
41.5809729072655
20
-2.5783458415568
30
0
41
1
10
41.972253017563
20
-2.70808447545207
30
0
0
SPLINE
5
FC
100
AcDbEntity
8
1
62
256
6
ByLayer
370
13
48
1
60
0
100
AcDbSpline
70
4
71
3
72
14
73
10
40
0
40
0
40
0
40
0
40
0.0363186029311955
40
0.0363186029311955
40
0.518159301465601
40
0.518159301465601
40
0.7590796507328
40
0.7590796507328
40
1
40
1
40
1
40
1
41
1
10
41.9722530175758
20
-2.7080844754563
30
0
41
1
10
42.0417086660021
20
-2.7311142198925
30
0
41
1
10
42.1111260108234
20
-2.75376845180119
30
0
41
1
10
43.1010367645157
20
-3.0715334071823
30
0
41
1
10
44.0161850744531
20
-3.29906896396477
30
0
41
1
10
45.3993164604638
20
-3.51914677840685
30
0
41
1
10
45.8625505917289
20
-3.5722902291993
30
0
41
1
10
46.7942372635108
20
-3.63518783551095
30
0
41
1
10
47.2590393379048
20
-3.64468208051892
30
0
41
1
10
47.7243354424542
20
-3.63195589106482
30
0
0
SPLINE
5
FD
100
AcDbEntity
8
1
62
256
6
ByLayer
370
18
48
1
60
0
100
AcDbSpline
70
4
71
3
72
25
73
21
40
0
40
0
40
0
40
0
40
0.0607574147378887
40
0.118930462295375
40
0.159293180723474
40
0.198770814392421
40
0.247845663451044
40
0.30267618665363
40
0.375918427932311
40
0.43589105802157
40
0.489989720362592
40
0.547617395636902
40
0.61337206417697
40
0.682656169546396
40
0.748776494907399
40
0.781332092418827
40
0.81151984572932
40
0.858344461417292
40
0.923762717434218
40
1
40
1
40
1
40
1
41
1
10
25.5284811133725
20
-3.52491964269384
30
0
41
1
10
25.701862808177
20
-3.52509476016482
30
0
41
1
10
26.0412971665272
20
-3.52533257561467
30
0
41
1
10
26.4960996246824
20
-3.52519896524004
30
0
41
1
10
26.8901582421844
20
-3.52514529506678
30
0
41
1
10
27.2582391409099
20
-3.52521671569713
30
0
41
1
10
27.6676313376258
20
-3.52634635017205
30
0
41
1
10
28.173431482364
20
-3.52691342352696
30
0
41
1
10
28.7103399930867
20
-3.52630418383654
30
0
41
1
10
29.2451641151908
20
-3.52600636437475
30
0
41
1
10
29.7354077840104
20
-3.52559544340681
30
0
41
1
10
30.2421557331901
20
-3.52785244122151
30
0
41
1
10
30.7922677966413
20
-3.52778986757056
30
0
41
1
10
31.3666200788719
20
-3.52812420563308
30
0
41
1
10
31.8462009914116
20
-3.5279923278361
30
0
41
1
10
32.214087542163
20
-3.52769103251828
30
0
41
1
10
32.526815935623
20
-3.5279114027297
30
0
41
1
10
32.933530538695
20
-3.52922067192551
30
0
41
1
10
33.4716712341988
20
-3.52846940249776
30
0
41
1
10
33.8760846920191
20
-3.52907293888777
30
0
41
1
10
34.0937219961238
20
-3.52941363754056
30
0
0
SPLINE
5
FE
100
AcDbEntity
8
1
62
256
6
ByLayer
370
18
48
1
60
0
100
AcDbSpline
70
4
71
1
72
4
73
2
40
0
40
0
40
1
40
1
41
1
10
25.4323849816444
20
-3.68627673687666
30
0
41
1
10
25.5281621848365
20
-3.69130343375122
30
0
0
SPLINE
5
FF
100
AcDbEntity
8
1
62
256
6
ByLayer
370
18
48
1
60
0
100
AcDbSpline
70
4
71
2
72
6
73
3
40
0
40
0
40
0
40
1
40
1
40
1
41
1
10
47.3779201420388
20
-3.53763319861338
30
0
41
1
10
47.5330113773218
20
-3.5373536609668
30
0
41
1
10
47.6876372741526
20
-3.53670974234026
30
0
0
SPLINE
5
100
100
AcDbEntity
8
1
62
256
6
ByLayer
370
18
48
1
60
0
100
AcDbSpline
70
4
71
3
72
21
73
17
40
0
40
0
40
0
40
0
40
0.115107725649248
40
0.214777446718597
40
0.302475572098462
40
0.379517359829501
40
0.449003959409063
40
0.528309699038531
40
0.618359101195522
40
0.713972112423881
40
0.79634645919849
40
0.831702563297424
40
0.864161298829451
40
0.902473715387283
40
0.96408419593245
40
1
40
1
40
1
40
1
41
1
10
34.1596406072141
20
3.52947991121334
30
0
41
1
10
33.8706098084919
20
3.52875418294681
30
0
41
1
10
33.3308301433577
20
3.52776420764928
30
0
41
1
10
32.5686261600838
20
3.52808116577174
30
0
41
1
10
31.9026161514595
20
3.52784846461805
30
0
41
1
10
31.3116114020084
20
3.52810632280457
30
0
41
1
10
30.7420262858046
20
3.52785261396588
30
0
41
1
10
30.1395716373719
20
3.52750070615156
30
0
41
1
10
29.471242596329
20
3.52532305868414
30
0
41
1
10
28.7951526171275
20
3.52638561290385
30
0
41
1
10
28.2570365875984
20
3.52672531055981
30
0
41
1
10
27.8782028231764
20
3.52671574714972
30
0
41
1
10
27.6105217743498
20
3.5261157745162
30
0
41
1
10
27.2766537575066
20
3.52527184163139
30
0
41
1
10
26.9340119168496
20
3.52512173162961
30
0
41
1
10
26.6880101745817
20
3.5251693769649
30
0
41
1
10
26.5974195492512
20
3.52519031111839
30
0
0
SPLINE
5
101
100
AcDbEntity
8
1
62
256
6
ByLayer
370
18
48
1
60
0
100
AcDbSpline
70
4
71
2
72
6
73
3
40
0
40
0
40
0
40
1
40
1
40
1
41
1
10
25.438647297163
20
3.68658603039546
30
0
41
1
10
24.7795116939199
20
4.34299267039057
30
0
41
1
10
24.1205741664559
20
4.99872818563131
30
0
0
SPLINE
5
102
100
AcDbEntity
8
1
62
256
6
ByLayer
370
18
48
1
60
0
100
AcDbSpline
70
4
71
1
72
4
73
2
40
0
40
0
40
1
40
1
41
1
10
25.5281634934225
20
3.69130350243006
30
0
41
1
10
25.4323849816447
20
3.68627673687669
30
0
0
SPLINE
5
103
100
AcDbEntity
8
1
62
256
6
ByLayer
370
18
48
1
60
0
100
AcDbSpline
70
4
71
2
72
6
73
3
40
0
40
0
40
0
40
1
40
1
40
1
41
1
10
24.120574166456
20
-4.99872818563151
30
0
41
1
10
24.77951169392
20
-4.34299267039066
30
0
41
1
10
25.4386472971632
20
-3.68658603039546
30
0
0
LINE
5
7D
100
AcDbEntity
8
SK1
62
256
6
ByLayer
370
13
48
1
60
0
100
AcDbLine
10
-39.35
20
-4.008587
30
0
11
-39.35
21
-4.291708
31
0
39
0
210
0
220
0
230
1
0
LINE
5
7F
100
AcDbEntity
8
SK1
62
256
6
ByLayer
370
18
48
1
60
0
100
AcDbLine
10
-40
20
3.62682
30
0
11
-40
21
-3.343795
31
0
39
0
210
0
220
0
230
1
0
LINE
5
80
100
AcDbEntity
8
SK1
62
256
6
ByLayer
370
18
48
1
60
0
100
AcDbLine
10
-39.25
20
4.41
30
0
11
-39.25
21
4.401102
31
0
39
0
210
0
220
0
230
1
0
LINE
5
81
100
AcDbEntity
8
SK1
62
256
6
ByLayer
370
18
48
1
60
0
100
AcDbLine
10
-40
20
-3.343748
30
0
11
-40
21
-3.62682
31
0
39
0
210
0
220
0
230
1
0
LINE
5
82
100
AcDbEntity
8
SK1
62
256
6
ByLayer
370
18
48
1
60
0
100
AcDbLine
10
-38.66
20
5
30
0
11
-38.66
21
-5
31
0
39
0
210
0
220
0
230
1
0
LINE
5
83
100
AcDbEntity
8
SK1
62
256
6
ByLayer
370
18
48
1
60
0
100
AcDbLine
10
-39.25
20
-4.41
30
0
11
-39.25
21
-4.146379
31
0
39
0
210
0
220
0
230
1
0
LINE
5
84
100
AcDbEntity
8
SK1
62
256
6
ByLayer
370
18
48
1
60
0
100
AcDbLine
10
0
20
-5
30
0
11
0
21
5
31
0
39
0
210
0
220
0
230
1
0
LINE
5
85
100
AcDbEntity
8
1
62
256
6
ByLayer
370
13
48
1
60
0
100
AcDbLine
10
47.682122
20
0.763561
30
0
11
48.964254
21
-0.048059
31
0
39
0
210
0
220
0
230
1
0
LINE
5
86
100
AcDbEntity
8
1
62
256
6
ByLayer
370
18
48
1
60
0
100
AcDbLine
10
0
20
-5
30
0
11
0
21
5
31
0
39
0
210
0
220
0
230
1
0
LINE
5
87
100
AcDbEntity
8
1
62
256
6
ByLayer
370
13
48
1
60
0
100
AcDbLine
10
47.805326
20
0.867383
30
0
11
48.989478
21
0.117786
31
0
39
0
210
0
220
0
230
1
0
LINE
5
88
100
AcDbEntity
8
80
62
256
6
ByLayer
370
18
48
1
60
0
100
AcDbLine
10
0
20
0
30
0
11
-5
21
0
31
0
39
0
210
0
220
0
230
1
0
LINE
5
89
100
AcDbEntity
8
SK4
62
256
6
ByLayer
370
18
48
0.05
60
0
100
AcDbLine
10
54
20
0
30
0
11
-45
21
0
31
0
39
0
210
0
220
0
230
1
0
LINE
5
8B
100
AcDbEntity
8
4
62
256
6
ByLayer
370
18
48
0.05
60
0
100
AcDbLine
10
49
20
0
30
0
11
0
21
0
31
0
39
0
210
0
220
0
230
1
0
LINE
5
8D
100
AcDbEntity
8
SK1
62
256
6
ByLayer
370
18
48
1
60
0
100
AcDbLine
10
-39.25
20
-4.41
30
0
11
-38.66
21
-5
31
0
39
0
210
0
220
0
230
1
0
LINE
5
8E
100
AcDbEntity
8
SK1
62
256
6
ByLayer
370
18
48
1
60
0
100
AcDbLine
10
-38.66
20
5
30
0
11
-39.25
21
4.41
31
0
39
0
210
0
220
0
230
1
0
LINE
5
8F
100
AcDbEntity
8
SK1
62
256
6
ByLayer
370
18
48
1
60
0
100
AcDbLine
10
0
20
5
30
0
11
-38.66
21
5
31
0
39
0
210
0
220
0
230
1
0
LINE
5
90
100
AcDbEntity
8
SK1
62
256
6
ByLayer
370
18
48
1
60
0
100
AcDbLine
10
-38.66
20
-5
30
0
11
0
21
-5
31
0
39
0
210
0
220
0
230
1
0
LINE
5
91
100
AcDbEntity
8
1
62
256
6
ByLayer
370
18
48
1
60
0
100
AcDbLine
10
24.122419
20
5
30
0
11
22.979986
21
5
31
0
39
0
210
0
220
0
230
1
0
LINE
5
92
100
AcDbEntity
8
1
62
256
6
ByLayer
370
18
48
1
60
0
100
AcDbLine
10
11.749971
20
5
30
0
11
0
21
5
31
0
39
0
210
0
220
0
230
1
0
LINE
5
93
100
AcDbEntity
8
1
62
256
6
ByLayer
370
18
48
1
60
0
100
AcDbLine
10
0
20
-5
30
0
11
11.749971
21
-5
31
0
39
0
210
0
220
0
230
1
0
LINE
5
94
100
AcDbEntity
8
1
62
256
6
ByLayer
370
18
48
1
60
0
100
AcDbLine
10
22.979986
20
-5
30
0
11
24.122419
21
-5
31
0
39
0
210
0
220
0
230
1
0
LINE
5
95
100
AcDbEntity
8
1
62
256
6
ByLayer
370
18
48
1
60
0
100
AcDbLine
10
47.316706
20
3.724649
30
0
11
46.16485
21
3.723929
31
0
39
0
210
0
220
0
230
1
0
LINE
5
96
100
AcDbEntity
8
1
62
256
6
ByLayer
370
18
48
1
60
0
100
AcDbLine
10
46.16485
20
-3.723929
30
0
11
47.316706
21
-3.724649
31
0
39
0
210
0
220
0
230
1
0
LINE
5
97
100
AcDbEntity
8
81
62
256
6
ByLayer
370
18
48
1
60
0
100
AcDbLine
10
49
20
0
30
0
11
54
21
0
31
0
39
0
210
0
220
0
230
1
0
LINE
5
98
100
AcDbEntity
8
2
62
256
6
ByLayer
370
13
48
1
60
0
100
AcDbLine
10
71.236431
20
-5
30
0
11
71.236431
21
33.420947
31
0
39
0
210
0
220
0
230
1
0
LINE
5
9A
100
AcDbEntity
8
2
62
256
6
ByLayer
370
13
48
1
60
0
100
AcDbLine
10
25.8628
20
5
30
0
11
73.236431
21
5
31
0
39
0
210
0
220
0
230
1
0
LINE
5
9B
100
AcDbEntity
8
2
62
256
6
ByLayer
370
13
48
1
60
0
100
AcDbLine
10
25.8628
20
-5
30
0
11
73.236431
21
-5
31
0
39
0
210
0
220
0
230
1
0
LINE
5
9C
100
AcDbEntity
8
1
62
256
6
ByLayer
370
18
48
1
60
1
100
AcDbLine
10
71.236431
20
5
30
0
11
71.697214
21
1.500002
31
0
39
0
210
0
220
0
230
1
0
LINE
5
9D
100
AcDbEntity
8
1
62
256
6
ByLayer
370
18
48
1
60
1
100
AcDbLine
10
71.697214
20
1.500002
30
0
11
70.775647
21
1.499998
31
0
39
0
210
0
220
0
230
1
0
LINE
5
9E
100
AcDbEntity
8
1
62
256
6
ByLayer
370
18
48
1
60
1
100
AcDbLine
10
70.775647
20
1.499998
30
0
11
71.236431
21
5
31
0
39
0
210
0
220
0
230
1
0
LINE
5
9F
100
AcDbEntity
8
1
62
256
6
ByLayer
370
18
48
1
60
1
100
AcDbLine
10
71.236431
20
-5
30
0
11
70.775647
21
-1.500002
31
0
39
0
210
0
220
0
230
1
0
LINE
5
A0
100
AcDbEntity
8
1
62
256
6
ByLayer
370
18
48
1
60
1
100
AcDbLine
10
70.775647
20
-1.500002
30
0
11
71.697214
21
-1.499998
31
0
39
0
210
0
220
0
230
1
0
LINE
5
A1
100
AcDbEntity
8
1
62
256
6
ByLayer
370
18
48
1
60
1
100
AcDbLine
10
71.697214
20
-1.499998
30
0
11
71.236431
21
-5
31
0
39
0
210
0
220
0
230
1
0
LINE
5
A2
100
AcDbEntity
8
SK2
62
256
6
ByLayer
370
13
48
1
60
0
100
AcDbLine
10
-48.625163
20
-5
30
0
11
-48.625163
21
35.857173
31
0
39
0
210
0
220
0
230
1
0
LINE
5
A4
100
AcDbEntity
8
SK2
62
256
6
ByLayer
370
13
48
1
60
0
100
AcDbLine
10
-41.5875
20
5
30
0
11
-50.625163
21
5
31
0
39
0
210
0
220
0
230
1
0
LINE
5
A5
100
AcDbEntity
8
SK2
62
256
6
ByLayer
370
13
48
1
60
0
100
AcDbLine
10
-41.5875
20
-5
30
0
11
-50.625163
21
-5
31
0
39
0
210
0
220
0
230
1
0
LINE
5
A6
100
AcDbEntity
8
1
62
256
6
ByLayer
370
18
48
1
60
1
100
AcDbLine
10
-48.625163
20
5
30
0
11
-48.164379
21
1.500002
31
0
39
0
210
0
220
0
230
1
0
LINE
5
A7
100
AcDbEntity
8
1
62
256
6
ByLayer
370
18
48
1
60
1
100
AcDbLine
10
-48.164379
20
1.500002
30
0
11
-49.085946
21
1.499998
31
0
39
0
210
0
220
0
230
1
0
LINE
5
A8
100
AcDbEntity
8
1
62
256
6
ByLayer
370
18
48
1
60
1
100
AcDbLine
10
-49.085946
20
1.499998
30
0
11
-48.625163
21
5
31
0
39
0
210
0
220
0
230
1
0
LINE
5
A9
100
AcDbEntity
8
1
62
256
6
ByLayer
370
18
48
1
60
1
100
AcDbLine
10
-48.625163
20
-5
30
0
11
-49.085946
21
-1.500002
31
0
39
0
210
0
220
0
230
1
0
LINE
5
AA
100
AcDbEntity
8
1
62
256
6
ByLayer
370
18
48
1
60
1
100
AcDbLine
10
-49.085946
20
-1.500002
30
0
11
-48.164379
21
-1.499998
31
0
39
0
210
0
220
0
230
1
0
LINE
5
AB
100
AcDbEntity
8
1
62
256
6
ByLayer
370
18
48
1
60
1
100
AcDbLine
10
-48.164379
20
-1.499998
30
0
11
-48.625163
21
-5
31
0
39
0
210
0
220
0
230
1
0
LINE
5
AC
100
AcDbEntity
8
2
62
256
6
ByLayer
370
13
48
1
60
0
100
AcDbLine
10
62.970081
20
-3.725
30
0
11
62.970081
21
32.558364
31
0
39
0
210
0
220
0
230
1
0
LINE
5
AD
100
AcDbEntity
8
2
62
256
6
ByLayer
370
13
48
1
60
0
100
AcDbLine
10
49.4878
20
3.725
30
0
11
64.970081
21
3.725
31
0
39
0
210
0
220
0
230
1
0
LINE
5
AE
100
AcDbEntity
8
2
62
256
6
ByLayer
370
13
48
1
60
0
100
AcDbLine
10
49.4878
20
-3.725
30
0
11
64.970081
21
-3.725
31
0
39
0
210
0
220
0
230
1
0
LINE
5
AF
100
AcDbEntity
8
1
62
256
6
ByLayer
370
18
48
1
60
1
100
AcDbLine
10
62.970081
20
3.725
30
0
11
63.430865
21
0.225002
31
0
39
0
210
0
220
0
230
1
0
LINE
5
B0
100
AcDbEntity
8
1
62
256
6
ByLayer
370
18
48
1
60
1
100
AcDbLine
10
63.430865
20
0.225002
30
0
11
62.509297
21
0.224998
31
0
39
0
210
0
220
0
230
1
0
LINE
5
B1
100
AcDbEntity
8
1
62
256
6
ByLayer
370
18
48
1
60
1
100
AcDbLine
10
62.509297
20
0.224998
30
0
11
62.970081
21
3.725
31
0
39
0
210
0
220
0
230
1
0
LINE
5
B2
100
AcDbEntity
8
1
62
256
6
ByLayer
370
18
48
1
60
1
100
AcDbLine
10
62.970081
20
-3.725
30
0
11
62.509297
21
-0.225002
31
0
39
0
210
0
220
0
230
1
0
LINE
5
B3
100
AcDbEntity
8
1
62
256
6
ByLayer
370
18
48
1
60
1
100
AcDbLine
10
62.509297
20
-0.225002
30
0
11
63.430865
21
-0.224998
31
0
39
0
210
0
220
0
230
1
0
LINE
5
B4
100
AcDbEntity
8
1
62
256
6
ByLayer
370
18
48
1
60
1
100
AcDbLine
10
63.430865
20
-0.224998
30
0
11
62.970081
21
-3.725
31
0
39
0
210
0
220
0
230
1
0
LINE
5
B5
100
AcDbEntity
8
SK2
62
256
6
ByLayer
370
13
48
1
60
0
100
AcDbLine
10
23.152768
20
-6.122532
30
0
11
14.389183
21
-14.886117
31
0
39
0
210
0
220
0
230
1
0
LINE
5
B6
100
AcDbEntity
8
SK2
62
256
6
ByLayer
370
13
48
1
60
0
100
AcDbLine
10
23.152768
20
6.122532
30
0
11
14.389183
21
14.886117
31
0
39
0
210
0
220
0
230
1
0
LINE
5
B7
100
AcDbEntity
8
1
62
256
6
ByLayer
370
18
48
1
60
1
100
AcDbLine
10
15.803397
20
-13.471903
30
0
11
13.104026
21
-11.196886
31
0
39
0
210
0
220
0
230
1
0
LINE
5
B8
100
AcDbEntity
8
1
62
256
6
ByLayer
370
18
48
1
60
1
100
AcDbLine
10
13.104026
20
-11.196886
30
0
11
13.78482
21
-10.575753
31
0
39
0
210
0
220
0
230
1
0
LINE
5
B9
100
AcDbEntity
8
1
62
256
6
ByLayer
370
18
48
1
60
1
100
AcDbLine
10
13.78482
20
-10.575753
30
0
11
15.803397
21
-13.471903
31
0
39
0
210
0
220
0
230
1
0
LINE
5
BA
100
AcDbEntity
8
1
62
256
6
ByLayer
370
18
48
1
60
1
100
AcDbLine
10
15.803397
20
13.471903
30
0
11
13.784823
21
10.575756
31
0
39
0
210
0
220
0
230
1
0
LINE
5
BB
100
AcDbEntity
8
1
62
256
6
ByLayer
370
18
48
1
60
1
100
AcDbLine
10
13.784823
20
10.575756
30
0
11
13.104023
21
11.196883
31
0
39
0
210
0
220
0
230
1
0
LINE
5
BC
100
AcDbEntity
8
1
62
256
6
ByLayer
370
18
48
1
60
1
100
AcDbLine
10
13.104023
20
11.196883
30
0
11
15.803397
21
13.471903
31
0
39
0
210
0
220
0
230
1
0
LINE
5
10A
100
AcDbEntity
8
1
62
256
6
ByLayer
370
18
48
1
60
1
100
AcDbLine
10
71.236431
20
5
30
0
11
71.697214
21
1.500002
31
0
39
0
210
0
220
0
230
1
0
LINE
5
10B
100
AcDbEntity
8
1
62
256
6
ByLayer
370
18
48
1
60
1
100
AcDbLine
10
71.697214
20
1.500002
30
0
11
70.775647
21
1.499998
31
0
39
0
210
0
220
0
230
1
0
LINE
5
10C
100
AcDbEntity
8
1
62
256
6
ByLayer
370
18
48
1
60
1
100
AcDbLine
10
70.775647
20
1.499998
30
0
11
71.236431
21
5
31
0
39
0
210
0
220
0
230
1
0
LINE
5
10E
100
AcDbEntity
8
1
62
256
6
ByLayer
370
18
48
1
60
1
100
AcDbLine
10
71.236431
20
-5
30
0
11
70.775647
21
-1.500002
31
0
39
0
210
0
220
0
230
1
0
LINE
5
10F
100
AcDbEntity
8
1
62
256
6
ByLayer
370
18
48
1
60
1
100
AcDbLine
10
70.775647
20
-1.500002
30
0
11
71.697214
21
-1.499998
31
0
39
0
210
0
220
0
230
1
0
LINE
5
110
100
AcDbEntity
8
1
62
256
6
ByLayer
370
18
48
1
60
1
100
AcDbLine
10
71.697214
20
-1.499998
30
0
11
71.236431
21
-5
31
0
39
0
210
0
220
0
230
1
0
LINE
5
114
100
AcDbEntity
8
1
62
256
6
ByLayer
370
18
48
1
60
1
100
AcDbLine
10
-48.625163
20
5
30
0
11
-48.164379
21
1.500002
31
0
39
0
210
0
220
0
230
1
0
LINE
5
115
100
AcDbEntity
8
1
62
256
6
ByLayer
370
18
48
1
60
1
100
AcDbLine
10
-48.164379
20
1.500002
30
0
11
-49.085946
21
1.499998
31
0
39
0
210
0
220
0
230
1
0
LINE
5
116
100
AcDbEntity
8
1
62
256
6
ByLayer
370
18
48
1
60
1
100
AcDbLine
10
-49.085946
20
1.499998
30
0
11
-48.625163
21
5
31
0
39
0
210
0
220
0
230
1
0
LINE
5
118
100
AcDbEntity
8
1
62
256
6
ByLayer
370
18
48
1
60
1
100
AcDbLine
10
-48.625163
20
-5
30
0
11
-49.085946
21
-1.500002
31
0
39
0
210
0
220
0
230
1
0
LINE
5
119
100
AcDbEntity
8
1
62
256
6
ByLayer
370
18
48
1
60
1
100
AcDbLine
10
-49.085946
20
-1.500002
30
0
11
-48.164379
21
-1.499998
31
0
39
0
210
0
220
0
230
1
0
LINE
5
11A
100
AcDbEntity
8
1
62
256
6
ByLayer
370
18
48
1
60
1
100
AcDbLine
10
-48.164379
20
-1.499998
30
0
11
-48.625163
21
-5
31
0
39
0
210
0
220
0
230
1
0
LINE
5
11E
100
AcDbEntity
8
1
62
256
6
ByLayer
370
18
48
1
60
1
100
AcDbLine
10
62.970081
20
3.725
30
0
11
63.430865
21
0.225002
31
0
39
0
210
0
220
0
230
1
0
LINE
5
11F
100
AcDbEntity
8
1
62
256
6
ByLayer
370
18
48
1
60
1
100
AcDbLine
10
63.430865
20
0.225002
30
0
11
62.509297
21
0.224998
31
0
39
0
210
0
220
0
230
1
0
LINE
5
120
100
AcDbEntity
8
1
62
256
6
ByLayer
370
18
48
1
60
1
100
AcDbLine
10
62.509297
20
0.224998
30
0
11
62.970081
21
3.725
31
0
39
0
210
0
220
0
230
1
0
LINE
5
122
100
AcDbEntity
8
1
62
256
6
ByLayer
370
18
48
1
60
1
100
AcDbLine
10
62.970081
20
-3.725
30
0
11
62.509297
21
-0.225002
31
0
39
0
210
0
220
0
230
1
0
LINE
5
123
100
AcDbEntity
8
1
62
256
6
ByLayer
370
18
48
1
60
1
100
AcDbLine
10
62.509297
20
-0.225002
30
0
11
63.430865
21
-0.224998
31
0
39
0
210
0
220
0
230
1
0
LINE
5
124
100
AcDbEntity
8
1
62
256
6
ByLayer
370
18
48
1
60
1
100
AcDbLine
10
63.430865
20
-0.224998
30
0
11
62.970081
21
-3.725
31
0
39
0
210
0
220
0
230
1
0
LINE
5
127
100
AcDbEntity
8
1
62
256
6
ByLayer
370
18
48
1
60
1
100
AcDbLine
10
15.803397
20
-13.471903
30
0
11
13.104026
21
-11.196886
31
0
39
0
210
0
220
0
230
1
0
LINE
5
128
100
AcDbEntity
8
1
62
256
6
ByLayer
370
18
48
1
60
1
100
AcDbLine
10
13.104026
20
-11.196886
30
0
11
13.78482
21
-10.575753
31
0
39
0
210
0
220
0
230
1
0
LINE
5
129
100
AcDbEntity
8
1
62
256
6
ByLayer
370
18
48
1
60
1
100
AcDbLine
10
13.78482
20
-10.575753
30
0
11
15.803397
21
-13.471903
31
0
39
0
210
0
220
0
230
1
0
LINE
5
12B
100
AcDbEntity
8
1
62
256
6
ByLayer
370
18
48
1
60
1
100
AcDbLine
10
15.803397
20
13.471903
30
0
11
13.784823
21
10.575756
31
0
39
0
210
0
220
0
230
1
0
LINE
5
12C
100
AcDbEntity
8
1
62
256
6
ByLayer
370
18
48
1
60
1
100
AcDbLine
10
13.784823
20
10.575756
30
0
11
13.104023
21
11.196883
31
0
39
0
210
0
220
0
230
1
0
LINE
5
12D
100
AcDbEntity
8
1
62
256
6
ByLayer
370
18
48
1
60
1
100
AcDbLine
10
13.104023
20
11.196883
30
0
11
15.803397
21
13.471903
31
0
39
0
210
0
220
0
230
1
0
MTEXT
5
104
100
AcDbEntity
8
SK6
62
256
6
ByLayer
370
13
48
1
60
0
100
AcDbMText
10
-25.45116
20
36.265328
30
0
210
0
220
0
230
1
1
\W0.7870;462.2-0745-024A1-XM X2BM
40
3.5
41
0
44
1.084337
50
0
71
7
72
5
7
iso_b_vert
0
MTEXT
5
108
100
AcDbEntity
8
2
62
256
6
ByLayer
370
18
48
1
60
0
100
AcDbMText
10
69.671797
20
15.972798
30
0
210
0
220
0
230
1
1
%%c
40
3.5
41
0
44
1.084337
50
90
71
7
72
5
7
iso_b_vert
0
MTEXT
5
109
100
AcDbEntity
8
2
62
256
6
ByLayer
370
18
48
1
60
0
100
AcDbMText
10
69.671797
20
21.195454
30
0
210
0
220
0
230
1
1
\W0.6930;10,000
40
3.5
41
0
44
1.084337
50
90
71
7
72
5
7
iso_b_vert
0
MTEXT
5
112
100
AcDbEntity
8
SK2
62
256
6
ByLayer
370
18
48
1
60
0
100
AcDbMText
10
-50.189796
20
18.409024
30
0
210
0
220
0
230
1
1
%%c
40
3.5
41
0
44
1.084337
50
90
71
7
72
5
7
iso_b_vert
0
MTEXT
5
113
100
AcDbEntity
8
SK2
62
256
6
ByLayer
370
18
48
1
60
0
100
AcDbMText
10
-50.189796
20
23.63168
30
0
210
0
220
0
230
1
1
\W0.6930;10,000
40
3.5
41
0
44
1.084337
50
90
71
7
72
5
7
iso_b_vert
0
MTEXT
5
11C
100
AcDbEntity
8
2
62
256
6
ByLayer
370
18
48
1
60
0
100
AcDbMText
10
61.405448
20
16.481747
30
0
210
0
220
0
230
1
1
%%c
40
3.5
41
0
44
1.084337
50
90
71
7
72
5
7
iso_b_vert
0
MTEXT
5
11D
100
AcDbEntity
8
2
62
256
6
ByLayer
370
18
48
1
60
0
100
AcDbMText
10
61.405448
20
21.704403
30
0
210
0
220
0
230
1
1
\W0.7581;7,450
40
3.5
41
0
44
1.084337
50
90
71
7
72
5
7
iso_b_vert
0
MTEXT
5
126
100
AcDbEntity
8
SK2
62
256
6
ByLayer
370
13
48
1
60
0
100
AcDbMText
10
5.407175
20
-0.291663
30
0
210
0
220
0
230
1
1
\W0.8181;90,0%%d
40
3.5
41
0
44
1.084337
50
0
71
7
72
5
7
iso_b_vert
0
HATCH
5
10D
100
AcDbEntity
8
2
62
256
6
ByLayer
370
13
48
1
60
0
100
AcDbHatch
10
0
20
0
30
0
210
0
220
0
230
1
2
ANSI31
70
0
71
0
91
1
92
5
93
3
72
1
10
71.2364306046164
20
5
11
71.6972143461692
21
1.50000169255318
72
1
10
71.6972143461692
20
1.50000169255318
11
70.7756468630637
21
1.49999830744682
72
1
10
70.7756468630637
20
1.49999830744682
11
71.2364306046164
21
5
97
0
75
0
76
1
52
0
41
0.0062
77
0
78
1
53
45
43
0
44
0
45
-0.0139193969876572
46
0.0139193969876572
79
0
47
0
98
1
10
0
20
0
0
HATCH
5
111
100
AcDbEntity
8
2
62
256
6
ByLayer
370
13
48
1
60
0
100
AcDbHatch
10
0
20
0
30
0
210
0
220
0
230
1
2
ANSI31
70
0
71
0
91
1
92
5
93
3
72
1
10
71.2364306046164
20
-5
11
70.7756468630637
21
-1.50000169255318
72
1
10
70.7756468630637
20
-1.50000169255318
11
71.6972143461692
21
-1.49999830744682
72
1
10
71.6972143461692
20
-1.49999830744682
11
71.2364306046164
21
-5
97
0
75
0
76
1
52
0
41
0.0062
77
0
78
1
53
45
43
0
44
0
45
-0.0139193969876572
46
0.0139193969876572
79
0
47
0
98
1
10
0
20
0
0
HATCH
5
117
100
AcDbEntity
8
SK2
62
256
6
ByLayer
370
13
48
1
60
0
100
AcDbHatch
10
0
20
0
30
0
210
0
220
0
230
1
2
ANSI31
70
0
71
0
91
1
92
5
93
3
72
1
10
-48.6251625675374
20
5
11
-48.1643788259847
21
1.50000169255318
72
1
10
-48.1643788259847
20
1.50000169255318
11
-49.0859463090902
21
1.49999830744682
72
1
10
-49.0859463090902
20
1.49999830744682
11
-48.6251625675374
21
5
97
0
75
0
76
1
52
0
41
0.0062
77
0
78
1
53
45
43
0
44
0
45
-0.0139193969876572
46
0.0139193969876572
79
0
47
0
98
1
10
0
20
0
0
HATCH
5
11B
100
AcDbEntity
8
SK2
62
256
6
ByLayer
370
13
48
1
60
0
100
AcDbHatch
10
0
20
0
30
0
210
0
220
0
230
1
2
ANSI31
70
0
71
0
91
1
92
5
93
3
72
1
10
-48.6251625675374
20
-5
11
-49.0859463090902
21
-1.50000169255318
72
1
10
-49.0859463090902
20
-1.50000169255318
11
-48.1643788259847
21
-1.49999830744682
72
1
10
-48.1643788259847
20
-1.49999830744682
11
-48.6251625675374
21
-5
97
0
75
0
76
1
52
0
41
0.0062
77
0
78
1
53
45
43
0
44
0
45
-0.0139193969876572
46
0.0139193969876572
79
0
47
0
98
1
10
0
20
0
0
HATCH
5
121
100
AcDbEntity
8
2
62
256
6
ByLayer
370
13
48
1
60
0
100
AcDbHatch
10
0
20
0
30
0
210
0
220
0
230
1
2
ANSI31
70
0
71
0
91
1
92
5
93
3
72
1
10
62.9700811011615
20
3.72500000000002
11
63.4308648427142
21
0.225001692553207
72
1
10
63.4308648427142
20
0.225001692553207
11
62.5092973596088
21
0.224998307446839
72
1
10
62.5092973596088
20
0.224998307446839
11
62.9700811011615
21
3.72500000000002
97
0
75
0
76
1
52
0
41
0.0062
77
0
78
1
53
45
43
0
44
0
45
-0.0139193969876572
46
0.0139193969876572
79
0
47
0
98
1
10
0
20
0
0
HATCH
5
125
100
AcDbEntity
8
2
62
256
6
ByLayer
370
13
48
1
60
0
100
AcDbHatch
10
0
20
0
30
0
210
0
220
0
230
1
2
ANSI31
70
0
71
0
91
1
92
5
93
3
72
1
10
62.9700811011615
20
-3.72499999999999
11
62.5092973596088
21
-0.225001692553178
72
1
10
62.5092973596088
20
-0.225001692553178
11
63.4308648427142
21
-0.224998307446811
72
1
10
63.4308648427142
20
-0.224998307446811
11
62.9700811011615
21
-3.72499999999999
97
0
75
0
76
1
52
0
41
0.0062
77
0
78
1
53
45
43
0
44
0
45
-0.0139193969876572
46
0.0139193969876572
79
0
47
0
98
1
10
0
20
0
0
HATCH
5
12A
100
AcDbEntity
8
SK2
62
256
6
ByLayer
370
13
48
1
60
0
100
AcDbHatch
10
0
20
0
30
0
210
0
220
0
230
1
2
ANSI31
70
0
71
0
91
1
92
5
93
3
72
1
10
15.8033969897105
20
-13.4719030102895
11
13.1040257115567
21
-11.1968855353482
72
1
10
13.1040257115567
20
-11.1968855353482
11
13.7848204887992
21
-10.5757534260444
72
1
10
13.7848204887992
20
-10.5757534260444
11
15.8033969897105
21
-13.4719030102895
97
0
75
0
76
1
52
0
41
0.0062
77
0
78
1
53
45
43
0
44
0
45
-0.0139193969876572
46
0.0139193969876572
79
0
47
0
98
1
10
0
20
0
0
HATCH
5
12E
100
AcDbEntity
8
SK2
62
256
6
ByLayer
370
13
48
1
60
0
100
AcDbHatch
10
0
20
0
30
0
210
0
220
0
230
1
2
ANSI31
70
0
71
0
91
1
92
5
93
3
72
1
10
15.8033969897105
20
13.4719030102895
11
13.7848227703356
21
10.5757559267516
72
1
10
13.7848227703356
20
10.5757559267516
11
13.1040234300203
21
11.196883034641
72
1
10
13.1040234300203
20
11.196883034641
11
15.8033969897105
21
13.4719030102895
97
0
75
0
76
1
52
0
41
0.0062
77
0
78
1
53
45
43
0
44
0
45
-0.0139193969876572
46
0.0139193969876572
79
0
47
0
98
1
10
0
20
0
0
DIMENSION
5
130
100
AcDbEntity
8
SK2
62
256
6
ByLayer
370
13
48
1
60
0
100
AcDbDimension
2
_U0
10
47.9003
20
-16.527503
30
0
11
23.95015
21
-16.527503
31
0
70
32
71
1
72
1
41
1
210
0
220
0
230
1
3
Standard
100
AcDbAlignedDimension
13
0
23
0
33
0
14
47.9003
24
-3.725
34
0
50
0
100
AcDbRotatedDimension
1001
ACAD
1000
DSTYLE
1002
{
1070
   371
1070
    13
1070
   372
1070
    13
1070
   170
1070
     0
1070
   144
1040
1.0
1070
   277
1070
     2
1070
   278
1070
    44
1070
   146
1040
1.0
1070
   345
1005
16
1070
   347
1005
16
1070
   346
1005
16
1070
   344
1005
0
1070
   343
1005
0
1070
   172
1070
     1
1070
    76
1070
     0
1070
    75
1070
     0
1070
   282
1070
     0
1070
   281
1070
     0
1070
    71
1070
     0
1070
    74
1070
     0
1070
   279
1070
     0
1070
   173
1070
     1
1070
   340
1005
105
1070
   271
1070
     2
1070
   272
1070
     2
1070
    77
1070
     1
1070
    73
1070
     1
1070
   171
1070
     3
1070
   274
1070
     4
1070
   177
1070
    35
1070
   176
1070
    35
1070
   178
1070
    35
1070
    48
1040
-0.1
1070
    41
1040
3.5
1070
   147
1040
1.75
1070
    42
1040
1.5875
1070
    44
1040
2.0
1070
   140
1040
3.5
1002
}
1001
ACAD_DSTYLE_DIM_LINETYPE
1070
   380
1005
16
1001
ACAD_DSTYLE_DIM_EXT1_LINETYPE
1070
   381
1005
16
1001
ACAD_DSTYLE_DIM_EXT2_LINETYPE
1070
   382
1005
16
0
DIMENSION
5
149
100
AcDbEntity
8
SK2
62
256
6
ByLayer
370
13
48
1
60
0
100
AcDbDimension
2
_U1
10
49
20
-36.192985
30
0
11
4.5
21
-36.192985
31
0
70
32
71
1
72
1
41
1
210
0
220
0
230
1
3
Standard
100
AcDbAlignedDimension
13
-40
23
-5
33
0
14
49
24
0
34
0
50
0
100
AcDbRotatedDimension
1001
ACAD
1000
DSTYLE
1002
{
1070
   371
1070
    13
1070
   372
1070
    13
1070
   170
1070
     0
1070
   144
1040
1.0
1070
   277
1070
     2
1070
   278
1070
    44
1070
   146
1040
1.0
1070
   345
1005
16
1070
   347
1005
16
1070
   346
1005
16
1070
   344
1005
0
1070
   343
1005
0
1070
   172
1070
     1
1070
    76
1070
     0
1070
    75
1070
     0
1070
   282
1070
     0
1070
   281
1070
     0
1070
    71
1070
     0
1070
    74
1070
     0
1070
   279
1070
     0
1070
   173
1070
     1
1070
   340
1005
105
1070
   271
1070
     2
1070
   272
1070
     2
1070
    77
1070
     1
1070
    73
1070
     1
1070
   171
1070
     3
1070
   274
1070
     4
1070
   177
1070
    35
1070
   176
1070
    35
1070
   178
1070
    35
1070
    48
1040
-0.1
1070
    41
1040
3.5
1070
   147
1040
1.75
1070
    42
1040
1.5875
1070
    44
1040
2.0
1070
   140
1040
3.5
1002
}
1001
ACAD_DSTYLE_DIM_LINETYPE
1070
   380
1005
16
1001
ACAD_DSTYLE_DIM_EXT1_LINETYPE
1070
   381
1005
16
1001
ACAD_DSTYLE_DIM_EXT2_LINETYPE
1070
   382
1005
16
0
DIMENSION
5
161
100
AcDbEntity
8
SK2
62
256
6
ByLayer
370
13
48
1
60
0
100
AcDbDimension
2
_U2
10
49
20
15.334119
30
0
11
36.64
21
15.334119
31
0
70
32
71
1
72
1
41
1
210
0
220
0
230
1
3
Standard
100
AcDbAlignedDimension
13
24.28
23
5
33
0
14
49
24
0
34
0
50
0
100
AcDbRotatedDimension
1001
ACAD
1000
DSTYLE
1002
{
1070
   371
1070
    13
1070
   372
1070
    13
1070
   170
1070
     0
1070
   144
1040
1.0
1070
   277
1070
     2
1070
   278
1070
    44
1070
   146
1040
1.0
1070
   345
1005
16
1070
   347
1005
16
1070
   346
1005
16
1070
   344
1005
0
1070
   343
1005
0
1070
   172
1070
     1
1070
    76
1070
     0
1070
    75
1070
     0
1070
   282
1070
     0
1070
   281
1070
     0
1070
    71
1070
     0
1070
    74
1070
     0
1070
   279
1070
     0
1070
   173
1070
     1
1070
   340
1005
105
1070
   271
1070
     2
1070
   272
1070
     2
1070
    77
1070
     1
1070
    73
1070
     1
1070
   171
1070
     3
1070
   274
1070
     4
1070
   177
1070
    35
1070
   176
1070
    35
1070
   178
1070
    35
1070
    48
1040
-0.1
1070
    41
1040
3.5
1070
   147
1040
1.75
1070
    42
1040
1.5875
1070
    44
1040
2.0
1070
   140
1040
3.5
1002
}
1001
ACAD_DSTYLE_DIM_LINETYPE
1070
   380
1005
16
1001
ACAD_DSTYLE_DIM_EXT1_LINETYPE
1070
   381
1005
16
1001
ACAD_DSTYLE_DIM_EXT2_LINETYPE
1070
   382
1005
16
0
DIMENSION
5
179
100
AcDbEntity
8
SK2
62
256
6
ByLayer
370
13
48
1
60
0
100
AcDbDimension
2
_U3
10
47.9003
20
-16.527503
30
0
11
66.333333
21
-16.527503
31
0
70
32
71
1
72
1
41
1
210
0
220
0
230
1
3
Standard
100
AcDbAlignedDimension
13
49
23
0
33
0
14
47.9003
24
-3.725
34
0
50
0
100
AcDbRotatedDimension
1001
ACAD
1000
DSTYLE
1002
{
1070
   371
1070
    13
1070
   372
1070
    13
1070
   170
1070
     0
1070
   144
1040
1.0
1070
   277
1070
     2
1070
   278
1070
    44
1070
   146
1040
1.0
1070
   345
1005
16
1070
   347
1005
16
1070
   346
1005
16
1070
   344
1005
0
1070
   343
1005
0
1070
   172
1070
     1
1070
    76
1070
     0
1070
    75
1070
     0
1070
   282
1070
     0
1070
   281
1070
     0
1070
    71
1070
     0
1070
    74
1070
     0
1070
   279
1070
     0
1070
   173
1070
     1
1070
   340
1005
105
1070
   271
1070
     2
1070
   272
1070
     2
1070
    77
1070
     1
1070
    73
1070
     1
1070
   171
1070
     3
1070
   274
1070
     4
1070
   177
1070
    35
1070
   176
1070
    35
1070
   178
1070
    35
1070
    48
1040
-0.1
1070
    41
1040
3.5
1070
   147
1040
1.75
1070
    42
1040
1.5875
1070
    44
1040
2.0
1070
   140
1040
3.5
1002
}
1001
ACAD_DSTYLE_DIM_LINETYPE
1070
   380
1005
16
1001
ACAD_DSTYLE_DIM_EXT1_LINETYPE
1070
   381
1005
16
1001
ACAD_DSTYLE_DIM_EXT2_LINETYPE
1070
   382
1005
16
0
DIMENSION
5
193
100
AcDbEntity
8
SK2
62
256
6
ByLayer
370
13
48
1
60
0
100
AcDbDimension
2
_U4
10
25.5503
20
7.860371
30
0
11
36.7253
21
7.860371
31
0
70
32
71
1
72
1
41
1
210
0
220
0
230
1
3
Standard
100
AcDbAlignedDimension
13
47.9003
23
3.725
33
0
14
25.5503
24
3.725
34
0
50
0
100
AcDbRotatedDimension
1001
ACAD
1000
DSTYLE
1002
{
1070
   371
1070
    13
1070
   372
1070
    13
1070
   170
1070
     0
1070
   144
1040
1.0
1070
   277
1070
     2
1070
   278
1070
    44
1070
   146
1040
1.0
1070
   345
1005
16
1070
   347
1005
16
1070
   346
1005
16
1070
   344
1005
0
1070
   343
1005
0
1070
   172
1070
     1
1070
    76
1070
     0
1070
    75
1070
     0
1070
   282
1070
     0
1070
   281
1070
     0
1070
    71
1070
     0
1070
    74
1070
     0
1070
   279
1070
     0
1070
   173
1070
     1
1070
   340
1005
105
1070
   271
1070
     2
1070
   272
1070
     2
1070
    77
1070
     1
1070
    73
1070
     1
1070
   171
1070
     3
1070
   274
1070
     4
1070
   177
1070
    35
1070
   176
1070
    35
1070
   178
1070
    35
1070
    48
1040
-0.1
1070
    41
1040
3.5
1070
   147
1040
1.75
1070
    42
1040
1.5875
1070
    44
1040
2.0
1070
   140
1040
3.5
1002
}
1001
ACAD_DSTYLE_DIM_LINETYPE
1070
   380
1005
16
1001
ACAD_DSTYLE_DIM_EXT1_LINETYPE
1070
   381
1005
16
1001
ACAD_DSTYLE_DIM_EXT2_LINETYPE
1070
   382
1005
16
0
DIMENSION
5
1AB
100
AcDbEntity
8
SK2
62
256
6
ByLayer
370
13
48
1
60
0
100
AcDbDimension
2
_U5
10
47.9003
20
-25.690158
30
0
11
3.95015
21
-25.690158
31
0
70
32
71
1
72
1
41
1
210
0
220
0
230
1
3
Standard
100
AcDbAlignedDimension
13
-40
23
-5
33
0
14
47.9003
24
-3.725
34
0
50
0
100
AcDbRotatedDimension
1001
ACAD
1000
DSTYLE
1002
{
1070
   371
1070
    13
1070
   372
1070
    13
1070
   170
1070
     0
1070
   144
1040
1.0
1070
   277
1070
     2
1070
   278
1070
    44
1070
   146
1040
1.0
1070
   345
1005
16
1070
   347
1005
16
1070
   346
1005
16
1070
   344
1005
0
1070
   343
1005
0
1070
   172
1070
     1
1070
    76
1070
     0
1070
    75
1070
     0
1070
   282
1070
     0
1070
   281
1070
     0
1070
    71
1070
     0
1070
    74
1070
     0
1070
   279
1070
     0
1070
   173
1070
     1
1070
   340
1005
105
1070
   271
1070
     2
1070
   272
1070
     2
1070
    77
1070
     1
1070
    73
1070
     1
1070
   171
1070
     3
1070
   274
1070
     4
1070
   177
1070
    35
1070
   176
1070
    35
1070
   178
1070
    35
1070
    48
1040
-0.1
1070
    41
1040
3.5
1070
   147
1040
1.75
1070
    42
1040
1.5875
1070
    44
1040
2.0
1070
   140
1040
3.5
1002
}
1001
ACAD_DSTYLE_DIM_LINETYPE
1070
   380
1005
16
1001
ACAD_DSTYLE_DIM_EXT1_LINETYPE
1070
   381
1005
16
1001
ACAD_DSTYLE_DIM_EXT2_LINETYPE
1070
   382
1005
16
0
ENDSEC
0
SECTION
2
OBJECTS
0
DICTIONARY
5
233
330
0
100
AcDbDictionary
280
0
281
1
3
ACAD_GROUP
350
234
3
ACAD_MLINESTYLE
350
235
0
DICTIONARY
5
234
330
0
100
AcDbDictionary
280
0
281
1
0
DICTIONARY
5
235
330
0
100
AcDbDictionary
280
0
281
1
3
Standard
350
18
0
MLINESTYLE
5
18
330
235
100
AcDbMlineStyle
2
Standard
70
0
3

62
256
51
90
52
90
71
2
49
-0.5
62
256
6
ByLayer
49
0.5
62
256
6
ByLayer
0
RASTERVARIABLES
5
221
330

100
AcDbRasterVariables
90
0
70
1
71
1
72
1
0
ENDSEC
0
EOF
