0
SECTION
2
HEADER
9
$ACADVER
1
AC1015
9
$DWGCODEPAGE
3
ANSI_1252
9
$HANDSEED
5
217
9
$ANGBASE
50
0
9
$ANGDIR
70
0
9
$ATTMODE
70
1
9
$AUNITS
70
0
9
$AUPREC
70
0
9
$CECOLOR
62
256
9
$CELTSCALE
40
1
9
$CELTYPE
6
ByLayer
9
$CELWEIGHT
370
18
9
$CLAYER
8
0
9
$CMLJUST
70
0
9
$CMLSCALE
40
1
9
$CMLSTYLE
2
Standard
9
$DIMSTYLE
2
Standard
9
$TEXTSIZE
40
0.2
9
$TEXTSTYLE
7
Standard
9
$LUNITS
70
2
9
$LUPREC
70
4
9
$EXTNAMES
290
1
9
$INSUNITS
70
4
9
$LTSCALE
40
1
9
$LWDISPLAY
290
1
9
$PDMODE
70
0
9
$PDSIZE
40
0
9
$PLINEGEN
70
0
0
ENDSEC
0
SECTION
2
CLASSES
0
CLASS
1
RASTERVARIABLES
2
AcDbRasterVariables
3
ISM
90
0
280
0
281
0
0
ENDSEC
0
SECTION
2
TABLES
0
TABLE
2
VPORT
5
20d
100
AcDbSymbolTable
0
VPORT
5
1
100
AcDbSymbolTableRecord
100
AcDbViewportTableRecord
2
*Active
70
0
10
0
20
0
11
1
21
1
12
-1
22
1
13
0
23
0
14
0.5
24
0.5
15
10
25
10
16
0
26
0
36
1
17
0
27
0
37
0
0
ENDTAB
0
TABLE
2
LTYPE
5
20e
100
AcDbSymbolTable
0
LTYPE
5
14
100
AcDbSymbolTableRecord
100
AcDbLinetypeTableRecord
70
0
2
ByBlock
3

72
65
73
0
40
0
0
LTYPE
5
15
100
AcDbSymbolTableRecord
100
AcDbLinetypeTableRecord
70
0
2
ByLayer
3

72
65
73
0
40
0
0
LTYPE
5
16
100
AcDbSymbolTableRecord
100
AcDbLinetypeTableRecord
70
0
2
Continuous
3
Solid line
72
65
73
0
40
0
0
LTYPE
5
6E
100
AcDbSymbolTableRecord
100
AcDbLinetypeTableRecord
70
0
2
CENTER
3
____ _ ____ _ ____ _ ____
72
65
73
4
40
47.5
49
22
74
0
49
-8.5
74
0
49
8.5
74
0
49
-8.5
74
0
0
LTYPE
5
6F
100
AcDbSymbolTableRecord
100
AcDbLinetypeTableRecord
70
0
2
DASHED
3
__ __ __ __ __ __ __ __ __
72
65
73
2
40
25.72
49
12.86
74
0
49
-12.86
74
0
0
ENDTAB
0
TABLE
2
LAYER
5
20f
100
AcDbSymbolTable
0
LAYER
5
10
100
AcDbSymbolTableRecord
100
AcDbLayerTableRecord
2
0
70
0
62
7
6
Continuous
290
1
370
-3
390
0
0
LAYER
5
71
100
AcDbSymbolTableRecord
100
AcDbLayerTableRecord
2
80
70
0
62
-6
6
Continuous
290
1
370
-3
390
0
0
LAYER
5
73
100
AcDbSymbolTableRecord
100
AcDbLayerTableRecord
2
81
70
0
62
-3
6
Continuous
290
1
370
-3
390
0
0
LAYER
5
75
100
AcDbSymbolTableRecord
100
AcDbLayerTableRecord
2
1
70
0
62
4
6
Continuous
290
1
370
-3
390
0
0
LAYER
5
8D
100
AcDbSymbolTableRecord
100
AcDbLayerTableRecord
2
4
70
0
62
-2
6
CENTER
290
1
370
-3
390
0
0
LAYER
5
AA
100
AcDbSymbolTableRecord
100
AcDbLayerTableRecord
2
2
70
0
62
7
6
Continuous
290
1
370
-3
390
0
0
LAYER
5
122
100
AcDbSymbolTableRecord
100
AcDbLayerTableRecord
2
Defpoints
70
0
62
7
6
Continuous
290
0
370
-3
390
0
0
LAYER
5
1f9
100
AcDbSymbolTableRecord
100
AcDbLayerTableRecord
2
SK1
70
0
62
4
6
Continuous
290
1
370
-3
390
0
0
LAYER
5
1fa
100
AcDbSymbolTableRecord
100
AcDbLayerTableRecord
2
SK4
70
0
62
2
6
CENTER
290
1
370
-3
390
0
0
LAYER
5
1fb
100
AcDbSymbolTableRecord
100
AcDbLayerTableRecord
2
SK2
70
0
62
7
6
Continuous
290
1
370
-3
390
0
0
LAYER
5
1fc
100
AcDbSymbolTableRecord
100
AcDbLayerTableRecord
2
SK6
70
0
62
5
6
Continuous
290
1
370
-3
390
0
0
ENDTAB
0
TABLE
2
STYLE
5
210
100
AcDbSymbolTable
0
STYLE
5
11
100
AcDbSymbolTableRecord
100
AcDbTextStyleTableRecord
2
Standard
3
txt
70
0
71
0
40
0
41
1
42
0
50
0
0
STYLE
5
107
100
AcDbSymbolTableRecord
100
AcDbTextStyleTableRecord
2
iso_b_vert
3
simplex.shx
70
0
71
0
40
0
41
1
42
0
50
0
0
STYLE
5
108
100
AcDbSymbolTableRecord
100
AcDbTextStyleTableRecord
2
DWGDirectTextStyle
3
simplex
70
0
71
0
40
0
41
1
42
0
50
0
0
ENDTAB
0
TABLE
2
DIMSTYLE
5
211
100
AcDbSymbolTable
100
AcDbDimStyleTable
0
DIMSTYLE
105
27
100
AcDbSymbolTableRecord
100
AcDbDimStyleTableRecord
2
Standard
70
0
3
<>
41
0.18
42
0.0625
44
0.18
140
0.18
147
0.09
73
0
74
0
77
1
271
2
275
0
278
52
280
0
340
11
0
ENDTAB
0
TABLE
2
VIEW
5
212
100
AcDbSymbolTable
0
ENDTAB
0
TABLE
2
UCS
5
213
100
AcDbSymbolTable
0
ENDTAB
0
TABLE
2
APPID
5
214
100
AcDbSymbolTable
0
APPID
5
12
100
AcDbSymbolTableRecord
100
AcDbRegAppTableRecord
2
ACAD
70
0
0
APPID
5
11E
100
AcDbSymbolTableRecord
100
AcDbRegAppTableRecord
2
ACAD_DSTYLE_DIMBREAK
70
0
0
APPID
5
1B8
100
AcDbSymbolTableRecord
100
AcDbRegAppTableRecord
2
ACAD_DSTYLE_DIM_LINETYPE
70
0
0
APPID
5
1B9
100
AcDbSymbolTableRecord
100
AcDbRegAppTableRecord
2
ACAD_DSTYLE_DIM_EXT1_LINETYPE
70
0
0
APPID
5
1BA
100
AcDbSymbolTableRecord
100
AcDbRegAppTableRecord
2
ACAD_DSTYLE_DIM_EXT2_LINETYPE
70
0
0
APPID
5
1F5
100
AcDbSymbolTableRecord
100
AcDbRegAppTableRecord
2
ACAD_MLEADERVER
70
0
0
ENDTAB
0
TABLE
2
BLOCK_RECORD
5
215
100
AcDbSymbolTable
0
BLOCK_RECORD
5
1F
100
AcDbSymbolTableRecord
100
AcDbBlockTableRecord
2
*Model_Space
340
0
70
0
0
BLOCK_RECORD
5
1B
100
AcDbSymbolTableRecord
100
AcDbBlockTableRecord
2
*Paper_Space
340
0
70
0
0
BLOCK_RECORD
5
23
100
AcDbSymbolTableRecord
100
AcDbBlockTableRecord
2
*Paper_Space0
340
0
70
0
0
BLOCK_RECORD
5
123
100
AcDbSymbolTableRecord
100
AcDbBlockTableRecord
2
*D1
340
0
70
0
0
BLOCK_RECORD
5
12F
100
AcDbSymbolTableRecord
100
AcDbBlockTableRecord
2
_U0
340
0
70
0
0
BLOCK_RECORD
5
13B
100
AcDbSymbolTableRecord
100
AcDbBlockTableRecord
2
*D3
340
0
70
0
0
BLOCK_RECORD
5
147
100
AcDbSymbolTableRecord
100
AcDbBlockTableRecord
2
_U1
340
0
70
0
0
BLOCK_RECORD
5
153
100
AcDbSymbolTableRecord
100
AcDbBlockTableRecord
2
*D5
340
0
70
0
0
BLOCK_RECORD
5
15F
100
AcDbSymbolTableRecord
100
AcDbBlockTableRecord
2
_U2
340
0
70
0
0
BLOCK_RECORD
5
16B
100
AcDbSymbolTableRecord
100
AcDbBlockTableRecord
2
*D7
340
0
70
0
0
BLOCK_RECORD
5
179
100
AcDbSymbolTableRecord
100
AcDbBlockTableRecord
2
_U3
340
0
70
0
0
BLOCK_RECORD
5
185
100
AcDbSymbolTableRecord
100
AcDbBlockTableRecord
2
*D9
340
0
70
0
0
BLOCK_RECORD
5
191
100
AcDbSymbolTableRecord
100
AcDbBlockTableRecord
2
_U4
340
0
70
0
0
ENDTAB
0
ENDSEC
0
SECTION
2
BLOCKS
0
BLOCK
5
20
100
AcDbEntity
8
0
100
AcDbBlockBegin
2
*Model_Space
70
0
10
0
20
0
30
0
3
*Model_Space
0
ENDBLK
5
21
100
AcDbEntity
8
0
100
AcDbBlockEnd
0
BLOCK
5
1C
100
AcDbEntity
8
0
100
AcDbBlockBegin
2
*Paper_Space
70
0
10
0
20
0
30
0
3
*Paper_Space
0
ENDBLK
5
1D
100
AcDbEntity
8
0
100
AcDbBlockEnd
0
BLOCK
5
24
100
AcDbEntity
8
0
100
AcDbBlockBegin
2
*Paper_Space0
70
0
10
0
20
0
30
0
3
*Paper_Space0
0
ENDBLK
5
25
100
AcDbEntity
8
0
100
AcDbBlockEnd
0
BLOCK
5
124
100
AcDbEntity
8
0
100
AcDbBlockBegin
2
*D1
70
1
10
0
20
0
30
0
3
*D1
0
LINE
5
126
100
AcDbEntity
8
0
62
256
6
ByLayer
370
-2
48
1
60
0
100
AcDbLine
10
0
20
-1.5875
30
0
11
0
21
-20.588398
31
0
39
0
210
0
220
0
230
1
0
LINE
5
127
100
AcDbEntity
8
0
62
256
6
ByLayer
370
-2
48
1
60
0
100
AcDbLine
10
195.4988
20
-9.9625
30
0
11
195.4988
21
-20.588398
31
0
39
0
210
0
220
0
230
1
0
LINE
5
128
100
AcDbEntity
8
0
62
256
6
ByLayer
370
-2
48
1
60
0
100
AcDbLine
10
3.5
20
-18.588398
30
0
11
191.9988
21
-18.588398
31
0
39
0
210
0
220
0
230
1
0
SOLID
5
129
100
AcDbEntity
8
0
62
256
6
ByLayer
370
-1
48
1
60
0
100
AcDbTrace
10
3.5
20
-18.005065
30
0
11
3.5
21
-19.171732
31
0
12
0
22
-18.588398
32
0
13
0
23
-18.588398
33
0
39
0
210
0
220
0
230
1
0
SOLID
5
12A
100
AcDbEntity
8
0
62
256
6
ByLayer
370
-1
48
1
60
0
100
AcDbTrace
10
191.9988
20
-19.171732
30
0
11
191.9988
21
-18.005065
31
0
12
195.4988
22
-18.588398
32
0
13
195.4988
23
-18.588398
33
0
39
0
210
0
220
0
230
1
0
MTEXT
5
12B
100
AcDbEntity
8
0
62
256
6
ByLayer
370
18
48
1
60
0
100
AcDbMText
10
97.7494
20
-11.588398
30
0
210
0
220
0
230
1
1
\A1;195.50
40
3.5
41
0
44
1
50
0
71
5
72
5
7
iso_b_vert
0
POINT
5
12C
100
AcDbEntity
8
Defpoints
62
0
6
ByLayer
370
-1
48
1
60
0
100
AcDbPoint
10
0
20
0
30
0
39
0
210
0
220
0
230
1
50
360
0
POINT
5
12D
100
AcDbEntity
8
Defpoints
62
0
6
ByLayer
370
-1
48
1
60
0
100
AcDbPoint
10
195.4988
20
-8.375
30
0
39
0
210
0
220
0
230
1
50
360
0
POINT
5
12E
100
AcDbEntity
8
Defpoints
62
0
6
ByLayer
370
-1
48
1
60
0
100
AcDbPoint
10
195.4988
20
-18.588398
30
0
39
0
210
0
220
0
230
1
50
360
0
ENDBLK
5
125
100
AcDbEntity
8
0
100
AcDbBlockEnd
0
BLOCK
5
136
100
AcDbEntity
8
0
100
AcDbBlockBegin
2
_U0
70
0
10
0
20
0
30
0
3
_U0
0
MTEXT
5
130
100
AcDbEntity
8
SK2
62
256
6
ByLayer
370
13
48
1
60
0
100
AcDbMText
10
91.741801
20
-17.555765
30
0
210
0
220
0
230
1
1
\W0.6930;195,50
40
3.5
41
0
44
1.084337
50
0
71
7
72
5
7
iso_b_vert
0
LINE
5
131
100
AcDbEntity
8
SK2
62
256
6
ByLayer
370
13
48
1
60
0
100
AcDbLine
10
0
20
-1.5875
30
0
11
0
21
-20.588398
31
0
39
0
210
0
220
0
230
1
0
LINE
5
132
100
AcDbEntity
8
SK2
62
256
6
ByLayer
370
13
48
1
60
0
100
AcDbLine
10
195.4988
20
-9.9625
30
0
11
195.4988
21
-20.588398
31
0
39
0
210
0
220
0
230
1
0
LINE
5
133
100
AcDbEntity
8
SK2
62
256
6
ByLayer
370
13
48
1
60
0
100
AcDbLine
10
0
20
-18.588398
30
0
11
195.4988
21
-18.588398
31
0
39
0
210
0
220
0
230
1
0
SOLID
5
134
100
AcDbEntity
8
SK2
62
256
6
ByLayer
370
18
48
1
60
0
100
AcDbTrace
10
0
20
-18.588398
30
0
11
3.499998
21
-18.127615
31
0
12
3.500002
22
-19.049182
32
0
13
3.500002
23
-19.049182
33
0
39
0
210
0
220
0
230
1
0
SOLID
5
135
100
AcDbEntity
8
SK2
62
256
6
ByLayer
370
18
48
1
60
0
100
AcDbTrace
10
195.4988
20
-18.588398
30
0
11
191.998802
21
-19.049182
31
0
12
191.998798
22
-18.127615
32
0
13
191.998798
23
-18.127615
33
0
39
0
210
0
220
0
230
1
0
ENDBLK
5
137
100
AcDbEntity
8
0
100
AcDbBlockEnd
0
BLOCK
5
13C
100
AcDbEntity
8
0
100
AcDbBlockBegin
2
*D3
70
1
10
0
20
0
30
0
3
*D3
0
LINE
5
13E
100
AcDbEntity
8
0
62
256
6
ByLayer
370
-2
48
1
60
0
100
AcDbLine
10
-48
20
-10.5875
30
0
11
-48
21
-39.692985
31
0
39
0
210
0
220
0
230
1
0
LINE
5
13F
100
AcDbEntity
8
0
62
256
6
ByLayer
370
-2
48
1
60
0
100
AcDbLine
10
198
20
-1.5875
30
0
11
198
21
-39.692985
31
0
39
0
210
0
220
0
230
1
0
LINE
5
140
100
AcDbEntity
8
0
62
256
6
ByLayer
370
-2
48
1
60
0
100
AcDbLine
10
-44.5
20
-37.692985
30
0
11
194.5
21
-37.692985
31
0
39
0
210
0
220
0
230
1
0
SOLID
5
141
100
AcDbEntity
8
0
62
256
6
ByLayer
370
-1
48
1
60
0
100
AcDbTrace
10
-44.5
20
-37.109652
30
0
11
-44.5
21
-38.276319
31
0
12
-48
22
-37.692985
32
0
13
-48
23
-37.692985
33
0
39
0
210
0
220
0
230
1
0
SOLID
5
142
100
AcDbEntity
8
0
62
256
6
ByLayer
370
-1
48
1
60
0
100
AcDbTrace
10
194.5
20
-38.276319
30
0
11
194.5
21
-37.109652
31
0
12
198
22
-37.692985
32
0
13
198
23
-37.692985
33
0
39
0
210
0
220
0
230
1
0
MTEXT
5
143
100
AcDbEntity
8
0
62
256
6
ByLayer
370
18
48
1
60
0
100
AcDbMText
10
75
20
-30.692985
30
0
210
0
220
0
230
1
1
\A1;246.00
40
3.5
41
0
44
1
50
0
71
5
72
5
7
iso_b_vert
0
POINT
5
144
100
AcDbEntity
8
Defpoints
62
0
6
ByLayer
370
-1
48
1
60
0
100
AcDbPoint
10
-48
20
-9
30
0
39
0
210
0
220
0
230
1
50
360
0
POINT
5
145
100
AcDbEntity
8
Defpoints
62
0
6
ByLayer
370
-1
48
1
60
0
100
AcDbPoint
10
198
20
0
30
0
39
0
210
0
220
0
230
1
50
360
0
POINT
5
146
100
AcDbEntity
8
Defpoints
62
0
6
ByLayer
370
-1
48
1
60
0
100
AcDbPoint
10
198
20
-37.692985
30
0
39
0
210
0
220
0
230
1
50
360
0
ENDBLK
5
13D
100
AcDbEntity
8
0
100
AcDbBlockEnd
0
BLOCK
5
14E
100
AcDbEntity
8
0
100
AcDbBlockBegin
2
_U1
70
0
10
0
20
0
30
0
3
_U1
0
MTEXT
5
148
100
AcDbEntity
8
SK2
62
256
6
ByLayer
370
13
48
1
60
0
100
AcDbMText
10
68.370701
20
-36.660352
30
0
210
0
220
0
230
1
1
\W0.7636;246,00
40
3.5
41
0
44
1.084337
50
0
71
7
72
5
7
iso_b_vert
0
LINE
5
149
100
AcDbEntity
8
SK2
62
256
6
ByLayer
370
13
48
1
60
0
100
AcDbLine
10
-48
20
-10.5875
30
0
11
-48
21
-39.692985
31
0
39
0
210
0
220
0
230
1
0
LINE
5
14A
100
AcDbEntity
8
SK2
62
256
6
ByLayer
370
13
48
1
60
0
100
AcDbLine
10
198
20
-1.5875
30
0
11
198
21
-39.692985
31
0
39
0
210
0
220
0
230
1
0
LINE
5
14B
100
AcDbEntity
8
SK2
62
256
6
ByLayer
370
13
48
1
60
0
100
AcDbLine
10
-48
20
-37.692985
30
0
11
198
21
-37.692985
31
0
39
0
210
0
220
0
230
1
0
SOLID
5
14C
100
AcDbEntity
8
SK2
62
256
6
ByLayer
370
18
48
1
60
0
100
AcDbTrace
10
-48
20
-37.692985
30
0
11
-44.500002
21
-37.232202
31
0
12
-44.499998
22
-38.153769
32
0
13
-44.499998
23
-38.153769
33
0
39
0
210
0
220
0
230
1
0
SOLID
5
14D
100
AcDbEntity
8
SK2
62
256
6
ByLayer
370
18
48
1
60
0
100
AcDbTrace
10
198
20
-37.692985
30
0
11
194.500002
21
-38.153769
31
0
12
194.499998
22
-37.232202
32
0
13
194.499998
23
-37.232202
33
0
39
0
210
0
220
0
230
1
0
ENDBLK
5
14F
100
AcDbEntity
8
0
100
AcDbBlockEnd
0
BLOCK
5
154
100
AcDbEntity
8
0
100
AcDbBlockBegin
2
*D5
70
1
10
0
20
0
30
0
3
*D5
0
LINE
5
156
100
AcDbEntity
8
0
62
256
6
ByLayer
370
-2
48
1
60
0
100
AcDbLine
10
61.5
20
9.9625
30
0
11
61.5
21
21.984119
31
0
39
0
210
0
220
0
230
1
0
LINE
5
157
100
AcDbEntity
8
0
62
256
6
ByLayer
370
-2
48
1
60
0
100
AcDbLine
10
198
20
1.5875
30
0
11
198
21
21.984119
31
0
39
0
210
0
220
0
230
1
0
LINE
5
158
100
AcDbEntity
8
0
62
256
6
ByLayer
370
-2
48
1
60
0
100
AcDbLine
10
65
20
19.984119
30
0
11
194.5
21
19.984119
31
0
39
0
210
0
220
0
230
1
0
SOLID
5
159
100
AcDbEntity
8
0
62
256
6
ByLayer
370
-1
48
1
60
0
100
AcDbTrace
10
65
20
20.567453
30
0
11
65
21
19.400786
31
0
12
61.5
22
19.984119
32
0
13
61.5
23
19.984119
33
0
39
0
210
0
220
0
230
1
0
SOLID
5
15A
100
AcDbEntity
8
0
62
256
6
ByLayer
370
-1
48
1
60
0
100
AcDbTrace
10
194.5
20
19.400786
30
0
11
194.5
21
20.567453
31
0
12
198
22
19.984119
32
0
13
198
23
19.984119
33
0
39
0
210
0
220
0
230
1
0
MTEXT
5
15B
100
AcDbEntity
8
0
62
256
6
ByLayer
370
18
48
1
60
0
100
AcDbMText
10
129.75
20
26.984119
30
0
210
0
220
0
230
1
1
\A1;136.50
40
3.5
41
0
44
1
50
0
71
5
72
5
7
iso_b_vert
0
POINT
5
15C
100
AcDbEntity
8
Defpoints
62
0
6
ByLayer
370
-1
48
1
60
0
100
AcDbPoint
10
61.5
20
8.375
30
0
39
0
210
0
220
0
230
1
50
360
0
POINT
5
15D
100
AcDbEntity
8
Defpoints
62
0
6
ByLayer
370
-1
48
1
60
0
100
AcDbPoint
10
198
20
0
30
0
39
0
210
0
220
0
230
1
50
360
0
POINT
5
15E
100
AcDbEntity
8
Defpoints
62
0
6
ByLayer
370
-1
48
1
60
0
100
AcDbPoint
10
198
20
19.984119
30
0
39
0
210
0
220
0
230
1
50
360
0
ENDBLK
5
155
100
AcDbEntity
8
0
100
AcDbBlockEnd
0
BLOCK
5
166
100
AcDbEntity
8
0
100
AcDbBlockBegin
2
_U2
70
0
10
0
20
0
30
0
3
_U2
0
MTEXT
5
160
100
AcDbEntity
8
SK2
62
256
6
ByLayer
370
13
48
1
60
0
100
AcDbMText
10
123.742401
20
21.016753
30
0
210
0
220
0
230
1
1
\W0.6930;136,50
40
3.5
41
0
44
1.084337
50
0
71
7
72
5
7
iso_b_vert
0
LINE
5
161
100
AcDbEntity
8
SK2
62
256
6
ByLayer
370
13
48
1
60
0
100
AcDbLine
10
61.5
20
9.9625
30
0
11
61.5
21
21.984119
31
0
39
0
210
0
220
0
230
1
0
LINE
5
162
100
AcDbEntity
8
SK2
62
256
6
ByLayer
370
13
48
1
60
0
100
AcDbLine
10
198
20
1.5875
30
0
11
198
21
21.984119
31
0
39
0
210
0
220
0
230
1
0
LINE
5
163
100
AcDbEntity
8
SK2
62
256
6
ByLayer
370
13
48
1
60
0
100
AcDbLine
10
61.5
20
19.984119
30
0
11
198
21
19.984119
31
0
39
0
210
0
220
0
230
1
0
SOLID
5
164
100
AcDbEntity
8
SK2
62
256
6
ByLayer
370
18
48
1
60
0
100
AcDbTrace
10
61.5
20
19.984119
30
0
11
64.999998
21
20.444903
31
0
12
65.000002
22
19.523335
32
0
13
65.000002
23
19.523335
33
0
39
0
210
0
220
0
230
1
0
SOLID
5
165
100
AcDbEntity
8
SK2
62
256
6
ByLayer
370
18
48
1
60
0
100
AcDbTrace
10
198
20
19.984119
30
0
11
194.500002
21
19.523335
31
0
12
194.499998
22
20.444903
32
0
13
194.499998
23
20.444903
33
0
39
0
210
0
220
0
230
1
0
ENDBLK
5
167
100
AcDbEntity
8
0
100
AcDbBlockEnd
0
BLOCK
5
16C
100
AcDbEntity
8
0
100
AcDbBlockBegin
2
*D7
70
1
10
0
20
0
30
0
3
*D7
0
LINE
5
16E
100
AcDbEntity
8
0
62
256
6
ByLayer
370
-2
48
1
60
0
100
AcDbLine
10
198
20
-1.5875
30
0
11
198
21
-23.177503
31
0
39
0
210
0
220
0
230
1
0
LINE
5
16F
100
AcDbEntity
8
0
62
256
6
ByLayer
370
-2
48
1
60
0
100
AcDbLine
10
195.4988
20
-9.9625
30
0
11
195.4988
21
-23.177503
31
0
39
0
210
0
220
0
230
1
0
LINE
5
170
100
AcDbEntity
8
0
62
256
6
ByLayer
370
-2
48
1
60
0
100
AcDbLine
10
198
20
-21.177503
30
0
11
226.166667
21
-21.177503
31
0
39
0
210
0
220
0
230
1
0
LINE
5
171
100
AcDbEntity
8
0
62
256
6
ByLayer
370
-2
48
1
60
0
100
AcDbLine
10
201.5
20
-21.177503
30
0
11
205
21
-21.177503
31
0
39
0
210
0
220
0
230
1
0
LINE
5
172
100
AcDbEntity
8
0
62
256
6
ByLayer
370
-2
48
1
60
0
100
AcDbLine
10
191.9988
20
-21.177503
30
0
11
188.4988
21
-21.177503
31
0
39
0
210
0
220
0
230
1
0
SOLID
5
173
100
AcDbEntity
8
0
62
256
6
ByLayer
370
-1
48
1
60
0
100
AcDbTrace
10
201.5
20
-20.59417
30
0
11
201.5
21
-21.760837
31
0
12
198
22
-21.177503
32
0
13
198
23
-21.177503
33
0
39
0
210
0
220
0
230
1
0
SOLID
5
174
100
AcDbEntity
8
0
62
256
6
ByLayer
370
-1
48
1
60
0
100
AcDbTrace
10
191.9988
20
-21.760837
30
0
11
191.9988
21
-20.59417
31
0
12
195.4988
22
-21.177503
32
0
13
195.4988
23
-21.177503
33
0
39
0
210
0
220
0
230
1
0
MTEXT
5
175
100
AcDbEntity
8
0
62
256
6
ByLayer
370
18
48
1
60
0
100
AcDbMText
10
215.583333
20
-14.177503
30
0
210
0
220
0
230
1
1
\A1;2.50
40
3.5
41
0
44
1
50
0
71
5
72
5
7
iso_b_vert
0
POINT
5
176
100
AcDbEntity
8
Defpoints
62
0
6
ByLayer
370
-1
48
1
60
0
100
AcDbPoint
10
198
20
0
30
0
39
0
210
0
220
0
230
1
50
360
0
POINT
5
177
100
AcDbEntity
8
Defpoints
62
0
6
ByLayer
370
-1
48
1
60
0
100
AcDbPoint
10
195.4988
20
-8.375
30
0
39
0
210
0
220
0
230
1
50
360
0
POINT
5
178
100
AcDbEntity
8
Defpoints
62
0
6
ByLayer
370
-1
48
1
60
0
100
AcDbPoint
10
195.4988
20
-21.177503
30
0
39
0
210
0
220
0
230
1
50
360
0
ENDBLK
5
16D
100
AcDbEntity
8
0
100
AcDbBlockEnd
0
BLOCK
5
180
100
AcDbEntity
8
0
100
AcDbBlockBegin
2
_U3
70
0
10
0
20
0
30
0
3
_U3
0
MTEXT
5
17A
100
AcDbEntity
8
SK2
62
256
6
ByLayer
370
13
48
1
60
0
100
AcDbMText
10
204.15186
20
-20.14487
30
0
210
0
220
0
230
1
1
\W0.7150;2,50
40
3.5
41
0
44
1.084337
50
0
71
7
72
5
7
iso_b_vert
0
LINE
5
17B
100
AcDbEntity
8
SK2
62
256
6
ByLayer
370
13
48
1
60
0
100
AcDbLine
10
198
20
-1.5875
30
0
11
198
21
-23.177503
31
0
39
0
210
0
220
0
230
1
0
LINE
5
17C
100
AcDbEntity
8
SK2
62
256
6
ByLayer
370
13
48
1
60
0
100
AcDbLine
10
195.4988
20
-9.9625
30
0
11
195.4988
21
-23.177503
31
0
39
0
210
0
220
0
230
1
0
LINE
5
17D
100
AcDbEntity
8
SK2
62
256
6
ByLayer
370
13
48
1
60
0
100
AcDbLine
10
186.7488
20
-21.177503
30
0
11
211.996491
21
-21.177503
31
0
39
0
210
0
220
0
230
1
0
SOLID
5
17E
100
AcDbEntity
8
SK2
62
256
6
ByLayer
370
18
48
1
60
0
100
AcDbTrace
10
198
20
-21.177503
30
0
11
201.499998
21
-20.716719
31
0
12
201.500002
22
-21.638287
32
0
13
201.500002
23
-21.638287
33
0
39
0
210
0
220
0
230
1
0
SOLID
5
17F
100
AcDbEntity
8
SK2
62
256
6
ByLayer
370
18
48
1
60
0
100
AcDbTrace
10
195.4988
20
-21.177503
30
0
11
191.998802
21
-21.638287
31
0
12
191.998798
22
-20.716719
32
0
13
191.998798
23
-20.716719
33
0
39
0
210
0
220
0
230
1
0
ENDBLK
5
181
100
AcDbEntity
8
0
100
AcDbBlockEnd
0
BLOCK
5
186
100
AcDbEntity
8
0
100
AcDbBlockBegin
2
*D9
70
1
10
0
20
0
30
0
3
*D9
0
LINE
5
188
100
AcDbEntity
8
0
62
256
6
ByLayer
370
-2
48
1
60
0
100
AcDbLine
10
-48
20
-10.5875
30
0
11
-48
21
-29.343428
31
0
39
0
210
0
220
0
230
1
0
LINE
5
189
100
AcDbEntity
8
0
62
256
6
ByLayer
370
-2
48
1
60
0
100
AcDbLine
10
195.4988
20
-9.9625
30
0
11
195.4988
21
-29.343428
31
0
39
0
210
0
220
0
230
1
0
LINE
5
18A
100
AcDbEntity
8
0
62
256
6
ByLayer
370
-2
48
1
60
0
100
AcDbLine
10
-44.5
20
-27.343428
30
0
11
191.9988
21
-27.343428
31
0
39
0
210
0
220
0
230
1
0
SOLID
5
18B
100
AcDbEntity
8
0
62
256
6
ByLayer
370
-1
48
1
60
0
100
AcDbTrace
10
-44.5
20
-26.760095
30
0
11
-44.5
21
-27.926762
31
0
12
-48
22
-27.343428
32
0
13
-48
23
-27.343428
33
0
39
0
210
0
220
0
230
1
0
SOLID
5
18C
100
AcDbEntity
8
0
62
256
6
ByLayer
370
-1
48
1
60
0
100
AcDbTrace
10
191.9988
20
-27.926762
30
0
11
191.9988
21
-26.760095
31
0
12
195.4988
22
-27.343428
32
0
13
195.4988
23
-27.343428
33
0
39
0
210
0
220
0
230
1
0
MTEXT
5
18D
100
AcDbEntity
8
0
62
256
6
ByLayer
370
18
48
1
60
0
100
AcDbMText
10
73.7494
20
-20.343428
30
0
210
0
220
0
230
1
1
\A1;243.50
40
3.5
41
0
44
1
50
0
71
5
72
5
7
iso_b_vert
0
POINT
5
18E
100
AcDbEntity
8
Defpoints
62
0
6
ByLayer
370
-1
48
1
60
0
100
AcDbPoint
10
-48
20
-9
30
0
39
0
210
0
220
0
230
1
50
360
0
POINT
5
18F
100
AcDbEntity
8
Defpoints
62
0
6
ByLayer
370
-1
48
1
60
0
100
AcDbPoint
10
195.4988
20
-8.375
30
0
39
0
210
0
220
0
230
1
50
360
0
POINT
5
190
100
AcDbEntity
8
Defpoints
62
0
6
ByLayer
370
-1
48
1
60
0
100
AcDbPoint
10
195.4988
20
-27.343428
30
0
39
0
210
0
220
0
230
1
50
360
0
ENDBLK
5
187
100
AcDbEntity
8
0
100
AcDbBlockEnd
0
BLOCK
5
198
100
AcDbEntity
8
0
100
AcDbBlockBegin
2
_U4
70
0
10
0
20
0
30
0
3
_U4
0
MTEXT
5
192
100
AcDbEntity
8
SK2
62
256
6
ByLayer
370
13
48
1
60
0
100
AcDbMText
10
67.120101
20
-26.310795
30
0
210
0
220
0
230
1
1
\W0.7636;243,50
40
3.5
41
0
44
1.084337
50
0
71
7
72
5
7
iso_b_vert
0
LINE
5
193
100
AcDbEntity
8
SK2
62
256
6
ByLayer
370
13
48
1
60
0
100
AcDbLine
10
-48
20
-10.5875
30
0
11
-48
21
-29.343428
31
0
39
0
210
0
220
0
230
1
0
LINE
5
194
100
AcDbEntity
8
SK2
62
256
6
ByLayer
370
13
48
1
60
0
100
AcDbLine
10
195.4988
20
-9.9625
30
0
11
195.4988
21
-29.343428
31
0
39
0
210
0
220
0
230
1
0
LINE
5
195
100
AcDbEntity
8
SK2
62
256
6
ByLayer
370
13
48
1
60
0
100
AcDbLine
10
-48
20
-27.343428
30
0
11
195.4988
21
-27.343428
31
0
39
0
210
0
220
0
230
1
0
SOLID
5
196
100
AcDbEntity
8
SK2
62
256
6
ByLayer
370
18
48
1
60
0
100
AcDbTrace
10
-48
20
-27.343428
30
0
11
-44.500002
21
-26.882645
31
0
12
-44.499998
22
-27.804212
32
0
13
-44.499998
23
-27.804212
33
0
39
0
210
0
220
0
230
1
0
SOLID
5
197
100
AcDbEntity
8
SK2
62
256
6
ByLayer
370
18
48
1
60
0
100
AcDbTrace
10
195.4988
20
-27.343428
30
0
11
191.998802
21
-27.804212
31
0
12
191.998798
22
-26.882645
32
0
13
191.998798
23
-26.882645
33
0
39
0
210
0
220
0
230
1
0
ENDBLK
5
199
100
AcDbEntity
8
0
100
AcDbBlockEnd
0
ENDSEC
0
SECTION
2
ENTITIES
0
ARC
5
B3
100
AcDbEntity
8
1
62
256
6
ByLayer
370
18
48
1
60
0
100
AcDbCircle
39
0
10
1.353168
20
-9.053778
30
0
40
0.799999999999996
210
0
220
0
230
1
100
AcDbArc
50
89.96419
51
147.750201
0
ARC
5
B4
100
AcDbEntity
8
1
62
256
6
ByLayer
370
18
48
1
60
0
100
AcDbCircle
39
0
10
1.353168
20
9.053778
30
0
40
0.799999999999996
210
0
220
0
230
1
100
AcDbArc
50
212.249799
51
270.03581
0
ARC
5
B5
100
AcDbEntity
8
1
62
256
6
ByLayer
370
18
48
1
60
0
100
AcDbCircle
39
0
10
0
20
-8.2
30
0
40
0.800000000000002
210
0
220
0
230
1
100
AcDbArc
50
270
51
327.750201
0
ARC
5
B6
100
AcDbEntity
8
1
62
256
6
ByLayer
370
18
48
1
60
0
100
AcDbCircle
39
0
10
0
20
8.2
30
0
40
0.800000000000002
210
0
220
0
230
1
100
AcDbArc
50
32.249799
51
90
0
ELLIPSE
5
B7
100
AcDbEntity
8
1
62
256
6
ByLayer
370
18
48
1
60
0
100
AcDbEllipse
10
6.25
20
-8.046208
30
0
11
0.25
21
0
31
0
210
0
220
0
230
1
40
0.999992
41
1.57327841281044
42
3.12272176338587
0
ELLIPSE
5
B8
100
AcDbEntity
8
1
62
256
6
ByLayer
370
18
48
1
60
0
100
AcDbEllipse
10
6.25
20
8.046208
30
0
11
0.25
21
0
31
0
210
0
220
0
230
1
40
0.999992
41
-3.12272176338592
42
-1.56655706662088
0
POINT
5
70
100
AcDbEntity
8
80
62
256
6
ByLayer
370
18
48
1
60
0
100
AcDbPoint
10
0
20
0
30
0
39
0
210
0
220
0
230
1
50
360
0
POINT
5
72
100
AcDbEntity
8
81
62
256
6
ByLayer
370
18
48
1
60
0
100
AcDbPoint
10
198
20
0
30
0
39
0
210
0
220
0
230
1
50
360
0
POINT
5
74
100
AcDbEntity
8
1
62
256
6
ByLayer
370
18
48
1
60
1
100
AcDbPoint
10
195.4988
20
-8.375
30
0
39
0
210
0
220
0
230
1
50
360
0
POINT
5
76
100
AcDbEntity
8
1
62
256
6
ByLayer
370
18
48
1
60
1
100
AcDbPoint
10
-48
20
-9
30
0
39
0
210
0
220
0
230
1
50
360
0
POINT
5
77
100
AcDbEntity
8
1
62
256
6
ByLayer
370
18
48
1
60
1
100
AcDbPoint
10
61.5
20
8.375
30
0
39
0
210
0
220
0
230
1
50
360
0
POINT
5
78
100
AcDbEntity
8
1
62
256
6
ByLayer
370
18
48
1
60
1
100
AcDbPoint
10
195.4988
20
-8.375
30
0
39
0
210
0
220
0
230
1
50
360
0
POINT
5
79
100
AcDbEntity
8
1
62
256
6
ByLayer
370
18
48
1
60
1
100
AcDbPoint
10
-48
20
-9
30
0
39
0
210
0
220
0
230
1
50
360
0
POINT
5
7A
100
AcDbEntity
8
1
62
256
6
ByLayer
370
18
48
1
60
1
100
AcDbPoint
10
195.4988
20
-8.375
30
0
39
0
210
0
220
0
230
1
50
360
0
SPLINE
5
B9
100
AcDbEntity
8
SK1
62
256
6
ByLayer
370
18
48
1
60
0
100
AcDbSpline
70
4
71
3
72
8
73
4
40
0
40
0
40
0
40
0
40
1
40
1
40
1
40
1
41
1
10
-46.2
20
-7.31651017561745
30
0
41
1
10
-46.8016120659438
20
-6.72212958715249
30
0
41
1
10
-47.4020884682377
20
-6.1266835919215
30
0
41
1
10
-48
20
-5.52883139973389
30
0
0
SPLINE
5
BA
100
AcDbEntity
8
SK1
62
256
6
ByLayer
370
18
48
1
60
0
100
AcDbSpline
70
4
71
3
72
12
73
8
40
0
40
0
40
0
40
0
40
0.250000000000003
40
0.250000000000003
40
0.500000000000007
40
0.500000000000007
40
1
40
1
40
1
40
1
41
1
10
-46.1
20
-7.45687534804543
30
0
41
1
10
-46.1
20
-7.45009411502915
30
0
41
1
10
-46.1041745743607
20
-7.43960322516739
30
0
41
1
10
-46.1170332025337
20
-7.41626315490365
30
0
41
1
10
-46.1255168670339
20
-7.40360539050664
30
0
41
1
10
-46.1539367625989
20
-7.3653402385209
30
0
41
1
10
-46.1766247086701
20
-7.33960449204284
30
0
41
1
10
-46.2
20
-7.31651017561748
30
0
0
SPLINE
5
BB
100
AcDbEntity
8
SK1
62
256
6
ByLayer
370
18
48
1
60
0
100
AcDbSpline
70
4
71
3
72
12
73
8
40
0
40
0
40
0
40
0
40
0.500000000000006
40
0.500000000000006
40
0.750000000000003
40
0.750000000000003
40
1
40
1
40
1
40
1
41
1
10
-46.2
20
-8.03767827310878
30
0
41
1
10
-46.1766202203863
20
-8.06077702386796
30
0
41
1
10
-46.153872809496
20
-8.08281326266382
30
0
41
1
10
-46.12567398283
20
-8.10918515466963
30
0
41
1
10
-46.1170638079665
20
-8.11703686925082
30
0
41
1
10
-46.1042330689809
20
-8.12802534031786
30
0
41
1
10
-46.1
20
-8.13114085917707
30
0
41
1
10
-46.1
20
-8.12996557237065
30
0
0
SPLINE
5
BC
100
AcDbEntity
8
SK1
62
256
6
ByLayer
370
18
48
1
60
0
100
AcDbSpline
70
4
71
3
72
8
73
4
40
0
40
0
40
0
40
0
40
1
40
1
40
1
40
1
41
1
10
-48
20
-6.24999949722519
30
0
41
1
10
-47.4020919827249
20
-6.84784817527438
30
0
41
1
10
-46.8016147955565
20
-7.44329498784151
30
0
41
1
10
-46.2
20
-8.03767827310875
30
0
0
SPLINE
5
BD
100
AcDbEntity
8
1
62
256
6
ByLayer
370
18
48
1
60
0
100
AcDbSpline
70
4
71
3
72
14
73
10
40
0
40
0
40
0
40
0
40
0.25
40
0.25
40
0.5
40
0.5
40
0.75
40
0.75
40
1
40
1
40
1
40
1
41
1
10
195.193300122683
20
-7.89218283724307
30
0
41
1
10
195.195819556577
20
-7.89114624714114
30
0
41
1
10
195.197658058891
20
-7.89191932514632
30
0
41
1
10
195.199527128235
20
-7.89825651286316
30
0
41
1
10
195.199478514753
20
-7.90384293866504
30
0
41
1
10
195.196770413306
20
-7.92036433982767
30
0
41
1
10
195.194061526711
20
-7.93135519811028
30
0
41
1
10
195.186399682258
20
-7.95629947315214
30
0
41
1
10
195.18158465197
20
-7.96985908297671
30
0
41
1
10
195.176446714825
20
-7.9829975989864
30
0
0
SPLINE
5
BE
100
AcDbEntity
8
1
62
256
6
ByLayer
370
18
48
1
60
0
100
AcDbSpline
70
4
71
3
72
8
73
4
40
0
40
0
40
0
40
0
40
1
40
1
40
1
40
1
41
1
10
195.308075518707
20
-8.14198505077488
30
0
41
1
10
195.20355461053
20
-8.24495152532759
30
0
41
1
10
195.11211906568
20
-8.31424704540487
30
0
41
1
10
195.032927279539
20
-8.34899857058065
30
0
0
SPLINE
5
BF
100
AcDbEntity
8
1
62
256
6
ByLayer
370
13
48
1
60
0
100
AcDbSpline
70
4
71
3
72
12
73
8
40
0
40
0
40
0
40
0
40
0.211564367908891
40
0.211564367908891
40
0.639941158733781
40
0.639941158733781
40
1
40
1
40
1
40
1
41
1
10
6.2502269246697
20
7.0769076860563
30
0
41
1
10
6.25022906530529
20
7.17690117656403
30
0
41
1
10
6.25023030122523
20
7.26690848386281
30
0
41
1
10
6.25023197480758
20
7.50900949143116
30
0
41
1
10
6.25023027596012
20
7.62811076357391
30
0
41
1
10
6.25022551714878
20
7.76568947450511
30
0
41
1
10
6.25022277240421
20
7.79649673048345
30
0
41
1
10
6.25022046589285
20
7.79629572943296
30
0
0
SPLINE
5
C0
100
AcDbEntity
8
1
62
256
6
ByLayer
370
18
48
1
60
0
100
AcDbSpline
70
4
71
3
72
14
73
10
40
0
40
0
40
0
40
0
40
0.534473600145584
40
0.534473600145584
40
0.801710400218376
40
0.801710400218376
40
0.935328800254775
40
0.935328800254775
40
1
40
1
40
1
40
1
41
1
10
195.193300122683
20
-7.89218283724304
30
0
41
1
10
193.213700146216
20
-7.96649915683122
30
0
41
1
10
191.255888734289
20
-7.84769937674326
30
0
41
1
10
188.310861222394
20
-7.39974593975018
30
0
41
1
10
187.327769241136
20
-7.20525430568208
30
0
41
1
10
185.84547102275
20
-6.84884725302277
30
0
41
1
10
185.349013277048
20
-6.71890879066973
30
0
41
1
10
184.615354155182
20
-6.51216757113224
30
0
41
1
10
184.376466333842
20
-6.44253929193388
30
0
41
1
10
184.137923543864
20
-6.37078517570686
30
0
0
SPLINE
5
C1
100
AcDbEntity
8
1
62
256
6
ByLayer
370
13
48
1
60
0
100
AcDbSpline
70
4
71
3
72
22
73
18
40
0
40
0
40
0
40
0
40
0.0411352541094892
40
0.0411352541094892
40
0.360012780348376
40
0.360012780348376
40
0.519451543467821
40
0.519451543467821
40
0.599170925027542
40
0.599170925027542
40
0.639030615807401
40
0.639030615807401
40
0.67889030658726
40
0.67889030658726
40
0.997767832826143
40
0.997767832826143
40
1
40
1
40
1
40
1
41
1
10
184.137923359488
20
-6.37078512024624
30
0
41
1
10
183.883608400178
20
-6.29428670483617
30
0
41
1
10
183.629685606726
20
-6.21537204319645
30
0
41
1
10
181.410310219772
20
-5.50436293414216
30
0
41
1
10
179.464264532033
20
-4.73495117407444
30
0
41
1
10
176.533260670685
20
-3.43922301503679
30
0
41
1
10
175.554279284833
20
-2.98373032665091
30
0
41
1
10
174.077586987916
20
-2.27413336188008
30
0
41
1
10
173.58401276663
20
-2.03315275524997
30
0
41
1
10
172.840883427499
20
-1.66637303118884
30
0
41
1
10
172.592884105186
20
-1.54331156642189
30
0
41
1
10
172.098235911884
20
-1.29681892095238
30
0
41
1
10
171.851304790626
20
-1.17324515409612
30
0
41
1
10
169.632011058366
20
-0.0590521281671386
30
0
41
1
10
167.680868317878
20
0.944943370467996
30
0
41
1
10
165.709551106337
20
1.91309431867251
30
0
41
1
10
165.695847346907
20
1.91982226395862
30
0
41
1
10
165.682143265111
20
1.92654811510641
30
0
0
SPLINE
5
C2
100
AcDbEntity
8
1
62
256
6
ByLayer
370
18
48
1
60
0
100
AcDbSpline
70
4
71
3
72
14
73
10
40
0
40
0
40
0
40
0
40
0.123863570184304
40
0.123863570184304
40
0.774055093670719
40
0.774055093670719
40
0.936602974542324
40
0.936602974542324
40
1
40
1
40
1
40
1
41
1
10
95.9951542893865
20
-7.85194723197355
30
0
41
1
10
95.6196297011466
20
-7.85132417300042
30
0
41
1
10
95.2446502635308
20
-7.84387683875588
30
0
41
1
10
92.903408462352
20
-7.75502036315376
30
0
41
1
10
90.9466791407529
20
-7.49353236295497
30
0
41
1
10
88.4777490705839
20
-6.94923809367563
30
0
41
1
10
87.9828485008024
20
-6.8294658978802
30
0
41
1
10
87.2926821575414
20
-6.64829138223084
30
0
41
1
10
87.0992444686325
20
-6.59597614219263
30
0
41
1
10
86.9060111107918
20
-6.54221811135525
30
0
0
SPLINE
5
C3
100
AcDbEntity
8
1
62
256
6
ByLayer
370
13
48
1
60
0
100
AcDbSpline
70
4
71
3
72
22
73
18
40
0
40
0
40
0
40
0
40
0.0463158933574719
40
0.0463158933574719
40
0.198176415406745
40
0.198176415406745
40
0.501897459505298
40
0.501897459505298
40
0.539862590017617
40
0.539862590017617
40
0.577827720529935
40
0.577827720529935
40
0.653757981554571
40
0.653757981554571
40
0.805618503603844
40
0.805618503603844
40
1
40
1
40
1
40
1
41
1
10
86.9060111088092
20
-6.5422181108037
30
0
41
1
10
86.6038005154247
20
-6.45814232501195
30
0
41
1
10
86.302089714352
20
-6.37053748338374
30
0
41
1
10
85.0131186302868
20
-5.98120563807541
30
0
41
1
10
84.0300096902633
20
-5.64647240247729
30
0
41
1
10
81.0836107157058
20
-4.5498586354183
30
0
41
1
10
79.1238108304671
20
-3.69432682826039
30
0
41
1
10
76.8921351552287
20
-2.643877161929
30
0
41
1
10
76.6436245402282
20
-2.52585406632625
30
0
41
1
10
76.1478839085196
20
-2.28861161586056
30
0
41
1
10
75.9004162093244
20
-2.1692823015747
30
0
41
1
10
75.1590447711445
20
-1.80953101547141
30
0
41
1
10
74.6662018897033
20
-1.56728341424434
30
0
41
1
10
73.1905222374382
20
-0.836089859636246
30
0
41
1
10
72.210459554916
20
-0.342853285093071
30
0
41
1
10
69.9767673805713
20
0.779339061831166
30
0
41
1
10
68.7232900766686
20
1.4074377431842
30
0
41
1
10
67.4630596417345
20
2.01883788815556
30
0
0
SPLINE
5
C4
100
AcDbEntity
8
1
62
256
6
ByLayer
370
18
48
1
60
0
100
AcDbSpline
70
4
71
3
72
8
73
4
40
0
40
0
40
0
40
0
40
1
40
1
40
1
40
1
41
1
10
195.176446714824
20
-7.9829975989872
30
0
41
1
10
195.128670515622
20
-8.1051688790923
30
0
41
1
10
195.080827133285
20
-8.22716747128246
30
0
41
1
10
195.032927279539
20
-8.34899857058059
30
0
0
SPLINE
5
C5
100
AcDbEntity
8
1
62
256
6
ByLayer
370
18
48
1
60
0
100
AcDbSpline
70
4
71
3
72
8
73
4
40
0
40
0
40
0
40
0
40
1
40
1
40
1
40
1
41
1
10
197.999966884476
20
0.0472167885582735
30
0
41
1
10
197.992060041363
20
0.0270715566780382
30
0
41
1
10
197.983474191037
20
0.0083132010029203
30
0
41
1
10
197.974886641746
20
-0.0076564434172042
30
0
0
SPLINE
5
C6
100
AcDbEntity
8
1
62
256
6
ByLayer
370
18
48
1
60
0
100
AcDbSpline
70
4
71
3
72
8
73
4
40
0
40
0
40
0
40
0
40
1
40
1
40
1
40
1
41
1
10
195.308075518707
20
8.14198505077488
30
0
41
1
10
195.20355461053
20
8.24495152532762
30
0
41
1
10
195.112119065679
20
8.31424704540487
30
0
41
1
10
195.032927279539
20
8.34899857058065
30
0
0
SPLINE
5
C7
100
AcDbEntity
8
1
62
256
6
ByLayer
370
18
48
1
60
0
100
AcDbSpline
70
4
71
3
72
8
73
4
40
0
40
0
40
0
40
0
40
1
40
1
40
1
40
1
41
1
10
197.79704317527
20
-0.340103459468764
30
0
41
1
10
196.879076703304
20
-2.86219561301166
30
0
41
1
10
195.961110231338
20
-5.38428776655496
30
0
41
1
10
195.043143759372
20
-7.90637992009752
30
0
0
SPLINE
5
C8
100
AcDbEntity
8
1
62
256
6
ByLayer
370
18
48
1
60
0
100
AcDbSpline
70
4
71
3
72
35
73
31
40
0
40
0
40
0
40
0
40
0.0925069355615817
40
0.0925069355615817
40
0.280659125924025
40
0.280659125924025
40
0.374735221105247
40
0.374735221105247
40
0.468811316286468
40
0.468811316286468
40
0.515849363877079
40
0.527608875774732
40
0.533488631723558
40
0.533488631723558
40
0.539368387672385
40
0.539368387672385
40
0.551127899570037
40
0.551127899570037
40
0.55406777754445
40
0.55406777754445
40
0.557007655518864
40
0.56288741146769
40
0.56288741146769
40
0.656963506648912
40
0.656963506648912
40
0.751039601830134
40
0.751039601830134
40
0.845115697011356
40
0.845115697011356
40
1
40
1
40
1
40
1
41
1
10
10.7495861291808
20
4.66100220171092
30
0
41
1
10
10.7495861291808
20
4.38044259141344
30
0
41
1
10
10.7495861291808
20
4.09127334251454
30
0
41
1
10
10.7495861291808
20
3.1888361891107
30
0
41
1
10
10.7495861291808
20
2.54955048054677
30
0
41
1
10
10.7495861291808
20
1.54003460411067
30
0
41
1
10
10.7495861291808
20
1.19506823441392
30
0
41
1
10
10.7495861291808
20
0.488006166116008
30
0
41
1
10
10.7495861291808
20
0.127135917309232
30
0
41
1
10
10.7495861291808
20
-0.423446033075749
30
0
41
1
10
10.7495861291808
20
-0.654897586353712
30
0
41
1
10
10.7495861291808
20
-0.912304944816782
30
0
41
1
10
10.7495861291808
20
-0.982737164891574
30
0
41
1
10
10.7495861291808
20
-1.02974315381837
30
0
41
1
10
10.7495861291808
20
-1.05291554386994
30
0
41
1
10
10.7495861291808
20
-1.1255949825788
30
0
41
1
10
10.7495861291808
20
-1.1797093849635
30
0
41
1
10
10.7495861291808
20
-1.24862187370803
30
0
41
1
10
10.7495861291808
20
-1.26254074410983
30
0
41
1
10
10.7495861291808
20
-1.29032492188267
30
0
41
1
10
10.7495861291808
20
-1.33200578278331
30
0
41
1
10
10.7495861291808
20
-1.37370044836501
30
0
41
1
10
10.7495861291808
20
-1.8463446317619
30
0
41
1
10
10.7495861291808
20
-2.29301736699696
30
0
41
1
10
10.7495861291808
20
-3.18759488531634
30
0
41
1
10
10.7495861291808
20
-3.63566160939448
30
0
41
1
10
10.7495861291808
20
-4.53345303811355
30
0
41
1
10
10.7495861291808
20
-4.98112067935415
30
0
41
1
10
10.7495861291808
20
-6.16053179454798
30
0
41
1
10
10.7495861291808
20
-6.88950256997433
30
0
41
1
10
10.7495861291808
20
-7.61305527486047
30
0
0
SPLINE
5
C9
100
AcDbEntity
8
1
62
256
6
ByLayer
370
18
48
1
60
0
100
AcDbSpline
70
4
71
3
72
8
73
4
40
0
40
0
40
0
40
0
40
1
40
1
40
1
40
1
41
1
10
195.043143759373
20
-7.90637992009405
30
0
41
1
10
195.0599644218
20
-7.91182477584633
30
0
41
1
10
195.077767851877
20
-7.91442756143798
30
0
41
1
10
195.096572756333
20
-7.91421279394746
30
0
0
SPLINE
5
CA
100
AcDbEntity
8
1
62
256
6
ByLayer
370
18
48
1
60
0
100
AcDbSpline
70
4
71
3
72
8
73
4
40
0
40
0
40
0
40
0
40
1
40
1
40
1
40
1
41
1
10
195.16736915264
20
-7.90171914632512
30
0
41
1
10
195.175848584036
20
-7.89898618927811
30
0
41
1
10
195.18449184143
20
-7.89580689627684
30
0
41
1
10
195.193300122683
20
-7.89218283724304
30
0
0
SPLINE
5
CB
100
AcDbEntity
8
1
62
256
6
ByLayer
370
18
48
1
60
0
100
AcDbSpline
70
4
71
3
72
16
73
12
40
0
40
0
40
0
40
0
40
0.258937929132746
40
0.258937929132746
40
0.390378498833754
40
0.390378498833754
40
0.45609878368426
40
0.45609878368426
40
0.521819068534766
40
0.521819068534766
40
1
40
1
40
1
40
1
41
1
10
71.2439047166231
20
0.0323434286887903
30
0
41
1
10
72.2089335281786
20
-0.458723461018678
30
0
41
1
10
73.174404270269
20
-0.950166255107717
30
0
41
1
10
74.6355342292339
20
-1.6817704172384
30
0
41
1
10
75.1284667034848
20
-1.92647661368733
30
0
41
1
10
75.8700377486478
20
-2.28964983091294
30
0
41
1
10
76.1175804762077
20
-2.41007979296791
30
0
41
1
10
76.6134891286388
20
-2.64944511201966
30
0
41
1
10
76.8620833972381
20
-2.76848646722638
30
0
41
1
10
78.9146554340626
20
-3.74233958857195
30
0
41
1
10
80.6990977482625
20
-4.53102600175748
30
0
41
1
10
82.4851963067898
20
-5.2175546740292
30
0
0
SPLINE
5
CC
100
AcDbEntity
8
1
62
256
6
ByLayer
370
13
48
1
60
0
100
AcDbSpline
70
4
71
3
72
20
73
16
40
0
40
0
40
0
40
0
40
0.0340285200130584
40
0.0340285200130584
40
0.222031942070772
40
0.222031942070772
40
0.316033653099631
40
0.316033653099631
40
0.410035364128491
40
0.410035364128491
40
0.786042208243931
40
0.786042208243931
40
0.974045630301654
40
0.974045630301654
40
1
40
1
40
1
40
1
41
1
10
82.4851963075419
20
-5.21755467431825
30
0
41
1
10
82.6629218716174
20
-5.28586764335674
30
0
41
1
10
82.8406638345419
20
-5.35316912554029
30
0
41
1
10
84.0006554149444
20
-5.78548042969879
30
0
41
1
10
84.9838905732794
20
-6.11991281144333
30
0
41
1
10
86.4658303363933
20
-6.56575635734717
30
0
41
1
10
86.9611575883577
20
-6.70508661665656
30
0
41
1
10
87.9544150054776
20
-6.96378753261266
30
0
41
1
10
88.4494009329698
20
-7.08236044325673
30
0
41
1
10
90.9186411299173
20
-7.61964037745759
30
0
41
1
10
92.8753437499072
20
-7.87233996489294
30
0
41
1
10
95.8256110404927
20
-7.96718336139566
30
0
41
1
10
96.8114248920635
20
-7.95151980832688
30
0
41
1
10
97.9404293814444
20
-7.87879748875378
30
0
41
1
10
98.0774501495469
20
-7.8690558663277
30
0
41
1
10
98.2145049579953
20
-7.85840104990348
30
0
0
SPLINE
5
CD
100
AcDbEntity
8
1
62
256
6
ByLayer
370
18
48
1
60
0
100
AcDbSpline
70
4
71
3
72
22
73
18
40
0
40
0
40
0
40
0
40
0.141470383706116
40
0.141470383706116
40
0.187283233149951
40
0.187283233149951
40
0.233096082593786
40
0.233096082593786
40
0.32472178148146
40
0.32472178148146
40
0.507973179256806
40
0.507973179256806
40
0.874475974807498
40
0.874475974807498
40
0.966101673695174
40
0.966101673695174
40
1
40
1
40
1
40
1
41
1
10
169.309227797436
20
-0.0010027202600327
30
0
41
1
10
170.065957219484
20
-0.389021120846195
30
0
41
1
10
170.824339970066
20
-0.777921446959596
30
0
41
1
10
171.832683552859
20
-1.28960438344347
30
0
41
1
10
172.079692019829
20
-1.41451430694173
30
0
41
1
10
172.574514907846
20
-1.66360457183194
30
0
41
1
10
172.822631896266
20
-1.78793628566112
30
0
41
1
10
173.565861166081
20
-2.15824648423228
30
0
41
1
10
174.059478720196
20
-2.40135907952492
30
0
41
1
10
175.536231364889
20
-3.116743527772
30
0
41
1
10
176.515164413966
20
-3.57528365939498
30
0
41
1
10
179.446024436101
20
-4.87766488388104
30
0
41
1
10
181.391945440613
20
-5.64825459590958
30
0
41
1
10
183.849693719257
20
-6.43285369414087
30
0
41
1
10
184.342537219966
20
-6.58083318078525
30
0
41
1
10
185.020071298724
20
-6.77040043765095
30
0
41
1
10
185.203427977562
20
-6.82031497461784
30
0
41
1
10
185.386800958432
20
-6.86881150663771
30
0
0
SPLINE
5
CE
100
AcDbEntity
8
1
62
256
6
ByLayer
370
13
48
1
60
0
100
AcDbSpline
70
4
71
3
72
14
73
10
40
0
40
0
40
0
40
0
40
0.0196129787538912
40
0.0196129787538912
40
0.0950273650035934
40
0.0950273650035934
40
0.396684910002393
40
0.396684910002393
40
1
40
1
40
1
40
1
41
1
10
185.386800959979
20
-6.86881150704684
30
0
41
1
10
185.451252567015
20
-6.88585698129825
30
0
41
1
10
185.515706187954
20
-6.90272727956898
30
0
41
1
10
185.827924214808
20
-6.98358800681601
30
0
41
1
10
186.075322150654
20
-7.04504029377023
30
0
41
1
10
187.310699793737
20
-7.33855374790755
30
0
41
1
10
188.2938029948
20
-7.52943015569522
30
0
41
1
10
191.238773848346
20
-7.96430870770683
30
0
41
1
10
193.196532771255
20
-8.07148764697462
30
0
41
1
10
195.176446714823
20
-7.98299759898646
30
0
0
SPLINE
5
CF
100
AcDbEntity
8
1
62
256
6
ByLayer
370
18
48
1
60
0
100
AcDbSpline
70
4
71
3
72
10
73
6
40
0
40
0
40
0
40
0
40
0.5
40
0.5
40
1
40
1
40
1
40
1
41
1
10
197.952641545168
20
-0.245652423938225
30
0
41
1
10
197.955983250665
20
-0.218747529588967
30
0
41
1
10
197.962192124438
20
-0.18758921221874
30
0
41
1
10
197.978496129658
20
-0.119811265659251
30
0
41
1
10
197.988369566724
20
-0.0842488943909245
30
0
41
1
10
197.999966884476
20
-0.047216788558444
30
0
0
SPLINE
5
D0
100
AcDbEntity
8
1
62
256
6
ByLayer
370
18
48
1
60
0
100
AcDbSpline
70
4
71
3
72
18
73
14
40
0
40
0
40
0
40
0
40
0.125000000000006
40
0.125000000000006
40
0.250000000000013
40
0.250000000000013
40
0.375000000000019
40
0.375000000000019
40
0.500000000000026
40
0.500000000000026
40
0.750000000000013
40
0.750000000000013
40
1
40
1
40
1
40
1
41
1
10
6.00000005743465
20
-4.44509504687571
30
0
41
1
10
6.00000005743453
20
-4.42412898685484
30
0
41
1
10
6.00181730867834
20
-4.40383791317444
30
0
41
1
10
6.01097358270235
20
-4.36872177772975
30
0
41
1
10
6.01861202705885
20
-4.35395238118568
30
0
41
1
10
6.03886561076146
20
-4.33591268561457
30
0
41
1
10
6.0515093373541
20
-4.3324841229967
30
0
41
1
10
6.07740660316739
20
-4.33434124805277
30
0
41
1
10
6.09066824045607
20
-4.3392139754302
30
0
41
1
10
6.13021078265001
20
-4.36042545709327
30
0
41
1
10
6.15553747744261
20
-4.38257292671463
30
0
41
1
10
6.20446839286274
20
-4.4333174768559
30
0
41
1
10
6.22778622454578
20
-4.46192950722346
30
0
41
1
10
6.25034655996944
20
-4.49268273292321
30
0
0
SPLINE
5
D1
100
AcDbEntity
8
1
62
256
6
ByLayer
370
18
48
1
60
0
100
AcDbSpline
70
4
71
3
72
18
73
14
40
0
40
0
40
0
40
0
40
0.250000000000004
40
0.250000000000004
40
0.37500000000001
40
0.37500000000001
40
0.437500000000009
40
0.437500000000009
40
0.500000000000008
40
0.500000000000008
40
0.750000000000004
40
0.750000000000004
40
1
40
1
40
1
40
1
41
1
10
188.809845311784
20
-1.59161823693256
30
0
41
1
10
189.143876410305
20
-2.06637089241181
30
0
41
1
10
189.507936978539
20
-2.50318557534158
30
0
41
1
10
190.088815604254
20
-3.11445818592898
30
0
41
1
10
190.288284724049
20
-3.31083403381288
30
0
41
1
10
190.595258293953
20
-3.59558165222879
30
0
41
1
10
190.698972312777
20
-3.68892739313244
30
0
41
1
10
190.907418903607
20
-3.871226964952
30
0
41
1
10
191.012324285489
20
-3.96034631843187
30
0
41
1
10
191.540039004161
20
-4.39645362722862
30
0
41
1
10
191.972313641282
20
-4.7152653121469
30
0
41
1
10
192.853257954636
20
-5.30408399127595
30
0
41
1
10
193.30195812499
20
-5.57400021069901
30
0
41
1
10
193.757875526815
20
-5.82243220264914
30
0
0
SPLINE
5
D2
100
AcDbEntity
8
1
62
256
6
ByLayer
370
18
48
1
60
0
100
AcDbSpline
70
4
71
3
72
62
73
58
40
0
40
0
40
0
40
0
40
0.0293478901771776
40
0.0293478901771776
40
0.0586957803543553
40
0.0586957803543553
40
0.117391560708709
40
0.117391560708709
40
0.146739450885886
40
0.146739450885886
40
0.176087341063063
40
0.176087341063063
40
0.20543523124024
40
0.20543523124024
40
0.234783121417417
40
0.234783121417417
40
0.293478901771773
40
0.293478901771773
40
0.32282679194895
40
0.32282679194895
40
0.352174682126128
40
0.352174682126128
40
0.410870462480483
40
0.410870462480483
40
0.440218352657662
40
0.440218352657662
40
0.46956624283484
40
0.46956624283484
40
0.528262023189196
40
0.528262023189196
40
0.557609913366375
40
0.557609913366375
40
0.586957803543553
40
0.586957803543553
40
0.616305693720731
40
0.616305693720731
40
0.645653583897909
40
0.645653583897909
40
0.704349364252267
40
0.704349364252267
40
0.733697254429446
40
0.733697254429446
40
0.763045144606625
40
0.763045144606625
40
0.821740924960983
40
0.821740924960983
40
0.851088815138162
40
0.851088815138162
40
0.880436705315341
40
0.880436705315341
40
0.939132485669698
40
0.939132485669698
40
0.968480375846878
40
0.968480375846878
40
0.997828266024057
40
0.997828266024057
40
1
40
1
40
1
40
1
41
1
10
195.032927279539
20
-8.34899857058065
30
0
41
1
10
194.541270646426
20
-8.36943557716324
30
0
41
1
10
194.049068527896
20
-8.37737861988245
30
0
41
1
10
193.065423056255
20
-8.36826297050536
30
0
41
1
10
192.574312537074
20
-8.35122918478254
30
0
41
1
10
191.10180880062
20
-8.2631027726992
30
0
41
1
10
190.121155496195
20
-8.15498636332998
30
0
41
1
10
188.645944603384
20
-7.9205440280615
30
0
41
1
10
188.153623379359
20
-7.83034619640048
30
0
41
1
10
187.171122905926
20
-7.62735129350702
30
0
41
1
10
186.680370134527
20
-7.51447654020876
30
0
41
1
10
185.698904282253
20
-7.2668211325408
30
0
41
1
10
185.208191774616
20
-7.13203949780734
30
0
41
1
10
184.225835020857
20
-6.84144628417801
30
0
41
1
10
183.733724770033
20
-6.68548698289672
30
0
41
1
10
182.257850411895
20
-6.18847777805624
30
0
41
1
10
181.276971929987
20
-5.81933784953009
30
0
41
1
10
179.804387557189
20
-5.21692147496722
30
0
41
1
10
179.313322271421
20
-5.0079888884006
30
0
41
1
10
178.32977429838
20
-4.57528297300627
30
0
41
1
10
177.837272373209
20
-4.35150038032114
30
0
41
1
10
176.363125784548
20
-3.66321693866794
30
0
41
1
10
175.382451986351
20
-3.1809345976832
30
0
41
1
10
173.908781148883
20
-2.43233467899205
30
0
41
1
10
173.416741294725
20
-2.17837376103842
30
0
41
1
10
172.432528144305
20
-1.66474918283035
30
0
41
1
10
171.941192943037
20
-1.40552786106036
30
0
41
1
10
170.468083189122
20
-0.623285564895468
30
0
41
1
10
169.487202888529
20
-0.0956876770648876
30
0
41
1
10
168.011781990285
20
0.693851172104587
30
0
41
1
10
167.51916817724
20
0.956816097887952
30
0
41
1
10
166.536142138546
20
1.47783175962203
30
0
41
1
10
166.04516968665
20
1.73619430077275
30
0
41
1
10
165.063358967153
20
2.24690802829542
30
0
41
1
10
164.572523407759
20
2.49926362887018
30
0
41
1
10
163.58997668857
20
2.9961340373429
30
0
41
1
10
163.097968414568
20
3.2408067167766
30
0
41
1
10
161.621198434788
20
3.95953880819465
30
0
41
1
10
160.639884483159
20
4.41619666416904
30
0
41
1
10
159.166882266209
20
5.05829085834589
30
0
41
1
10
158.675712695146
20
5.2651792541067
30
0
41
1
10
157.692034290032
20
5.66312302894912
30
0
41
1
10
157.199285527614
20
5.85426122579457
30
0
41
1
10
155.724358002254
20
6.39931760841813
30
0
41
1
10
154.743335742849
20
6.72577060315587
30
0
41
1
10
153.269357366628
20
7.15343238227027
30
0
41
1
10
152.777410796321
20
7.28569024988906
30
0
41
1
10
151.79257334218
20
7.52825405766373
30
0
41
1
10
151.30100525516
20
7.6382715009303
30
0
41
1
10
149.827291948118
20
7.93353525845831
30
0
41
1
10
148.846073587999
20
8.0839568334298
30
0
41
1
10
147.37048192201
20
8.23670952547641
30
0
41
1
10
146.87761760869
20
8.27546303701266
30
0
41
1
10
145.89408707255
20
8.32801033324608
30
0
41
1
10
145.402901986946
20
8.34186742547698
30
0
41
1
10
144.875474317223
20
8.34342336869233
30
0
41
1
10
144.839134307119
20
8.34346258966764
30
0
41
1
10
144.802794416613
20
8.34343383816889
30
0
0
SPLINE
5
D3
100
AcDbEntity
8
1
62
256
6
ByLayer
370
18
48
1
60
0
100
AcDbSpline
70
4
71
3
72
68
73
64
40
0
40
0
40
0
40
0
40
0.0050739607771683
40
0.0050739607771683
40
0.0323531375453199
40
0.0323531375453199
40
0.0596323143134714
40
0.0596323143134714
40
0.0869114910816226
40
0.0869114910816226
40
0.114190667849774
40
0.114190667849774
40
0.168749021386077
40
0.168749021386077
40
0.196028198154229
40
0.196028198154229
40
0.22330737492238
40
0.22330737492238
40
0.277865728458683
40
0.277865728458683
40
0.305144905226834
40
0.305144905226834
40
0.332424081994986
40
0.332424081994986
40
0.386982435531287
40
0.386982435531287
40
0.414261612299438
40
0.414261612299438
40
0.441540789067588
40
0.441540789067588
40
0.468819965835739
40
0.468819965835739
40
0.49609914260389
40
0.49609914260389
40
0.550657496140191
40
0.550657496140191
40
0.577936672908343
40
0.577936672908343
40
0.605215849676494
40
0.605215849676494
40
0.659774203212795
40
0.659774203212795
40
0.687053379980946
40
0.687053379980946
40
0.714332556749097
40
0.714332556749097
40
0.768890910285397
40
0.768890910285397
40
0.796170087053547
40
0.796170087053547
40
0.823449263821697
40
0.823449263821697
40
0.850728440589848
40
0.850728440589848
40
0.878007617357997
40
0.878007617357997
40
0.932565970894298
40
0.932565970894298
40
0.959845147662449
40
0.959845147662449
40
0.987124324430599
40
0.987124324430599
40
1
40
1
40
1
40
1
41
1
10
100.929696335763
20
-7.8715666219297
30
0
41
1
10
100.838100866879
20
-7.88726337802044
30
0
41
1
10
100.746480628907
20
-7.90255654753253
30
0
41
1
10
100.16210343819
20
-7.99748038296545
30
0
41
1
10
99.6695016462217
20
-8.06563768752724
30
0
41
1
10
98.6858486617615
20
-8.17747288929306
30
0
41
1
10
98.1944214356651
20
-8.22121159225173
30
0
41
1
10
97.2114728924446
20
-8.28411967887519
30
0
41
1
10
96.7199704841813
20
-8.30328918865385
30
0
41
1
10
95.7358727330752
20
-8.31681730598299
30
0
41
1
10
95.242688110463
20
-8.31114686585963
30
0
41
1
10
93.7653202460058
20
-8.25690774903035
30
0
41
1
10
92.7831669595785
20
-8.17122803202514
30
0
41
1
10
91.3081243461235
20
-7.97063287224336
30
0
41
1
10
90.8161753109131
20
-7.89174365747689
30
0
41
1
10
89.8307270788026
20
-7.71032812756508
30
0
41
1
10
89.3378797321388
20
-7.6079312697332
30
0
41
1
10
87.8620139058674
20
-7.26775257974563
30
0
41
1
10
86.8798978740022
20
-6.9966691857918
30
0
41
1
10
85.4035859697839
20
-6.5292279003358
30
0
41
1
10
84.9104166096131
20
-6.36304232639495
30
0
41
1
10
83.9252469337214
20
-6.0126286430729
30
0
41
1
10
83.4333286885342
20
-5.82847328802583
30
0
41
1
10
81.9582434555014
20
-5.25108191125213
30
0
41
1
10
80.9757917219642
20
-4.83283029282225
30
0
41
1
10
79.4974814983095
20
-4.16424152433939
30
0
41
1
10
79.004436723245
20
-3.93471841928809
30
0
41
1
10
78.0203038067246
20
-3.46549370696272
30
0
41
1
10
77.5287125141649
20
-3.22558472234763
30
0
41
1
10
76.5454511773844
20
-2.73698181611721
30
0
41
1
10
76.053787465961
20
-2.48827781228803
30
0
41
1
10
75.0694651173963
20
-1.98370651884594
30
0
41
1
10
74.5762901756027
20
-1.72748889475116
30
0
41
1
10
73.0981214706015
20
-0.953179846922467
30
0
41
1
10
72.1155105907131
20
-0.429857186990091
30
0
41
1
10
70.6401149833196
20
0.354986518888836
30
0
41
1
10
70.1480394615142
20
0.616520017403587
30
0
41
1
10
69.1624434303542
20
1.13774254518759
30
0
41
1
10
68.6692444341623
20
1.3972665649747
30
0
41
1
10
67.1926479978278
20
2.1666338461263
30
0
41
1
10
66.2102114875848
20
2.6685917320284
30
0
41
1
10
64.7336658012492
20
3.39456037863985
30
0
41
1
10
64.2404773715948
20
3.63227796931935
30
0
41
1
10
63.2546947776746
20
4.09565528934425
30
0
41
1
10
62.7625413213978
20
4.32118989667242
30
0
41
1
10
61.2869064350594
20
4.97718553620714
30
0
41
1
10
60.3040897101824
20
5.38678237588366
30
0
41
1
10
58.825679802531
20
5.95107833163547
30
0
41
1
10
58.3323213999663
20
6.13071784150512
30
0
41
1
10
57.3476569793702
20
6.47025290126379
30
0
41
1
10
56.8558264759655
20
6.63041392429469
30
0
41
1
10
55.872219426656
20
6.93048730438335
30
0
41
1
10
55.380427636617
20
7.07038274198405
30
0
41
1
10
54.3959049958807
20
7.32887100440155
30
0
41
1
10
53.9027766411945
20
7.44761996043496
30
0
41
1
10
52.4237482428587
20
7.76956361353743
30
0
41
1
10
51.4406591740163
20
7.93813270528818
30
0
41
1
10
49.9649438796561
20
8.11902080348079
30
0
41
1
10
49.472793004486
20
8.16729073501176
30
0
41
1
10
48.4870287918626
20
8.23934479578691
30
0
41
1
10
47.9935179610816
20
8.26311003410945
30
0
41
1
10
47.2686640060092
20
8.27977365421694
30
0
41
1
10
47.0363483911551
20
8.28235699325779
30
0
41
1
10
46.8040943335099
20
8.28218597991881
30
0
0
SPLINE
5
D4
100
AcDbEntity
8
1
62
256
6
ByLayer
370
18
48
1
60
0
100
AcDbSpline
70
4
71
3
72
64
73
60
40
0
40
0
40
0
40
0
40
0.0312499999999992
40
0.0312499999999992
40
0.0624999999999984
40
0.0624999999999984
40
0.124999999999997
40
0.124999999999997
40
0.187499999999996
40
0.187499999999996
40
0.218749999999996
40
0.218749999999996
40
0.249999999999995
40
0.249999999999995
40
0.312499999999994
40
0.312499999999994
40
0.343749999999994
40
0.343749999999994
40
0.374999999999993
40
0.374999999999993
40
0.406249999999993
40
0.406249999999993
40
0.421874999999992
40
0.421874999999992
40
0.437499999999992
40
0.437499999999992
40
0.499999999999992
40
0.499999999999992
40
0.531249999999991
40
0.531249999999991
40
0.562499999999991
40
0.562499999999991
40
0.624999999999991
40
0.624999999999991
40
0.656249999999991
40
0.656249999999991
40
0.687499999999992
40
0.687499999999992
40
0.695312499999992
40
0.695312499999992
40
0.699218749999992
40
0.699218749999992
40
0.701171874999992
40
0.701171874999992
40
0.703124999999991
40
0.703124999999991
40
0.707031249999992
40
0.707031249999992
40
0.710937499999993
40
0.710937499999993
40
0.718749999999994
40
0.718749999999994
40
0.749999999999995
40
0.749999999999995
40
0.812499999999996
40
0.812499999999996
40
0.874999999999998
40
0.874999999999998
40
1
40
1
40
1
40
1
41
1
10
6.00000005744337
20
-4.69338117897499
30
0
41
1
10
5.91404494727689
20
-4.57448696830764
30
0
41
1
10
5.82898033950556
20
-4.45203382600462
30
0
41
1
10
5.66241547579233
20
-4.20207560817332
30
0
41
1
10
5.58100130082806
20
-4.0747317905543
30
0
41
1
10
5.34258427811636
20
-3.68541720658325
30
0
41
1
10
5.19135149247344
20
-3.41620903592073
30
0
41
1
10
4.90665465702978
20
-2.85650687987174
30
0
41
1
10
4.77315758589936
20
-2.5660419722808
30
0
41
1
10
4.58958111489557
20
-2.11159374835472
30
0
41
1
10
4.53130608367559
20
-1.95715691447953
30
0
41
1
10
4.42271464832791
20
-1.64607074392558
30
0
41
1
10
4.37217804654199
20
-1.48889948922078
30
0
41
1
10
4.23291069675494
20
-1.01216254991689
30
0
41
1
10
4.15638209208998
20
-0.687424124075847
30
0
41
1
10
4.07247384436693
20
-0.187821890343997
30
0
41
1
10
4.04972713219635
20
-0.0189416027177174
30
0
41
1
10
4.01660748456737
20
0.316534956501073
30
0
41
1
10
4.00607559703982
20
0.483939274525539
30
0
41
1
10
3.99785110796438
20
0.818094912749785
30
0
41
1
10
4.00016056374869
20
0.984846269836964
30
0
41
1
10
4.01396206906404
20
1.23448928356353
30
0
41
1
10
4.02028760027693
20
1.31762290801117
30
0
41
1
10
4.03654242831186
20
1.48372929366317
30
0
41
1
10
4.04651086995
20
1.56693130262249
30
0
41
1
10
4.10509275036702
20
1.97810402918969
30
0
41
1
10
4.17990764737206
20
2.29372547398043
30
0
41
1
10
4.33343314642582
20
2.74858238175946
30
0
41
1
10
4.39149541014041
20
2.89709970697248
30
0
41
1
10
4.52142679422866
20
3.18808091518707
30
0
41
1
10
4.59304453322511
20
3.32975943697991
30
0
41
1
10
4.82370250471268
20
3.73831914711044
30
0
41
1
10
4.99957732532778
20
3.99137394186514
30
0
41
1
10
5.2929345130658
20
4.34649817812254
30
0
41
1
10
5.39584733380127
20
4.46093991398931
30
0
41
1
10
5.60917557684797
20
4.68031543732673
30
0
41
1
10
5.71976873957902
20
4.78549686567285
30
0
41
1
10
5.86258370484501
20
4.91188197080905
30
0
41
1
10
5.8913718640799
20
4.93690038650993
30
0
41
1
10
5.93486251737662
20
4.9740300002876
30
0
41
1
10
5.94944430479509
20
4.98631708021398
30
0
41
1
10
5.97129560647488
20
5.00472494760831
30
0
41
1
10
5.97860689249038
20
5.01090397373636
30
0
41
1
10
5.99477855809198
20
5.02149689747779
30
0
41
1
10
6.00342952532273
20
5.02613463567312
30
0
41
1
10
6.03099505270146
20
5.03817672556568
30
0
41
1
10
6.05122015987976
20
5.04352951779003
30
0
41
1
10
6.09268369425351
20
5.04932241198003
30
0
41
1
10
6.11393225259374
20
5.05003301183319
30
0
41
1
10
6.17706511293636
20
5.05436786804631
30
0
41
1
10
6.21917184701562
20
5.05707695813518
30
0
41
1
10
6.42979587373901
20
5.06972528970613
30
0
41
1
10
6.59850149367833
20
5.07696985669457
30
0
41
1
10
7.10471412551192
20
5.09027473092712
30
0
41
1
10
7.44335408691106
20
5.08791101829092
30
0
41
1
10
8.11599593438638
20
5.06138719392521
30
0
41
1
10
8.45015150438297
20
5.03728916516457
30
0
41
1
10
9.44633953810521
20
4.93277875401444
30
0
41
1
10
10.1020910678229
20
4.82035964386975
30
0
41
1
10
10.7495861291808
20
4.66100220171092
30
0
0
SPLINE
5
D5
100
AcDbEntity
8
1
62
256
6
ByLayer
370
18
48
1
60
0
100
AcDbSpline
70
4
71
3
72
8
73
4
40
0
40
0
40
0
40
0
40
1
40
1
40
1
40
1
41
1
10
197.974886641746
20
-0.007656443417261
30
0
41
1
10
197.915396716957
20
-0.118285554615227
30
0
41
1
10
197.856115454496
20
-0.229101131070337
30
0
41
1
10
197.797043175261
20
-0.34010345948775
30
0
0
SPLINE
5
D6
100
AcDbEntity
8
1
62
256
6
ByLayer
370
18
48
1
60
0
100
AcDbSpline
70
4
71
3
72
16
73
12
40
0
40
0
40
0
40
0
40
0.125
40
0.125
40
0.250000000000001
40
0.250000000000001
40
0.500000000000001
40
0.500000000000001
40
0.75
40
0.75
40
1
40
1
40
1
40
1
41
1
10
195.193916506307
20
-3.87330569356141
30
0
41
1
10
195.192312655182
20
-3.83781442582122
30
0
41
1
10
195.19424140555
20
-3.80250431791242
30
0
41
1
10
195.20480531203
20
-3.73603151277362
30
0
41
1
10
195.213459815675
20
-3.70418356191613
30
0
41
1
10
195.247962379734
20
-3.61428241473109
30
0
41
1
10
195.281254982815
20
-3.56357509727562
30
0
41
1
10
195.359586108262
20
-3.4752278845169
30
0
41
1
10
195.403554598908
20
-3.43868851061001
30
0
41
1
10
195.49730635477
20
-3.37485232099115
30
0
41
1
10
195.547442883785
20
-3.34757021107654
30
0
41
1
10
195.598577377965
20
-3.32406284924011
30
0
0
SPLINE
5
D7
100
AcDbEntity
8
1
62
256
6
ByLayer
370
18
48
1
60
0
100
AcDbSpline
70
4
71
3
72
20
73
16
40
0
40
0
40
0
40
0
40
0.250000000000001
40
0.250000000000001
40
0.312500000000001
40
0.312500000000001
40
0.375000000000001
40
0.375000000000001
40
0.500000000000001
40
0.500000000000001
40
0.75
40
0.75
40
0.875
40
0.875
40
1
40
1
40
1
40
1
41
1
10
6.25034656600798
20
-4.49268274115465
30
0
41
1
10
6.56452056780643
20
-4.92095048562439
30
0
41
1
10
6.89593518290246
20
-5.30506512743591
30
0
41
1
10
7.33125930934844
20
-5.73599842381094
30
0
41
1
10
7.41940169999168
20
-5.81969257446795
30
0
41
1
10
7.59791893013178
20
-5.98213490150235
30
0
41
1
10
7.68847468933581
20
-6.06102951592845
30
0
41
1
10
7.96214412944113
20
-6.2890749835689
30
0
41
1
10
8.14705154314149
20
-6.42950874594945
30
0
41
1
10
8.71029208078517
20
-6.81807104123189
30
0
41
1
10
9.09705814142151
20
-7.03357167181852
30
0
41
1
10
9.70035622011193
20
-7.2963033217913
30
0
41
1
10
9.90579560837972
20
-7.37388164295203
30
0
41
1
10
10.3227434087634
20
-7.50844812194723
30
0
41
1
10
10.5343332377783
20
-7.56553604485867
30
0
41
1
10
10.7495861291808
20
-7.61305527485982
30
0
0
SPLINE
5
D8
100
AcDbEntity
8
1
62
256
6
ByLayer
370
18
48
1
60
0
100
AcDbSpline
70
4
71
3
72
10
73
6
40
0
40
0
40
0
40
0
40
0.5
40
0.5
40
1
40
1
40
1
40
1
41
1
10
195.308075518707
20
-8.14198505077491
30
0
41
1
10
195.709752344741
20
-7.12778013102499
30
0
41
1
10
196.110888658274
20
-6.1124138720424
30
0
41
1
10
196.908394666752
20
-4.07768205797163
30
0
41
1
10
197.304947199202
20
-3.0585436741859
30
0
41
1
10
197.696866905721
20
-2.03828035301768
30
0
0
SPLINE
5
D9
100
AcDbEntity
8
1
62
256
6
ByLayer
370
18
48
1
60
0
100
AcDbSpline
70
4
71
3
72
8
73
4
40
0
40
0
40
0
40
0
40
1
40
1
40
1
40
1
41
1
10
197.696866905721
20
-2.03828035301774
30
0
41
1
10
197.793153169981
20
-1.4406501247511
30
0
41
1
10
197.878435038474
20
-0.843107293852967
30
0
41
1
10
197.952641545168
20
-0.245652423938452
30
0
0
SPLINE
5
DA
100
AcDbEntity
8
1
62
256
6
ByLayer
370
18
48
1
60
0
100
AcDbSpline
70
4
71
3
72
8
73
4
40
0
40
0
40
0
40
0
40
1
40
1
40
1
40
1
41
1
10
197.999966884476
20
0.0472167885583019
30
0
41
1
10
198.000011038509
20
0.015738929519415
30
0
41
1
10
198.000011038509
20
-0.0157389295195003
30
0
41
1
10
197.999966884476
20
-0.0472167885583588
30
0
0
SPLINE
5
DB
100
AcDbEntity
8
1
62
256
6
ByLayer
370
18
48
1
60
0
100
AcDbSpline
70
4
71
3
72
8
73
4
40
0
40
0
40
0
40
0
40
1
40
1
40
1
40
1
41
1
10
197.696866905721
20
2.03828035301771
30
0
41
1
10
197.79315445665
20
1.44064213864507
30
0
41
1
10
197.878436032192
20
0.843099293179023
30
0
41
1
10
197.952641545168
20
0.245652423938509
30
0
0
SPLINE
5
DC
100
AcDbEntity
8
1
62
256
6
ByLayer
370
13
48
1
60
0
100
AcDbSpline
70
4
71
3
72
26
73
22
40
0
40
0
40
0
40
0
40
0.0289385874525498
40
0.0289385874525498
40
0.126044728707295
40
0.126044728707295
40
0.22315086996204
40
0.22315086996204
40
0.320257011216786
40
0.320257011216786
40
0.417363152471531
40
0.417363152471531
40
0.514469293726276
40
0.514469293726276
40
0.611575434981021
40
0.611575434981021
40
0.80578771749051
40
0.80578771749051
40
0.902893858745255
40
0.902893858745255
40
1
40
1
40
1
40
1
41
1
10
6.25022037985556
20
-7.7962737647068
30
0
41
1
10
6.25021997292788
20
-7.79610113149036
30
0
41
1
10
6.25021958016816
20
-7.79495439137676
30
0
41
1
10
6.25021795567946
20
-7.78574143140571
30
0
41
1
10
6.2502169201228
20
-7.76766697165226
30
0
41
1
10
6.25021564619811
20
-7.70913744132017
30
0
41
1
10
6.2502154111406
20
-7.66844330956195
30
0
41
1
10
6.25021606240583
20
-7.56529409166041
30
0
41
1
10
6.25021694384409
20
-7.50286724387431
30
0
41
1
10
6.25022004019996
20
-7.35631646998874
30
0
41
1
10
6.25022226345214
20
-7.27198323632035
30
0
41
1
10
6.2502281424959
20
-7.08330548999939
30
0
41
1
10
6.25023179956844
20
-6.97881923641935
30
0
41
1
10
6.25024060275695
20
-6.74951403114969
30
0
41
1
10
6.25024576361926
20
-6.62441564172775
30
0
41
1
10
6.25026316600034
20
-6.22471409328179
30
0
41
1
10
6.25027740987071
20
-5.92425956171459
30
0
41
1
10
6.25030171257896
20
-5.42318433084932
30
0
41
1
10
6.2503102971298
20
-5.24770794389403
30
0
41
1
10
6.25032817772049
20
-4.87928798101657
30
0
41
1
10
6.25033735908283
20
-4.68866113176691
30
0
41
1
10
6.25034655996785
20
-4.49268276800765
30
0
0
SPLINE
5
DD
100
AcDbEntity
8
1
62
256
6
ByLayer
370
18
48
1
60
0
100
AcDbSpline
70
4
71
3
72
138
73
134
40
0
40
0
40
0
40
0
40
0.0074362159116045
40
0.0074362159116045
40
0.0183076669834617
40
0.0183076669834617
40
0.040050569127176
40
0.040050569127176
40
0.0509220201990337
40
0.0509220201990337
40
0.0617934712708913
40
0.0617934712708913
40
0.072664922342749
40
0.072664922342749
40
0.0835363734146067
40
0.0835363734146067
40
0.105279275558322
40
0.105279275558322
40
0.11615072663018
40
0.11615072663018
40
0.127022177702037
40
0.127022177702037
40
0.148765079845752
40
0.148765079845752
40
0.159636530917609
40
0.159636530917609
40
0.170507981989466
40
0.170507981989466
40
0.19225088413318
40
0.19225088413318
40
0.213993786276894
40
0.213993786276894
40
0.235736688420609
40
0.235736688420609
40
0.257479590564323
40
0.257479590564323
40
0.279222492708037
40
0.279222492708037
40
0.300965394851752
40
0.300965394851752
40
0.322708296995466
40
0.322708296995466
40
0.333579748067323
40
0.333579748067323
40
0.344451199139181
40
0.344451199139181
40
0.366194101282896
40
0.366194101282896
40
0.377065552354753
40
0.377065552354753
40
0.387937003426611
40
0.387937003426611
40
0.409679905570325
40
0.409679905570325
40
0.420551356642183
40
0.420551356642183
40
0.43142280771404
40
0.43142280771404
40
0.453165709857754
40
0.453165709857754
40
0.464037160929612
40
0.464037160929612
40
0.474908612001469
40
0.474908612001469
40
0.496651514145182
40
0.496651514145182
40
0.518394416288895
40
0.518394416288895
40
0.529265867360752
40
0.529265867360752
40
0.540137318432608
40
0.540137318432608
40
0.561880220576321
40
0.561880220576321
40
0.572751671648178
40
0.572751671648178
40
0.583623122720035
40
0.583623122720035
40
0.594494573791891
40
0.594494573791891
40
0.605366024863748
40
0.605366024863748
40
0.616237475935605
40
0.616237475935605
40
0.627108927007461
40
0.627108927007461
40
0.648851829151174
40
0.648851829151174
40
0.670594731294887
40
0.670594731294887
40
0.681466182366744
40
0.681466182366744
40
0.692337633438601
40
0.692337633438601
40
0.714080535582317
40
0.714080535582317
40
0.735823437726032
40
0.735823437726032
40
0.746694888797889
40
0.746694888797889
40
0.757566339869747
40
0.757566339869747
40
0.779309242013462
40
0.779309242013462
40
0.79018069308532
40
0.79018069308532
40
0.801052144157179
40
0.801052144157179
40
0.822795046300894
40
0.822795046300894
40
0.833666497372751
40
0.833666497372751
40
0.844537948444608
40
0.844537948444608
40
0.855409399516465
40
0.855409399516465
40
0.866280850588322
40
0.866280850588322
40
0.888023752732036
40
0.888023752732036
40
0.898895203803894
40
0.898895203803894
40
0.909766654875752
40
0.909766654875752
40
0.931509557019468
40
0.931509557019468
40
0.953252459163184
40
0.953252459163184
40
0.974995361306901
40
0.974995361306901
40
0.996738263450617
40
0.996738263450617
40
1
40
1
40
1
40
1
41
1
10
176.161809086438
20
-4.51402362476199
30
0
41
1
10
176.003348679119
20
-4.57963787270162
30
0
41
1
10
175.844912298831
20
-4.64451783996788
30
0
41
1
10
175.455379228553
20
-4.80316089238104
30
0
41
1
10
175.224169775113
20
-4.89578775582041
30
0
41
1
10
174.529957695357
20
-5.16809437180135
30
0
41
1
10
174.066624290967
20
-5.34314391209688
30
0
41
1
10
173.371451894535
20
-5.59531433153941
30
0
41
1
10
173.139549559427
20
-5.67744400231132
30
0
41
1
10
172.67580383188
20
-5.83828986841766
30
0
41
1
10
172.443686642051
20
-5.91676390477181
30
0
41
1
10
171.979387578131
20
-6.06927786025108
30
0
41
1
10
171.747304622768
20
-6.14345739611792
30
0
41
1
10
171.283273738681
20
-6.28809387335906
30
0
41
1
10
171.051222589348
20
-6.35827372587124
30
0
41
1
10
170.356721176507
20
-6.56356242573506
30
0
41
1
10
169.893674318014
20
-6.69092023995822
30
0
41
1
10
169.198808999014
20
-6.86747295571465
30
0
41
1
10
168.967297554407
20
-6.92419859477542
30
0
41
1
10
168.504073226645
20
-7.03364547140708
30
0
41
1
10
168.272401851922
20
-7.08629505996726
30
0
41
1
10
167.577608369008
20
-7.23732369210992
30
0
41
1
10
167.113866070794
20
-7.3281012553864
30
0
41
1
10
166.416621352931
20
-7.44850082278379
30
0
41
1
10
166.184276992269
20
-7.48605899374084
30
0
41
1
10
165.720506853786
20
-7.55719939144458
30
0
41
1
10
165.488656501159
20
-7.59049416530434
30
0
41
1
10
164.793160913466
20
-7.68240806069466
30
0
41
1
10
164.329709574265
20
-7.73306749508842
30
0
41
1
10
163.403243647631
20
-7.81276108436825
30
0
41
1
10
162.940507379357
20
-7.8425981421783
30
0
41
1
10
162.013566716156
20
-7.88289643736354
30
0
41
1
10
161.549337412164
20
-7.89234668070642
30
0
41
1
10
160.620875316815
20
-7.88898549984944
30
0
41
1
10
160.155926257147
20
-7.87666015522913
30
0
41
1
10
159.227811655982
20
-7.83334100568175
30
0
41
1
10
158.764403566123
20
-7.80114068276788
30
0
41
1
10
157.838281493896
20
-7.71455857701972
30
0
41
1
10
157.37498913765
20
-7.66078319955403
30
0
41
1
10
156.447508283525
20
-7.53551246226848
30
0
41
1
10
155.984340708479
20
-7.46274761800765
30
0
41
1
10
155.287478253377
20
-7.33749580237716
30
0
41
1
10
155.05476517914
20
-7.29300318247366
30
0
41
1
10
154.589964030961
20
-7.19967961566798
30
0
41
1
10
154.35776587135
20
-7.15079684911083
30
0
41
1
10
153.66142785434
20
-6.99767563513197
30
0
41
1
10
153.198265369949
20
-6.8860353235919
30
0
41
1
10
152.502948077486
20
-6.70486594884267
30
0
41
1
10
152.271153969493
20
-6.641946360107
30
0
41
1
10
151.8074902138
20
-6.51229971187283
30
0
41
1
10
151.575997236156
20
-6.44520960354899
30
0
41
1
10
150.880937700932
20
-6.23813043975542
30
0
41
1
10
150.416739996069
20
-6.0929456937794
30
0
41
1
10
149.720050473975
20
-5.86104267597
30
0
41
1
10
149.487533464426
20
-5.78132343976444
30
0
41
1
10
149.022559948658
20
-5.61820141102135
30
0
41
1
10
148.790583357691
20
-5.53480425557208
30
0
41
1
10
148.095350617512
20
-5.28015788457998
30
0
41
1
10
147.632703995254
20
-5.10487083656082
30
0
41
1
10
146.940343482967
20
-4.83182131697677
30
0
41
1
10
146.710303445468
20
-4.73820411056863
30
0
41
1
10
146.250040703647
20
-4.5492215757844
30
0
41
1
10
146.019971105139
20
-4.45365219815949
30
0
41
1
10
145.329901648163
20
-4.16367680367202
30
0
41
1
10
144.870435556933
20
-3.96536410908723
30
0
41
1
10
143.952482747551
20
-3.55755576884255
30
0
41
1
10
143.494174563257
20
-3.34742171941988
30
0
41
1
10
142.805644106033
20
-3.02858374980437
30
0
41
1
10
142.576021338795
20
-2.92151109120599
30
0
41
1
10
142.116743301842
20
-2.70531407114166
30
0
41
1
10
141.887478889273
20
-2.59544847006876
30
0
41
1
10
141.198478748907
20
-2.26469742175084
30
0
41
1
10
140.738058047152
20
-2.04123591808997
30
0
41
1
10
140.046794636613
20
-1.70138872526505
30
0
41
1
10
139.816087537613
20
-1.58766739013066
30
0
41
1
10
139.354442175108
20
-1.35851756628037
30
0
41
1
10
139.123522537315
20
-1.24304716343664
30
0
41
1
10
138.660858239678
20
-1.01146784208177
30
0
41
1
10
138.42913713041
20
-0.895295165105296
30
0
41
1
10
137.964798597879
20
-0.662184622417016
30
0
41
1
10
137.731946322646
20
-0.545379073746773
30
0
41
1
10
137.266710725132
20
-0.310730550358727
30
0
41
1
10
137.034574536279
20
-0.192736652218741
30
0
41
1
10
136.570030895504
20
0.042071167904794
30
0
41
1
10
136.337783860263
20
0.15920986840743
30
0
41
1
10
135.641144489698
20
0.50985146299567
30
0
41
1
10
135.177196689212
20
0.743174147790285
30
0
41
1
10
134.249916877925
20
1.20838878265076
30
0
41
1
10
133.78631674331
20
1.4398928969112
30
0
41
1
10
133.089756260183
20
1.78292966307021
30
0
41
1
10
132.857263344172
20
1.89635685282403
30
0
41
1
10
132.39290509538
20
2.12372524878251
30
0
41
1
10
132.160584300833
20
2.23676391857731
30
0
41
1
10
131.462604276016
20
2.57291432146712
30
0
41
1
10
130.997134043068
20
2.79310939801431
30
0
41
1
10
130.068042107308
20
3.22617747860036
30
0
41
1
10
129.604282851972
20
3.43919097827543
30
0
41
1
10
128.908457320639
20
3.75006394063618
30
0
41
1
10
128.676428518636
20
3.85228331431128
30
0
41
1
10
128.212217260559
20
4.05424525542986
30
0
41
1
10
127.979966143091
20
4.15382721434571
30
0
41
1
10
127.284168469285
20
4.45045722962996
30
0
41
1
10
126.819529090326
20
4.64186672100567
30
0
41
1
10
126.121295348892
20
4.918848749571
30
0
41
1
10
125.888423381604
20
5.00981354058089
30
0
41
1
10
125.423063836079
20
5.18826349670627
30
0
41
1
10
125.190557416961
20
5.27589145590355
30
0
41
1
10
124.493833373666
20
5.53392090453644
30
0
41
1
10
124.029659657931
20
5.69808238070365
30
0
41
1
10
123.333207510601
20
5.93176006700699
30
0
41
1
10
123.101129883963
20
6.00776264595837
30
0
41
1
10
122.637373120077
20
6.15646195404767
30
0
41
1
10
122.405383128785
20
6.22877299390495
30
0
41
1
10
121.941086817578
20
6.36901734460275
30
0
41
1
10
121.708743369367
20
6.43691657749858
30
0
41
1
10
121.243954255582
20
6.5682773536239
30
0
41
1
10
121.011561768432
20
6.63172580571791
30
0
41
1
10
120.313668278854
20
6.81540797322083
30
0
41
1
10
119.848149674133
20
6.93024659857426
30
0
41
1
10
119.150716353071
20
7.08747027772634
30
0
41
1
10
118.91829801567
20
7.13744083600503
30
0
41
1
10
118.453611263531
20
7.23237561473499
30
0
41
1
10
118.221560420096
20
7.27747612869047
30
0
41
1
10
117.525696863528
20
7.40533588808188
30
0
41
1
10
117.061355750738
20
7.48034569100423
30
0
41
1
10
116.132598877953
20
7.61171111796975
30
0
41
1
10
115.668171631647
20
7.66767646493832
30
0
41
1
10
114.738521284132
20
7.75788268546958
30
0
41
1
10
114.272360693303
20
7.79250882569792
30
0
41
1
10
113.341603532529
20
7.84189018202005
30
0
41
1
10
112.877692340949
20
7.85654133985051
30
0
41
1
10
112.343562389362
20
7.8603704724803
30
0
41
1
10
112.273891689255
20
7.86062916368795
30
0
41
1
10
112.204224295608
20
7.86065032994509
30
0
0
SPLINE
5
DE
100
AcDbEntity
8
1
62
256
6
ByLayer
370
18
48
1
60
0
100
AcDbSpline
70
4
71
3
72
132
73
128
40
0
40
0
40
0
40
0
40
0.0075386560468946
40
0.0075386560468946
40
0.0293280168124032
40
0.0293280168124032
40
0.0402226971951571
40
0.0402226971951571
40
0.0511173775779111
40
0.0511173775779111
40
0.062012057960665
40
0.062012057960665
40
0.072906738343419
40
0.072906738343419
40
0.0946960991089269
40
0.0946960991089269
40
0.116485459874434
40
0.116485459874434
40
0.127380140257188
40
0.127380140257188
40
0.138274820639942
40
0.138274820639942
40
0.160064181405448
40
0.160064181405448
40
0.181853542170955
40
0.181853542170955
40
0.192748222553708
40
0.192748222553708
40
0.203642902936461
40
0.203642902936461
40
0.225432263701968
40
0.225432263701968
40
0.236326944084721
40
0.236326944084721
40
0.247221624467474
40
0.247221624467474
40
0.258116304850228
40
0.258116304850228
40
0.269010985232981
40
0.269010985232981
40
0.290800345998488
40
0.290800345998488
40
0.312589706763994
40
0.312589706763994
40
0.334379067529501
40
0.334379067529501
40
0.345273747912254
40
0.345273747912254
40
0.356168428295007
40
0.356168428295007
40
0.377957789060513
40
0.377957789060513
40
0.39974714982602
40
0.39974714982602
40
0.421536510591526
40
0.421536510591526
40
0.443325871357033
40
0.443325871357033
40
0.465115232122539
40
0.465115232122539
40
0.486904592888046
40
0.486904592888046
40
0.508693953653552
40
0.508693953653552
40
0.530483314419058
40
0.530483314419058
40
0.552272675184565
40
0.552272675184565
40
0.563167355567318
40
0.563167355567318
40
0.574062035950072
40
0.574062035950072
40
0.584956716332825
40
0.584956716332825
40
0.595851396715578
40
0.595851396715578
40
0.617640757481084
40
0.617640757481084
40
0.628535437863838
40
0.628535437863838
40
0.639430118246591
40
0.639430118246591
40
0.650324798629344
40
0.650324798629344
40
0.661219479012098
40
0.661219479012098
40
0.672114159394851
40
0.672114159394851
40
0.683008839777605
40
0.683008839777605
40
0.704798200543111
40
0.704798200543111
40
0.715692880925864
40
0.715692880925864
40
0.726587561308618
40
0.726587561308618
40
0.748376922074125
40
0.748376922074125
40
0.759271602456878
40
0.759271602456878
40
0.770166282839632
40
0.770166282839632
40
0.781060963222385
40
0.781060963222385
40
0.791955643605138
40
0.791955643605138
40
0.813745004370645
40
0.813745004370645
40
0.835534365136152
40
0.835534365136152
40
0.857323725901659
40
0.857323725901659
40
0.868218406284413
40
0.868218406284413
40
0.879113086667167
40
0.879113086667167
40
0.900902447432673
40
0.900902447432673
40
0.92269180819818
40
0.92269180819818
40
0.944481168963686
40
0.944481168963686
40
0.966270529729192
40
0.966270529729192
40
0.988059890494699
40
0.988059890494699
40
1
40
1
40
1
40
1
41
1
10
78.1142917969694
20
-4.50300266285919
30
0
41
1
10
77.9534572393663
20
-4.56903419505494
30
0
41
1
10
77.7926771537719
20
-4.63429393490583
30
0
41
1
10
77.1673777205223
20
-4.88503068322348
30
0
41
1
10
76.7035670137064
20
-5.06600526104128
30
0
41
1
10
76.0068281838722
20
-5.3263907075895
30
0
41
1
10
75.7744830820093
20
-5.41141159601705
30
0
41
1
10
75.3096225131663
20
-5.57776719411575
30
0
41
1
10
75.0774604050565
20
-5.65955534895534
30
0
41
1
10
74.6126370602303
20
-5.81847676469712
30
0
41
1
10
74.3799924294627
20
-5.89573508746116
30
0
41
1
10
73.9141816341515
20
-6.04659871919998
30
0
41
1
10
73.6809296127131
20
-6.1201759575321
30
0
41
1
10
72.9823877724249
20
-6.33524331797199
30
0
41
1
10
72.517444936337
20
-6.47058326159268
30
0
41
1
10
71.5885857087618
20
-6.7221966368063
30
0
41
1
10
71.1240768569267
20
-6.83833243419932
30
0
41
1
10
70.4270774877401
20
-6.99997075203083
30
0
41
1
10
70.195189888083
20
-7.05202320556228
30
0
41
1
10
69.730770863622
20
-7.15072594367993
30
0
41
1
10
69.4984008465419
20
-7.19749976224187
30
0
41
1
10
68.8006793854208
20
-7.33032776468255
30
0
41
1
10
68.3348100978035
20
-7.40945238033027
30
0
41
1
10
67.4032198266239
20
-7.54870926795925
30
0
41
1
10
66.9385192780711
20
-7.60814659372281
30
0
41
1
10
66.2412324003844
20
-7.68082019145157
30
0
41
1
10
66.0087502833176
20
-7.70240354061531
30
0
41
1
10
65.544231298866
20
-7.74084782875585
30
0
41
1
10
65.3123576167922
20
-7.75778374639043
30
0
41
1
10
64.615881419085
20
-7.80099657594243
30
0
41
1
10
64.1510481320342
20
-7.81963681314602
30
0
41
1
10
63.4537710991016
20
-7.83070435858056
30
0
41
1
10
63.221142172871
20
-7.83170813266918
30
0
41
1
10
62.7559774168785
20
-7.82871092004058
30
0
41
1
10
62.5233420069173
20
-7.82468401413323
30
0
41
1
10
62.0574790163519
20
-7.81160147227993
30
0
41
1
10
61.8245540060224
20
-7.80252647130732
30
0
41
1
10
61.3590074081437
20
-7.77907655869282
30
0
41
1
10
61.1261750455823
20
-7.76473183878929
30
0
41
1
10
60.4293917916193
20
-7.71307787523094
30
0
41
1
10
59.9650498563891
20
-7.66830433702418
30
0
41
1
10
59.0357130318488
20
-7.56009441154069
30
0
41
1
10
58.5711768286737
20
-7.49616859221462
30
0
41
1
10
57.6421760754622
20
-7.34641306789939
30
0
41
1
10
57.1772293332869
20
-7.26140097805768
30
0
41
1
10
56.4782861298666
20
-7.12063686399759
30
0
41
1
10
56.2450058647427
20
-7.07142616476446
30
0
41
1
10
55.7798089155458
20
-6.9676722199473
30
0
41
1
10
55.547291079122
20
-6.91351820048911
30
0
41
1
10
54.8498179002368
20
-6.74427975384702
30
0
41
1
10
54.3850184057325
20
-6.62238326316836
30
0
41
1
10
53.4559415380331
20
-6.36205640739271
30
0
41
1
10
52.9919436361695
20
-6.22320709037984
30
0
41
1
10
52.0627043007786
20
-5.92902681134115
30
0
41
1
10
51.5972589015032
20
-5.77382833305592
30
0
41
1
10
50.6667347728302
20
-5.44692448993598
30
0
41
1
10
50.2003160445586
20
-5.27690925409252
30
0
41
1
10
49.2696414858932
20
-4.92346947970344
30
0
41
1
10
48.8050293125229
20
-4.7393826184942
30
0
41
1
10
47.8765249267537
20
-4.35915302450019
30
0
41
1
10
47.4121163768289
20
-4.16380966968399
30
0
41
1
10
46.4825134799165
20
-3.7627520368672
30
0
41
1
10
46.0182761245144
20
-3.5549836219798
30
0
41
1
10
45.087257326092
20
-3.13324606571308
30
0
41
1
10
44.6207294359099
20
-2.91804554766827
30
0
41
1
10
43.6899925473741
20
-2.48035219121906
30
0
41
1
10
43.2258397685341
20
-2.25670279837738
30
0
41
1
10
42.5289786196608
20
-1.91933016050948
30
0
41
1
10
42.2966478893521
20
-1.80650509993066
30
0
41
1
10
41.8319821756272
20
-1.57978758736874
30
0
41
1
10
41.6000041917106
20
-1.46517645614585
30
0
41
1
10
41.1357392102585
20
-1.23542093846163
30
0
41
1
10
40.9034764789239
20
-1.1202467635604
30
0
41
1
10
40.4385736470879
20
-0.889344130751198
30
0
41
1
10
40.2059243144935
20
-0.773673447470458
30
0
41
1
10
39.5080211900324
20
-0.425196946951814
30
0
41
1
10
39.0418137998685
20
-0.191471137972172
30
0
41
1
10
38.3438922786591
20
0.159011781702048
30
0
41
1
10
38.1113469094026
20
0.275606274822138
30
0
41
1
10
37.6463738647972
20
0.508084351539765
30
0
41
1
10
37.4139524841253
20
0.623981778255143
30
0
41
1
10
36.94918310817
20
0.855218922002337
30
0
41
1
10
36.7173069483778
20
0.971489312554837
30
0
41
1
10
36.2530681565393
20
1.20224191555354
30
0
41
1
10
36.0208645508409
20
1.31706594940408
30
0
41
1
10
35.5562298131368
20
1.54548706371821
30
0
41
1
10
35.3238589567533
20
1.65918157395143
30
0
41
1
10
34.8592181471963
20
1.88578830426488
30
0
41
1
10
34.6267313157604
20
1.99826757058861
30
0
41
1
10
33.9292484241141
20
2.33461423055579
30
0
41
1
10
33.4636463074191
20
2.55735730838103
30
0
41
1
10
32.7649888814403
20
2.8840693881838
30
0
41
1
10
32.5321499374477
20
2.99166789226041
30
0
41
1
10
32.0671533076085
20
3.20515793208267
30
0
41
1
10
31.8351426451049
20
3.31133019209361
30
0
41
1
10
31.1384623001161
20
3.62484426263421
30
0
41
1
10
30.6737488247408
20
3.82831875573717
30
0
41
1
10
29.9771244265789
20
4.1267790744977
30
0
41
1
10
29.7447963989674
20
4.22480600242173
30
0
41
1
10
29.2804053979959
20
4.41875060648329
30
0
41
1
10
29.0482413006108
20
4.51449113519516
30
0
41
1
10
28.5834850395608
20
4.70266064029974
30
0
41
1
10
28.3509095145587
20
4.79512047576131
30
0
41
1
10
27.8853624325472
20
4.9767651696171
30
0
41
1
10
27.6521281874936
20
5.06572973933081
30
0
41
1
10
26.9538609949925
20
5.32949984725374
30
0
41
1
10
26.4889572770941
20
5.49749063085233
30
0
41
1
10
25.5592695882561
20
5.81550733025196
30
0
41
1
10
25.0947828565093
20
5.96745253135651
30
0
41
1
10
24.1665155609621
20
6.25692317099197
30
0
41
1
10
23.7022826566418
20
6.39375655206044
30
0
41
1
10
23.004919947787
20
6.5856501890857
30
0
41
1
10
22.7722674799185
20
6.64736769946407
30
0
41
1
10
22.3074759173326
20
6.76714912911709
30
0
41
1
10
22.0748552450391
20
6.82470577362497
30
0
41
1
10
21.376147261321
20
6.99019782484825
30
0
41
1
10
20.9109435841908
20
7.09087868634702
30
0
41
1
10
19.9840389423594
20
7.27016886478054
30
0
41
1
10
19.522049551994
20
7.35043717349859
30
0
41
1
10
18.5986267203006
20
7.49251988460563
30
0
41
1
10
18.137061889807
20
7.55364487867692
30
0
41
1
10
17.2163990447801
20
7.65660000063232
30
0
41
1
10
16.7559336119205
20
7.69796806560137
30
0
41
1
10
15.8349916642227
20
7.76064090145385
30
0
41
1
10
15.3746846077674
20
7.78176770218505
30
0
41
1
10
14.6620442371338
20
7.7982646270668
30
0
41
1
10
14.4095907224683
20
7.80102635125937
30
0
41
1
10
14.1569084387737
20
7.80078893647772
30
0
0
SPLINE
5
DF
100
AcDbEntity
8
1
62
256
6
ByLayer
370
18
48
1
60
0
100
AcDbSpline
70
4
71
3
72
12
73
8
40
0
40
0
40
0
40
0
40
0.5
40
0.5
40
0.75
40
0.75
40
1
40
1
40
1
40
1
41
1
10
195.066754372301
20
2.07248812979759
30
0
41
1
10
195.505356012983
20
2.06495019961196
30
0
41
1
10
195.943979367977
20
2.05721110069069
30
0
41
1
10
196.601768330255
20
2.04695569625633
30
0
41
1
10
196.821006381152
20
2.04398605393553
30
0
41
1
10
197.259150511617
20
2.04007110865177
30
0
41
1
10
197.478064269344
20
2.03889980991715
30
0
41
1
10
197.696866905721
20
2.03828035301771
30
0
0
SPLINE
5
E0
100
AcDbEntity
8
1
62
256
6
ByLayer
370
18
48
1
60
0
100
AcDbSpline
70
4
71
3
72
16
73
12
40
0
40
0
40
0
40
0
40
0.296801188086105
40
0.296801188086105
40
0.598733056474189
40
0.598733056474189
40
0.74969899066823
40
0.74969899066823
40
0.900664924862272
40
0.900664924862272
40
1
40
1
40
1
40
1
41
1
10
145.021162875614
20
-7.88257099671745
30
0
41
1
10
144.058591576421
20
-7.8817916112109
30
0
41
1
10
143.097528348387
20
-7.83602038267386
30
0
41
1
10
141.1552204411
20
-7.65387756334673
30
0
41
1
10
140.173817014753
20
-7.51602091752738
30
0
41
1
10
138.693823044875
20
-7.24171296342539
30
0
41
1
10
138.198555224824
20
-7.13889455888671
30
0
41
1
10
137.206826126717
20
-6.91171187611639
30
0
41
1
10
136.712683087616
20
-6.78784926192051
30
0
41
1
10
135.895479636026
20
-6.56652806411648
30
0
41
1
10
135.571700362648
20
-6.47452969624092
30
0
41
1
10
135.248335214242
20
-6.37854998926579
30
0
0
SPLINE
5
E1
100
AcDbEntity
8
1
62
256
6
ByLayer
370
13
48
1
60
0
100
AcDbSpline
70
4
71
3
72
20
73
16
40
0
40
0
40
0
40
0
40
0.26502795447279
40
0.26502795447279
40
0.423632195521038
40
0.423632195521038
40
0.463283255783101
40
0.463283255783101
40
0.502934316045164
40
0.502934316045164
40
0.582236436569289
40
0.582236436569289
40
0.899444918665793
40
0.899444918665793
40
1
40
1
40
1
40
1
41
1
10
135.248335214414
20
-6.37854998931672
30
0
41
1
10
133.605944696008
20
-5.89106343898752
30
0
41
1
10
131.974237291465
20
-5.30087093824619
30
0
41
1
10
129.357156769574
20
-4.23162851537438
30
0
41
1
10
128.375437088745
20
-3.80309252691097
30
0
41
1
10
127.141342573333
20
-3.23926600505681
30
0
41
1
10
126.894173698036
20
-3.12509546836284
30
0
41
1
10
126.399050293014
20
-2.89409884570014
30
0
41
1
10
126.150807876863
20
-2.77712954071234
30
0
41
1
10
125.407259327133
20
-2.42377848747478
30
0
41
1
10
124.913222571613
20
-2.1850269306394
30
0
41
1
10
122.449088226061
20
-0.97994645339449
30
0
41
1
10
120.497355483193
20
0.020789246067352
30
0
41
1
10
117.915637903582
20
1.31180479635182
30
0
41
1
10
117.293439088446
20
1.62065259924103
30
0
41
1
10
116.66949057901
20
1.92564270418686
30
0
0
SPLINE
5
E2
100
AcDbEntity
8
1
62
256
6
ByLayer
370
18
48
1
60
0
100
AcDbSpline
70
4
71
3
72
14
73
10
40
0
40
0
40
0
40
0
40
0.520009542903435
40
0.520009542903435
40
0.66607985152481
40
0.66607985152481
40
0.812150160146183
40
0.812150160146183
40
1
40
1
40
1
40
1
41
1
10
46.9595767760565
20
-7.82148987577406
30
0
41
1
10
45.2151050793173
20
-7.81650246706226
30
0
41
1
10
43.4686188157254
20
-7.6645286859528
30
0
41
1
10
41.2041674876231
20
-7.28284195507814
30
0
41
1
10
40.7081495792224
20
-7.18802506127716
30
0
41
1
10
39.7198645590776
20
-6.97788823118091
30
0
41
1
10
39.2270974031169
20
-6.862450610802
30
0
41
1
10
38.1026060665589
20
-6.57605852255068
30
0
41
1
10
37.4714624866985
20
-6.39873856138217
30
0
41
1
10
36.8408612101018
20
-6.20640564286938
30
0
0
SPLINE
5
E3
100
AcDbEntity
8
1
62
256
6
ByLayer
370
13
48
1
60
0
100
AcDbSpline
70
4
71
3
72
20
73
16
40
0
40
0
40
0
40
0
40
0.0576160368818973
40
0.0576160368818973
40
0.380405548432031
40
0.380405548432031
40
0.461102926319563
40
0.461102926319563
40
0.541800304207097
40
0.541800304207097
40
0.703195059982164
40
0.703195059982164
40
0.864589815757232
40
0.864589815757232
40
1
40
1
40
1
40
1
41
1
10
36.8408612120661
20
-6.20640564346851
30
0
41
1
10
36.4907629765126
20
-6.09962594304901
30
0
41
1
10
36.1408318932648
20
-5.98821884943575
30
0
41
1
10
33.8305170831862
20
-5.22345946016591
30
0
41
1
10
31.8707543790192
20
-4.43516749078762
30
0
41
1
10
29.3868235371963
20
-3.32619079152286
30
0
41
1
10
28.8910348729324
20
-3.09951824934683
30
0
41
1
10
27.9027730718407
20
-2.63917541975633
30
0
41
1
10
27.4099445260509
20
-2.40534495739769
30
0
41
1
10
25.9340923796298
20
-1.69545792793238
30
0
41
1
10
24.9538421935204
20
-1.21075472571917
30
0
41
1
10
22.9933277142904
20
-0.23330147043643
30
0
41
1
10
22.0130180828114
20
0.25935328090759
30
0
41
1
10
20.2039760795912
20
1.16001696084473
30
0
41
1
10
19.3764215282973
20
1.56922082556551
30
0
41
1
10
18.5443547857944
20
1.97203022472757
30
0
0
SPLINE
5
E4
100
AcDbEntity
8
1
62
256
6
ByLayer
370
18
48
1
60
0
100
AcDbSpline
70
4
71
3
72
10
73
6
40
0
40
0
40
0
40
0
40
0.5
40
0.5
40
1
40
1
40
1
40
1
41
1
10
197.952641545168
20
0.24565242393848
30
0
41
1
10
197.955983250665
20
0.218747529589166
30
0
41
1
10
197.962192124438
20
0.187589212218938
30
0
41
1
10
197.978496129658
20
0.119811265659308
30
0
41
1
10
197.988369566724
20
0.0842488943908393
30
0
41
1
10
197.999966884476
20
0.0472167885583019
30
0
0
SPLINE
5
E5
100
AcDbEntity
8
1
62
256
6
ByLayer
370
18
48
1
60
0
100
AcDbSpline
70
4
71
3
72
10
73
6
40
0
40
0
40
0
40
0
40
0.5
40
0.5
40
1
40
1
40
1
40
1
41
1
10
195.308075518707
20
8.14198505077491
30
0
41
1
10
195.709730485487
20
7.12783532405905
30
0
41
1
10
196.110840882857
20
6.11253476722987
30
0
41
1
10
196.908286694007
20
4.07795853356572
30
0
41
1
10
197.304832726879
20
3.05884167377928
30
0
41
1
10
197.696866905721
20
2.03828035301771
30
0
0
SPLINE
5
E6
100
AcDbEntity
8
1
62
256
6
ByLayer
370
18
48
1
60
0
100
AcDbSpline
70
4
71
3
72
12
73
8
40
0
40
0
40
0
40
0
40
0.250000000000013
40
0.250000000000013
40
0.500000000000026
40
0.500000000000026
40
1
40
1
40
1
40
1
41
1
10
6.1329695467017
20
7.10806443506522
30
0
41
1
10
6.11283906384347
20
7.11347965280379
30
0
41
1
10
6.09459957358084
20
7.12012936857712
30
0
41
1
10
6.06180076134552
20
7.13577094080566
30
0
41
1
10
6.04745995481005
20
7.14472842304099
30
0
41
1
10
6.01267110927643
20
7.17353550938455
30
0
41
1
10
6.00000005743115
20
7.19572855117147
30
0
41
1
10
6.00000005743115
20
7.21785297808168
30
0
0
SPLINE
5
E7
100
AcDbEntity
8
1
62
256
6
ByLayer
370
18
48
1
60
0
100
AcDbSpline
70
4
71
3
72
14
73
10
40
0
40
0
40
0
40
0
40
0.25
40
0.25
40
0.5
40
0.5
40
0.75
40
0.75
40
1
40
1
40
1
40
1
41
1
10
194.921695241394
20
1.9250868458646
30
0
41
1
10
194.916936248141
20
1.94498331492517
30
0
41
1
10
194.915815641941
20
1.96592071589288
30
0
41
1
10
194.925179485636
20
2.00540623188181
30
0
41
1
10
194.936215292724
20
2.02393433970354
30
0
41
1
10
194.967141599048
20
2.05130986680501
30
0
41
1
10
194.986236346243
20
2.06024949023569
30
0
41
1
10
195.025629647455
20
2.07091809323916
30
0
41
1
10
195.046261347835
20
2.07284032863444
30
0
41
1
10
195.066754372301
20
2.07248812979756
30
0
0
SPLINE
5
E8
100
AcDbEntity
8
1
62
256
6
ByLayer
370
18
48
1
60
0
100
AcDbSpline
70
4
71
3
72
72
73
68
40
0
40
0
40
0
40
0
40
0.0426402862363753
40
0.0426402862363753
40
0.0639604293545632
40
0.0639604293545632
40
0.0852805724727511
40
0.0852805724727511
40
0.127920858709126
40
0.127920858709126
40
0.170561144945502
40
0.170561144945502
40
0.19188128806369
40
0.19188128806369
40
0.213201431181878
40
0.213201431181878
40
0.234521574300066
40
0.234521574300066
40
0.255841717418254
40
0.255841717418254
40
0.29848200365463
40
0.29848200365463
40
0.319802146772818
40
0.319802146772818
40
0.341122289891007
40
0.341122289891007
40
0.383762576127383
40
0.383762576127383
40
0.405082719245571
40
0.405082719245571
40
0.42640286236376
40
0.42640286236376
40
0.469043148600137
40
0.469043148600137
40
0.490363291718325
40
0.490363291718325
40
0.511683434836513
40
0.511683434836513
40
0.554323721072891
40
0.554323721072891
40
0.596964007309268
40
0.596964007309268
40
0.639604293545645
40
0.639604293545645
40
0.682244579782022
40
0.682244579782022
40
0.724884866018399
40
0.724884866018399
40
0.767525152254776
40
0.767525152254776
40
0.788845295372965
40
0.788845295372965
40
0.810165438491154
40
0.810165438491154
40
0.831485581609343
40
0.831485581609343
40
0.852805724727532
40
0.852805724727532
40
0.895446010963909
40
0.895446010963909
40
0.916766154082097
40
0.916766154082097
40
0.938086297200285
40
0.938086297200285
40
0.980726583436661
40
0.980726583436661
40
1
40
1
40
1
40
1
41
1
10
10.7495861291808
20
4.66100220171092
30
0
41
1
10
11.2336265527117
20
4.44762882607253
30
0
41
1
10
11.7166521234087
20
4.22944323692013
30
0
41
1
10
12.4401398948119
20
3.89598445337677
30
0
41
1
10
12.6810652113838
20
3.78369386133426
30
0
41
1
10
13.1620423990258
20
3.55613948104266
30
0
41
1
10
13.4016715937013
20
3.44011827992281
30
0
41
1
10
14.1209524334143
20
3.09060556816178
30
0
41
1
10
14.6006864830275
20
2.85515955455784
30
0
41
1
10
15.5580573739471
20
2.37490458856797
30
0
41
1
10
16.0356190319258
20
2.1299156948748
30
0
41
1
10
16.7527958152504
20
1.7598090915466
30
0
41
1
10
16.9920111181075
20
1.63604076364885
30
0
41
1
10
17.4706441995913
20
1.38750705271772
30
0
41
1
10
17.7102091045632
20
1.26302569632296
30
0
41
1
10
18.188445615967
20
1.01095107334231
30
0
41
1
10
18.4275909215675
20
0.884259476070127
30
0
41
1
10
18.9068484878333
20
0.631339601990646
30
0
41
1
10
19.1468463556323
20
0.504893121846635
30
0
41
1
10
19.8676513247632
20
0.125028490389383
30
0
41
1
10
20.3483505097481
20
-0.13073778266164
30
0
41
1
10
21.0716387359517
20
-0.514333910834125
30
0
41
1
10
21.3130724111867
20
-0.642259919966421
30
0
41
1
10
21.797030303278
20
-0.897397764167721
30
0
41
1
10
22.0397472169447
20
-1.02475153507584
30
0
41
1
10
22.7669200748865
20
-1.40547383299352
30
0
41
1
10
23.2497055444125
20
-1.65950432351642
30
0
41
1
10
23.9751282128664
20
-2.03295205543591
30
0
41
1
10
24.2170516885737
20
-2.15635081287499
30
0
41
1
10
24.7005588017516
20
-2.40203669355571
30
0
41
1
10
24.9420395714695
20
-2.52450693493861
30
0
41
1
10
25.6663643370408
20
-2.88949302684145
30
0
41
1
10
26.1494724289935
20
-3.12889744515206
30
0
41
1
10
26.8757213295162
20
-3.47995336084946
30
0
41
1
10
27.1180123884616
20
-3.59573212488439
30
0
41
1
10
27.6027177018915
20
-3.82530334160524
30
0
41
1
10
27.8445251701779
20
-3.93981967663922
30
0
41
1
10
28.5695285812221
20
-4.27573394808945
30
0
41
1
10
29.0523151400267
20
-4.49138947530719
30
0
41
1
10
30.013975476238
20
-4.91128128447647
30
0
41
1
10
30.4931333937518
20
-5.11491649767402
30
0
41
1
10
31.4511952470211
20
-5.50493479730147
30
0
41
1
10
31.9305696284338
20
-5.6907852761212
30
0
41
1
10
32.8854919352135
20
-6.05042681283041
30
0
41
1
10
33.3636952424034
20
-6.22052900847018
30
0
41
1
10
34.3207654239091
20
-6.54278971432493
30
0
41
1
10
34.7986378239025
20
-6.69608237425155
30
0
41
1
10
35.7561848397167
20
-6.98302139445221
30
0
41
1
10
36.2360436296092
20
-7.11653690914659
30
0
41
1
10
36.9574072869714
20
-7.30191116934611
30
0
41
1
10
37.1977195463785
20
-7.36159005465746
30
0
41
1
10
37.6792144560276
20
-7.47555664870657
30
0
41
1
10
37.9204838549292
20
-7.52978077570813
30
0
41
1
10
38.4040684607616
20
-7.63273935502764
30
0
41
1
10
38.6465722053529
20
-7.6814897449656
30
0
41
1
10
39.1313422588552
20
-7.77373555975089
30
0
41
1
10
39.3732446131319
20
-7.81721227326807
30
0
41
1
10
40.0984716076018
20
-7.93901115474762
30
0
41
1
10
40.5815018951098
20
-8.00860705777234
30
0
41
1
10
41.3064365816151
20
-8.09535887680366
30
0
41
1
10
41.5481533280587
20
-8.12134910845427
30
0
41
1
10
42.0309752999632
20
-8.16771133423239
30
0
41
1
10
42.2719553426471
20
-8.18808708982311
30
0
41
1
10
42.9965023219767
20
-8.2399343016032
30
0
41
1
10
43.4808467192035
20
-8.26255841604757
30
0
41
1
10
44.1837128124999
20
-8.27833608000822
30
0
41
1
10
44.4026828747285
20
-8.28080537781872
30
0
41
1
10
44.6213617238019
20
-8.280815500881
30
0
0
SPLINE
5
E9
100
AcDbEntity
8
1
62
256
6
ByLayer
370
18
48
1
60
0
100
AcDbSpline
70
4
71
3
72
132
73
128
40
0
40
0
40
0
40
0
40
0.0077748546850991
40
0.0077748546850991
40
0.0301152258615926
40
0.0301152258615926
40
0.0412854114498393
40
0.0412854114498393
40
0.052455597038086
40
0.052455597038086
40
0.0636257826263328
40
0.0636257826263328
40
0.0747959682145797
40
0.0747959682145797
40
0.0971363393910741
40
0.0971363393910741
40
0.108306524979321
40
0.108306524979321
40
0.119476710567569
40
0.119476710567569
40
0.141817081744062
40
0.141817081744062
40
0.164157452920556
40
0.164157452920556
40
0.175327638508802
40
0.175327638508802
40
0.186497824097049
40
0.186497824097049
40
0.208838195273542
40
0.208838195273542
40
0.231178566450036
40
0.231178566450036
40
0.242348752038282
40
0.242348752038282
40
0.253518937626529
40
0.253518937626529
40
0.264689123214776
40
0.264689123214776
40
0.275859308803023
40
0.275859308803023
40
0.298199679979516
40
0.298199679979516
40
0.320540051156009
40
0.320540051156009
40
0.342880422332503
40
0.342880422332503
40
0.365220793508996
40
0.365220793508996
40
0.387561164685489
40
0.387561164685489
40
0.398731350273737
40
0.398731350273737
40
0.409901535861984
40
0.409901535861984
40
0.432241907038479
40
0.432241907038479
40
0.454582278214974
40
0.454582278214974
40
0.465752463803222
40
0.465752463803222
40
0.47692264939147
40
0.47692264939147
40
0.499263020567966
40
0.499263020567966
40
0.510433206156213
40
0.510433206156213
40
0.52160339174446
40
0.52160339174446
40
0.543943762920954
40
0.543943762920954
40
0.5551139485092
40
0.5551139485092
40
0.566284134097447
40
0.566284134097447
40
0.577454319685694
40
0.577454319685694
40
0.58862450527394
40
0.58862450527394
40
0.610964876450433
40
0.610964876450433
40
0.622135062038679
40
0.622135062038679
40
0.633305247626926
40
0.633305247626926
40
0.655645618803418
40
0.655645618803418
40
0.677985989979911
40
0.677985989979911
40
0.689156175568157
40
0.689156175568157
40
0.700326361156402
40
0.700326361156402
40
0.722666732332894
40
0.722666732332894
40
0.745007103509385
40
0.745007103509385
40
0.767347474685876
40
0.767347474685876
40
0.778517660274122
40
0.778517660274122
40
0.789687845862367
40
0.789687845862367
40
0.800858031450613
40
0.800858031450613
40
0.812028217038859
40
0.812028217038859
40
0.83436858821535
40
0.83436858821535
40
0.845538773803595
40
0.845538773803595
40
0.856708959391841
40
0.856708959391841
40
0.879049330568332
40
0.879049330568332
40
0.901389701744822
40
0.901389701744822
40
0.923730072921312
40
0.923730072921312
40
0.946070444097802
40
0.946070444097802
40
0.957240629686048
40
0.957240629686048
40
0.968410815274293
40
0.968410815274293
40
0.990751186450785
40
0.990751186450785
40
1
40
1
40
1
40
1
41
1
10
78.1029287687517
20
4.52649260873923
30
0
41
1
10
78.2712114943471
20
4.60184504335302
30
0
41
1
10
78.4394028463381
20
4.67636043128564
30
0
41
1
10
79.0901875551429
20
4.96098426960822
30
0
41
1
10
79.572243298467
20
5.16332089239043
30
0
41
1
10
80.2923641472854
20
5.4568276240046
30
0
41
1
10
80.53171736404
20
5.55324497213687
30
0
41
1
10
81.0108619867912
20
5.74062016618493
30
0
41
1
10
81.2504059697706
20
5.83195550987469
30
0
41
1
10
81.7293216214353
20
6.0101626497509
30
0
41
1
10
81.9686201074794
20
6.09713735477882
30
0
41
1
10
82.446470289607
20
6.26735394637834
30
0
41
1
10
82.6851043071703
20
6.35047636506786
30
0
41
1
10
83.4012145775687
20
6.59252791058162
30
0
41
1
10
83.8786760310864
20
6.74444290594641
30
0
41
1
10
84.5955331285883
20
6.95761888309374
30
0
41
1
10
84.8344638796294
20
7.02637686619792
30
0
41
1
10
85.3118111340571
20
7.15967503519394
30
0
41
1
10
85.5508043398843
20
7.22363114869216
30
0
41
1
10
86.2687468626134
20
7.40750796037344
30
0
41
1
10
86.7486716408006
20
7.51950077871459
30
0
41
1
10
87.7086846512607
20
7.72399746188319
30
0
41
1
10
88.1897616219794
20
7.81561427242056
30
0
41
1
10
88.9144936043554
20
7.93593282474609
30
0
41
1
10
89.1567570909803
20
7.97325489788938
30
0
41
1
10
89.6409049729142
20
8.0422131266852
30
0
41
1
10
89.8822420830101
20
8.0740278907156
30
0
41
1
10
90.6066174865009
20
8.16021839611057
30
0
41
1
10
91.090031136793
20
8.2055313886778
30
0
41
1
10
92.0553278981743
20
8.27305277149287
30
0
41
1
10
92.5370611178092
20
8.29512186481469
30
0
41
1
10
93.2609351052064
20
8.31015088607768
30
0
41
1
10
93.5024554277467
20
8.3121693461172
30
0
41
1
10
93.9858467569303
20
8.31025979226249
30
0
41
1
10
94.2278701679591
20
8.30635441760356
30
0
41
1
10
94.7111180987468
20
8.29242085664259
30
0
41
1
10
94.9530001436738
20
8.28240246348315
30
0
41
1
10
95.4361492588676
20
8.2565573552387
30
0
41
1
10
95.6775119520167
20
8.24072422898752
30
0
41
1
10
96.4006628600509
20
8.18458614976771
30
0
41
1
10
96.8806079697501
20
8.13530173448882
30
0
41
1
10
97.8389051123184
20
8.01404768864077
30
0
41
1
10
98.3174565128443
20
7.94223672115416
30
0
41
1
10
99.2737782645225
20
7.7768796114938
30
0
41
1
10
99.7502603206147
20
7.68238586912537
30
0
41
1
10
100.705345105704
20
7.47369340816147
30
0
41
1
10
101.183261545795
20
7.35914779561895
30
0
41
1
10
102.137992972256
20
7.10776088035291
30
0
41
1
10
102.615794807043
20
6.97176049217967
30
0
41
1
10
103.334451327493
20
6.75370924030395
30
0
41
1
10
103.574277975667
20
6.67863796659802
30
0
41
1
10
104.054225245441
20
6.52338265577336
30
0
41
1
10
104.293892947941
20
6.44262529550247
30
0
41
1
10
105.014974626488
20
6.19453839223021
30
0
41
1
10
105.498004484642
20
6.02101034669073
30
0
41
1
10
106.46608013035
20
5.65385572236011
30
0
41
1
10
106.948709276322
20
5.46113564596953
30
0
41
1
10
107.672704189492
20
5.16215669325101
30
0
41
1
10
107.914086898063
20
5.06088284554681
30
0
41
1
10
108.396773893031
20
4.85486941438424
30
0
41
1
10
108.638223005823
20
4.7503599826691
30
0
41
1
10
109.360640419334
20
4.42875830688442
30
0
41
1
10
109.843152052729
20
4.20899161402434
30
0
41
1
10
110.568012409881
20
3.87109400307352
30
0
41
1
10
110.809642450832
20
3.75679746280028
30
0
41
1
10
111.292803502564
20
3.52461203884462
30
0
41
1
10
111.53471548065
20
3.40689936039735
30
0
41
1
10
112.259674211243
20
3.05110612207949
30
0
41
1
10
112.741710752408
20
2.81075836146397
30
0
41
1
10
113.462909871431
20
2.44562994501578
30
0
41
1
10
113.702602207391
20
2.32240262132777
30
0
41
1
10
114.181650255094
20
2.07494012557791
30
0
41
1
10
114.421117016127
20
1.9509154704258
30
0
41
1
10
114.89994690103
20
1.70230753300009
30
0
41
1
10
115.139342781087
20
1.57778676791773
30
0
41
1
10
115.617502558607
20
1.32718781853512
30
0
41
1
10
115.85618790968
20
1.20095953749643
30
0
41
1
10
116.57190721401
20
0.821092020690998
30
0
41
1
10
117.048851157165
20
0.566740169948105
30
0
41
1
10
117.765075836175
20
0.185689587818189
30
0
41
1
10
118.003905356429
20
0.0586633240546632
30
0
41
1
10
118.481394201076
20
-0.196073488408274
30
0
41
1
10
118.719635022418
20
-0.324589494148398
30
0
41
1
10
119.436175419052
20
-0.707187496734974
30
0
41
1
10
119.915434685968
20
-0.959956686006137
30
0
41
1
10
120.874200346157
20
-1.46647825093387
30
0
41
1
10
121.354019589655
20
-1.71963624039063
30
0
41
1
10
122.076727397547
20
-2.09472442129513
30
0
41
1
10
122.318144403602
20
-2.21894273235628
30
0
41
1
10
122.801790917618
20
-2.46618019322634
30
0
41
1
10
123.044016943514
20
-2.58909409212734
30
0
41
1
10
123.7679363419
20
-2.95710571849182
30
0
41
1
10
124.250841984497
20
-3.19633415395271
30
0
41
1
10
125.216271473653
20
-3.66459641894019
30
0
41
1
10
125.6978074259
20
-3.89526799929345
30
0
41
1
10
126.661867265973
20
-4.34393835951792
30
0
41
1
10
127.144600806586
20
-4.56164325673032
30
0
41
1
10
127.869497053098
20
-4.87869516934259
30
0
41
1
10
128.110809657679
20
-4.98351390368347
30
0
41
1
10
128.594256980606
20
-5.18895380257302
30
0
41
1
10
128.835727493746
20
-5.28934734810076
30
0
41
1
10
129.318182401812
20
-5.48558515237985
30
0
41
1
10
129.55917648059
20
-5.58142269810222
30
0
41
1
10
130.040098954696
20
-5.76945632277994
30
0
41
1
10
130.279974108746
20
-5.86171212963663
30
0
41
1
10
130.9988890454
20
-6.13169104537079
30
0
41
1
10
131.477286365354
20
-6.30255327692373
30
0
41
1
10
132.194542065881
20
-6.54424860882594
30
0
41
1
10
132.433604738031
20
-6.62235473655952
30
0
41
1
10
132.91075894673
20
-6.77469798450949
30
0
41
1
10
133.148890738862
20
-6.84885712171106
30
0
41
1
10
133.864406989994
20
-7.06262157054348
30
0
41
1
10
134.342225931579
20
-7.19441945224025
30
0
41
1
10
135.296400291112
20
-7.43962461412508
30
0
41
1
10
135.773341968526
20
-7.55234771748653
30
0
41
1
10
136.729732689697
20
-7.75561236153317
30
0
41
1
10
137.209343082383
20
-7.84618491136789
30
0
41
1
10
138.168186506385
20
-8.00688290843979
30
0
41
1
10
138.649764070665
20
-8.07552093555955
30
0
41
1
10
139.3744816821
20
-8.161454746147
30
0
41
1
10
139.61647094902
20
-8.18734124699958
30
0
41
1
10
140.099518086905
20
-8.23320037797328
30
0
41
1
10
140.340854870814
20
-8.25313859792254
30
0
41
1
10
141.064586832857
20
-8.30395763534099
30
0
41
1
10
141.54708765975
20
-8.32579832910042
30
0
41
1
10
142.228901379235
20
-8.33992567562137
30
0
41
1
10
142.428126897524
20
-8.3420300279266
30
0
41
1
10
142.627484864648
20
-8.34207039107628
30
0
0
SPLINE
5
EA
100
AcDbEntity
8
1
62
256
6
ByLayer
370
18
48
1
60
0
100
AcDbSpline
70
4
71
3
72
44
73
40
40
0
40
0
40
0
40
0
40
0.02621723321506
40
0.02621723321506
40
0.101123599890821
40
0.101123599890821
40
0.176029966566583
40
0.176029966566583
40
0.213483149904463
40
0.213483149904463
40
0.250936333242344
40
0.250936333242344
40
0.325842699918105
40
0.325842699918105
40
0.400749066593867
40
0.400749066593867
40
0.475655433269628
40
0.475655433269628
40
0.513108616607511
40
0.513108616607511
40
0.550561799945393
40
0.550561799945393
40
0.588014983283276
40
0.588014983283276
40
0.625468166621158
40
0.625468166621158
40
0.700374533296926
40
0.700374533296926
40
0.737827716634812
40
0.737827716634812
40
0.775280899972699
40
0.775280899972699
40
0.850187266648466
40
0.850187266648466
40
0.925093633324234
40
0.925093633324234
40
0.962546816662117
40
0.962546816662117
40
1
40
1
40
1
40
1
41
1
10
176.097767259373
20
4.55303313471001
30
0
41
1
10
176.266212413749
20
4.62915175547576
30
0
41
1
10
176.434768846978
20
4.70431896468733
30
0
41
1
10
177.085347499495
20
4.99060752067345
30
0
41
1
10
177.568263421382
20
5.19487857670657
30
0
41
1
10
178.533339333344
20
5.59179120462451
30
0
41
1
10
179.016585498386
20
5.78289211938818
30
0
41
1
10
179.738752304432
20
6.0543008978967
30
0
41
1
10
179.979209770859
20
6.1423854640033
30
0
41
1
10
180.459343566292
20
6.31417239434171
30
0
41
1
10
180.698641706719
20
6.39834793412416
30
0
41
1
10
181.416328506682
20
6.64300549657605
30
0
41
1
10
181.894841046532
20
6.79536317607585
30
0
41
1
10
182.849821927724
20
7.08153121967081
30
0
41
1
10
183.325947304326
20
7.21556027365355
30
0
41
1
10
184.278946070332
20
7.46198025477898
30
0
41
1
10
184.756107972668
20
7.57425064321475
30
0
41
1
10
185.471291734974
20
7.72754295657219
30
0
41
1
10
185.709265359536
20
7.77632640135243
30
0
41
1
10
186.186424046092
20
7.8677609659554
30
0
41
1
10
186.425330868975
20
7.9106296880166
30
0
41
1
10
186.903709892677
20
7.99077075502126
30
0
41
1
10
187.143115355917
20
8.02808835339454
30
0
41
1
10
187.621904267435
20
8.09738543538018
30
0
41
1
10
187.861342911482
20
8.12931939261196
30
0
41
1
10
188.580955277187
20
8.21632887000931
30
0
41
1
10
189.062183166684
20
8.2627550258251
30
0
41
1
10
189.786900123119
20
8.31467467506141
30
0
41
1
10
190.028659962814
20
8.32904663697971
30
0
41
1
10
190.51029221811
20
8.35184856512365
30
0
41
1
10
190.751014651439
20
8.36018444737513
30
0
41
1
10
191.472923407604
20
8.37620588473416
30
0
41
1
10
191.953879102504
20
8.3749963464478
30
0
41
1
10
192.912638646889
20
8.34877293758882
30
0
41
1
10
193.391445877623
20
8.32372582662842
30
0
41
1
10
194.110350584589
20
8.26878807457371
30
0
41
1
10
194.350061164974
20
8.24758396460712
30
0
41
1
10
194.829369320835
20
8.19930658846434
30
0
41
1
10
195.068557578654
20
8.1720603771798
30
0
41
1
10
195.308075518707
20
8.14198505077485
30
0
0
SPLINE
5
EB
100
AcDbEntity
8
1
62
256
6
ByLayer
370
18
48
1
60
0
100
AcDbSpline
70
4
71
3
72
8
73
4
40
0
40
0
40
0
40
0
40
1
40
1
40
1
40
1
41
1
10
195.032927279539
20
8.34899857058065
30
0
41
1
10
194.623817611165
20
8.36600429454012
30
0
41
1
10
194.214259505221
20
8.37435537426998
30
0
41
1
10
193.805119390761
20
8.37405889979874
30
0
0
SPLINE
5
EC
100
AcDbEntity
8
1
62
256
6
ByLayer
370
18
48
1
60
0
100
AcDbSpline
70
4
71
3
72
66
73
62
40
0
40
0
40
0
40
0
40
0.0391066221906664
40
0.0391066221906664
40
0.0663397444482707
40
0.0663397444482707
40
0.0935728667058751
40
0.0935728667058751
40
0.120805988963479
40
0.120805988963479
40
0.148039111221084
40
0.148039111221084
40
0.202505355736292
40
0.202505355736292
40
0.229738477993897
40
0.229738477993897
40
0.256971600251501
40
0.256971600251501
40
0.311437844766709
40
0.311437844766709
40
0.338670967024312
40
0.338670967024312
40
0.365904089281916
40
0.365904089281916
40
0.420370333797125
40
0.420370333797125
40
0.447603456054729
40
0.447603456054729
40
0.474836578312334
40
0.474836578312334
40
0.502069700569938
40
0.502069700569938
40
0.529302822827542
40
0.529302822827542
40
0.583769067342751
40
0.583769067342751
40
0.611002189600355
40
0.611002189600355
40
0.63823531185796
40
0.63823531185796
40
0.692701556373169
40
0.692701556373169
40
0.719934678630772
40
0.719934678630772
40
0.747167800888376
40
0.747167800888376
40
0.801634045403582
40
0.801634045403582
40
0.828867167661186
40
0.828867167661186
40
0.856100289918789
40
0.856100289918789
40
0.883333412176392
40
0.883333412176392
40
0.910566534433995
40
0.910566534433995
40
0.9650327789492
40
0.9650327789492
40
0.992265901206803
40
0.992265901206803
40
1
40
1
40
1
40
1
41
1
10
149.979065036577
20
-7.89205387235856
30
0
41
1
10
149.273940463856
20
-8.01447114224959
30
0
41
1
10
148.568681918778
20
-8.11268308941854
30
0
41
1
10
147.369699361818
20
-8.23678302635565
30
0
41
1
10
146.877182303155
20
-8.27548950310131
30
0
41
1
10
145.894139856883
20
-8.32800430295063
30
0
41
1
10
145.403084567522
20
-8.34186353682043
30
0
41
1
10
144.420942387737
20
-8.34476761378454
30
0
41
1
10
143.929839345797
20
-8.33381349954308
30
0
41
1
10
142.946648641394
20
-8.28709645133262
30
0
41
1
10
142.454031107305
20
-8.2512681724946
30
0
41
1
10
140.97745740673
20
-8.10707549546655
30
0
41
1
10
139.995945331373
20
-7.96224260864068
30
0
41
1
10
138.522270267281
20
-7.67530360500555
30
0
41
1
10
138.030778690066
20
-7.56806523334396
30
0
41
1
10
137.046299943846
20
-7.33102329888493
30
0
41
1
10
136.553599053765
20
-7.20125022426558
30
0
41
1
10
135.078655996376
20
-6.78114654102708
30
0
41
1
10
134.097298115006
20
-6.45961122696349
30
0
41
1
10
132.622391911664
20
-5.92176937034927
30
0
41
1
10
132.129783925421
20
-5.73301225073482
30
0
41
1
10
131.145114391734
20
-5.33921986589709
30
0
41
1
10
130.653511099869
20
-5.13438699518147
30
0
41
1
10
129.179473084839
20
-4.49830616708354
30
0
41
1
10
128.197865411757
20
-4.04537561289663
30
0
41
1
10
126.721072162471
20
-3.33217524575642
30
0
41
1
10
126.228242535533
20
-3.08877702927217
30
0
41
1
10
125.244703854494
20
-2.59466363862251
30
0
41
1
10
124.753412341424
20
-2.34370774357222
30
0
41
1
10
123.770900593119
20
-1.83561258146065
30
0
41
1
10
123.279689035635
20
-1.57845641863946
30
0
41
1
10
122.296319702168
20
-1.0598179741508
30
0
41
1
10
121.8037038158
20
-0.798107941195468
30
0
41
1
10
120.32626786514
20
-0.0107326374421461
30
0
41
1
10
119.344399921039
20
0.515711414277661
30
0
41
1
10
117.870207673496
20
1.2963699807608
30
0
41
1
10
117.378642277046
20
1.55520772694689
30
0
41
1
10
116.39411120996
20
2.06812631226839
30
0
41
1
10
115.901090303371
20
2.32214339635931
30
0
41
1
10
114.425312041911
20
3.07087623715663
30
0
41
1
10
113.4437450134
20
3.55379598679835
30
0
41
1
10
111.968419364967
20
4.24282134715668
30
0
41
1
10
111.475842408837
20
4.46690284318603
30
0
41
1
10
110.490640175564
20
4.90117055101555
30
0
41
1
10
109.998822249635
20
5.11092275856137
30
0
41
1
10
108.524101795424
20
5.71579039712935
30
0
41
1
10
107.542272986297
20
6.08698683646969
30
0
41
1
10
106.06524877564
20
6.58718163275697
30
0
41
1
10
105.572092845898
20
6.74455913336658
30
0
41
1
10
104.58806572606
20
7.03805194618985
30
0
41
1
10
104.096588442186
20
7.17431725766275
30
0
41
1
10
103.113727032588
20
7.42502351092603
30
0
41
1
10
102.622358242552
20
7.5394793014342
30
0
41
1
10
101.638804671553
20
7.74577193041128
30
0
41
1
10
101.146295174906
20
7.83763347808221
30
0
41
1
10
99.6679414242581
20
8.07770761656957
30
0
41
1
10
98.6856198037035
20
8.18978820186928
30
0
41
1
10
97.2110261442735
20
8.28414176897351
30
0
41
1
10
96.7193534457667
20
8.30331282775757
30
0
41
1
10
96.0871991448836
20
8.31198339745873
30
0
41
1
10
95.9473030574538
20
8.31289666187135
30
0
41
1
10
95.8073782402084
20
8.31280704135946
30
0
0
SPLINE
5
ED
100
AcDbEntity
8
1
62
256
6
ByLayer
370
18
48
1
60
0
100
AcDbSpline
70
4
71
3
72
54
73
50
40
0
40
0
40
0
40
0
40
0.0323822344853046
40
0.0323822344853046
40
0.0646361600024612
40
0.0646361600024612
40
0.0968900855196178
40
0.0968900855196178
40
0.161397936553931
40
0.161397936553931
40
0.193651862071087
40
0.193651862071087
40
0.225905787588244
40
0.225905787588244
40
0.290413638622557
40
0.290413638622557
40
0.322667564139713
40
0.322667564139713
40
0.35492148965687
40
0.35492148965687
40
0.387175415174027
40
0.387175415174027
40
0.419429340691183
40
0.419429340691183
40
0.483937191725496
40
0.483937191725496
40
0.516191117242653
40
0.516191117242653
40
0.548445042759809
40
0.548445042759809
40
0.612952893794123
40
0.612952893794123
40
0.645206819311279
40
0.645206819311279
40
0.677460744828436
40
0.677460744828436
40
0.741968595862748
40
0.741968595862748
40
0.774222521379905
40
0.774222521379905
40
0.806476446897061
40
0.806476446897061
40
0.870984297931374
40
0.870984297931374
40
0.903238223448531
40
0.903238223448531
40
0.935492148965687
40
0.935492148965687
40
1
40
1
40
1
40
1
41
1
10
51.9373495896636
20
-7.8412615221807
30
0
41
1
10
51.4434871580906
20
-7.92570198753913
30
0
41
1
10
50.9497903600773
20
-7.99831893353661
30
0
41
1
10
49.9637625666436
20
-8.11914841671882
30
0
41
1
10
49.4713680396044
20
-8.16742448079265
30
0
41
1
10
48.4848877583243
20
-8.23947159815413
30
0
41
1
10
47.9919972754348
20
-8.26316684406635
30
0
41
1
10
46.5153531052102
20
-8.29704768005777
30
0
41
1
10
45.5324309804634
20
-8.27013528054783
30
0
41
1
10
44.054870067111
20
-8.15594206095969
30
0
41
1
10
43.5612095589333
20
-8.10550367039701
30
0
41
1
10
42.5755317938741
20
-7.98068688257939
30
0
41
1
10
42.0833697540994
20
-7.90631577388942
30
0
41
1
10
40.6074078258637
20
-7.64829666498514
30
0
41
1
10
39.6240960979726
20
-7.42976355922727
30
0
41
1
10
38.1444189350964
20
-7.03621069754254
30
0
41
1
10
37.6512542082754
20
-6.89432751164722
30
0
41
1
10
36.6665451757148
20
-6.59085330399952
30
0
41
1
10
36.1746579727292
20
-6.42913589058284
30
0
41
1
10
35.1906681225001
20
-6.08713806142796
30
0
41
1
10
34.6986202209035
20
-5.90679465559631
30
0
41
1
10
33.7134787706923
20
-5.52857568217433
30
0
41
1
10
33.2198012945505
20
-5.33047849577298
30
0
41
1
10
31.7409585247395
20
-4.71400568790509
30
0
41
1
10
30.7578182818019
20
-4.27343840839296
30
0
41
1
10
29.2812711818006
20
-3.57792357002995
30
0
41
1
10
28.7887701294198
20
-3.34033331197915
30
0
41
1
10
27.8022049351204
20
-2.85518265432154
30
0
41
1
10
27.3088167229253
20
-2.60795293536731
30
0
41
1
10
25.8313511501269
20
-1.85698718078493
30
0
41
1
10
24.8483462472065
20
-1.34288969119225
30
0
41
1
10
23.3704904834375
20
-0.563276622358188
30
0
41
1
10
22.8767559754022
20
-0.301685230970037
30
0
41
1
10
21.8904780684882
20
0.220885815619368
30
0
41
1
10
21.3980214929139
20
0.481808769862994
30
0
41
1
10
19.9213698651168
20
1.26098949328417
30
0
41
1
10
18.9379941315758
20
1.77584169295014
30
0
41
1
10
17.4582043787882
20
2.52936877855177
30
0
41
1
10
16.9646795424752
20
2.77717274678153
30
0
41
1
10
15.9797581129529
20
3.26262085150824
30
0
41
1
10
15.4878398758563
20
3.5005220337948
30
0
41
1
10
14.0122928942816
20
4.19736355797551
30
0
41
1
10
13.0288725180071
20
4.63943475087447
30
0
41
1
10
11.5483580560403
20
5.25913887061697
30
0
41
1
10
11.0552300344773
20
5.4579723379548
30
0
41
1
10
10.0706215689221
20
5.838066250102
30
0
41
1
10
9.57883005537002
20
6.01943876337774
30
0
41
1
10
8.10347854918231
20
6.53564941597094
30
0
41
1
10
7.11990452469232
20
6.842573148181
30
0
41
1
10
6.1329695467017
20
7.10806443506524
30
0
0
SPLINE
5
EE
100
AcDbEntity
8
1
62
256
6
ByLayer
370
18
48
1
60
0
100
AcDbSpline
70
4
71
3
72
72
73
68
40
0
40
0
40
0
40
0
40
0.0312500000000016
40
0.0312500000000016
40
0.0625000000000032
40
0.0625000000000032
40
0.0781250000000041
40
0.0781250000000041
40
0.0937500000000051
40
0.0937500000000051
40
0.125000000000004
40
0.125000000000004
40
0.140625000000004
40
0.140625000000004
40
0.156250000000004
40
0.156250000000004
40
0.187500000000004
40
0.187500000000004
40
0.218750000000003
40
0.218750000000003
40
0.250000000000003
40
0.250000000000003
40
0.281250000000002
40
0.281250000000002
40
0.312500000000002
40
0.312500000000002
40
0.343750000000001
40
0.343750000000001
40
0.375000000000001
40
0.375000000000001
40
0.40625
40
0.40625
40
0.4375
40
0.4375
40
0.468749999999999
40
0.468749999999999
40
0.499999999999999
40
0.499999999999999
40
0.531249999999998
40
0.531249999999998
40
0.562499999999998
40
0.562499999999998
40
0.593749999999997
40
0.593749999999997
40
0.624999999999997
40
0.624999999999997
40
0.656249999999996
40
0.656249999999996
40
0.687499999999996
40
0.687499999999996
40
0.703124999999996
40
0.703124999999996
40
0.718749999999996
40
0.718749999999996
40
0.749999999999996
40
0.749999999999996
40
0.781249999999997
40
0.781249999999997
40
0.812499999999997
40
0.812499999999997
40
0.843749999999998
40
0.843749999999998
40
0.874999999999998
40
0.874999999999998
40
0.937499999999999
40
0.937499999999999
40
1
40
1
40
1
40
1
41
1
10
195.193916506308
20
-3.87330569356146
30
0
41
1
10
195.15139665454
20
-3.94790015380832
30
0
41
1
10
195.110652934012
20
-4.02598614850751
30
0
41
1
10
195.033192181116
20
-4.19007383699892
30
0
41
1
10
194.996244331675
20
-4.27686828781935
30
0
41
1
10
194.947022461588
20
-4.4077086632866
30
0
41
1
10
194.931543628863
20
-4.45163411640999
30
0
41
1
10
194.902556138284
20
-4.54014707139697
30
0
41
1
10
194.88895744518
20
-4.58507383576523
30
0
41
1
10
194.852164340823
20
-4.7180883975
30
0
41
1
10
194.832932552232
20
-4.80411889042281
30
0
41
1
10
194.812093789487
20
-4.92916408919689
30
0
41
1
10
194.806484756703
20
-4.97039119552215
30
0
41
1
10
194.798273775007
20
-5.04919611038895
30
0
41
1
10
194.795615214583
20
-5.08703062919099
30
0
41
1
10
194.791764197618
20
-5.19606457157983
30
0
41
1
10
194.794817545626
20
-5.2633364745225
30
0
41
1
10
194.810738445847
20
-5.38139407512995
30
0
41
1
10
194.823588481939
20
-5.4331384908175
30
0
41
1
10
194.857574083637
20
-5.52195573387769
30
0
41
1
10
194.878391640207
20
-5.5584156448507
30
0
41
1
10
194.926628863337
20
-5.61761478365182
30
0
41
1
10
194.954212119168
20
-5.64029835066984
30
0
41
1
10
195.013849443453
20
-5.67195811754345
30
0
41
1
10
195.046059195504
20
-5.68118299467451
30
0
41
1
10
195.11489361071
20
-5.6874372578414
30
0
41
1
10
195.15153813397
20
-5.68435940104331
30
0
41
1
10
195.227183603627
20
-5.6668125840599
30
0
41
1
10
195.26640878047
20
-5.65237955106576
30
0
41
1
10
195.347581367054
20
-5.61252777882081
30
0
41
1
10
195.389815427057
20
-5.58687644905197
30
0
41
1
10
195.475226884606
20
-5.52554113785163
30
0
41
1
10
195.518469960876
20
-5.48989666948182
30
0
41
1
10
195.606035671416
20
-5.40860906691779
30
0
41
1
10
195.650357648424
20
-5.36297202015436
30
0
41
1
10
195.740174270314
20
-5.26083689444795
30
0
41
1
10
195.785480487716
20
-5.20448384495956
30
0
41
1
10
195.874910769768
20
-5.0828799253247
30
0
41
1
10
195.919626504171
20
-5.0168160031125
30
0
41
1
10
196.006688796444
20
-4.87643522770722
30
0
41
1
10
196.048881786058
20
-4.80246851598787
30
0
41
1
10
196.130266711257
20
-4.64606601423247
30
0
41
1
10
196.169812645078
20
-4.56271835479052
30
0
41
1
10
196.242147743661
20
-4.39287659072292
30
0
41
1
10
196.275255793311
20
-4.30594542533663
30
0
41
1
10
196.33431405631
20
-4.12737994671295
30
0
41
1
10
196.359007221737
20
-4.03947528954228
30
0
41
1
10
196.398290377733
20
-3.86721440509575
30
0
41
1
10
196.412905693916
20
-3.78181275534044
30
0
41
1
10
196.425735382792
20
-3.66379154216628
30
0
41
1
10
196.428579120579
20
-3.62584834801524
30
0
41
1
10
196.431467783507
20
-3.55269120384338
30
0
41
1
10
196.431495926207
20
-3.51727288278988
30
0
41
1
10
196.42748786253
20
-3.41724925467221
30
0
41
1
10
196.419497457141
20
-3.35840744961948
30
0
41
1
10
196.39412805883
20
-3.2545649949225
30
0
41
1
10
196.37692879735
20
-3.21058009231461
30
0
41
1
10
196.335411112688
20
-3.13750889572731
30
0
41
1
10
196.310763149624
20
-3.10803895654476
30
0
41
1
10
196.25638111687
20
-3.06350527540289
30
0
41
1
10
196.226603985045
20
-3.04818089274411
30
0
41
1
10
196.162471617919
20
-3.02982210106472
30
0
41
1
10
196.127909646041
20
-3.02682605176054
30
0
41
1
10
196.019000585462
20
-3.03555340991161
30
0
41
1
10
195.940689497938
20
-3.06416489343567
30
0
41
1
10
195.773347779725
20
-3.16421540688975
30
0
41
1
10
195.686987070047
20
-3.23417243928287
30
0
41
1
10
195.598577377965
20
-3.32406284924016
30
0
0
SPLINE
5
EF
100
AcDbEntity
8
1
62
256
6
ByLayer
370
18
48
1
60
0
100
AcDbSpline
70
4
71
3
72
40
73
36
40
0
40
0
40
0
40
0
40
0.0759647467938234
40
0.0759647467938234
40
0.113947120190735
40
0.113947120190735
40
0.151929493587648
40
0.151929493587648
40
0.227894240381472
40
0.227894240381472
40
0.303858987175297
40
0.303858987175297
40
0.379823733969122
40
0.379823733969122
40
0.455788480762947
40
0.455788480762947
40
0.531753227556773
40
0.531753227556773
40
0.607717974350598
40
0.607717974350598
40
0.645700347747512
40
0.645700347747512
40
0.683682721144425
40
0.683682721144425
40
0.759647467938251
40
0.759647467938251
40
0.835612214732076
40
0.835612214732076
40
0.911576961525901
40
0.911576961525901
40
0.949559334922814
40
0.949559334922814
40
0.987541708319726
40
0.987541708319726
40
1
40
1
40
1
40
1
41
1
10
10.7495861291808
20
-7.61305527485982
30
0
41
1
10
11.2159940268982
20
-7.6637528066436
30
0
41
1
10
11.6810498862011
20
-7.70436161202335
30
0
41
1
10
12.3760852095224
20
-7.74998100739612
30
0
41
1
10
12.6073577955387
20
-7.76251422374497
30
0
41
1
10
13.0693218902845
20
-7.7822537540207
30
0
41
1
10
13.3002525016574
20
-7.78944253128188
30
0
41
1
10
13.992732431267
20
-7.8034836284726
30
0
41
1
10
14.4533988564581
20
-7.80308023523631
30
0
41
1
10
15.3733199847195
20
-7.78181358962888
30
0
41
1
10
15.8331114594661
20
-7.76073241278522
30
0
41
1
10
16.7528079493667
20
-7.69821702059963
30
0
41
1
10
17.2125511172737
20
-7.65696139136841
30
0
41
1
10
18.13155876294
20
-7.55432849225406
30
0
41
1
10
18.5921750483008
20
-7.49340757321238
30
0
41
1
10
19.5135130353614
20
-7.35185395247731
30
0
41
1
10
19.9743512256621
20
-7.27187757614382
30
0
41
1
10
20.8987349814652
20
-7.09340148724235
30
0
41
1
10
21.3622520280296
20
-6.99327386169952
30
0
41
1
10
22.0591799992959
20
-6.8285209263675
30
0
41
1
10
22.2917451784514
20
-6.77109487505575
30
0
41
1
10
22.757501530416
20
-6.65127439402067
30
0
41
1
10
22.9906304341429
20
-6.58949150359126
30
0
41
1
10
23.6892146389862
20
-6.39752608164747
30
0
41
1
10
24.1540521987181
20
-6.26068084488699
30
0
41
1
10
25.0830687781235
20
-5.97123103773654
30
0
41
1
10
25.5477227553255
20
-5.81933181055805
30
0
41
1
10
26.4773450817587
20
-5.50158503281452
30
0
41
1
10
26.9420082382527
20
-5.333898630372
30
0
41
1
10
27.6394682395776
20
-5.07054980603644
30
0
41
1
10
27.8725585970776
20
-4.98169792295965
30
0
41
1
10
28.3386689879509
20
-4.79995610346236
30
0
41
1
10
28.5718827487357
20
-4.70730320789212
30
0
41
1
10
28.881085130171
20
-4.58218527838181
30
0
41
1
10
28.9574256880924
20
-4.55110608578605
30
0
41
1
10
29.0337456137915
20
-4.51986506695067
30
0
0
SPLINE
5
F0
100
AcDbEntity
8
1
62
256
6
ByLayer
370
18
48
1
60
0
100
AcDbSpline
70
4
71
3
72
130
73
126
40
0
40
0
40
0
40
0
40
0.0077902787040705
40
0.0077902787040705
40
0.0295492411735307
40
0.0295492411735307
40
0.0404287224082606
40
0.0404287224082606
40
0.0513082036429905
40
0.0513082036429905
40
0.0730671661124507
40
0.0730671661124507
40
0.0948261285819109
40
0.0948261285819109
40
0.105705609816641
40
0.105705609816641
40
0.116585091051371
40
0.116585091051371
40
0.138344053520832
40
0.138344053520832
40
0.149223534755562
40
0.149223534755562
40
0.160103015990292
40
0.160103015990292
40
0.181861978459752
40
0.181861978459752
40
0.192741459694482
40
0.192741459694482
40
0.203620940929211
40
0.203620940929211
40
0.225379903398672
40
0.225379903398672
40
0.247138865868132
40
0.247138865868132
40
0.258018347102862
40
0.258018347102862
40
0.268897828337591
40
0.268897828337591
40
0.29065679080705
40
0.29065679080705
40
0.312415753276509
40
0.312415753276509
40
0.334174715745969
40
0.334174715745969
40
0.345054196980698
40
0.345054196980698
40
0.355933678215428
40
0.355933678215428
40
0.377692640684888
40
0.377692640684888
40
0.399451603154348
40
0.399451603154348
40
0.410331084389079
40
0.410331084389079
40
0.421210565623809
40
0.421210565623809
40
0.44296952809327
40
0.44296952809327
40
0.46472849056273
40
0.46472849056273
40
0.48648745303219
40
0.48648745303219
40
0.508246415501651
40
0.508246415501651
40
0.530005377971111
40
0.530005377971111
40
0.551764340440571
40
0.551764340440571
40
0.562643821675301
40
0.562643821675301
40
0.573523302910031
40
0.573523302910031
40
0.59528226537949
40
0.59528226537949
40
0.61704122784895
40
0.61704122784895
40
0.627920709083679
40
0.627920709083679
40
0.638800190318409
40
0.638800190318409
40
0.649679671553138
40
0.649679671553138
40
0.660559152787868
40
0.660559152787868
40
0.671438634022598
40
0.671438634022598
40
0.682318115257327
40
0.682318115257327
40
0.704077077726785
40
0.704077077726785
40
0.714956558961514
40
0.714956558961514
40
0.725836040196242
40
0.725836040196242
40
0.747595002665699
40
0.747595002665699
40
0.769353965135155
40
0.769353965135155
40
0.780233446369883
40
0.780233446369883
40
0.791112927604611
40
0.791112927604611
40
0.812871890074067
40
0.812871890074067
40
0.834630852543523
40
0.834630852543523
40
0.856389815012979
40
0.856389815012979
40
0.867269296247707
40
0.867269296247707
40
0.878148777482435
40
0.878148777482435
40
0.899907739951892
40
0.899907739951892
40
0.910787221186621
40
0.910787221186621
40
0.92166670242135
40
0.92166670242135
40
0.943425664890808
40
0.943425664890808
40
0.965184627360267
40
0.965184627360267
40
0.986943589829725
40
0.986943589829725
40
1
40
1
40
1
40
1
41
1
10
63.0910168626485
20
7.83070912013972
30
0
41
1
10
63.2575948647879
20
7.83125279723842
30
0
41
1
10
63.424395587387
20
7.83049281264977
30
0
41
1
10
64.0565838185087
20
7.8224574790415
30
0
41
1
10
64.5216370470432
20
7.80533640432429
30
0
41
1
10
65.2181257752458
20
7.76417612496181
30
0
41
1
10
65.4500570742444
20
7.7479333933872
30
0
41
1
10
65.9138905539116
20
7.71072467913257
30
0
41
1
10
66.1462165579231
20
7.68986751635782
30
0
41
1
10
66.8425407165989
20
7.61942295854203
30
0
41
1
10
67.3063481418517
20
7.56170996270379
30
0
41
1
10
68.2350258826941
20
7.42556613947761
30
0
41
1
10
68.7000838877724
20
7.34789977761534
30
0
41
1
10
69.3988505227496
20
7.21701092521093
30
0
41
1
10
69.631584578631
20
7.1709133597785
30
0
41
1
10
70.0964576379097
20
7.07358645636486
30
0
41
1
10
70.3284615364088
20
7.02219381268773
30
0
41
1
10
71.0252547790519
20
6.86218955352484
30
0
41
1
10
71.4897515827641
20
6.74740355440017
30
0
41
1
10
72.185545539337
20
6.5610447704077
30
0
41
1
10
72.4173563732406
20
6.49637613938611
30
0
41
1
10
72.8813970466279
20
6.36295239996539
30
0
41
1
10
73.1135825439939
20
6.2941661685951
30
0
41
1
10
73.8101344019992
20
6.081398671112
30
0
41
1
10
74.2751925259386
20
5.93233834779525
30
0
41
1
10
74.9728664624554
20
5.69584040803056
30
0
41
1
10
75.2053735434533
20
5.61437916873032
30
0
41
1
10
75.6706897281751
20
5.44899499404536
30
0
41
1
10
75.9031879800505
20
5.36446047287893
30
0
41
1
10
76.6001589219825
20
5.10561408932568
30
0
41
1
10
77.0637891837033
20
4.92561046493489
30
0
41
1
10
77.9917666962754
20
4.5552230241737
30
0
41
1
10
78.4558090160302
20
4.36350554366626
30
0
41
1
10
79.1523009377958
20
4.06734642606045
30
0
41
1
10
79.3844419156461
20
3.96706457202373
30
0
41
1
10
79.84875119572
20
3.76360671421469
30
0
41
1
10
80.0808816903036
20
3.66037623387484
30
0
41
1
10
80.7787519704673
20
3.34899701174461
30
0
41
1
10
81.2444956838825
20
3.13590708243808
30
0
41
1
10
82.1732303813072
20
2.70137095536674
30
0
41
1
10
82.6372963323494
20
2.48085955084787
30
0
41
1
10
83.5653368437823
20
2.03488319751636
30
0
41
1
10
84.0293804003981
20
1.80930319360101
30
0
41
1
10
84.7249733611379
20
1.4656275950783
30
0
41
1
10
84.9569188539178
20
1.35055215533319
30
0
41
1
10
85.4214576099698
20
1.12040695585816
30
0
41
1
10
85.6538055480756
20
1.00485238024655
30
0
41
1
10
86.3509959920372
20
0.656651335575049
30
0
41
1
10
86.8161693460549
20
0.42182603894102
30
0
41
1
10
87.7455859195712
20
-0.0451003408442148
30
0
41
1
10
88.2098783192943
20
-0.278194420509692
30
0
41
1
10
88.9057362019418
20
-0.627366902645321
30
0
41
1
10
89.1375342622698
20
-0.743803884821631
30
0
41
1
10
89.600921476369
20
-0.976494969434839
30
0
41
1
10
89.8327852844673
20
-1.0921845527748
30
0
41
1
10
90.5287974581726
20
-1.43745056239641
30
0
41
1
10
90.9927845455734
20
-1.66643329011458
30
0
41
1
10
91.9212673761199
20
-2.12118056786179
30
0
41
1
10
92.3867945113178
20
-2.34636329039938
30
0
41
1
10
93.3165732025824
20
-2.78763167882738
30
0
41
1
10
93.7807460951336
20
-3.00443980753914
30
0
41
1
10
94.707613059286
20
-3.43185293537803
30
0
41
1
10
95.1717485058122
20
-3.63985576447828
30
0
41
1
10
96.0988972236457
20
-4.04730850208409
30
0
41
1
10
96.5623637651153
20
-4.24605829774833
30
0
41
1
10
97.4909421147852
20
-4.63164403666821
30
0
41
1
10
97.9563398183613
20
-4.81946348118177
30
0
41
1
10
98.6534385389393
20
-5.09022142099315
30
0
41
1
10
98.8855163456105
20
-5.17878671261178
30
0
41
1
10
99.3493295710391
20
-5.35248554547934
30
0
41
1
10
99.5815878889224
20
-5.43685159212757
30
0
41
1
10
100.277540961947
20
-5.68573456150861
30
0
41
1
10
100.740781519721
20
-5.8459759030529
30
0
41
1
10
101.667422078161
20
-6.1484276270871
30
0
41
1
10
102.131182845918
20
-6.2907659715346
30
0
41
1
10
102.827566457832
20
-6.49189705857924
30
0
41
1
10
103.0597318494
20
-6.5571510311191
30
0
41
1
10
103.524100922811
20
-6.68391277545544
30
0
41
1
10
103.75632082896
20
-6.74538336996136
30
0
41
1
10
104.221097560935
20
-6.86292598643206
30
0
41
1
10
104.453636428429
20
-6.91890930182223
30
0
41
1
10
104.918053437674
20
-7.02650925459227
30
0
41
1
10
105.150068966393
20
-7.07796911494748
30
0
41
1
10
105.613739964279
20
-7.17637179832744
30
0
41
1
10
105.845372351825
20
-7.22337056571502
30
0
41
1
10
106.308794103526
20
-7.31266139501471
30
0
41
1
10
106.54061715088
20
-7.35485253294129
30
0
41
1
10
107.235794036157
20
-7.47374504357529
30
0
41
1
10
107.699671005511
20
-7.54248204931434
30
0
41
1
10
108.395195096485
20
-7.63153431622777
30
0
41
1
10
108.626830927726
20
-7.6589144475868
30
0
41
1
10
109.091239044352
20
-7.70845587290401
30
0
41
1
10
109.323646460786
20
-7.73078197659473
30
0
41
1
10
110.021196457887
20
-7.78963844571831
30
0
41
1
10
110.485212424065
20
-7.81791718902974
30
0
41
1
10
111.412918200274
20
-7.85414453279301
30
0
41
1
10
111.876536402306
20
-7.86247950774853
30
0
41
1
10
112.571887575619
20
-7.85921700095963
30
0
41
1
10
112.803567418733
20
-7.85536041082324
30
0
41
1
10
113.266816834184
20
-7.84222624536071
30
0
41
1
10
113.498265408059
20
-7.83293203038562
30
0
41
1
10
114.194129419872
20
-7.79767717507079
30
0
41
1
10
114.658251508074
20
-7.76432753648098
30
0
41
1
10
115.587130351892
20
-7.67666902561967
30
0
41
1
10
116.051937389509
20
-7.6219255362893
30
0
41
1
10
116.97993747213
20
-7.4928647005998
30
0
41
1
10
117.443784892034
20
-7.41906243711878
30
0
41
1
10
118.138452750121
20
-7.29324566626076
30
0
41
1
10
118.369899797615
20
-7.2487669165298
30
0
41
1
10
118.833471111095
20
-7.15526309698927
30
0
41
1
10
119.065268901156
20
-7.1060236285858
30
0
41
1
10
119.760660483521
20
-6.95105468470683
30
0
41
1
10
120.224002185186
20
-6.83780002148549
30
0
41
1
10
120.920689543388
20
-6.65608489478336
30
0
41
1
10
121.153143123057
20
-6.59325514946002
30
0
41
1
10
121.617865056566
20
-6.46306361878155
30
0
41
1
10
121.850145846483
20
-6.39578480601711
30
0
41
1
10
122.546221533521
20
-6.18729053919719
30
0
41
1
10
123.009103700537
20
-6.03934190201954
30
0
41
1
10
123.936109716048
20
-5.73042227573194
30
0
41
1
10
124.399266678998
20
-5.56783935567219
30
0
41
1
10
125.325522821474
20
-5.22680573220933
30
0
41
1
10
125.78913472005
20
-5.04963872228308
30
0
41
1
10
126.532024519012
20
-4.75634780252716
30
0
41
1
10
126.810975453337
20
-4.6437719953301
30
0
41
1
10
127.089735483428
20
-4.52880547441075
30
0
0
SPLINE
5
F1
100
AcDbEntity
8
1
62
256
6
ByLayer
370
18
48
1
60
0
100
AcDbSpline
70
4
71
3
72
58
73
54
40
0
40
0
40
0
40
0
40
0.0221645644102973
40
0.0221645644102973
40
0.0472372678869537
40
0.0472372678869537
40
0.097382674840266
40
0.097382674840266
40
0.147528081793578
40
0.147528081793578
40
0.172600785270236
40
0.172600785270236
40
0.197673488746892
40
0.197673488746892
40
0.247818895700209
40
0.247818895700209
40
0.297964302653525
40
0.297964302653525
40
0.348109709606842
40
0.348109709606842
40
0.398255116560158
40
0.398255116560158
40
0.448400523513475
40
0.448400523513475
40
0.498545930466792
40
0.498545930466792
40
0.523618633943451
40
0.523618633943451
40
0.548691337420111
40
0.548691337420111
40
0.598836744373431
40
0.598836744373431
40
0.64898215132675
40
0.64898215132675
40
0.699127558280069
40
0.699127558280069
40
0.72420026175673
40
0.72420026175673
40
0.749272965233392
40
0.749272965233392
40
0.774345668710052
40
0.774345668710052
40
0.799418372186714
40
0.799418372186714
40
0.849563779140035
40
0.849563779140035
40
0.874636482616695
40
0.874636482616695
40
0.899709186093357
40
0.899709186093357
40
0.949854593046679
40
0.949854593046679
40
1
40
1
40
1
40
1
41
1
10
161.101936036174
20
7.89072184461679
30
0
41
1
10
161.306988133745
20
7.89134543575386
30
0
41
1
10
161.512239554802
20
7.88982404094858
30
0
41
1
10
161.949532411494
20
7.88197431994547
30
0
41
1
10
162.181448228196
20
7.87504510943438
30
0
41
1
10
162.876613261526
20
7.8462809302973
30
0
41
1
10
163.339117608286
20
7.81720929403753
30
0
41
1
10
164.264912578159
20
7.73956987039557
30
0
41
1
10
164.727834689532
20
7.68996628439902
30
0
41
1
10
165.422404948557
20
7.59968008036498
30
0
41
1
10
165.653909834366
20
7.5669116793936
30
0
41
1
10
166.116928086677
20
7.49676652053054
30
0
41
1
10
166.348698097893
20
7.45965515250643
30
0
41
1
10
167.044718098189
20
7.34096899902312
30
0
41
1
10
167.509235021387
20
7.2511594619121
30
0
41
1
10
168.43566621877
20
7.05169214800222
30
0
41
1
10
168.898691748346
20
6.94279126588
30
0
41
1
10
169.824655017699
20
6.70926282144345
30
0
41
1
10
170.287382384617
20
6.58305521049266
30
0
41
1
10
171.212351283447
20
6.31150867862658
30
0
41
1
10
171.676075181619
20
6.1679764689251
30
0
41
1
10
172.603119553479
20
5.86519230589496
30
0
41
1
10
173.067334926678
20
5.70474700878364
30
0
41
1
10
173.994537085381
20
5.37004945440867
30
0
41
1
10
174.457819102156
20
5.19560537042642
30
0
41
1
10
175.15190832376
20
4.924439843008
30
0
41
1
10
175.383110375308
20
4.83234026993443
30
0
41
1
10
175.845357436687
20
4.64452908139006
30
0
41
1
10
176.076937590668
20
4.5497212880278
30
0
41
1
10
176.771279301376
20
4.25992613978505
30
0
41
1
10
177.234002307831
20
4.06006699655069
30
0
41
1
10
178.16039418457
20
3.64997481770436
30
0
41
1
10
178.624971665766
20
3.44000772627524
30
0
41
1
10
179.552724350209
20
3.01214978688645
30
0
41
1
10
180.015522354891
20
2.79333914436953
30
0
41
1
10
180.709309702995
20
2.46027585122715
30
0
41
1
10
180.940917542085
20
2.34924588117869
30
0
41
1
10
181.40366895548
20
2.12488258539261
30
0
41
1
10
181.634975975658
20
2.01184167285484
30
0
41
1
10
182.097471098801
20
1.78408500772176
30
0
41
1
10
182.328639975851
20
1.66933387270956
30
0
41
1
10
182.791338159379
20
1.43913054935189
30
0
41
1
10
183.02294593158
20
1.32383755703134
30
0
41
1
10
183.717812301966
20
0.975982902353081
30
0
41
1
10
184.1824166108
20
0.742737481414082
30
0
41
1
10
184.877833881424
20
0.390585773275916
30
0
41
1
10
185.109168623496
20
0.272558871465264
30
0
41
1
10
185.572328431049
20
0.0380592805261415
30
0
41
1
10
185.8039359691
20
-0.0788530834372239
30
0
41
1
10
186.498123304586
20
-0.430045449704863
30
0
41
1
10
186.960027308373
20
-0.664839549594518
30
0
41
1
10
187.884507797193
20
-1.13075840945029
30
0
41
1
10
188.346995317473
20
-1.36207038765326
30
0
41
1
10
188.809845311784
20
-1.5916182369325
30
0
0
SPLINE
5
F2
100
AcDbEntity
8
1
62
256
6
ByLayer
370
18
48
1
60
0
100
AcDbSpline
70
4
71
3
72
46
73
42
40
0
40
0
40
0
40
0
40
0.124999999999994
40
0.124999999999994
40
0.187499999999991
40
0.187499999999991
40
0.249999999999988
40
0.249999999999988
40
0.374999999999976
40
0.374999999999976
40
0.406249999999976
40
0.406249999999976
40
0.437499999999976
40
0.437499999999976
40
0.499999999999981
40
0.499999999999981
40
0.562499999999987
40
0.562499999999987
40
0.593749999999989
40
0.593749999999989
40
0.624999999999992
40
0.624999999999992
40
0.750000000000008
40
0.750000000000008
40
0.812500000000016
40
0.812500000000016
40
0.828125000000019
40
0.83593750000002
40
0.83593750000002
40
0.83984375000002
40
0.83984375000002
40
0.843750000000019
40
0.843750000000019
40
0.851562500000017
40
0.851562500000017
40
0.859375000000016
40
0.859375000000016
40
0.867187500000015
40
0.867187500000015
40
0.875000000000013
40
1
40
1
40
1
40
1
41
1
10
188.809845311784
20
-1.59161823693253
30
0
41
1
10
189.178857050855
20
-1.71752003531799
30
0
41
1
10
189.549541804441
20
-1.82388319769044
30
0
41
1
10
190.108577395317
20
-1.94829303114443
30
0
41
1
10
190.296084330841
20
-1.98282099900521
30
0
41
1
10
190.669158128522
20
-2.03792590411581
30
0
41
1
10
190.854556846748
20
-2.05845512266467
30
0
41
1
10
191.407091246999
20
-2.09744763135021
30
0
41
1
10
191.770719265443
20
-2.09426660437234
30
0
41
1
10
192.217292096055
20
-2.04115897887562
30
0
41
1
10
192.30619114643
20
-2.02797348081006
30
0
41
1
10
192.483126251286
20
-1.99627729986457
30
0
41
1
10
192.57116748226
20
-1.97776245161611
30
0
41
1
10
192.831264005436
20
-1.91459905135656
30
0
41
1
10
193.00023850422
20
-1.8622875034138
30
0
41
1
10
193.328279398765
20
-1.73481015362876
30
0
41
1
10
193.487395027022
20
-1.65975791257063
30
0
41
1
10
193.718375957095
20
-1.52943582858771
30
0
41
1
10
193.794087810107
20
-1.48303852740509
30
0
41
1
10
193.94283085308
20
-1.38406064718706
30
0
41
1
10
194.016066652666
20
-1.3313010721065
30
0
41
1
10
194.370837260025
20
-1.05490336558259
30
0
41
1
10
194.621137006694
20
-0.792484186815528
30
0
41
1
10
194.947889430534
20
-0.338848281772727
30
0
41
1
10
195.048536233414
20
-0.17692699608429
30
0
41
1
10
195.164763383792
20
0.0358584769267623
30
0
41
1
10
195.198850284485
20
0.100403446565139
30
0
41
1
10
195.231780828466
20
0.165953474912271
30
0
41
1
10
195.248054711419
20
0.198890570507899
30
0
41
1
10
195.25345365411
20
0.209891448992494
30
0
41
1
10
195.264221378747
20
0.231918480365494
30
0
41
1
10
195.269151934413
20
0.243244804335376
30
0
41
1
10
195.279960028208
20
0.279570326652646
30
0
41
1
10
195.282996375576
20
0.30665142782388
30
0
41
1
10
195.282478618473
20
0.361286719723523
30
0
41
1
10
195.278966331928
20
0.389411390648519
30
0
41
1
10
195.267813058064
20
0.44542583613196
30
0
41
1
10
195.260799211715
20
0.473301174034162
30
0
41
1
10
195.248074530353
20
0.529171420054865
30
0
41
1
10
195.139722694806
20
1.0040519879112
30
0
41
1
10
195.028478143621
20
1.47864731602613
30
0
41
1
10
194.921695241394
20
1.92508684586457
30
0
0
SPLINE
5
F3
100
AcDbEntity
8
1
62
256
6
ByLayer
370
18
48
1
60
0
100
AcDbSpline
70
4
71
3
72
16
73
12
40
0
40
0
40
0
40
0
40
0.122981646913678
40
0.122981646913678
40
0.344171659934082
40
0.344171659934082
40
0.454766666444283
40
0.454766666444283
40
0.565361672954484
40
0.565361672954484
40
1
40
1
40
1
40
1
41
1
10
22.3012451274933
20
0.0032665416270561
30
0
41
1
10
22.846904395522
20
-0.273222615833163
30
0
41
1
10
23.3919655575436
20
-0.549488988494659
30
0
41
1
10
24.9173078221357
20
-1.31873673552124
30
0
41
1
10
25.8975726650337
20
-1.80855807704822
30
0
41
1
10
27.3736244815328
20
-2.52505112822169
30
0
41
1
10
27.866545650738
20
-2.76091129059265
30
0
41
1
10
28.8550461831337
20
-3.22499030647666
30
0
41
1
10
29.3510282974713
20
-3.45338674517328
30
0
41
1
10
31.800831780383
20
-4.55426317305455
30
0
41
1
10
33.7267291864427
20
-5.33306364534499
30
0
41
1
10
35.6528725932305
20
-5.97482434674004
30
0
0
SPLINE
5
F4
100
AcDbEntity
8
1
62
256
6
ByLayer
370
13
48
1
60
0
100
AcDbSpline
70
4
71
3
72
20
73
16
40
0
40
0
40
0
40
0
40
0.0076419694028059
40
0.0076419694028059
40
0.225982583108239
40
0.225982583108239
40
0.335152889960956
40
0.335152889960956
40
0.389738043387315
40
0.389738043387315
40
0.444323196813674
40
0.444323196813674
40
0.881004424224544
40
0.881004424224544
40
1
40
1
40
1
40
1
41
1
10
35.6528725931116
20
-5.97482434670044
30
0
41
1
10
35.6871807099215
20
-5.98625527184865
30
0
41
1
10
35.7214889047778
20
-5.99764271963866
30
0
41
1
10
36.7360319502985
20
-6.33309170404689
30
0
41
1
10
37.716349696334
20
-6.6217200740808
30
0
41
1
10
39.1922486531674
20
-6.99464006620025
30
0
41
1
10
39.6851040793414
20
-7.10891243598405
30
0
41
1
10
40.4264875068447
20
-7.26447166460696
30
0
41
1
10
40.6739565185609
20
-7.31368672587206
30
0
41
1
10
41.1696881493706
20
-7.40670457673602
30
0
41
1
10
41.4181894192808
20
-7.45054926676505
30
0
41
1
10
43.6534184261428
20
-7.81924890947894
30
0
41
1
10
45.6127553418893
20
-7.95954870483072
30
0
41
1
10
48.1067484030077
20
-7.89895062155975
30
0
41
1
10
48.6409253004695
20
-7.87205696606659
30
0
41
1
10
49.1757153781594
20
-7.83130215651138
30
0
0
SPLINE
5
F5
100
AcDbEntity
8
1
62
256
6
ByLayer
370
18
48
1
60
0
100
AcDbSpline
70
4
71
3
72
18
73
14
40
0
40
0
40
0
40
0
40
0.310615873409607
40
0.310615873409607
40
0.423076387950765
40
0.423076387950765
40
0.479306645221342
40
0.479306645221342
40
0.535536902491921
40
0.535536902491921
40
0.760457931574233
40
0.760457931574233
40
1
40
1
40
1
40
1
41
1
10
120.331458107388
20
-0.0121922250526723
30
0
41
1
10
121.683260188033
20
-0.702716169321889
30
0
41
1
10
123.035180039439
20
-1.39348210900607
30
0
41
1
10
124.889625016192
20
-2.30882742924314
30
0
41
1
10
125.383809257685
20
-2.54971191823515
30
0
41
1
10
126.127633647424
20
-2.90602425009968
30
0
41
1
10
126.375918952301
20
-3.02391146311342
30
0
41
1
10
126.871113684739
20
-3.25662488912113
30
0
41
1
10
127.118312421557
20
-3.37159684210289
30
0
41
1
10
128.352534944457
20
-3.93916184992977
30
0
41
1
10
129.334260218275
20
-4.36985600525716
30
0
41
1
10
131.357592337877
20
-5.19918879549158
30
0
41
1
10
132.398821720263
20
-5.59400005234113
30
0
41
1
10
133.442070371735
20
-5.94969283424791
30
0
0
SPLINE
5
F6
100
AcDbEntity
8
1
62
256
6
ByLayer
370
13
48
1
60
0
100
AcDbSpline
70
4
71
3
72
16
73
12
40
0
40
0
40
0
40
0
40
0.200772372724069
40
0.200772372724069
40
0.308137839476363
40
0.308137839476363
40
0.415503306228657
40
0.415503306228657
40
0.630234239733244
40
0.630234239733244
40
1
40
1
40
1
40
1
41
1
10
133.442069424254
20
-5.94969251120688
30
0
41
1
10
134.357963895476
20
-6.26196425391873
30
0
41
1
10
135.275414723358
20
-6.54408531699249
30
0
41
1
10
136.690340527968
20
-6.92435086612517
30
0
41
1
10
137.184637006986
20
-7.04702481003702
30
0
41
1
10
138.1767487708
20
-7.27141501754298
30
0
41
1
10
138.672005698055
20
-7.37258045491237
30
0
41
1
10
140.152143445411
20
-7.64140238726702
30
0
41
1
10
141.133540830082
20
-7.77483785399374
30
0
41
1
10
143.799691242436
20
-8.01096458981235
30
0
41
1
10
145.480875361292
20
-8.02174303768962
30
0
41
1
10
147.174599097365
20
-7.89173000283438
30
0
0
SPLINE
5
F7
100
AcDbEntity
8
1
62
256
6
ByLayer
370
18
48
1
60
0
100
AcDbSpline
70
4
71
3
72
22
73
18
40
0
40
0
40
0
40
0
40
0.25
40
0.25
40
0.3125
40
0.3125
40
0.374999999999999
40
0.374999999999999
40
0.499999999999999
40
0.499999999999999
40
0.749999999999999
40
0.749999999999999
40
0.812499999999999
40
0.812499999999999
40
0.874999999999999
40
0.874999999999999
40
1
40
1
40
1
40
1
41
1
10
195.043143759373
20
-7.90637992009474
30
0
41
1
10
194.8704041909
20
-7.88666026196196
30
0
41
1
10
194.710332351934
20
-7.83019415006902
30
0
41
1
10
194.52756949634
20
-7.7093496449265
30
0
41
1
10
194.491806151336
20
-7.68257488496644
30
0
41
1
10
194.4225173895
20
-7.62413698721053
30
0
41
1
10
194.38905201597
20
-7.59254329331188
30
0
41
1
10
194.292176146702
20
-7.4906717562292
30
0
41
1
10
194.232279220172
20
-7.41331691669893
30
0
41
1
10
194.066755663307
20
-7.15271691822963
30
0
41
1
10
193.975165608756
20
-6.94119942719021
30
0
41
1
10
193.88623186424
20
-6.62533230451629
30
0
41
1
10
193.869695848079
20
-6.55937551690982
30
0
41
1
10
193.839554742881
20
-6.42331101422727
30
0
41
1
10
193.825928903607
20
-6.35317511379782
30
0
41
1
10
193.789363191226
20
-6.13648898659289
30
0
41
1
10
193.770726369549
20
-5.98367308062612
30
0
41
1
10
193.757875526815
20
-5.82243220264914
30
0
0
SPLINE
5
F8
100
AcDbEntity
8
1
62
256
6
ByLayer
370
18
48
1
60
0
100
AcDbSpline
70
4
71
3
72
134
73
130
40
0
40
0
40
0
40
0
40
0.0066641351904873
40
0.0066641351904873
40
0.0290264918302723
40
0.0290264918302723
40
0.0513888484700572
40
0.0513888484700572
40
0.0737512051098421
40
0.0737512051098421
40
0.0961135617496271
40
0.0961135617496271
40
0.118475918389412
40
0.118475918389412
40
0.129657096709305
40
0.129657096709305
40
0.140838275029197
40
0.140838275029197
40
0.15201945334909
40
0.15201945334909
40
0.163200631668982
40
0.163200631668982
40
0.185562988308766
40
0.185562988308766
40
0.196744166628659
40
0.196744166628659
40
0.207925344948551
40
0.207925344948551
40
0.230287701588337
40
0.230287701588337
40
0.241468879908229
40
0.241468879908229
40
0.252650058228122
40
0.252650058228122
40
0.275012414867907
40
0.275012414867907
40
0.297374771507692
40
0.297374771507692
40
0.319737128147477
40
0.319737128147477
40
0.342099484787262
40
0.342099484787262
40
0.353280663107154
40
0.353280663107154
40
0.364461841427046
40
0.364461841427046
40
0.375643019746938
40
0.375643019746938
40
0.38682419806683
40
0.38682419806683
40
0.409186554706615
40
0.409186554706615
40
0.420367733026507
40
0.420367733026507
40
0.431548911346399
40
0.431548911346399
40
0.453911267986183
40
0.453911267986183
40
0.476273624625967
40
0.476273624625967
40
0.487454802945859
40
0.487454802945859
40
0.493045392105805
40
0.493045392105805
40
0.498635981265751
40
0.498635981265751
40
0.520998337905535
40
0.520998337905535
40
0.543360694545319
40
0.543360694545319
40
0.565723051185103
40
0.565723051185103
40
0.576904229504995
40
0.576904229504995
40
0.588085407824887
40
0.588085407824887
40
0.599266586144778
40
0.599266586144778
40
0.61044776446467
40
0.61044776446467
40
0.632810121104454
40
0.632810121104454
40
0.643991299424345
40
0.643991299424345
40
0.655172477744237
40
0.655172477744237
40
0.666353656064129
40
0.666353656064129
40
0.677534834384021
40
0.677534834384021
40
0.699897191023805
40
0.699897191023805
40
0.711078369343696
40
0.711078369343696
40
0.722259547663588
40
0.722259547663588
40
0.744621904303371
40
0.744621904303371
40
0.766984260943155
40
0.766984260943155
40
0.789346617582939
40
0.789346617582939
40
0.800527795902831
40
0.800527795902831
40
0.811708974222722
40
0.811708974222722
40
0.822890152542613
40
0.822890152542613
40
0.834071330862505
40
0.834071330862505
40
0.856433687502289
40
0.856433687502289
40
0.867614865822181
40
0.867614865822181
40
0.878796044142073
40
0.878796044142073
40
0.901158400781855
40
0.901158400781855
40
0.923520757421638
40
0.923520757421638
40
0.934701935741529
40
0.934701935741529
40
0.94588311406142
40
0.94588311406142
40
0.968245470701202
40
0.968245470701202
40
0.990607827340984
40
0.990607827340984
40
1
40
1
40
1
40
1
41
1
10
29.1027892902361
20
4.51205003278713
30
0
41
1
10
29.2463902088996
20
4.57569768897847
30
0
41
1
10
29.3898546301624
20
4.63877006473391
30
0
41
1
10
30.0139754762379
20
4.91128128447642
30
0
41
1
10
30.4931333937517
20
5.11491649767396
30
0
41
1
10
31.451195247021
20
5.50493479730142
30
0
41
1
10
31.9305696284337
20
5.69078527612115
30
0
41
1
10
32.8854919352133
20
6.05042681283035
30
0
41
1
10
33.3636952424033
20
6.22052900847015
30
0
41
1
10
34.3207654239089
20
6.54278971432487
30
0
41
1
10
34.7986378239024
20
6.69608237425146
30
0
41
1
10
35.7561848397165
20
6.98302139445215
30
0
41
1
10
36.2360436296091
20
7.11653690914656
30
0
41
1
10
36.9574072869712
20
7.30191116934608
30
0
41
1
10
37.1977195463783
20
7.3615900546574
30
0
41
1
10
37.6792144560275
20
7.47555664870652
30
0
41
1
10
37.920483854929
20
7.5297807757081
30
0
41
1
10
38.4040684607614
20
7.63273935502758
30
0
41
1
10
38.6465722053527
20
7.68148974496555
30
0
41
1
10
39.131342258855
20
7.77373555975086
30
0
41
1
10
39.3732446131318
20
7.81721227326804
30
0
41
1
10
40.0984716076017
20
7.93901115474756
30
0
41
1
10
40.5815018951097
20
8.00860705777231
30
0
41
1
10
41.306436581615
20
8.09535887680363
30
0
41
1
10
41.5481533280586
20
8.12134910845427
30
0
41
1
10
42.0309752999631
20
8.16771133423237
30
0
41
1
10
42.2719553426469
20
8.18808708982309
30
0
41
1
10
42.9965023219766
20
8.2399343016032
30
0
41
1
10
43.4808467192034
20
8.26255841604757
30
0
41
1
10
44.2069479709963
20
8.27885765378497
30
0
41
1
10
44.4491915437212
20
8.28130228709009
30
0
41
1
10
44.9328457460602
20
8.28016872810409
30
0
41
1
10
45.1742545745447
20
8.27660150629211
30
0
41
1
10
45.8978189959692
20
8.257069556651
30
0
41
1
10
46.3793870018922
20
8.23240684196048
30
0
41
1
10
47.3381625470808
20
8.15926944390577
30
0
41
1
10
47.8175911302167
20
8.11138198151721
30
0
41
1
10
48.7752532625142
20
7.99317231103058
30
0
41
1
10
49.2526615701887
20
7.92234206588191
30
0
41
1
10
50.2080323961055
20
7.75886416461566
30
0
41
1
10
50.6861910684088
20
7.66645118225398
30
0
41
1
10
51.403650753337
20
7.51157451751402
30
0
41
1
10
51.6423556502539
20
7.45682306070779
30
0
41
1
10
52.1206534618369
20
7.34247347810705
30
0
41
1
10
52.3601336525209
20
7.28280199932996
30
0
41
1
10
52.8397572857819
20
7.15852358767481
30
0
41
1
10
53.0798917110793
20
7.09391662542674
30
0
41
1
10
53.5602166506799
20
6.95911882229166
30
0
41
1
10
53.8003682110703
20
6.88886775831551
30
0
41
1
10
54.5219248510819
20
6.67064762014135
30
0
41
1
10
55.0044125095718
20
6.51521692681382
30
0
41
1
10
55.7312153396583
20
6.26814502483001
30
0
41
1
10
55.9738033320698
20
6.18370839631729
30
0
41
1
10
56.457116651697
20
6.00909720534108
30
0
41
1
10
56.6985479170566
20
5.91956161299399
30
0
41
1
10
57.4233922772
20
5.64597122089705
30
0
41
1
10
57.9070947464452
20
5.45668168143985
30
0
41
1
10
58.8722825665478
20
5.05984482117813
30
0
41
1
10
59.3545954401006
20
4.85340046649307
30
0
41
1
10
60.0796102963128
20
4.53472524073632
30
0
41
1
10
60.3215241599009
20
4.42698627124287
30
0
41
1
10
60.6845561534627
20
4.26278117721461
30
0
41
1
10
60.8056290550799
20
4.20767157455441
30
0
41
1
10
61.0476212774822
20
4.09623425621712
30
0
41
1
10
61.1685083778409
20
4.039733516757
30
0
41
1
10
61.7731936961082
20
3.756750598526
30
0
41
1
10
62.2562408315383
20
3.52721161640977
30
0
41
1
10
63.2192744190479
20
3.05895695496443
30
0
41
1
10
63.6986659399674
20
2.81913057333537
30
0
41
1
10
64.6566893345507
20
2.334508954846
30
0
41
1
10
65.1355287661396
20
2.09011938007947
30
0
41
1
10
65.852658211156
20
1.71882432142877
30
0
41
1
10
66.091006691506
20
1.59331560184802
30
0
41
1
10
66.5685342530103
20
1.34299303615728
30
0
41
1
10
66.8074467729392
20
1.21767963606211
30
0
41
1
10
67.285534293721
20
0.966693998155307
30
0
41
1
10
67.5246595036345
20
0.840927938170495
30
0
41
1
10
68.0025490432487
20
0.58783930074037
30
0
41
1
10
68.2413185797272
20
0.460523758035635
30
0
41
1
10
68.9583416630402
20
0.078639713933768
30
0
41
1
10
69.4370863050085
20
-0.176292372702363
30
0
41
1
10
70.1570792996937
20
-0.557676074546862
30
0
41
1
10
70.3974387736462
20
-0.684535036677119
30
0
41
1
10
70.8775372389381
20
-0.940383301318178
30
0
41
1
10
71.1180627610869
20
-1.06782441237681
30
0
41
1
10
71.600164720859
20
-1.32153827291768
30
0
41
1
10
71.8417641431862
20
-1.44776435560144
30
0
41
1
10
72.325751430926
20
-1.69957058430472
30
0
41
1
10
72.5681713742387
20
-1.8254284698784
30
0
41
1
10
73.2936337047826
20
-2.2015304549594
30
0
41
1
10
73.7763563348963
20
-2.44933321514432
30
0
41
1
10
74.5008350718299
20
-2.81351255539442
30
0
41
1
10
74.7423627029101
20
-2.93371337534657
30
0
41
1
10
75.2252168948089
20
-3.17221527647726
30
0
41
1
10
75.4661782694465
20
-3.2911492370213
30
0
41
1
10
76.1895780719261
20
-3.64362375298256
30
0
41
1
10
76.673092927626
20
-3.87193105445115
30
0
41
1
10
77.6404025184416
20
-4.31901983833961
30
0
41
1
10
78.1246446090262
20
-4.53869939463974
30
0
41
1
10
79.0901875551428
20
-4.96098426960816
30
0
41
1
10
79.5722432984669
20
-5.1633208923904
30
0
41
1
10
80.2923641472854
20
-5.45682762400455
30
0
41
1
10
80.5317173640399
20
-5.55324497213681
30
0
41
1
10
81.0108619867912
20
-5.7406201661849
30
0
41
1
10
81.2504059697705
20
-5.8319555098746
30
0
41
1
10
81.7293216214352
20
-6.01016264975084
30
0
41
1
10
81.9686201074794
20
-6.09713735477877
30
0
41
1
10
82.4464702896069
20
-6.26735394637834
30
0
41
1
10
82.6851043071702
20
-6.35047636506783
30
0
41
1
10
83.4012145775687
20
-6.59252791058159
30
0
41
1
10
83.8786760310863
20
-6.74444290594639
30
0
41
1
10
84.5955331285882
20
-6.95761888309369
30
0
41
1
10
84.8344638796294
20
-7.02637686619789
30
0
41
1
10
85.3118111340571
20
-7.15967503519391
30
0
41
1
10
85.5508043398843
20
-7.22363114869214
30
0
41
1
10
86.2687468626134
20
-7.40750796037341
30
0
41
1
10
86.7486716408005
20
-7.51950077871459
30
0
41
1
10
87.7086846512607
20
-7.72399746188313
30
0
41
1
10
88.1897616219792
20
-7.81561427242053
30
0
41
1
10
88.9144936043553
20
-7.93593282474606
30
0
41
1
10
89.1567570909802
20
-7.97325489788938
30
0
41
1
10
89.6409049729142
20
-8.0422131266852
30
0
41
1
10
89.88224208301
20
-8.07402789071557
30
0
41
1
10
90.6066174865008
20
-8.16021839611057
30
0
41
1
10
91.0900311367929
20
-8.20553138867777
30
0
41
1
10
92.0553278981741
20
-8.27305277149284
30
0
41
1
10
92.537061117809
20
-8.29512186481469
30
0
41
1
10
93.2223281228841
20
-8.30934933060212
30
0
41
1
10
93.4251740468536
20
-8.31144685618244
30
0
41
1
10
93.6281497487826
20
-8.31144444389642
30
0
0
SPLINE
5
F9
100
AcDbEntity
8
1
62
256
6
ByLayer
370
18
48
1
60
0
100
AcDbSpline
70
4
71
3
72
138
73
134
40
0
40
0
40
0
40
0
40
0.007903401967478
40
0.007903401967478
40
0.0190660975433907
40
0.0190660975433907
40
0.0302287931193038
40
0.0302287931193038
40
0.0413914886952168
40
0.0413914886952168
40
0.0525541842711295
40
0.0525541842711295
40
0.0748795754229543
40
0.0748795754229543
40
0.0860422709988663
40
0.0860422709988663
40
0.0972049665747787
40
0.0972049665747787
40
0.119530357726604
40
0.119530357726604
40
0.14185574887843
40
0.14185574887843
40
0.164181140030256
40
0.164181140030256
40
0.186506531182082
40
0.186506531182082
40
0.197669226757994
40
0.197669226757994
40
0.208831922333907
40
0.208831922333907
40
0.231157313485732
40
0.231157313485732
40
0.242320009061646
40
0.242320009061646
40
0.253482704637559
40
0.253482704637559
40
0.264645400213472
40
0.264645400213472
40
0.275808095789385
40
0.275808095789385
40
0.298133486941211
40
0.298133486941211
40
0.309296182517124
40
0.309296182517124
40
0.320458878093037
40
0.320458878093037
40
0.342784269244863
40
0.342784269244863
40
0.365109660396689
40
0.365109660396689
40
0.376272355972601
40
0.376272355972601
40
0.387435051548514
40
0.387435051548514
40
0.40976044270034
40
0.40976044270034
40
0.432085833852166
40
0.432085833852166
40
0.454411225003992
40
0.454411225003992
40
0.465573920579905
40
0.465573920579905
40
0.476736616155818
40
0.476736616155818
40
0.487899311731732
40
0.487899311731732
40
0.499062007307645
40
0.499062007307645
40
0.521387398459472
40
0.521387398459472
40
0.532550094035385
40
0.532550094035385
40
0.543712789611297
40
0.543712789611297
40
0.566038180763124
40
0.566038180763124
40
0.588363571914951
40
0.588363571914951
40
0.599526267490864
40
0.599526267490864
40
0.605107615278821
40
0.605107615278821
40
0.610688963066777
40
0.610688963066777
40
0.633014354218607
40
0.633014354218607
40
0.655339745370437
40
0.655339745370437
40
0.677665136522266
40
0.677665136522266
40
0.688827832098181
40
0.688827832098181
40
0.699990527674095
40
0.699990527674095
40
0.71115322325001
40
0.71115322325001
40
0.722315918825924
40
0.722315918825924
40
0.744641309977753
40
0.744641309977753
40
0.755804005553667
40
0.755804005553667
40
0.766966701129582
40
0.766966701129582
40
0.789292092281411
40
0.789292092281411
40
0.811617483433239
40
0.811617483433239
40
0.822780179009154
40
0.822780179009154
40
0.833942874585069
40
0.833942874585069
40
0.856268265736898
40
0.856268265736898
40
0.878593656888726
40
0.878593656888726
40
0.900919048040555
40
0.900919048040555
40
0.912081743616469
40
0.912081743616469
40
0.923244439192384
40
0.923244439192384
40
0.934407134768299
40
0.934407134768299
40
0.945569830344213
40
0.945569830344213
40
0.967895221496042
40
0.967895221496042
40
0.979057917071956
40
0.979057917071956
40
0.990220612647869
40
0.990220612647869
40
1
40
1
40
1
40
1
41
1
10
127.114831736692
20
4.54613687229067
30
0
41
1
10
127.285771198812
20
4.62256448823956
30
0
41
1
10
127.456784835251
20
4.69818492576456
30
0
41
1
10
127.869497053098
20
4.87869516934256
30
0
41
1
10
128.110809657679
20
4.98351390368344
30
0
41
1
10
128.594256980606
20
5.188953802573
30
0
41
1
10
128.835727493746
20
5.28934734810073
30
0
41
1
10
129.318182401812
20
5.48558515237985
30
0
41
1
10
129.55917648059
20
5.58142269810219
30
0
41
1
10
130.040098954696
20
5.76945632277994
30
0
41
1
10
130.279974108746
20
5.86171212963666
30
0
41
1
10
130.9988890454
20
6.13169104537076
30
0
41
1
10
131.477286365354
20
6.30255327692376
30
0
41
1
10
132.194542065881
20
6.54424860882594
30
0
41
1
10
132.433604738031
20
6.62235473655957
30
0
41
1
10
132.91075894673
20
6.77469798450943
30
0
41
1
10
133.148890738862
20
6.84885712171109
30
0
41
1
10
133.864406989994
20
7.06262157054351
30
0
41
1
10
134.342225931579
20
7.19441945224025
30
0
41
1
10
135.296400291112
20
7.43962461412511
30
0
41
1
10
135.773341968526
20
7.55234771748653
30
0
41
1
10
136.729732689697
20
7.7556123615332
30
0
41
1
10
137.209343082383
20
7.84618491136791
30
0
41
1
10
138.168186506385
20
8.00688290843976
30
0
41
1
10
138.649764070665
20
8.07552093555955
30
0
41
1
10
139.3744816821
20
8.161454746147
30
0
41
1
10
139.616470949019
20
8.18734124699958
30
0
41
1
10
140.099518086905
20
8.2332003779733
30
0
41
1
10
140.340854870814
20
8.25313859792254
30
0
41
1
10
141.064586832857
20
8.30395763534102
30
0
41
1
10
141.54708765975
20
8.32579832910042
30
0
41
1
10
142.270371832741
20
8.34078495353015
30
0
41
1
10
142.510884919856
20
8.34281666380082
30
0
41
1
10
142.992619416376
20
8.34083940098841
30
0
41
1
10
143.233713837545
20
8.33685545750924
30
0
41
1
10
143.716357070711
20
8.32297348765692
30
0
41
1
10
143.957889120904
20
8.31308262102505
30
0
41
1
10
144.440767327411
20
8.28726085400132
30
0
41
1
10
144.682079674307
20
8.27130258454005
30
0
41
1
10
145.406855588846
20
8.21445159068338
30
0
41
1
10
145.889595831966
20
8.16468720258624
30
0
41
1
10
146.611416027129
20
8.07331844598937
30
0
41
1
10
146.851872883666
20
8.04013630477522
30
0
41
1
10
147.331010442931
20
7.96749690383405
30
0
41
1
10
147.570310666314
20
7.92835581313122
30
0
41
1
10
148.288322810613
20
7.80316212313551
30
0
41
1
10
148.767006539532
20
7.70937797852775
30
0
41
1
10
149.721349900443
20
7.49908580114018
30
0
41
1
10
150.197796818112
20
7.3830572059521
30
0
41
1
10
150.913286270973
20
7.1944801967222
30
0
41
1
10
151.151912272008
20
7.12920758853392
30
0
41
1
10
151.629165510997
20
6.99359629748088
30
0
41
1
10
151.867592312382
20
6.92304562881802
30
0
41
1
10
152.582787087638
20
6.7035514792849
30
0
41
1
10
153.061037941018
20
6.54855771068375
30
0
41
1
10
154.01895057926
20
6.21970762461299
30
0
41
1
10
154.497883440352
20
6.04480922080373
30
0
41
1
10
155.459197672419
20
5.67818166166802
30
0
41
1
10
155.942229431999
20
5.48664417630684
30
0
41
1
10
156.667512792187
20
5.18678282443378
30
0
41
1
10
156.908468852173
20
5.0841208753865
30
0
41
1
10
157.390876506423
20
4.87651833102231
30
0
41
1
10
157.632119274766
20
4.77127635042606
30
0
41
1
10
158.114669820364
20
4.55794155220471
30
0
41
1
10
158.355937978207
20
4.44979082608739
30
0
41
1
10
158.837888475302
20
4.22960067595628
30
0
41
1
10
159.078559874424
20
4.1175334554697
30
0
41
1
10
159.800947054152
20
3.77747322231869
30
0
41
1
10
160.282848165637
20
3.54533074817681
30
0
41
1
10
161.006987812736
20
3.1904266114976
30
0
41
1
10
161.248646419324
20
3.07113350618056
30
0
41
1
10
161.731074293145
20
2.82794535377317
30
0
41
1
10
161.972805087126
20
2.70540530966895
30
0
41
1
10
162.696769985812
20
2.33693224719767
30
0
41
1
10
163.17858257609
20
2.08991918724732
30
0
41
1
10
164.137737288707
20
1.58777332794941
30
0
41
1
10
164.615972732083
20
1.33435471145816
30
0
41
1
10
165.333062851958
20
0.954050606748297
30
0
41
1
10
165.57202550064
20
0.827207876168586
30
0
41
1
10
165.930176101592
20
0.636463741000881
30
0
41
1
10
166.049560842798
20
0.572898053175408
30
0
41
1
10
166.287927681866
20
0.445024613528403
30
0
41
1
10
166.406940000489
20
0.380774707358881
30
0
41
1
10
167.002530551882
20
0.0606028566692487
30
0
41
1
10
167.479764561753
20
-0.193866147688197
30
0
41
1
10
168.433903790092
20
-0.703006720247629
30
0
41
1
10
168.91025799383
20
-0.958725568771087
30
0
41
1
10
169.865056778096
20
-1.46574889772356
30
0
41
1
10
170.343694588273
20
-1.71668828350485
30
0
41
1
10
171.062624509682
20
-2.09091851364676
30
0
41
1
10
171.301938307176
20
-2.2162318138711
30
0
41
1
10
171.78210660216
20
-2.46382058698467
30
0
41
1
10
172.022694779522
20
-2.58660206419836
30
0
41
1
10
172.504836925028
20
-2.83021991296704
30
0
41
1
10
172.746337642362
20
-2.95115738102999
30
0
41
1
10
173.229707688134
20
-3.19221696759953
30
0
41
1
10
173.470993812461
20
-3.31199977166861
30
0
41
1
10
174.194613700775
20
-3.66671108024499
30
0
41
1
10
174.676606115954
20
-3.8975130369775
30
0
41
1
10
175.399717668886
20
-4.23410036596519
30
0
41
1
10
175.640756448696
20
-4.34473384511767
30
0
41
1
10
176.121756155795
20
-4.56454932734667
30
0
41
1
10
176.362482364905
20
-4.67250914047946
30
0
41
1
10
177.085347499495
20
-4.99060752067342
30
0
41
1
10
177.568263421382
20
-5.19487857670663
30
0
41
1
10
178.533339333345
20
-5.59179120462443
30
0
41
1
10
179.016585498386
20
-5.78289211938812
30
0
41
1
10
179.738752304432
20
-6.0543008978967
30
0
41
1
10
179.979209770859
20
-6.14238546400327
30
0
41
1
10
180.459343566293
20
-6.31417239434168
30
0
41
1
10
180.698641706719
20
-6.39834793412413
30
0
41
1
10
181.416328506682
20
-6.64300549657602
30
0
41
1
10
181.894841046532
20
-6.79536317607591
30
0
41
1
10
182.849821927724
20
-7.08153121967072
30
0
41
1
10
183.325947304326
20
-7.21556027365355
30
0
41
1
10
184.278946070332
20
-7.46198025477892
30
0
41
1
10
184.756107972668
20
-7.57425064321484
30
0
41
1
10
185.471291734974
20
-7.72754295657211
30
0
41
1
10
185.709265359536
20
-7.77632640135241
30
0
41
1
10
186.186424046092
20
-7.86776096595537
30
0
41
1
10
186.425330868975
20
-7.91062968801657
30
0
41
1
10
186.903709892677
20
-7.99077075502123
30
0
41
1
10
187.143115355917
20
-8.02808835339451
30
0
41
1
10
187.621904267435
20
-8.09738543538018
30
0
41
1
10
187.861342911482
20
-8.12931939261196
30
0
41
1
10
188.580955277187
20
-8.21632887000931
30
0
41
1
10
189.062183166684
20
-8.26275502582513
30
0
41
1
10
189.786900123119
20
-8.31467467506138
30
0
41
1
10
190.028659962814
20
-8.32904663697968
30
0
41
1
10
190.51029221811
20
-8.35184856512365
30
0
41
1
10
190.751014651439
20
-8.36018444737513
30
0
41
1
10
191.202466929409
20
-8.37020360053032
30
0
41
1
10
191.413222166611
20
-8.37260075008092
30
0
41
1
10
191.623810786613
20
-8.37271539431524
30
0
0
SPLINE
5
FA
100
AcDbEntity
8
1
62
256
6
ByLayer
370
18
48
1
60
0
100
AcDbSpline
70
4
71
3
72
8
73
4
40
0
40
0
40
0
40
0
40
1
40
1
40
1
40
1
41
1
10
6.00000005743135
20
-4.69338117896942
30
0
41
1
10
6.00000005743135
20
-4.61078682689433
30
0
41
1
10
6.00000005743138
20
-4.52802288090257
30
0
41
1
10
6.00000005743138
20
-4.44509504686189
30
0
0
SPLINE
5
FB
100
AcDbEntity
8
1
62
256
6
ByLayer
370
18
48
1
60
0
100
AcDbSpline
70
4
71
3
72
20
73
16
40
0
40
0
40
0
40
0
40
0.0663821442622555
40
0.137826931509941
40
0.184157519373757
40
0.229278821653681
40
0.284119254392654
40
0.369802244116845
40
0.450228203958324
40
0.515662092236538
40
0.609231530368631
40
0.723587632172238
40
0.844373456414122
40
0.937844157496595
40
1
40
1
40
1
40
1
41
1
10
6.25021736774556
20
-7.79627827888314
30
0
41
1
10
6.42657095713702
20
-7.79643666715668
30
0
41
1
10
6.79273122522426
20
-7.79675657553335
30
0
41
1
10
7.28197170665234
20
-7.79718435090007
30
0
41
1
10
7.71475790675731
20
-7.79750730119864
30
0
41
1
10
8.10333551569931
20
-7.79774067543076
30
0
41
1
10
8.59613978432046
20
-7.79794990583031
30
0
41
1
10
9.18207848587284
20
-7.79797876826649
30
0
41
1
10
9.79695452913322
20
-7.7979595804774
30
0
41
1
10
10.4333302121748
20
-7.79837114130058
30
0
41
1
10
11.1575560012787
20
-7.79912950149927
30
0
41
1
10
12.0316289285614
20
-7.79997776249368
30
0
41
1
10
12.903648368571
20
-7.80003873582581
30
0
41
1
10
13.6380168549465
20
-7.80021843758192
30
0
41
1
10
14.050699583195
20
-7.80059093747249
30
0
41
1
10
14.2154645441339
20
-7.8007698934415
30
0
0
SPLINE
5
FC
100
AcDbEntity
8
1
62
256
6
ByLayer
370
18
48
1
60
0
100
AcDbSpline
70
4
71
3
72
35
73
31
40
0
40
0
40
0
40
0
40
0.0594042837491365
40
0.114822627612449
40
0.160547353859617
40
0.197034641287527
40
0.224371906687438
40
0.245850757294463
40
0.274223105029034
40
0.311969097213797
40
0.347609724545035
40
0.375490082660996
40
0.401335990498262
40
0.433304501609799
40
0.474946875543411
40
0.523533181634878
40
0.563554746341447
40
0.594313338145988
40
0.627328624490505
40
0.666016327184524
40
0.707476796852497
40
0.741806621435797
40
0.7708237929433
40
0.799626955456606
40
0.834466421126587
40
0.873699948559708
40
0.905501078567424
40
0.933646273429869
40
0.96566598116775
40
1
40
1
40
1
40
1
41
1
10
96.0125734864424
20
-7.85192380758954
30
0
41
1
10
96.3312061550149
20
-7.85191486828677
30
0
41
1
10
96.9475808408677
20
-7.85208392403587
30
0
41
1
10
97.8137444984447
20
-7.85221317423543
30
0
41
1
10
98.5525520843471
20
-7.85365976013301
30
0
41
1
10
99.1375624396762
20
-7.85374765573908
30
0
41
1
10
99.5978170974987
20
-7.85370728700809
30
0
41
1
10
100.012374543381
20
-7.85405747585253
30
0
41
1
10
100.484500671492
20
-7.85439801987735
30
0
41
1
10
101.032493434196
20
-7.85502686760969
30
0
41
1
10
101.57807162139
20
-7.85524826522277
30
0
41
1
10
102.059264715897
20
-7.85541257104964
30
0
41
1
10
102.520766381155
20
-7.85541827136535
30
0
41
1
10
103.056593233572
20
-7.85555315172905
30
0
41
1
10
103.714276861501
20
-7.85648662608924
30
0
41
1
10
104.414385057231
20
-7.85649514529584
30
0
41
1
10
105.05822836818
20
-7.8564166701716
30
0
41
1
10
105.615580130561
20
-7.85682982830485
30
0
41
1
10
106.167623583546
20
-7.85723493942433
30
0
41
1
10
106.777133349869
20
-7.85788793071191
30
0
41
1
10
107.392703474358
20
-7.85764936217569
30
0
41
1
10
107.95769872406
20
-7.85757476863262
30
0
41
1
10
108.453333785336
20
-7.85801813604706
30
0
41
1
10
108.95089406073
20
-7.85860395512373
30
0
41
1
10
109.505312847152
20
-7.85939758696472
30
0
41
1
10
110.075515940797
20
-7.85958422833417
30
0
41
1
10
110.609803155611
20
-7.85948186515927
30
0
41
1
10
111.105081881714
20
-7.85949059277127
30
0
41
1
10
111.614115004119
20
-7.85983162542391
30
0
41
1
10
111.971528404989
20
-7.86030278263783
30
0
41
1
10
112.156473743792
20
-7.8606108310772
30
0
0
SPLINE
5
FD
100
AcDbEntity
8
1
62
256
6
ByLayer
370
18
48
1
60
0
100
AcDbSpline
70
4
71
3
72
28
73
24
40
0
40
0
40
0
40
0
40
0.0427870918998067
40
0.0639564262549483
40
0.0843476689131411
40
0.143681575934564
40
0.20311293318101
40
0.269327716436526
40
0.303070748199547
40
0.332048730765831
40
0.356461239898116
40
0.386003428495921
40
0.421057352606872
40
0.46364545561334
40
0.496459270010301
40
0.532267947897211
40
0.572000238482958
40
0.616713765314776
40
0.664830544565812
40
0.760426125862103
40
0.859150923740663
40
0.961570955461596
40
1
40
1
40
1
40
1
41
1
10
46.9804845866339
20
-7.82118283316382
30
0
41
1
10
47.1905190409778
20
-7.81973513483271
30
0
41
1
10
47.5152778325745
20
-7.81835456307127
30
0
41
1
10
47.973530223902
20
-7.81611628343842
30
0
41
1
10
48.517938948556
20
-7.81924652479802
30
0
41
1
10
49.2462083854511
20
-7.82367532786799
30
0
41
1
10
50.2525990224787
20
-7.82341996254789
30
0
41
1
10
51.1142962707578
20
-7.82390732712443
30
0
41
1
10
51.8125874569825
20
-7.82447390980334
30
0
41
1
10
52.2843352738847
20
-7.82495208577103
30
0
41
1
10
52.7333965981123
20
-7.82519324733411
30
0
41
1
10
53.2153372214432
20
-7.8253155280803
30
0
41
1
10
53.79570312971
20
-7.82540842987737
30
0
41
1
10
54.3937771469722
20
-7.82572037024804
30
0
41
1
10
54.9959428516171
20
-7.82634530626456
30
0
41
1
10
55.5826396945913
20
-7.82680510354172
30
0
41
1
10
56.2337625937214
20
-7.8270211374244
30
0
41
1
10
56.9515465773308
20
-7.82706746207916
30
0
41
1
10
57.9717848878923
20
-7.82817705607036
30
0
41
1
10
59.2845031999204
20
-7.82840878534452
30
0
41
1
10
60.8912348177877
20
-7.83017126941454
30
0
41
1
10
62.1884413707076
20
-7.82993769218328
30
0
41
1
10
62.9510866404956
20
-7.83070306363965
30
0
41
1
10
63.1591656321865
20
-7.8309294196238
30
0
0
SPLINE
5
FE
100
AcDbEntity
8
1
62
256
6
ByLayer
370
18
48
1
60
0
100
AcDbSpline
70
4
71
3
72
18
73
14
40
0
40
0
40
0
40
0
40
0.0495547961676608
40
0.298038272325198
40
0.549340932724286
40
0.600480703278052
40
0.645942577783209
40
0.684701137491695
40
0.716702854962915
40
0.752731425955488
40
0.816525368150839
40
0.909290335075416
40
1
40
1
40
1
40
1
41
1
10
14.1639209195447
20
7.8008952851682
30
0
41
1
10
14.0331989246155
20
7.80077000328853
30
0
41
1
10
13.2469952958172
20
7.80004800329871
30
0
41
1
10
11.7978714156766
20
7.80007306516237
30
0
41
1
10
10.3445676335701
20
7.79865428024945
30
0
41
1
10
9.42682337616873
20
7.79832458122223
30
0
41
1
10
9.06975370048883
20
7.79818136592405
30
0
41
1
10
8.76316704479476
20
7.79805694634729
30
0
41
1
10
8.48146668125679
20
7.79793109216217
30
0
41
1
10
8.13375124923084
20
7.79775498719823
30
0
41
1
10
7.62572470830293
20
7.79745101055283
30
0
41
1
10
6.97343185135622
20
7.79691106794519
30
0
41
1
10
6.48947639642344
20
7.79649494821487
30
0
41
1
10
6.25021570439014
20
7.79627602385906
30
0
0
SPLINE
5
FF
100
AcDbEntity
8
1
62
256
6
ByLayer
370
18
48
1
60
0
100
AcDbSpline
70
4
71
3
72
26
73
22
40
0
40
0
40
0
40
0
40
0.0124723894666734
40
0.0611234175607597
40
0.116577759485599
40
0.183269998035285
40
0.247148843444028
40
0.298562169599896
40
0.34592757898037
40
0.405561204208241
40
0.474110471883833
40
0.532833396644914
40
0.580020113120542
40
0.635464684236186
40
0.706801511487313
40
0.762979940447275
40
0.806810790097033
40
0.842229475320391
40
0.88374039253038
40
0.933432438611203
40
1
40
1
40
1
40
1
41
1
10
63.1596534428704
20
7.83087291649258
30
0
41
1
10
63.1128446862034
20
7.83081056725959
30
0
41
1
10
62.8834490529963
20
7.83052938768122
30
0
41
1
10
62.4459332772862
20
7.83025157351094
30
0
41
1
10
61.8049301204437
20
7.83031702821461
30
0
41
1
10
61.10677900007
20
7.83025353286448
30
0
41
1
10
60.4237929560076
20
7.82913425762885
30
0
41
1
10
59.8133394604867
20
7.82868668435515
30
0
41
1
10
59.2188182735991
20
7.82861901007186
30
0
41
1
10
58.5599871194282
20
7.82868123519415
30
0
41
1
10
57.8585299763981
20
7.82801659458957
30
0
41
1
10
57.2037861756575
20
7.82723475052234
30
0
41
1
10
56.5982252735175
20
7.8270805931642
30
0
41
1
10
55.9453286053663
20
7.82693633660048
30
0
41
1
10
55.2586769405911
20
7.82662314699701
30
0
41
1
10
54.6156226797317
20
7.82592307070198
30
0
41
1
10
54.1073711232803
20
7.82556297069871
30
0
41
1
10
53.6541573202219
20
7.82538908838191
30
0
41
1
10
53.178943497454
20
7.82530338269524
30
0
41
1
10
52.5868570177915
20
7.82517810438358
30
0
41
1
10
52.1504660345505
20
7.82478387685478
30
0
41
1
10
51.9006769654745
20
7.82456542648342
30
0
0
SPLINE
5
100
100
AcDbEntity
8
1
62
256
6
ByLayer
370
18
48
1
60
0
100
AcDbSpline
70
4
71
1
72
4
73
2
40
0
40
0
40
1
40
1
41
1
10
22.2997715758294
20
0.0040250357999412
30
0
41
1
10
22.2997891657748
20
0.0040156581472388
30
0
0
SPLINE
5
101
100
AcDbEntity
8
1
62
256
6
ByLayer
370
18
48
1
60
0
100
AcDbSpline
70
4
71
1
72
4
73
2
40
0
40
0
40
1
40
1
41
1
10
194.038327740817
20
-7.91374667138959
30
0
41
1
10
195.10132517602
20
-7.91422637520137
30
0
0
SPLINE
5
102
100
AcDbEntity
8
1
62
256
6
ByLayer
370
18
48
1
60
0
100
AcDbSpline
70
4
71
3
72
26
73
22
40
0
40
0
40
0
40
0
40
0.0022144324446351
40
0.0467895731382514
40
0.094392470330235
40
0.135924926302994
40
0.192725154376838
40
0.259980081725074
40
0.315368788495827
40
0.364066220041122
40
0.422834599903665
40
0.491153827565774
40
0.55297883446715
40
0.604251218243538
40
0.661636232250118
40
0.738225911021629
40
0.809733904550647
40
0.863088334156223
40
0.909674216016237
40
0.9643236110958
40
1
40
1
40
1
40
1
41
1
10
112.153798321073
20
7.86059110740175
30
0
41
1
10
112.145550987093
20
7.86058250479641
30
0
41
1
10
111.971289959249
20
7.86040021626613
30
0
41
1
10
111.619740204089
20
7.85979754268698
30
0
41
1
10
111.121748465521
20
7.8595050106552
30
0
41
1
10
110.578333860144
20
7.85947098515521
30
0
41
1
10
109.961610892699
20
7.8596412084166
30
0
41
1
10
109.293210739972
20
7.85911907740237
30
0
41
1
10
108.655384543292
20
7.85825279626269
30
0
41
1
10
108.051020291475
20
7.85757882108453
30
0
41
1
10
107.395358032384
20
7.85764476578268
30
0
41
1
10
106.693323700105
20
7.85788554823378
30
0
41
1
10
106.017022204811
20
7.85707582853982
30
0
41
1
10
105.383426853951
20
7.85663171047707
30
0
41
1
10
104.693417217171
20
7.85636471836079
30
0
41
1
10
103.928754800241
20
7.85667236633796
30
0
41
1
10
103.179623985286
20
7.85567231985564
30
0
41
1
10
102.540907069338
20
7.85540099835748
30
0
41
1
10
101.965367281578
20
7.85540301653523
30
0
41
1
10
101.455487680144
20
7.85522527765909
30
0
41
1
10
101.119121849504
20
7.85499112171092
30
0
41
1
10
100.986256904905
20
7.85488806846718
30
0
0
SPLINE
5
103
100
AcDbEntity
8
1
62
256
6
ByLayer
370
18
48
1
60
0
100
AcDbSpline
70
4
71
3
72
21
73
17
40
0
40
0
40
0
40
0
40
0.0109025147402909
40
0.100450269083496
40
0.15654354035299
40
0.226065028089862
40
0.309615873115538
40
0.39393340522349
40
0.482161475635553
40
0.554374249123301
40
0.630781024173479
40
0.722274103348222
40
0.800154437685081
40
0.873354621815819
40
0.967348345374078
40
1
40
1
40
1
40
1
41
1
10
161.100549266602
20
7.89065019630834
30
0
41
1
10
161.060140710042
20
7.89060887176115
30
0
41
1
10
160.687883419347
20
7.89024883809427
30
0
41
1
10
160.107304972271
20
7.88837958206787
30
0
41
1
10
159.313159731792
20
7.88999200822551
30
0
41
1
10
158.537287169047
20
7.88975398498366
30
0
41
1
10
157.656861835794
20
7.88814691197015
30
0
41
1
10
156.707003620113
20
7.88804511464892
30
0
41
1
10
155.799212602363
20
7.88881481757278
30
0
41
1
10
154.920764758076
20
7.88715517282324
30
0
41
1
10
154.030205988782
20
7.88672192799464
30
0
41
1
10
153.118628631061
20
7.8870291365175
30
0
41
1
10
152.218929284727
20
7.88579120315424
30
0
41
1
10
151.309994095883
20
7.88524415524375
30
0
41
1
10
150.568764518567
20
7.88547657045618
30
0
41
1
10
150.09906303919
20
7.88532370237783
30
0
41
1
10
149.977964445155
20
7.88525602888714
30
0
0
SPLINE
5
104
100
AcDbEntity
8
1
62
256
6
ByLayer
370
18
48
1
60
0
100
AcDbSpline
70
4
71
3
72
28
73
24
40
0
40
0
40
0
40
0
40
0.0599522222911458
40
0.114216407047306
40
0.157745358815168
40
0.195080758217421
40
0.227363543049231
40
0.255158037528177
40
0.278980322317639
40
0.309999964527716
40
0.349810650566368
40
0.389583331746926
40
0.423452398233183
40
0.477705490398148
40
0.545637550513478
40
0.607364816248803
40
0.661270839216747
40
0.727754231641773
40
0.791304823825609
40
0.853669008594271
40
0.902236528942783
40
0.950514094288099
40
1
40
1
40
1
40
1
41
1
10
145.013251271845
20
-7.88258206940492
30
0
41
1
10
145.333200208159
20
-7.88248928520289
30
0
41
1
10
145.943368302603
20
-7.88252416728386
30
0
41
1
10
146.791562462397
20
-7.88230528036064
30
0
41
1
10
147.513427731745
20
-7.88379821510199
30
0
41
1
10
148.118482093255
20
-7.88400741929803
30
0
41
1
10
148.641516480607
20
-7.88416691837574
30
0
41
1
10
149.091700021645
20
-7.88440565311424
30
0
41
1
10
149.535184556152
20
-7.88488711416267
30
0
41
1
10
150.043115342543
20
-7.88538274829406
30
0
41
1
10
150.636643780531
20
-7.88540274200389
30
0
41
1
10
151.245489787934
20
-7.8853775313579
30
0
41
1
10
151.931829554692
20
-7.88542074894031
30
0
41
1
10
152.769278478445
20
-7.88682777540882
30
0
41
1
10
153.756239083094
20
-7.88688179023484
30
0
41
1
10
154.741347041962
20
-7.88681194212944
30
0
41
1
10
155.71864671406
20
-7.88885207490762
30
0
41
1
10
156.70582150559
20
-7.88801163095221
30
0
41
1
10
157.738100258386
20
-7.88823282869157
30
0
41
1
10
158.675207987551
20
-7.89002062848041
30
0
41
1
10
159.527334409521
20
-7.88957564660919
30
0
41
1
10
160.312715718472
20
-7.88886630767161
30
0
41
1
10
160.836269944745
20
-7.8898679147886
30
0
41
1
10
161.101208704283
20
-7.8906108293705
30
0
0
SPLINE
5
105
100
AcDbEntity
8
1
62
256
6
ByLayer
370
18
48
1
60
0
100
AcDbSpline
70
4
71
2
72
6
73
3
40
0
40
0
40
0
40
1
40
1
40
1
41
1
10
169.311758248521
20
-0.0022028394371318
30
0
41
1
10
169.311747826208
20
-0.0021978515369199
30
0
41
1
10
169.31173740393
20
-0.0021926311648031
30
0
0
LINE
5
7B
100
AcDbEntity
8
SK1
62
256
6
ByLayer
370
18
48
1
60
0
100
AcDbLine
10
-45.25
20
9
30
0
11
-45.25
21
-9
31
0
39
0
210
0
220
0
230
1
0
LINE
5
7D
100
AcDbEntity
8
SK1
62
256
6
ByLayer
370
18
48
1
60
0
100
AcDbLine
10
-46.1
20
-8.129966
30
0
11
-46.1
21
-7.456875
31
0
39
0
210
0
220
0
230
1
0
LINE
5
7E
100
AcDbEntity
8
SK1
62
256
6
ByLayer
370
18
48
1
60
0
100
AcDbLine
10
-48
20
6.25
30
0
11
-48
21
-5.528831
31
0
39
0
210
0
220
0
230
1
0
LINE
5
7F
100
AcDbEntity
8
SK1
62
256
6
ByLayer
370
18
48
1
60
0
100
AcDbLine
10
0
20
-9
30
0
11
0
21
9
31
0
39
0
210
0
220
0
230
1
0
LINE
5
80
100
AcDbEntity
8
SK1
62
256
6
ByLayer
370
13
48
1
60
0
100
AcDbLine
10
-46.2
20
-7.316271
30
0
11
-46.2
21
-8.037678
31
0
39
0
210
0
220
0
230
1
0
LINE
5
81
100
AcDbEntity
8
SK1
62
256
6
ByLayer
370
18
48
1
60
0
100
AcDbLine
10
-48
20
-5.528831
30
0
11
-48
21
-6.249999
31
0
39
0
210
0
220
0
230
1
0
LINE
5
82
100
AcDbEntity
8
1
62
256
6
ByLayer
370
18
48
1
60
0
100
AcDbLine
10
6
20
8.256683
30
0
11
6
21
7.217853
31
0
39
0
210
0
220
0
230
1
0
LINE
5
83
100
AcDbEntity
8
1
62
256
6
ByLayer
370
13
48
1
60
0
100
AcDbLine
10
195.066754
20
2.072488
30
0
11
197.952642
21
0.245652
31
0
39
0
210
0
220
0
230
1
0
LINE
5
84
100
AcDbEntity
8
1
62
256
6
ByLayer
370
18
48
1
60
0
100
AcDbLine
10
193.757876
20
-5.822432
30
0
11
195.193917
21
-3.873306
31
0
39
0
210
0
220
0
230
1
0
LINE
5
85
100
AcDbEntity
8
1
62
256
6
ByLayer
370
18
48
1
60
0
100
AcDbLine
10
0
20
-9
30
0
11
0
21
9
31
0
39
0
210
0
220
0
230
1
0
LINE
5
86
100
AcDbEntity
8
1
62
256
6
ByLayer
370
18
48
1
60
0
100
AcDbLine
10
6
20
-8.256683
30
0
11
6
21
-4.693381
31
0
39
0
210
0
220
0
230
1
0
LINE
5
87
100
AcDbEntity
8
1
62
256
6
ByLayer
370
13
48
1
60
0
100
AcDbLine
10
0.676584
20
8.626889
30
0
11
0.676584
21
-8.626889
31
0
39
0
210
0
220
0
230
1
0
LINE
5
88
100
AcDbEntity
8
1
62
256
6
ByLayer
370
13
48
1
60
0
100
AcDbLine
10
1.353668
20
8.253779
30
0
11
1.353668
21
-8.253779
31
0
39
0
210
0
220
0
230
1
0
LINE
5
89
100
AcDbEntity
8
1
62
256
6
ByLayer
370
13
48
1
60
0
100
AcDbLine
10
194.921695
20
1.925087
30
0
11
197.974887
21
-0.007656
31
0
39
0
210
0
220
0
230
1
0
LINE
5
8A
100
AcDbEntity
8
1
62
256
6
ByLayer
370
18
48
1
60
0
100
AcDbLine
10
195.598577
20
-3.324063
30
0
11
197.797043
21
-0.340103
31
0
39
0
210
0
220
0
230
1
0
LINE
5
8B
100
AcDbEntity
8
80
62
256
6
ByLayer
370
18
48
1
60
0
100
AcDbLine
10
0
20
0
30
0
11
-5
21
0
31
0
39
0
210
0
220
0
230
1
0
LINE
5
8C
100
AcDbEntity
8
4
62
256
6
ByLayer
370
18
48
0.05
60
0
100
AcDbLine
10
198
20
0
30
0
11
0
21
0
31
0
39
0
210
0
220
0
230
1
0
LINE
5
8E
100
AcDbEntity
8
SK4
62
256
6
ByLayer
370
18
48
0.05
60
0
100
AcDbLine
10
203
20
0
30
0
11
-53
21
0
31
0
39
0
210
0
220
0
230
1
0
LINE
5
90
100
AcDbEntity
8
SK1
62
256
6
ByLayer
370
18
48
1
60
0
100
AcDbLine
10
-48
20
-6.25
30
0
11
-45.25
21
-9
31
0
39
0
210
0
220
0
230
1
0
LINE
5
91
100
AcDbEntity
8
SK1
62
256
6
ByLayer
370
18
48
1
60
0
100
AcDbLine
10
-45.25
20
9
30
0
11
-48
21
6.25
31
0
39
0
210
0
220
0
230
1
0
LINE
5
92
100
AcDbEntity
8
SK1
62
256
6
ByLayer
370
18
48
1
60
0
100
AcDbLine
10
-45.25
20
-9
30
0
11
0
21
-9
31
0
39
0
210
0
220
0
230
1
0
LINE
5
93
100
AcDbEntity
8
SK1
62
256
6
ByLayer
370
18
48
1
60
0
100
AcDbLine
10
0
20
9
30
0
11
-45.25
21
9
31
0
39
0
210
0
220
0
230
1
0
LINE
5
94
100
AcDbEntity
8
1
62
256
6
ByLayer
370
18
48
1
60
0
100
AcDbLine
10
1.353668
20
-8.253779
30
0
11
6
21
-8.256683
31
0
39
0
210
0
220
0
230
1
0
LINE
5
95
100
AcDbEntity
8
1
62
256
6
ByLayer
370
18
48
1
60
0
100
AcDbLine
10
44.604076
20
-8.28081
30
0
11
46.806677
21
-8.282187
31
0
39
0
210
0
220
0
230
1
0
LINE
5
96
100
AcDbEntity
8
1
62
256
6
ByLayer
370
18
48
1
60
0
100
AcDbLine
10
93.610009
20
-8.311439
30
0
11
95.806694
21
-8.312812
31
0
39
0
210
0
220
0
230
1
0
LINE
5
97
100
AcDbEntity
8
1
62
256
6
ByLayer
370
18
48
1
60
0
100
AcDbLine
10
142.615632
20
-8.342067
30
0
11
144.807821
21
-8.343437
31
0
39
0
210
0
220
0
230
1
0
LINE
5
98
100
AcDbEntity
8
1
62
256
6
ByLayer
370
18
48
1
60
0
100
AcDbLine
10
191.622316
20
-8.372697
30
0
11
193.808464
21
-8.374063
31
0
39
0
210
0
220
0
230
1
0
LINE
5
99
100
AcDbEntity
8
1
62
256
6
ByLayer
370
18
48
1
60
0
100
AcDbLine
10
193.808671
20
8.374063
30
0
11
191.622316
21
8.372697
31
0
39
0
210
0
220
0
230
1
0
LINE
5
9A
100
AcDbEntity
8
1
62
256
6
ByLayer
370
18
48
1
60
0
100
AcDbLine
10
144.807169
20
8.343437
30
0
11
142.615632
21
8.342067
31
0
39
0
210
0
220
0
230
1
0
LINE
5
9B
100
AcDbEntity
8
1
62
256
6
ByLayer
370
18
48
1
60
0
100
AcDbLine
10
95.807
20
8.312812
30
0
11
93.610009
21
8.311439
31
0
39
0
210
0
220
0
230
1
0
LINE
5
9C
100
AcDbEntity
8
1
62
256
6
ByLayer
370
18
48
1
60
0
100
AcDbLine
10
46.806715
20
8.282187
30
0
11
44.604076
21
8.28081
31
0
39
0
210
0
220
0
230
1
0
LINE
5
9D
100
AcDbEntity
8
1
62
256
6
ByLayer
370
18
48
1
60
0
100
AcDbLine
10
6
20
8.256683
30
0
11
1.353668
21
8.253779
31
0
39
0
210
0
220
0
230
1
0
LINE
5
9E
100
AcDbEntity
8
81
62
256
6
ByLayer
370
18
48
1
60
0
100
AcDbLine
10
198
20
0
30
0
11
203
21
0
31
0
39
0
210
0
220
0
230
1
0
LINE
5
9F
100
AcDbEntity
8
SK2
62
256
6
ByLayer
370
13
48
1
60
0
100
AcDbLine
10
-56.625163
20
-9
30
0
11
-56.625163
21
39.857173
31
0
39
0
210
0
220
0
230
1
0
LINE
5
A1
100
AcDbEntity
8
SK2
62
256
6
ByLayer
370
13
48
1
60
0
100
AcDbLine
10
-49.5875
20
9
30
0
11
-58.625163
21
9
31
0
39
0
210
0
220
0
230
1
0
LINE
5
A2
100
AcDbEntity
8
SK2
62
256
6
ByLayer
370
13
48
1
60
0
100
AcDbLine
10
-49.5875
20
-9
30
0
11
-58.625163
21
-9
31
0
39
0
210
0
220
0
230
1
0
LINE
5
A3
100
AcDbEntity
8
1
62
256
6
ByLayer
370
18
48
1
60
1
100
AcDbLine
10
-56.625163
20
9
30
0
11
-56.164379
21
5.500002
31
0
39
0
210
0
220
0
230
1
0
LINE
5
A4
100
AcDbEntity
8
1
62
256
6
ByLayer
370
18
48
1
60
1
100
AcDbLine
10
-56.164379
20
5.500002
30
0
11
-57.085946
21
5.499998
31
0
39
0
210
0
220
0
230
1
0
LINE
5
A5
100
AcDbEntity
8
1
62
256
6
ByLayer
370
18
48
1
60
1
100
AcDbLine
10
-57.085946
20
5.499998
30
0
11
-56.625163
21
9
31
0
39
0
210
0
220
0
230
1
0
LINE
5
A6
100
AcDbEntity
8
1
62
256
6
ByLayer
370
18
48
1
60
1
100
AcDbLine
10
-56.625163
20
-9
30
0
11
-57.085946
21
-5.500002
31
0
39
0
210
0
220
0
230
1
0
LINE
5
A7
100
AcDbEntity
8
1
62
256
6
ByLayer
370
18
48
1
60
1
100
AcDbLine
10
-57.085946
20
-5.500002
30
0
11
-56.164379
21
-5.499998
31
0
39
0
210
0
220
0
230
1
0
LINE
5
A8
100
AcDbEntity
8
1
62
256
6
ByLayer
370
18
48
1
60
1
100
AcDbLine
10
-56.164379
20
-5.499998
30
0
11
-56.625163
21
-9
31
0
39
0
210
0
220
0
230
1
0
LINE
5
A9
100
AcDbEntity
8
2
62
256
6
ByLayer
370
13
48
1
60
0
100
AcDbLine
10
210.083343
20
-8.375
30
0
11
210.083343
21
37.825259
31
0
39
0
210
0
220
0
230
1
0
LINE
5
AB
100
AcDbEntity
8
2
62
256
6
ByLayer
370
13
48
1
60
0
100
AcDbLine
10
197.0863
20
8.375
30
0
11
212.083343
21
8.375
31
0
39
0
210
0
220
0
230
1
0
LINE
5
AC
100
AcDbEntity
8
2
62
256
6
ByLayer
370
13
48
1
60
0
100
AcDbLine
10
197.0863
20
-8.375
30
0
11
212.083343
21
-8.375
31
0
39
0
210
0
220
0
230
1
0
LINE
5
AD
100
AcDbEntity
8
1
62
256
6
ByLayer
370
18
48
1
60
1
100
AcDbLine
10
210.083343
20
8.375
30
0
11
210.544126
21
4.875002
31
0
39
0
210
0
220
0
230
1
0
LINE
5
AE
100
AcDbEntity
8
1
62
256
6
ByLayer
370
18
48
1
60
1
100
AcDbLine
10
210.544126
20
4.875002
30
0
11
209.622559
21
4.874998
31
0
39
0
210
0
220
0
230
1
0
LINE
5
AF
100
AcDbEntity
8
1
62
256
6
ByLayer
370
18
48
1
60
1
100
AcDbLine
10
209.622559
20
4.874998
30
0
11
210.083343
21
8.375
31
0
39
0
210
0
220
0
230
1
0
LINE
5
B0
100
AcDbEntity
8
1
62
256
6
ByLayer
370
18
48
1
60
1
100
AcDbLine
10
210.083343
20
-8.375
30
0
11
209.622559
21
-4.875002
31
0
39
0
210
0
220
0
230
1
0
LINE
5
B1
100
AcDbEntity
8
1
62
256
6
ByLayer
370
18
48
1
60
1
100
AcDbLine
10
209.622559
20
-4.875002
30
0
11
210.544126
21
-4.874998
31
0
39
0
210
0
220
0
230
1
0
LINE
5
B2
100
AcDbEntity
8
1
62
256
6
ByLayer
370
18
48
1
60
1
100
AcDbLine
10
210.544126
20
-4.874998
30
0
11
210.083343
21
-8.375
31
0
39
0
210
0
220
0
230
1
0
LINE
5
10C
100
AcDbEntity
8
1
62
256
6
ByLayer
370
18
48
1
60
1
100
AcDbLine
10
-56.625163
20
9
30
0
11
-56.164379
21
5.500002
31
0
39
0
210
0
220
0
230
1
0
LINE
5
10D
100
AcDbEntity
8
1
62
256
6
ByLayer
370
18
48
1
60
1
100
AcDbLine
10
-56.164379
20
5.500002
30
0
11
-57.085946
21
5.499998
31
0
39
0
210
0
220
0
230
1
0
LINE
5
10E
100
AcDbEntity
8
1
62
256
6
ByLayer
370
18
48
1
60
1
100
AcDbLine
10
-57.085946
20
5.499998
30
0
11
-56.625163
21
9
31
0
39
0
210
0
220
0
230
1
0
LINE
5
110
100
AcDbEntity
8
1
62
256
6
ByLayer
370
18
48
1
60
1
100
AcDbLine
10
-56.625163
20
-9
30
0
11
-57.085946
21
-5.500002
31
0
39
0
210
0
220
0
230
1
0
LINE
5
111
100
AcDbEntity
8
1
62
256
6
ByLayer
370
18
48
1
60
1
100
AcDbLine
10
-57.085946
20
-5.500002
30
0
11
-56.164379
21
-5.499998
31
0
39
0
210
0
220
0
230
1
0
LINE
5
112
100
AcDbEntity
8
1
62
256
6
ByLayer
370
18
48
1
60
1
100
AcDbLine
10
-56.164379
20
-5.499998
30
0
11
-56.625163
21
-9
31
0
39
0
210
0
220
0
230
1
0
LINE
5
116
100
AcDbEntity
8
1
62
256
6
ByLayer
370
18
48
1
60
1
100
AcDbLine
10
210.083343
20
8.375
30
0
11
210.544126
21
4.875002
31
0
39
0
210
0
220
0
230
1
0
LINE
5
117
100
AcDbEntity
8
1
62
256
6
ByLayer
370
18
48
1
60
1
100
AcDbLine
10
210.544126
20
4.875002
30
0
11
209.622559
21
4.874998
31
0
39
0
210
0
220
0
230
1
0
LINE
5
118
100
AcDbEntity
8
1
62
256
6
ByLayer
370
18
48
1
60
1
100
AcDbLine
10
209.622559
20
4.874998
30
0
11
210.083343
21
8.375
31
0
39
0
210
0
220
0
230
1
0
LINE
5
11A
100
AcDbEntity
8
1
62
256
6
ByLayer
370
18
48
1
60
1
100
AcDbLine
10
210.083343
20
-8.375
30
0
11
209.622559
21
-4.875002
31
0
39
0
210
0
220
0
230
1
0
LINE
5
11B
100
AcDbEntity
8
1
62
256
6
ByLayer
370
18
48
1
60
1
100
AcDbLine
10
209.622559
20
-4.875002
30
0
11
210.544126
21
-4.874998
31
0
39
0
210
0
220
0
230
1
0
LINE
5
11C
100
AcDbEntity
8
1
62
256
6
ByLayer
370
18
48
1
60
1
100
AcDbLine
10
210.544126
20
-4.874998
30
0
11
210.083343
21
-8.375
31
0
39
0
210
0
220
0
230
1
0
MTEXT
5
106
100
AcDbEntity
8
SK6
62
256
6
ByLayer
370
13
48
1
60
0
100
AcDbMText
10
46.729673
20
40.915328
30
0
210
0
220
0
230
1
1
\W0.7456;462.1-1675-120A1-XM X2BM
40
3.5
41
0
44
1.084337
50
0
71
7
72
5
7
iso_b_vert
0
MTEXT
5
10A
100
AcDbEntity
8
SK2
62
256
6
ByLayer
370
18
48
1
60
0
100
AcDbMText
10
-58.189796
20
22.409024
30
0
210
0
220
0
230
1
1
%%c
40
3.5
41
0
44
1.084337
50
90
71
7
72
5
7
iso_b_vert
0
MTEXT
5
10B
100
AcDbEntity
8
SK2
62
256
6
ByLayer
370
18
48
1
60
0
100
AcDbMText
10
-58.189796
20
27.63168
30
0
210
0
220
0
230
1
1
\W0.6930;18,000
40
3.5
41
0
44
1.084337
50
90
71
7
72
5
7
iso_b_vert
0
MTEXT
5
114
100
AcDbEntity
8
2
62
256
6
ByLayer
370
18
48
1
60
0
100
AcDbMText
10
208.518709
20
20.37711
30
0
210
0
220
0
230
1
1
%%c
40
3.5
41
0
44
1.084337
50
90
71
7
72
5
7
iso_b_vert
0
MTEXT
5
115
100
AcDbEntity
8
2
62
256
6
ByLayer
370
18
48
1
60
0
100
AcDbMText
10
208.518709
20
25.599766
30
0
210
0
220
0
230
1
1
\W0.6930;16,750
40
3.5
41
0
44
1.084337
50
90
71
7
72
5
7
iso_b_vert
0
HATCH
5
10F
100
AcDbEntity
8
SK2
62
256
6
ByLayer
370
13
48
1
60
0
100
AcDbHatch
10
0
20
0
30
0
210
0
220
0
230
1
2
ANSI31
70
0
71
0
91
1
92
5
93
3
72
1
10
-56.6251625675374
20
9
11
-56.1643788259847
21
5.50000169255318
72
1
10
-56.1643788259847
20
5.50000169255318
11
-57.0859463090902
21
5.49999830744682
72
1
10
-57.0859463090902
20
5.49999830744682
11
-56.6251625675374
21
9
97
0
75
0
76
1
52
0
41
0.0062
77
0
78
1
53
45
43
0
44
0
45
-0.0139193969876572
46
0.0139193969876572
79
0
47
0
98
1
10
0
20
0
0
HATCH
5
113
100
AcDbEntity
8
SK2
62
256
6
ByLayer
370
13
48
1
60
0
100
AcDbHatch
10
0
20
0
30
0
210
0
220
0
230
1
2
ANSI31
70
0
71
0
91
1
92
5
93
3
72
1
10
-56.6251625675374
20
-9
11
-57.0859463090902
21
-5.50000169255318
72
1
10
-57.0859463090902
20
-5.50000169255318
11
-56.1643788259847
21
-5.49999830744682
72
1
10
-56.1643788259847
20
-5.49999830744682
11
-56.6251625675374
21
-9
97
0
75
0
76
1
52
0
41
0.0062
77
0
78
1
53
45
43
0
44
0
45
-0.0139193969876572
46
0.0139193969876572
79
0
47
0
98
1
10
0
20
0
0
HATCH
5
119
100
AcDbEntity
8
2
62
256
6
ByLayer
370
13
48
1
60
0
100
AcDbHatch
10
0
20
0
30
0
210
0
220
0
230
1
2
ANSI31
70
0
71
0
91
1
92
5
93
3
72
1
10
210.083342615295
20
8.375
11
210.544126356848
21
4.87500169255318
72
1
10
210.544126356848
20
4.87500169255318
11
209.622558873742
21
4.87499830744682
72
1
10
209.622558873742
20
4.87499830744682
11
210.083342615295
21
8.375
97
0
75
0
76
1
52
0
41
0.0062
77
0
78
1
53
45
43
0
44
0
45
-0.0139193969876572
46
0.0139193969876572
79
0
47
0
98
1
10
0
20
0
0
HATCH
5
11D
100
AcDbEntity
8
2
62
256
6
ByLayer
370
13
48
1
60
0
100
AcDbHatch
10
0
20
0
30
0
210
0
220
0
230
1
2
ANSI31
70
0
71
0
91
1
92
5
93
3
72
1
10
210.083342615295
20
-8.375
11
209.622558873742
21
-4.87500169255318
72
1
10
209.622558873742
20
-4.87500169255318
11
210.544126356848
21
-4.87499830744682
72
1
10
210.544126356848
20
-4.87499830744682
11
210.083342615295
21
-8.375
97
0
75
0
76
1
52
0
41
0.0062
77
0
78
1
53
45
43
0
44
0
45
-0.0139193969876572
46
0.0139193969876572
79
0
47
0
98
1
10
0
20
0
0
DIMENSION
5
11F
100
AcDbEntity
8
SK2
62
256
6
ByLayer
370
13
48
1
60
0
100
AcDbDimension
2
_U0
10
195.4988
20
-18.588398
30
0
11
97.7494
21
-18.588398
31
0
70
32
71
1
72
1
41
1
210
0
220
0
230
1
3
Standard
100
AcDbAlignedDimension
13
0
23
0
33
0
14
195.4988
24
-8.375
34
0
50
0
100
AcDbRotatedDimension
1001
ACAD
1000
DSTYLE
1002
{
1070
   371
1070
    13
1070
   372
1070
    13
1070
   170
1070
     0
1070
   144
1040
1.0
1070
   277
1070
     2
1070
   278
1070
    44
1070
   146
1040
1.0
1070
   345
1005
16
1070
   347
1005
16
1070
   346
1005
16
1070
   344
1005
0
1070
   343
1005
0
1070
   172
1070
     1
1070
    76
1070
     0
1070
    75
1070
     0
1070
   282
1070
     0
1070
   281
1070
     0
1070
    71
1070
     0
1070
    74
1070
     0
1070
   279
1070
     0
1070
   173
1070
     1
1070
   340
1005
107
1070
   271
1070
     2
1070
   272
1070
     2
1070
    77
1070
     1
1070
    73
1070
     1
1070
   171
1070
     3
1070
   274
1070
     4
1070
   177
1070
    35
1070
   176
1070
    35
1070
   178
1070
    35
1070
    48
1040
-0.1
1070
    41
1040
3.5
1070
   147
1040
1.75
1070
    42
1040
1.5875
1070
    44
1040
2.0
1070
   140
1040
3.5
1002
}
1001
ACAD_DSTYLE_DIM_LINETYPE
1070
   380
1005
16
1001
ACAD_DSTYLE_DIM_EXT1_LINETYPE
1070
   381
1005
16
1001
ACAD_DSTYLE_DIM_EXT2_LINETYPE
1070
   382
1005
16
0
DIMENSION
5
138
100
AcDbEntity
8
SK2
62
256
6
ByLayer
370
13
48
1
60
0
100
AcDbDimension
2
_U1
10
198
20
-37.692985
30
0
11
75
21
-37.692985
31
0
70
32
71
1
72
1
41
1
210
0
220
0
230
1
3
Standard
100
AcDbAlignedDimension
13
-48
23
-9
33
0
14
198
24
0
34
0
50
0
100
AcDbRotatedDimension
1001
ACAD
1000
DSTYLE
1002
{
1070
   371
1070
    13
1070
   372
1070
    13
1070
   170
1070
     0
1070
   144
1040
1.0
1070
   277
1070
     2
1070
   278
1070
    44
1070
   146
1040
1.0
1070
   345
1005
16
1070
   347
1005
16
1070
   346
1005
16
1070
   344
1005
0
1070
   343
1005
0
1070
   172
1070
     1
1070
    76
1070
     0
1070
    75
1070
     0
1070
   282
1070
     0
1070
   281
1070
     0
1070
    71
1070
     0
1070
    74
1070
     0
1070
   279
1070
     0
1070
   173
1070
     1
1070
   340
1005
107
1070
   271
1070
     2
1070
   272
1070
     2
1070
    77
1070
     1
1070
    73
1070
     1
1070
   171
1070
     3
1070
   274
1070
     4
1070
   177
1070
    35
1070
   176
1070
    35
1070
   178
1070
    35
1070
    48
1040
-0.1
1070
    41
1040
3.5
1070
   147
1040
1.75
1070
    42
1040
1.5875
1070
    44
1040
2.0
1070
   140
1040
3.5
1002
}
1001
ACAD_DSTYLE_DIM_LINETYPE
1070
   380
1005
16
1001
ACAD_DSTYLE_DIM_EXT1_LINETYPE
1070
   381
1005
16
1001
ACAD_DSTYLE_DIM_EXT2_LINETYPE
1070
   382
1005
16
0
DIMENSION
5
150
100
AcDbEntity
8
SK2
62
256
6
ByLayer
370
13
48
1
60
0
100
AcDbDimension
2
_U2
10
198
20
19.984119
30
0
11
129.75
21
19.984119
31
0
70
32
71
1
72
1
41
1
210
0
220
0
230
1
3
Standard
100
AcDbAlignedDimension
13
61.5
23
8.375
33
0
14
198
24
0
34
0
50
0
100
AcDbRotatedDimension
1001
ACAD
1000
DSTYLE
1002
{
1070
   371
1070
    13
1070
   372
1070
    13
1070
   170
1070
     0
1070
   144
1040
1.0
1070
   277
1070
     2
1070
   278
1070
    44
1070
   146
1040
1.0
1070
   345
1005
16
1070
   347
1005
16
1070
   346
1005
16
1070
   344
1005
0
1070
   343
1005
0
1070
   172
1070
     1
1070
    76
1070
     0
1070
    75
1070
     0
1070
   282
1070
     0
1070
   281
1070
     0
1070
    71
1070
     0
1070
    74
1070
     0
1070
   279
1070
     0
1070
   173
1070
     1
1070
   340
1005
107
1070
   271
1070
     2
1070
   272
1070
     2
1070
    77
1070
     1
1070
    73
1070
     1
1070
   171
1070
     3
1070
   274
1070
     4
1070
   177
1070
    35
1070
   176
1070
    35
1070
   178
1070
    35
1070
    48
1040
-0.1
1070
    41
1040
3.5
1070
   147
1040
1.75
1070
    42
1040
1.5875
1070
    44
1040
2.0
1070
   140
1040
3.5
1002
}
1001
ACAD_DSTYLE_DIM_LINETYPE
1070
   380
1005
16
1001
ACAD_DSTYLE_DIM_EXT1_LINETYPE
1070
   381
1005
16
1001
ACAD_DSTYLE_DIM_EXT2_LINETYPE
1070
   382
1005
16
0
DIMENSION
5
168
100
AcDbEntity
8
SK2
62
256
6
ByLayer
370
13
48
1
60
0
100
AcDbDimension
2
_U3
10
195.4988
20
-21.177503
30
0
11
215.583333
21
-21.177503
31
0
70
32
71
1
72
1
41
1
210
0
220
0
230
1
3
Standard
100
AcDbAlignedDimension
13
198
23
0
33
0
14
195.4988
24
-8.375
34
0
50
0
100
AcDbRotatedDimension
1001
ACAD
1000
DSTYLE
1002
{
1070
   371
1070
    13
1070
   372
1070
    13
1070
   170
1070
     0
1070
   144
1040
1.0
1070
   277
1070
     2
1070
   278
1070
    44
1070
   146
1040
1.0
1070
   345
1005
16
1070
   347
1005
16
1070
   346
1005
16
1070
   344
1005
0
1070
   343
1005
0
1070
   172
1070
     1
1070
    76
1070
     0
1070
    75
1070
     0
1070
   282
1070
     0
1070
   281
1070
     0
1070
    71
1070
     0
1070
    74
1070
     0
1070
   279
1070
     0
1070
   173
1070
     1
1070
   340
1005
107
1070
   271
1070
     2
1070
   272
1070
     2
1070
    77
1070
     1
1070
    73
1070
     1
1070
   171
1070
     3
1070
   274
1070
     4
1070
   177
1070
    35
1070
   176
1070
    35
1070
   178
1070
    35
1070
    48
1040
-0.1
1070
    41
1040
3.5
1070
   147
1040
1.75
1070
    42
1040
1.5875
1070
    44
1040
2.0
1070
   140
1040
3.5
1002
}
1001
ACAD_DSTYLE_DIM_LINETYPE
1070
   380
1005
16
1001
ACAD_DSTYLE_DIM_EXT1_LINETYPE
1070
   381
1005
16
1001
ACAD_DSTYLE_DIM_EXT2_LINETYPE
1070
   382
1005
16
0
DIMENSION
5
182
100
AcDbEntity
8
SK2
62
256
6
ByLayer
370
13
48
1
60
0
100
AcDbDimension
2
_U4
10
195.4988
20
-27.343428
30
0
11
73.7494
21
-27.343428
31
0
70
32
71
1
72
1
41
1
210
0
220
0
230
1
3
Standard
100
AcDbAlignedDimension
13
-48
23
-9
33
0
14
195.4988
24
-8.375
34
0
50
0
100
AcDbRotatedDimension
1001
ACAD
1000
DSTYLE
1002
{
1070
   371
1070
    13
1070
   372
1070
    13
1070
   170
1070
     0
1070
   144
1040
1.0
1070
   277
1070
     2
1070
   278
1070
    44
1070
   146
1040
1.0
1070
   345
1005
16
1070
   347
1005
16
1070
   346
1005
16
1070
   344
1005
0
1070
   343
1005
0
1070
   172
1070
     1
1070
    76
1070
     0
1070
    75
1070
     0
1070
   282
1070
     0
1070
   281
1070
     0
1070
    71
1070
     0
1070
    74
1070
     0
1070
   279
1070
     0
1070
   173
1070
     1
1070
   340
1005
107
1070
   271
1070
     2
1070
   272
1070
     2
1070
    77
1070
     1
1070
    73
1070
     1
1070
   171
1070
     3
1070
   274
1070
     4
1070
   177
1070
    35
1070
   176
1070
    35
1070
   178
1070
    35
1070
    48
1040
-0.1
1070
    41
1040
3.5
1070
   147
1040
1.75
1070
    42
1040
1.5875
1070
    44
1040
2.0
1070
   140
1040
3.5
1002
}
1001
ACAD_DSTYLE_DIM_LINETYPE
1070
   380
1005
16
1001
ACAD_DSTYLE_DIM_EXT1_LINETYPE
1070
   381
1005
16
1001
ACAD_DSTYLE_DIM_EXT2_LINETYPE
1070
   382
1005
16
0
ENDSEC
0
SECTION
2
OBJECTS
0
DICTIONARY
5
20a
330
0
100
AcDbDictionary
280
0
281
1
3
ACAD_GROUP
350
20b
3
ACAD_MLINESTYLE
350
20c
0
DICTIONARY
5
20b
330
0
100
AcDbDictionary
280
0
281
1
0
DICTIONARY
5
20c
330
0
100
AcDbDictionary
280
0
281
1
3
Standard
350
18
0
MLINESTYLE
5
18
330
20c
100
AcDbMlineStyle
2
Standard
70
0
3

62
256
51
90
52
90
71
2
49
-0.5
62
256
6
ByLayer
49
0.5
62
256
6
ByLayer
0
RASTERVARIABLES
5
1f8
330

100
AcDbRasterVariables
90
0
70
1
71
1
72
1
0
ENDSEC
0
EOF
