0
SECTION
2
HEADER
9
$ACADVER
1
AC1015
9
$DWGCODEPAGE
3
ANSI_1252
9
$HANDSEED
5
219
9
$ANGBASE
50
0
9
$ANGDIR
70
0
9
$ATTMODE
70
1
9
$AUNITS
70
0
9
$AUPREC
70
0
9
$CECOLOR
62
256
9
$CELTSCALE
40
1
9
$CELTYPE
6
ByLayer
9
$CELWEIGHT
370
18
9
$CLAYER
8
0
9
$CMLJUST
70
0
9
$CMLSCALE
40
1
9
$CMLSTYLE
2
Standard
9
$DIMSTYLE
2
Standard
9
$TEXTSIZE
40
0.2
9
$TEXTSTYLE
7
Standard
9
$LUNITS
70
2
9
$LUPREC
70
4
9
$EXTNAMES
290
1
9
$INSUNITS
70
4
9
$LTSCALE
40
1
9
$LWDISPLAY
290
1
9
$PDMODE
70
0
9
$PDSIZE
40
0
9
$PLINEGEN
70
0
0
ENDSEC
0
SECTION
2
CLASSES
0
CLASS
1
RASTERVARIABLES
2
AcDbRasterVariables
3
ISM
90
0
280
0
281
0
0
ENDSEC
0
SECTION
2
TABLES
0
TABLE
2
VPORT
5
20f
100
AcDbSymbolTable
0
VPORT
5
1
100
AcDbSymbolTableRecord
100
AcDbViewportTableRecord
2
*Active
70
0
10
0
20
0
11
1
21
1
12
-1
22
1
13
0
23
0
14
0.5
24
0.5
15
10
25
10
16
0
26
0
36
1
17
0
27
0
37
0
0
ENDTAB
0
TABLE
2
LTYPE
5
210
100
AcDbSymbolTable
0
LTYPE
5
14
100
AcDbSymbolTableRecord
100
AcDbLinetypeTableRecord
70
0
2
ByBlock
3

72
65
73
0
40
0
0
LTYPE
5
15
100
AcDbSymbolTableRecord
100
AcDbLinetypeTableRecord
70
0
2
ByLayer
3

72
65
73
0
40
0
0
LTYPE
5
16
100
AcDbSymbolTableRecord
100
AcDbLinetypeTableRecord
70
0
2
Continuous
3
Solid line
72
65
73
0
40
0
0
LTYPE
5
6E
100
AcDbSymbolTableRecord
100
AcDbLinetypeTableRecord
70
0
2
CENTER
3
____ _ ____ _ ____ _ ____
72
65
73
4
40
47.5
49
22
74
0
49
-8.5
74
0
49
8.5
74
0
49
-8.5
74
0
0
LTYPE
5
6F
100
AcDbSymbolTableRecord
100
AcDbLinetypeTableRecord
70
0
2
DASHED
3
__ __ __ __ __ __ __ __ __
72
65
73
2
40
25.72
49
12.86
74
0
49
-12.86
74
0
0
ENDTAB
0
TABLE
2
LAYER
5
211
100
AcDbSymbolTable
0
LAYER
5
10
100
AcDbSymbolTableRecord
100
AcDbLayerTableRecord
2
0
70
0
62
7
6
Continuous
290
1
370
-3
390
0
0
LAYER
5
71
100
AcDbSymbolTableRecord
100
AcDbLayerTableRecord
2
80
70
0
62
-6
6
Continuous
290
1
370
-3
390
0
0
LAYER
5
73
100
AcDbSymbolTableRecord
100
AcDbLayerTableRecord
2
81
70
0
62
-3
6
Continuous
290
1
370
-3
390
0
0
LAYER
5
75
100
AcDbSymbolTableRecord
100
AcDbLayerTableRecord
2
1
70
0
62
4
6
Continuous
290
1
370
-3
390
0
0
LAYER
5
8C
100
AcDbSymbolTableRecord
100
AcDbLayerTableRecord
2
4
70
0
62
-2
6
CENTER
290
1
370
-3
390
0
0
LAYER
5
A9
100
AcDbSymbolTableRecord
100
AcDbLayerTableRecord
2
2
70
0
62
7
6
Continuous
290
1
370
-3
390
0
0
LAYER
5
124
100
AcDbSymbolTableRecord
100
AcDbLayerTableRecord
2
Defpoints
70
0
62
7
6
Continuous
290
0
370
-3
390
0
0
LAYER
5
1fb
100
AcDbSymbolTableRecord
100
AcDbLayerTableRecord
2
SK1
70
0
62
4
6
Continuous
290
1
370
-3
390
0
0
LAYER
5
1fc
100
AcDbSymbolTableRecord
100
AcDbLayerTableRecord
2
SK4
70
0
62
2
6
CENTER
290
1
370
-3
390
0
0
LAYER
5
1fd
100
AcDbSymbolTableRecord
100
AcDbLayerTableRecord
2
SK2
70
0
62
7
6
Continuous
290
1
370
-3
390
0
0
LAYER
5
1fe
100
AcDbSymbolTableRecord
100
AcDbLayerTableRecord
2
SK6
70
0
62
5
6
Continuous
290
1
370
-3
390
0
0
ENDTAB
0
TABLE
2
STYLE
5
212
100
AcDbSymbolTable
0
STYLE
5
11
100
AcDbSymbolTableRecord
100
AcDbTextStyleTableRecord
2
Standard
3
txt
70
0
71
0
40
0
41
1
42
0
50
0
0
STYLE
5
109
100
AcDbSymbolTableRecord
100
AcDbTextStyleTableRecord
2
iso_b_vert
3
simplex.shx
70
0
71
0
40
0
41
1
42
0
50
0
0
STYLE
5
10A
100
AcDbSymbolTableRecord
100
AcDbTextStyleTableRecord
2
DWGDirectTextStyle
3
simplex
70
0
71
0
40
0
41
1
42
0
50
0
0
ENDTAB
0
TABLE
2
DIMSTYLE
5
213
100
AcDbSymbolTable
100
AcDbDimStyleTable
0
DIMSTYLE
105
27
100
AcDbSymbolTableRecord
100
AcDbDimStyleTableRecord
2
Standard
70
0
3
<>
41
0.18
42
0.0625
44
0.18
140
0.18
147
0.09
73
0
74
0
77
1
271
2
275
0
278
52
280
0
340
11
0
ENDTAB
0
TABLE
2
VIEW
5
214
100
AcDbSymbolTable
0
ENDTAB
0
TABLE
2
UCS
5
215
100
AcDbSymbolTable
0
ENDTAB
0
TABLE
2
APPID
5
216
100
AcDbSymbolTable
0
APPID
5
12
100
AcDbSymbolTableRecord
100
AcDbRegAppTableRecord
2
ACAD
70
0
0
APPID
5
120
100
AcDbSymbolTableRecord
100
AcDbRegAppTableRecord
2
ACAD_DSTYLE_DIMBREAK
70
0
0
APPID
5
1BA
100
AcDbSymbolTableRecord
100
AcDbRegAppTableRecord
2
ACAD_DSTYLE_DIM_LINETYPE
70
0
0
APPID
5
1BB
100
AcDbSymbolTableRecord
100
AcDbRegAppTableRecord
2
ACAD_DSTYLE_DIM_EXT1_LINETYPE
70
0
0
APPID
5
1BC
100
AcDbSymbolTableRecord
100
AcDbRegAppTableRecord
2
ACAD_DSTYLE_DIM_EXT2_LINETYPE
70
0
0
APPID
5
1F7
100
AcDbSymbolTableRecord
100
AcDbRegAppTableRecord
2
ACAD_MLEADERVER
70
0
0
ENDTAB
0
TABLE
2
BLOCK_RECORD
5
217
100
AcDbSymbolTable
0
BLOCK_RECORD
5
1F
100
AcDbSymbolTableRecord
100
AcDbBlockTableRecord
2
*Model_Space
340
0
70
0
0
BLOCK_RECORD
5
1B
100
AcDbSymbolTableRecord
100
AcDbBlockTableRecord
2
*Paper_Space
340
0
70
0
0
BLOCK_RECORD
5
23
100
AcDbSymbolTableRecord
100
AcDbBlockTableRecord
2
*Paper_Space0
340
0
70
0
0
BLOCK_RECORD
5
125
100
AcDbSymbolTableRecord
100
AcDbBlockTableRecord
2
*D1
340
0
70
0
0
BLOCK_RECORD
5
131
100
AcDbSymbolTableRecord
100
AcDbBlockTableRecord
2
_U0
340
0
70
0
0
BLOCK_RECORD
5
13D
100
AcDbSymbolTableRecord
100
AcDbBlockTableRecord
2
*D3
340
0
70
0
0
BLOCK_RECORD
5
149
100
AcDbSymbolTableRecord
100
AcDbBlockTableRecord
2
_U1
340
0
70
0
0
BLOCK_RECORD
5
155
100
AcDbSymbolTableRecord
100
AcDbBlockTableRecord
2
*D5
340
0
70
0
0
BLOCK_RECORD
5
161
100
AcDbSymbolTableRecord
100
AcDbBlockTableRecord
2
_U2
340
0
70
0
0
BLOCK_RECORD
5
16D
100
AcDbSymbolTableRecord
100
AcDbBlockTableRecord
2
*D7
340
0
70
0
0
BLOCK_RECORD
5
17B
100
AcDbSymbolTableRecord
100
AcDbBlockTableRecord
2
_U3
340
0
70
0
0
BLOCK_RECORD
5
187
100
AcDbSymbolTableRecord
100
AcDbBlockTableRecord
2
*D9
340
0
70
0
0
BLOCK_RECORD
5
193
100
AcDbSymbolTableRecord
100
AcDbBlockTableRecord
2
_U4
340
0
70
0
0
ENDTAB
0
ENDSEC
0
SECTION
2
BLOCKS
0
BLOCK
5
20
100
AcDbEntity
8
0
100
AcDbBlockBegin
2
*Model_Space
70
0
10
0
20
0
30
0
3
*Model_Space
0
ENDBLK
5
21
100
AcDbEntity
8
0
100
AcDbBlockEnd
0
BLOCK
5
1C
100
AcDbEntity
8
0
100
AcDbBlockBegin
2
*Paper_Space
70
0
10
0
20
0
30
0
3
*Paper_Space
0
ENDBLK
5
1D
100
AcDbEntity
8
0
100
AcDbBlockEnd
0
BLOCK
5
24
100
AcDbEntity
8
0
100
AcDbBlockBegin
2
*Paper_Space0
70
0
10
0
20
0
30
0
3
*Paper_Space0
0
ENDBLK
5
25
100
AcDbEntity
8
0
100
AcDbBlockEnd
0
BLOCK
5
126
100
AcDbEntity
8
0
100
AcDbBlockBegin
2
*D1
70
1
10
0
20
0
30
0
3
*D1
0
LINE
5
128
100
AcDbEntity
8
0
62
256
6
ByLayer
370
-2
48
1
60
0
100
AcDbLine
10
0
20
-1.5875
30
0
11
0
21
-21.613398
31
0
39
0
210
0
220
0
230
1
0
LINE
5
129
100
AcDbEntity
8
0
62
256
6
ByLayer
370
-2
48
1
60
0
100
AcDbLine
10
216.1898
20
-10.9875
30
0
11
216.1898
21
-21.613398
31
0
39
0
210
0
220
0
230
1
0
LINE
5
12A
100
AcDbEntity
8
0
62
256
6
ByLayer
370
-2
48
1
60
0
100
AcDbLine
10
3.5
20
-19.613398
30
0
11
212.6898
21
-19.613398
31
0
39
0
210
0
220
0
230
1
0
SOLID
5
12B
100
AcDbEntity
8
0
62
256
6
ByLayer
370
-1
48
1
60
0
100
AcDbTrace
10
3.5
20
-19.030065
30
0
11
3.5
21
-20.196732
31
0
12
0
22
-19.613398
32
0
13
0
23
-19.613398
33
0
39
0
210
0
220
0
230
1
0
SOLID
5
12C
100
AcDbEntity
8
0
62
256
6
ByLayer
370
-1
48
1
60
0
100
AcDbTrace
10
212.6898
20
-20.196732
30
0
11
212.6898
21
-19.030065
31
0
12
216.1898
22
-19.613398
32
0
13
216.1898
23
-19.613398
33
0
39
0
210
0
220
0
230
1
0
MTEXT
5
12D
100
AcDbEntity
8
0
62
256
6
ByLayer
370
18
48
1
60
0
100
AcDbMText
10
108.0949
20
-12.613398
30
0
210
0
220
0
230
1
1
\A1;216.19
40
3.5
41
0
44
1
50
0
71
5
72
5
7
iso_b_vert
0
POINT
5
12E
100
AcDbEntity
8
Defpoints
62
0
6
ByLayer
370
-1
48
1
60
0
100
AcDbPoint
10
0
20
0
30
0
39
0
210
0
220
0
230
1
50
360
0
POINT
5
12F
100
AcDbEntity
8
Defpoints
62
0
6
ByLayer
370
-1
48
1
60
0
100
AcDbPoint
10
216.1898
20
-9.4
30
0
39
0
210
0
220
0
230
1
50
360
0
POINT
5
130
100
AcDbEntity
8
Defpoints
62
0
6
ByLayer
370
-1
48
1
60
0
100
AcDbPoint
10
216.1898
20
-19.613398
30
0
39
0
210
0
220
0
230
1
50
360
0
ENDBLK
5
127
100
AcDbEntity
8
0
100
AcDbBlockEnd
0
BLOCK
5
138
100
AcDbEntity
8
0
100
AcDbBlockBegin
2
_U0
70
0
10
0
20
0
30
0
3
_U0
0
MTEXT
5
132
100
AcDbEntity
8
SK2
62
256
6
ByLayer
370
13
48
1
60
0
100
AcDbMText
10
102.524735
20
-18.580765
30
0
210
0
220
0
230
1
1
\W0.6501;216,19
40
3.5
41
0
44
1.084337
50
0
71
7
72
5
7
iso_b_vert
0
LINE
5
133
100
AcDbEntity
8
SK2
62
256
6
ByLayer
370
13
48
1
60
0
100
AcDbLine
10
0
20
-1.5875
30
0
11
0
21
-21.613398
31
0
39
0
210
0
220
0
230
1
0
LINE
5
134
100
AcDbEntity
8
SK2
62
256
6
ByLayer
370
13
48
1
60
0
100
AcDbLine
10
216.1898
20
-10.9875
30
0
11
216.1898
21
-21.613398
31
0
39
0
210
0
220
0
230
1
0
LINE
5
135
100
AcDbEntity
8
SK2
62
256
6
ByLayer
370
13
48
1
60
0
100
AcDbLine
10
0
20
-19.613398
30
0
11
216.1898
21
-19.613398
31
0
39
0
210
0
220
0
230
1
0
SOLID
5
136
100
AcDbEntity
8
SK2
62
256
6
ByLayer
370
18
48
1
60
0
100
AcDbTrace
10
0
20
-19.613398
30
0
11
3.499998
21
-19.152615
31
0
12
3.500002
22
-20.074182
32
0
13
3.500002
23
-20.074182
33
0
39
0
210
0
220
0
230
1
0
SOLID
5
137
100
AcDbEntity
8
SK2
62
256
6
ByLayer
370
18
48
1
60
0
100
AcDbTrace
10
216.1898
20
-19.613398
30
0
11
212.689802
21
-20.074182
31
0
12
212.689798
22
-19.152615
32
0
13
212.689798
23
-19.152615
33
0
39
0
210
0
220
0
230
1
0
ENDBLK
5
139
100
AcDbEntity
8
0
100
AcDbBlockEnd
0
BLOCK
5
13E
100
AcDbEntity
8
0
100
AcDbBlockBegin
2
*D3
70
1
10
0
20
0
30
0
3
*D3
0
LINE
5
140
100
AcDbEntity
8
0
62
256
6
ByLayer
370
-2
48
1
60
0
100
AcDbLine
10
-50
20
-11.5875
30
0
11
-50
21
-40.692985
31
0
39
0
210
0
220
0
230
1
0
LINE
5
141
100
AcDbEntity
8
0
62
256
6
ByLayer
370
-2
48
1
60
0
100
AcDbLine
10
219
20
-1.5875
30
0
11
219
21
-40.692985
31
0
39
0
210
0
220
0
230
1
0
LINE
5
142
100
AcDbEntity
8
0
62
256
6
ByLayer
370
-2
48
1
60
0
100
AcDbLine
10
-46.5
20
-38.692985
30
0
11
215.5
21
-38.692985
31
0
39
0
210
0
220
0
230
1
0
SOLID
5
143
100
AcDbEntity
8
0
62
256
6
ByLayer
370
-1
48
1
60
0
100
AcDbTrace
10
-46.5
20
-38.109652
30
0
11
-46.5
21
-39.276319
31
0
12
-50
22
-38.692985
32
0
13
-50
23
-38.692985
33
0
39
0
210
0
220
0
230
1
0
SOLID
5
144
100
AcDbEntity
8
0
62
256
6
ByLayer
370
-1
48
1
60
0
100
AcDbTrace
10
215.5
20
-39.276319
30
0
11
215.5
21
-38.109652
31
0
12
219
22
-38.692985
32
0
13
219
23
-38.692985
33
0
39
0
210
0
220
0
230
1
0
MTEXT
5
145
100
AcDbEntity
8
0
62
256
6
ByLayer
370
18
48
1
60
0
100
AcDbMText
10
84.5
20
-31.692985
30
0
210
0
220
0
230
1
1
\A1;269.00
40
3.5
41
0
44
1
50
0
71
5
72
5
7
iso_b_vert
0
POINT
5
146
100
AcDbEntity
8
Defpoints
62
0
6
ByLayer
370
-1
48
1
60
0
100
AcDbPoint
10
-50
20
-10
30
0
39
0
210
0
220
0
230
1
50
360
0
POINT
5
147
100
AcDbEntity
8
Defpoints
62
0
6
ByLayer
370
-1
48
1
60
0
100
AcDbPoint
10
219
20
0
30
0
39
0
210
0
220
0
230
1
50
360
0
POINT
5
148
100
AcDbEntity
8
Defpoints
62
0
6
ByLayer
370
-1
48
1
60
0
100
AcDbPoint
10
219
20
-38.692985
30
0
39
0
210
0
220
0
230
1
50
360
0
ENDBLK
5
13F
100
AcDbEntity
8
0
100
AcDbBlockEnd
0
BLOCK
5
150
100
AcDbEntity
8
0
100
AcDbBlockBegin
2
_U1
70
0
10
0
20
0
30
0
3
_U1
0
MTEXT
5
14A
100
AcDbEntity
8
SK2
62
256
6
ByLayer
370
13
48
1
60
0
100
AcDbMText
10
78.054968
20
-37.660352
30
0
210
0
220
0
230
1
1
\W0.7421;269,00
40
3.5
41
0
44
1.084337
50
0
71
7
72
5
7
iso_b_vert
0
LINE
5
14B
100
AcDbEntity
8
SK2
62
256
6
ByLayer
370
13
48
1
60
0
100
AcDbLine
10
-50
20
-11.5875
30
0
11
-50
21
-40.692985
31
0
39
0
210
0
220
0
230
1
0
LINE
5
14C
100
AcDbEntity
8
SK2
62
256
6
ByLayer
370
13
48
1
60
0
100
AcDbLine
10
219
20
-1.5875
30
0
11
219
21
-40.692985
31
0
39
0
210
0
220
0
230
1
0
LINE
5
14D
100
AcDbEntity
8
SK2
62
256
6
ByLayer
370
13
48
1
60
0
100
AcDbLine
10
-50
20
-38.692985
30
0
11
219
21
-38.692985
31
0
39
0
210
0
220
0
230
1
0
SOLID
5
14E
100
AcDbEntity
8
SK2
62
256
6
ByLayer
370
18
48
1
60
0
100
AcDbTrace
10
-50
20
-38.692985
30
0
11
-46.500002
21
-38.232202
31
0
12
-46.499998
22
-39.153769
32
0
13
-46.499998
23
-39.153769
33
0
39
0
210
0
220
0
230
1
0
SOLID
5
14F
100
AcDbEntity
8
SK2
62
256
6
ByLayer
370
18
48
1
60
0
100
AcDbTrace
10
219
20
-38.692985
30
0
11
215.500002
21
-39.153769
31
0
12
215.499998
22
-38.232202
32
0
13
215.499998
23
-38.232202
33
0
39
0
210
0
220
0
230
1
0
ENDBLK
5
151
100
AcDbEntity
8
0
100
AcDbBlockEnd
0
BLOCK
5
156
100
AcDbEntity
8
0
100
AcDbBlockBegin
2
*D5
70
1
10
0
20
0
30
0
3
*D5
0
LINE
5
158
100
AcDbEntity
8
0
62
256
6
ByLayer
370
-2
48
1
60
0
100
AcDbLine
10
65.79
20
10.9875
30
0
11
65.79
21
23.009119
31
0
39
0
210
0
220
0
230
1
0
LINE
5
159
100
AcDbEntity
8
0
62
256
6
ByLayer
370
-2
48
1
60
0
100
AcDbLine
10
219
20
1.5875
30
0
11
219
21
23.009119
31
0
39
0
210
0
220
0
230
1
0
LINE
5
15A
100
AcDbEntity
8
0
62
256
6
ByLayer
370
-2
48
1
60
0
100
AcDbLine
10
69.29
20
21.009119
30
0
11
215.5
21
21.009119
31
0
39
0
210
0
220
0
230
1
0
SOLID
5
15B
100
AcDbEntity
8
0
62
256
6
ByLayer
370
-1
48
1
60
0
100
AcDbTrace
10
69.29
20
21.592453
30
0
11
69.29
21
20.425786
31
0
12
65.79
22
21.009119
32
0
13
65.79
23
21.009119
33
0
39
0
210
0
220
0
230
1
0
SOLID
5
15C
100
AcDbEntity
8
0
62
256
6
ByLayer
370
-1
48
1
60
0
100
AcDbTrace
10
215.5
20
20.425786
30
0
11
215.5
21
21.592453
31
0
12
219
22
21.009119
32
0
13
219
23
21.009119
33
0
39
0
210
0
220
0
230
1
0
MTEXT
5
15D
100
AcDbEntity
8
0
62
256
6
ByLayer
370
18
48
1
60
0
100
AcDbMText
10
142.395
20
28.009119
30
0
210
0
220
0
230
1
1
\A1;153.21
40
3.5
41
0
44
1
50
0
71
5
72
5
7
iso_b_vert
0
POINT
5
15E
100
AcDbEntity
8
Defpoints
62
0
6
ByLayer
370
-1
48
1
60
0
100
AcDbPoint
10
65.79
20
9.4
30
0
39
0
210
0
220
0
230
1
50
360
0
POINT
5
15F
100
AcDbEntity
8
Defpoints
62
0
6
ByLayer
370
-1
48
1
60
0
100
AcDbPoint
10
219
20
0
30
0
39
0
210
0
220
0
230
1
50
360
0
POINT
5
160
100
AcDbEntity
8
Defpoints
62
0
6
ByLayer
370
-1
48
1
60
0
100
AcDbPoint
10
219
20
21.009119
30
0
39
0
210
0
220
0
230
1
50
360
0
ENDBLK
5
157
100
AcDbEntity
8
0
100
AcDbBlockEnd
0
BLOCK
5
168
100
AcDbEntity
8
0
100
AcDbBlockBegin
2
_U2
70
0
10
0
20
0
30
0
3
_U2
0
MTEXT
5
162
100
AcDbEntity
8
SK2
62
256
6
ByLayer
370
13
48
1
60
0
100
AcDbMText
10
136.824835
20
22.041753
30
0
210
0
220
0
230
1
1
\W0.6822;153,21
40
3.5
41
0
44
1.084337
50
0
71
7
72
5
7
iso_b_vert
0
LINE
5
163
100
AcDbEntity
8
SK2
62
256
6
ByLayer
370
13
48
1
60
0
100
AcDbLine
10
65.79
20
10.9875
30
0
11
65.79
21
23.009119
31
0
39
0
210
0
220
0
230
1
0
LINE
5
164
100
AcDbEntity
8
SK2
62
256
6
ByLayer
370
13
48
1
60
0
100
AcDbLine
10
219
20
1.5875
30
0
11
219
21
23.009119
31
0
39
0
210
0
220
0
230
1
0
LINE
5
165
100
AcDbEntity
8
SK2
62
256
6
ByLayer
370
13
48
1
60
0
100
AcDbLine
10
65.79
20
21.009119
30
0
11
219
21
21.009119
31
0
39
0
210
0
220
0
230
1
0
SOLID
5
166
100
AcDbEntity
8
SK2
62
256
6
ByLayer
370
18
48
1
60
0
100
AcDbTrace
10
65.79
20
21.009119
30
0
11
69.289998
21
21.469903
31
0
12
69.290002
22
20.548335
32
0
13
69.290002
23
20.548335
33
0
39
0
210
0
220
0
230
1
0
SOLID
5
167
100
AcDbEntity
8
SK2
62
256
6
ByLayer
370
18
48
1
60
0
100
AcDbTrace
10
219
20
21.009119
30
0
11
215.500002
21
20.548335
31
0
12
215.499998
22
21.469903
32
0
13
215.499998
23
21.469903
33
0
39
0
210
0
220
0
230
1
0
ENDBLK
5
169
100
AcDbEntity
8
0
100
AcDbBlockEnd
0
BLOCK
5
16E
100
AcDbEntity
8
0
100
AcDbBlockBegin
2
*D7
70
1
10
0
20
0
30
0
3
*D7
0
LINE
5
170
100
AcDbEntity
8
0
62
256
6
ByLayer
370
-2
48
1
60
0
100
AcDbLine
10
219
20
-1.5875
30
0
11
219
21
-24.202503
31
0
39
0
210
0
220
0
230
1
0
LINE
5
171
100
AcDbEntity
8
0
62
256
6
ByLayer
370
-2
48
1
60
0
100
AcDbLine
10
216.1898
20
-10.9875
30
0
11
216.1898
21
-24.202503
31
0
39
0
210
0
220
0
230
1
0
LINE
5
172
100
AcDbEntity
8
0
62
256
6
ByLayer
370
-2
48
1
60
0
100
AcDbLine
10
219
20
-22.202503
30
0
11
246.166667
21
-22.202503
31
0
39
0
210
0
220
0
230
1
0
LINE
5
173
100
AcDbEntity
8
0
62
256
6
ByLayer
370
-2
48
1
60
0
100
AcDbLine
10
222.5
20
-22.202503
30
0
11
226
21
-22.202503
31
0
39
0
210
0
220
0
230
1
0
LINE
5
174
100
AcDbEntity
8
0
62
256
6
ByLayer
370
-2
48
1
60
0
100
AcDbLine
10
212.6898
20
-22.202503
30
0
11
209.1898
21
-22.202503
31
0
39
0
210
0
220
0
230
1
0
SOLID
5
175
100
AcDbEntity
8
0
62
256
6
ByLayer
370
-1
48
1
60
0
100
AcDbTrace
10
222.5
20
-21.61917
30
0
11
222.5
21
-22.785837
31
0
12
219
22
-22.202503
32
0
13
219
23
-22.202503
33
0
39
0
210
0
220
0
230
1
0
SOLID
5
176
100
AcDbEntity
8
0
62
256
6
ByLayer
370
-1
48
1
60
0
100
AcDbTrace
10
212.6898
20
-22.785837
30
0
11
212.6898
21
-21.61917
31
0
12
216.1898
22
-22.202503
32
0
13
216.1898
23
-22.202503
33
0
39
0
210
0
220
0
230
1
0
MTEXT
5
177
100
AcDbEntity
8
0
62
256
6
ByLayer
370
18
48
1
60
0
100
AcDbMText
10
236.083333
20
-15.202503
30
0
210
0
220
0
230
1
1
\A1;2.81
40
3.5
41
0
44
1
50
0
71
5
72
5
7
iso_b_vert
0
POINT
5
178
100
AcDbEntity
8
Defpoints
62
0
6
ByLayer
370
-1
48
1
60
0
100
AcDbPoint
10
219
20
0
30
0
39
0
210
0
220
0
230
1
50
360
0
POINT
5
179
100
AcDbEntity
8
Defpoints
62
0
6
ByLayer
370
-1
48
1
60
0
100
AcDbPoint
10
216.1898
20
-9.4
30
0
39
0
210
0
220
0
230
1
50
360
0
POINT
5
17A
100
AcDbEntity
8
Defpoints
62
0
6
ByLayer
370
-1
48
1
60
0
100
AcDbPoint
10
216.1898
20
-22.202503
30
0
39
0
210
0
220
0
230
1
50
360
0
ENDBLK
5
16F
100
AcDbEntity
8
0
100
AcDbBlockEnd
0
BLOCK
5
182
100
AcDbEntity
8
0
100
AcDbBlockBegin
2
_U3
70
0
10
0
20
0
30
0
3
_U3
0
MTEXT
5
17C
100
AcDbEntity
8
SK2
62
256
6
ByLayer
370
13
48
1
60
0
100
AcDbMText
10
225.589293
20
-21.16987
30
0
210
0
220
0
230
1
1
\W0.6993;2,81
40
3.5
41
0
44
1.084337
50
0
71
7
72
5
7
iso_b_vert
0
LINE
5
17D
100
AcDbEntity
8
SK2
62
256
6
ByLayer
370
13
48
1
60
0
100
AcDbLine
10
219
20
-1.5875
30
0
11
219
21
-24.202503
31
0
39
0
210
0
220
0
230
1
0
LINE
5
17E
100
AcDbEntity
8
SK2
62
256
6
ByLayer
370
13
48
1
60
0
100
AcDbLine
10
216.1898
20
-10.9875
30
0
11
216.1898
21
-24.202503
31
0
39
0
210
0
220
0
230
1
0
LINE
5
17F
100
AcDbEntity
8
SK2
62
256
6
ByLayer
370
13
48
1
60
0
100
AcDbLine
10
207.4398
20
-22.202503
30
0
11
232.559058
21
-22.202503
31
0
39
0
210
0
220
0
230
1
0
SOLID
5
180
100
AcDbEntity
8
SK2
62
256
6
ByLayer
370
18
48
1
60
0
100
AcDbTrace
10
219
20
-22.202503
30
0
11
222.499998
21
-21.741719
31
0
12
222.500002
22
-22.663287
32
0
13
222.500002
23
-22.663287
33
0
39
0
210
0
220
0
230
1
0
SOLID
5
181
100
AcDbEntity
8
SK2
62
256
6
ByLayer
370
18
48
1
60
0
100
AcDbTrace
10
216.1898
20
-22.202503
30
0
11
212.689802
21
-22.663287
31
0
12
212.689798
22
-21.741719
32
0
13
212.689798
23
-21.741719
33
0
39
0
210
0
220
0
230
1
0
ENDBLK
5
183
100
AcDbEntity
8
0
100
AcDbBlockEnd
0
BLOCK
5
188
100
AcDbEntity
8
0
100
AcDbBlockBegin
2
*D9
70
1
10
0
20
0
30
0
3
*D9
0
LINE
5
18A
100
AcDbEntity
8
0
62
256
6
ByLayer
370
-2
48
1
60
0
100
AcDbLine
10
-50
20
-11.5875
30
0
11
-50
21
-30.343428
31
0
39
0
210
0
220
0
230
1
0
LINE
5
18B
100
AcDbEntity
8
0
62
256
6
ByLayer
370
-2
48
1
60
0
100
AcDbLine
10
216.1898
20
-10.9875
30
0
11
216.1898
21
-30.343428
31
0
39
0
210
0
220
0
230
1
0
LINE
5
18C
100
AcDbEntity
8
0
62
256
6
ByLayer
370
-2
48
1
60
0
100
AcDbLine
10
-46.5
20
-28.343428
30
0
11
212.6898
21
-28.343428
31
0
39
0
210
0
220
0
230
1
0
SOLID
5
18D
100
AcDbEntity
8
0
62
256
6
ByLayer
370
-1
48
1
60
0
100
AcDbTrace
10
-46.5
20
-27.760095
30
0
11
-46.5
21
-28.926762
31
0
12
-50
22
-28.343428
32
0
13
-50
23
-28.343428
33
0
39
0
210
0
220
0
230
1
0
SOLID
5
18E
100
AcDbEntity
8
0
62
256
6
ByLayer
370
-1
48
1
60
0
100
AcDbTrace
10
212.6898
20
-28.926762
30
0
11
212.6898
21
-27.760095
31
0
12
216.1898
22
-28.343428
32
0
13
216.1898
23
-28.343428
33
0
39
0
210
0
220
0
230
1
0
MTEXT
5
18F
100
AcDbEntity
8
0
62
256
6
ByLayer
370
18
48
1
60
0
100
AcDbMText
10
83.0949
20
-21.343428
30
0
210
0
220
0
230
1
1
\A1;266.19
40
3.5
41
0
44
1
50
0
71
5
72
5
7
iso_b_vert
0
POINT
5
190
100
AcDbEntity
8
Defpoints
62
0
6
ByLayer
370
-1
48
1
60
0
100
AcDbPoint
10
-50
20
-10
30
0
39
0
210
0
220
0
230
1
50
360
0
POINT
5
191
100
AcDbEntity
8
Defpoints
62
0
6
ByLayer
370
-1
48
1
60
0
100
AcDbPoint
10
216.1898
20
-9.4
30
0
39
0
210
0
220
0
230
1
50
360
0
POINT
5
192
100
AcDbEntity
8
Defpoints
62
0
6
ByLayer
370
-1
48
1
60
0
100
AcDbPoint
10
216.1898
20
-28.343428
30
0
39
0
210
0
220
0
230
1
50
360
0
ENDBLK
5
189
100
AcDbEntity
8
0
100
AcDbBlockEnd
0
BLOCK
5
19A
100
AcDbEntity
8
0
100
AcDbBlockBegin
2
_U4
70
0
10
0
20
0
30
0
3
_U4
0
MTEXT
5
194
100
AcDbEntity
8
SK2
62
256
6
ByLayer
370
13
48
1
60
0
100
AcDbMText
10
77.087301
20
-27.310795
30
0
210
0
220
0
230
1
1
\W0.6996;266,19
40
3.5
41
0
44
1.084337
50
0
71
7
72
5
7
iso_b_vert
0
LINE
5
195
100
AcDbEntity
8
SK2
62
256
6
ByLayer
370
13
48
1
60
0
100
AcDbLine
10
-50
20
-11.5875
30
0
11
-50
21
-30.343428
31
0
39
0
210
0
220
0
230
1
0
LINE
5
196
100
AcDbEntity
8
SK2
62
256
6
ByLayer
370
13
48
1
60
0
100
AcDbLine
10
216.1898
20
-10.9875
30
0
11
216.1898
21
-30.343428
31
0
39
0
210
0
220
0
230
1
0
LINE
5
197
100
AcDbEntity
8
SK2
62
256
6
ByLayer
370
13
48
1
60
0
100
AcDbLine
10
-50
20
-28.343428
30
0
11
216.1898
21
-28.343428
31
0
39
0
210
0
220
0
230
1
0
SOLID
5
198
100
AcDbEntity
8
SK2
62
256
6
ByLayer
370
18
48
1
60
0
100
AcDbTrace
10
-50
20
-28.343428
30
0
11
-46.500002
21
-27.882645
31
0
12
-46.499998
22
-28.804212
32
0
13
-46.499998
23
-28.804212
33
0
39
0
210
0
220
0
230
1
0
SOLID
5
199
100
AcDbEntity
8
SK2
62
256
6
ByLayer
370
18
48
1
60
0
100
AcDbTrace
10
216.1898
20
-28.343428
30
0
11
212.689802
21
-28.804212
31
0
12
212.689798
22
-27.882645
32
0
13
212.689798
23
-27.882645
33
0
39
0
210
0
220
0
230
1
0
ENDBLK
5
19B
100
AcDbEntity
8
0
100
AcDbBlockEnd
0
ENDSEC
0
SECTION
2
ENTITIES
0
ARC
5
B2
100
AcDbEntity
8
1
62
256
6
ByLayer
370
18
48
1
60
0
100
AcDbCircle
39
0
10
1.345474
20
-10.065852
30
0
40
0.800000000000002
210
0
220
0
230
1
100
AcDbArc
50
89.96419
51
147.237537
0
ARC
5
B3
100
AcDbEntity
8
1
62
256
6
ByLayer
370
18
48
1
60
0
100
AcDbCircle
39
0
10
1.345474
20
10.065852
30
0
40
0.800000000000002
210
0
220
0
230
1
100
AcDbArc
50
212.762463
51
270.03581
0
ARC
5
B4
100
AcDbEntity
8
1
62
256
6
ByLayer
370
18
48
1
60
0
100
AcDbCircle
39
0
10
0
20
-9.2
30
0
40
0.800000000000002
210
0
220
0
230
1
100
AcDbArc
50
270
51
327.237537
0
ARC
5
B5
100
AcDbEntity
8
1
62
256
6
ByLayer
370
18
48
1
60
0
100
AcDbCircle
39
0
10
0
20
9.2
30
0
40
0.800000000000002
210
0
220
0
230
1
100
AcDbArc
50
32.762463
51
90
0
ELLIPSE
5
B6
100
AcDbEntity
8
1
62
256
6
ByLayer
370
18
48
1
60
0
100
AcDbEllipse
10
6.25
20
9.001932
30
0
11
0.25
21
0
31
0
210
0
220
0
230
1
40
0.999998
41
-3.10026175746094
42
-1.56377948584667
0
ELLIPSE
5
B7
100
AcDbEntity
8
1
62
256
6
ByLayer
370
18
48
1
60
0
100
AcDbEllipse
10
6.25
20
-9.001932
30
0
11
0.25
21
0
31
0
210
0
220
0
230
1
40
0.999998
41
1.57627032363207
42
3.10026175746058
0
POINT
5
70
100
AcDbEntity
8
80
62
256
6
ByLayer
370
18
48
1
60
0
100
AcDbPoint
10
0
20
0
30
0
39
0
210
0
220
0
230
1
50
360
0
POINT
5
72
100
AcDbEntity
8
81
62
256
6
ByLayer
370
18
48
1
60
0
100
AcDbPoint
10
219
20
0
30
0
39
0
210
0
220
0
230
1
50
360
0
POINT
5
74
100
AcDbEntity
8
1
62
256
6
ByLayer
370
18
48
1
60
1
100
AcDbPoint
10
216.1898
20
-9.4
30
0
39
0
210
0
220
0
230
1
50
360
0
POINT
5
76
100
AcDbEntity
8
1
62
256
6
ByLayer
370
18
48
1
60
1
100
AcDbPoint
10
-50
20
-10
30
0
39
0
210
0
220
0
230
1
50
360
0
POINT
5
77
100
AcDbEntity
8
1
62
256
6
ByLayer
370
18
48
1
60
1
100
AcDbPoint
10
65.79
20
9.4
30
0
39
0
210
0
220
0
230
1
50
360
0
POINT
5
78
100
AcDbEntity
8
1
62
256
6
ByLayer
370
18
48
1
60
1
100
AcDbPoint
10
216.1898
20
-9.4
30
0
39
0
210
0
220
0
230
1
50
360
0
POINT
5
79
100
AcDbEntity
8
1
62
256
6
ByLayer
370
18
48
1
60
1
100
AcDbPoint
10
-50
20
-10
30
0
39
0
210
0
220
0
230
1
50
360
0
POINT
5
7A
100
AcDbEntity
8
1
62
256
6
ByLayer
370
18
48
1
60
1
100
AcDbPoint
10
216.1898
20
-9.4
30
0
39
0
210
0
220
0
230
1
50
360
0
SPLINE
5
B8
100
AcDbEntity
8
SK1
62
256
6
ByLayer
370
18
48
1
60
0
100
AcDbSpline
70
4
71
3
72
8
73
4
40
0
40
0
40
0
40
0
40
1
40
1
40
1
40
1
41
1
10
-49.887270380467
20
6.75038929766106
30
0
41
1
10
-49.9185237764596
20
6.69962336239081
30
0
41
1
10
-49.9567056459576
20
6.63984336697254
30
0
41
1
10
-50
20
6.57382350175331
30
0
0
SPLINE
5
B9
100
AcDbEntity
8
SK1
62
256
6
ByLayer
370
18
48
1
60
0
100
AcDbSpline
70
4
71
3
72
8
73
4
40
0
40
0
40
0
40
0
40
1
40
1
40
1
40
1
41
1
10
-47.7
20
8.9763801941769
30
0
41
1
10
-48.430785844415
20
8.23602934708424
30
0
41
1
10
-49.160428385453
20
7.49456863786099
30
0
41
1
10
-49.8872703804685
20
6.75038929766166
30
0
0
SPLINE
5
BA
100
AcDbEntity
8
SK1
62
256
6
ByLayer
370
18
48
1
60
0
100
AcDbSpline
70
4
71
3
72
8
73
4
40
0
40
0
40
0
40
0
40
1
40
1
40
1
40
1
41
1
10
-49.887270380467
20
-6.75038929766109
30
0
41
1
10
-49.9185237764596
20
-6.69962336239081
30
0
41
1
10
-49.9567056459576
20
-6.63984336697254
30
0
41
1
10
-50
20
-6.57382350175331
30
0
0
SPLINE
5
BB
100
AcDbEntity
8
SK1
62
256
6
ByLayer
370
18
48
1
60
0
100
AcDbSpline
70
4
71
3
72
8
73
4
40
0
40
0
40
0
40
0
40
1
40
1
40
1
40
1
41
1
10
-47.7
20
-8.9763801941769
30
0
41
1
10
-48.430785844415
20
-8.23602934708427
30
0
41
1
10
-49.160428385453
20
-7.49456863786099
30
0
41
1
10
-49.8872703804685
20
-6.75038929766166
30
0
0
SPLINE
5
BC
100
AcDbEntity
8
SK1
62
256
6
ByLayer
370
18
48
1
60
0
100
AcDbSpline
70
4
71
3
72
12
73
8
40
0
40
0
40
0
40
0
40
0.249999999999999
40
0.249999999999999
40
0.499999999999998
40
0.499999999999998
40
1
40
1
40
1
40
1
41
1
10
-47.6
20
-9.08938367472268
30
0
41
1
10
-47.6
20
-9.08754337261811
30
0
41
1
10
-47.6041468027231
20
-9.08158390396622
30
0
41
1
10
-47.6170570586248
20
-9.0655155428538
30
0
41
1
10
-47.6255546314712
20
-9.055691328477
30
0
41
1
10
-47.654055184327
20
-9.02389811204156
30
0
41
1
10
-47.6767308868523
20
-8.99995386868309
30
0
41
1
10
-47.7
20
-8.9763801941769
30
0
0
SPLINE
5
BD
100
AcDbEntity
8
SK1
62
256
6
ByLayer
370
18
48
1
60
0
100
AcDbSpline
70
4
71
3
72
12
73
8
40
0
40
0
40
0
40
0
40
0.250000000000001
40
0.250000000000001
40
0.500000000000002
40
0.500000000000002
40
1
40
1
40
1
40
1
41
1
10
-47.6
20
9.08938367472268
30
0
41
1
10
-47.6
20
9.08754337261811
30
0
41
1
10
-47.6041468027231
20
9.08158390396619
30
0
41
1
10
-47.6170570586248
20
9.0655155428538
30
0
41
1
10
-47.6255546314712
20
9.055691328477
30
0
41
1
10
-47.654055184327
20
9.02389811204156
30
0
41
1
10
-47.6767308868523
20
8.99995386868309
30
0
41
1
10
-47.7
20
8.9763801941769
30
0
0
SPLINE
5
BE
100
AcDbEntity
8
SK1
62
256
6
ByLayer
370
18
48
1
60
0
100
AcDbSpline
70
4
71
3
72
8
73
4
40
0
40
0
40
0
40
0
40
1
40
1
40
1
40
1
41
1
10
-50
20
6.50491138388401
30
0
41
1
10
-49.2358894936441
20
7.28791153007208
30
0
41
1
10
-48.468562176693
20
8.06774772068027
30
0
41
1
10
-47.7
20
8.84636934137353
30
0
0
SPLINE
5
BF
100
AcDbEntity
8
SK1
62
256
6
ByLayer
370
18
48
1
60
0
100
AcDbSpline
70
4
71
3
72
8
73
4
40
0
40
0
40
0
40
0
40
1
40
1
40
1
40
1
41
1
10
-49.7770470219533
20
6.73488579340784
30
0
41
1
10
-49.8137488047001
20
6.74027241535302
30
0
41
1
10
-49.8504904463328
20
6.74543734608162
30
0
41
1
10
-49.8872703804687
20
6.75038929766183
30
0
0
SPLINE
5
C0
100
AcDbEntity
8
SK1
62
256
6
ByLayer
370
18
48
1
60
0
100
AcDbSpline
70
4
71
3
72
12
73
8
40
0
40
0
40
0
40
0
40
0.499999999999993
40
0.499999999999993
40
0.749999999999996
40
0.749999999999996
40
1
40
1
40
1
40
1
41
1
10
-47.7
20
8.84636934137353
30
0
41
1
10
-47.6767410897415
20
8.86993267944843
30
0
41
1
10
-47.6540473543102
20
8.89456849923144
30
0
41
1
10
-47.6255892761979
20
8.92841832697405
30
0
41
1
10
-47.6170511286925
20
8.93918005676051
30
0
41
1
10
-47.6041481443464
20
8.9574711589791
30
0
41
1
10
-47.6
20
8.96477462077183
30
0
41
1
10
-47.6
20
8.96804021210619
30
0
0
SPLINE
5
C1
100
AcDbEntity
8
1
62
256
6
ByLayer
370
18
48
1
60
0
100
AcDbSpline
70
4
71
3
72
20
73
16
40
0
40
0
40
0
40
0
40
0.0232320648457784
40
0.0232320648457784
40
0.132833495962464
40
0.132833495962464
40
0.352036358195833
40
0.352036358195833
40
0.571239220429202
40
0.571239220429202
40
0.680840651545886
40
0.680840651545886
40
0.79044208266257
40
0.79044208266257
40
1
40
1
40
1
40
1
41
1
10
23.8915316449795
20
0.0084784298897773
30
0
41
1
10
24.0077174957528
20
-0.0509573564462471
30
0
41
1
10
24.123865517764
20
-0.110378407311714
30
0
41
1
10
24.7876814026559
20
-0.449949122112201
30
0
41
1
10
25.3348066730131
20
-0.729672042902507
30
0
41
1
10
26.975886721586
20
-1.56457472271717
30
0
41
1
10
28.0695727931079
20
-2.11543141967897
30
0
41
1
10
30.2652286530029
20
-3.18818058376195
30
0
41
1
10
31.3593843893014
20
-3.70677400860288
30
0
41
1
10
33.0003028659477
20
-4.44738828887137
30
0
41
1
10
33.547249389026
20
-4.68808879080325
30
0
41
1
10
34.6422706768763
20
-5.15511753736251
30
0
41
1
10
35.1907714252145
20
-5.3815624079221
30
0
41
1
10
36.7882672801489
20
-6.01685793012672
30
0
41
1
10
37.8338863708962
20
-6.40176852022179
30
0
41
1
10
38.8796415587695
20
-6.74996692456565
30
0
0
SPLINE
5
C2
100
AcDbEntity
8
1
62
256
6
ByLayer
370
13
48
1
60
0
100
AcDbSpline
70
4
71
3
72
22
73
18
40
0
40
0
40
0
40
0
40
0.0097908522718331
40
0.0097908522718331
40
0.121050318457988
40
0.121050318457988
40
0.232309784644143
40
0.232309784644143
40
0.45482871701645
40
0.45482871701645
40
0.566088183202604
40
0.566088183202604
40
0.677347649388757
40
0.677347649388757
40
0.899866581761065
40
0.899866581761065
40
1
40
1
40
1
40
1
41
1
10
38.8796415587254
20
-6.74996692455096
30
0
41
1
10
38.927772649609
20
-6.76599282548784
30
0
41
1
10
38.9759040287898
20
-6.78194095830537
30
0
41
1
10
39.5709895129885
20
-6.97815060726103
30
0
41
1
10
40.1180077107444
20
-7.14836675712914
30
0
41
1
10
41.2133550256528
20
-7.46721723234126
30
0
41
1
10
41.7622885964879
20
-7.61603275535811
30
0
41
1
10
43.4071658309637
20
-8.02705329445894
30
0
41
1
10
44.5004239156324
20
-8.25352830324204
30
0
41
1
10
46.1412091860001
20
-8.51783827963501
30
0
41
1
10
46.688290780126
20
-8.59331250929486
30
0
41
1
10
47.7839476529554
20
-8.71848695851943
30
0
41
1
10
48.3330309284183
20
-8.76822948395142
30
0
41
1
10
49.9769702192131
20
-8.87743631844663
30
0
41
1
10
51.0700023059383
20
-8.89708417368666
30
0
41
1
10
52.6561113866038
20
-8.84838245983158
30
0
41
1
10
53.1485540517172
20
-8.82249605341423
30
0
41
1
10
53.6416085288049
20
-8.78593329522982
30
0
0
SPLINE
5
C3
100
AcDbEntity
8
1
62
256
6
ByLayer
370
18
48
1
60
0
100
AcDbSpline
70
4
71
3
72
20
73
16
40
0
40
0
40
0
40
0
40
0.0955308469665406
40
0.0955308469665406
40
0.213762122385469
40
0.213762122385469
40
0.331993397804398
40
0.331993397804398
40
0.568455948642252
40
0.568455948642252
40
0.686687224061178
40
0.686687224061178
40
0.804918499480103
40
0.804918499480103
40
1
40
1
40
1
40
1
41
1
10
132.780233253106
20
-0.0374833080945507
30
0
41
1
10
133.221588448181
20
-0.265115088410909
30
0
41
1
10
133.663057708966
20
-0.492787521460286
30
0
41
1
10
134.651785907843
20
-1.00109446881154
30
0
41
1
10
135.199834532565
20
-1.28182397100286
30
0
41
1
10
136.294993594742
20
-1.83824190282101
30
0
41
1
10
136.841730661646
20
-2.11365975544069
30
0
41
1
10
138.480888933535
20
-2.92876834137118
30
0
41
1
10
139.572179199889
20
-3.45746618609601
30
0
41
1
10
141.213251470445
20
-4.21677135356254
30
0
41
1
10
141.761561944452
20
-4.46456914704976
30
0
41
1
10
142.856070239147
20
-4.94519678904734
30
0
41
1
10
143.402576319255
20
-5.17811030582914
30
0
41
1
10
144.85009052455
20
-5.7737403192647
30
0
41
1
10
145.750611463543
20
-6.12242693713716
30
0
41
1
10
146.652711304574
20
-6.44550113586104
30
0
0
SPLINE
5
C4
100
AcDbEntity
8
1
62
256
6
ByLayer
370
13
48
1
60
0
100
AcDbSpline
70
4
71
3
72
24
73
20
40
0
40
0
40
0
40
0
40
0.0360974360063165
40
0.0360974360063165
40
0.139232709043955
40
0.139232709043955
40
0.242367982081593
40
0.242367982081593
40
0.44863852815687
40
0.44863852815687
40
0.551773801194507
40
0.551773801194507
40
0.654909074232143
40
0.654909074232143
40
0.86117962030742
40
0.86117962030742
40
0.964314893345057
40
0.964314893345057
40
1
40
1
40
1
40
1
41
1
10
146.652711307902
20
-6.4455011370531
30
0
41
1
10
146.844066401018
20
-6.51403223589162
30
0
41
1
10
147.035492537909
20
-6.58141088646153
30
0
41
1
10
147.77420930378
20
-6.83672787187581
30
0
41
1
10
148.322494059815
20
-7.01624813785207
30
0
41
1
10
149.416458074539
20
-7.3529000176801
30
0
41
1
10
149.962731830054
20
-7.51030965739739
30
0
41
1
10
151.601014348072
20
-7.94815646545908
30
0
41
1
10
152.692482452783
20
-8.19413492307626
30
0
41
1
10
154.334695690358
20
-8.48870965834021
30
0
41
1
10
154.882659722033
20
-8.57439364613361
30
0
41
1
10
155.976110830841
20
-8.71945051937286
30
0
41
1
10
156.522198801839
20
-8.77900088755226
30
0
41
1
10
158.16012073223
20
-8.91808592071493
30
0
41
1
10
159.251766654286
20
-8.95819908389166
30
0
41
1
10
160.894693486394
20
-8.93766904800256
30
0
41
1
10
161.442018513169
20
-8.91736791868027
30
0
41
1
10
162.17757099947
20
-8.87224788428398
30
0
41
1
10
162.36658418586
20
-8.85906576904239
30
0
41
1
10
162.555551605416
20
-8.84430594719097
30
0
0
SPLINE
5
C5
100
AcDbEntity
8
1
62
256
6
ByLayer
370
18
48
1
60
0
100
AcDbSpline
70
4
71
3
72
8
73
4
40
0
40
0
40
0
40
0
40
1
40
1
40
1
40
1
41
1
10
218.999970484332
20
0.0472481789772701
30
0
41
1
10
219.000009838545
20
0.0157493997650135
30
0
41
1
10
219.000009838545
20
-0.015749399765383
30
0
41
1
10
218.999970484332
20
-0.0472481789776396
30
0
0
SPLINE
5
C6
100
AcDbEntity
8
1
62
256
6
ByLayer
370
18
48
1
60
0
100
AcDbSpline
70
2053
71
3
72
90
73
86
40
0
40
0
40
0
40
0
40
0.0312500000000052
40
0.0312500000000052
40
0.0625000000000104
40
0.0625000000000104
40
0.0781250000000102
40
0.0781250000000102
40
0.09375000000001
40
0.09375000000001
40
0.12500000000001
40
0.12500000000001
40
0.14062500000001
40
0.14062500000001
40
0.15625000000001
40
0.15625000000001
40
0.17187500000001
40
0.17187500000001
40
0.18750000000001
40
0.18750000000001
40
0.21875000000001
40
0.21875000000001
40
0.25000000000001
40
0.25000000000001
40
0.265625000000012
40
0.265625000000012
40
0.281250000000014
40
0.281250000000014
40
0.312500000000024
40
0.312500000000024
40
0.343750000000033
40
0.343750000000033
40
0.375000000000042
40
0.375000000000042
40
0.406250000000052
40
0.406250000000052
40
0.437500000000061
40
0.437500000000061
40
0.46875000000007
40
0.46875000000007
40
0.50000000000008
40
0.50000000000008
40
0.515625000000081
40
0.515625000000081
40
0.531250000000082
40
0.531250000000082
40
0.562500000000078
40
0.562500000000078
40
0.578125000000076
40
0.578125000000076
40
0.593750000000075
40
0.593750000000075
40
0.609375000000073
40
0.609375000000073
40
0.625000000000071
40
0.625000000000071
40
0.640625000000069
40
0.640625000000069
40
0.656250000000067
40
0.656250000000067
40
0.687500000000064
40
0.687500000000064
40
0.718750000000061
40
0.718750000000061
40
0.73437500000006
40
0.73437500000006
40
0.750000000000058
40
0.750000000000058
40
0.781250000000051
40
0.781250000000051
40
0.796875000000048
40
0.796875000000048
40
0.812500000000044
40
0.812500000000044
40
0.843750000000037
40
0.843750000000037
40
0.875000000000029
40
0.875000000000029
40
0.906250000000022
40
0.906250000000022
40
0.937500000000015
40
0.937500000000015
40
0.968750000000007
40
0.968750000000007
40
1
40
1
40
1
40
1
41
1
10
216.80414124894
20
-5.55336544484931
30
0
41
1
10
216.859101770219
20
-5.46457764299748
30
0
41
1
10
216.912037187749
20
-5.37087285609613
30
0
41
1
10
217.013377281018
20
-5.17246256707728
30
0
41
1
10
217.062289644271
20
-5.06641233399694
30
0
41
1
10
217.128336719157
20
-4.90456185481082
30
0
41
1
10
217.149220517038
20
-4.85001538486873
30
0
41
1
10
217.188558417811
20
-4.73964242030081
30
0
41
1
10
217.207138041842
20
-4.68339362372728
30
0
41
1
10
217.257863768281
20
-4.51569137896942
30
0
41
1
10
217.28473619768
20
-4.4066695030198
30
0
41
1
10
217.314183347366
20
-4.24748399558939
30
0
41
1
10
217.322169196616
20
-4.19492546840567
30
0
41
1
10
217.333901864811
20
-4.0948405990373
30
0
41
1
10
217.337747858115
20
-4.04687031343593
30
0
41
1
10
217.341560038172
20
-3.95490903999004
30
0
41
1
10
217.341511015936
20
-3.91067575881433
30
0
41
1
10
217.337613939
20
-3.82735200978453
30
0
41
1
10
217.333806744797
20
-3.78851762283449
30
0
41
1
10
217.317298704906
20
-3.6797522557269
30
0
41
1
10
217.299237402381
20
-3.61703380798406
30
0
41
1
10
217.252765582336
20
-3.51422124224581
30
0
41
1
10
217.22440674459
20
-3.47348709573447
30
0
41
1
10
217.175213535363
20
-3.42624954250903
30
0
41
1
10
217.157619578618
20
-3.41281238247646
30
0
41
1
10
217.120929796828
20
-3.39081267623914
30
0
41
1
10
217.10178193373
20
-3.38217639541981
30
0
41
1
10
217.042118077445
20
-3.36280297415919
30
0
41
1
10
216.999399511688
20
-3.3585491708667
30
0
41
1
10
216.908531191147
20
-3.36602842894402
30
0
41
1
10
216.860230065299
20
-3.37793977420125
30
0
41
1
10
216.761122125091
20
-3.41643887628118
30
0
41
1
10
216.709993604822
20
-3.44301374263574
30
0
41
1
10
216.604636947542
20
-3.51058389236368
30
0
41
1
10
216.550033163058
20
-3.55195589380242
30
0
41
1
10
216.440439329252
20
-3.64748284708614
30
0
41
1
10
216.385243900011
20
-3.70168327782309
30
0
41
1
10
216.274023682036
20
-3.82348033424088
30
0
41
1
10
216.218000177562
20
-3.89105621598719
30
0
41
1
10
216.105000292911
20
-4.04159926492778
30
0
41
1
10
216.049324317095
20
-4.12287214438732
30
0
41
1
10
215.967763776407
20
-4.25381768147236
30
0
41
1
10
215.940873557867
20
-4.29902310452772
30
0
41
1
10
215.887741809008
20
-4.39283871490247
30
0
41
1
10
215.861353701449
20
-4.44174391173399
30
0
41
1
10
215.784696060527
20
-4.59143172349701
30
0
41
1
10
215.736780980653
20
-4.69521864991654
30
0
41
1
10
215.670460280777
20
-4.85785205223681
30
0
41
1
10
215.649190290779
20
-4.91355697614924
30
0
41
1
10
215.609941162878
20
-5.02416198034575
30
0
41
1
10
215.591809634895
20
-5.07939658332606
30
0
41
1
10
215.558615677908
20
-5.18972621521198
30
0
41
1
10
215.543552317859
20
-5.24482128645892
30
0
41
1
10
215.516700150352
20
-5.35486251142004
30
0
41
1
10
215.504941395805
20
-5.40985740805434
30
0
41
1
10
215.485631383572
20
-5.51569827430251
30
0
41
1
10
215.477942511203
20
-5.56706378795659
30
0
41
1
10
215.466416644797
20
-5.66674855220225
30
0
41
1
10
215.462571168522
20
-5.71536040059991
30
0
41
1
10
215.456980389584
20
-5.85442877934949
30
0
41
1
10
215.461040809532
20
-5.93689937283199
30
0
41
1
10
215.482935938597
20
-6.08372567641084
30
0
41
1
10
215.500552160701
20
-6.14611907458243
30
0
41
1
10
215.535078641846
20
-6.22445572391982
30
0
41
1
10
215.548040649302
20
-6.24818246136451
30
0
41
1
10
215.57623908326
20
-6.29033035620799
30
0
41
1
10
215.591430616476
20
-6.30873979162789
30
0
41
1
10
215.639980283867
20
-6.35671094705538
30
0
41
1
10
215.676287710093
20
-6.37907839145578
30
0
41
1
10
215.736094695131
20
-6.39958931427938
30
0
41
1
10
215.756999999325
20
-6.40423059827771
30
0
41
1
10
215.79993871536
20
-6.40915050999288
30
0
41
1
10
215.822025835257
20
-6.40946227145051
30
0
41
1
10
215.890042710045
20
-6.40429295818964
30
0
41
1
10
215.937715011391
20
-6.39275238278003
30
0
41
1
10
216.037557945711
20
-6.35402881189435
30
0
41
1
10
216.089328484759
20
-6.32691938587368
30
0
41
1
10
216.194635184242
20
-6.25879698685671
30
0
41
1
10
216.248437472908
20
-6.21768556790434
30
0
41
1
10
216.35840203609
20
-6.12098117855359
30
0
41
1
10
216.414903446457
20
-6.06493371757489
30
0
41
1
10
216.526781090817
20
-5.9410538111288
30
0
41
1
10
216.582535925388
20
-5.87296594602148
30
0
41
1
10
216.693651879332
20
-5.72363429524651
30
0
41
1
10
216.749180727661
20
-5.6421532467011
30
0
41
1
10
216.80414124894
20
-5.55336544484931
30
0
0
SPLINE
5
C7
100
AcDbEntity
8
1
62
256
6
ByLayer
370
18
48
1
60
0
100
AcDbSpline
70
4
71
3
72
16
73
12
40
0
40
0
40
0
40
0
40
0.125000000000021
40
0.125000000000021
40
0.250000000000041
40
0.250000000000041
40
0.500000000000027
40
0.500000000000027
40
0.750000000000014
40
0.750000000000014
40
1
40
1
40
1
40
1
41
1
10
215.663371903884
20
2.32781667817213
30
0
41
1
10
215.788420376096
20
2.32529387561559
30
0
41
1
10
215.913449897302
20
2.32293991836144
30
0
41
1
10
216.163375449327
20
2.31942134568934
30
0
41
1
10
216.288334275376
20
2.31769725181985
30
0
41
1
10
216.663207977828
20
2.31254970046768
30
0
41
1
10
216.913115433247
20
2.30919236076059
30
0
41
1
10
217.412900545219
20
2.30274317638526
30
0
41
1
10
217.662786214691
20
2.29957994007412
30
0
41
1
10
218.16234040819
20
2.295188139804
30
0
41
1
10
218.412003995413
20
2.29421628091612
30
0
41
1
10
218.661501278329
20
2.29424164996084
30
0
0
SPLINE
5
C8
100
AcDbEntity
8
1
62
256
6
ByLayer
370
18
48
1
60
0
100
AcDbSpline
70
4
71
3
72
14
73
10
40
0
40
0
40
0
40
0
40
0.25
40
0.25
40
0.5
40
0.5
40
0.75
40
0.75
40
1
40
1
40
1
40
1
41
1
10
215.518108979183
20
2.18054440059265
30
0
41
1
10
215.513263175269
20
2.20047295825378
30
0
41
1
10
215.512044931591
20
2.22145858450918
30
0
41
1
10
215.521305547239
20
2.26106024286924
30
0
41
1
10
215.532365781704
20
2.27965560327871
30
0
41
1
10
215.563418782059
20
2.30699839669242
30
0
41
1
10
215.582600631231
20
2.31586562720861
30
0
41
1
10
215.622150046234
20
2.32638719859821
30
0
41
1
10
215.642829625798
20
2.32823111035793
30
0
41
1
10
215.663371903884
20
2.32781667817213
30
0
0
SPLINE
5
C9
100
AcDbEntity
8
1
62
256
6
ByLayer
370
18
48
1
60
0
100
AcDbSpline
70
4
71
3
72
61
73
57
40
0
40
0
40
0
40
0
40
0.0624999999999979
40
0.0624999999999979
40
0.124999999999996
40
0.124999999999996
40
0.156249999999995
40
0.156249999999995
40
0.187499999999994
40
0.187499999999994
40
0.249999999999993
40
0.249999999999993
40
0.281249999999993
40
0.281249999999993
40
0.296874999999992
40
0.296874999999992
40
0.312499999999992
40
0.312499999999992
40
0.374999999999992
40
0.374999999999992
40
0.406249999999991
40
0.406249999999991
40
0.421874999999991
40
0.421874999999991
40
0.437499999999991
40
0.437499999999991
40
0.49999999999999
40
0.49999999999999
40
0.51562499999999
40
0.51562499999999
40
0.531249999999989
40
0.531249999999989
40
0.562499999999989
40
0.562499999999989
40
0.624999999999988
40
0.624999999999988
40
0.656249999999987
40
0.656249999999987
40
0.687499999999987
40
0.687499999999987
40
0.718749999999986
40
0.718749999999986
40
0.722656249999986
40
0.722656249999986
40
0.726562499999987
40
0.726562499999987
40
0.730468749999987
40
0.730468749999987
40
0.734374999999987
40
0.749999999999988
40
0.749999999999988
40
0.81249999999999
40
0.81249999999999
40
0.874999999999993
40
0.874999999999993
40
1
40
1
40
1
40
1
41
1
10
5.99999971335794
20
-5.75110520722268
30
0
41
1
10
5.81536166018543
20
-5.49453968739539
30
0
41
1
10
5.63914517202045
20
-5.22609277620717
30
0
41
1
10
5.30461866358846
20
-4.66421476581039
30
0
41
1
10
5.14628938123306
20
-4.37080349122243
30
0
41
1
10
4.92434900678779
20
-3.90989192966435
30
0
41
1
10
4.85297591618638
20
-3.75277561811777
30
0
41
1
10
4.7160440633931
20
-3.43102255664684
30
0
41
1
10
4.65031611045998
20
-3.2658704973351
30
0
41
1
10
4.46547001844687
20
-2.76489600963754
30
0
41
1
10
4.3578452782491
20
-2.42212625577469
30
0
41
1
10
4.22430392502082
20
-1.89319706185248
30
0
41
1
10
4.1844641961595
20
-1.71441441997678
30
0
41
1
10
4.13256189549185
20
-1.44221287067418
30
0
41
1
10
4.11657311663217
20
-1.35080676551394
30
0
41
1
10
4.08738996573356
20
-1.16658452415987
30
0
41
1
10
4.07417885794041
20
-1.0735891757927
30
0
41
1
10
4.01609249067914
20
-0.609182096378532
30
0
41
1
10
3.99450967235597
20
-0.236922416520628
30
0
41
1
10
4.00453074544836
20
0.322647603850385
30
0
41
1
10
4.01494638723011
20
0.509368075344582
30
0
41
1
10
4.04210064094866
20
0.78976112602308
30
0
41
1
10
4.05311747792877
20
0.88351048139134
30
0
41
1
10
4.07887574658821
20
1.06909590875301
30
0
41
1
10
4.09362479026856
20
1.16111199068374
30
0
41
1
10
4.17668395650202
20
1.61737169466954
30
0
41
1
10
4.27288849761786
20
1.97018097230438
30
0
41
1
10
4.43033703919173
20
2.39662371182578
30
0
41
1
10
4.46368690297922
20
2.48118277930658
30
0
41
1
10
4.534129318487
20
2.64884978582128
30
0
41
1
10
4.57132464314412
20
2.73214987559754
30
0
41
1
10
4.68754104908481
20
2.9777423124232
30
0
41
1
10
4.7713103169574
20
3.13613333506933
30
0
41
1
10
5.04030149129733
20
3.59666085229861
30
0
41
1
10
5.24316756542541
20
3.88420004993691
30
0
41
1
10
5.57950542273667
20
4.29025797631414
30
0
41
1
10
5.6966339193454
20
4.42094802813855
30
0
41
1
10
5.93894209139148
20
4.67235756314901
30
0
41
1
10
6.06440050351782
20
4.79339432497034
30
0
41
1
10
6.32288836327854
20
5.02650468542149
30
0
41
1
10
6.45581810069135
20
5.13849208255516
30
0
41
1
10
6.60897486787167
20
5.25960361815282
30
0
41
1
10
6.62556939615382
20
5.2736722473413
30
0
41
1
10
6.66594120212983
20
5.29437709558093
30
0
41
1
10
6.68805682907254
20
5.30150361954298
30
0
41
1
10
6.73466891572122
20
5.30953715500141
30
0
41
1
10
6.7583225434112
20
5.31085625666083
30
0
41
1
10
6.80546108216998
20
5.31480297484379
30
0
41
1
10
6.92333890044245
20
5.32440033204497
30
0
41
1
10
7.0414042951287
20
5.33266912629051
30
0
41
1
10
7.51380168503033
20
5.36150809062059
30
0
41
1
10
7.89317534554164
20
5.37106083317286
30
0
41
1
10
8.64994436245962
20
5.36394854223283
30
0
41
1
10
9.02625914598596
20
5.34741116974854
30
0
41
1
10
10.149198857197
20
5.25962150640302
30
0
41
1
10
10.8898576322042
20
5.1506879190859
30
0
41
1
10
11.6225958308311
20
4.98720129054198
30
0
0
SPLINE
5
CA
100
AcDbEntity
8
1
62
256
6
ByLayer
370
18
48
1
60
0
100
AcDbSpline
70
4
71
3
72
22
73
18
40
0
40
0
40
0
40
0
40
0.250000000000019
40
0.250000000000019
40
0.312500000000021
40
0.312500000000021
40
0.375000000000024
40
0.375000000000024
40
0.500000000000023
40
0.500000000000023
40
0.750000000000013
40
0.750000000000013
40
0.81250000000001
40
0.81250000000001
40
0.875000000000007
40
0.875000000000007
40
1
40
1
40
1
40
1
41
1
10
215.690292801277
20
-8.87582995988845
30
0
41
1
10
215.494329006356
20
-8.85596968644191
30
0
41
1
10
215.312664183422
20
-8.79438358756289
30
0
41
1
10
215.105158133487
20
-8.66027922498282
30
0
41
1
10
215.06454316368
20
-8.63049311655942
30
0
41
1
10
214.985892073895
20
-8.56539663514556
30
0
41
1
10
214.947901370153
20
-8.53014699006681
30
0
41
1
10
214.837915636977
20
-8.41633056373823
30
0
41
1
10
214.769899312671
20
-8.3297118195845
30
0
41
1
10
214.581903456152
20
-8.03736785718286
30
0
41
1
10
214.477826136928
20
-7.79946030197942
30
0
41
1
10
214.376747483907
20
-7.44335026261948
30
0
41
1
10
214.357956795391
20
-7.36896668887849
30
0
41
1
10
214.323732132519
20
-7.2155886029704
30
0
41
1
10
214.308260457529
20
-7.13650380699426
30
0
41
1
10
214.266743124802
20
-6.89209761039589
30
0
41
1
10
214.245585076352
20
-6.71963912464639
30
0
41
1
10
214.2310034842
20
-6.53757743093061
30
0
0
SPLINE
5
CB
100
AcDbEntity
8
1
62
256
6
ByLayer
370
18
48
1
60
0
100
AcDbSpline
70
4
71
3
72
8
73
4
40
0
40
0
40
0
40
0
40
1
40
1
40
1
40
1
41
1
10
5.99999971334518
20
-5.75110520721879
30
0
41
1
10
5.99999971334518
20
-5.63735843509559
30
0
41
1
10
5.99999971334518
20
-5.52353269351178
30
0
41
1
10
5.99999971334518
20
-5.40963132050442
30
0
0
SPLINE
5
CC
100
AcDbEntity
8
1
62
256
6
ByLayer
370
13
48
1
60
0
100
AcDbSpline
70
4
71
3
72
16
73
12
40
0
40
0
40
0
40
0
40
0.186413155767922
40
0.186413155767922
40
0.594654961458839
40
0.594654961458839
40
0.696715412881568
40
0.696715412881568
40
0.798775864304297
40
0.798775864304297
40
1
40
1
40
1
40
1
41
1
10
6.2502191166457
20
7.91796975618095
30
0
41
1
10
6.25021974777334
20
8.02013252899036
30
0
41
1
10
6.25021964288234
20
8.11288080657471
30
0
41
1
10
6.25021753351075
20
8.37932669182817
30
0
41
1
10
6.25021342179485
20
8.51828264457424
30
0
41
1
10
6.25020711766638
20
8.6354914455267
30
0
41
1
10
6.25020579559057
20
8.65611584589428
30
0
41
1
10
6.25020310456733
20
8.69134351964919
30
0
41
1
10
6.25020173523257
20
8.70597112262038
30
0
41
1
10
6.2501976750884
20
8.7406169947958
30
0
41
1
10
6.25019499383558
20
8.75208156738981
30
0
41
1
10
6.25019251852879
20
8.75194845780695
30
0
0
SPLINE
5
CD
100
AcDbEntity
8
1
62
256
6
ByLayer
370
18
48
1
60
0
100
AcDbSpline
70
4
71
3
72
20
73
16
40
0
40
0
40
0
40
0
40
0.249999999999997
40
0.249999999999997
40
0.312499999999996
40
0.312499999999996
40
0.374999999999996
40
0.374999999999996
40
0.499999999999997
40
0.499999999999997
40
0.749999999999998
40
0.749999999999998
40
0.874999999999999
40
0.874999999999999
40
1
40
1
40
1
40
1
41
1
10
6.2502913711501
20
-5.43700647059146
30
0
41
1
10
6.60843276275412
20
-5.9331720357055
30
0
41
1
10
6.99162131743995
20
-6.36800669448491
30
0
41
1
10
7.50108768856651
20
-6.84477639528538
30
0
41
1
10
7.60454342361351
20
-6.93674233875237
30
0
41
1
10
7.81470008708584
20
-7.11397753970638
30
0
41
1
10
7.92160910261833
20
-7.19940037215375
30
0
41
1
10
8.24592542286231
20
-7.44455163531362
30
0
41
1
10
8.46599045225722
20
-7.59257303370507
30
0
41
1
10
9.13929721415548
20
-7.99380520991733
30
0
41
1
10
9.60554764100277
20
-8.20431753298945
30
0
41
1
10
10.3395540915185
20
-8.44346666966089
30
0
41
1
10
10.5899959253359
20
-8.51027858032248
30
0
41
1
10
11.0989582432107
20
-8.6187136548516
30
0
41
1
10
11.358101150362
20
-8.6605511135559
30
0
41
1
10
11.6225958308312
20
-8.69110731237055
30
0
0
SPLINE
5
CE
100
AcDbEntity
8
1
62
256
6
ByLayer
370
18
48
1
60
0
100
AcDbSpline
70
4
71
3
72
8
73
4
40
0
40
0
40
0
40
0
40
1
40
1
40
1
40
1
41
1
10
215.982831678467
20
9.13745651929412
30
0
41
1
10
215.865016466532
20
9.25369673514652
30
0
41
1
10
215.762344449809
20
9.33149771384629
30
0
41
1
10
215.673607741413
20
9.37057737263507
30
0
0
SPLINE
5
CF
100
AcDbEntity
8
1
62
256
6
ByLayer
370
18
48
1
60
0
100
AcDbSpline
70
4
71
3
72
18
73
14
40
0
40
0
40
0
40
0
40
0.125000000000019
40
0.125000000000019
40
0.187500000000028
40
0.187500000000028
40
0.250000000000038
40
0.250000000000038
40
0.500000000000025
40
0.500000000000025
40
0.750000000000013
40
0.750000000000013
40
1
40
1
40
1
40
1
41
1
10
209.333616642479
20
-2.64341434671852
30
0
41
1
10
209.509830720795
20
-2.85317779859895
30
0
41
1
10
209.691800006966
20
-3.05664791464025
30
0
41
1
10
209.97274366378
20
-3.35311629933548
30
0
41
1
10
210.067718816346
20
-3.45048772410996
30
0
41
1
10
210.260196846445
20
-3.64246649935842
30
0
41
1
10
210.357807902517
20
-3.73716836855226
30
0
41
1
10
210.848537948948
20
-4.20096514686171
30
0
41
1
10
211.251930998274
20
-4.543763924042
30
0
41
1
10
212.075979332354
20
-5.18426372680869
30
0
41
1
10
212.496679048102
20
-5.48184867600895
30
0
41
1
10
213.352979851113
20
-6.03808860188929
30
0
41
1
10
213.788598965197
20
-6.29669648332896
30
0
41
1
10
214.231003484198
20
-6.53757743092999
30
0
0
SPLINE
5
D0
100
AcDbEntity
8
1
62
256
6
ByLayer
370
18
48
1
60
0
100
AcDbSpline
70
4
71
3
72
18
73
14
40
0
40
0
40
0
40
0
40
0.124999999999999
40
0.124999999999999
40
0.249999999999998
40
0.249999999999998
40
0.374999999999997
40
0.374999999999997
40
0.499999999999996
40
0.499999999999996
40
0.749999999999998
40
0.749999999999998
40
1
40
1
40
1
40
1
41
1
10
5.99999971334506
20
-5.40963132050391
30
0
41
1
10
5.99999971334506
20
-5.38747768850686
30
0
41
1
10
6.00168963547628
20
-5.36565656969137
30
0
41
1
10
6.01056229575579
20
-5.3265872597041
30
0
41
1
10
6.01804993699653
20
-5.30928609909256
30
0
41
1
10
6.03894775961379
20
-5.28671778748583
30
0
41
1
10
6.05207068194335
20
-5.28177528612497
30
0
41
1
10
6.07855664736132
20
-5.28167251721743
30
0
41
1
10
6.09225754592211
20
-5.28609570599752
30
0
41
1
10
6.13191611421348
20
-5.30604763854882
30
0
41
1
10
6.15743881335598
20
-5.32823196415472
30
0
41
1
10
6.20541905193585
20
-5.37812585150309
30
0
41
1
10
6.22823872758323
20
-5.40645495479524
30
0
41
1
10
6.25029136493623
20
-5.43700646198286
30
0
0
SPLINE
5
D1
100
AcDbEntity
8
1
62
256
6
ByLayer
370
18
48
1
60
0
100
AcDbSpline
70
4
71
3
72
62
73
58
40
0
40
0
40
0
40
0
40
0.0293203541292964
40
0.0293203541292964
40
0.0586407082585927
40
0.0586407082585927
40
0.117281416517188
40
0.117281416517188
40
0.175922124775783
40
0.175922124775783
40
0.205242478905081
40
0.205242478905081
40
0.23456283303438
40
0.23456283303438
40
0.293203541292977
40
0.293203541292977
40
0.322523895422276
40
0.322523895422276
40
0.351844249551575
40
0.351844249551575
40
0.381164603680874
40
0.381164603680874
40
0.410484957810172
40
0.410484957810172
40
0.469125666068771
40
0.469125666068771
40
0.49844602019807
40
0.49844602019807
40
0.52776637432737
40
0.52776637432737
40
0.586407082585971
40
0.586407082585971
40
0.615727436715272
40
0.615727436715272
40
0.645047790844572
40
0.645047790844572
40
0.674368144973872
40
0.674368144973872
40
0.703688499103173
40
0.703688499103173
40
0.762329207361774
40
0.762329207361774
40
0.791649561491074
40
0.791649561491074
40
0.820969915620374
40
0.820969915620374
40
0.879610623878976
40
0.879610623878976
40
0.908930978008277
40
0.908930978008277
40
0.938251332137578
40
0.938251332137578
40
0.967571686266879
40
0.967571686266879
40
0.99689204039618
40
0.99689204039618
40
1
40
1
40
1
40
1
41
1
10
215.673607741413
20
-9.3705773726351
30
0
41
1
10
215.1283173697
20
-9.39359030242997
30
0
41
1
10
214.582355453761
20
-9.40260745001754
30
0
41
1
10
213.491825023324
20
-9.39265354522877
30
0
41
1
10
212.947239608958
20
-9.37371133761502
30
0
41
1
10
211.314024377135
20
-9.27538300552141
30
0
41
1
10
210.225484305117
20
-9.15443481461452
30
0
41
1
10
208.042519704129
20
-8.80443410937187
30
0
41
1
10
206.954507374365
20
-8.57649520219991
30
0
41
1
10
205.321047535835
20
-8.1604953506974
30
0
41
1
10
204.776326473002
20
-8.00947870329844
30
0
41
1
10
203.68531960366
20
-7.68365041576064
30
0
41
1
10
203.139445047006
20
-7.50894672561648
30
0
41
1
10
201.504946787613
20
-6.9531684019241
30
0
41
1
10
200.417159850145
20
-6.53988401586776
30
0
41
1
10
198.781748625866
20
-5.86419790509757
30
0
41
1
10
198.235509072456
20
-5.62944161009534
30
0
41
1
10
197.145112690595
20
-5.14485873625122
30
0
41
1
10
196.600530197801
20
-4.89488971256614
30
0
41
1
10
195.511564524055
20
-4.38127149345951
30
0
41
1
10
194.967169305331
20
-4.11764028301999
30
0
41
1
10
193.877424143323
20
-3.57857776076503
30
0
41
1
10
193.331566733114
20
-3.30290297013823
30
0
41
1
10
191.694609343726
20
-2.4626192750535
30
0
41
1
10
190.606482642919
20
-1.88613344905627
30
0
41
1
10
188.972394128495
20
-1.00907871320001
30
0
41
1
10
188.427403220582
20
-0.714633536455722
30
0
41
1
10
187.335677716195
20
-0.123662804147045
30
0
41
1
10
186.790141578007
20
0.172218712723264
30
0
41
1
10
185.155593532799
20
1.05661520831197
30
0
41
1
10
184.06748468718
20
1.64246143672673
30
0
41
1
10
182.43110805578
20
2.50347029216272
30
0
41
1
10
181.884807330461
20
2.78759453813154
30
0
41
1
10
180.794476250885
20
3.34542500457647
30
0
41
1
10
180.24985974044
20
3.61945968370716
30
0
41
1
10
179.160642819137
20
4.15594213121622
30
0
41
1
10
178.616028398045
20
4.41836671827537
30
0
41
1
10
177.525743866561
20
4.92982734668266
30
0
41
1
10
176.979450312486
20
5.17909058108251
30
0
41
1
10
175.342742198321
20
5.90156464295418
30
0
41
1
10
174.254417085856
20
6.3495201142654
30
0
41
1
10
172.619676596753
20
6.96203302748208
30
0
41
1
10
172.074185513022
20
7.15631690679083
30
0
41
1
10
170.982032648539
20
7.52333252540444
30
0
41
1
10
170.436840831422
20
7.69559685242982
30
0
41
1
10
168.802222718621
20
8.17704770939605
30
0
41
1
10
167.713680974774
20
8.45082623820434
30
0
41
1
10
166.076320559631
20
8.7849064523088
30
0
41
1
10
165.53012502411
20
8.88334790869712
30
0
41
1
10
164.439798874775
20
9.05317761958912
30
0
41
1
10
163.89513399707
20
9.12468855968424
30
0
41
1
10
162.8056693792
20
9.24044402906284
30
0
41
1
10
162.260838679362
20
9.28467968133111
30
0
41
1
10
161.169935394772
20
9.34548993799126
30
0
41
1
10
160.623391260699
20
9.36204578040463
30
0
41
1
10
160.020054764298
20
9.36487793304437
30
0
41
1
10
159.962237448443
20
9.36499267788045
30
0
41
1
10
159.904426506989
20
9.3649508485357
30
0
0
SPLINE
5
D2
100
AcDbEntity
8
1
62
256
6
ByLayer
370
18
48
1
60
0
100
AcDbSpline
70
4
71
3
72
66
73
62
40
0
40
0
40
0
40
0
40
0.0027276332654537
40
0.0027276332654537
40
0.0572830109123102
40
0.0572830109123102
40
0.0845606997357381
40
0.0845606997357381
40
0.111838388559166
40
0.111838388559166
40
0.139116077382594
40
0.139116077382594
40
0.166393766206021
40
0.166393766206021
40
0.220949143852877
40
0.220949143852877
40
0.248226832676304
40
0.248226832676304
40
0.275504521499732
40
0.275504521499732
40
0.330059899146589
40
0.330059899146589
40
0.357337587970017
40
0.357337587970017
40
0.384615276793445
40
0.384615276793445
40
0.411892965616874
40
0.411892965616874
40
0.439170654440301
40
0.439170654440301
40
0.493726032087158
40
0.493726032087158
40
0.521003720910587
40
0.521003720910587
40
0.548281409734014
40
0.548281409734014
40
0.60283678738087
40
0.60283678738087
40
0.630114476204298
40
0.630114476204298
40
0.657392165027726
40
0.657392165027726
40
0.684669853851154
40
0.684669853851154
40
0.711947542674583
40
0.711947542674583
40
0.766502920321439
40
0.766502920321439
40
0.793780609144867
40
0.793780609144867
40
0.821058297968295
40
0.821058297968295
40
0.875613675615151
40
0.875613675615151
40
0.930169053262007
40
0.930169053262007
40
0.957446742085435
40
0.957446742085435
40
0.984724430908864
40
0.984724430908864
40
1
40
1
40
1
40
1
41
1
10
111.149577234926
20
-8.8433238334099
30
0
41
1
10
111.095017863796
20
-8.85270542150084
30
0
41
1
10
111.040464992562
20
-8.86195402947388
30
0
41
1
10
109.894945336388
20
-9.0533817676066
30
0
41
1
10
108.805622324861
20
-9.18258569496624
30
0
41
1
10
107.167369346446
20
-9.29374491560739
30
0
41
1
10
106.620455034765
20
-9.31700637710591
30
0
41
1
10
105.528903544294
20
-9.33559414588609
30
0
41
1
10
104.983658780271
20
-9.3309755744072
30
0
41
1
10
103.893177714223
20
-9.2940488252801
30
0
41
1
10
103.34796284824
20
-9.26173628713855
30
0
41
1
10
102.256466261694
20
-9.16955378140906
30
0
41
1
10
101.709552020471
20
-9.10960528149536
30
0
41
1
10
100.070956018817
20
-8.88948340695023
30
0
41
1
10
98.9814145778606
20
-8.68918099320783
30
0
41
1
10
97.3447683924509
20
-8.31290265685729
30
0
41
1
10
96.7987033809193
20
-8.17477641076121
30
0
41
1
10
95.705324768851
20
-7.8742299909988
30
0
41
1
10
95.1594790107521
20
-7.71223874914006
30
0
41
1
10
93.5229689315483
20
-7.19288124481003
30
0
41
1
10
92.4332526637411
20
-6.80219274216725
30
0
41
1
10
90.7939526658472
20
-6.1574593373241
30
0
41
1
10
90.2471440836043
20
-5.9328592295353
30
0
41
1
10
89.155608115906
20
-5.46751393566154
30
0
41
1
10
88.6103193155666
20
-5.22656704698232
30
0
41
1
10
87.5195597901105
20
-4.72991115308412
30
0
41
1
10
86.9740986994514
20
-4.4741888146221
30
0
41
1
10
85.8819890132457
20
-3.94956484050204
30
0
41
1
10
85.3348375950617
20
-3.68042262072819
30
0
41
1
10
83.6964014894684
20
-2.85946592615241
30
0
41
1
10
82.6066568246586
20
-2.2931772585215
30
0
41
1
10
80.9692631293782
20
-1.42715083257843
30
0
41
1
10
80.4225033166941
20
-1.13547417687039
30
0
41
1
10
79.3293099781779
20
-0.549789207039481
30
0
41
1
10
78.7835394879346
20
-0.25607240746956
30
0
41
1
10
77.1468651210093
20
0.624263918359759
30
0
41
1
10
76.0567011786993
20
1.21026177042538
30
0
41
1
10
74.4163686861231
20
2.07577655685651
30
0
41
1
10
73.869860805936
20
2.3613702645944
30
0
41
1
10
72.7782705238795
20
2.92395249655294
30
0
41
1
10
72.2328931753452
20
3.20110652593189
30
0
41
1
10
71.1418069881903
20
3.74509720077512
30
0
41
1
10
70.5961047844224
20
4.01194683632301
30
0
41
1
10
69.5033561686578
20
4.5335642731973
30
0
41
1
10
68.9561412001745
20
4.78838614521169
30
0
41
1
10
67.3178283877529
20
5.52848370784983
30
0
41
1
10
66.227782158661
20
5.99064641087639
30
0
41
1
10
64.5896487718761
20
6.62778531275714
30
0
41
1
10
64.0424621346528
20
6.83097144556089
30
0
41
1
10
62.9494086007394
20
7.21566420079736
30
0
41
1
10
62.4035890501569
20
7.39724487486936
30
0
41
1
10
60.7666574655384
20
7.90800774561268
30
0
41
1
10
59.6757466060851
20
8.20324344205392
30
0
41
1
10
57.4877417274321
20
8.69372583922043
30
0
41
1
10
56.3971201304285
20
8.88748937476657
30
0
41
1
10
54.7600474065307
20
9.09763474330001
30
0
41
1
10
54.2140984270181
20
9.15423264586713
30
0
41
1
10
53.1205848695971
20
9.24002485081553
30
0
41
1
10
52.5734842035132
20
9.26917737584003
30
0
41
1
10
51.7215853492917
20
9.29293737443319
30
0
41
1
10
51.4159174233746
20
9.29711784953963
30
0
41
1
10
51.1103007891502
20
9.2969551289838
30
0
0
SPLINE
5
D3
100
AcDbEntity
8
1
62
256
6
ByLayer
370
18
48
1
60
0
100
AcDbSpline
70
4
71
3
72
10
73
6
40
0
40
0
40
0
40
0
40
0.5
40
0.5
40
1
40
1
40
1
40
1
41
1
10
218.952793233776
20
0.245534185093504
30
0
41
1
10
218.956109571536
20
0.218652400359161
30
0
41
1
10
218.962293510481
20
0.187517507699369
30
0
41
1
10
218.978547885353
20
0.119790618090093
30
0
41
1
10
218.988398188266
20
0.0842520881170401
30
0
41
1
10
218.999970484332
20
0.0472481789774406
30
0
0
SPLINE
5
D4
100
AcDbEntity
8
1
62
256
6
ByLayer
370
18
48
1
60
0
100
AcDbSpline
70
4
71
3
72
22
73
18
40
0
40
0
40
0
40
0
40
0.0021413577510374
40
0.0021413577510374
40
0.121103971227912
40
0.121103971227912
40
0.240066584704786
40
0.240066584704786
40
0.47799181165854
40
0.47799181165854
40
0.596954425135419
40
0.596954425135419
40
0.715917038612299
40
0.715917038612299
40
0.953842265566057
40
0.953842265566057
40
1
40
1
40
1
40
1
41
1
10
78.316184240715
20
-0.004458305744464
30
0
41
1
10
78.3260302938537
20
-0.0095173121131893
30
0
41
1
10
78.3358764838363
20
-0.0145764119466492
30
0
41
1
10
78.8927332854799
20
-0.300697552726632
30
0
41
1
10
79.4401933615165
20
-0.58199215712753
30
0
41
1
10
80.5370895626946
20
-1.14293920909876
30
0
41
1
10
81.0847464654254
20
-1.42178251392468
30
0
41
1
10
82.7258609877432
20
-2.24983548091427
30
0
41
1
10
83.8179555382695
20
-2.79080086544585
30
0
41
1
10
85.4592203732746
20
-3.57413263732545
30
0
41
1
10
86.0072783615329
20
-3.83078166251531
30
0
41
1
10
87.1034907549242
20
-4.33189989233728
30
0
41
1
10
87.6499457580528
20
-4.57558075748642
30
0
41
1
10
89.2858792466798
20
-5.28370271916808
30
0
41
1
10
90.371886755988
20
-5.72538957728361
30
0
41
1
10
91.6680032993218
20
-6.20920609114006
30
0
41
1
10
91.8785713382758
20
-6.28645661930503
30
0
41
1
10
92.0891445674121
20
-6.36230560162431
30
0
0
SPLINE
5
D5
100
AcDbEntity
8
1
62
256
6
ByLayer
370
13
48
1
60
0
100
AcDbSpline
70
4
71
3
72
20
73
16
40
0
40
0
40
0
40
0
40
0.166908087614007
40
0.166908087614007
40
0.270449214704458
40
0.270449214704458
40
0.373990341794909
40
0.373990341794909
40
0.581072595975815
40
0.581072595975815
40
0.78815485015672
40
0.78815485015672
40
0.995237104337625
40
0.995237104337625
40
1
40
1
40
1
40
1
41
1
10
92.0891445676529
20
-6.36230560171103
30
0
41
1
10
92.963994701326
20
-6.67742871870087
30
0
41
1
10
93.8389344217183
20
-6.96836002812037
30
0
41
1
10
95.2602574070907
20
-7.39572800603543
30
0
41
1
10
95.8052840165745
20
-7.54886615437684
30
0
41
1
10
96.8979789181773
20
-7.83303265620646
30
0
41
1
10
97.4465166173771
20
-7.96420185494901
30
0
41
1
10
99.0899985329971
20
-8.32051503190621
30
0
41
1
10
100.18287331451
20
-8.50902456693555
30
0
41
1
10
102.371464231376
20
-8.78269972880867
30
0
41
1
10
103.468697892833
20
-8.86786754650223
30
0
41
1
10
105.657097145313
20
-8.93063104121009
30
0
41
1
10
106.749845164456
20
-8.90863777139381
30
0
41
1
10
107.8706650759
20
-8.83170106998134
30
0
41
1
10
107.895865665835
20
-8.82994306860331
30
0
41
1
10
107.92106743991
20
-8.8281568588549
30
0
0
SPLINE
5
D6
100
AcDbEntity
8
1
62
256
6
ByLayer
370
18
48
1
60
0
100
AcDbSpline
70
4
71
3
72
22
73
18
40
0
40
0
40
0
40
0
40
0.189575754311396
40
0.189575754311396
40
0.310787772222627
40
0.310787772222627
40
0.371393781178242
40
0.371393781178242
40
0.431999790133857
40
0.431999790133857
40
0.674423825956311
40
0.674423825956311
40
0.795635843867537
40
0.795635843867537
40
0.916847861778765
40
0.916847861778765
40
1
40
1
40
1
40
1
41
1
10
187.143063888319
20
-0.0184753521488972
30
0
41
1
10
187.987999832313
20
-0.455907502397224
30
0
41
1
10
188.833709464919
20
-0.893733744350214
30
0
41
1
10
190.224522711973
20
-1.60603023835179
30
0
41
1
10
190.768055019248
20
-1.88246335759658
30
0
41
1
10
191.585718597529
20
-2.29361589262976
30
0
41
1
10
191.858667373947
20
-2.43008400241763
30
0
41
1
10
192.405497376745
20
-2.70156979972006
30
0
41
1
10
192.67945843069
20
-2.83662061239647
30
0
41
1
10
194.047049760784
20
-3.50519108845438
30
0
41
1
10
195.137768158002
20
-4.02074252155899
30
0
41
1
10
196.77500326168
20
-4.75441491088202
30
0
41
1
10
197.320959712301
20
-4.99234277908187
30
0
41
1
10
198.414244310778
20
-5.45330536126068
30
0
41
1
10
198.962135596311
20
-5.67651241094131
30
0
41
1
10
199.883851518817
20
-6.03712843633917
30
0
41
1
10
200.258514522949
20
-6.1795840171749
30
0
41
1
10
200.632978004605
20
-6.31754909113238
30
0
0
SPLINE
5
D7
100
AcDbEntity
8
1
62
256
6
ByLayer
370
13
48
1
60
0
100
AcDbSpline
70
4
71
3
72
16
73
12
40
0
40
0
40
0
40
0
40
0.141077419066356
40
0.141077419066356
40
0.248442741683059
40
0.248442741683059
40
0.355808064299761
40
0.355808064299761
40
0.570538709533174
40
0.570538709533174
40
1
40
1
40
1
40
1
41
1
10
200.632978007498
20
-6.31754909219814
30
0
41
1
10
201.350235681219
20
-6.58181119740354
30
0
41
1
10
202.066761334363
20
-6.82959824921409
30
0
41
1
10
203.329371532944
20
-7.23425158753
30
0
41
1
10
203.875288160581
20
-7.39869875502467
30
0
41
1
10
204.968629088083
20
-7.70552986674693
30
0
41
1
10
205.516637748234
20
-7.84799219699147
30
0
41
1
10
207.153986602344
20
-8.23793376413775
30
0
41
1
10
208.239711597304
20
-8.4490429139222
30
0
41
1
10
211.49186839472
20
-8.92940586927497
30
0
41
1
10
213.653540788566
20
-9.04682130169843
30
0
41
1
10
215.839522604089
20
-8.94738800080998
30
0
0
SPLINE
5
D8
100
AcDbEntity
8
1
62
256
6
ByLayer
370
18
48
1
60
0
100
AcDbSpline
70
4
71
3
72
8
73
4
40
0
40
0
40
0
40
0
40
1
40
1
40
1
40
1
41
1
10
215.690292801274
20
-8.87582995988939
30
0
41
1
10
215.702060753174
20
-8.87918272045221
30
0
41
1
10
215.714246430439
20
-8.8813277909519
30
0
41
1
10
215.726854711337
20
-8.88227162750076
30
0
0
SPLINE
5
D9
100
AcDbEntity
8
1
62
256
6
ByLayer
370
18
48
1
60
0
100
AcDbSpline
70
4
71
3
72
8
73
4
40
0
40
0
40
0
40
0
40
1
40
1
40
1
40
1
41
1
10
215.79448572551
20
-8.87678172352446
30
0
41
1
10
215.814215713553
20
-8.87242707430613
30
0
41
1
10
215.834795107635
20
-8.86572579057341
30
0
41
1
10
215.856237411104
20
-8.85669574325783
30
0
0
SPLINE
5
DA
100
AcDbEntity
8
1
62
256
6
ByLayer
370
18
48
1
60
0
100
AcDbSpline
70
4
71
3
72
8
73
4
40
0
40
0
40
0
40
0
40
1
40
1
40
1
40
1
41
1
10
215.982831678467
20
-9.13745651929412
30
0
41
1
10
215.865016466532
20
-9.25369673514652
30
0
41
1
10
215.762344449809
20
-9.33149771384629
30
0
41
1
10
215.673607741413
20
-9.37057737263507
30
0
0
SPLINE
5
DB
100
AcDbEntity
8
1
62
256
6
ByLayer
370
18
48
1
60
0
100
AcDbSpline
70
4
71
3
72
50
73
46
40
0
40
0
40
0
40
0
40
0.0624999999999945
40
0.0624999999999945
40
0.124999999999989
40
0.124999999999989
40
0.187499999999984
40
0.187499999999984
40
0.249999999999978
40
0.249999999999978
40
0.312499999999973
40
0.312499999999973
40
0.343749999999975
40
0.343749999999975
40
0.374999999999978
40
0.374999999999978
40
0.437499999999983
40
0.437499999999983
40
0.499999999999988
40
0.499999999999988
40
0.53124999999999
40
0.53124999999999
40
0.562499999999993
40
0.562499999999993
40
0.624999999999998
40
0.624999999999998
40
0.687500000000003
40
0.687500000000003
40
0.718750000000005
40
0.718750000000005
40
0.750000000000008
40
0.750000000000008
40
0.812500000000013
40
0.812500000000013
40
0.828125000000014
40
0.828125000000014
40
0.835937500000013
40
0.835937500000013
40
0.843750000000012
40
0.843750000000012
40
0.859375000000009
40
0.859375000000009
40
0.875000000000006
40
0.875000000000006
40
1
40
1
40
1
40
1
41
1
10
209.333616642479
20
-2.64341434671854
30
0
41
1
10
209.53745485734
20
-2.69792481435391
30
0
41
1
10
209.741589465199
20
-2.74668292470975
30
0
41
1
10
210.150516475517
20
-2.8314327522188
30
0
41
1
10
210.355754561563
20
-2.86782342519652
30
0
41
1
10
210.764961511154
20
-2.92425517300637
30
0
41
1
10
210.967886885348
20
-2.9432059138976
30
0
41
1
10
211.370934933605
20
-2.96563312108685
30
0
41
1
10
211.570950975057
20
-2.96852084715874
30
0
41
1
10
211.967659086091
20
-2.95594397794645
30
0
41
1
10
212.164363366885
20
-2.94054680323379
30
0
41
1
10
212.456528195641
20
-2.90148597417181
30
0
41
1
10
212.553432830282
20
-2.88579541460624
30
0
41
1
10
212.74617751054
20
-2.84853648404672
30
0
41
1
10
212.842282797907
20
-2.82687642919956
30
0
41
1
10
213.126266044303
20
-2.75260471935462
30
0
41
1
10
213.309998600946
20
-2.69091120879904
30
0
41
1
10
213.666150629173
20
-2.54287442789604
30
0
41
1
10
213.83857568597
20
-2.45654332701145
30
0
41
1
10
214.087666657484
20
-2.3062458302135
30
0
41
1
10
214.169119224762
20
-2.2527089356476
30
0
41
1
10
214.328788051704
20
-2.13858364775211
30
0
41
1
10
214.407233299663
20
-2.07778211949039
30
0
41
1
10
214.634750779709
20
-1.88698293151009
30
0
41
1
10
214.776730902147
20
-1.74825453389136
30
0
41
1
10
215.04207703174
20
-1.44866981262106
30
0
41
1
10
215.165429525217
20
-1.28779742429694
30
0
41
1
10
215.337066196311
20
-1.0305687343841
30
0
41
1
10
215.392047239331
20
-0.942173474191748
30
0
41
1
10
215.497656248239
20
-0.760208140640827
30
0
41
1
10
215.548344510614
20
-0.666498603290137
30
0
41
1
10
215.692965892427
20
-0.380085752781298
30
0
41
1
10
215.779932951706
20
-0.181575158319419
30
0
41
1
10
215.877876981931
20
0.0751873832765568
30
0
41
1
10
215.896917690283
20
0.126962063033602
30
0
41
1
10
215.924657795912
20
0.205173526585639
30
0
41
1
10
215.934870610919
20
0.230876657940882
30
0
41
1
10
215.946965650054
20
0.286192495741801
30
0
41
1
10
215.948495117513
20
0.316268082676004
30
0
41
1
10
215.944418249268
20
0.407244923115258
30
0
41
1
10
215.927957690123
20
0.468534225578765
30
0
41
1
10
215.899226450646
20
0.590881505837416
30
0
41
1
10
215.884816363942
20
0.652050325644183
30
0
41
1
10
215.754769910162
20
1.20253114807602
30
0
41
1
10
215.636998064065
20
1.69160840037611
30
0
41
1
10
215.518108979183
20
2.18054440059262
30
0
0
SPLINE
5
DC
100
AcDbEntity
8
1
62
256
6
ByLayer
370
18
48
1
60
0
100
AcDbSpline
70
4
71
3
72
8
73
4
40
0
40
0
40
0
40
0
40
1
40
1
40
1
40
1
41
1
10
215.839522604091
20
-8.94738800081097
30
0
41
1
10
215.784293541993
20
-9.08865888019633
30
0
41
1
10
215.728984164082
20
-9.22971985458352
30
0
41
1
10
215.673607741413
20
-9.3705773726351
30
0
0
SPLINE
5
DD
100
AcDbEntity
8
1
62
256
6
ByLayer
370
18
48
1
60
0
100
AcDbSpline
70
4
71
3
72
8
73
4
40
0
40
0
40
0
40
0
40
1
40
1
40
1
40
1
41
1
10
218.97488607032
20
-0.007678298013758
30
0
41
1
10
218.915412740572
20
-0.118337676243755
30
0
41
1
10
218.856125414422
20
-0.229163231429482
30
0
41
1
10
218.797024346534
20
-0.340155190964879
30
0
0
SPLINE
5
DE
100
AcDbEntity
8
1
62
256
6
ByLayer
370
18
48
1
60
0
100
AcDbSpline
70
4
71
3
72
10
73
6
40
0
40
0
40
0
40
0
40
0.5
40
0.5
40
1
40
1
40
1
40
1
41
1
10
218.952793233776
20
-0.245534185093106
30
0
41
1
10
218.956109571536
20
-0.218652400358849
30
0
41
1
10
218.962293510481
20
-0.187517507699113
30
0
41
1
10
218.978547885353
20
-0.119790618090093
30
0
41
1
10
218.988398188266
20
-0.0842520881171822
30
0
41
1
10
218.999970484332
20
-0.0472481789777248
30
0
0
SPLINE
5
DF
100
AcDbEntity
8
1
62
256
6
ByLayer
370
18
48
1
60
0
100
AcDbSpline
70
4
71
3
72
154
73
150
40
0
40
0
40
0
40
0
40
0.0024161454591993
40
0.0024161454591993
40
0.0239883029546575
40
0.0239883029546575
40
0.0347743817023866
40
0.0347743817023866
40
0.0455604604501158
40
0.0455604604501158
40
0.0563465391978449
40
0.0563465391978449
40
0.067132617945574
40
0.067132617945574
40
0.0779186966933032
40
0.0779186966933032
40
0.0887047754410323
40
0.0887047754410323
40
0.110276932936492
40
0.110276932936492
40
0.131849090431951
40
0.131849090431951
40
0.14263516917968
40
0.14263516917968
40
0.153421247927409
40
0.153421247927409
40
0.174993405422867
40
0.174993405422867
40
0.185779484170597
40
0.185779484170597
40
0.196565562918326
40
0.196565562918326
40
0.207351641666056
40
0.207351641666056
40
0.218137720413786
40
0.218137720413786
40
0.239709877909245
40
0.239709877909245
40
0.261282035404704
40
0.261282035404704
40
0.282854192900163
40
0.282854192900163
40
0.293640271647893
40
0.293640271647893
40
0.304426350395622
40
0.304426350395622
40
0.315212429143352
40
0.315212429143352
40
0.325998507891081
40
0.325998507891081
40
0.347570665386541
40
0.347570665386541
40
0.35835674413427
40
0.35835674413427
40
0.363749783508135
40
0.363749783508135
40
0.369142822881999
40
0.369142822881999
40
0.390714980377455
40
0.390714980377455
40
0.401501059125183
40
0.401501059125183
40
0.412287137872911
40
0.412287137872911
40
0.433859295368365
40
0.433859295368365
40
0.444645374116092
40
0.444645374116092
40
0.455431452863819
40
0.455431452863819
40
0.477003610359272
40
0.477003610359272
40
0.487789689106998
40
0.487789689106998
40
0.498575767854725
40
0.498575767854725
40
0.509361846602451
40
0.509361846602451
40
0.520147925350177
40
0.520147925350177
40
0.54172008284563
40
0.54172008284563
40
0.563292240341083
40
0.563292240341083
40
0.584864397836535
40
0.584864397836535
40
0.595650476584262
40
0.595650476584262
40
0.606436555331987
40
0.606436555331987
40
0.628008712827439
40
0.628008712827439
40
0.638794791575165
40
0.638794791575165
40
0.649580870322891
40
0.649580870322891
40
0.660366949070617
40
0.660366949070617
40
0.671153027818343
40
0.671153027818343
40
0.692725185313795
40
0.692725185313795
40
0.70351126406152
40
0.70351126406152
40
0.714297342809246
40
0.714297342809246
40
0.725083421556972
40
0.725083421556972
40
0.735869500304698
40
0.735869500304698
40
0.746655579052424
40
0.746655579052424
40
0.75744165780015
40
0.75744165780015
40
0.768227736547876
40
0.768227736547876
40
0.779013815295602
40
0.779013815295602
40
0.800585972791054
40
0.800585972791054
40
0.81137205153878
40
0.81137205153878
40
0.822158130286505
40
0.822158130286505
40
0.843730287781957
40
0.843730287781957
40
0.854516366529684
40
0.854516366529684
40
0.86530244527741
40
0.86530244527741
40
0.876088524025137
40
0.876088524025137
40
0.886874602772863
40
0.886874602772863
40
0.908446760268316
40
0.908446760268316
40
0.930018917763768
40
0.930018917763768
40
0.951591075259221
40
0.951591075259221
40
0.962377154006947
40
0.962377154006947
40
0.973163232754673
40
0.973163232754673
40
0.9839493115024
40
0.9839493115024
40
0.994735390250126
40
0.994735390250126
40
1
40
1
40
1
40
1
41
1
10
194.100768340532
20
-4.83932009663522
30
0
41
1
10
194.04369014078
20
-4.86386903820534
30
0
41
1
10
193.986615430845
20
-4.8883159917406
30
0
41
1
10
193.419907321614
20
-5.12986776826907
30
0
41
1
10
192.910423047582
20
-5.33933109209957
30
0
41
1
10
192.147462646425
20
-5.64431855134438
30
0
41
1
10
191.893140855812
20
-5.74394502697606
30
0
41
1
10
191.385081898054
20
-5.93990300391471
30
0
41
1
10
191.131260468632
20
-6.03609922605651
30
0
41
1
10
190.623386161194
20
-6.22384358367717
30
0
41
1
10
190.369346107527
20
-6.31534631607963
30
0
41
1
10
189.860997362953
20
-6.4942962386628
30
0
41
1
10
189.606492273799
20
-6.58161996594381
30
0
41
1
10
189.098246457277
20
-6.75349515048333
30
0
41
1
10
188.844270970464
20
-6.83762099175308
30
0
41
1
10
188.33550785828
20
-7.00058061101683
30
0
41
1
10
188.080847913721
20
-7.07960825898121
30
0
41
1
10
187.316042681998
20
-7.30928870571941
30
0
41
1
10
186.805396274561
20
-7.45274836626442
30
0
41
1
10
185.782766498933
20
-7.72376986637712
30
0
41
1
10
185.270445783877
20
-7.84996893119319
30
0
41
1
10
184.498602464022
20
-8.02209233580035
30
0
41
1
10
184.240412456622
20
-8.07654511291861
30
0
41
1
10
183.725938845965
20
-8.18083408651466
30
0
41
1
10
183.468889472293
20
-8.23031921938752
30
0
41
1
10
182.697541859699
20
-8.37113331987842
30
0
41
1
10
182.183315182734
20
-8.45413421743558
30
0
41
1
10
181.412814400264
20
-8.56072621139185
30
0
41
1
10
181.155960892607
20
-8.59325028661365
30
0
41
1
10
180.642697529642
20
-8.65266371706846
30
0
41
1
10
180.38609494845
20
-8.67952306524472
30
0
41
1
10
179.87246728097
20
-8.72813085800368
30
0
41
1
10
179.615456061042
20
-8.7497952363729
30
0
41
1
10
179.101078928553
20
-8.78720949969741
30
0
41
1
10
178.843588250031
20
-8.80297508745767
30
0
41
1
10
178.072250386584
20
-8.84142229535445
30
0
41
1
10
177.556478402912
20
-8.85345385342561
30
0
41
1
10
176.526622532827
20
-8.85712427239596
30
0
41
1
10
176.012389376312
20
-8.84807758010521
30
0
41
1
10
174.985349059071
20
-8.80547179773404
30
0
41
1
10
174.471886202173
20
-8.77114726942301
30
0
41
1
10
173.700669912546
20
-8.70402538066352
30
0
41
1
10
173.443539603819
20
-8.67891347738734
30
0
41
1
10
172.929783346018
20
-8.62274746241474
30
0
41
1
10
172.672691496398
20
-8.59189071908403
30
0
41
1
10
172.157940514346
20
-8.52451771612897
30
0
41
1
10
171.900233364783
20
-8.48803220902167
30
0
41
1
10
171.384480325815
20
-8.40862748353405
30
0
41
1
10
171.126857850509
20
-8.36592835761229
30
0
41
1
10
170.354316853568
20
-8.23065927837948
30
0
41
1
10
169.840587799077
20
-8.12947633663222
30
0
41
1
10
169.06954794246
20
-7.96241328418299
30
0
41
1
10
168.812490088431
20
-7.9041517028333
30
0
41
1
10
168.42686685475
20
-7.81241102377595
30
0
41
1
10
168.29826359059
20
-7.78117745463004
30
0
41
1
10
168.041318017907
20
-7.7172570684981
30
0
41
1
10
167.913040955449
20
-7.68449669393692
30
0
41
1
10
167.271066378
20
-7.5184374903944
30
0
41
1
10
166.756589033388
20
-7.37698346010612
30
0
41
1
10
165.98419580442
20
-7.14996109711817
30
0
41
1
10
165.726706848482
20
-7.07162290171431
30
0
41
1
10
165.211140367015
20
-6.90962117131613
30
0
41
1
10
164.953431518642
20
-6.82565846963416
30
0
41
1
10
164.182036136417
20
-6.56845002189058
30
0
41
1
10
163.668794936255
20
-6.38988895293659
30
0
41
1
10
162.900337725593
20
-6.11077562840447
30
0
41
1
10
162.644821670511
20
-6.01524715691048
30
0
41
1
10
162.134291728307
20
-5.82009224195176
30
0
41
1
10
161.879169293811
20
-5.72069867204274
30
0
41
1
10
161.1138724787
20
-5.41846450353341
30
0
41
1
10
160.604184610216
20
-5.21079565423489
30
0
41
1
10
159.840419745334
20
-4.88941998600887
30
0
41
1
10
159.586136497345
20
-4.7803505374348
30
0
41
1
10
159.077621088465
20
-4.55882180556162
30
0
41
1
10
158.823351364752
20
-4.44639673685563
30
0
41
1
10
158.314493973319
20
-4.21941137981591
30
0
41
1
10
158.059935831607
20
-4.10484369270745
30
0
41
1
10
157.550615480113
20
-3.8733864794969
30
0
41
1
10
157.29630227208
20
-3.755677495528
30
0
41
1
10
156.532711935438
20
-3.39940933094542
30
0
41
1
10
156.022455492949
20
-3.15818476941072
30
0
41
1
10
155.000721642515
20
-2.66512857352956
30
0
41
1
10
154.489089058986
20
-2.41457809854134
30
0
41
1
10
153.463859484121
20
-1.90571342687207
30
0
41
1
10
152.949573074476
20
-1.64868829577608
30
0
41
1
10
152.175076363106
20
-1.25908252867831
30
0
41
1
10
151.917666378036
20
-1.12780635088711
30
0
41
1
10
151.40263842348
20
-0.865817924006905
30
0
41
1
10
151.145152588567
20
-0.734846989287348
30
0
41
1
10
150.372642826276
20
-0.342281768179987
30
0
41
1
10
149.858060254974
20
-0.0800552324770933
30
0
41
1
10
149.0866762699
20
0.313689994750803
30
0
41
1
10
148.829800823833
20
0.445345076886468
30
0
41
1
10
148.315702510689
20
0.707821044767087
30
0
41
1
10
148.058501108524
20
0.838682598752257
30
0
41
1
10
147.543697750148
20
1.0994573352915
30
0
41
1
10
147.286085604267
20
1.2293506353503
30
0
41
1
10
146.770655542053
20
1.48856380373436
30
0
41
1
10
146.51342013074
20
1.61902538686078
30
0
41
1
10
145.739934924237
20
2.00664045558798
30
0
41
1
10
145.22351273539
20
2.26111845540964
30
0
41
1
10
144.450866677168
20
2.63889283738874
30
0
41
1
10
144.193319884177
20
2.76373207105033
30
0
41
1
10
143.678763948921
20
3.01215659391104
30
0
41
1
10
143.42174974928
20
3.13573712724869
30
0
41
1
10
142.9075198871
20
3.38006385278371
30
0
41
1
10
142.650325819943
20
3.5007971173905
30
0
41
1
10
142.135681883791
20
3.73954762845531
30
0
41
1
10
141.87806477978
20
3.8573363892047
30
0
41
1
10
141.363437313558
20
4.09188993599616
30
0
41
1
10
141.106386263794
20
4.20854395469246
30
0
41
1
10
140.591386942348
20
4.43797899996167
30
0
41
1
10
140.33361345531
20
4.55106639448451
30
0
41
1
10
139.817521804729
20
4.77390819967314
30
0
41
1
10
139.559221005593
20
4.88393434537124
30
0
41
1
10
139.043296337252
20
5.10050573299577
30
0
41
1
10
138.785402708056
20
5.20689978949244
30
0
41
1
10
138.012819210383
20
5.52222478315147
30
0
41
1
10
137.498408234876
20
5.72565036696395
30
0
41
1
10
136.726214538744
20
6.01693640166033
30
0
41
1
10
136.4685570444
20
6.11155905585622
30
0
41
1
10
135.954476609176
20
6.29848952170801
30
0
41
1
10
135.697381391631
20
6.38984564364517
30
0
41
1
10
134.925401249343
20
6.65725088968586
30
0
41
1
10
134.409957758026
20
6.82673797991407
30
0
41
1
10
133.636225462922
20
7.06716333938533
30
0
41
1
10
133.377897448885
20
7.1449124019872
30
0
41
1
10
132.862210680882
20
7.29617105944095
30
0
41
1
10
132.604798551104
20
7.36941096334897
30
0
41
1
10
132.090422997495
20
7.5106039360133
30
0
41
1
10
131.833468479948
20
7.57857705182613
30
0
41
1
10
131.32008016965
20
7.70920107684256
30
0
41
1
10
131.063572699756
20
7.7717913181622
30
0
41
1
10
130.296336398135
20
7.95271580459027
30
0
41
1
10
129.785404645918
20
8.06167891939072
30
0
41
1
10
128.764304136953
20
8.25875913255135
30
0
41
1
10
128.254461324594
20
8.34731122067049
30
0
41
1
10
127.236221391412
20
8.50221857303734
30
0
41
1
10
126.727183415159
20
8.56779382440396
30
0
41
1
10
125.962720378124
20
8.64982430898115
30
0
41
1
10
125.707818444042
20
8.67448666642076
30
0
41
1
10
125.198609040254
20
8.71859828618807
30
0
41
1
10
124.943810221438
20
8.73784065990378
30
0
41
1
10
124.433686381512
20
8.7704198649264
30
0
41
1
10
124.178314391418
20
8.78372940087837
30
0
41
1
10
123.667245348757
20
8.80432771437918
30
0
41
1
10
123.411661534508
20
8.81169400786536
30
0
41
1
10
123.030852011169
20
8.81856942014778
30
0
41
1
10
122.905926392467
20
8.82017437134186
30
0
41
1
10
122.780958286384
20
8.82111692884854
30
0
0
SPLINE
5
E0
100
AcDbEntity
8
1
62
256
6
ByLayer
370
18
48
1
60
0
100
AcDbSpline
70
4
71
3
72
140
73
136
40
0
40
0
40
0
40
0
40
0.0139138512950425
40
0.0139138512950425
40
0.0355195951602185
40
0.0355195951602185
40
0.0571253390253946
40
0.0571253390253946
40
0.0787310828905706
40
0.0787310828905706
40
0.100336826755747
40
0.100336826755747
40
0.121942570620923
40
0.121942570620923
40
0.132745442553511
40
0.132745442553511
40
0.143548314486099
40
0.143548314486099
40
0.165154058351275
40
0.165154058351275
40
0.175956930283864
40
0.175956930283864
40
0.186759802216452
40
0.186759802216452
40
0.208365546081628
40
0.208365546081628
40
0.219168418014217
40
0.219168418014217
40
0.229971289946805
40
0.229971289946805
40
0.251577033811981
40
0.251577033811981
40
0.262379905744569
40
0.262379905744569
40
0.273182777677156
40
0.273182777677156
40
0.294788521542331
40
0.294788521542331
40
0.305591393474919
40
0.305591393474919
40
0.316394265407506
40
0.316394265407506
40
0.327197137340094
40
0.327197137340094
40
0.338000009272681
40
0.338000009272681
40
0.359605753137856
40
0.359605753137856
40
0.370408625070444
40
0.370408625070444
40
0.381211497003031
40
0.381211497003031
40
0.392014368935619
40
0.392014368935619
40
0.402817240868206
40
0.402817240868206
40
0.424422984733381
40
0.424422984733381
40
0.446028728598556
40
0.446028728598556
40
0.467634472463732
40
0.467634472463732
40
0.478437344396319
40
0.478437344396319
40
0.489240216328906
40
0.489240216328906
40
0.500043088261494
40
0.500043088261494
40
0.510845960194081
40
0.510845960194081
40
0.532451704059256
40
0.532451704059256
40
0.554057447924431
40
0.554057447924431
40
0.575663191789607
40
0.575663191789607
40
0.597268935654782
40
0.597268935654782
40
0.618874679519957
40
0.618874679519957
40
0.629677551452544
40
0.629677551452544
40
0.640480423385132
40
0.640480423385132
40
0.662086167250307
40
0.662086167250307
40
0.683691911115482
40
0.683691911115482
40
0.694494783048069
40
0.694494783048069
40
0.705297654980657
40
0.705297654980657
40
0.726903398845831
40
0.726903398845831
40
0.737706270778419
40
0.737706270778419
40
0.748509142711006
40
0.748509142711006
40
0.759312014643594
40
0.759312014643594
40
0.770114886576181
40
0.770114886576181
40
0.780917758508768
40
0.780917758508768
40
0.791720630441356
40
0.791720630441356
40
0.802523502373943
40
0.802523502373943
40
0.813326374306531
40
0.813326374306531
40
0.834932118171705
40
0.834932118171705
40
0.845734990104293
40
0.845734990104293
40
0.85653786203688
40
0.85653786203688
40
0.878143605902054
40
0.878143605902054
40
0.888946477834641
40
0.888946477834641
40
0.899749349767229
40
0.899749349767229
40
0.910552221699815
40
0.910552221699815
40
0.921355093632403
40
0.921355093632403
40
0.942960837497577
40
0.942960837497577
40
0.964566581362751
40
0.964566581362751
40
0.986172325227925
40
0.986172325227925
40
0.996975197160512
40
0.996975197160512
40
1
40
1
40
1
40
1
41
1
10
85.4811627555515
20
-4.73074841744679
30
0
41
1
10
85.1492820700716
20
-4.87296484126426
30
0
41
1
10
84.8175079384587
20
-5.01264756304266
30
0
41
1
10
83.9697236617406
20
-5.36191855524089
30
0
41
1
10
83.4530795776336
20
-5.56690704683874
30
0
41
1
10
82.4206326485303
20
-5.96464294863202
30
0
41
1
10
81.902697761492
20
-6.15427879025873
30
0
41
1
10
80.8689504805473
20
-6.51732251334147
30
0
41
1
10
80.3528328791687
20
-6.69094537892866
30
0
41
1
10
79.3218276315004
20
-7.02011569910081
30
0
41
1
10
78.8062521522077
20
-7.17407501166676
30
0
41
1
10
77.7739886350469
20
-7.46324009181333
30
0
41
1
10
77.2587390931583
20
-7.59997926361254
30
0
41
1
10
76.4835764999306
20
-7.78778878384762
30
0
41
1
10
76.2248681710931
20
-7.84761200413718
30
0
41
1
10
75.707327146924
20
-7.96207653642264
30
0
41
1
10
75.4486439070436
20
-8.01657968188059
30
0
41
1
10
74.6731951562314
20
-8.17236026963602
30
0
41
1
10
74.1575729474216
20
-8.26661334631851
30
0
41
1
10
73.3834897561511
20
-8.38973936982467
30
0
41
1
10
73.1254384713098
20
-8.42779694861702
30
0
41
1
10
72.6092942853457
20
-8.49821328774618
30
0
41
1
10
72.3517369281327
20
-8.53083737117899
30
0
41
1
10
71.5783495043919
20
-8.62010547563688
30
0
41
1
10
71.0618015208679
20
-8.66848257852897
30
0
41
1
10
70.286766530954
20
-8.72311632682525
30
0
41
1
10
70.0282253765899
20
-8.73818291962144
30
0
41
1
10
69.5108694697506
20
-8.76250145822897
30
0
41
1
10
69.2522386756857
20
-8.77185100770325
30
0
41
1
10
68.4769421619112
20
-8.79138085382172
30
0
41
1
10
67.9602143068697
20
-8.79313953388163
30
0
41
1
10
67.185581029951
20
-8.77770495664566
30
0
41
1
10
66.9280892219617
20
-8.76939992615786
30
0
41
1
10
66.4123910346121
20
-8.74689107037079
30
0
41
1
10
66.154432138461
20
-8.73276553535044
30
0
41
1
10
65.3801012264757
20
-8.68227691028042
30
0
41
1
10
64.8637693855501
20
-8.63764436896696
30
0
41
1
10
64.0890167759761
20
-8.55258804486107
30
0
41
1
10
63.8308177904968
20
-8.52111093849305
30
0
41
1
10
63.3137522933112
20
-8.45223705054227
30
0
41
1
10
63.0547927525579
20
-8.41492653385953
30
0
41
1
10
62.5372280318572
20
-8.33529858474773
30
0
41
1
10
62.2783495334434
20
-8.29303154143315
30
0
41
1
10
61.7617420689899
20
-8.20250294091829
30
0
41
1
10
61.5038700729921
20
-8.15430842945224
30
0
41
1
10
60.7296408424686
20
-8.00212129813727
30
0
41
1
10
60.2132361210506
20
-7.88993299869057
30
0
41
1
10
59.4390995775077
20
-7.70591608475419
30
0
41
1
10
59.1809257945658
20
-7.64217457710237
30
0
41
1
10
58.6649361079608
20
-7.50932559231822
30
0
41
1
10
58.4069645749346
20
-7.44035008925806
30
0
41
1
10
57.8905052910426
20
-7.29759623773379
30
0
41
1
10
57.6320261038866
20
-7.22381602611375
30
0
41
1
10
57.1145623757915
20
-7.07120170059622
30
0
41
1
10
56.8552354668833
20
-6.99256874680793
30
0
41
1
10
56.0795500679091
20
-6.74779259930702
30
0
41
1
10
55.5626807678251
20
-6.57666050171423
30
0
41
1
10
54.5291086566763
20
-6.21868023228384
30
0
41
1
10
54.012857425659
20
-6.03090227405633
30
0
41
1
10
52.9812483630772
20
-5.63778757709281
30
0
41
1
10
52.4652322619805
20
-5.43399701366255
30
0
41
1
10
51.6898740043246
20
-5.11879124743297
30
0
41
1
10
51.4312590735328
20
-5.01202964100077
30
0
41
1
10
50.9145141050062
20
-4.79355951879759
30
0
41
1
10
50.6558066249071
20
-4.68263609119469
30
0
41
1
10
50.1379212209087
20
-4.45805006326438
30
0
41
1
10
49.8789980035247
20
-4.34469336637491
30
0
41
1
10
49.3615217917583
20
-4.11540682380917
30
0
41
1
10
49.1030851340728
20
-3.99923618486676
30
0
41
1
10
48.3278648384748
20
-3.64736230470675
30
0
41
1
10
47.8122023150621
20
-3.40633187228252
30
0
41
1
10
46.7798163597021
20
-2.91717071491712
30
0
41
1
10
46.2629727530628
20
-2.66993985053878
30
0
41
1
10
45.2304298231769
20
-2.16512228072548
30
0
41
1
10
44.7130685530736
20
-1.91064848426947
30
0
41
1
10
43.6767852669121
20
-1.39512184047189
30
0
41
1
10
43.1591544045319
20
-1.13532765772609
30
0
41
1
10
42.1258418803426
20
-0.612870199450072
30
0
41
1
10
41.6092867466243
20
-0.351452192499806
30
0
41
1
10
40.8342180627762
20
0.0401867054100649
30
0
41
1
10
40.5762641528676
20
0.171528604801836
30
0
41
1
10
40.060092453091
20
0.43368360298507
30
0
41
1
10
39.8018461866797
20
0.564439955049465
30
0
41
1
10
39.0264481755714
20
0.955392227968815
30
0
41
1
10
38.5090718267043
20
1.21513384069871
30
0
41
1
10
37.4730378968646
20
1.7320486953135
30
0
41
1
10
36.9556127408384
20
1.9899156310166
30
0
41
1
10
36.1796703943717
20
2.36945964444738
30
0
41
1
10
35.9210584116533
20
2.49500315012509
30
0
41
1
10
35.4039624167471
20
2.74409431443001
30
0
41
1
10
35.1461161372361
20
2.86881004943618
30
0
41
1
10
34.3717262459229
20
3.23787893224392
30
0
41
1
10
33.8547485373129
20
3.47829113439067
30
0
41
1
10
33.079453407739
20
3.83324000012934
30
0
41
1
10
32.8208409780876
20
3.95021554030046
30
0
41
1
10
32.3036198088794
20
4.18213886098448
30
0
41
1
10
32.0450983576215
20
4.29723110893232
30
0
41
1
10
31.527424335807
20
4.52421229337031
30
0
41
1
10
31.2681805981555
20
4.63618902273601
30
0
41
1
10
30.7500803167982
20
4.85643269182083
30
0
41
1
10
30.4910275001448
20
4.96458838340146
30
0
41
1
10
29.9736690313904
20
5.17817244059904
30
0
41
1
10
29.7156337632752
20
5.28402140979435
30
0
41
1
10
29.1990095581511
20
5.49078303779044
30
0
41
1
10
28.9406603484433
20
5.59205336043084
30
0
41
1
10
28.4238805338899
20
5.78985756559288
30
0
41
1
10
28.1655713404775
20
5.88664313403413
30
0
41
1
10
27.6490326053382
20
6.07667337257195
30
0
41
1
10
27.3906039105738
20
6.16960800674522
30
0
41
1
10
26.615801970236
20
6.44349493360647
30
0
41
1
10
26.099133099124
20
6.61841922698574
30
0
41
1
10
25.3221882279237
20
6.86683096953948
30
0
41
1
10
25.0625832438199
20
6.94716494930955
30
0
41
1
10
24.5449607184972
20
7.10461134317131
30
0
41
1
10
24.2863741876417
20
7.18094562477495
30
0
41
1
10
23.5105780707807
20
7.40190095199716
30
0
41
1
10
22.9934975060763
20
7.53894152962778
30
0
41
1
10
22.2188010502908
20
7.72832277868059
30
0
41
1
10
21.9605926082704
20
7.78840638225034
30
0
41
1
10
21.4446265362903
20
7.90368771212525
30
0
41
1
10
21.1866708316229
20
7.95884587454017
30
0
41
1
10
20.6703581473112
20
8.06396557931009
30
0
41
1
10
20.4120131912211
20
8.11389452586715
30
0
41
1
10
19.8949873126883
20
8.20836136211409
30
0
41
1
10
19.636235140669
20
8.25284746287042
30
0
41
1
10
18.8609937880404
20
8.37900821328103
30
0
41
1
10
18.3423502361549
20
8.45180688393529
30
0
41
1
10
17.3066007676113
20
8.57455107981411
30
0
41
1
10
16.789644840376
20
8.62458841526291
30
0
41
1
10
15.757345884337
20
8.70080239381113
30
0
41
1
10
15.2412886258486
20
8.72689692252521
30
0
41
1
10
14.4664731231534
20
8.74930345571161
30
0
41
1
10
14.208258714574
20
8.75399715602541
30
0
41
1
10
13.8780665784572
20
8.75624709212076
30
0
41
1
10
13.8058283720942
20
8.75650751290218
30
0
41
1
10
13.7335780364178
20
8.75653414136175
30
0
0
SPLINE
5
E1
100
AcDbEntity
8
1
62
256
6
ByLayer
370
13
48
1
60
0
100
AcDbSpline
70
4
71
3
72
29
73
25
40
0
40
0
40
0
40
0
40
0.0017795678535144
40
0.0017795678535144
40
0.101601611068163
40
0.101601611068163
40
0.201423654282811
40
0.30124569749746
40
0.30124569749746
40
0.401067740712108
40
0.401067740712108
40
0.500889783926756
40
0.500889783926756
40
0.550800805534081
40
0.550800805534081
40
0.600711827141405
40
0.600711827141405
40
0.800355913570702
40
0.800355913570702
40
0.900177956785351
40
0.900177956785351
40
0.950088978392676
40
0.950088978392676
40
1
40
1
40
1
40
1
41
1
10
6.25019254953783
20
-8.75194952669448
30
0
41
1
10
6.25019250001855
20
-8.75194852790231
30
0
41
1
10
6.25019245641144
20
-8.75194394451106
30
0
41
1
10
6.25018990687073
20
-8.75146173592819
30
0
41
1
10
6.2501876331263
20
-8.73898751915465
30
0
41
1
10
6.25018392233898
20
-8.69089120212826
30
0
41
1
10
6.25018103355973
20
-8.61965199947636
30
0
41
1
10
6.25018034365314
20
-8.5027120734787
30
0
41
1
10
6.25018099085608
20
-8.36266134102681
30
0
41
1
10
6.25018198635632
20
-8.28090927120482
30
0
41
1
10
6.25018550746401
20
-8.09420310087609
30
0
41
1
10
6.25018801760439
20
-7.98999412486464
30
0
41
1
10
6.25019295548714
20
-7.81752699162917
30
0
41
1
10
6.25019479653616
20
-7.75734152523174
30
0
41
1
10
6.25019887265285
20
-7.63154970046807
30
0
41
1
10
6.25020111184426
20
-7.56583622730915
30
0
41
1
10
6.25021319775678
20
-7.22622090446561
30
0
41
1
10
6.25022578108002
20
-6.91799904758886
30
0
41
1
10
6.25024813132731
20
-6.40286109341818
30
0
41
1
10
6.25025615586483
20
-6.2222931190212
30
0
41
1
10
6.25026889263978
20
-5.93792194381777
30
0
41
1
10
6.25027325450989
20
-5.84087499089682
30
0
41
1
10
6.25028217867896
20
-5.64218586966047
30
0
41
1
10
6.25028675251752
20
-5.54028434629336
30
0
41
1
10
6.25029136492984
20
-5.43700646197408
30
0
0
SPLINE
5
E2
100
AcDbEntity
8
1
62
256
6
ByLayer
370
18
48
1
60
0
100
AcDbSpline
70
4
71
3
72
18
73
14
40
0
40
0
40
0
40
0
40
0.0086500328298787
40
0.0086500328298787
40
0.306890112052117
40
0.306890112052117
40
0.456010151663235
40
0.456010151663235
40
0.605130191274354
40
0.605130191274354
40
0.903370270496585
40
0.903370270496585
40
1
40
1
40
1
40
1
41
1
10
160.462872561903
20
-8.84618504099262
30
0
41
1
10
160.431115178705
20
-8.84648205332468
30
0
41
1
10
160.399356939489
20
-8.84673431703493
30
0
41
1
10
159.272596765925
20
-8.85409507040151
30
0
41
1
10
158.181113850573
20
-8.8080781728834
30
0
41
1
10
156.543434233652
20
-8.66118308871734
30
0
41
1
10
155.997417429264
20
-8.59920051805574
30
0
41
1
10
154.904106469846
20
-8.44965380384093
30
0
41
1
10
154.356224034424
20
-8.36191112410881
30
0
41
1
10
152.714410263253
20
-8.0617768756976
30
0
41
1
10
151.623098145772
20
-7.81288692360775
30
0
41
1
10
150.17725280096
20
-7.42363836894586
30
0
41
1
10
149.823356458785
20
-7.3236584630111
30
0
41
1
10
149.469240260672
20
-7.21910424860619
30
0
0
SPLINE
5
E3
100
AcDbEntity
8
1
62
256
6
ByLayer
370
13
48
1
60
0
100
AcDbSpline
70
4
71
3
72
28
73
24
40
0
40
0
40
0
40
0
40
0.0283550895263451
40
0.0283550895263451
40
0.108909234880979
40
0.108909234880979
40
0.270017525590244
40
0.270017525590244
40
0.350571670944879
40
0.350571670944879
40
0.431125816299512
40
0.431125816299512
40
0.59223410700878
40
0.59223410700878
40
0.672788252363414
40
0.672788252363414
40
0.753342397718049
40
0.753342397718049
40
0.914450688427314
40
0.914450688427314
40
0.995004833781945
40
0.995004833781945
40
1
40
1
40
1
40
1
41
1
10
149.469240261111
20
-7.21910424873593
30
0
41
1
10
149.276880527075
20
-7.16230927301402
30
0
41
1
10
149.0844559184
20
-7.10416451974933
30
0
41
1
10
148.345035399497
20
-6.8757448646675
30
0
41
1
10
147.796865104746
20
-6.6958217969719
30
0
41
1
10
146.15565085464
20
-6.127891462398
30
0
41
1
10
145.064455861334
20
-5.71142616030769
30
0
41
1
10
143.425998491379
20
-5.03907498238596
30
0
41
1
10
142.879565663448
20
-4.80702177179029
30
0
41
1
10
141.785213646596
20
-4.32855779028068
30
0
41
1
10
141.237042315206
20
-4.08206743868436
30
0
41
1
10
139.596325266536
20
-3.32725098056593
30
0
41
1
10
138.505184585377
20
-2.80233244516035
30
0
41
1
10
136.866265907484
20
-1.9939659967815
30
0
41
1
10
136.319601967826
20
-1.72098890268987
30
0
41
1
10
135.224612635392
20
-1.16980943995259
30
0
41
1
10
134.676720406641
20
-0.891898830462992
30
0
41
1
10
133.036464373099
20
-0.0573376114575126
30
0
41
1
10
131.945314331566
20
0.501557982732436
30
0
41
1
10
130.305831583264
20
1.33129082260749
30
0
41
1
10
129.758893937259
20
1.60646405236793
30
0
41
1
10
129.177105632357
20
1.89630031472728
30
0
41
1
10
129.143137305982
20
1.91321150447769
30
0
41
1
10
129.109170922593
20
1.93011022893103
30
0
0
SPLINE
5
E4
100
AcDbEntity
8
1
62
256
6
ByLayer
370
18
48
1
60
0
100
AcDbSpline
70
4
71
3
72
18
73
14
40
0
40
0
40
0
40
0
40
0.206238100886397
40
0.206238100886397
40
0.346726911866569
40
0.346726911866569
40
0.487215722846738
40
0.487215722846738
40
0.768193344807081
40
0.768193344807081
40
0.908682155787253
40
0.908682155787253
40
1
40
1
40
1
40
1
41
1
10
51.3285310956113
20
-8.7799601043196
30
0
41
1
10
50.5258892227527
20
-8.77950699499604
30
0
41
1
10
49.7231523261192
20
-8.75070393388361
30
0
41
1
10
48.3709940855853
20
-8.65476468772249
30
0
41
1
10
47.8220425088287
20
-8.60271814993746
30
0
41
1
10
46.7265989173135
20
-8.47330354403886
30
0
41
1
10
46.1796137054233
20
-8.39590129172515
30
0
41
1
10
44.5391120596292
20
-8.12635530649206
30
0
41
1
10
43.4459985861805
20
-7.89714929803958
30
0
41
1
10
41.8014530598992
20
-7.48324050874146
30
0
41
1
10
41.2526503650924
20
-7.33367277079012
30
0
41
1
10
40.3491566208621
20
-7.06971829909557
30
0
41
1
10
39.9935085354909
20
-6.9612618827941
30
0
41
1
10
39.6379733504818
20
-6.84851412597277
30
0
0
SPLINE
5
E5
100
AcDbEntity
8
1
62
256
6
ByLayer
370
13
48
1
60
0
100
AcDbSpline
70
4
71
3
72
24
73
20
40
0
40
0
40
0
40
0
40
0.0294959696933537
40
0.0294959696933537
40
0.1980447682534
40
0.1980447682534
40
0.282319167533423
40
0.282319167533423
40
0.366593566813447
40
0.366593566813447
40
0.535142365373492
40
0.535142365373492
40
0.703691163933538
40
0.703691163933538
40
0.787965563213561
40
0.787965563213561
40
0.872239962493585
40
0.872239962493585
40
1
40
1
40
1
40
1
41
1
10
39.6379733538891
20
-6.84851412705333
30
0
41
1
10
39.4465320313175
20
-6.78780401849679
30
0
41
1
10
39.2551234429311
20
-6.72584968421538
30
0
41
1
10
37.9699998431732
20
-6.301707392503
30
0
41
1
10
36.8765681727243
20
-5.9011701716646
30
0
41
1
10
35.2311376778948
20
-5.2487301202587
30
0
41
1
10
34.6827587381071
20
-5.02319040766068
30
0
41
1
10
33.5879306404848
20
-4.55835121506834
30
0
41
1
10
33.0410707655258
20
-4.31893956717769
30
0
41
1
10
31.4004189775353
20
-3.58274014958457
30
0
41
1
10
30.3064353299676
20
-3.06780893476827
30
0
41
1
10
28.1112918400774
20
-2.00395845314046
30
0
41
1
10
27.0177438037416
20
-1.45828216391456
30
0
41
1
10
25.376931350507
20
-0.631944743335453
30
0
41
1
10
24.8298989384708
20
-0.355221463749444
30
0
41
1
10
23.7346698261666
20
0.198853214500417
30
0
41
1
10
23.1859774212858
20
0.476444179075145
30
0
41
1
10
21.8057130960883
20
1.17184929817597
30
0
41
1
10
20.9761898596282
20
1.58748482274015
30
0
41
1
10
20.1469166372204
20
1.99602951896404
30
0
0
SPLINE
5
E6
100
AcDbEntity
8
1
62
256
6
ByLayer
370
18
48
1
60
0
100
AcDbSpline
70
4
71
3
72
12
73
8
40
0
40
0
40
0
40
0
40
0.5
40
0.5
40
0.75
40
0.75
40
1
40
1
40
1
40
1
41
1
10
215.982831678467
20
-9.13745651929412
30
0
41
1
10
216.434253107987
20
-8.00140697409458
30
0
41
1
10
216.884850909508
20
-6.86360361534824
30
0
41
1
10
217.555687160838
20
-5.15247946304689
30
0
41
1
10
217.778531306855
20
-4.58125460243099
30
0
41
1
10
218.221857056438
20
-3.43827990527731
30
0
41
1
10
218.442388427444
20
-2.86647351197118
30
0
41
1
10
218.661501278329
20
-2.29424164996089
30
0
0
SPLINE
5
E7
100
AcDbEntity
8
1
62
256
6
ByLayer
370
18
48
1
60
0
100
AcDbSpline
70
4
71
3
72
14
73
10
40
0
40
0
40
0
40
0
40
0.25
40
0.25
40
0.5
40
0.5
40
0.75
40
0.75
40
1
40
1
40
1
40
1
41
1
10
215.856237411104
20
-8.8566957432578
30
0
41
1
10
215.858772325744
20
-8.8556282087383
30
0
41
1
10
215.86062900816
20
-8.85636564939122
30
0
41
1
10
215.862540654805
20
-8.86262309275205
30
0
41
1
10
215.862516997391
20
-8.86817019077316
30
0
41
1
10
215.85984857214
20
-8.88464809955232
30
0
41
1
10
215.857153332135
20
-8.89563738065294
30
0
41
1
10
215.849494219248
20
-8.92062447160527
30
0
41
1
10
215.844670223912
20
-8.93422086106364
30
0
41
1
10
215.839522604092
20
-8.94738800080984
30
0
0
SPLINE
5
E8
100
AcDbEntity
8
1
62
256
6
ByLayer
370
18
48
1
60
0
100
AcDbSpline
70
4
71
3
72
38
73
34
40
0
40
0
40
0
40
0
40
0.0803212762218995
40
0.0803212762218995
40
0.12048191433285
40
0.12048191433285
40
0.160642552443801
40
0.160642552443801
40
0.240963828665702
40
0.240963828665702
40
0.321285104887603
40
0.321285104887603
40
0.401606381109504
40
0.401606381109504
40
0.481927657331405
40
0.481927657331405
40
0.562248933553307
40
0.562248933553307
40
0.642570209775208
40
0.642570209775208
40
0.682730847886158
40
0.682730847886158
40
0.722891485997109
40
0.722891485997109
40
0.803212762219012
40
0.803212762219012
40
0.843373400329964
40
0.843373400329964
40
0.883534038440916
40
0.883534038440916
40
0.963855314662821
40
0.963855314662821
40
1
40
1
40
1
40
1
41
1
10
11.6225958308312
20
-8.69110731237055
30
0
41
1
10
12.1411129142518
20
-8.72295460622641
30
0
41
1
10
12.6580613847469
20
-8.74350711480048
30
0
41
1
10
13.4304194465184
20
-8.75627423464059
30
0
41
1
10
13.6874012175097
20
-8.75749842122573
30
0
41
1
10
14.200736615315
20
-8.75409513300875
30
0
41
1
10
14.4574253845585
20
-8.74948626471624
30
0
41
1
10
15.2271198143245
20
-8.72745948563787
30
0
41
1
10
15.7390182333763
20
-8.70179164109535
30
0
41
1
10
16.7612815567378
20
-8.62703008221135
30
0
41
1
10
17.2723300693883
20
-8.57800803043361
30
0
41
1
10
18.2945885825256
20
-8.45802475117483
30
0
41
1
10
18.8055463921978
20
-8.38707631718037
30
0
41
1
10
19.826868035955
20
-8.22267093001031
30
0
41
1
10
20.339029254768
20
-8.13028231343
30
0
41
1
10
21.3630400549445
20
-7.92391803317904
30
0
41
1
10
21.8751677770904
20
-7.81089036875514
30
0
41
1
10
22.9031218080647
20
-7.56224508000989
30
0
41
1
10
23.4186580015979
20
-7.42672687413798
30
0
41
1
10
24.193678730444
20
-7.20785664644805
30
0
41
1
10
24.4524356592575
20
-7.13216550933313
30
0
41
1
10
24.9700104257706
20
-6.97574496555069
30
0
41
1
10
25.2291494270457
20
-6.89592558153913
30
0
41
1
10
26.0055531303918
20
-6.64934582101662
30
0
41
1
10
26.522041682359
20
-6.47571693194348
30
0
41
1
10
27.2963823757123
20
-6.20326140771454
30
0
41
1
10
27.5546837352974
20
-6.11079214594199
30
0
41
1
10
28.0711066461253
20
-5.92180470358304
30
0
41
1
10
28.3292950167722
20
-5.82542951830652
30
0
41
1
10
29.1043636636679
20
-5.53036209942968
30
0
41
1
10
29.6208175738267
20
-5.32389938907778
30
0
41
1
10
30.370514091314
20
-5.01432609117342
30
0
41
1
10
30.6037848416684
20
-4.91758982925174
30
0
41
1
10
30.8370425521354
20
-4.81919683668815
30
0
0
SPLINE
5
E9
100
AcDbEntity
8
1
62
256
6
ByLayer
370
18
48
1
60
0
100
AcDbSpline
70
4
71
3
72
142
73
138
40
0
40
0
40
0
40
0
40
0.0099736533633455
40
0.0099736533633455
40
0.0207676581484458
40
0.0207676581484458
40
0.031561662933546
40
0.031561662933546
40
0.0531496725037461
40
0.0531496725037461
40
0.0639436772888465
40
0.0639436772888465
40
0.0747376820739466
40
0.0747376820739466
40
0.0963256916441472
40
0.0963256916441472
40
0.117913701214348
40
0.117913701214348
40
0.128707705999448
40
0.128707705999448
40
0.139501710784549
40
0.139501710784549
40
0.16108972035475
40
0.16108972035475
40
0.18267772992495
40
0.18267772992495
40
0.204265739495152
40
0.204265739495152
40
0.209662741887702
40
0.209662741887702
40
0.215059744280252
40
0.215059744280252
40
0.225853749065352
40
0.225853749065352
40
0.247441758635551
40
0.247441758635551
40
0.258235763420651
40
0.258235763420651
40
0.26902976820575
40
0.26902976820575
40
0.27982377299085
40
0.27982377299085
40
0.29061777777595
40
0.29061777777595
40
0.312205787346148
40
0.312205787346148
40
0.322999792131247
40
0.322999792131247
40
0.333793796916346
40
0.333793796916346
40
0.355381806486545
40
0.355381806486545
40
0.366175811271645
40
0.366175811271645
40
0.376969816056745
40
0.376969816056745
40
0.387763820841845
40
0.387763820841845
40
0.398557825626944
40
0.398557825626944
40
0.420145835197142
40
0.420145835197142
40
0.430939839982241
40
0.430939839982241
40
0.44173384476734
40
0.44173384476734
40
0.463321854337537
40
0.463321854337537
40
0.484909863907735
40
0.484909863907735
40
0.495703868692834
40
0.495703868692834
40
0.506497873477933
40
0.506497873477933
40
0.517291878263032
40
0.517291878263032
40
0.528085883048131
40
0.528085883048131
40
0.538879887833231
40
0.538879887833231
40
0.54967389261833
40
0.54967389261833
40
0.571261902188529
40
0.571261902188529
40
0.582055906973629
40
0.582055906973629
40
0.592849911758729
40
0.592849911758729
40
0.603643916543829
40
0.603643916543829
40
0.614437921328929
40
0.614437921328929
40
0.63602593089913
40
0.63602593089913
40
0.646819935684229
40
0.646819935684229
40
0.657613940469329
40
0.657613940469329
40
0.679201950039531
40
0.679201950039531
40
0.700789959609732
40
0.700789959609732
40
0.722377969179933
40
0.722377969179933
40
0.733171973965034
40
0.733171973965034
40
0.743965978750134
40
0.743965978750134
40
0.765553988320337
40
0.765553988320337
40
0.776347993105438
40
0.776347993105438
40
0.787141997890539
40
0.787141997890539
40
0.80873000746074
40
0.80873000746074
40
0.830318017030941
40
0.830318017030941
40
0.851906026601142
40
0.851906026601142
40
0.873494036171343
40
0.873494036171343
40
0.895082045741544
40
0.895082045741544
40
0.916670055311746
40
0.916670055311746
40
0.938258064881947
40
0.938258064881947
40
0.949052069667047
40
0.949052069667047
40
0.959846074452148
40
0.959846074452148
40
0.981434084022349
40
0.981434084022349
40
0.99222808880745
40
0.99222808880745
40
1
40
1
40
1
40
1
41
1
10
68.1809837273155
20
8.789427543876
30
0
41
1
10
68.4197816985032
20
8.78896667142809
30
0
41
1
10
68.6586209322338
20
8.78602049077304
30
0
41
1
10
69.1560563424063
20
8.77484844089221
30
0
41
1
10
69.4147468748588
20
8.76618461889237
30
0
41
1
10
69.9319404476023
20
8.7432813804439
30
0
41
1
10
70.1905099110623
20
8.72899891459406
30
0
41
1
10
70.9654668415262
20
8.67665446871962
30
0
41
1
10
71.4820486575131
20
8.62968450559467
30
0
41
1
10
72.255588378497
20
8.54250675377708
30
0
41
1
10
72.5130397802727
20
8.51051331651772
30
0
41
1
10
73.0292515735779
20
8.44148799642261
30
0
41
1
10
73.2873740198301
20
8.40415142092021
30
0
41
1
10
74.0616868396154
20
8.28320520475387
30
0
41
1
10
74.5774775514125
20
8.19029918135911
30
0
41
1
10
75.6116732036768
20
7.98489964886707
30
0
41
1
10
76.1297042488699
20
7.87200579715096
30
0
41
1
10
76.9049133573592
20
7.68627313697948
30
0
41
1
10
77.1630392125654
20
7.62158139790293
30
0
41
1
10
77.6788734336606
20
7.48698195435549
30
0
41
1
10
77.9365444513052
20
7.41702600971155
30
0
41
1
10
78.7108186433746
20
7.20184690101735
30
0
41
1
10
79.2265366568
20
7.04922983547976
30
0
41
1
10
80.2577530241365
20
6.72239068714569
30
0
41
1
10
80.7739537067732
20
6.54973576978605
30
0
41
1
10
81.8078988445821
20
6.18836007303781
30
0
41
1
10
82.326022160426
20
5.99988563374137
30
0
41
1
10
82.9713264050101
20
5.75267088013754
30
0
41
1
10
83.1002621129302
20
5.70259880643721
30
0
41
1
10
83.3583100562541
20
5.60187855892076
30
0
41
1
10
83.487514302962
20
5.55137551773782
30
0
41
1
10
83.8748044662017
20
5.3981594712792
30
0
41
1
10
84.1328528532623
20
5.2941715112363
30
0
41
1
10
84.9065033631343
20
4.97681333634867
30
0
41
1
10
85.4213841308941
20
4.75806508310376
30
0
41
1
10
86.1951112751931
20
4.42166557571721
30
0
41
1
10
86.4529980500652
20
4.30773463575485
30
0
41
1
10
86.9692754566267
20
4.07750865949956
30
0
41
1
10
87.2276018621444
20
3.96109993218056
30
0
41
1
10
87.7441954263835
20
3.72503944165805
30
0
41
1
10
88.002512941591
20
3.60547467281867
30
0
41
1
10
88.5192899638437
20
3.36355464414109
30
0
41
1
10
88.7779682054993
20
3.24202202399835
30
0
41
1
10
89.5533269943417
20
2.87468911695649
30
0
41
1
10
90.0691391237832
20
2.62493675514892
30
0
41
1
10
90.8421594592903
20
2.24535793671356
30
0
41
1
10
91.0999519445183
20
2.11844674519739
30
0
41
1
10
91.6155467023768
20
1.86348770839541
30
0
41
1
10
91.8732416385474
20
1.73524884900215
30
0
41
1
10
92.6469185031323
20
1.34963898939137
30
0
41
1
10
93.1627411335926
20
1.08979512155454
30
0
41
1
10
93.9364724341181
20
0.696325801949229
30
0
41
1
10
94.1950570570625
20
0.565885635588472
30
0
41
1
10
94.7122399829763
20
0.303854402067827
30
0
41
1
10
94.9709638237339
20
0.172440419063292
30
0
41
1
10
95.4875066239334
20
-0.0906362560599803
30
0
41
1
10
95.74544525456
20
-0.222355348740592
30
0
41
1
10
96.261173104713
20
-0.485122540764394
30
0
41
1
10
96.5191543353358
20
-0.615812934697118
30
0
41
1
10
97.292687288898
20
-1.00743826310097
30
0
41
1
10
97.8084379067571
20
-1.26673692651485
30
0
41
1
10
98.5813134698614
20
-1.65471091909436
30
0
41
1
10
98.8387734093558
20
-1.783906466985
30
0
41
1
10
99.3539874800888
20
-2.04071886947551
30
0
41
1
10
99.6123144636519
20
-2.16726008298431
30
0
41
1
10
100.386743722056
20
-2.54669620078184
30
0
41
1
10
100.90342108029
20
-2.79832174180629
30
0
41
1
10
101.936503937108
20
-3.29322982052446
30
0
41
1
10
102.452664005047
20
-3.53533143240145
30
0
41
1
10
103.226457624594
20
-3.89010269457478
30
0
41
1
10
103.484210919238
20
-4.00722783088503
30
0
41
1
10
103.999368498187
20
-4.23935708477097
30
0
41
1
10
104.25653867012
20
-4.35475427759368
30
0
41
1
10
104.771883550751
20
-4.58103950501209
30
0
41
1
10
105.029799851269
20
-4.69239112829339
30
0
41
1
10
105.545403695057
20
-4.91234026760984
30
0
41
1
10
105.80319992739
20
-5.02072442737443
30
0
41
1
10
106.318822163008
20
-5.23455248820227
30
0
41
1
10
106.576621658318
20
-5.3400541659075
30
0
41
1
10
107.092988317219
20
-5.54699877024592
30
0
41
1
10
107.351662960121
20
-5.64862425779216
30
0
41
1
10
108.126638978696
20
-5.94866509593632
30
0
41
1
10
108.641973664543
20
-6.13917512794231
30
0
41
1
10
109.41197143494
20
-6.41272762900849
30
0
41
1
10
109.667998150049
20
-6.50214566923248
30
0
41
1
10
110.180754023709
20
-6.67502734093
30
0
41
1
10
110.436868657199
20
-6.75935940945411
30
0
41
1
10
110.948508082544
20
-6.92419851664604
30
0
41
1
10
111.204008789944
20
-7.00466767748105
30
0
41
1
10
111.714482963402
20
-7.16034202919619
30
0
41
1
10
111.969453338069
20
-7.23561517994514
30
0
41
1
10
112.734772448991
20
-7.45341005077645
30
0
41
1
10
113.244790699062
20
-7.58826079810538
30
0
41
1
10
114.009661964538
20
-7.77759801717354
30
0
41
1
10
114.264472911973
20
-7.83848782930932
30
0
41
1
10
114.773973179012
20
-7.95478973155556
30
0
41
1
10
115.028533717709
20
-8.01038988829274
30
0
41
1
10
115.794125420704
20
-8.16787339646595
30
0
41
1
10
116.304748011335
20
-8.26230069752756
30
0
41
1
10
117.326527480988
20
-8.43156740648269
30
0
41
1
10
117.838400591889
20
-8.5055150740117
30
0
41
1
10
118.86490209666
20
-8.62973028428883
30
0
41
1
10
119.37971818622
20
-8.68046451151596
30
0
41
1
10
120.153095742788
20
-8.74056036130102
30
0
41
1
10
120.411359728782
20
-8.75789701101627
30
0
41
1
10
120.928076690291
20
-8.78628263442266
30
0
41
1
10
121.186198328926
20
-8.79737906267147
30
0
41
1
10
121.959838764566
20
-8.82161063598815
30
0
41
1
10
122.474335830897
20
-8.82580992254654
30
0
41
1
10
123.246962064299
20
-8.81548567835429
30
0
41
1
10
123.504396986611
20
-8.80926781512895
30
0
41
1
10
124.019484757681
20
-8.79097962174347
30
0
41
1
10
124.277178286882
20
-8.77884217120246
30
0
41
1
10
125.049983642354
20
-8.73312137076582
30
0
41
1
10
125.564662964347
20
-8.69030612451823
30
0
41
1
10
126.597387024445
20
-8.58343175987935
30
0
41
1
10
127.114335191601
20
-8.51881470554
30
0
41
1
10
128.14525952069
20
-8.36548003907581
30
0
41
1
10
128.660487736852
20
-8.27737465097292
30
0
41
1
10
129.690894740042
20
-8.08109157095848
30
0
41
1
10
130.205836937728
20
-7.97265324416193
30
0
41
1
10
131.234898135482
20
-7.73257436735921
30
0
41
1
10
131.7508438419
20
-7.60265259217888
30
0
41
1
10
132.78242533817
20
-7.32164786585798
30
0
41
1
10
133.298863756531
20
-7.17088355776758
30
0
41
1
10
134.330766435603
20
-6.85229628948389
30
0
41
1
10
134.846318702997
20
-6.68364273615364
30
0
41
1
10
135.618661686268
20
-6.41750730126685
30
0
41
1
10
135.875920039268
20
-6.32660424932121
30
0
41
1
10
136.390199343471
20
-6.1403902826338
30
0
41
1
10
136.647873226461
20
-6.04598440283991
30
0
41
1
10
137.420509315799
20
-5.75584359882521
30
0
41
1
10
137.935334198272
20
-5.55324283413427
30
0
41
1
10
138.708371585919
20
-5.23858056689465
30
0
41
1
10
138.966424820418
20
-5.13236268424086
30
0
41
1
10
139.410488647892
20
-4.94657270976137
30
0
41
1
10
139.596440145124
20
-4.86788348001602
30
0
41
1
10
139.782332002866
20
-4.78844094903715
30
0
0
SPLINE
5
EA
100
AcDbEntity
8
1
62
256
6
ByLayer
370
18
48
1
60
0
100
AcDbSpline
70
4
71
3
72
70
73
66
40
0
40
0
40
0
40
0
40
0.0451636504033559
40
0.0451636504033559
40
0.0690345591432747
40
0.0690345591432747
40
0.0929054678831928
40
0.0929054678831928
40
0.116776376623112
40
0.116776376623112
40
0.14064728536303
40
0.14064728536303
40
0.188389102842865
40
0.188389102842865
40
0.212260011582782
40
0.212260011582782
40
0.2361309203227
40
0.2361309203227
40
0.283872737802535
40
0.283872737802535
40
0.307743646542453
40
0.307743646542453
40
0.33161455528237
40
0.33161455528237
40
0.379356372762205
40
0.379356372762205
40
0.403227281502121
40
0.403227281502121
40
0.427098190242038
40
0.427098190242038
40
0.450969098981954
40
0.450969098981954
40
0.47484000772187
40
0.47484000772187
40
0.522581825201703
40
0.522581825201703
40
0.54645273394162
40
0.54645273394162
40
0.570323642681536
40
0.570323642681536
40
0.594194551421452
40
0.594194551421452
40
0.618065460161369
40
0.618065460161369
40
0.6658072776412
40
0.6658072776412
40
0.689678186381115
40
0.689678186381115
40
0.71354909512103
40
0.71354909512103
40
0.761290912600857
40
0.761290912600857
40
0.785161821340771
40
0.785161821340771
40
0.809032730080685
40
0.809032730080685
40
0.856774547560512
40
0.856774547560512
40
0.880645456300425
40
0.880645456300425
40
0.904516365040338
40
0.904516365040338
40
0.952258182520169
40
0.952258182520169
40
1
40
1
40
1
40
1
41
1
10
177.113839315592
20
8.85496554641023
30
0
41
1
10
177.595244343313
20
8.85236230248944
30
0
41
1
10
178.076301638414
20
8.84075505301257
30
0
41
1
10
178.81132597378
20
8.8048081274525
30
0
41
1
10
179.066043150401
20
8.78945313989294
30
0
41
1
10
179.575489806722
20
8.75296523745698
30
0
41
1
10
179.83028705423
20
8.7317932869461
30
0
41
1
10
180.339938620757
20
8.6841680096064
30
0
41
1
10
180.5947677041
20
8.65781625840225
30
0
41
1
10
181.104898690018
20
8.59948669478689
30
0
41
1
10
181.360398738946
20
8.56751989021231
30
0
41
1
10
182.127710167074
20
8.46261181687237
30
0
41
1
10
182.640764045898
20
8.38067427246773
30
0
41
1
10
183.411865201365
20
8.24107666560596
30
0
41
1
10
183.669098056957
20
8.19196450275456
30
0
41
1
10
184.184181362482
20
8.08825974411582
30
0
41
1
10
184.442111018275
20
8.03423004695171
30
0
41
1
10
185.214631182274
20
7.8631999101265
30
0
41
1
10
185.728437138663
20
7.73754895944404
30
0
41
1
10
186.498862238155
20
7.53425247868347
30
0
41
1
10
186.755859507035
20
7.46444783427071
30
0
41
1
10
187.269633072282
20
7.32024025743436
30
0
41
1
10
187.526516295019
20
7.24578253922874
30
0
41
1
10
188.297616790446
20
7.01503834891324
30
0
41
1
10
188.811285217834
20
6.85041809699331
30
0
41
1
10
189.582739128064
20
6.58970822401955
30
0
41
1
10
189.840597297764
20
6.50138336009226
30
0
41
1
10
190.356007580396
20
6.32012994744991
30
0
41
1
10
190.613776927185
20
6.22735730559617
30
0
41
1
10
191.128417914923
20
6.03718759876338
30
0
41
1
10
191.385415327404
20
5.93978826466079
30
0
41
1
10
191.899454585002
20
5.74149578138056
30
0
41
1
10
192.156578519984
20
5.64073129498482
30
0
41
1
10
192.92737900866
20
5.33243560944243
30
0
41
1
10
193.441432129407
20
5.12094320366606
30
0
41
1
10
194.211619503495
20
4.79227645628106
30
0
41
1
10
194.468009678993
20
4.68037801427511
30
0
41
1
10
194.982013870705
20
4.45515811042443
30
0
41
1
10
195.239310702038
20
4.34132303626811
30
0
41
1
10
195.753821332855
20
4.11012407569282
30
0
41
1
10
196.011121615797
20
3.9929013483696
30
0
41
1
10
196.525861663552
20
3.75540161964884
30
0
41
1
10
196.783364980586
20
3.63504830989544
30
0
41
1
10
197.555593635594
20
3.27201017570246
30
0
41
1
10
198.069938892521
20
3.02605332707569
30
0
41
1
10
198.841004821721
20
2.65191727474999
30
0
41
1
10
199.097826217563
20
2.5261024216108
30
0
41
1
10
199.611164001036
20
2.27248525250755
30
0
41
1
10
199.867454437328
20
2.14426291301515
30
0
41
1
10
200.638267071854
20
1.76113326553264
30
0
41
1
10
201.152115899756
20
1.50267530744745
30
0
41
1
10
201.922965536006
20
1.11069499430141
30
0
41
1
10
202.179947410623
20
0.979360755197888
30
0
41
1
10
202.694756343326
20
0.716915854798742
30
0
41
1
10
202.952595283096
20
0.585313553238962
30
0
41
1
10
203.724645292938
20
0.190534055455515
30
0
41
1
10
204.238067314575
20
-0.0715697651737628
30
0
41
1
10
205.005253536614
20
-0.465371978943296
30
0
41
1
10
205.260498502255
20
-0.596741223587031
30
0
41
1
10
205.771467822189
20
-0.856832433350974
30
0
41
1
10
206.026680977642
20
-0.986599256649043
30
0
41
1
10
206.791444031643
20
-1.37511255402254
30
0
41
1
10
207.299752622585
20
-1.63372725890292
30
0
41
1
10
208.316976371205
20
-2.14288511691026
30
0
41
1
10
208.825354634845
20
-2.3946720791991
30
0
41
1
10
209.333616642479
20
-2.64341434671857
30
0
0
SPLINE
5
EB
100
AcDbEntity
8
1
62
256
6
ByLayer
370
18
48
1
60
0
100
AcDbSpline
70
4
71
3
72
12
73
8
40
0
40
0
40
0
40
0
40
0.250000000000002
40
0.250000000000002
40
0.500000000000004
40
0.500000000000004
40
1
40
1
40
1
40
1
41
1
10
6.13195153099139
20
7.92949232269842
30
0
41
1
10
6.11195564297154
20
7.93502795028931
30
0
41
1
10
6.09384624857097
20
7.94180687416721
30
0
41
1
10
6.06129756332331
20
7.95773060555683
30
0
41
1
10
6.04706555711874
20
7.96684574816248
30
0
41
1
10
6.01256048187463
20
7.99615015878859
30
0
41
1
10
5.99999971334509
20
8.01872828501243
30
0
41
1
10
5.99999971334509
20
8.04129057983457
30
0
0
SPLINE
5
EC
100
AcDbEntity
8
1
62
256
6
ByLayer
370
18
48
1
60
0
100
AcDbSpline
70
4
71
3
72
10
73
6
40
0
40
0
40
0
40
0
40
0.5
40
0.5
40
1
40
1
40
1
40
1
41
1
10
215.982831678467
20
9.13745651929406
30
0
41
1
10
216.434219148205
20
8.00149243746003
30
0
41
1
10
216.884777064335
20
6.86378997913394
30
0
41
1
10
217.779133679914
20
4.58252905195593
30
0
41
1
10
218.223100817894
20
3.4391617711083
30
0
41
1
10
218.661501278329
20
2.29424164996084
30
0
0
SPLINE
5
ED
100
AcDbEntity
8
1
62
256
6
ByLayer
370
18
48
1
60
0
100
AcDbSpline
70
4
71
3
72
8
73
4
40
0
40
0
40
0
40
0
40
1
40
1
40
1
40
1
41
1
10
218.797024346556
20
-0.340155190923667
30
0
41
1
10
217.761447164795
20
-3.18538011391337
30
0
41
1
10
216.725869983034
20
-6.03060503690386
30
0
41
1
10
215.690292801274
20
-8.87582995989175
30
0
0
SPLINE
5
EE
100
AcDbEntity
8
1
62
256
6
ByLayer
370
18
48
1
60
0
100
AcDbSpline
70
4
71
3
72
142
73
138
40
0
40
0
40
0
40
0
40
0.0212012938627013
40
0.0212012938627013
40
0.0433320689805766
40
0.0433320689805766
40
0.0543974565395144
40
0.0543974565395144
40
0.0654628440984523
40
0.0654628440984523
40
0.0765282316573901
40
0.0765282316573901
40
0.0875936192163279
40
0.0875936192163279
40
0.109724394334203
40
0.109724394334203
40
0.131855169452079
40
0.131855169452079
40
0.137387863231547
40
0.137387863231547
40
0.142920557011016
40
0.142920557011016
40
0.153985944569954
40
0.153985944569954
40
0.165051332128892
40
0.165051332128892
40
0.17611671968783
40
0.17611671968783
40
0.198247494805705
40
0.198247494805705
40
0.209312882364643
40
0.209312882364643
40
0.220378269923581
40
0.220378269923581
40
0.242509045041457
40
0.242509045041457
40
0.253574432600395
40
0.253574432600395
40
0.264639820159333
40
0.264639820159333
40
0.27570520771827
40
0.27570520771827
40
0.286770595277208
40
0.286770595277208
40
0.308901370395084
40
0.308901370395084
40
0.331032145512961
40
0.331032145512961
40
0.353162920630837
40
0.353162920630837
40
0.364228308189774
40
0.364228308189774
40
0.375293695748713
40
0.375293695748713
40
0.386359083307651
40
0.386359083307651
40
0.397424470866589
40
0.397424470866589
40
0.419555245984464
40
0.419555245984464
40
0.430620633543402
40
0.430620633543402
40
0.441686021102339
40
0.441686021102339
40
0.463816796220215
40
0.463816796220215
40
0.485947571338091
40
0.485947571338091
40
0.497012958897028
40
0.497012958897028
40
0.508078346455966
40
0.508078346455966
40
0.53020912157384
40
0.53020912157384
40
0.552339896691715
40
0.552339896691715
40
0.57447067180959
40
0.57447067180959
40
0.585536059368527
40
0.585536059368527
40
0.596601446927464
40
0.596601446927464
40
0.607666834486401
40
0.607666834486401
40
0.618732222045338
40
0.618732222045338
40
0.640862997163211
40
0.640862997163211
40
0.651928384722148
40
0.651928384722148
40
0.662993772281085
40
0.662993772281085
40
0.685124547398957
40
0.685124547398957
40
0.70725532251683
40
0.70725532251683
40
0.729386097634702
40
0.729386097634702
40
0.751516872752575
40
0.751516872752575
40
0.76258226031151
40
0.76258226031151
40
0.773647647870446
40
0.773647647870446
40
0.795778422988317
40
0.795778422988317
40
0.806843810547253
40
0.806843810547253
40
0.817909198106188
40
0.817909198106188
40
0.828974585665124
40
0.828974585665124
40
0.84003997322406
40
0.84003997322406
40
0.851105360782996
40
0.851105360782996
40
0.862170748341932
40
0.862170748341932
40
0.873236135900867
40
0.873236135900867
40
0.884301523459803
40
0.884301523459803
40
0.906432298577675
40
0.906432298577675
40
0.928563073695546
40
0.928563073695546
40
0.939628461254482
40
0.939628461254482
40
0.94516115503395
40
0.94516115503395
40
0.950693848813418
40
0.950693848813418
40
0.972824623931287
40
0.972824623931287
40
0.994955399049155
40
0.994955399049155
40
1
40
1
40
1
40
1
41
1
10
30.8775941396337
20
4.80635125808888
30
0
41
1
10
31.3906834916179
20
5.04222184521183
30
0
41
1
10
31.9041912502708
20
5.26972217047489
30
0
41
1
10
32.9514936302912
20
5.72260465894419
30
0
41
1
10
33.4853267636186
20
5.94711755937934
30
0
41
1
10
34.2874262592127
20
6.26940442902091
30
0
41
1
10
34.5550516501782
20
6.37438843740526
30
0
41
1
10
35.0905927477571
20
6.57980487050401
30
0
41
1
10
35.3586706580671
20
6.68003298678934
30
0
41
1
10
35.8936594908688
20
6.87776806947653
30
0
41
1
10
36.1617877216885
20
6.9740407951916
30
0
41
1
10
36.69790005896
20
7.1607759471724
30
0
41
1
10
36.9657214634361
20
7.25114154281823
30
0
41
1
10
37.7679431683721
20
7.51410317804397
30
0
41
1
10
38.3001375768462
20
7.67963390648094
30
0
41
1
10
39.3628038384688
20
7.98716128778636
30
0
41
1
10
39.8934844175437
20
8.12903830918435
30
0
41
1
10
40.5561139093742
20
8.29174813682806
30
0
41
1
10
40.6886520984902
20
8.32351850757613
30
0
41
1
10
40.9531735869483
20
8.38599076209803
30
0
41
1
10
41.0852585756002
20
8.4165996660808
30
0
41
1
10
41.4818516998862
20
8.5058404941459
30
0
41
1
10
41.7463800600465
20
8.56215616119559
30
0
41
1
10
42.2757167832993
20
8.66852766697534
30
0
41
1
10
42.5405665918934
20
8.71856360159387
30
0
41
1
10
43.0699276969059
20
8.81281189327996
30
0
41
1
10
43.3343263257258
20
8.85707708964165
30
0
41
1
10
44.127649886971
20
8.98057771140284
30
0
41
1
10
44.657007684421
20
9.0503549918607
30
0
41
1
10
45.4531184629616
20
9.13566962268592
30
0
41
1
10
45.7187797376553
20
9.16091663300529
30
0
41
1
10
46.2503155385792
20
9.20509810715254
30
0
41
1
10
46.5156253608924
20
9.22415739100518
30
0
41
1
10
47.3142333146751
20
9.27106916492937
30
0
41
1
10
47.8492021461669
20
9.28914929650247
30
0
41
1
10
48.6529350868338
20
9.2965298028505
30
0
41
1
10
48.9209855090107
20
9.29564561826024
30
0
41
1
10
49.4565034269444
20
9.28717348558837
30
0
41
1
10
49.7240556365149
20
9.27958983307366
30
0
41
1
10
50.2591279719541
20
9.25782161508215
30
0
41
1
10
50.5267228232977
20
9.24365729582689
30
0
41
1
10
51.0617569952548
20
9.20878111066511
30
0
41
1
10
51.3292503440361
20
9.18809544280307
30
0
41
1
10
52.1297998033824
20
9.11557056274728
30
0
41
1
10
52.6646571562748
20
9.05442769986141
30
0
41
1
10
53.7355378887304
20
8.90669745122332
30
0
41
1
10
54.270448433086
20
8.81937454162573
30
0
41
1
10
55.342609406183
20
8.61950236804955
30
0
41
1
10
55.8772919892674
20
8.50775818918163
30
0
41
1
10
56.6770855880307
20
8.32277970765142
30
0
41
1
10
56.9427499061244
20
8.2577206932171
30
0
41
1
10
57.4739570429591
20
8.12231881978042
30
0
41
1
10
57.7394884076306
20
8.05198582991648
30
0
41
1
10
58.2704275963059
20
7.90618580996772
30
0
41
1
10
58.5358528053889
20
7.83074428328533
30
0
41
1
10
59.0658872703028
20
7.67404285201906
30
0
41
1
10
59.3304075954953
20
7.59267131311989
30
0
41
1
10
60.1237131601529
20
7.34077549955018
30
0
41
1
10
60.6523240736104
20
7.16257756247282
30
0
41
1
10
61.4460881653625
20
6.88158456493542
30
0
41
1
10
61.7108277797492
20
6.78566507136827
30
0
41
1
10
62.2397561928503
20
6.58816416458143
30
0
41
1
10
62.5037214724998
20
6.48625077333168
30
0
41
1
10
63.2976803770399
20
6.17583150935806
30
0
41
1
10
63.8287419276425
20
5.96146588660116
30
0
41
1
10
64.8906811001715
20
5.51234823252608
30
0
41
1
10
65.4221442422974
20
5.27832900490944
30
0
41
1
10
66.2226085964051
20
4.91694360178633
30
0
41
1
10
66.4900012907204
20
4.79481874091536
30
0
41
1
10
67.0256467336232
20
4.54674700688881
30
0
41
1
10
67.2940355552921
20
4.42061994746695
30
0
41
1
10
68.0965923792795
20
4.03574070745276
30
0
41
1
10
68.631977233993
20
3.77538845877223
30
0
41
1
10
69.7020841486217
20
3.24509839504333
30
0
41
1
10
70.235693138153
20
2.97317986269152
30
0
41
1
10
71.3040048967895
20
2.42270248967193
30
0
41
1
10
71.8389608635905
20
2.14463892981428
30
0
41
1
10
72.6421696861199
20
1.72256115058875
30
0
41
1
10
72.9094143404777
20
1.57987917513788
30
0
41
1
10
73.4450698719701
20
1.29449775254622
30
0
41
1
10
73.7130565963157
20
1.15174402593902
30
0
41
1
10
74.2481105217894
20
0.866810318155132
30
0
41
1
10
74.5153569177962
20
0.724505992848975
30
0
41
1
10
75.0485846383053
20
0.4388239967179
30
0
41
1
10
75.314499880425
20
0.295321634172069
30
0
41
1
10
76.1115535870137
20
-0.134414113748989
30
0
41
1
10
76.6418909610956
20
-0.420095854966462
30
0
41
1
10
77.4370129265083
20
-0.84526025313275
30
0
41
1
10
77.7021083985104
20
-0.986201159414179
30
0
41
1
10
78.2307460914398
20
-1.26966639559862
30
0
41
1
10
78.4947564026988
20
-1.41129559912437
30
0
41
1
10
79.2878132051418
20
-1.83221777098947
30
0
41
1
10
79.8174406983106
20
-2.10842233685571
30
0
41
1
10
80.874711661559
20
-2.65911096929301
30
0
41
1
10
81.4031841796079
20
-2.93202884785157
30
0
41
1
10
82.4628941621099
20
-3.46737590880599
30
0
41
1
10
82.9942527880188
20
-3.72962769000799
30
0
41
1
10
84.0564951762211
20
-4.24935246008883
30
0
41
1
10
84.5900463069559
20
-4.50210571796634
30
0
41
1
10
85.3928730086167
20
-4.8725934818942
30
0
41
1
10
85.6609260529168
20
-4.99512792764097
30
0
41
1
10
86.1963769110925
20
-5.23686457685167
30
0
41
1
10
86.4639120619092
20
-5.35572817609341
30
0
41
1
10
87.2661194564351
20
-5.70608521840674
30
0
41
1
10
87.8009544307294
20
-5.93052728103982
30
0
41
1
10
88.6026377635937
20
-6.25456916466266
30
0
41
1
10
88.8691189473952
20
-6.36136313143356
30
0
41
1
10
89.4030023033721
20
-6.56914399592017
30
0
41
1
10
89.6701998296157
20
-6.67042969639013
30
0
41
1
10
90.2051077228658
20
-6.86785211995795
30
0
41
1
10
90.4727865204124
20
-6.96403655366575
30
0
41
1
10
91.0078734283615
20
-7.15221608575135
30
0
41
1
10
91.2752343199724
20
-7.24425176804738
30
0
41
1
10
91.8106318489737
20
-7.42290815632265
30
0
41
1
10
92.0786277370947
20
-7.50963657810172
30
0
41
1
10
92.6133759639274
20
-7.67705162231971
30
0
41
1
10
92.8804839886889
20
-7.75769922876714
30
0
41
1
10
93.4140086295781
20
-7.91317209524357
30
0
41
1
10
93.6806269736386
20
-7.98780726263274
30
0
41
1
10
94.2116759617172
20
-8.13272660536092
30
0
41
1
10
94.4769763495932
20
-8.20212408077651
30
0
41
1
10
95.2729179930701
20
-8.40066874949352
30
0
41
1
10
95.8035998676378
20
-8.52032173745746
30
0
41
1
10
96.8613228585642
20
-8.73732935555159
30
0
41
1
10
97.3893648079884
20
-8.83377615346117
30
0
41
1
10
98.1823410777967
20
-8.95917789130215
30
0
41
1
10
98.4468156277063
20
-8.99778778207681
30
0
41
1
10
98.8435258159078
20
-9.05104861554045
30
0
41
1
10
98.9757938687468
20
-9.06801204136789
30
0
41
1
10
99.2401428627124
20
-9.10045785262463
30
0
41
1
10
99.3720518429604
20
-9.11600626807774
30
0
41
1
10
100.032498543818
20
-9.18941620783053
30
0
41
1
10
100.562519698988
20
-9.23493137729767
30
0
41
1
10
101.624061519649
20
-9.30039498827622
30
0
41
1
10
102.154720707498
20
-9.32036614329439
30
0
41
1
10
102.808685415576
20
-9.32847477965768
30
0
41
1
10
102.930211819316
20
-9.32929187450014
30
0
41
1
10
103.051849576294
20
-9.32941928337965
30
0
0
SPLINE
5
EF
100
AcDbEntity
8
1
62
256
6
ByLayer
370
18
48
1
60
0
100
AcDbSpline
70
4
71
3
72
156
73
152
40
0
40
0
40
0
40
0
40
0.0185570076142969
40
0.0185570076142969
40
0.0296028382847246
40
0.0296028382847246
40
0.0406486689551521
40
0.0406486689551521
40
0.0627403302960069
40
0.0627403302960069
40
0.0848319916368617
40
0.0848319916368617
40
0.0958778223072891
40
0.0958778223072891
40
0.106923652977716
40
0.106923652977716
40
0.129015314318571
40
0.129015314318571
40
0.151106975659426
40
0.151106975659426
40
0.162152806329854
40
0.162152806329854
40
0.173198637000281
40
0.173198637000281
40
0.184244467670709
40
0.184244467670709
40
0.195290298341136
40
0.195290298341136
40
0.206336129011564
40
0.206336129011564
40
0.217381959681991
40
0.217381959681991
40
0.239473621022847
40
0.239473621022847
40
0.250519451693275
40
0.250519451693275
40
0.261565282363703
40
0.261565282363703
40
0.272611113034131
40
0.272611113034131
40
0.283656943704559
40
0.283656943704559
40
0.305748605045415
40
0.305748605045415
40
0.316794435715843
40
0.316794435715843
40
0.327840266386271
40
0.327840266386271
40
0.349931927727127
40
0.349931927727127
40
0.360977758397554
40
0.360977758397554
40
0.372023589067982
40
0.372023589067982
40
0.383069419738409
40
0.383069419738409
40
0.394115250408837
40
0.394115250408837
40
0.405161081079264
40
0.405161081079264
40
0.416206911749691
40
0.416206911749691
40
0.427252742420119
40
0.427252742420119
40
0.438298573090546
40
0.438298573090546
40
0.460390234431401
40
0.460390234431401
40
0.47143606510183
40
0.47143606510183
40
0.482481895772257
40
0.482481895772257
40
0.504573557113113
40
0.504573557113113
40
0.526665218453969
40
0.526665218453969
40
0.537711049124397
40
0.537711049124397
40
0.548756879794825
40
0.548756879794825
40
0.570848541135681
40
0.570848541135681
40
0.592940202476537
40
0.592940202476537
40
0.603986033146965
40
0.603986033146965
40
0.615031863817393
40
0.615031863817393
40
0.626077694487821
40
0.626077694487821
40
0.637123525158249
40
0.637123525158249
40
0.648169355828677
40
0.648169355828677
40
0.659215186499105
40
0.659215186499105
40
0.681306847839961
40
0.681306847839961
40
0.686829763175175
40
0.686829763175175
40
0.69235267851039
40
0.69235267851039
40
0.703398509180818
40
0.703398509180818
40
0.725490170521675
40
0.725490170521675
40
0.747581831862531
40
0.747581831862531
40
0.75862766253296
40
0.75862766253296
40
0.769673493203389
40
0.769673493203389
40
0.780719323873817
40
0.780719323873817
40
0.791765154544246
40
0.791765154544246
40
0.813856815885103
40
0.813856815885103
40
0.824902646555531
40
0.824902646555531
40
0.83594847722596
40
0.83594847722596
40
0.846994307896388
40
0.846994307896388
40
0.858040138566816
40
0.858040138566816
40
0.869085969237245
40
0.869085969237245
40
0.880131799907673
40
0.880131799907673
40
0.90222346124853
40
0.90222346124853
40
0.907746376583744
40
0.907746376583744
40
0.913269291918959
40
0.913269291918959
40
0.924315122589387
40
0.924315122589387
40
0.935360953259815
40
0.935360953259815
40
0.946406783930244
40
0.946406783930244
40
0.957452614600672
40
0.957452614600672
40
0.9684984452711
40
0.9684984452711
40
0.979544275941529
40
0.979544275941529
40
0.990590106611957
40
0.990590106611957
40
1
40
1
40
1
40
1
41
1
10
139.652385210631
20
4.82302637200158
30
0
41
1
10
140.099523800704
20
5.0303720726115
30
0
41
1
10
140.547877202916
20
5.23307878571725
30
0
41
1
10
141.265646386773
20
5.5480199605509
30
0
41
1
10
141.533645707227
20
5.66361001203012
30
0
41
1
10
142.0676768004
20
5.89216361448868
30
0
41
1
10
142.334750854673
20
6.00390232085948
30
0
41
1
10
143.136177756622
20
6.33161427296602
30
0
41
1
10
143.670851263845
20
6.54000605900828
30
0
41
1
10
144.737543758579
20
6.94115344119717
30
0
41
1
10
145.270785678486
20
7.13220881080431
30
0
41
1
10
146.07239203439
20
7.40228717689635
30
0
41
1
10
146.339848344524
20
7.48961749024252
30
0
41
1
10
146.874955816566
20
7.65922977837627
30
0
41
1
10
147.142320874911
20
7.74210069978864
30
0
41
1
10
147.944368087201
20
7.98123220890153
30
0
41
1
10
148.478397431957
20
8.1275834513732
30
0
41
1
10
149.542554309488
20
8.39758478177077
30
0
41
1
10
150.072301941182
20
8.52138125130529
30
0
41
1
10
150.86643819499
20
8.68786914969616
30
0
41
1
10
151.131085735814
20
8.74017622063204
30
0
41
1
10
151.660237384394
20
8.8385106075275
30
0
41
1
10
151.924807485752
20
8.88450816184593
30
0
41
1
10
152.452967449186
20
8.97071109640581
30
0
41
1
10
152.716425545513
20
9.01094610704729
30
0
41
1
10
153.244345414831
20
9.08451136443441
30
0
41
1
10
153.508497916786
20
9.11802467704004
30
0
41
1
10
154.037062118108
20
9.17865054440281
30
0
41
1
10
154.301396048996
20
9.20580050724632
30
0
41
1
10
154.829593857642
20
9.25389526217111
30
0
41
1
10
155.093541963573
20
9.27479243504882
30
0
41
1
10
155.886308253052
20
9.32759756605131
30
0
41
1
10
156.415675392771
20
9.34974430081377
30
0
41
1
10
157.211877284721
20
9.36328972590098
30
0
41
1
10
157.477523662245
20
9.36454840577076
30
0
41
1
10
158.008468226864
20
9.36037219033545
30
0
41
1
10
158.27452333266
20
9.35494755349831
30
0
41
1
10
158.80780952527
20
9.33748569438566
30
0
41
1
10
159.075093808192
20
9.32546263310041
30
0
41
1
10
159.610475224324
20
9.29473606298404
30
0
41
1
10
159.878321812425
20
9.27599569882449
30
0
41
1
10
160.679899831173
20
9.20969970546625
30
0
41
1
10
161.213411845294
20
9.15221170233269
30
0
41
1
10
162.014218277671
20
9.04705638116502
30
0
41
1
10
162.281202727158
20
9.00884812416228
30
0
41
1
10
162.814954910693
20
8.9259713189663
30
0
41
1
10
163.081197177423
20
8.88098929961978
30
0
41
1
10
163.880962914884
20
8.73698076011343
30
0
41
1
10
164.415671258494
20
8.62918990180725
30
0
41
1
10
165.217857125614
20
8.44842578711544
30
0
41
1
10
165.485225932151
20
8.38478211394369
30
0
41
1
10
166.020014477209
20
8.2515872376627
30
0
41
1
10
166.286985719182
20
8.18217121898783
30
0
41
1
10
166.820175852441
20
8.0378594233905
30
0
41
1
10
167.086518327384
20
7.96308768850972
30
0
41
1
10
167.618638322676
20
7.80833532016896
30
0
41
1
10
167.884559066068
20
7.72851974524897
30
0
41
1
10
168.414677458993
20
7.56240733515111
30
0
41
1
10
168.679152443208
20
7.47638886871229
30
0
41
1
10
169.208541941906
20
7.30032463587958
30
0
41
1
10
169.473241156622
20
7.21004347869678
30
0
41
1
10
170.002471717984
20
7.02484367884551
30
0
41
1
10
170.266915896443
20
6.92982039369357
30
0
41
1
10
170.794950878987
20
6.73423337287932
30
0
41
1
10
171.058672009356
20
6.63382556863064
30
0
41
1
10
171.850160593302
20
6.32636542667822
30
0
41
1
10
172.377946683962
20
6.11268734729697
30
0
41
1
10
173.170561569283
20
5.78030030581377
30
0
41
1
10
173.434723381878
20
5.66723899057104
30
0
41
1
10
173.962541472379
20
5.43585091940915
30
0
41
1
10
174.226837729549
20
5.31849901251076
30
0
41
1
10
175.020903595917
20
4.96158011477942
30
0
41
1
10
175.551860400859
20
4.71724190252604
30
0
41
1
10
176.613965865914
20
4.2104789981245
30
0
41
1
10
177.146316924265
20
3.95000237887527
30
0
41
1
10
177.948517681448
20
3.55161518617376
30
0
41
1
10
178.216504337484
20
3.41746303899254
30
0
41
1
10
178.7513708886
20
3.14688193509744
30
0
41
1
10
179.017950554156
20
3.00937255431396
30
0
41
1
10
179.818244212109
20
2.59567464192287
30
0
41
1
10
180.35251136121
20
2.31836189462223
30
0
41
1
10
181.41954219597
20
1.75544360636607
30
0
41
1
10
181.952068159969
20
1.46936428062423
30
0
41
1
10
182.752468179957
20
1.03894288270172
30
0
41
1
10
183.019560959543
20
0.895302278713018
30
0
41
1
10
183.554234128649
20
0.60751364570001
30
0
41
1
10
183.822025509576
20
0.463692793545164
30
0
41
1
10
184.356616068247
20
0.173035582965753
30
0
41
1
10
184.623259508236
20
0.02753214057131
30
0
41
1
10
185.156470186909
20
-0.261423327979116
30
0
41
1
10
185.422884555324
20
-0.405184609013588
30
0
41
1
10
185.95512303452
20
-0.691726883268984
30
0
41
1
10
186.220852257575
20
-0.834693535641719
30
0
41
1
10
186.751089250107
20
-1.12085561976568
30
0
41
1
10
187.015756306804
20
-1.26374015952604
30
0
41
1
10
187.809472955679
20
-1.68978334264997
30
0
41
1
10
188.338018769349
20
-1.97075836033085
30
0
41
1
10
188.998471024907
20
-2.31729017741861
30
0
41
1
10
189.130535277883
20
-2.38638934631416
30
0
41
1
10
189.394505786057
20
-2.52436438991063
30
0
41
1
10
189.526179406892
20
-2.59366189527492
30
0
41
1
10
189.921480152884
20
-2.80026910569504
30
0
41
1
10
190.185208085093
20
-2.93662490218253
30
0
41
1
10
190.976993844136
20
-3.34156169484649
30
0
41
1
10
191.505589071237
20
-3.60615858734863
30
0
41
1
10
192.561490876292
20
-4.12936018411148
30
0
41
1
10
193.090003565577
20
-4.38583711875685
30
0
41
1
10
193.885259724485
20
-4.76008722434847
30
0
41
1
10
194.150714369214
20
-4.88317356243221
30
0
41
1
10
194.682066040248
20
-5.12649493958148
30
0
41
1
10
194.947431480612
20
-5.24759183016329
30
0
41
1
10
195.479632295937
20
-5.48520947256955
30
0
41
1
10
195.746345651487
20
-5.60193720296962
30
0
41
1
10
196.281007497587
20
-5.8312285889063
30
0
41
1
10
196.549051894724
20
-5.94385268845795
30
0
41
1
10
197.351050232433
20
-6.27591721242547
30
0
41
1
10
197.883952735702
20
-6.48959663225907
30
0
41
1
10
198.683739938716
20
-6.79436575217613
30
0
41
1
10
198.950434511505
20
-6.89331520136639
30
0
41
1
10
199.483906027861
20
-7.08613028931504
30
0
41
1
10
199.750877953665
20
-7.17977276605694
30
0
41
1
10
200.283477843708
20
-7.36362487553129
30
0
41
1
10
200.549711456015
20
-7.45309215400323
30
0
41
1
10
201.083163105934
20
-7.62587565359803
30
0
41
1
10
201.35024389276
20
-7.70935877279612
30
0
41
1
10
201.88486816331
20
-7.87081470181229
30
0
41
1
10
202.152308420144
20
-7.94889735275362
30
0
41
1
10
202.687024827126
20
-8.10009876206365
30
0
41
1
10
202.954071248992
20
-8.1729115528961
30
0
41
1
10
203.754937473484
20
-8.38195344294545
30
0
41
1
10
204.288481225811
20
-8.50901860929423
30
0
41
1
10
204.955384522545
20
-8.65237600814771
30
0
41
1
10
205.088767689201
20
-8.68027210681475
30
0
41
1
10
205.355303055392
20
-8.73467141627921
30
0
41
1
10
205.488267072072
20
-8.76129759025852
30
0
41
1
10
205.8876283861
20
-8.83849897679227
30
0
41
1
10
206.154123024165
20
-8.88666604000346
30
0
41
1
10
206.687631860968
20
-8.97648759895225
30
0
41
1
10
206.954700816705
20
-9.01811957179984
30
0
41
1
10
207.488808833535
20
-9.09518316195667
30
0
41
1
10
207.755713645952
20
-9.13066581489974
30
0
41
1
10
208.289721088049
20
-9.19518666812476
30
0
41
1
10
208.557208163019
20
-9.22418039185794
30
0
41
1
10
209.091228510905
20
-9.27542526116468
30
0
41
1
10
209.357924018931
20
-9.29766421409681
30
0
41
1
10
209.890904745936
20
-9.33543521714134
30
0
41
1
10
210.157130849095
20
-9.35098971822794
30
0
41
1
10
210.688753902397
20
-9.37553202816866
30
0
41
1
10
210.953547514025
20
-9.38457337524261
30
0
41
1
10
211.444440549983
20
-9.39503492294492
30
0
41
1
10
211.670326251154
20
-9.39744431584481
30
0
41
1
10
211.896153292709
20
-9.39746294696496
30
0
0
SPLINE
5
F0
100
AcDbEntity
8
1
62
256
6
ByLayer
370
18
48
1
60
0
100
AcDbSpline
70
4
71
3
72
8
73
4
40
0
40
0
40
0
40
0
40
1
40
1
40
1
40
1
41
1
10
215.673607741413
20
9.3705773726351
30
0
41
1
10
215.217678435753
20
9.38981899076532
30
0
41
1
10
214.761341154305
20
9.39927141486365
30
0
41
1
10
214.305500734172
20
9.398949886672
30
0
0
SPLINE
5
F1
100
AcDbEntity
8
1
62
256
6
ByLayer
370
18
48
1
60
0
100
AcDbSpline
70
4
71
3
72
66
73
62
40
0
40
0
40
0
40
0
40
0.0365778795938355
40
0.0365778795938355
40
0.0638347730311964
40
0.0638347730311964
40
0.0910916664685573
40
0.0910916664685573
40
0.145605453343279
40
0.145605453343279
40
0.17286234678064
40
0.17286234678064
40
0.200119240218001
40
0.200119240218001
40
0.227376133655361
40
0.227376133655361
40
0.254633027092722
40
0.254633027092722
40
0.309146813967444
40
0.309146813967444
40
0.336403707404805
40
0.336403707404805
40
0.363660600842166
40
0.363660600842166
40
0.41817438771689
40
0.41817438771689
40
0.445431281154252
40
0.445431281154252
40
0.472688174591613
40
0.472688174591613
40
0.499945068028975
40
0.499945068028975
40
0.527201961466337
40
0.527201961466337
40
0.581715748341061
40
0.581715748341061
40
0.608972641778423
40
0.608972641778423
40
0.636229535215785
40
0.636229535215785
40
0.690743322090508
40
0.690743322090508
40
0.71800021552787
40
0.71800021552787
40
0.745257108965233
40
0.745257108965233
40
0.772514002402595
40
0.772514002402595
40
0.799770895839958
40
0.799770895839958
40
0.854284682714682
40
0.854284682714682
40
0.881541576152045
40
0.881541576152045
40
0.908798469589407
40
0.908798469589407
40
0.963312256464132
40
0.963312256464132
40
0.990569149901494
40
0.990569149901494
40
1
40
1
40
1
40
1
41
1
10
165.544475844199
20
-8.87645053415261
30
0
41
1
10
164.812727169439
20
-9.00262367530416
30
0
41
1
10
164.081893015044
20
-9.10483651674397
30
0
41
1
10
162.806007781457
20
-9.24041471833996
30
0
41
1
10
162.260996744543
20
-9.28467331083775
30
0
41
1
10
161.169489341371
20
-9.3455123611771
30
0
41
1
10
160.623132515849
20
-9.36204711687722
30
0
41
1
10
158.987350774548
20
-9.36972535777514
30
0
41
1
10
157.898841804252
20
-9.31911578450104
30
0
41
1
10
156.262668979395
20
-9.16056743278898
30
0
41
1
10
155.716107178077
20
-9.09385874542772
30
0
41
1
10
154.624797777101
20
-8.93380977001115
30
0
41
1
10
154.079808997882
20
-8.84047024222269
30
0
41
1
10
152.990109382499
20
-8.62789022264869
30
0
41
1
10
152.445387447938
20
-8.50865434117375
30
0
41
1
10
151.355044277125
20
-8.24512655323755
30
0
41
1
10
150.809062775481
20
-8.10072055482806
30
0
41
1
10
149.170733550204
20
-7.63175199589449
30
0
41
1
10
148.08179011995
20
-7.27272657161768
30
0
41
1
10
146.446764316651
20
-6.67240869270307
30
0
41
1
10
145.901501778131
20
-6.46198782123489
30
0
41
1
10
144.809299683484
20
-6.0219486330958
30
0
41
1
10
144.263157046768
20
-5.79263469807091
30
0
41
1
10
142.627346227788
20
-5.08106032768737
30
0
41
1
10
141.53859334843
20
-4.57438256813859
30
0
41
1
10
139.90139980052
20
-3.77658488466184
30
0
41
1
10
139.354703829582
20
-3.50409499869411
30
0
41
1
10
138.263524187308
20
-2.95072698335738
30
0
41
1
10
137.71849009517
20
-2.66962500587675
30
0
41
1
10
136.628534669945
20
-2.10038721790863
30
0
41
1
10
136.08363269814
20
-1.812215193084
30
0
41
1
10
134.992787168565
20
-1.23091772155817
30
0
41
1
10
134.446251391834
20
-0.937504589718031
30
0
41
1
10
132.808156852099
20
-0.0552035924864072
30
0
41
1
10
131.71913872632
20
0.535203970850205
30
0
41
1
10
130.083384434805
20
1.41151074217259
30
0
41
1
10
129.537829295653
20
1.70218733297335
30
0
41
1
10
128.444908894343
20
2.27845847078166
30
0
41
1
10
127.899192234211
20
2.56309919946614
30
0
41
1
10
126.263273734172
20
3.40359146453858
30
0
41
1
10
125.174260873039
20
3.94646063485663
30
0
41
1
10
123.535971770442
20
4.72220263475148
30
0
41
1
10
122.989272910391
20
4.97441689046897
30
0
41
1
10
121.898176090828
20
5.46235111237175
30
0
41
1
10
121.353139716112
20
5.69828930877605
30
0
41
1
10
120.262893175427
20
6.15238526448715
30
0
41
1
10
119.717746030505
20
6.37063645086852
30
0
41
1
10
118.62635312384
20
6.78802172195319
30
0
41
1
10
118.079496279687
20
6.98728118878398
30
0
41
1
10
116.441548151154
20
7.5517084732669
30
0
41
1
10
115.352362439712
20
7.88430717455682
30
0
41
1
10
113.715914698716
20
8.31068424147728
30
0
41
1
10
113.169642646554
20
8.44082781890464
30
0
41
1
10
112.076798908808
20
8.67556742372389
30
0
41
1
10
111.531186348039
20
8.77995076005072
30
0
41
1
10
109.895169843255
20
9.05334194168427
30
0
41
1
10
108.805661446913
20
9.18260434553645
30
0
41
1
10
107.166402269652
20
9.29379987220085
30
0
41
1
10
106.619974444839
20
9.31701903217962
30
0
41
1
10
105.885653259479
20
9.32951759197752
30
0
41
1
10
105.696939765438
20
9.33106647538679
30
0
41
1
10
105.508253560437
20
9.33095343559347
30
0
0
SPLINE
5
F2
100
AcDbEntity
8
1
62
256
6
ByLayer
370
18
48
1
60
0
100
AcDbSpline
70
4
71
3
72
52
73
48
40
0
40
0
40
0
40
0
40
0.0300044679595801
40
0.0300044679595801
40
0.062337652360928
40
0.062337652360928
40
0.0946708367622754
40
0.0946708367622754
40
0.159337205564971
40
0.159337205564971
40
0.191670389966318
40
0.191670389966318
40
0.224003574367666
40
0.224003574367666
40
0.256336758769013
40
0.256336758769013
40
0.288669943170361
40
0.288669943170361
40
0.353336311973056
40
0.353336311973056
40
0.385669496374403
40
0.385669496374403
40
0.41800268077575
40
0.41800268077575
40
0.482669049578446
40
0.482669049578446
40
0.515002233979793
40
0.515002233979793
40
0.54733541838114
40
0.54733541838114
40
0.579668602782487
40
0.579668602782487
40
0.612001787183834
40
0.612001787183834
40
0.676668155986529
40
0.676668155986529
40
0.709001340387876
40
0.709001340387876
40
0.741334524789223
40
0.741334524789223
40
0.806000893591917
40
0.806000893591917
40
0.870667262394611
40
0.870667262394611
40
0.935333631197306
40
0.935333631197306
40
1
40
1
40
1
40
1
41
1
10
56.8244787608928
20
-8.7981946090012
30
0
41
1
10
56.318093181053
20
-8.88606588589505
30
0
41
1
10
55.8118537394051
20
-8.96262397239778
30
0
41
1
10
54.7595295987347
20
-9.09769477064165
30
0
41
1
10
54.2133334333271
20
-9.15431166361637
30
0
41
1
10
53.1190824746686
20
-9.24012368287197
30
0
41
1
10
52.5727672437777
20
-9.26920640209389
30
0
41
1
10
50.9350506477666
20
-9.31485625256067
30
0
41
1
10
49.844579550765
20
-9.28987121695164
30
0
41
1
10
48.2046305064401
20
-9.16942857004628
30
0
41
1
10
47.6573170393908
20
-9.11543590749656
30
0
41
1
10
46.5648710209375
20
-8.98067437175098
30
0
41
1
10
46.0192123447137
20
-8.8998354614661
30
0
41
1
10
44.9277752449148
20
-8.71194514590113
30
0
41
1
10
44.3819903805706
20
-8.60490477345388
30
0
41
1
10
43.2892959786734
20
-8.36523763745004
30
0
41
1
10
42.7418378902503
20
-8.23242531878182
30
0
41
1
10
41.1021033589159
20
-7.79842818377728
30
0
41
1
10
40.0115877076706
20
-7.46152902695118
30
0
41
1
10
38.3733066167645
20
-6.89197911517803
30
0
41
1
10
37.8264092526291
20
-6.69132866026385
30
0
41
1
10
36.7323024632373
20
-6.27045365786964
30
0
41
1
10
36.1861035381435
20
-6.0506100708815
30
0
41
1
10
34.5483120455865
20
-5.36548082668941
30
0
41
1
10
33.4575753961272
20
-4.87451546131408
30
0
41
1
10
31.816518721326
20
-4.09689239727493
30
0
41
1
10
31.2694205407639
20
-3.83120212893451
30
0
41
1
10
30.1769598299113
20
-3.29013212757633
30
0
41
1
10
29.6311516569162
20
-3.01454645933177
30
0
41
1
10
28.5393556679714
20
-2.45509434320587
30
0
41
1
10
27.9933825410049
20
-2.17120118555152
30
0
41
1
10
26.9002120467761
20
-1.59698567062128
30
0
41
1
10
26.3526357756941
20
-1.30653610279117
30
0
41
1
10
24.7130598074827
20
-0.432838472024088
30
0
41
1
10
23.6221599821947
20
0.153937856683172
30
0
41
1
10
21.9829730065903
20
1.02920738190016
30
0
41
1
10
21.435558194005
20
1.3204976635669
30
0
41
1
10
20.3417255395238
20
1.89779074015868
30
0
41
1
10
19.7955605345834
20
2.18361353653879
30
0
41
1
10
18.1575513464696
20
3.02944279531763
30
0
41
1
10
17.0662717726965
20
3.57795476320172
30
0
41
1
10
14.8766428327362
20
4.6290613995414
30
0
41
1
10
13.7848267007191
20
5.12843237009736
30
0
41
1
10
11.599363980356
20
6.06089446275695
30
0
41
1
10
10.5039535677286
20
6.49471612432041
30
0
41
1
10
8.31834686608971
20
7.27709068471506
30
0
41
1
10
7.22654394150516
20
7.62646722361777
30
0
41
1
10
6.13195153099127
20
7.92949232269848
30
0
0
SPLINE
5
F3
100
AcDbEntity
8
1
62
256
6
ByLayer
370
18
48
1
60
0
100
AcDbSpline
70
4
71
3
72
39
73
35
40
0
40
0
40
0
40
0
40
0.105529337045273
40
0.105529337045273
40
0.206689264020846
40
0.206689264020846
40
0.257269227508633
40
0.257269227508633
40
0.30784919099642
40
0.30784919099642
40
0.510169044947567
40
0.510169044947567
40
0.522814035819514
40
0.522814035819514
40
0.529136531255487
40
0.529136531255487
40
0.53545902669146
40
0.53545902669146
40
0.541781522127433
40
0.541781522127433
40
0.548104017563407
40
0.560749008435353
40
0.560749008435353
40
0.61132897192314
40
0.61132897192314
40
0.712488898898714
40
0.712488898898714
40
0.813648825874288
40
0.813648825874288
40
0.864228789362075
40
0.864228789362075
40
0.914808752849861
40
0.914808752849861
40
1
40
1
40
1
40
1
41
1
10
11.6225958308311
20
4.98720129055684
30
0
41
1
10
11.6225958308311
20
4.62899084239564
30
0
41
1
10
11.6225958308312
20
4.25753561817615
30
0
41
1
10
11.6225958308312
20
3.50468417673443
30
0
41
1
10
11.6225958308312
20
3.12428491792332
30
0
41
1
10
11.6225958308312
20
2.53578625726451
30
0
41
1
10
11.6225958308312
20
2.33663402032667
30
0
41
1
10
11.6225958308312
20
1.93232448016869
30
0
41
1
10
11.6225958308312
20
1.72696714426254
30
0
41
1
10
11.6225958308312
20
0.687574087801437
30
0
41
1
10
11.6225958308312
20
-0.1816689165193
30
0
41
1
10
11.6225958308312
20
-1.14517537357639
30
0
41
1
10
11.6225958308312
20
-1.20202194123291
30
0
41
1
10
11.6225958308312
20
-1.2874283721807
30
0
41
1
10
11.6225958308312
20
-1.31621798176553
30
0
41
1
10
11.6225958308312
20
-1.37562478923306
30
0
41
1
10
11.6225958308312
20
-1.40605235358757
30
0
41
1
10
11.6225958308312
20
-1.46869377473874
30
0
41
1
10
11.6225958308312
20
-1.50125071011001
30
0
41
1
10
11.6225958308312
20
-1.56594378339207
30
0
41
1
10
11.6225958308312
20
-1.66303125775767
30
0
41
1
10
11.6225958308312
20
-1.76026281036542
30
0
41
1
10
11.6225958308312
20
-2.08469039288241
30
0
41
1
10
11.6225958308312
20
-2.34528638991406
30
0
41
1
10
11.6225958308312
20
-3.12805504328736
30
0
41
1
10
11.6225958308312
20
-3.65192042809031
30
0
41
1
10
11.6225958308312
20
-4.70387666268445
30
0
41
1
10
11.6225958308312
20
-5.2319667801238
30
0
41
1
10
11.6225958308312
20
-6.02746784120109
30
0
41
1
10
11.6225958308312
20
-6.2934822174023
30
0
41
1
10
11.6225958308312
20
-6.8246892474807
30
0
41
1
10
11.6225958308312
20
-7.08998199877644
30
0
41
1
10
11.6225958308312
20
-7.80125198896997
30
0
41
1
10
11.6225958308312
20
-8.24665370248201
30
0
41
1
10
11.6225958308312
20
-8.69110731237072
30
0
0
SPLINE
5
F4
100
AcDbEntity
8
1
62
256
6
ByLayer
370
18
48
1
60
0
100
AcDbSpline
70
4
71
3
72
84
73
80
40
0
40
0
40
0
40
0
40
0.0431592052380822
40
0.0431592052380822
40
0.0647388078571233
40
0.0647388078571233
40
0.0863184104761643
40
0.0863184104761643
40
0.129477615714246
40
0.129477615714246
40
0.172636820952328
40
0.172636820952328
40
0.194216423571369
40
0.194216423571369
40
0.21579602619041
40
0.21579602619041
40
0.23737562880945
40
0.23737562880945
40
0.258955231428491
40
0.258955231428491
40
0.280534834047532
40
0.280534834047532
40
0.302114436666572
40
0.302114436666572
40
0.323694039285613
40
0.323694039285613
40
0.345273641904653
40
0.345273641904653
40
0.356063443214174
40
0.356063443214174
40
0.366853244523694
40
0.366853244523694
40
0.388432847142735
40
0.388432847142735
40
0.410012449761775
40
0.410012449761775
40
0.431592052380816
40
0.431592052380816
40
0.474751257618897
40
0.474751257618897
40
0.496330860237938
40
0.496330860237938
40
0.517910462856978
40
0.517910462856978
40
0.561069668095059
40
0.561069668095059
40
0.604228873333139
40
0.604228873333139
40
0.625808475952179
40
0.625808475952179
40
0.647388078571219
40
0.647388078571219
40
0.66896768119026
40
0.66896768119026
40
0.6905472838093
40
0.6905472838093
40
0.733706489047381
40
0.733706489047381
40
0.776865694285462
40
0.776865694285462
40
0.787655495594982
40
0.787655495594982
40
0.798445296904502
40
0.798445296904502
40
0.820024899523542
40
0.820024899523542
40
0.841604502142581
40
0.841604502142581
40
0.863184104761621
40
0.863184104761621
40
0.906343309999701
40
0.906343309999701
40
0.92792291261874
40
0.92792291261874
40
0.94950251523778
40
0.94950251523778
40
0.992661720475859
40
0.992661720475859
40
1
40
1
40
1
40
1
41
1
10
11.6225958308311
20
4.98720129054198
30
0
41
1
10
12.158217120935
20
4.74325566201776
30
0
41
1
10
12.6927229417063
20
4.49435782027925
30
0
41
1
10
13.4934479091122
20
4.11492120438888
30
0
41
1
10
13.7601089683716
20
3.98729709287159
30
0
41
1
10
14.2924595690339
20
3.72892098794276
30
0
41
1
10
14.5576196817075
20
3.59721963179308
30
0
41
1
10
15.3535661713067
20
3.20082993067388
30
0
41
1
10
15.8845185188418
20
2.93437004228636
30
0
41
1
10
16.9441229171183
20
2.39181174960686
30
0
41
1
10
17.4725910233812
20
2.11533361072873
30
0
41
1
10
18.2662490396644
20
1.69827300447071
30
0
41
1
10
18.5309856214303
20
1.55891346989785
30
0
41
1
10
19.0607346707223
20
1.27935439002624
30
0
41
1
10
19.3259085035594
20
1.13946400402216
30
0
41
1
10
19.8552947430941
20
0.856476967458264
30
0
41
1
10
20.1198787157215
20
0.714079224032076
30
0
41
1
10
20.6502916335068
20
0.430283018035453
30
0
41
1
10
20.9159260769891
20
0.288515325846674
30
0
41
1
10
21.4478537245491
20
0.0048691172495126
30
0
41
1
10
21.7140559368145
20
-0.137185321582706
30
0
41
1
10
22.24646227936
20
-0.422713685254394
30
0
41
1
10
22.5128137974393
20
-0.565902290664809
30
0
41
1
10
23.046569208471
20
-0.851650987366298
30
0
41
1
10
23.3138088042626
20
-0.994536169700041
30
0
41
1
10
23.8495292944498
20
-1.27930155250451
30
0
41
1
10
24.118200602184
20
-1.42128786394622
30
0
41
1
10
24.520569090783
20
-1.63325807166376
30
0
41
1
10
24.6546427723616
20
-1.70374033046656
30
0
41
1
10
24.9225531160389
20
-1.8446127936021
30
0
41
1
10
25.056157270979
20
-1.9154324558547
30
0
41
1
10
25.4572320088377
20
-2.12659811453901
30
0
41
1
10
25.7247071133048
20
-2.26613450027813
30
0
41
1
10
26.2598585900747
20
-2.5427355002908
30
0
41
1
10
26.5275922430154
20
-2.67969908528858
30
0
41
1
10
27.0627415051192
20
-2.95210573038506
30
0
41
1
10
27.3300185824637
20
-3.0877916320535
30
0
41
1
10
28.1315868399365
20
-3.49212904947251
30
0
41
1
10
28.6661797986773
20
-3.7570611376272
30
0
41
1
10
29.4699737224971
20
-4.14482687073911
30
0
41
1
10
29.7381634891891
20
-4.27258190605031
30
0
41
1
10
30.2747466068475
20
-4.52560809758407
30
0
41
1
10
30.5423428322946
20
-4.65178935959912
30
0
41
1
10
31.3456562374486
20
-5.02226289070379
30
0
41
1
10
31.8817264117891
20
-5.26000775356084
30
0
41
1
10
32.9514936302913
20
-5.72260465894425
30
0
41
1
10
33.4853267636187
20
-5.94711755937936
30
0
41
1
10
34.2874262592127
20
-6.26940442902094
30
0
41
1
10
34.5550516501783
20
-6.37438843740532
30
0
41
1
10
35.0905927477573
20
-6.57980487050406
30
0
41
1
10
35.3586706580672
20
-6.6800329867894
30
0
41
1
10
35.8936594908689
20
-6.87776806947656
30
0
41
1
10
36.1617877216885
20
-6.97404079519163
30
0
41
1
10
36.6979000589602
20
-7.16077594717245
30
0
41
1
10
36.9657214634362
20
-7.25114154281829
30
0
41
1
10
37.7679431683722
20
-7.51410317804402
30
0
41
1
10
38.3001375768463
20
-7.679633906481
30
0
41
1
10
39.3628038384689
20
-7.98716128778639
30
0
41
1
10
39.8934844175438
20
-8.12903830918438
30
0
41
1
10
40.5561139093743
20
-8.29174813682812
30
0
41
1
10
40.6886520984903
20
-8.32351850757618
30
0
41
1
10
40.9531735869485
20
-8.38599076209806
30
0
41
1
10
41.0852585756003
20
-8.41659966608086
30
0
41
1
10
41.4818516998863
20
-8.50584049414596
30
0
41
1
10
41.7463800600466
20
-8.56215616119565
30
0
41
1
10
42.2757167832994
20
-8.66852766697536
30
0
41
1
10
42.5405665918935
20
-8.7185636015939
30
0
41
1
10
43.0699276969061
20
-8.81281189328001
30
0
41
1
10
43.3343263257259
20
-8.85707708964168
30
0
41
1
10
44.1276498869712
20
-8.98057771140284
30
0
41
1
10
44.6570076844211
20
-9.05035499186073
30
0
41
1
10
45.4531184629618
20
-9.13566962268595
30
0
41
1
10
45.7187797376554
20
-9.16091663300531
30
0
41
1
10
46.2503155385793
20
-9.20509810715257
30
0
41
1
10
46.5156253608925
20
-9.22415739100518
30
0
41
1
10
47.3142333146752
20
-9.2710691649294
30
0
41
1
10
47.849202146167
20
-9.28914929650247
30
0
41
1
10
48.4761289195763
20
-9.29490622992748
30
0
41
1
10
48.5672498573683
20
-9.2953560905228
30
0
41
1
10
48.6583699752786
20
-9.29541891981165
30
0
0
SPLINE
5
F5
100
AcDbEntity
8
1
62
256
6
ByLayer
370
18
48
1
60
0
100
AcDbSpline
70
4
71
3
72
148
73
144
40
0
40
0
40
0
40
0
40
0.0090670046626278
40
0.0090670046626278
40
0.0201240454124641
40
0.0201240454124641
40
0.042238126912136
40
0.042238126912136
40
0.0532951676619723
40
0.0532951676619723
40
0.0643522084118086
40
0.0643522084118086
40
0.0754092491616449
40
0.0754092491616449
40
0.0864662899114813
40
0.0864662899114813
40
0.0975233306613176
40
0.0975233306613176
40
0.108580371411154
40
0.108580371411154
40
0.11963741216099
40
0.11963741216099
40
0.130694452910826
40
0.130694452910826
40
0.152808534410499
40
0.152808534410499
40
0.174922615910172
40
0.174922615910172
40
0.185979656660008
40
0.185979656660008
40
0.191508177034927
40
0.191508177034927
40
0.197036697409845
40
0.197036697409845
40
0.219150778909521
40
0.219150778909521
40
0.241264860409196
40
0.241264860409196
40
0.263378941908872
40
0.263378941908872
40
0.274435982658709
40
0.274435982658709
40
0.285493023408547
40
0.285493023408547
40
0.296550064158385
40
0.296550064158385
40
0.307607104908223
40
0.307607104908223
40
0.329721186407897
40
0.329721186407897
40
0.340778227157734
40
0.340778227157734
40
0.351835267907571
40
0.351835267907571
40
0.373949349407244
40
0.373949349407244
40
0.396063430906918
40
0.396063430906918
40
0.407120471656755
40
0.407120471656755
40
0.412648992031673
40
0.412648992031673
40
0.418177512406592
40
0.418177512406592
40
0.440291593906265
40
0.440291593906265
40
0.462405675405939
40
0.462405675405939
40
0.484519756905613
40
0.484519756905613
40
0.49557679765545
40
0.49557679765545
40
0.506633838405287
40
0.506633838405287
40
0.517690879155124
40
0.517690879155124
40
0.528747919904962
40
0.528747919904962
40
0.550862001404635
40
0.550862001404635
40
0.561919042154472
40
0.561919042154472
40
0.57297608290431
40
0.57297608290431
40
0.595090164403984
40
0.595090164403984
40
0.606147205153821
40
0.606147205153821
40
0.617204245903658
40
0.617204245903658
40
0.628261286653495
40
0.628261286653495
40
0.633789807028414
40
0.633789807028414
40
0.639318327403333
40
0.639318327403333
40
0.66143240890301
40
0.66143240890301
40
0.683546490402687
40
0.683546490402687
40
0.705660571902364
40
0.705660571902364
40
0.716717612652202
40
0.716717612652202
40
0.72777465340204
40
0.72777465340204
40
0.738831694151878
40
0.738831694151878
40
0.749888734901716
40
0.749888734901716
40
0.772002816401393
40
0.772002816401393
40
0.783059857151231
40
0.783059857151231
40
0.79411689790107
40
0.79411689790107
40
0.816230979400748
40
0.816230979400748
40
0.838345060900426
40
0.838345060900426
40
0.849402101650264
40
0.849402101650264
40
0.860459142400103
40
0.860459142400103
40
0.88257322389978
40
0.88257322389978
40
0.904687305399457
40
0.904687305399457
40
0.915744346149296
40
0.915744346149296
40
0.926801386899134
40
0.926801386899134
40
0.937858427648973
40
0.937858427648973
40
0.948915468398811
40
0.948915468398811
40
0.95997250914865
40
0.95997250914865
40
0.971029549898488
40
0.971029549898488
40
0.993143631398165
40
0.993143631398165
40
1
40
1
40
1
40
1
41
1
10
85.2697947853971
20
4.81568006791417
30
0
41
1
10
85.4893502801367
20
4.91664678719303
30
0
41
1
10
85.7091110309236
20
5.01688169822108
30
0
41
1
10
86.1963769110927
20
5.23686457685179
30
0
41
1
10
86.4639120619096
20
5.35572817609361
30
0
41
1
10
87.2661194564355
20
5.70608521840691
30
0
41
1
10
87.8009544307298
20
5.93052728103996
30
0
41
1
10
88.602637763594
20
6.25456916466283
30
0
41
1
10
88.8691189473956
20
6.36136313143373
30
0
41
1
10
89.4030023033725
20
6.56914399592034
30
0
41
1
10
89.6701998296161
20
6.67042969639027
30
0
41
1
10
90.2051077228661
20
6.86785211995812
30
0
41
1
10
90.4727865204128
20
6.96403655366586
30
0
41
1
10
91.007873428362
20
7.15221608575149
30
0
41
1
10
91.2752343199728
20
7.24425176804755
30
0
41
1
10
91.8106318489741
20
7.42290815632276
30
0
41
1
10
92.078627737095
20
7.50963657810186
30
0
41
1
10
92.6133759639277
20
7.67705162231985
30
0
41
1
10
92.8804839886893
20
7.75769922876725
30
0
41
1
10
93.4140086295786
20
7.91317209524368
30
0
41
1
10
93.680626973639
20
7.98780726263294
30
0
41
1
10
94.2116759617177
20
8.132726605361
30
0
41
1
10
94.4769763495936
20
8.20212408077663
30
0
41
1
10
95.2729179930705
20
8.40066874949363
30
0
41
1
10
95.8035998676381
20
8.52032173745758
30
0
41
1
10
96.8613228585646
20
8.73732935555162
30
0
41
1
10
97.3893648079888
20
8.83377615346126
30
0
41
1
10
98.1823410777971
20
8.9591778913022
30
0
41
1
10
98.4468156277067
20
8.99778778207687
30
0
41
1
10
98.8435258159082
20
9.05104861554051
30
0
41
1
10
98.9757938687472
20
9.06801204136792
30
0
41
1
10
99.2401428627127
20
9.10045785262469
30
0
41
1
10
99.3720518429609
20
9.1160062680778
30
0
41
1
10
100.032498543818
20
9.18941620783059
30
0
41
1
10
100.562519698988
20
9.2349313772977
30
0
41
1
10
101.62406151965
20
9.30039498827622
30
0
41
1
10
102.154720707499
20
9.32036614329439
30
0
41
1
10
103.219857458717
20
9.33357298226616
30
0
41
1
10
103.754929181025
20
9.32693283147771
30
0
41
1
10
104.55892117026
20
9.29690918045469
30
0
41
1
10
104.825937628705
20
9.28344259340523
30
0
41
1
10
105.360614436785
20
9.25002090151111
30
0
41
1
10
105.62800482328
20
9.23004390221675
30
0
41
1
10
106.162876457789
20
9.18367083082475
30
0
41
1
10
106.430309878551
20
9.15726960724521
30
0
41
1
10
106.96447412725
20
9.09775619984919
30
0
41
1
10
107.231181109855
20
9.06461011723152
30
0
41
1
10
108.03177701996
20
8.95562339323399
30
0
41
1
10
108.56580234008
20
8.87011433428921
30
0
41
1
10
109.368360048353
20
8.72334264371869
30
0
41
1
10
109.636215869407
20
8.67141838925716
30
0
41
1
10
110.170782674501
20
8.56014715027413
30
0
41
1
10
110.438691247188
20
8.50144523283743
30
0
41
1
10
111.241174999424
20
8.31722588672991
30
0
41
1
10
111.775319174099
20
8.18369126556939
30
0
41
1
10
112.83840067377
20
7.89213858077017
30
0
41
1
10
113.368425684638
20
7.73506346785214
30
0
41
1
10
114.163202433598
20
7.4849292979618
30
0
41
1
10
114.428066073735
20
7.3991236707663
30
0
41
1
10
114.825044679409
20
7.26653850616359
30
0
41
1
10
114.957382814714
20
7.22177577100706
30
0
41
1
10
115.221562234898
20
7.13047481995281
30
0
41
1
10
115.35344237977
20
7.08397764960756
30
0
41
1
10
116.013483447938
20
6.8493338173742
30
0
41
1
10
116.542423760613
20
6.6534079550799
30
0
41
1
10
117.599963919414
20
6.24264965985935
30
0
41
1
10
118.127859248565
20
6.02672224729369
30
0
41
1
10
119.185968724702
20
5.5793046230834
30
0
41
1
10
119.716431373011
20
5.34829828998784
30
0
41
1
10
120.513284651084
20
4.9893072653762
30
0
41
1
10
120.778456234555
20
4.86648435766716
30
0
41
1
10
121.310582061366
20
4.61887910760393
30
0
41
1
10
121.57721814451
20
4.49358856084663
30
0
41
1
10
122.111598509315
20
4.23999466767961
30
0
41
1
10
122.379286045016
20
4.11159861780325
30
0
41
1
10
122.915031409104
20
3.85039094856631
30
0
41
1
10
123.182418355861
20
3.71789919811494
30
0
41
1
10
123.984372850126
20
3.3176634272607
30
0
41
1
10
124.518499595019
20
3.04643256288807
30
0
41
1
10
125.319963808881
20
2.63489218181238
30
0
41
1
10
125.587182863405
20
2.4969698238057
30
0
41
1
10
126.120200973464
20
2.21682690910549
30
0
41
1
10
126.386969998103
20
2.07634891657318
30
0
41
1
10
127.188096127587
20
1.6538093016101
30
0
41
1
10
127.723428493258
20
1.37095999416425
30
0
41
1
10
128.525624841327
20
0.939937727595066
30
0
41
1
10
128.793438182309
20
0.79556378259025
30
0
41
1
10
129.3282881755
20
0.507099606239876
30
0
41
1
10
129.595264223717
20
0.362918316390761
30
0
41
1
10
130.128785114649
20
0.0755515307321275
30
0
41
1
10
130.395272165386
20
-0.0677513032947843
30
0
41
1
10
130.794372955661
20
-0.282579593886396
30
0
41
1
10
130.927363805441
20
-0.354047517391479
30
0
41
1
10
131.192645237941
20
-0.497888862421433
30
0
41
1
10
131.325149100756
20
-0.56984690196299
30
0
41
1
10
131.987861010045
20
-0.928137604884142
30
0
41
1
10
132.518169287338
20
-1.21092987218913
30
0
41
1
10
133.576633599539
20
-1.77362917275136
30
0
41
1
10
134.104264354847
20
-2.05447224092984
30
0
41
1
10
135.160372944078
20
-2.60759051798902
30
0
41
1
10
135.689176263632
20
-2.87931580888662
30
0
41
1
10
136.482011835278
20
-3.28236802106838
30
0
41
1
10
136.745691680345
20
-3.41690675233715
30
0
41
1
10
137.27451267327
20
-3.68162806182113
30
0
41
1
10
137.539303511523
20
-3.81243885740281
30
0
41
1
10
138.069570716752
20
-4.07110902219719
30
0
41
1
10
138.334979185594
20
-4.19908867307797
30
0
41
1
10
138.865737545986
20
-4.45335931707737
30
0
41
1
10
139.131121685536
20
-4.5795850753392
30
0
41
1
10
139.928780943513
20
-4.95295918795492
30
0
41
1
10
140.462173747859
20
-5.19547401327762
30
0
41
1
10
141.265646386774
20
-5.54801996055113
30
0
41
1
10
141.533645707227
20
-5.66361001203035
30
0
41
1
10
142.067676800401
20
-5.89216361448891
30
0
41
1
10
142.334750854673
20
-6.00390232085971
30
0
41
1
10
143.136177756622
20
-6.33161427296628
30
0
41
1
10
143.670851263846
20
-6.54000605900856
30
0
41
1
10
144.73754375858
20
-6.94115344119732
30
0
41
1
10
145.270785678486
20
-7.13220881080449
30
0
41
1
10
146.072392034391
20
-7.40228717689652
30
0
41
1
10
146.339848344525
20
-7.48961749024269
30
0
41
1
10
146.874955816566
20
-7.65922977837641
30
0
41
1
10
147.142320874912
20
-7.74210069978881
30
0
41
1
10
147.944368087202
20
-7.98123220890167
30
0
41
1
10
148.478397431957
20
-8.12758345137337
30
0
41
1
10
149.542554309488
20
-8.39758478177092
30
0
41
1
10
150.072301941182
20
-8.5213812513054
30
0
41
1
10
150.86643819499
20
-8.68786914969627
30
0
41
1
10
151.131085735815
20
-8.74017622063212
30
0
41
1
10
151.660237384394
20
-8.83851060752758
30
0
41
1
10
151.924807485752
20
-8.88450816184601
30
0
41
1
10
152.452967449186
20
-8.97071109640592
30
0
41
1
10
152.716425545513
20
-9.01094610704737
30
0
41
1
10
153.244345414831
20
-9.08451136443446
30
0
41
1
10
153.508497916786
20
-9.11802467704013
30
0
41
1
10
154.037062118109
20
-9.17865054440287
30
0
41
1
10
154.301396048996
20
-9.20580050724635
30
0
41
1
10
154.829593857642
20
-9.25389526217114
30
0
41
1
10
155.093541963574
20
-9.27479243504885
30
0
41
1
10
155.886308253053
20
-9.32759756605137
30
0
41
1
10
156.415675392772
20
-9.3497443008138
30
0
41
1
10
157.111049128033
20
-9.36157438176915
30
0
41
1
10
157.275716094747
20
-9.36312202896343
30
0
41
1
10
157.440377450147
20
-9.36339598917652
30
0
0
SPLINE
5
F6
100
AcDbEntity
8
1
62
256
6
ByLayer
370
18
48
1
60
0
100
AcDbSpline
70
4
71
3
72
56
73
52
40
0
40
0
40
0
40
0
40
0.0174672718597999
40
0.0174672718597999
40
0.053857372902035
40
0.053857372902035
40
0.090247473944269
40
0.090247473944269
40
0.126637574986504
40
0.126637574986504
40
0.19941777707097
40
0.19941777707097
40
0.235807878113203
40
0.235807878113203
40
0.272197979155437
40
0.272197979155437
40
0.308588080197667
40
0.308588080197667
40
0.344978181239898
40
0.344978181239898
40
0.381368282282128
40
0.381368282282128
40
0.417758383324358
40
0.417758383324358
40
0.490538585408819
40
0.490538585408819
40
0.508733635929932
40
0.508733635929932
40
0.526928686451045
40
0.526928686451045
40
0.563318787493272
40
0.563318787493272
40
0.5997088885355
40
0.5997088885355
40
0.636098989577727
40
0.636098989577727
40
0.672489090619955
40
0.672489090619955
40
0.708879191662182
40
0.708879191662182
40
0.745269292704409
40
0.745269292704409
40
0.781659393746636
40
0.781659393746636
40
0.854439595831091
40
0.854439595831091
40
0.927219797915545
40
0.927219797915545
40
0.963609898957773
40
0.963609898957773
40
1
40
1
40
1
40
1
41
1
10
194.033985752602
20
4.82863088732771
30
0
41
1
10
194.161392024044
20
4.88771136325713
30
0
41
1
10
194.288865633141
20
4.94643704239479
30
0
41
1
10
194.682066040249
20
5.12649493958168
30
0
41
1
10
194.947431480612
20
5.24759183016351
30
0
41
1
10
195.479632295938
20
5.48520947256978
30
0
41
1
10
195.746345651488
20
5.60193720296982
30
0
41
1
10
196.281007497587
20
5.8312285889065
30
0
41
1
10
196.549051894725
20
5.94385268845818
30
0
41
1
10
197.351050232434
20
6.27591721242564
30
0
41
1
10
197.883952735702
20
6.48959663225926
30
0
41
1
10
198.683739938716
20
6.7943657521763
30
0
41
1
10
198.950434511506
20
6.89331520136656
30
0
41
1
10
199.483906027861
20
7.08613028931518
30
0
41
1
10
199.750877953666
20
7.17977276605711
30
0
41
1
10
200.283477843708
20
7.36362487553149
30
0
41
1
10
200.549711456016
20
7.45309215400334
30
0
41
1
10
201.083163105935
20
7.6258756535982
30
0
41
1
10
201.35024389276
20
7.70935877279626
30
0
41
1
10
201.884868163311
20
7.87081470181246
30
0
41
1
10
202.152308420144
20
7.9488973527537
30
0
41
1
10
202.687024827126
20
8.10009876206379
30
0
41
1
10
202.954071248992
20
8.17291155289621
30
0
41
1
10
203.754937473485
20
8.38195344294556
30
0
41
1
10
204.288481225811
20
8.50901860929434
30
0
41
1
10
204.955384522545
20
8.6523760081478
30
0
41
1
10
205.088767689201
20
8.68027210681484
30
0
41
1
10
205.355303055392
20
8.73467141627927
30
0
41
1
10
205.488267072072
20
8.76129759025858
30
0
41
1
10
205.887628386101
20
8.83849897679235
30
0
41
1
10
206.154123024165
20
8.88666604000352
30
0
41
1
10
206.687631860968
20
8.9764875989523
30
0
41
1
10
206.954700816705
20
9.01811957179987
30
0
41
1
10
207.488808833536
20
9.09518316195673
30
0
41
1
10
207.755713645953
20
9.13066581489977
30
0
41
1
10
208.28972108805
20
9.19518666812482
30
0
41
1
10
208.557208163019
20
9.224180391858
30
0
41
1
10
209.091228510905
20
9.27542526116471
30
0
41
1
10
209.357924018932
20
9.29766421409684
30
0
41
1
10
209.890904745937
20
9.33543521714134
30
0
41
1
10
210.157130849095
20
9.35098971822796
30
0
41
1
10
210.688753902398
20
9.37553202816869
30
0
41
1
10
210.953547514026
20
9.38457337524261
30
0
41
1
10
211.748775490848
20
9.40152068311693
30
0
41
1
10
212.279305896414
20
9.39957393148657
30
0
41
1
10
213.337828607665
20
9.36950858758092
30
0
41
1
10
213.865916983693
20
9.34119583263472
30
0
41
1
10
214.65915890415
20
9.27929696485705
30
0
41
1
10
214.923789513408
20
9.25545903444583
30
0
41
1
10
215.453297478047
20
9.2013600788481
30
0
41
1
10
215.718380148435
20
9.17119736383108
30
0
41
1
10
215.982831678467
20
9.13745651929406
30
0
0
SPLINE
5
F7
100
AcDbEntity
8
1
62
256
6
ByLayer
370
18
48
1
60
0
100
AcDbSpline
70
4
71
3
72
8
73
4
40
0
40
0
40
0
40
0
40
1
40
1
40
1
40
1
41
1
10
218.661501278329
20
2.29424164996084
30
0
41
1
10
218.771433930192
20
1.61122855796859
30
0
41
1
10
218.868558956195
20
0.928325830920244
30
0
41
1
10
218.952793233776
20
0.245534185093533
30
0
0
SPLINE
5
F8
100
AcDbEntity
8
1
62
256
6
ByLayer
370
18
48
1
60
0
100
AcDbSpline
70
4
71
3
72
8
73
4
40
0
40
0
40
0
40
0
40
1
40
1
40
1
40
1
41
1
10
218.661501278329
20
-2.29424164996084
30
0
41
1
10
218.771432645124
20
-1.61123654211042
30
0
41
1
10
218.868557969382
20
-0.928333829890363
30
0
41
1
10
218.952793233776
20
-0.245534185093419
30
0
0
SPLINE
5
F9
100
AcDbEntity
8
1
62
256
6
ByLayer
370
18
48
1
60
0
100
AcDbSpline
70
4
71
3
72
8
73
4
40
0
40
0
40
0
40
0
40
1
40
1
40
1
40
1
41
1
10
218.999970484332
20
0.047248178977469
30
0
41
1
10
218.992065148462
20
0.0270861002948379
30
0
41
1
10
218.983476754774
20
0.0083060062832772
30
0
41
1
10
218.97488607032
20
-0.0076782980138432
30
0
0
SPLINE
5
FA
100
AcDbEntity
8
1
62
256
6
ByLayer
370
18
48
1
60
0
100
AcDbSpline
70
4
71
3
72
14
73
10
40
0
40
0
40
0
40
0
40
0.519210812139834
40
0.519210812139834
40
0.778816218209751
40
0.778816218209751
40
0.908618921244715
40
0.908618921244715
40
1
40
1
40
1
40
1
41
1
10
215.856237411104
20
-8.8566957432578
30
0
41
1
10
213.670434719168
20
-8.94198774348254
30
0
41
1
10
211.50858699745
20
-8.81292821423673
30
0
41
1
10
208.256189708439
20
-8.31936418943488
30
0
41
1
10
207.170413813827
20
-8.10458500831655
30
0
41
1
10
205.533123734502
20
-7.71034931356002
30
0
41
1
10
204.985217524536
20
-7.56667118221228
30
0
41
1
10
204.053901644727
20
-7.30356456205612
30
0
41
1
10
203.669492915923
20
-7.18950057678967
30
0
41
1
10
203.28528271606
20
-7.07028561399855
30
0
0
SPLINE
5
FB
100
AcDbEntity
8
1
62
256
6
ByLayer
370
13
48
1
60
0
100
AcDbSpline
70
4
71
3
72
24
73
20
40
0
40
0
40
0
40
0
40
0.0242663106911393
40
0.0242663106911393
40
0.188227607009182
40
0.188227607009182
40
0.270208255168203
40
0.270208255168203
40
0.352188903327225
40
0.352188903327225
40
0.516150199645264
40
0.516150199645264
40
0.557140523724773
40
0.557140523724773
40
0.598130847804282
40
0.598130847804282
40
0.680111495963304
40
0.680111495963304
40
1
40
1
40
1
40
1
41
1
10
203.285283186657
20
-7.07028576001798
30
0
41
1
10
203.123739960363
20
-7.02016119531086
30
0
41
1
10
202.962231830559
20
-6.96912602695537
30
0
41
1
10
201.70963331482
20
-6.56631792578463
30
0
41
1
10
200.61949452935
20
-6.1745680615881
30
0
41
1
10
198.979637658667
20
-5.53377513406397
30
0
41
1
10
198.431870312778
20
-5.31109422073206
30
0
41
1
10
197.338821564346
20
-4.85161531398725
30
0
41
1
10
196.792958997674
20
-4.61463688746503
30
0
41
1
10
195.155975524954
20
-3.88441344082364
30
0
41
1
10
194.06537006117
20
-3.37198226145608
30
0
41
1
10
192.697965203916
20
-2.70828875595433
30
0
41
1
10
192.424059735617
20
-2.57426930012272
30
0
41
1
10
191.877390165943
20
-2.30496693616647
30
0
41
1
10
191.6045100716
20
-2.16963317517585
30
0
41
1
10
190.787022161428
20
-1.76200828403427
30
0
41
1
10
190.243562664676
20
-1.48810053127309
30
0
41
1
10
187.584797719971
20
-0.139316043039344
30
0
41
1
10
185.484571127251
20
0.952754002600301
30
0
41
1
10
183.371682541249
20
2.00581935015643
30
0
0
SPLINE
5
FC
100
AcDbEntity
8
1
62
256
6
ByLayer
370
18
48
1
60
0
100
AcDbSpline
70
4
71
3
72
18
73
14
40
0
40
0
40
0
40
0
40
0.100439117893167
40
0.100439117893167
40
0.392409579635811
40
0.392409579635811
40
0.684380041378454
40
0.684380041378454
40
0.83036527224978
40
0.83036527224978
40
0.976350503121108
40
0.976350503121108
40
1
40
1
40
1
40
1
41
1
10
105.721972915745
20
-8.81362728068225
30
0
41
1
10
105.345795494255
20
-8.81335346196499
30
0
41
1
10
104.969619698228
20
-8.80684158603046
30
0
41
1
10
103.499250964004
20
-8.75700778002604
30
0
41
1
10
102.402269184908
20
-8.66680171564832
30
0
41
1
10
100.214087588374
20
-8.38453466467018
30
0
41
1
10
99.1213862134098
20
-8.19247001285567
30
0
41
1
10
97.478193621057
20
-7.83202174606103
30
0
41
1
10
96.9298078687984
20
-7.69968823911054
30
0
41
1
10
95.8373309606425
20
-7.4135847968447
30
0
41
1
10
95.2923777053531
20
-7.25968226978458
30
0
41
1
10
94.6601396525711
20
-7.06890137334327
30
0
41
1
10
94.5720187523957
20
-7.04203448398695
30
0
41
1
10
94.4839177951804
20
-7.01490132685609
30
0
0
SPLINE
5
FD
100
AcDbEntity
8
1
62
256
6
ByLayer
370
13
48
1
60
0
100
AcDbSpline
70
4
71
3
72
24
73
20
40
0
40
0
40
0
40
0
40
0.151925991116297
40
0.151925991116297
40
0.317242561968389
40
0.317242561968389
40
0.399900847394433
40
0.399900847394433
40
0.482559132820477
40
0.482559132820477
40
0.647875703672567
40
0.647875703672567
40
0.730533989098613
40
0.730533989098613
40
0.81319227452466
40
0.81319227452466
40
0.978508845376749
40
0.978508845376749
40
1
40
1
40
1
40
1
41
1
10
94.4839177936887
20
-7.01490132639671
30
0
41
1
10
93.4843475299045
20
-6.70705566965319
30
0
41
1
10
92.4873444384409
20
-6.36493449624436
30
0
41
1
10
90.4042814774413
20
-5.58826033668177
30
0
41
1
10
89.3183086018947
20
-5.14784589834198
30
0
41
1
10
87.6825072435842
20
-4.44291466072647
30
0
41
1
10
87.1361195397039
20
-4.20050056158237
30
0
41
1
10
86.0400896138479
20
-3.70233662087387
30
0
41
1
10
85.4921801259902
20
-3.44740832239461
30
0
41
1
10
83.8512204995309
20
-2.66970737627969
30
0
41
1
10
82.7592870954882
20
-2.133197367462
30
0
41
1
10
81.1184297875024
20
-1.31289190910851
30
0
41
1
10
80.5708473442193
20
-1.03678190939843
30
0
41
1
10
79.4742209930438
20
-0.481692437170835
30
0
41
1
10
78.9268661482693
20
-0.203483031448371
30
0
41
1
10
77.286130472199
20
0.63008388297672
30
0
41
1
10
76.193989161786
20
1.18418589627376
30
0
41
1
10
74.9573963893621
20
1.79990294525569
30
0
41
1
10
74.8150945395633
20
1.87057784928908
30
0
41
1
10
74.6727448556012
20
1.94107552166946
30
0
0
SPLINE
5
FE
100
AcDbEntity
8
1
62
256
6
ByLayer
370
18
48
1
60
0
100
AcDbSpline
70
4
71
3
72
20
73
16
40
0
40
0
40
0
40
0
40
0.0697289904477468
40
0.141670034678976
40
0.185807044142095
40
0.226357739886669
40
0.298870772708133
40
0.396305370577001
40
0.511682776350397
40
0.603708052869407
40
0.677692320388227
40
0.769076147121307
40
0.855657346365499
40
0.944488486678146
40
1
40
1
40
1
40
1
41
1
10
6.2501821914239
20
-8.75195590540517
30
0
41
1
10
6.42400287245093
20
-8.7520900800821
30
0
41
1
10
6.77715869348512
20
-8.75236319455882
30
0
41
1
10
7.24033936412349
20
-8.75274248222931
30
0
41
1
10
7.63078574288772
20
-8.75303630940974
30
0
41
1
10
8.02265733108263
20
-8.75330171245417
30
0
41
1
10
8.54739277216089
20
-8.75359528158484
30
0
41
1
10
9.2586386987515
20
-8.7539062276368
30
0
41
1
10
10.0185450183734
20
-8.75421176348505
30
0
41
1
10
10.719987067074
20
-8.7545305368713
30
0
41
1
10
11.3616147719402
20
-8.75487983458734
30
0
41
1
10
11.9896793902603
20
-8.7552884169088
30
0
41
1
10
12.6547486775232
20
-8.75600284612068
30
0
41
1
10
13.2303995456531
20
-8.75648643700845
30
0
41
1
10
13.5902183507126
20
-8.75651968198125
30
0
41
1
10
13.728598030947
20
-8.75650392956132
30
0
0
SPLINE
5
FF
100
AcDbEntity
8
1
62
256
6
ByLayer
370
18
48
1
60
0
100
AcDbSpline
70
4
71
3
72
17
73
13
40
0
40
0
40
0
40
0
40
0.0716303651761453
40
0.174149084755774
40
0.266170269305782
40
0.361810292067824
40
0.485938593221671
40
0.608139074233433
40
0.75012792267605
40
0.862511130352558
40
0.986214251091085
40
1
40
1
40
1
40
1
41
1
10
68.1144310092271
20
8.78945643102068
30
0
41
1
10
67.8438733816781
20
8.78949885443581
30
0
41
1
10
67.186088872611
20
8.78946943583514
30
0
41
1
10
66.1807267939226
20
8.78783348665763
30
0
41
1
10
65.0846825244292
20
8.7877224488943
30
0
41
1
10
63.9070096722985
20
8.7878010496014
30
0
41
1
10
62.6153465003913
20
8.78579721776742
30
0
41
1
10
61.1486239983103
20
8.78607807650459
30
0
41
1
10
59.7262851232519
20
8.78436518188863
30
0
41
1
10
58.2982152632647
20
8.78412436328344
30
0
41
1
10
57.3544852961345
20
8.78366011164661
30
0
41
1
10
56.8351089716583
20
8.78321494827526
30
0
41
1
10
56.783033401553
20
8.78316946130039
30
0
0
SPLINE
5
100
100
AcDbEntity
8
1
62
256
6
ByLayer
370
18
48
1
60
0
100
AcDbSpline
70
4
71
3
72
20
73
16
40
0
40
0
40
0
40
0
40
0.137624256315109
40
0.318753607774413
40
0.484877687672323
40
0.56123438699977
40
0.639069554182732
40
0.718716530502434
40
0.752124429049408
40
0.778146568762586
40
0.801239192662247
40
0.834268773810002
40
0.883873138715713
40
0.950203328686745
40
1
40
1
40
1
40
1
41
1
10
13.7247392315606
20
8.7564172924186
30
0
41
1
10
13.3818442831378
20
8.75635207292157
30
0
41
1
10
12.5876603157366
20
8.7561081065459
30
0
41
1
10
11.3795785788373
20
8.75474107571773
30
0
41
1
10
10.3241389149594
20
8.75435503204878
30
0
41
1
10
9.5260703921208
20
8.75401180383969
30
0
41
1
10
8.94345518032262
20
8.75377445268452
30
0
41
1
10
8.46784713876764
20
8.75354856512357
30
0
41
1
10
8.12133333179926
20
8.75335431578742
30
0
41
1
10
7.9157265795408
20
8.75322782320012
30
0
41
1
10
7.71106086951215
20
8.75309124191841
30
0
41
1
10
7.44764671188116
20
8.75289982618384
30
0
41
1
10
7.07650165934376
20
8.75260983133117
30
0
41
1
10
6.66357399996551
20
8.7522707212776
30
0
41
1
10
6.37424690133639
20
8.75204841770883
30
0
41
1
10
6.25018045826147
20
8.75195410982985
30
0
0
SPLINE
5
101
100
AcDbEntity
8
1
62
256
6
ByLayer
370
18
48
1
60
0
100
AcDbSpline
70
4
71
1
72
4
73
2
40
0
40
0
40
1
40
1
41
1
10
214.519513002165
20
-8.88221848772088
30
0
41
1
10
215.730822688092
20
-8.88224017498698
30
0
0
SPLINE
5
102
100
AcDbEntity
8
1
62
256
6
ByLayer
370
18
48
1
60
0
100
AcDbSpline
70
4
71
3
72
17
73
13
40
0
40
0
40
0
40
0
40
0.0420054093461726
40
0.12370478359487
40
0.194200194057919
40
0.287239308026584
40
0.372368137555822
40
0.523649792671769
40
0.672502682130199
40
0.818030817603576
40
0.972345133180114
40
1
40
1
40
1
40
1
41
1
10
177.020246935467
20
8.85565941524732
30
0
41
1
10
176.860164367779
20
8.8555517252413
30
0
41
1
10
176.388705333242
20
8.85529562167216
30
0
41
1
10
175.649113218785
20
8.85603462580781
30
0
41
1
10
174.713536954123
20
8.85538590910846
30
0
41
1
10
173.765300231501
20
8.85374275170162
30
0
41
1
10
172.508822059275
20
8.85428796746132
30
0
41
1
10
171.039514785586
20
8.8525712244415
30
0
41
1
10
169.339923734021
20
8.85271402390683
30
0
41
1
10
167.628437847304
20
8.85027924913049
30
0
41
1
10
166.380217249012
20
8.85093281536354
30
0
41
1
10
165.685455469997
20
8.85060344550354
30
0
41
1
10
165.580059188565
20
8.85051902656079
30
0
0
SPLINE
5
103
100
AcDbEntity
8
1
62
256
6
ByLayer
370
18
48
1
60
0
100
AcDbSpline
70
4
71
3
72
34
73
30
40
0
40
0
40
0
40
0
40
0.039231358698831
40
0.0771747684991748
40
0.110605710825824
40
0.141748830416196
40
0.170981687167073
40
0.1984478961838
40
0.227056328465618
40
0.259783091110152
40
0.298931738658731
40
0.340333462803183
40
0.372473226282219
40
0.397500904448458
40
0.423376481777657
40
0.475013505828069
40
0.533933637367768
40
0.581982971422238
40
0.627607543345175
40
0.681976366412138
40
0.735762358266895
40
0.769104326699778
40
0.797773658709673
40
0.831644845973011
40
0.872130907911955
40
0.914494152074216
40
0.949776622541909
40
0.978758689246913
40
1
40
1
40
1
40
1
41
1
10
51.2815750866021
20
-8.7796690249144
30
0
41
1
10
51.4889454242244
20
-8.77906376962346
30
0
41
1
10
51.9026980598692
20
-8.77829517543165
30
0
41
1
10
52.5242897225918
20
-8.77522849341372
30
0
41
1
10
53.0932211719656
20
-8.77890689002422
30
0
41
1
10
53.6035433359155
20
-8.78103247196341
30
0
41
1
10
54.0913473249327
20
-8.78163663517788
30
0
41
1
10
54.568162139108
20
-8.78189016346477
30
0
41
1
10
55.0653688349542
20
-8.78214282394305
30
0
41
1
10
55.6277308038799
20
-8.78238036555939
30
0
41
1
10
56.2617750117415
20
-8.78267666299925
30
0
41
1
10
56.8924743029414
20
-8.78325706157344
30
0
41
1
10
57.4441553031648
20
-8.78376817903205
30
0
41
1
10
57.9089599095246
20
-8.78397259417588
30
0
41
1
10
58.4828875794886
20
-8.78410512339804
30
0
41
1
10
59.2465059080816
20
-8.78419866878085
30
0
41
1
10
60.1342778098503
20
-8.78499801120731
30
0
41
1
10
60.988250582758
20
-8.78573964425021
30
0
41
1
10
61.8168427816367
20
-8.78595087067697
30
0
41
1
10
62.6775263625839
20
-8.78606563638272
30
0
41
1
10
63.4695676595398
20
-8.78702301256317
30
0
41
1
10
64.117539475479
20
-8.78765879566956
30
0
41
1
10
64.6526738710513
20
-8.78751759056604
30
0
41
1
10
65.2297465615601
20
-8.78742445277518
30
0
41
1
10
65.8827398725003
20
-8.78766029513696
30
0
41
1
10
66.5432415941947
20
-8.78844362748526
30
0
41
1
10
67.1403217194451
20
-8.78926034809695
30
0
41
1
10
67.61845692065
20
-8.78937211235569
30
0
41
1
10
67.8994842984258
20
-8.78937054934522
30
0
41
1
10
68.0183421106923
20
-8.78934594564504
30
0
0
SPLINE
5
104
100
AcDbEntity
8
1
62
256
6
ByLayer
370
18
48
1
60
0
100
AcDbSpline
70
4
71
3
72
31
73
27
40
0
40
0
40
0
40
0
40
0.0568071615346233
40
0.111233448678895
40
0.158081077184944
40
0.199027298464213
40
0.234670895152367
40
0.26725542533064
40
0.303667560658553
40
0.345517336621209
40
0.383483007843478
40
0.415814667070974
40
0.442773530886328
40
0.473307106926779
40
0.514312429072936
40
0.561576022136447
40
0.601443566283521
40
0.632925924888151
40
0.663373434159117
40
0.70047700037736
40
0.743644344195714
40
0.799233629272665
40
0.842297777609018
40
0.89318076172562
40
0.955197418331718
40
1
40
1
40
1
40
1
41
1
10
105.706615357174
20
-8.8135366831489
30
0
41
1
10
106.0229136798
20
-8.81339496683484
30
0
41
1
10
106.642911053519
20
-8.81342304386746
30
0
41
1
10
107.534659893032
20
-8.81344301722461
30
0
41
1
10
108.323700163755
20
-8.81561436536416
30
0
41
1
10
109.010392698509
20
-8.81526771195951
30
0
41
1
10
109.625241943472
20
-8.81531038549866
30
0
41
1
10
110.209333311187
20
-8.81603637866903
30
0
41
1
10
110.831668528687
20
-8.81647314091003
30
0
41
1
10
111.48407349718
20
-8.81731735885663
30
0
41
1
10
112.113632586418
20
-8.81749864284882
30
0
41
1
10
112.659586190623
20
-8.81757500715554
30
0
41
1
10
113.163827363328
20
-8.8175445291665
30
0
41
1
10
113.716743807682
20
-8.81777797017824
30
0
41
1
10
114.383536848024
20
-8.81874255957729
30
0
41
1
10
115.102705930895
20
-8.81907291582132
30
0
41
1
10
115.768621471572
20
-8.81912582802011
30
0
41
1
10
116.339958944114
20
-8.81916538372965
30
0
41
1
10
116.895747204574
20
-8.81938328274867
30
0
41
1
10
117.517330014481
20
-8.82014553494511
30
0
41
1
10
118.279939253735
20
-8.82048203382692
30
0
41
1
10
119.0761111851
20
-8.82038521973487
30
0
41
1
10
119.915452216052
20
-8.82069037718691
30
0
41
1
10
120.790999241521
20
-8.82204860755505
30
0
41
1
10
121.67625593212
20
-8.822057834106
30
0
41
1
10
122.275898800557
20
-8.82215198979586
30
0
41
1
10
122.52740333772
20
-8.82214477385659
30
0
0
SPLINE
5
105
100
AcDbEntity
8
1
62
256
6
ByLayer
370
18
48
1
60
0
100
AcDbSpline
70
4
71
3
72
25
73
21
40
0
40
0
40
0
40
0
40
0.0069506832366792
40
0.0728174982108145
40
0.145835516323842
40
0.209101690751521
40
0.259809145316279
40
0.313320957677336
40
0.379783213922939
40
0.452033820004059
40
0.512337698951882
40
0.56190721791923
40
0.622040862131498
40
0.698329653745727
40
0.757672311549781
40
0.804424951414788
40
0.841844323064962
40
0.885214379792412
40
0.936696838320744
40
1
40
1
40
1
40
1
41
1
10
122.528098232259
20
8.82211793828139
30
0
41
1
10
122.501757340667
20
8.82210098851377
30
0
41
1
10
122.225801542023
20
8.82193415205538
30
0
41
1
10
121.673092557954
20
8.82217148611221
30
0
41
1
10
120.907001244632
20
8.82208393051744
30
0
41
1
10
120.198312785359
20
8.82106221995514
30
0
41
1
10
119.563623842841
20
8.82054408942776
30
0
41
1
10
118.916793184077
20
8.82039888674004
30
0
41
1
10
118.188277000233
20
8.82047316957818
30
0
41
1
10
117.434094941457
20
8.82005459979081
30
0
41
1
10
116.743792803325
20
8.81925310447846
30
0
41
1
10
116.099794577033
20
8.81913925228378
30
0
41
1
10
115.394843352278
20
8.81910671526984
30
0
41
1
10
114.652989283936
20
8.81896571567285
30
0
41
1
10
113.961934075748
20
8.81812435500922
30
0
41
1
10
113.418091781598
20
8.81758894129774
30
0
41
1
10
112.934719672314
20
8.81756009449774
30
0
41
1
10
112.433442942312
20
8.8175545169031
30
0
41
1
10
111.834017728607
20
8.81746125581213
30
0
41
1
10
111.399136375836
20
8.81711598990464
30
0
41
1
10
111.159148310817
20
8.81689540651922
30
0
0
SPLINE
5
106
100
AcDbEntity
8
1
62
256
6
ByLayer
370
18
48
1
60
0
100
AcDbSpline
70
4
71
3
72
27
73
23
40
0
40
0
40
0
40
0
40
0.054928739088788
40
0.105335315242827
40
0.144999327574661
40
0.178239780581683
40
0.21088521801007
40
0.24285206723891
40
0.27063902197725
40
0.295704613645234
40
0.324164143353347
40
0.358655782728925
40
0.396141364078231
40
0.432749082363619
40
0.511387171487864
40
0.587428583917672
40
0.669457528574099
40
0.749006890695641
40
0.825221663191817
40
0.900613680581387
40
0.965440446795862
40
1
40
1
40
1
40
1
41
1
10
160.115557369141
20
-8.84760921297138
30
0
41
1
10
160.4239801506
20
-8.84765034714425
30
0
41
1
10
161.016023105517
20
-8.84779245014727
30
0
41
1
10
161.832381848257
20
-8.84754341271457
30
0
41
1
10
162.528027892402
20
-8.84838228409924
30
0
41
1
10
163.118385644933
20
-8.84913148727614
30
0
41
1
10
163.667463056133
20
-8.84923287047832
30
0
41
1
10
164.184756356915
20
-8.8489962748597
30
0
41
1
10
164.664104003279
20
-8.8489588231576
30
0
41
1
10
165.118744385033
20
-8.85002508072134
30
0
41
1
10
165.613674047109
20
-8.85060837850162
30
0
41
1
10
166.179817851145
20
-8.85078738420995
30
0
41
1
10
166.791550982605
20
-8.85073438764957
30
0
41
1
10
167.652144382847
20
-8.85063997001015
30
0
41
1
10
168.729907410964
20
-8.85234542823912
30
0
41
1
10
170.063642862789
20
-8.85222082751835
30
0
41
1
10
171.402489142745
20
-8.85344280002295
30
0
41
1
10
172.742348059099
20
-8.85419016180953
30
0
41
1
10
174.044733226312
20
-8.85372477047127
30
0
41
1
10
175.264426672031
20
-8.85641681239014
30
0
41
1
10
176.248614305565
20
-8.85527772080115
30
0
41
1
10
176.808350820133
20
-8.85569434935451
30
0
41
1
10
177.002979354802
20
-8.85585337512603
30
0
0
SPLINE
5
107
100
AcDbEntity
8
1
62
256
6
ByLayer
370
18
48
1
60
0
100
AcDbSpline
70
4
71
2
72
6
73
3
40
0
40
0
40
0
40
1
40
1
40
1
41
1
10
187.112037156264
20
-0.0023549973086006
30
0
41
1
10
187.112022832092
20
-0.0023474646756085
30
0
41
1
10
187.11200850797
20
-0.0023395811702471
30
0
0
LINE
5
7B
100
AcDbEntity
8
SK1
62
256
6
ByLayer
370
18
48
1
60
0
100
AcDbLine
10
-47.6
20
9.145
30
0
11
-47.6
21
8.96804
31
0
39
0
210
0
220
0
230
1
0
LINE
5
7D
100
AcDbEntity
8
SK1
62
256
6
ByLayer
370
18
48
1
60
0
100
AcDbLine
10
0
20
-10
30
0
11
0
21
10
31
0
39
0
210
0
220
0
230
1
0
LINE
5
7E
100
AcDbEntity
8
SK1
62
256
6
ByLayer
370
13
48
1
60
0
100
AcDbLine
10
-47.7
20
8.97638
30
0
11
-47.7
21
8.846358
31
0
39
0
210
0
220
0
230
1
0
LINE
5
7F
100
AcDbEntity
8
SK1
62
256
6
ByLayer
370
18
48
1
60
0
100
AcDbLine
10
-46.745
20
10
30
0
11
-46.745
21
-10
31
0
39
0
210
0
220
0
230
1
0
LINE
5
80
100
AcDbEntity
8
SK1
62
256
6
ByLayer
370
18
48
1
60
0
100
AcDbLine
10
-47.6
20
-9.089384
30
0
11
-47.6
21
-9.145
31
0
39
0
210
0
220
0
230
1
0
LINE
5
81
100
AcDbEntity
8
SK1
62
256
6
ByLayer
370
18
48
1
60
0
100
AcDbLine
10
-50
20
6.504911
30
0
11
-50
21
-6.573824
31
0
39
0
210
0
220
0
230
1
0
LINE
5
82
100
AcDbEntity
8
1
62
256
6
ByLayer
370
18
48
1
60
0
100
AcDbLine
10
6
20
9.268761
30
0
11
6
21
8.041291
31
0
39
0
210
0
220
0
230
1
0
LINE
5
83
100
AcDbEntity
8
1
62
256
6
ByLayer
370
18
48
1
60
0
100
AcDbLine
10
214.231003
20
-6.537577
30
0
11
218.797024
21
-0.340155
31
0
39
0
210
0
220
0
230
1
0
LINE
5
84
100
AcDbEntity
8
1
62
256
6
ByLayer
370
13
48
1
60
0
100
AcDbLine
10
1.345974
20
9.265852
30
0
11
1.345974
21
-9.265852
31
0
39
0
210
0
220
0
230
1
0
LINE
5
85
100
AcDbEntity
8
1
62
256
6
ByLayer
370
13
48
1
60
0
100
AcDbLine
10
215.663372
20
2.327817
30
0
11
218.952793
21
0.245534
31
0
39
0
210
0
220
0
230
1
0
LINE
5
86
100
AcDbEntity
8
1
62
256
6
ByLayer
370
13
48
1
60
0
100
AcDbLine
10
215.518109
20
2.180544
30
0
11
218.974886
21
-0.007678
31
0
39
0
210
0
220
0
230
1
0
LINE
5
87
100
AcDbEntity
8
1
62
256
6
ByLayer
370
18
48
1
60
0
100
AcDbLine
10
6
20
-9.268761
30
0
11
6
21
-5.751105
31
0
39
0
210
0
220
0
230
1
0
LINE
5
88
100
AcDbEntity
8
1
62
256
6
ByLayer
370
18
48
1
60
0
100
AcDbLine
10
0
20
-10
30
0
11
0
21
10
31
0
39
0
210
0
220
0
230
1
0
LINE
5
89
100
AcDbEntity
8
1
62
256
6
ByLayer
370
13
48
1
60
0
100
AcDbLine
10
0.672737
20
9.632926
30
0
11
0.672737
21
-9.632926
31
0
39
0
210
0
220
0
230
1
0
LINE
5
8A
100
AcDbEntity
8
80
62
256
6
ByLayer
370
18
48
1
60
0
100
AcDbLine
10
0
20
0
30
0
11
-5
21
0
31
0
39
0
210
0
220
0
230
1
0
LINE
5
8B
100
AcDbEntity
8
4
62
256
6
ByLayer
370
18
48
0.05
60
0
100
AcDbLine
10
219
20
0
30
0
11
0
21
0
31
0
39
0
210
0
220
0
230
1
0
LINE
5
8D
100
AcDbEntity
8
SK4
62
256
6
ByLayer
370
18
48
0.05
60
0
100
AcDbLine
10
224
20
0
30
0
11
-55
21
0
31
0
39
0
210
0
220
0
230
1
0
LINE
5
8F
100
AcDbEntity
8
SK1
62
256
6
ByLayer
370
18
48
1
60
0
100
AcDbLine
10
-47.6
20
-9.145
30
0
11
-46.745
21
-10
31
0
39
0
210
0
220
0
230
1
0
LINE
5
90
100
AcDbEntity
8
SK1
62
256
6
ByLayer
370
18
48
1
60
0
100
AcDbLine
10
-46.745
20
10
30
0
11
-47.6
21
9.145
31
0
39
0
210
0
220
0
230
1
0
LINE
5
91
100
AcDbEntity
8
SK1
62
256
6
ByLayer
370
18
48
1
60
0
100
AcDbLine
10
-46.745
20
-10
30
0
11
0
21
-10
31
0
39
0
210
0
220
0
230
1
0
LINE
5
92
100
AcDbEntity
8
SK1
62
256
6
ByLayer
370
18
48
1
60
0
100
AcDbLine
10
0
20
10
30
0
11
-46.745
21
10
31
0
39
0
210
0
220
0
230
1
0
LINE
5
93
100
AcDbEntity
8
1
62
256
6
ByLayer
370
18
48
1
60
0
100
AcDbLine
10
1.345974
20
-9.265852
30
0
11
6
21
-9.268761
31
0
39
0
210
0
220
0
230
1
0
LINE
5
94
100
AcDbEntity
8
1
62
256
6
ByLayer
370
18
48
1
60
0
100
AcDbLine
10
48.660788
20
-9.295424
30
0
11
51.107008
21
-9.296953
31
0
39
0
210
0
220
0
230
1
0
LINE
5
95
100
AcDbEntity
8
1
62
256
6
ByLayer
370
18
48
1
60
0
100
AcDbLine
10
103.065724
20
-9.329427
30
0
11
105.506962
21
-9.330953
31
0
39
0
210
0
220
0
230
1
0
LINE
5
96
100
AcDbEntity
8
1
62
256
6
ByLayer
370
18
48
1
60
0
100
AcDbLine
10
157.471602
20
-9.363431
30
0
11
159.907385
21
-9.364953
31
0
39
0
210
0
220
0
230
1
0
LINE
5
97
100
AcDbEntity
8
1
62
256
6
ByLayer
370
18
48
1
60
0
100
AcDbLine
10
211.879585
20
-9.397436
30
0
11
214.308667
21
-9.398954
31
0
39
0
210
0
220
0
230
1
0
LINE
5
98
100
AcDbEntity
8
1
62
256
6
ByLayer
370
18
48
1
60
0
100
AcDbLine
10
214.308605
20
9.398954
30
0
11
211.879585
21
9.397436
31
0
39
0
210
0
220
0
230
1
0
LINE
5
99
100
AcDbEntity
8
1
62
256
6
ByLayer
370
18
48
1
60
0
100
AcDbLine
10
159.907741
20
9.364953
30
0
11
157.471602
21
9.363431
31
0
39
0
210
0
220
0
230
1
0
LINE
5
9A
100
AcDbEntity
8
1
62
256
6
ByLayer
370
18
48
1
60
0
100
AcDbLine
10
105.506775
20
9.330953
30
0
11
103.065724
21
9.329427
31
0
39
0
210
0
220
0
230
1
0
LINE
5
9B
100
AcDbEntity
8
1
62
256
6
ByLayer
370
18
48
1
60
0
100
AcDbLine
10
51.106631
20
9.296952
30
0
11
48.660788
21
9.295424
31
0
39
0
210
0
220
0
230
1
0
LINE
5
9C
100
AcDbEntity
8
1
62
256
6
ByLayer
370
18
48
1
60
0
100
AcDbLine
10
6
20
9.268761
30
0
11
1.345974
21
9.265852
31
0
39
0
210
0
220
0
230
1
0
LINE
5
9D
100
AcDbEntity
8
81
62
256
6
ByLayer
370
18
48
1
60
0
100
AcDbLine
10
219
20
0
30
0
11
224
21
0
31
0
39
0
210
0
220
0
230
1
0
LINE
5
9E
100
AcDbEntity
8
SK2
62
256
6
ByLayer
370
13
48
1
60
0
100
AcDbLine
10
-58.625163
20
-10
30
0
11
-58.625163
21
41.732039
31
0
39
0
210
0
220
0
230
1
0
LINE
5
A0
100
AcDbEntity
8
SK2
62
256
6
ByLayer
370
13
48
1
60
0
100
AcDbLine
10
-51.5875
20
10
30
0
11
-60.625163
21
10
31
0
39
0
210
0
220
0
230
1
0
LINE
5
A1
100
AcDbEntity
8
SK2
62
256
6
ByLayer
370
13
48
1
60
0
100
AcDbLine
10
-51.5875
20
-10
30
0
11
-60.625163
21
-10
31
0
39
0
210
0
220
0
230
1
0
LINE
5
A2
100
AcDbEntity
8
1
62
256
6
ByLayer
370
18
48
1
60
1
100
AcDbLine
10
-58.625163
20
10
30
0
11
-58.164379
21
6.500002
31
0
39
0
210
0
220
0
230
1
0
LINE
5
A3
100
AcDbEntity
8
1
62
256
6
ByLayer
370
18
48
1
60
1
100
AcDbLine
10
-58.164379
20
6.500002
30
0
11
-59.085946
21
6.499998
31
0
39
0
210
0
220
0
230
1
0
LINE
5
A4
100
AcDbEntity
8
1
62
256
6
ByLayer
370
18
48
1
60
1
100
AcDbLine
10
-59.085946
20
6.499998
30
0
11
-58.625163
21
10
31
0
39
0
210
0
220
0
230
1
0
LINE
5
A5
100
AcDbEntity
8
1
62
256
6
ByLayer
370
18
48
1
60
1
100
AcDbLine
10
-58.625163
20
-10
30
0
11
-59.085946
21
-6.500002
31
0
39
0
210
0
220
0
230
1
0
LINE
5
A6
100
AcDbEntity
8
1
62
256
6
ByLayer
370
18
48
1
60
1
100
AcDbLine
10
-59.085946
20
-6.500002
30
0
11
-58.164379
21
-6.499998
31
0
39
0
210
0
220
0
230
1
0
LINE
5
A7
100
AcDbEntity
8
1
62
256
6
ByLayer
370
18
48
1
60
1
100
AcDbLine
10
-58.164379
20
-6.499998
30
0
11
-58.625163
21
-10
31
0
39
0
210
0
220
0
230
1
0
LINE
5
A8
100
AcDbEntity
8
2
62
256
6
ByLayer
370
13
48
1
60
0
100
AcDbLine
10
231.083343
20
-9.4
30
0
11
231.083343
21
38.850259
31
0
39
0
210
0
220
0
230
1
0
LINE
5
AA
100
AcDbEntity
8
2
62
256
6
ByLayer
370
13
48
1
60
0
100
AcDbLine
10
217.7773
20
9.4
30
0
11
233.083343
21
9.4
31
0
39
0
210
0
220
0
230
1
0
LINE
5
AB
100
AcDbEntity
8
2
62
256
6
ByLayer
370
13
48
1
60
0
100
AcDbLine
10
217.7773
20
-9.4
30
0
11
233.083343
21
-9.4
31
0
39
0
210
0
220
0
230
1
0
LINE
5
AC
100
AcDbEntity
8
1
62
256
6
ByLayer
370
18
48
1
60
1
100
AcDbLine
10
231.083343
20
9.4
30
0
11
231.544126
21
5.900002
31
0
39
0
210
0
220
0
230
1
0
LINE
5
AD
100
AcDbEntity
8
1
62
256
6
ByLayer
370
18
48
1
60
1
100
AcDbLine
10
231.544126
20
5.900002
30
0
11
230.622559
21
5.899998
31
0
39
0
210
0
220
0
230
1
0
LINE
5
AE
100
AcDbEntity
8
1
62
256
6
ByLayer
370
18
48
1
60
1
100
AcDbLine
10
230.622559
20
5.899998
30
0
11
231.083343
21
9.4
31
0
39
0
210
0
220
0
230
1
0
LINE
5
AF
100
AcDbEntity
8
1
62
256
6
ByLayer
370
18
48
1
60
1
100
AcDbLine
10
231.083343
20
-9.4
30
0
11
230.622559
21
-5.900002
31
0
39
0
210
0
220
0
230
1
0
LINE
5
B0
100
AcDbEntity
8
1
62
256
6
ByLayer
370
18
48
1
60
1
100
AcDbLine
10
230.622559
20
-5.900002
30
0
11
231.544126
21
-5.899998
31
0
39
0
210
0
220
0
230
1
0
LINE
5
B1
100
AcDbEntity
8
1
62
256
6
ByLayer
370
18
48
1
60
1
100
AcDbLine
10
231.544126
20
-5.899998
30
0
11
231.083343
21
-9.4
31
0
39
0
210
0
220
0
230
1
0
LINE
5
10E
100
AcDbEntity
8
1
62
256
6
ByLayer
370
18
48
1
60
1
100
AcDbLine
10
-58.625163
20
10
30
0
11
-58.164379
21
6.500002
31
0
39
0
210
0
220
0
230
1
0
LINE
5
10F
100
AcDbEntity
8
1
62
256
6
ByLayer
370
18
48
1
60
1
100
AcDbLine
10
-58.164379
20
6.500002
30
0
11
-59.085946
21
6.499998
31
0
39
0
210
0
220
0
230
1
0
LINE
5
110
100
AcDbEntity
8
1
62
256
6
ByLayer
370
18
48
1
60
1
100
AcDbLine
10
-59.085946
20
6.499998
30
0
11
-58.625163
21
10
31
0
39
0
210
0
220
0
230
1
0
LINE
5
112
100
AcDbEntity
8
1
62
256
6
ByLayer
370
18
48
1
60
1
100
AcDbLine
10
-58.625163
20
-10
30
0
11
-59.085946
21
-6.500002
31
0
39
0
210
0
220
0
230
1
0
LINE
5
113
100
AcDbEntity
8
1
62
256
6
ByLayer
370
18
48
1
60
1
100
AcDbLine
10
-59.085946
20
-6.500002
30
0
11
-58.164379
21
-6.499998
31
0
39
0
210
0
220
0
230
1
0
LINE
5
114
100
AcDbEntity
8
1
62
256
6
ByLayer
370
18
48
1
60
1
100
AcDbLine
10
-58.164379
20
-6.499998
30
0
11
-58.625163
21
-10
31
0
39
0
210
0
220
0
230
1
0
LINE
5
118
100
AcDbEntity
8
1
62
256
6
ByLayer
370
18
48
1
60
1
100
AcDbLine
10
231.083343
20
9.4
30
0
11
231.544126
21
5.900002
31
0
39
0
210
0
220
0
230
1
0
LINE
5
119
100
AcDbEntity
8
1
62
256
6
ByLayer
370
18
48
1
60
1
100
AcDbLine
10
231.544126
20
5.900002
30
0
11
230.622559
21
5.899998
31
0
39
0
210
0
220
0
230
1
0
LINE
5
11A
100
AcDbEntity
8
1
62
256
6
ByLayer
370
18
48
1
60
1
100
AcDbLine
10
230.622559
20
5.899998
30
0
11
231.083343
21
9.4
31
0
39
0
210
0
220
0
230
1
0
LINE
5
11C
100
AcDbEntity
8
1
62
256
6
ByLayer
370
18
48
1
60
1
100
AcDbLine
10
231.083343
20
-9.4
30
0
11
230.622559
21
-5.900002
31
0
39
0
210
0
220
0
230
1
0
LINE
5
11D
100
AcDbEntity
8
1
62
256
6
ByLayer
370
18
48
1
60
1
100
AcDbLine
10
230.622559
20
-5.900002
30
0
11
231.544126
21
-5.899998
31
0
39
0
210
0
220
0
230
1
0
LINE
5
11E
100
AcDbEntity
8
1
62
256
6
ByLayer
370
18
48
1
60
1
100
AcDbLine
10
231.544126
20
-5.899998
30
0
11
231.083343
21
-9.4
31
0
39
0
210
0
220
0
230
1
0
MTEXT
5
108
100
AcDbEntity
8
SK6
62
256
6
ByLayer
370
13
48
1
60
0
100
AcDbMText
10
56.229673
20
41.940328
30
0
210
0
220
0
230
1
1
\W0.7456;462.1-1880-139A1-XM X2BM
40
3.5
41
0
44
1.084337
50
0
71
7
72
5
7
iso_b_vert
0
MTEXT
5
10C
100
AcDbEntity
8
SK2
62
256
6
ByLayer
370
18
48
1
60
0
100
AcDbMText
10
-60.189796
20
23.409024
30
0
210
0
220
0
230
1
1
%%c
40
3.5
41
0
44
1.084337
50
90
71
7
72
5
7
iso_b_vert
0
MTEXT
5
10D
100
AcDbEntity
8
SK2
62
256
6
ByLayer
370
18
48
1
60
0
100
AcDbMText
10
-60.189796
20
28.63168
30
0
210
0
220
0
230
1
1
\W0.7421;20,000
40
3.5
41
0
44
1.084337
50
90
71
7
72
5
7
iso_b_vert
0
MTEXT
5
116
100
AcDbEntity
8
2
62
256
6
ByLayer
370
18
48
1
60
0
100
AcDbMText
10
229.518709
20
21.40211
30
0
210
0
220
0
230
1
1
%%c
40
3.5
41
0
44
1.084337
50
90
71
7
72
5
7
iso_b_vert
0
MTEXT
5
117
100
AcDbEntity
8
2
62
256
6
ByLayer
370
18
48
1
60
0
100
AcDbMText
10
229.518709
20
26.624766
30
0
210
0
220
0
230
1
1
\W0.6930;18,800
40
3.5
41
0
44
1.084337
50
90
71
7
72
5
7
iso_b_vert
0
HATCH
5
111
100
AcDbEntity
8
SK2
62
256
6
ByLayer
370
13
48
1
60
0
100
AcDbHatch
10
0
20
0
30
0
210
0
220
0
230
1
2
ANSI31
70
0
71
0
91
1
92
5
93
3
72
1
10
-58.6251625675374
20
10
11
-58.1643788259847
21
6.50000169255318
72
1
10
-58.1643788259847
20
6.50000169255318
11
-59.0859463090902
21
6.49999830744682
72
1
10
-59.0859463090902
20
6.49999830744682
11
-58.6251625675374
21
10
97
0
75
0
76
1
52
0
41
0.0062
77
0
78
1
53
45
43
0
44
0
45
-0.0139193969876572
46
0.0139193969876572
79
0
47
0
98
1
10
0
20
0
0
HATCH
5
115
100
AcDbEntity
8
SK2
62
256
6
ByLayer
370
13
48
1
60
0
100
AcDbHatch
10
0
20
0
30
0
210
0
220
0
230
1
2
ANSI31
70
0
71
0
91
1
92
5
93
3
72
1
10
-58.6251625675374
20
-10
11
-59.0859463090902
21
-6.50000169255318
72
1
10
-59.0859463090902
20
-6.50000169255318
11
-58.1643788259847
21
-6.49999830744682
72
1
10
-58.1643788259847
20
-6.49999830744682
11
-58.6251625675374
21
-10
97
0
75
0
76
1
52
0
41
0.0062
77
0
78
1
53
45
43
0
44
0
45
-0.0139193969876572
46
0.0139193969876572
79
0
47
0
98
1
10
0
20
0
0
HATCH
5
11B
100
AcDbEntity
8
2
62
256
6
ByLayer
370
13
48
1
60
0
100
AcDbHatch
10
0
20
0
30
0
210
0
220
0
230
1
2
ANSI31
70
0
71
0
91
1
92
5
93
3
72
1
10
231.083342615295
20
9.40000000000001
11
231.544126356848
21
5.90000169255319
72
1
10
231.544126356848
20
5.90000169255319
11
230.622558873742
21
5.89999830744682
72
1
10
230.622558873742
20
5.89999830744682
11
231.083342615295
21
9.40000000000001
97
0
75
0
76
1
52
0
41
0.0062
77
0
78
1
53
45
43
0
44
0
45
-0.0139193969876572
46
0.0139193969876572
79
0
47
0
98
1
10
0
20
0
0
HATCH
5
11F
100
AcDbEntity
8
2
62
256
6
ByLayer
370
13
48
1
60
0
100
AcDbHatch
10
0
20
0
30
0
210
0
220
0
230
1
2
ANSI31
70
0
71
0
91
1
92
5
93
3
72
1
10
231.083342615295
20
-9.39999999999998
11
230.622558873742
21
-5.90000169255316
72
1
10
230.622558873742
20
-5.90000169255316
11
231.544126356848
21
-5.89999830744679
72
1
10
231.544126356848
20
-5.89999830744679
11
231.083342615295
21
-9.39999999999998
97
0
75
0
76
1
52
0
41
0.0062
77
0
78
1
53
45
43
0
44
0
45
-0.0139193969876572
46
0.0139193969876572
79
0
47
0
98
1
10
0
20
0
0
DIMENSION
5
121
100
AcDbEntity
8
SK2
62
256
6
ByLayer
370
13
48
1
60
0
100
AcDbDimension
2
_U0
10
216.1898
20
-19.613398
30
0
11
108.0949
21
-19.613398
31
0
70
32
71
1
72
1
41
1
210
0
220
0
230
1
3
Standard
100
AcDbAlignedDimension
13
0
23
0
33
0
14
216.1898
24
-9.4
34
0
50
0
100
AcDbRotatedDimension
1001
ACAD
1000
DSTYLE
1002
{
1070
   371
1070
    13
1070
   372
1070
    13
1070
   170
1070
     0
1070
   144
1040
1.0
1070
   277
1070
     2
1070
   278
1070
    44
1070
   146
1040
1.0
1070
   345
1005
16
1070
   347
1005
16
1070
   346
1005
16
1070
   344
1005
0
1070
   343
1005
0
1070
   172
1070
     1
1070
    76
1070
     0
1070
    75
1070
     0
1070
   282
1070
     0
1070
   281
1070
     0
1070
    71
1070
     0
1070
    74
1070
     0
1070
   279
1070
     0
1070
   173
1070
     1
1070
   340
1005
109
1070
   271
1070
     2
1070
   272
1070
     2
1070
    77
1070
     1
1070
    73
1070
     1
1070
   171
1070
     3
1070
   274
1070
     4
1070
   177
1070
    35
1070
   176
1070
    35
1070
   178
1070
    35
1070
    48
1040
-0.1
1070
    41
1040
3.5
1070
   147
1040
1.75
1070
    42
1040
1.5875
1070
    44
1040
2.0
1070
   140
1040
3.5
1002
}
1001
ACAD_DSTYLE_DIM_LINETYPE
1070
   380
1005
16
1001
ACAD_DSTYLE_DIM_EXT1_LINETYPE
1070
   381
1005
16
1001
ACAD_DSTYLE_DIM_EXT2_LINETYPE
1070
   382
1005
16
0
DIMENSION
5
13A
100
AcDbEntity
8
SK2
62
256
6
ByLayer
370
13
48
1
60
0
100
AcDbDimension
2
_U1
10
219
20
-38.692985
30
0
11
84.5
21
-38.692985
31
0
70
32
71
1
72
1
41
1
210
0
220
0
230
1
3
Standard
100
AcDbAlignedDimension
13
-50
23
-10
33
0
14
219
24
0
34
0
50
0
100
AcDbRotatedDimension
1001
ACAD
1000
DSTYLE
1002
{
1070
   371
1070
    13
1070
   372
1070
    13
1070
   170
1070
     0
1070
   144
1040
1.0
1070
   277
1070
     2
1070
   278
1070
    44
1070
   146
1040
1.0
1070
   345
1005
16
1070
   347
1005
16
1070
   346
1005
16
1070
   344
1005
0
1070
   343
1005
0
1070
   172
1070
     1
1070
    76
1070
     0
1070
    75
1070
     0
1070
   282
1070
     0
1070
   281
1070
     0
1070
    71
1070
     0
1070
    74
1070
     0
1070
   279
1070
     0
1070
   173
1070
     1
1070
   340
1005
109
1070
   271
1070
     2
1070
   272
1070
     2
1070
    77
1070
     1
1070
    73
1070
     1
1070
   171
1070
     3
1070
   274
1070
     4
1070
   177
1070
    35
1070
   176
1070
    35
1070
   178
1070
    35
1070
    48
1040
-0.1
1070
    41
1040
3.5
1070
   147
1040
1.75
1070
    42
1040
1.5875
1070
    44
1040
2.0
1070
   140
1040
3.5
1002
}
1001
ACAD_DSTYLE_DIM_LINETYPE
1070
   380
1005
16
1001
ACAD_DSTYLE_DIM_EXT1_LINETYPE
1070
   381
1005
16
1001
ACAD_DSTYLE_DIM_EXT2_LINETYPE
1070
   382
1005
16
0
DIMENSION
5
152
100
AcDbEntity
8
SK2
62
256
6
ByLayer
370
13
48
1
60
0
100
AcDbDimension
2
_U2
10
219
20
21.009119
30
0
11
142.395
21
21.009119
31
0
70
32
71
1
72
1
41
1
210
0
220
0
230
1
3
Standard
100
AcDbAlignedDimension
13
65.79
23
9.4
33
0
14
219
24
0
34
0
50
0
100
AcDbRotatedDimension
1001
ACAD
1000
DSTYLE
1002
{
1070
   371
1070
    13
1070
   372
1070
    13
1070
   170
1070
     0
1070
   144
1040
1.0
1070
   277
1070
     2
1070
   278
1070
    44
1070
   146
1040
1.0
1070
   345
1005
16
1070
   347
1005
16
1070
   346
1005
16
1070
   344
1005
0
1070
   343
1005
0
1070
   172
1070
     1
1070
    76
1070
     0
1070
    75
1070
     0
1070
   282
1070
     0
1070
   281
1070
     0
1070
    71
1070
     0
1070
    74
1070
     0
1070
   279
1070
     0
1070
   173
1070
     1
1070
   340
1005
109
1070
   271
1070
     2
1070
   272
1070
     2
1070
    77
1070
     1
1070
    73
1070
     1
1070
   171
1070
     3
1070
   274
1070
     4
1070
   177
1070
    35
1070
   176
1070
    35
1070
   178
1070
    35
1070
    48
1040
-0.1
1070
    41
1040
3.5
1070
   147
1040
1.75
1070
    42
1040
1.5875
1070
    44
1040
2.0
1070
   140
1040
3.5
1002
}
1001
ACAD_DSTYLE_DIM_LINETYPE
1070
   380
1005
16
1001
ACAD_DSTYLE_DIM_EXT1_LINETYPE
1070
   381
1005
16
1001
ACAD_DSTYLE_DIM_EXT2_LINETYPE
1070
   382
1005
16
0
DIMENSION
5
16A
100
AcDbEntity
8
SK2
62
256
6
ByLayer
370
13
48
1
60
0
100
AcDbDimension
2
_U3
10
216.1898
20
-22.202503
30
0
11
236.083333
21
-22.202503
31
0
70
32
71
1
72
1
41
1
210
0
220
0
230
1
3
Standard
100
AcDbAlignedDimension
13
219
23
0
33
0
14
216.1898
24
-9.4
34
0
50
0
100
AcDbRotatedDimension
1001
ACAD
1000
DSTYLE
1002
{
1070
   371
1070
    13
1070
   372
1070
    13
1070
   170
1070
     0
1070
   144
1040
1.0
1070
   277
1070
     2
1070
   278
1070
    44
1070
   146
1040
1.0
1070
   345
1005
16
1070
   347
1005
16
1070
   346
1005
16
1070
   344
1005
0
1070
   343
1005
0
1070
   172
1070
     1
1070
    76
1070
     0
1070
    75
1070
     0
1070
   282
1070
     0
1070
   281
1070
     0
1070
    71
1070
     0
1070
    74
1070
     0
1070
   279
1070
     0
1070
   173
1070
     1
1070
   340
1005
109
1070
   271
1070
     2
1070
   272
1070
     2
1070
    77
1070
     1
1070
    73
1070
     1
1070
   171
1070
     3
1070
   274
1070
     4
1070
   177
1070
    35
1070
   176
1070
    35
1070
   178
1070
    35
1070
    48
1040
-0.1
1070
    41
1040
3.5
1070
   147
1040
1.75
1070
    42
1040
1.5875
1070
    44
1040
2.0
1070
   140
1040
3.5
1002
}
1001
ACAD_DSTYLE_DIM_LINETYPE
1070
   380
1005
16
1001
ACAD_DSTYLE_DIM_EXT1_LINETYPE
1070
   381
1005
16
1001
ACAD_DSTYLE_DIM_EXT2_LINETYPE
1070
   382
1005
16
0
DIMENSION
5
184
100
AcDbEntity
8
SK2
62
256
6
ByLayer
370
13
48
1
60
0
100
AcDbDimension
2
_U4
10
216.1898
20
-28.343428
30
0
11
83.0949
21
-28.343428
31
0
70
32
71
1
72
1
41
1
210
0
220
0
230
1
3
Standard
100
AcDbAlignedDimension
13
-50
23
-10
33
0
14
216.1898
24
-9.4
34
0
50
0
100
AcDbRotatedDimension
1001
ACAD
1000
DSTYLE
1002
{
1070
   371
1070
    13
1070
   372
1070
    13
1070
   170
1070
     0
1070
   144
1040
1.0
1070
   277
1070
     2
1070
   278
1070
    44
1070
   146
1040
1.0
1070
   345
1005
16
1070
   347
1005
16
1070
   346
1005
16
1070
   344
1005
0
1070
   343
1005
0
1070
   172
1070
     1
1070
    76
1070
     0
1070
    75
1070
     0
1070
   282
1070
     0
1070
   281
1070
     0
1070
    71
1070
     0
1070
    74
1070
     0
1070
   279
1070
     0
1070
   173
1070
     1
1070
   340
1005
109
1070
   271
1070
     2
1070
   272
1070
     2
1070
    77
1070
     1
1070
    73
1070
     1
1070
   171
1070
     3
1070
   274
1070
     4
1070
   177
1070
    35
1070
   176
1070
    35
1070
   178
1070
    35
1070
    48
1040
-0.1
1070
    41
1040
3.5
1070
   147
1040
1.75
1070
    42
1040
1.5875
1070
    44
1040
2.0
1070
   140
1040
3.5
1002
}
1001
ACAD_DSTYLE_DIM_LINETYPE
1070
   380
1005
16
1001
ACAD_DSTYLE_DIM_EXT1_LINETYPE
1070
   381
1005
16
1001
ACAD_DSTYLE_DIM_EXT2_LINETYPE
1070
   382
1005
16
0
ENDSEC
0
SECTION
2
OBJECTS
0
DICTIONARY
5
20c
330
0
100
AcDbDictionary
280
0
281
1
3
ACAD_GROUP
350
20d
3
ACAD_MLINESTYLE
350
20e
0
DICTIONARY
5
20d
330
0
100
AcDbDictionary
280
0
281
1
0
DICTIONARY
5
20e
330
0
100
AcDbDictionary
280
0
281
1
3
Standard
350
18
0
MLINESTYLE
5
18
330
20e
100
AcDbMlineStyle
2
Standard
70
0
3

62
256
51
90
52
90
71
2
49
-0.5
62
256
6
ByLayer
49
0.5
62
256
6
ByLayer
0
RASTERVARIABLES
5
1fa
330

100
AcDbRasterVariables
90
0
70
1
71
1
72
1
0
ENDSEC
0
EOF
