0
SECTION
2
HEADER
9
$ACADVER
1
AC1015
9
$DWGCODEPAGE
3
ANSI_1252
9
$HANDSEED
5
241
9
$ANGBASE
50
0
9
$ANGDIR
70
0
9
$ATTMODE
70
1
9
$AUNITS
70
0
9
$AUPREC
70
0
9
$CECOLOR
62
256
9
$CELTSCALE
40
1
9
$CELTYPE
6
ByLayer
9
$CELWEIGHT
370
18
9
$CLAYER
8
0
9
$CMLJUST
70
0
9
$CMLSCALE
40
1
9
$CMLSTYLE
2
Standard
9
$DIMSTYLE
2
Standard
9
$TEXTSIZE
40
0.2
9
$TEXTSTYLE
7
Standard
9
$LUNITS
70
2
9
$LUPREC
70
4
9
$EXTNAMES
290
1
9
$INSUNITS
70
4
9
$LTSCALE
40
1
9
$LWDISPLAY
290
1
9
$PDMODE
70
0
9
$PDSIZE
40
0
9
$PLINEGEN
70
0
0
ENDSEC
0
SECTION
2
CLASSES
0
CLASS
1
RASTERVARIABLES
2
AcDbRasterVariables
3
ISM
90
0
280
0
281
0
0
ENDSEC
0
SECTION
2
TABLES
0
TABLE
2
VPORT
5
237
100
AcDbSymbolTable
0
VPORT
5
1
100
AcDbSymbolTableRecord
100
AcDbViewportTableRecord
2
*Active
70
0
10
0
20
0
11
1
21
1
12
-1
22
1
13
0
23
0
14
0.5
24
0.5
15
10
25
10
16
0
26
0
36
1
17
0
27
0
37
0
0
ENDTAB
0
TABLE
2
LTYPE
5
238
100
AcDbSymbolTable
0
LTYPE
5
14
100
AcDbSymbolTableRecord
100
AcDbLinetypeTableRecord
70
0
2
ByBlock
3

72
65
73
0
40
0
0
LTYPE
5
15
100
AcDbSymbolTableRecord
100
AcDbLinetypeTableRecord
70
0
2
ByLayer
3

72
65
73
0
40
0
0
LTYPE
5
16
100
AcDbSymbolTableRecord
100
AcDbLinetypeTableRecord
70
0
2
Continuous
3
Solid line
72
65
73
0
40
0
0
LTYPE
5
6E
100
AcDbSymbolTableRecord
100
AcDbLinetypeTableRecord
70
0
2
CENTER
3
____ _ ____ _ ____ _ ____
72
65
73
4
40
47.5
49
22
74
0
49
-8.5
74
0
49
8.5
74
0
49
-8.5
74
0
0
LTYPE
5
6F
100
AcDbSymbolTableRecord
100
AcDbLinetypeTableRecord
70
0
2
DASHED
3
__ __ __ __ __ __ __ __ __
72
65
73
2
40
25.72
49
12.86
74
0
49
-12.86
74
0
0
ENDTAB
0
TABLE
2
LAYER
5
239
100
AcDbSymbolTable
0
LAYER
5
10
100
AcDbSymbolTableRecord
100
AcDbLayerTableRecord
2
0
70
0
62
7
6
Continuous
290
1
370
-3
390
0
0
LAYER
5
71
100
AcDbSymbolTableRecord
100
AcDbLayerTableRecord
2
80
70
0
62
-6
6
Continuous
290
1
370
-3
390
0
0
LAYER
5
73
100
AcDbSymbolTableRecord
100
AcDbLayerTableRecord
2
81
70
0
62
-3
6
Continuous
290
1
370
-3
390
0
0
LAYER
5
75
100
AcDbSymbolTableRecord
100
AcDbLayerTableRecord
2
1
70
0
62
4
6
Continuous
290
1
370
-3
390
0
0
LAYER
5
8F
100
AcDbSymbolTableRecord
100
AcDbLayerTableRecord
2
4
70
0
62
-2
6
CENTER
290
1
370
-3
390
0
0
LAYER
5
9E
100
AcDbSymbolTableRecord
100
AcDbLayerTableRecord
2
2
70
0
62
7
6
Continuous
290
1
370
-3
390
0
0
LAYER
5
132
100
AcDbSymbolTableRecord
100
AcDbLayerTableRecord
2
Defpoints
70
0
62
7
6
Continuous
290
0
370
-3
390
0
0
LAYER
5
223
100
AcDbSymbolTableRecord
100
AcDbLayerTableRecord
2
SK1
70
0
62
4
6
Continuous
290
1
370
-3
390
0
0
LAYER
5
224
100
AcDbSymbolTableRecord
100
AcDbLayerTableRecord
2
SK4
70
0
62
2
6
CENTER
290
1
370
-3
390
0
0
LAYER
5
225
100
AcDbSymbolTableRecord
100
AcDbLayerTableRecord
2
SK2
70
0
62
7
6
Continuous
290
1
370
-3
390
0
0
LAYER
5
226
100
AcDbSymbolTableRecord
100
AcDbLayerTableRecord
2
SK6
70
0
62
5
6
Continuous
290
1
370
-3
390
0
0
ENDTAB
0
TABLE
2
STYLE
5
23a
100
AcDbSymbolTable
0
STYLE
5
11
100
AcDbSymbolTableRecord
100
AcDbTextStyleTableRecord
2
Standard
3
txt
70
0
71
0
40
0
41
1
42
0
50
0
0
STYLE
5
104
100
AcDbSymbolTableRecord
100
AcDbTextStyleTableRecord
2
iso_b_vert
3
simplex.shx
70
0
71
0
40
0
41
1
42
0
50
0
0
STYLE
5
105
100
AcDbSymbolTableRecord
100
AcDbTextStyleTableRecord
2
DWGDirectTextStyle
3
simplex
70
0
71
0
40
0
41
1
42
0
50
0
0
ENDTAB
0
TABLE
2
DIMSTYLE
5
23b
100
AcDbSymbolTable
100
AcDbDimStyleTable
0
DIMSTYLE
105
27
100
AcDbSymbolTableRecord
100
AcDbDimStyleTableRecord
2
Standard
70
0
3
<>
41
0.18
42
0.0625
44
0.18
140
0.18
147
0.09
73
0
74
0
77
1
271
2
275
0
278
52
280
0
340
11
0
ENDTAB
0
TABLE
2
VIEW
5
23c
100
AcDbSymbolTable
0
ENDTAB
0
TABLE
2
UCS
5
23d
100
AcDbSymbolTable
0
ENDTAB
0
TABLE
2
APPID
5
23e
100
AcDbSymbolTable
0
APPID
5
12
100
AcDbSymbolTableRecord
100
AcDbRegAppTableRecord
2
ACAD
70
0
0
APPID
5
12E
100
AcDbSymbolTableRecord
100
AcDbRegAppTableRecord
2
ACAD_DSTYLE_DIMBREAK
70
0
0
APPID
5
1E2
100
AcDbSymbolTableRecord
100
AcDbRegAppTableRecord
2
ACAD_DSTYLE_DIM_LINETYPE
70
0
0
APPID
5
1E3
100
AcDbSymbolTableRecord
100
AcDbRegAppTableRecord
2
ACAD_DSTYLE_DIM_EXT1_LINETYPE
70
0
0
APPID
5
1E4
100
AcDbSymbolTableRecord
100
AcDbRegAppTableRecord
2
ACAD_DSTYLE_DIM_EXT2_LINETYPE
70
0
0
APPID
5
21F
100
AcDbSymbolTableRecord
100
AcDbRegAppTableRecord
2
ACAD_MLEADERVER
70
0
0
ENDTAB
0
TABLE
2
BLOCK_RECORD
5
23f
100
AcDbSymbolTable
0
BLOCK_RECORD
5
1F
100
AcDbSymbolTableRecord
100
AcDbBlockTableRecord
2
*Model_Space
340
0
70
0
0
BLOCK_RECORD
5
1B
100
AcDbSymbolTableRecord
100
AcDbBlockTableRecord
2
*Paper_Space
340
0
70
0
0
BLOCK_RECORD
5
23
100
AcDbSymbolTableRecord
100
AcDbBlockTableRecord
2
*Paper_Space0
340
0
70
0
0
BLOCK_RECORD
5
133
100
AcDbSymbolTableRecord
100
AcDbBlockTableRecord
2
*D1
340
0
70
0
0
BLOCK_RECORD
5
13F
100
AcDbSymbolTableRecord
100
AcDbBlockTableRecord
2
_U0
340
0
70
0
0
BLOCK_RECORD
5
14B
100
AcDbSymbolTableRecord
100
AcDbBlockTableRecord
2
*D3
340
0
70
0
0
BLOCK_RECORD
5
157
100
AcDbSymbolTableRecord
100
AcDbBlockTableRecord
2
_U1
340
0
70
0
0
BLOCK_RECORD
5
163
100
AcDbSymbolTableRecord
100
AcDbBlockTableRecord
2
*D5
340
0
70
0
0
BLOCK_RECORD
5
170
100
AcDbSymbolTableRecord
100
AcDbBlockTableRecord
2
_U2
340
0
70
0
0
BLOCK_RECORD
5
17C
100
AcDbSymbolTableRecord
100
AcDbBlockTableRecord
2
*D7
340
0
70
0
0
BLOCK_RECORD
5
18A
100
AcDbSymbolTableRecord
100
AcDbBlockTableRecord
2
_U3
340
0
70
0
0
BLOCK_RECORD
5
196
100
AcDbSymbolTableRecord
100
AcDbBlockTableRecord
2
*D9
340
0
70
0
0
BLOCK_RECORD
5
1A3
100
AcDbSymbolTableRecord
100
AcDbBlockTableRecord
2
_U4
340
0
70
0
0
BLOCK_RECORD
5
1AF
100
AcDbSymbolTableRecord
100
AcDbBlockTableRecord
2
*D11
340
0
70
0
0
BLOCK_RECORD
5
1BB
100
AcDbSymbolTableRecord
100
AcDbBlockTableRecord
2
_U5
340
0
70
0
0
ENDTAB
0
ENDSEC
0
SECTION
2
BLOCKS
0
BLOCK
5
20
100
AcDbEntity
8
0
100
AcDbBlockBegin
2
*Model_Space
70
0
10
0
20
0
30
0
3
*Model_Space
0
ENDBLK
5
21
100
AcDbEntity
8
0
100
AcDbBlockEnd
0
BLOCK
5
1C
100
AcDbEntity
8
0
100
AcDbBlockBegin
2
*Paper_Space
70
0
10
0
20
0
30
0
3
*Paper_Space
0
ENDBLK
5
1D
100
AcDbEntity
8
0
100
AcDbBlockEnd
0
BLOCK
5
24
100
AcDbEntity
8
0
100
AcDbBlockBegin
2
*Paper_Space0
70
0
10
0
20
0
30
0
3
*Paper_Space0
0
ENDBLK
5
25
100
AcDbEntity
8
0
100
AcDbBlockEnd
0
BLOCK
5
134
100
AcDbEntity
8
0
100
AcDbBlockBegin
2
*D1
70
1
10
0
20
0
30
0
3
*D1
0
LINE
5
136
100
AcDbEntity
8
0
62
256
6
ByLayer
370
-2
48
1
60
0
100
AcDbLine
10
0
20
-1.5875
30
0
11
0
21
-16.452503
31
0
39
0
210
0
220
0
230
1
0
LINE
5
137
100
AcDbEntity
8
0
62
256
6
ByLayer
370
-2
48
1
60
0
100
AcDbLine
10
29.5257
20
-3.2375
30
0
11
29.5257
21
-16.452503
31
0
39
0
210
0
220
0
230
1
0
LINE
5
138
100
AcDbEntity
8
0
62
256
6
ByLayer
370
-2
48
1
60
0
100
AcDbLine
10
3.5
20
-14.452503
30
0
11
26.0257
21
-14.452503
31
0
39
0
210
0
220
0
230
1
0
SOLID
5
139
100
AcDbEntity
8
0
62
256
6
ByLayer
370
-1
48
1
60
0
100
AcDbTrace
10
3.5
20
-13.86917
30
0
11
3.5
21
-15.035837
31
0
12
0
22
-14.452503
32
0
13
0
23
-14.452503
33
0
39
0
210
0
220
0
230
1
0
SOLID
5
13A
100
AcDbEntity
8
0
62
256
6
ByLayer
370
-1
48
1
60
0
100
AcDbTrace
10
26.0257
20
-15.035837
30
0
11
26.0257
21
-13.86917
31
0
12
29.5257
22
-14.452503
32
0
13
29.5257
23
-14.452503
33
0
39
0
210
0
220
0
230
1
0
MTEXT
5
13B
100
AcDbEntity
8
0
62
256
6
ByLayer
370
18
48
1
60
0
100
AcDbMText
10
14.76285
20
-7.452503
30
0
210
0
220
0
230
1
1
\A1;29.53
40
3.5
41
0
44
1
50
0
71
5
72
5
7
iso_b_vert
0
POINT
5
13C
100
AcDbEntity
8
Defpoints
62
0
6
ByLayer
370
-1
48
1
60
0
100
AcDbPoint
10
0
20
0
30
0
39
0
210
0
220
0
230
1
50
360
0
POINT
5
13D
100
AcDbEntity
8
Defpoints
62
0
6
ByLayer
370
-1
48
1
60
0
100
AcDbPoint
10
29.5257
20
-1.65
30
0
39
0
210
0
220
0
230
1
50
360
0
POINT
5
13E
100
AcDbEntity
8
Defpoints
62
0
6
ByLayer
370
-1
48
1
60
0
100
AcDbPoint
10
29.5257
20
-14.452503
30
0
39
0
210
0
220
0
230
1
50
360
0
ENDBLK
5
135
100
AcDbEntity
8
0
100
AcDbBlockEnd
0
BLOCK
5
146
100
AcDbEntity
8
0
100
AcDbBlockBegin
2
_U0
70
0
10
0
20
0
30
0
3
_U0
0
MTEXT
5
140
100
AcDbEntity
8
SK2
62
256
6
ByLayer
370
13
48
1
60
0
100
AcDbMText
10
9.625551
20
-13.41987
30
0
210
0
220
0
230
1
1
\W0.7317;29,53
40
3.5
41
0
44
1.084337
50
0
71
7
72
5
7
iso_b_vert
0
LINE
5
141
100
AcDbEntity
8
SK2
62
256
6
ByLayer
370
13
48
1
60
0
100
AcDbLine
10
0
20
-1.5875
30
0
11
0
21
-16.452503
31
0
39
0
210
0
220
0
230
1
0
LINE
5
142
100
AcDbEntity
8
SK2
62
256
6
ByLayer
370
13
48
1
60
0
100
AcDbLine
10
29.5257
20
-3.2375
30
0
11
29.5257
21
-16.452503
31
0
39
0
210
0
220
0
230
1
0
LINE
5
143
100
AcDbEntity
8
SK2
62
256
6
ByLayer
370
13
48
1
60
0
100
AcDbLine
10
0
20
-14.452503
30
0
11
29.5257
21
-14.452503
31
0
39
0
210
0
220
0
230
1
0
SOLID
5
144
100
AcDbEntity
8
SK2
62
256
6
ByLayer
370
18
48
1
60
0
100
AcDbTrace
10
0
20
-14.452503
30
0
11
3.499998
21
-13.991719
31
0
12
3.500002
22
-14.913287
32
0
13
3.500002
23
-14.913287
33
0
39
0
210
0
220
0
230
1
0
SOLID
5
145
100
AcDbEntity
8
SK2
62
256
6
ByLayer
370
18
48
1
60
0
100
AcDbTrace
10
29.5257
20
-14.452503
30
0
11
26.025702
21
-14.913287
31
0
12
26.025698
22
-13.991719
32
0
13
26.025698
23
-13.991719
33
0
39
0
210
0
220
0
230
1
0
ENDBLK
5
147
100
AcDbEntity
8
0
100
AcDbBlockEnd
0
BLOCK
5
14C
100
AcDbEntity
8
0
100
AcDbBlockBegin
2
*D3
70
1
10
0
20
0
30
0
3
*D3
0
LINE
5
14E
100
AcDbEntity
8
0
62
256
6
ByLayer
370
-2
48
1
60
0
100
AcDbLine
10
-36
20
-4.5875
30
0
11
-36
21
-36.192985
31
0
39
0
210
0
220
0
230
1
0
LINE
5
14F
100
AcDbEntity
8
0
62
256
6
ByLayer
370
-2
48
1
60
0
100
AcDbLine
10
30
20
-1.5875
30
0
11
30
21
-36.192985
31
0
39
0
210
0
220
0
230
1
0
LINE
5
150
100
AcDbEntity
8
0
62
256
6
ByLayer
370
-2
48
1
60
0
100
AcDbLine
10
-32.5
20
-34.192985
30
0
11
26.5
21
-34.192985
31
0
39
0
210
0
220
0
230
1
0
SOLID
5
151
100
AcDbEntity
8
0
62
256
6
ByLayer
370
-1
48
1
60
0
100
AcDbTrace
10
-32.5
20
-33.609652
30
0
11
-32.5
21
-34.776319
31
0
12
-36
22
-34.192985
32
0
13
-36
23
-34.192985
33
0
39
0
210
0
220
0
230
1
0
SOLID
5
152
100
AcDbEntity
8
0
62
256
6
ByLayer
370
-1
48
1
60
0
100
AcDbTrace
10
26.5
20
-34.776319
30
0
11
26.5
21
-33.609652
31
0
12
30
22
-34.192985
32
0
13
30
23
-34.192985
33
0
39
0
210
0
220
0
230
1
0
MTEXT
5
153
100
AcDbEntity
8
0
62
256
6
ByLayer
370
18
48
1
60
0
100
AcDbMText
10
-3
20
-27.192985
30
0
210
0
220
0
230
1
1
\A1;66.00
40
3.5
41
0
44
1
50
0
71
5
72
5
7
iso_b_vert
0
POINT
5
154
100
AcDbEntity
8
Defpoints
62
0
6
ByLayer
370
-1
48
1
60
0
100
AcDbPoint
10
-36
20
-3
30
0
39
0
210
0
220
0
230
1
50
360
0
POINT
5
155
100
AcDbEntity
8
Defpoints
62
0
6
ByLayer
370
-1
48
1
60
0
100
AcDbPoint
10
30
20
0
30
0
39
0
210
0
220
0
230
1
50
360
0
POINT
5
156
100
AcDbEntity
8
Defpoints
62
0
6
ByLayer
370
-1
48
1
60
0
100
AcDbPoint
10
30
20
-34.192985
30
0
39
0
210
0
220
0
230
1
50
360
0
ENDBLK
5
14D
100
AcDbEntity
8
0
100
AcDbBlockEnd
0
BLOCK
5
15E
100
AcDbEntity
8
0
100
AcDbBlockBegin
2
_U1
70
0
10
0
20
0
30
0
3
_U1
0
MTEXT
5
158
100
AcDbEntity
8
SK2
62
256
6
ByLayer
370
13
48
1
60
0
100
AcDbMText
10
-8.137299
20
-33.160352
30
0
210
0
220
0
230
1
1
\W0.7317;66,00
40
3.5
41
0
44
1.084337
50
0
71
7
72
5
7
iso_b_vert
0
LINE
5
159
100
AcDbEntity
8
SK2
62
256
6
ByLayer
370
13
48
1
60
0
100
AcDbLine
10
-36
20
-4.5875
30
0
11
-36
21
-36.192985
31
0
39
0
210
0
220
0
230
1
0
LINE
5
15A
100
AcDbEntity
8
SK2
62
256
6
ByLayer
370
13
48
1
60
0
100
AcDbLine
10
30
20
-1.5875
30
0
11
30
21
-36.192985
31
0
39
0
210
0
220
0
230
1
0
LINE
5
15B
100
AcDbEntity
8
SK2
62
256
6
ByLayer
370
13
48
1
60
0
100
AcDbLine
10
-36
20
-34.192985
30
0
11
30
21
-34.192985
31
0
39
0
210
0
220
0
230
1
0
SOLID
5
15C
100
AcDbEntity
8
SK2
62
256
6
ByLayer
370
18
48
1
60
0
100
AcDbTrace
10
-36
20
-34.192985
30
0
11
-32.500002
21
-33.732202
31
0
12
-32.499998
22
-34.653769
32
0
13
-32.499998
23
-34.653769
33
0
39
0
210
0
220
0
230
1
0
SOLID
5
15D
100
AcDbEntity
8
SK2
62
256
6
ByLayer
370
18
48
1
60
0
100
AcDbTrace
10
30
20
-34.192985
30
0
11
26.500002
21
-34.653769
31
0
12
26.499998
22
-33.732202
32
0
13
26.499998
23
-33.732202
33
0
39
0
210
0
220
0
230
1
0
ENDBLK
5
15F
100
AcDbEntity
8
0
100
AcDbBlockEnd
0
BLOCK
5
164
100
AcDbEntity
8
0
100
AcDbBlockBegin
2
*D5
70
1
10
0
20
0
30
0
3
*D5
0
LINE
5
166
100
AcDbEntity
8
0
62
256
6
ByLayer
370
-2
48
1
60
0
100
AcDbLine
10
19.05
20
3.8175
30
0
11
19.05
21
15.259119
31
0
39
0
210
0
220
0
230
1
0
LINE
5
167
100
AcDbEntity
8
0
62
256
6
ByLayer
370
-2
48
1
60
0
100
AcDbLine
10
30
20
1.5875
30
0
11
30
21
15.259119
31
0
39
0
210
0
220
0
230
1
0
LINE
5
168
100
AcDbEntity
8
0
62
256
6
ByLayer
370
-2
48
1
60
0
100
AcDbLine
10
15.55
20
13.259119
30
0
11
12.05
21
13.259119
31
0
39
0
210
0
220
0
230
1
0
LINE
5
169
100
AcDbEntity
8
0
62
256
6
ByLayer
370
-2
48
1
60
0
100
AcDbLine
10
33.5
20
13.259119
30
0
11
37
21
13.259119
31
0
39
0
210
0
220
0
230
1
0
SOLID
5
16A
100
AcDbEntity
8
0
62
256
6
ByLayer
370
-1
48
1
60
0
100
AcDbTrace
10
15.55
20
12.675786
30
0
11
15.55
21
13.842453
31
0
12
19.05
22
13.259119
32
0
13
19.05
23
13.259119
33
0
39
0
210
0
220
0
230
1
0
SOLID
5
16B
100
AcDbEntity
8
0
62
256
6
ByLayer
370
-1
48
1
60
0
100
AcDbTrace
10
33.5
20
13.842453
30
0
11
33.5
21
12.675786
31
0
12
30
22
13.259119
32
0
13
30
23
13.259119
33
0
39
0
210
0
220
0
230
1
0
MTEXT
5
16C
100
AcDbEntity
8
0
62
256
6
ByLayer
370
18
48
1
60
0
100
AcDbMText
10
24.525
20
20.259119
30
0
210
0
220
0
230
1
1
\A1;10.95
40
3.5
41
0
44
1
50
0
71
5
72
5
7
iso_b_vert
0
POINT
5
16D
100
AcDbEntity
8
Defpoints
62
0
6
ByLayer
370
-1
48
1
60
0
100
AcDbPoint
10
19.05
20
2.23
30
0
39
0
210
0
220
0
230
1
50
360
0
POINT
5
16E
100
AcDbEntity
8
Defpoints
62
0
6
ByLayer
370
-1
48
1
60
0
100
AcDbPoint
10
30
20
0
30
0
39
0
210
0
220
0
230
1
50
360
0
POINT
5
16F
100
AcDbEntity
8
Defpoints
62
0
6
ByLayer
370
-1
48
1
60
0
100
AcDbPoint
10
30
20
13.259119
30
0
39
0
210
0
220
0
230
1
50
360
0
ENDBLK
5
165
100
AcDbEntity
8
0
100
AcDbBlockEnd
0
BLOCK
5
177
100
AcDbEntity
8
0
100
AcDbBlockBegin
2
_U2
70
0
10
0
20
0
30
0
3
_U2
0
MTEXT
5
171
100
AcDbEntity
8
SK2
62
256
6
ByLayer
370
13
48
1
60
0
100
AcDbMText
10
19.825135
20
14.291753
30
0
210
0
220
0
230
1
1
\W0.6713;10,95
40
3.5
41
0
44
1.084337
50
0
71
7
72
5
7
iso_b_vert
0
LINE
5
172
100
AcDbEntity
8
SK2
62
256
6
ByLayer
370
13
48
1
60
0
100
AcDbLine
10
19.05
20
3.8175
30
0
11
19.05
21
15.259119
31
0
39
0
210
0
220
0
230
1
0
LINE
5
173
100
AcDbEntity
8
SK2
62
256
6
ByLayer
370
13
48
1
60
0
100
AcDbLine
10
30
20
1.5875
30
0
11
30
21
15.259119
31
0
39
0
210
0
220
0
230
1
0
LINE
5
174
100
AcDbEntity
8
SK2
62
256
6
ByLayer
370
13
48
1
60
0
100
AcDbLine
10
19.05
20
13.259119
30
0
11
30
21
13.259119
31
0
39
0
210
0
220
0
230
1
0
SOLID
5
175
100
AcDbEntity
8
SK2
62
256
6
ByLayer
370
18
48
1
60
0
100
AcDbTrace
10
19.05
20
13.259119
30
0
11
22.549998
21
13.719903
31
0
12
22.550002
22
12.798335
32
0
13
22.550002
23
12.798335
33
0
39
0
210
0
220
0
230
1
0
SOLID
5
176
100
AcDbEntity
8
SK2
62
256
6
ByLayer
370
18
48
1
60
0
100
AcDbTrace
10
30
20
13.259119
30
0
11
26.500002
21
12.798335
31
0
12
26.499998
22
13.719903
32
0
13
26.499998
23
13.719903
33
0
39
0
210
0
220
0
230
1
0
ENDBLK
5
178
100
AcDbEntity
8
0
100
AcDbBlockEnd
0
BLOCK
5
17D
100
AcDbEntity
8
0
100
AcDbBlockBegin
2
*D7
70
1
10
0
20
0
30
0
3
*D7
0
LINE
5
17F
100
AcDbEntity
8
0
62
256
6
ByLayer
370
-2
48
1
60
0
100
AcDbLine
10
30
20
-1.5875
30
0
11
30
21
-16.452503
31
0
39
0
210
0
220
0
230
1
0
LINE
5
180
100
AcDbEntity
8
0
62
256
6
ByLayer
370
-2
48
1
60
0
100
AcDbLine
10
29.5257
20
-3.2375
30
0
11
29.5257
21
-16.452503
31
0
39
0
210
0
220
0
230
1
0
LINE
5
181
100
AcDbEntity
8
0
62
256
6
ByLayer
370
-2
48
1
60
0
100
AcDbLine
10
30
20
-14.452503
30
0
11
58.166667
21
-14.452503
31
0
39
0
210
0
220
0
230
1
0
LINE
5
182
100
AcDbEntity
8
0
62
256
6
ByLayer
370
-2
48
1
60
0
100
AcDbLine
10
33.5
20
-14.452503
30
0
11
37
21
-14.452503
31
0
39
0
210
0
220
0
230
1
0
LINE
5
183
100
AcDbEntity
8
0
62
256
6
ByLayer
370
-2
48
1
60
0
100
AcDbLine
10
26.0257
20
-14.452503
30
0
11
22.5257
21
-14.452503
31
0
39
0
210
0
220
0
230
1
0
SOLID
5
184
100
AcDbEntity
8
0
62
256
6
ByLayer
370
-1
48
1
60
0
100
AcDbTrace
10
33.5
20
-13.86917
30
0
11
33.5
21
-15.035837
31
0
12
30
22
-14.452503
32
0
13
30
23
-14.452503
33
0
39
0
210
0
220
0
230
1
0
SOLID
5
185
100
AcDbEntity
8
0
62
256
6
ByLayer
370
-1
48
1
60
0
100
AcDbTrace
10
26.0257
20
-15.035837
30
0
11
26.0257
21
-13.86917
31
0
12
29.5257
22
-14.452503
32
0
13
29.5257
23
-14.452503
33
0
39
0
210
0
220
0
230
1
0
MTEXT
5
186
100
AcDbEntity
8
0
62
256
6
ByLayer
370
18
48
1
60
0
100
AcDbMText
10
47.583333
20
-7.452503
30
0
210
0
220
0
230
1
1
\A1;0.47
40
3.5
41
0
44
1
50
0
71
5
72
5
7
iso_b_vert
0
POINT
5
187
100
AcDbEntity
8
Defpoints
62
0
6
ByLayer
370
-1
48
1
60
0
100
AcDbPoint
10
30
20
0
30
0
39
0
210
0
220
0
230
1
50
360
0
POINT
5
188
100
AcDbEntity
8
Defpoints
62
0
6
ByLayer
370
-1
48
1
60
0
100
AcDbPoint
10
29.5257
20
-1.65
30
0
39
0
210
0
220
0
230
1
50
360
0
POINT
5
189
100
AcDbEntity
8
Defpoints
62
0
6
ByLayer
370
-1
48
1
60
0
100
AcDbPoint
10
29.5257
20
-14.452503
30
0
39
0
210
0
220
0
230
1
50
360
0
ENDBLK
5
17E
100
AcDbEntity
8
0
100
AcDbBlockEnd
0
BLOCK
5
191
100
AcDbEntity
8
0
100
AcDbBlockBegin
2
_U3
70
0
10
0
20
0
30
0
3
_U3
0
MTEXT
5
18B
100
AcDbEntity
8
SK2
62
256
6
ByLayer
370
13
48
1
60
0
100
AcDbMText
10
35.967593
20
-13.41987
30
0
210
0
220
0
230
1
1
\W0.7493;0,47
40
3.5
41
0
44
1.084337
50
0
71
7
72
5
7
iso_b_vert
0
LINE
5
18C
100
AcDbEntity
8
SK2
62
256
6
ByLayer
370
13
48
1
60
0
100
AcDbLine
10
30
20
-1.5875
30
0
11
30
21
-16.452503
31
0
39
0
210
0
220
0
230
1
0
LINE
5
18D
100
AcDbEntity
8
SK2
62
256
6
ByLayer
370
13
48
1
60
0
100
AcDbLine
10
29.5257
20
-3.2375
30
0
11
29.5257
21
-16.452503
31
0
39
0
210
0
220
0
230
1
0
LINE
5
18E
100
AcDbEntity
8
SK2
62
256
6
ByLayer
370
13
48
1
60
0
100
AcDbLine
10
20.7757
20
-14.452503
30
0
11
44.180758
21
-14.452503
31
0
39
0
210
0
220
0
230
1
0
SOLID
5
18F
100
AcDbEntity
8
SK2
62
256
6
ByLayer
370
18
48
1
60
0
100
AcDbTrace
10
30
20
-14.452503
30
0
11
33.499998
21
-13.991719
31
0
12
33.500002
22
-14.913287
32
0
13
33.500002
23
-14.913287
33
0
39
0
210
0
220
0
230
1
0
SOLID
5
190
100
AcDbEntity
8
SK2
62
256
6
ByLayer
370
18
48
1
60
0
100
AcDbTrace
10
29.5257
20
-14.452503
30
0
11
26.025702
21
-14.913287
31
0
12
26.025698
22
-13.991719
32
0
13
26.025698
23
-13.991719
33
0
39
0
210
0
220
0
230
1
0
ENDBLK
5
192
100
AcDbEntity
8
0
100
AcDbBlockEnd
0
BLOCK
5
197
100
AcDbEntity
8
0
100
AcDbBlockBegin
2
*D9
70
1
10
0
20
0
30
0
3
*D9
0
LINE
5
199
100
AcDbEntity
8
0
62
256
6
ByLayer
370
-2
48
1
60
0
100
AcDbLine
10
29.5257
20
3.2375
30
0
11
29.5257
21
7.785371
31
0
39
0
210
0
220
0
230
1
0
LINE
5
19A
100
AcDbEntity
8
0
62
256
6
ByLayer
370
-2
48
1
60
0
100
AcDbLine
10
19.6257
20
3.2375
30
0
11
19.6257
21
7.785371
31
0
39
0
210
0
220
0
230
1
0
LINE
5
19B
100
AcDbEntity
8
0
62
256
6
ByLayer
370
-2
48
1
60
0
100
AcDbLine
10
33.0257
20
5.785371
30
0
11
36.5257
21
5.785371
31
0
39
0
210
0
220
0
230
1
0
LINE
5
19C
100
AcDbEntity
8
0
62
256
6
ByLayer
370
-2
48
1
60
0
100
AcDbLine
10
16.1257
20
5.785371
30
0
11
12.6257
21
5.785371
31
0
39
0
210
0
220
0
230
1
0
SOLID
5
19D
100
AcDbEntity
8
0
62
256
6
ByLayer
370
-1
48
1
60
0
100
AcDbTrace
10
33.0257
20
6.368705
30
0
11
33.0257
21
5.202038
31
0
12
29.5257
22
5.785371
32
0
13
29.5257
23
5.785371
33
0
39
0
210
0
220
0
230
1
0
SOLID
5
19E
100
AcDbEntity
8
0
62
256
6
ByLayer
370
-1
48
1
60
0
100
AcDbTrace
10
16.1257
20
5.202038
30
0
11
16.1257
21
6.368705
31
0
12
19.6257
22
5.785371
32
0
13
19.6257
23
5.785371
33
0
39
0
210
0
220
0
230
1
0
MTEXT
5
19F
100
AcDbEntity
8
0
62
256
6
ByLayer
370
18
48
1
60
0
100
AcDbMText
10
24.5757
20
12.785371
30
0
210
0
220
0
230
1
1
\A1;9.90
40
3.5
41
0
44
1
50
0
71
5
72
5
7
iso_b_vert
0
POINT
5
1A0
100
AcDbEntity
8
Defpoints
62
0
6
ByLayer
370
-1
48
1
60
0
100
AcDbPoint
10
29.5257
20
1.65
30
0
39
0
210
0
220
0
230
1
50
360
0
POINT
5
1A1
100
AcDbEntity
8
Defpoints
62
0
6
ByLayer
370
-1
48
1
60
0
100
AcDbPoint
10
19.6257
20
1.65
30
0
39
0
210
0
220
0
230
1
50
360
0
POINT
5
1A2
100
AcDbEntity
8
Defpoints
62
0
6
ByLayer
370
-1
48
1
60
0
100
AcDbPoint
10
19.6257
20
5.785371
30
0
39
0
210
0
220
0
230
1
50
360
0
ENDBLK
5
198
100
AcDbEntity
8
0
100
AcDbBlockEnd
0
BLOCK
5
1AA
100
AcDbEntity
8
0
100
AcDbBlockBegin
2
_U4
70
0
10
0
20
0
30
0
3
_U4
0
MTEXT
5
1A4
100
AcDbEntity
8
SK2
62
256
6
ByLayer
370
13
48
1
60
0
100
AcDbMText
10
20.746134
20
6.818005
30
0
210
0
220
0
230
1
1
\W0.7150;9,90
40
3.5
41
0
44
1.084337
50
0
71
7
72
5
7
iso_b_vert
0
LINE
5
1A5
100
AcDbEntity
8
SK2
62
256
6
ByLayer
370
13
48
1
60
0
100
AcDbLine
10
29.5257
20
3.2375
30
0
11
29.5257
21
7.785371
31
0
39
0
210
0
220
0
230
1
0
LINE
5
1A6
100
AcDbEntity
8
SK2
62
256
6
ByLayer
370
13
48
1
60
0
100
AcDbLine
10
19.6257
20
3.2375
30
0
11
19.6257
21
7.785371
31
0
39
0
210
0
220
0
230
1
0
LINE
5
1A7
100
AcDbEntity
8
SK2
62
256
6
ByLayer
370
13
48
1
60
0
100
AcDbLine
10
29.5257
20
5.785371
30
0
11
19.6257
21
5.785371
31
0
39
0
210
0
220
0
230
1
0
SOLID
5
1A8
100
AcDbEntity
8
SK2
62
256
6
ByLayer
370
18
48
1
60
0
100
AcDbTrace
10
29.5257
20
5.785371
30
0
11
26.025702
21
5.324588
31
0
12
26.025698
22
6.246155
32
0
13
26.025698
23
6.246155
33
0
39
0
210
0
220
0
230
1
0
SOLID
5
1A9
100
AcDbEntity
8
SK2
62
256
6
ByLayer
370
18
48
1
60
0
100
AcDbTrace
10
19.6257
20
5.785371
30
0
11
23.125698
21
6.246155
31
0
12
23.125702
22
5.324588
32
0
13
23.125702
23
5.324588
33
0
39
0
210
0
220
0
230
1
0
ENDBLK
5
1AB
100
AcDbEntity
8
0
100
AcDbBlockEnd
0
BLOCK
5
1B0
100
AcDbEntity
8
0
100
AcDbBlockBegin
2
*D11
70
1
10
0
20
0
30
0
3
*D11
0
LINE
5
1B2
100
AcDbEntity
8
0
62
256
6
ByLayer
370
-2
48
1
60
0
100
AcDbLine
10
-36
20
-4.5875
30
0
11
-36
21
-25.690158
31
0
39
0
210
0
220
0
230
1
0
LINE
5
1B3
100
AcDbEntity
8
0
62
256
6
ByLayer
370
-2
48
1
60
0
100
AcDbLine
10
29.5257
20
-3.2375
30
0
11
29.5257
21
-25.690158
31
0
39
0
210
0
220
0
230
1
0
LINE
5
1B4
100
AcDbEntity
8
0
62
256
6
ByLayer
370
-2
48
1
60
0
100
AcDbLine
10
-32.5
20
-23.690158
30
0
11
26.0257
21
-23.690158
31
0
39
0
210
0
220
0
230
1
0
SOLID
5
1B5
100
AcDbEntity
8
0
62
256
6
ByLayer
370
-1
48
1
60
0
100
AcDbTrace
10
-32.5
20
-23.106825
30
0
11
-32.5
21
-24.273491
31
0
12
-36
22
-23.690158
32
0
13
-36
23
-23.690158
33
0
39
0
210
0
220
0
230
1
0
SOLID
5
1B6
100
AcDbEntity
8
0
62
256
6
ByLayer
370
-1
48
1
60
0
100
AcDbTrace
10
26.0257
20
-24.273491
30
0
11
26.0257
21
-23.106825
31
0
12
29.5257
22
-23.690158
32
0
13
29.5257
23
-23.690158
33
0
39
0
210
0
220
0
230
1
0
MTEXT
5
1B7
100
AcDbEntity
8
0
62
256
6
ByLayer
370
18
48
1
60
0
100
AcDbMText
10
-3.23715
20
-16.690158
30
0
210
0
220
0
230
1
1
\A1;65.53
40
3.5
41
0
44
1
50
0
71
5
72
5
7
iso_b_vert
0
POINT
5
1B8
100
AcDbEntity
8
Defpoints
62
0
6
ByLayer
370
-1
48
1
60
0
100
AcDbPoint
10
-36
20
-3
30
0
39
0
210
0
220
0
230
1
50
360
0
POINT
5
1B9
100
AcDbEntity
8
Defpoints
62
0
6
ByLayer
370
-1
48
1
60
0
100
AcDbPoint
10
29.5257
20
-1.65
30
0
39
0
210
0
220
0
230
1
50
360
0
POINT
5
1BA
100
AcDbEntity
8
Defpoints
62
0
6
ByLayer
370
-1
48
1
60
0
100
AcDbPoint
10
29.5257
20
-23.690158
30
0
39
0
210
0
220
0
230
1
50
360
0
ENDBLK
5
1B1
100
AcDbEntity
8
0
100
AcDbBlockEnd
0
BLOCK
5
1C2
100
AcDbEntity
8
0
100
AcDbBlockBegin
2
_U5
70
0
10
0
20
0
30
0
3
_U5
0
MTEXT
5
1BC
100
AcDbEntity
8
SK2
62
256
6
ByLayer
370
13
48
1
60
0
100
AcDbMText
10
-8.374449
20
-22.657524
30
0
210
0
220
0
230
1
1
\W0.7317;65,53
40
3.5
41
0
44
1.084337
50
0
71
7
72
5
7
iso_b_vert
0
LINE
5
1BD
100
AcDbEntity
8
SK2
62
256
6
ByLayer
370
13
48
1
60
0
100
AcDbLine
10
-36
20
-4.5875
30
0
11
-36
21
-25.690158
31
0
39
0
210
0
220
0
230
1
0
LINE
5
1BE
100
AcDbEntity
8
SK2
62
256
6
ByLayer
370
13
48
1
60
0
100
AcDbLine
10
29.5257
20
-3.2375
30
0
11
29.5257
21
-25.690158
31
0
39
0
210
0
220
0
230
1
0
LINE
5
1BF
100
AcDbEntity
8
SK2
62
256
6
ByLayer
370
13
48
1
60
0
100
AcDbLine
10
-36
20
-23.690158
30
0
11
29.5257
21
-23.690158
31
0
39
0
210
0
220
0
230
1
0
SOLID
5
1C0
100
AcDbEntity
8
SK2
62
256
6
ByLayer
370
18
48
1
60
0
100
AcDbTrace
10
-36
20
-23.690158
30
0
11
-32.500002
21
-23.229374
31
0
12
-32.499998
22
-24.150942
32
0
13
-32.499998
23
-24.150942
33
0
39
0
210
0
220
0
230
1
0
SOLID
5
1C1
100
AcDbEntity
8
SK2
62
256
6
ByLayer
370
18
48
1
60
0
100
AcDbTrace
10
29.5257
20
-23.690158
30
0
11
26.025702
21
-24.150942
31
0
12
26.025698
22
-23.229374
32
0
13
26.025698
23
-23.229374
33
0
39
0
210
0
220
0
230
1
0
ENDBLK
5
1C3
100
AcDbEntity
8
0
100
AcDbBlockEnd
0
ENDSEC
0
SECTION
2
ENTITIES
0
ARC
5
C2
100
AcDbEntity
8
1
62
256
6
ByLayer
370
18
48
1
60
0
100
AcDbCircle
39
0
10
1.367882
20
-3.03
30
0
40
0.799999999999998
210
0
220
0
230
1
100
AcDbArc
50
90
51
148.751559
0
ARC
5
C3
100
AcDbEntity
8
1
62
256
6
ByLayer
370
18
48
1
60
0
100
AcDbCircle
39
0
10
1.367882
20
3.03
30
0
40
0.799999999999998
210
0
220
0
230
1
100
AcDbArc
50
211.248441
51
270
0
ARC
5
C4
100
AcDbEntity
8
1
62
256
6
ByLayer
370
18
48
1
60
0
100
AcDbCircle
39
0
10
0
20
-2.2
30
0
40
0.800000000000004
210
0
220
0
230
1
100
AcDbArc
50
270
51
328.751559
0
ARC
5
C5
100
AcDbEntity
8
1
62
256
6
ByLayer
370
18
48
1
60
0
100
AcDbCircle
39
0
10
0
20
2.2
30
0
40
0.800000000000004
210
0
220
0
230
1
100
AcDbArc
50
31.248441
51
90
0
ARC
5
C6
100
AcDbEntity
8
SK2
62
256
6
ByLayer
370
13
48
1
60
0
100
AcDbCircle
39
0
10
21.2757
20
0
30
0
40
16.9923746912405
210
0
220
0
230
1
100
AcDbArc
50
183.624787
51
225
0
ARC
5
C7
100
AcDbEntity
8
SK2
62
256
6
ByLayer
370
13
48
1
60
0
100
AcDbCircle
39
0
10
21.2757
20
0
30
0
40
16.9923746912405
210
0
220
0
230
1
100
AcDbArc
50
135
51
161.379267
0
POINT
5
70
100
AcDbEntity
8
80
62
256
6
ByLayer
370
18
48
1
60
0
100
AcDbPoint
10
0
20
0
30
0
39
0
210
0
220
0
230
1
50
360
0
POINT
5
72
100
AcDbEntity
8
81
62
256
6
ByLayer
370
18
48
1
60
0
100
AcDbPoint
10
30
20
0
30
0
39
0
210
0
220
0
230
1
50
360
0
POINT
5
74
100
AcDbEntity
8
1
62
256
6
ByLayer
370
18
48
1
60
1
100
AcDbPoint
10
29.5257
20
-1.65
30
0
39
0
210
0
220
0
230
1
50
360
0
POINT
5
76
100
AcDbEntity
8
1
62
256
6
ByLayer
370
18
48
1
60
1
100
AcDbPoint
10
-36
20
-3
30
0
39
0
210
0
220
0
230
1
50
360
0
POINT
5
77
100
AcDbEntity
8
1
62
256
6
ByLayer
370
18
48
1
60
1
100
AcDbPoint
10
19.05
20
2.23
30
0
39
0
210
0
220
0
230
1
50
360
0
POINT
5
78
100
AcDbEntity
8
1
62
256
6
ByLayer
370
18
48
1
60
1
100
AcDbPoint
10
29.5257
20
-1.65
30
0
39
0
210
0
220
0
230
1
50
360
0
POINT
5
79
100
AcDbEntity
8
1
62
256
6
ByLayer
370
18
48
1
60
1
100
AcDbPoint
10
29.5257
20
1.65
30
0
39
0
210
0
220
0
230
1
50
360
0
POINT
5
7A
100
AcDbEntity
8
1
62
256
6
ByLayer
370
18
48
1
60
1
100
AcDbPoint
10
19.6257
20
1.65
30
0
39
0
210
0
220
0
230
1
50
360
0
POINT
5
7B
100
AcDbEntity
8
1
62
256
6
ByLayer
370
18
48
1
60
1
100
AcDbPoint
10
-36
20
-3
30
0
39
0
210
0
220
0
230
1
50
360
0
POINT
5
7C
100
AcDbEntity
8
1
62
256
6
ByLayer
370
18
48
1
60
1
100
AcDbPoint
10
29.5257
20
-1.65
30
0
39
0
210
0
220
0
230
1
50
360
0
SPLINE
5
C8
100
AcDbEntity
8
SK1
62
256
6
ByLayer
370
18
48
1
60
0
100
AcDbSpline
70
4
71
3
72
8
73
4
40
0
40
0
40
0
40
0
40
1
40
1
40
1
40
1
41
1
10
-35.9999999999999
20
0.725934056120053
30
0
41
1
10
-35.9170320485553
20
0.724822902309455
30
0
41
1
10
-35.8336569780242
20
0.7237163395165
30
0
41
1
10
-35.7499999999999
20
0.722612955749781
30
0
0
SPLINE
5
C9
100
AcDbEntity
8
SK1
62
256
6
ByLayer
370
18
48
1
60
0
100
AcDbSpline
70
4
71
3
72
12
73
8
40
0
40
0
40
0
40
0
40
0.25
40
0.25
40
0.5
40
0.5
40
1
40
1
40
1
40
1
41
1
10
-35.65
20
0.678971802105991
30
0
41
1
10
-35.65
20
0.695993884704109
30
0
41
1
10
-35.6543064856026
20
0.711075842427448
30
0
41
1
10
-35.6669732428693
20
0.736030988154141
30
0
41
1
10
-35.6752883274803
20
0.745994823119617
30
0
41
1
10
-35.703338566374
20
0.76975362246003
30
0
41
1
10
-35.7259044959108
20
0.777588068670156
30
0
41
1
10
-35.75
20
0.777270263883366
30
0
0
SPLINE
5
CA
100
AcDbEntity
8
SK1
62
256
6
ByLayer
370
18
48
1
60
0
100
AcDbSpline
70
4
71
3
72
12
73
8
40
0
40
0
40
0
40
0
40
0.5
40
0.5
40
0.75
40
0.75
40
1
40
1
40
1
40
1
41
1
10
-35.75
20
0.722612955749895
30
0
41
1
10
-35.725991403848
20
0.722296297225029
30
0
41
1
10
-35.7033434775092
20
0.713747928484054
30
0
41
1
10
-35.6754686370361
20
0.689293430222023
30
0
41
1
10
-35.6670255857875
20
0.678925150463016
30
0
41
1
10
-35.6543349758772
20
0.65345859747606
30
0
41
1
10
-35.65
20
0.637888624133325
30
0
41
1
10
-35.65
20
0.620926988242701
30
0
0
SPLINE
5
CB
100
AcDbEntity
8
SK1
62
256
6
ByLayer
370
18
48
1
60
0
100
AcDbSpline
70
4
71
3
72
8
73
4
40
0
40
0
40
0
40
0
40
1
40
1
40
1
40
1
41
1
10
-35.75
20
0.777270263883366
30
0
41
1
10
-35.8336566212689
20
0.776166884822032
30
0
41
1
10
-35.9170316491065
20
0.775060322673312
30
0
41
1
10
-36
20
0.773949163513095
30
0
0
SPLINE
5
CC
100
AcDbEntity
8
SK1
62
256
6
ByLayer
370
18
48
1
60
0
100
AcDbSpline
70
4
71
3
72
12
73
8
40
0
40
0
40
0
40
0
40
0.5
40
0.5
40
0.75
40
0.75
40
1
40
1
40
1
40
1
41
1
10
-35.75
20
-0.722612955749895
30
0
41
1
10
-35.725991403848
20
-0.722296297225029
30
0
41
1
10
-35.7033434775092
20
-0.713747928484082
30
0
41
1
10
-35.6754686370361
20
-0.689293430222023
30
0
41
1
10
-35.6670255857875
20
-0.678925150463044
30
0
41
1
10
-35.6543349758772
20
-0.653458597476089
30
0
41
1
10
-35.65
20
-0.637888624133353
30
0
41
1
10
-35.65
20
-0.620926988242729
30
0
0
SPLINE
5
CD
100
AcDbEntity
8
SK1
62
256
6
ByLayer
370
18
48
1
60
0
100
AcDbSpline
70
4
71
3
72
8
73
4
40
0
40
0
40
0
40
0
40
1
40
1
40
1
40
1
41
1
10
-35.9999999999999
20
-0.725934056120053
30
0
41
1
10
-35.9170320485553
20
-0.724822902309484
30
0
41
1
10
-35.8336569780242
20
-0.7237163395165
30
0
41
1
10
-35.7499999999999
20
-0.722612955749781
30
0
0
SPLINE
5
CE
100
AcDbEntity
8
1
62
256
6
ByLayer
370
18
48
1
60
0
100
AcDbSpline
70
4
71
3
72
30
73
26
40
0
40
0
40
0
40
0
40
0.125
40
0.125
40
0.1875
40
0.1875
40
0.25
40
0.25
40
0.375
40
0.375
40
0.5
40
0.5
40
0.5625
40
0.5625
40
0.625
40
0.625
40
0.750000000000001
40
0.750000000000001
40
0.8125
40
0.8125
40
0.875
40
0.875
40
0.9375
40
0.9375
40
1
40
1
40
1
40
1
41
1
10
18.9980044277403
20
-2.15360687092985
30
0
41
1
10
18.985192689416
20
-2.11246651064244
30
0
41
1
10
18.972523060644
20
-2.05573913264095
30
0
41
1
10
18.9535686942087
20
-1.94759932506241
30
0
41
1
10
18.9472030876068
20
-1.90745468577609
30
0
41
1
10
18.9344536334018
20
-1.82016740626753
30
0
41
1
10
18.9281045213706
20
-1.77332822763799
30
0
41
1
10
18.9090425396718
20
-1.62351524239571
30
0
41
1
10
18.8964116644348
20
-1.51129514488017
30
0
41
1
10
18.8706678242304
20
-1.26148086218299
30
0
41
1
10
18.8579741032606
20
-1.1282956981378
30
0
41
1
10
18.8390521687829
20
-0.916587962685838
30
0
41
1
10
18.8327532648877
20
-0.844014106791036
30
0
41
1
10
18.8200035116586
20
-0.69474354187642
30
0
41
1
10
18.8135829929688
20
-0.618569499826094
30
0
41
1
10
18.7944768854093
20
-0.389033917746673
30
0
41
1
10
18.7818209981097
20
-0.233285778780925
30
0
41
1
10
18.7627688225018
20
0.0044732523505786
30
0
41
1
10
18.7563899735958
20
0.084493432214515
30
0
41
1
10
18.7437125582493
20
0.242111944149173
30
0
41
1
10
18.7373741477779
20
0.320192165059467
30
0
41
1
10
18.7246567366611
20
0.474913336194731
30
0
41
1
10
18.7182786821477
20
0.551554398733998
30
0
41
1
10
18.7055390570226
20
0.703375014076329
30
0
41
1
10
18.6991504495036
20
0.778877323946972
30
0
41
1
10
18.692790894073
20
0.85224065733118
30
0
0
SPLINE
5
CF
100
AcDbEntity
8
1
62
256
6
ByLayer
370
18
48
1
60
0
100
AcDbSpline
70
4
71
3
72
10
73
6
40
0
40
0
40
0
40
0
40
0.5
40
0.5
40
1
40
1
40
1
40
1
41
1
10
19.6428550182184
20
-1.62212325543714
30
0
41
1
10
19.5344282481855
20
-1.71958720739761
30
0
41
1
10
19.426911203754
20
-1.81212218055873
30
0
41
1
10
19.2122967755752
20
-1.98890384039649
30
0
41
1
10
19.1051283316317
20
-2.07332511418457
30
0
41
1
10
18.9980044277279
20
-2.15360687093903
30
0
0
SPLINE
5
D0
100
AcDbEntity
8
1
62
256
6
ByLayer
370
18
48
1
60
0
100
AcDbSpline
70
4
71
3
72
10
73
6
40
0
40
0
40
0
40
0
40
0.5
40
0.5
40
1
40
1
40
1
40
1
41
1
10
29.5149297627456
20
1.59596638266302
30
0
41
1
10
29.5899114838666
20
1.40510973836194
30
0
41
1
10
29.6656609471672
20
1.21471210479271
30
0
41
1
10
29.817642590467
20
0.834095021837044
30
0
41
1
10
29.8939174071559
20
0.643906185695045
30
0
41
1
10
29.9701202762866
20
0.453624138717998
30
0
0
SPLINE
5
D1
100
AcDbEntity
8
1
62
256
6
ByLayer
370
18
48
1
60
0
100
AcDbSpline
70
4
71
3
72
8
73
4
40
0
40
0
40
0
40
0
40
1
40
1
40
1
40
1
41
1
10
19.6147224525565
20
0.0368214684775694
30
0
41
1
10
19.5296160020731
20
0.0849313816375457
30
0
41
1
10
19.4444477598491
20
0.13265314008305
30
0
41
1
10
19.3591479033326
20
0.179866339317499
30
0
0
SPLINE
5
D2
100
AcDbEntity
8
1
62
256
6
ByLayer
370
18
48
1
60
0
100
AcDbSpline
70
4
71
3
72
14
73
10
40
0
40
0
40
0
40
0
40
0.25
40
0.25
40
0.5
40
0.5
40
0.75
40
0.75
40
1
40
1
40
1
40
1
41
1
10
29.4274999499243
20
-1.56744424053233
30
0
41
1
10
29.4303478943979
20
-1.56751479059025
30
0
41
1
10
29.4327131905728
20
-1.56883933584862
30
0
41
1
10
29.4361967363373
20
-1.57468929056807
30
0
41
1
10
29.4373014825986
20
-1.5792735527595
30
0
41
1
10
29.4374162244346
20
-1.5925925071659
30
0
41
1
10
29.4363674190992
20
-1.60150362154425
30
0
41
1
10
29.4316733205758
20
-1.62260285481304
30
0
41
1
10
29.4280238392126
20
-1.63475344007756
30
0
41
1
10
29.4236700347526
20
-1.64679625502177
30
0
0
SPLINE
5
D3
100
AcDbEntity
8
1
62
256
6
ByLayer
370
18
48
1
60
0
100
AcDbSpline
70
4
71
3
72
8
73
4
40
0
40
0
40
0
40
0
40
1
40
1
40
1
40
1
41
1
10
29.9701202762866
20
0.453624138717856
30
0
41
1
10
29.9790955255359
20
0.334057122188
30
0
41
1
10
29.98570436709
20
0.214669102507344
30
0
41
1
10
29.9899497974895
20
0.0954598530153419
30
0
0
SPLINE
5
D4
100
AcDbEntity
8
1
62
256
6
ByLayer
370
18
48
1
60
0
100
AcDbSpline
70
4
71
3
72
8
73
4
40
0
40
0
40
0
40
0
40
1
40
1
40
1
40
1
41
1
10
19.6147224525563
20
-1.58213320951214
30
0
41
1
10
19.7518165803288
20
-1.60698855755439
30
0
41
1
10
19.8890913832947
20
-1.62600075241457
30
0
41
1
10
20.0263932578795
20
-1.63919480033795
30
0
0
SPLINE
5
D5
100
AcDbEntity
8
1
62
256
6
ByLayer
370
18
48
1
60
0
100
AcDbSpline
70
4
71
3
72
15
73
11
40
0
40
0
40
0
40
0
40
0.0356233895359087
40
0.208505109564642
40
0.294927973924235
40
0.51122076805241
40
0.684714357479768
40
0.771415916330393
40
0.944275574335836
40
1
40
1
40
1
40
1
41
1
10
19.3591479033326
20
0.179866339317499
30
0
41
1
10
19.3622656461902
20
0.15104199449712
30
0
41
1
10
19.3805069695819
20
-0.018147808237984
30
0
41
1
10
19.406330142192
20
-0.260090694474513
30
0
41
1
10
19.4479750406562
20
-0.635477222382917
30
0
41
1
10
19.4896529950552
20
-0.982100054876298
30
0
41
1
10
19.5311792655556
20
-1.25743868884467
30
0
41
1
10
19.5689678573121
20
-1.45294745283655
30
0
41
1
10
19.5965620977511
20
-1.55177872382745
30
0
41
1
10
19.6166466418921
20
-1.59199316028122
30
0
41
1
10
19.6215521896311
20
-1.59989800882056
30
0
0
SPLINE
5
D6
100
AcDbEntity
8
1
62
256
6
ByLayer
370
18
48
1
60
0
100
AcDbSpline
70
4
71
3
72
12
73
8
40
0
40
0
40
0
40
0
40
0.25
40
0.25
40
0.5
40
0.5
40
1
40
1
40
1
40
1
41
1
10
29.3425348290571
20
0.385676159000724
30
0
41
1
10
29.3415406256002
20
0.395590055894758
30
0
41
1
10
29.3429321496261
20
0.405755957986827
30
0
41
1
10
29.3512917858368
20
0.423948089181124
30
0
41
1
10
29.3583396984312
20
0.431931540153698
30
0
41
1
10
29.3834019495266
20
0.449487518321774
30
0
41
1
10
29.4043313071853
20
0.453494548198336
30
0
41
1
10
29.4246382150187
20
0.453315625584366
30
0
0
SPLINE
5
D7
100
AcDbEntity
8
1
62
256
6
ByLayer
370
18
48
1
60
0
100
AcDbSpline
70
4
71
3
72
24
73
20
40
0
40
0
40
0
40
0
40
0.0260217861055086
40
0.0260217861055086
40
0.165161530947578
40
0.165161530947578
40
0.234731403368612
40
0.234731403368612
40
0.304301275789647
40
0.304301275789647
40
0.44344102063172
40
0.44344102063172
40
0.582580765473793
40
0.582580765473793
40
0.721720510315862
40
0.721720510315862
40
0.860860255157931
40
0.860860255157931
40
1
40
1
40
1
40
1
41
1
10
24.1817187977188
20
1.56399329555072
30
0
41
1
10
24.213930721386
20
1.56399498786166
30
0
41
1
10
24.2461233393608
20
1.56371664396252
30
0
41
1
10
24.4503569702621
20
1.56021353092993
30
0
41
1
10
24.621951770957
20
1.547645141446
30
0
41
1
10
24.8795502456406
20
1.51835466216343
30
0
41
1
10
24.9654487330296
20
1.50681736329406
30
0
41
1
10
25.1375008011473
20
1.47874740813018
30
0
41
1
10
25.2237029436986
20
1.46243626496735
30
0
41
1
10
25.4828375019211
20
1.40737396265797
30
0
41
1
10
25.6572074957238
20
1.36225501648121
30
0
41
1
10
26.0044372378994
20
1.2590073434678
30
0
41
1
10
26.1770293000025
20
1.20122032958105
30
0
41
1
10
26.5212314460551
20
1.07232190445606
30
0
41
1
10
26.6929226796227
20
1.001392884192
30
0
41
1
10
27.0367991208316
20
0.849738875600821
30
0
41
1
10
27.2090246368798
20
0.768994295426779
30
0
41
1
10
27.5549268446689
20
0.59927144830101
30
0
41
1
10
27.7295411091919
20
0.509767807494882
30
0
41
1
10
27.9028518901641
20
0.418570299414682
30
0
0
SPLINE
5
D8
100
AcDbEntity
8
1
62
256
6
ByLayer
370
18
48
1
60
0
100
AcDbSpline
70
4
71
3
72
8
73
4
40
0
40
0
40
0
40
0
40
1
40
1
40
1
40
1
41
1
10
20.4193059137157
20
-1.56198486951118
30
0
41
1
10
20.1523764060072
20
-1.56055382587434
30
0
41
1
10
19.8848707191251
20
-1.53879501593997
30
0
41
1
10
19.6147224525564
20
-1.49660821002467
30
0
0
SPLINE
5
D9
100
AcDbEntity
8
1
62
256
6
ByLayer
370
18
48
1
60
0
100
AcDbSpline
70
4
71
3
72
8
73
4
40
0
40
0
40
0
40
0
40
1
40
1
40
1
40
1
41
1
10
29.9701202762866
20
-0.453624138717828
30
0
41
1
10
29.9790908922531
20
-0.334118846133947
30
0
41
1
10
29.9857021741381
20
-0.214730679339368
30
0
41
1
10
29.9899497974895
20
-0.095459853015285
30
0
0
SPLINE
5
DA
100
AcDbEntity
8
1
62
256
6
ByLayer
370
18
48
1
60
0
100
AcDbSpline
70
4
71
3
72
8
73
4
40
0
40
0
40
0
40
0
40
1
40
1
40
1
40
1
41
1
10
29.979069278737
20
-0.0172653945075183
30
0
41
1
10
29.8996258851017
20
-0.147645725814812
30
0
41
1
10
29.8218547658978
20
-0.279547112617564
30
0
41
1
10
29.7457770161844
20
-0.412988742409766
30
0
0
SPLINE
5
DB
100
AcDbEntity
8
1
62
256
6
ByLayer
370
18
48
1
60
0
100
AcDbSpline
70
4
71
3
72
8
73
4
40
0
40
0
40
0
40
0
40
1
40
1
40
1
40
1
41
1
10
29.99994101974
20
0.0321470667747406
30
0
41
1
10
29.9949078177782
20
0.0145594477079953
30
0
41
1
10
29.9871855613308
20
-0.0039451728358699
30
0
41
1
10
29.979069278737
20
-0.0172653945075183
30
0
0
SPLINE
5
DC
100
AcDbEntity
8
1
62
256
6
ByLayer
370
18
48
1
60
0
100
AcDbSpline
70
4
71
3
72
8
73
4
40
0
40
0
40
0
40
0
40
1
40
1
40
1
40
1
41
1
10
29.5391562081361
20
-0.787009011656409
30
0
41
1
10
29.4619072517921
20
-0.93138506993597
30
0
41
1
10
29.3865786335136
20
-1.07750781566875
30
0
41
1
10
29.3131919757195
20
-1.225396916021
30
0
0
SPLINE
5
DD
100
AcDbEntity
8
1
62
256
6
ByLayer
370
18
48
1
60
0
100
AcDbSpline
70
4
71
3
72
10
73
6
40
0
40
0
40
0
40
0
40
0.5
40
0.5
40
1
40
1
40
1
40
1
41
1
10
29.5149297627393
20
-1.59596638267931
30
0
41
1
10
29.5899122690781
20
-1.40510773970368
30
0
41
1
10
29.6656614274353
20
-1.21471090025514
30
0
41
1
10
29.8176426061765
20
-0.834094984267011
30
0
41
1
10
29.8939173158093
20
-0.643906413790518
30
0
41
1
10
29.9701202762862
20
-0.453624138717743
30
0
0
SPLINE
5
DE
100
AcDbEntity
8
1
62
256
6
ByLayer
370
18
48
1
60
0
100
AcDbSpline
70
4
71
3
72
16
73
12
40
0
40
0
40
0
40
0
40
0.026130487400621
40
0.026130487400621
40
0.188442072833851
40
0.188442072833851
40
0.350753658267081
40
0.350753658267081
40
0.67537682913354
40
0.67537682913354
40
1
40
1
40
1
40
1
41
1
10
17.5374881798474
20
1.59735420522043
30
0
41
1
10
17.5502510954048
20
1.60429841289732
30
0
41
1
10
17.5630224252424
20
1.61119699822032
30
0
41
1
10
17.6551912513098
20
1.66061034947154
30
0
41
1
10
17.7352697318343
20
1.70138717460517
30
0
41
1
10
17.8945541307755
20
1.77864368228612
30
0
41
1
10
17.9737774505708
20
1.81522378488901
30
0
41
1
10
18.2105336204929
20
1.91857908728784
30
0
41
1
10
18.3679542829243
20
1.97841121566594
30
0
41
1
10
18.6829274521246
20
2.07981902301395
30
0
41
1
10
18.8396713359371
20
2.12171057266758
30
0
41
1
10
18.9980044277403
20
2.15360687092985
30
0
0
SPLINE
5
DF
100
AcDbEntity
8
1
62
256
6
ByLayer
370
18
48
1
60
0
100
AcDbSpline
70
4
71
3
72
10
73
6
40
0
40
0
40
0
40
0
40
0.198849655969234
40
0.909048726594345
40
1
40
1
40
1
40
1
41
1
10
19.6215526059139
20
1.59989867961798
30
0
41
1
10
19.6229597956821
20
1.60216620818545
30
0
41
1
10
19.6293963230489
20
1.61181806718642
30
0
41
1
10
19.6364969882305
20
1.61882734641876
30
0
41
1
10
19.64220655282
20
1.62181770307947
30
0
41
1
10
19.6428550182184
20
1.62212325543714
30
0
0
SPLINE
5
E0
100
AcDbEntity
8
1
62
256
6
ByLayer
370
18
48
1
60
0
100
AcDbSpline
70
4
71
3
72
8
73
4
40
0
40
0
40
0
40
0
40
1
40
1
40
1
40
1
41
1
10
29.9899497974896
20
-0.0954598530152282
30
0
41
1
10
29.9905796632958
20
-0.0777735826086143
30
0
41
1
10
29.994424606934
20
-0.0554676250851287
30
0
41
1
10
29.9999410197447
20
-0.0321470667549306
30
0
0
SPLINE
5
E1
100
AcDbEntity
8
1
62
256
6
ByLayer
370
18
48
1
60
0
100
AcDbSpline
70
4
71
3
72
28
73
24
40
0
40
0
40
0
40
0
40
0.250000000000003
40
0.250000000000003
40
0.500000000000006
40
0.500000000000006
40
0.625000000000007
40
0.625000000000007
40
0.750000000000009
40
0.750000000000009
40
0.87500000000001
40
0.87500000000001
40
0.882812500000009
40
0.882812500000009
40
0.890625000000009
40
0.890625000000009
40
0.898437500000008
40
0.898437500000008
40
0.906250000000007
40
0.906250000000007
40
0.937500000000005
40
0.937500000000005
40
1
40
1
40
1
40
1
41
1
10
27.9028518901642
20
0.418570299414711
30
0
41
1
10
28.0328802380786
20
0.325576799902621
30
0
41
1
10
28.167458255983
20
0.245909998642645
30
0
41
1
10
28.4475687659931
20
0.118663772244844
30
0
41
1
10
28.5890162911708
20
0.0727500735797832
30
0
41
1
10
28.8013280481687
20
0.0395721591322626
30
0
41
1
10
28.8725740143826
20
0.0346926210175411
30
0
41
1
10
29.01060758758
20
0.0396170749379792
30
0
41
1
10
29.0779430691428
20
0.0491740768646878
30
0
41
1
10
29.2084252105484
20
0.0859640805178117
30
0
41
1
10
29.2711425501997
20
0.11332948075588
30
0
41
1
10
29.3323166679081
20
0.152229925342283
30
0
41
1
10
29.3358836606893
20
0.154574768178549
30
0
41
1
10
29.3430266179507
20
0.159248330858418
30
0
41
1
10
29.3467347940316
20
0.1613676328937
30
0
41
1
10
29.3528402816973
20
0.16763159505382
30
0
41
1
10
29.3551524359332
20
0.171852750255368
30
0
41
1
10
29.3573848803999
20
0.181527883253608
30
0
41
1
10
29.3569935054418
20
0.187003471824028
30
0
41
1
10
29.3558206306732
20
0.21374039379279
30
0
41
1
10
29.354645197184
20
0.235173781552135
30
0
41
1
10
29.3504812602566
20
0.299545978537026
30
0
41
1
10
29.3468579658797
20
0.342567143014776
30
0
41
1
10
29.3425348290571
20
0.385676159000724
30
0
0
SPLINE
5
E2
100
AcDbEntity
8
1
62
256
6
ByLayer
370
18
48
1
60
0
100
AcDbSpline
70
4
71
3
72
20
73
16
40
0
40
0
40
0
40
0
40
0.125000000000009
40
0.125000000000009
40
0.250000000000017
40
0.250000000000017
40
0.375000000000026
40
0.375000000000026
40
0.500000000000034
40
0.500000000000034
40
0.750000000000027
40
0.750000000000027
40
0.875000000000014
40
0.875000000000014
40
1
40
1
40
1
40
1
41
1
10
29.745777016185
20
-0.41298874241042
30
0
41
1
10
29.7443499362953
20
-0.433284055864306
30
0
41
1
10
29.7405350044499
20
-0.457432040609348
30
0
41
1
10
29.7287093746002
20
-0.50868058353484
30
0
41
1
10
29.7206353455177
20
-0.536175376276645
30
0
41
1
10
29.7017970790238
20
-0.590198121585388
30
0
41
1
10
29.6911564871825
20
-0.616509269215868
30
0
41
1
10
29.6686594519106
20
-0.665757411836069
30
0
41
1
10
29.6571563324271
20
-0.687978026321332
30
0
41
1
10
29.6225009735376
20
-0.747427231327947
30
0
41
1
10
29.6003759880242
20
-0.775416011796096
30
0
41
1
10
29.5723638898547
20
-0.796510032852211
30
0
41
1
10
29.5640566432094
20
-0.799969767780851
30
0
41
1
10
29.5495433017813
20
-0.799327903471323
30
0
41
1
10
29.5435879319753
20
-0.795172289159382
30
0
41
1
10
29.5391562081361
20
-0.787009011656409
30
0
0
SPLINE
5
E3
100
AcDbEntity
8
1
62
256
6
ByLayer
370
18
48
1
60
0
100
AcDbSpline
70
4
71
3
72
10
73
6
40
0
40
0
40
0
40
0
40
0.5
40
0.5
40
1
40
1
40
1
40
1
41
1
10
29.5149297627456
20
1.59596638266302
30
0
41
1
10
29.497926723005
20
1.60949768475149
30
0
41
1
10
29.481813997383
20
1.62054236396673
30
0
41
1
10
29.45141828565
20
1.63751764031798
30
0
41
1
10
29.4371121881816
20
1.64346715919436
30
0
41
1
10
29.4236700347526
20
1.64679625502177
30
0
0
SPLINE
5
E4
100
AcDbEntity
8
1
62
256
6
ByLayer
370
18
48
1
60
0
100
AcDbSpline
70
4
71
3
72
10
73
6
40
0
40
0
40
0
40
0
40
0.5
40
0.5
40
1
40
1
40
1
40
1
41
1
10
19.6428550182184
20
1.62212325543714
30
0
41
1
10
19.5344282481876
20
1.71958720739571
30
0
41
1
10
19.4269112037583
20
1.81212218055509
30
0
41
1
10
19.2122967755836
20
1.98890384038973
30
0
41
1
10
19.1051283316421
20
2.07332511417636
30
0
41
1
10
18.9980044277405
20
2.15360687092956
30
0
0
SPLINE
5
E5
100
AcDbEntity
8
1
62
256
6
ByLayer
370
18
48
1
60
0
100
AcDbSpline
70
4
71
3
72
26
73
22
40
0
40
0
40
0
40
0
40
0.0487068570160786
40
0.0487068570160786
40
0.143836171314472
40
0.143836171314472
40
0.238965485612865
40
0.238965485612865
40
0.429224114209641
40
0.429224114209641
40
0.524353428508034
40
0.524353428508034
40
0.619482742806427
40
0.619482742806427
40
0.714612057104821
40
0.714612057104821
40
0.809741371403214
40
0.809741371403214
40
0.904870685701607
40
0.904870685701607
40
1
40
1
40
1
40
1
41
1
10
26.4041325908774
20
1.11325774324394
30
0
41
1
10
26.454978883437
20
1.13474932337141
30
0
41
1
10
26.5058749464767
20
1.15571001444994
30
0
41
1
10
26.6562275419917
20
1.21616736815628
30
0
41
1
10
26.7553402728416
20
1.25427966360829
30
0
41
1
10
26.9527221215997
20
1.32539353954465
30
0
41
1
10
27.051290700725
20
1.35831414705464
30
0
41
1
10
27.3465365784561
20
1.44955792244482
30
0
41
1
10
27.5418401281196
20
1.50102980754667
30
0
41
1
10
27.8363776237983
20
1.56120094938029
30
0
41
1
10
27.9346661266808
20
1.5785744341232
30
0
41
1
10
28.1311828197217
20
1.60796681544275
30
0
41
1
10
28.2295212324932
20
1.61989859470478
30
0
41
1
10
28.427335570295
20
1.63783970450913
30
0
41
1
10
28.5269849160564
20
1.64391785576984
30
0
41
1
10
28.7254649461484
20
1.65018957641627
30
0
41
1
10
28.8241875592955
20
1.65035249024277
30
0
41
1
10
29.0216526564557
20
1.64476967768434
30
0
41
1
10
29.1204786878595
20
1.63907651115014
30
0
41
1
10
29.3178868549912
20
1.62191788070532
30
0
41
1
10
29.4163466801075
20
1.61038488232529
30
0
41
1
10
29.5149297627457
20
1.59596638266302
30
0
0
SPLINE
5
E6
100
AcDbEntity
8
1
62
256
6
ByLayer
370
18
48
1
60
0
100
AcDbSpline
70
4
71
3
72
38
73
34
40
0
40
0
40
0
40
0
40
0.0089197895976182
40
0.0089197895976182
40
0.085156728859343
40
0.085156728859343
40
0.161393668121068
40
0.161393668121068
40
0.199512137751929
40
0.199512137751929
40
0.23763060738279
40
0.23763060738279
40
0.313867546644513
40
0.313867546644513
40
0.390104485906235
40
0.390104485906235
40
0.466341425167957
40
0.466341425167957
40
0.504459894798818
40
0.504459894798818
40
0.54257836442968
40
0.54257836442968
40
0.6188153036914
40
0.6188153036914
40
0.69505224295312
40
0.69505224295312
40
0.77128918221484
40
0.77128918221484
40
0.84752612147656
40
0.84752612147656
40
0.92376306073828
40
0.92376306073828
40
1
40
1
40
1
40
1
41
1
10
26.4084982812743
20
-1.11427821688403
30
0
41
1
10
26.3883906866869
20
-1.12198382946124
30
0
41
1
10
26.3682859831263
20
-1.12960047885622
30
0
41
1
10
26.1763659039933
20
-1.20144379824987
30
0
41
1
10
26.0046161071151
20
-1.25891659574236
30
0
41
1
10
25.6599837901746
20
-1.36146673486692
30
0
41
1
10
25.4872675706695
20
-1.40632870179383
30
0
41
1
10
25.2264330251762
20
-1.46190666629411
30
0
41
1
10
25.1392139026543
20
-1.47844894187224
30
0
41
1
10
24.965863749646
20
-1.50676839970691
30
0
41
1
10
24.8794843096609
20
-1.51836786942005
30
0
41
1
10
24.6207897179042
20
-1.54776581096127
30
0
41
1
10
24.4489186898525
20
-1.56027799522749
30
0
41
1
10
24.1054730354963
20
-1.56608909408044
30
0
41
1
10
23.9338199991261
20
-1.56119810145449
30
0
41
1
10
23.5894376758649
20
-1.53416133971712
30
0
41
1
10
23.4166350505178
20
-1.5110669882597
30
0
41
1
10
23.1557199201421
20
-1.46576924867932
30
0
41
1
10
23.0686494157066
20
-1.44858866244533
30
0
41
1
10
22.8954574364691
20
-1.41001734489379
30
0
41
1
10
22.8091299417878
20
-1.38851174696904
30
0
41
1
10
22.5505693680356
20
-1.31978683565637
30
0
41
1
10
22.3787927073722
20
-1.26742181204315
30
0
41
1
10
22.0354327354311
20
-1.14750205798634
30
0
41
1
10
21.8637779150323
20
-1.08188417725219
30
0
41
1
10
21.5193572588072
20
-0.938487679579254
30
0
41
1
10
21.3465061423556
20
-0.860573963385747
30
0
41
1
10
20.9983490121315
20
-0.696166513544568
30
0
41
1
10
20.8250695199147
20
-0.609871552736735
30
0
41
1
10
20.4795222892168
20
-0.432002638742318
30
0
41
1
10
20.3070324927917
20
-0.340711048316535
30
0
41
1
10
19.96162200578
20
-0.154708685102804
30
0
41
1
10
19.7886139866052
20
-0.0602966684034243
30
0
41
1
10
19.6147224525564
20
0.0344631725458839
30
0
0
SPLINE
5
E7
100
AcDbEntity
8
1
62
256
6
ByLayer
370
18
48
1
60
0
100
AcDbSpline
70
4
71
3
72
32
73
28
40
0
40
0
40
0
40
0
40
0.124999999999994
40
0.124999999999994
40
0.249999999999988
40
0.249999999999988
40
0.312499999999985
40
0.312499999999985
40
0.374999999999982
40
0.374999999999982
40
0.406249999999974
40
0.406249999999974
40
0.437499999999967
40
0.437499999999967
40
0.468749999999959
40
0.468749999999959
40
0.499999999999951
40
0.499999999999951
40
0.56249999999995
40
0.56249999999995
40
0.624999999999949
40
0.624999999999949
40
0.749999999999966
40
0.749999999999966
40
0.874999999999983
40
0.874999999999983
40
1
40
1
40
1
40
1
41
1
10
29.5391562081361
20
-0.787009011656409
30
0
41
1
10
29.480332144828
20
-0.767234934614464
30
0
41
1
10
29.4212350337547
20
-0.742303769308222
30
0
41
1
10
29.3062756061511
20
-0.682762694789972
30
0
41
1
10
29.2500583655219
20
-0.648285798101853
30
0
41
1
10
29.1687124606916
20
-0.585461508408031
30
0
41
1
10
29.1423602860935
20
-0.562808478841959
30
0
41
1
10
29.0927683143233
20
-0.512972899481724
30
0
41
1
10
29.0689246955442
20
-0.485331271163858
30
0
41
1
10
29.0395238498903
20
-0.43897623069077
30
0
41
1
10
29.0307155344622
20
-0.422561698131204
30
0
41
1
10
29.01733420853
20
-0.387714518287311
30
0
41
1
10
29.0129364123377
20
-0.369279685266235
30
0
41
1
10
29.0122532852038
20
-0.33413658341965
30
0
41
1
10
29.0161681866244
20
-0.317405202513356
30
0
41
1
10
29.0310812551902
20
-0.289923864215325
30
0
41
1
10
29.0414742192746
20
-0.279385579599079
30
0
41
1
10
29.0764470125518
20
-0.254416803705908
30
0
41
1
10
29.1042509171156
20
-0.246336156177421
30
0
41
1
10
29.1605986163815
20
-0.23731992913369
30
0
41
1
10
29.1896570583945
20
-0.236592288260255
30
0
41
1
10
29.2782552383492
20
-0.240887646279447
30
0
41
1
10
29.3371741976291
20
-0.252110271923499
30
0
41
1
10
29.4548594179644
20
-0.283268593018278
30
0
41
1
10
29.5136203485207
20
-0.303508450550709
30
0
41
1
10
29.6309989171156
20
-0.352164539052495
30
0
41
1
10
29.6890452963929
20
-0.380341459022361
30
0
41
1
10
29.745777016184
20
-0.412988742411585
30
0
0
SPLINE
5
E8
100
AcDbEntity
8
1
62
256
6
ByLayer
370
18
48
1
60
0
100
AcDbSpline
70
4
71
3
72
60
73
56
40
0
40
0
40
0
40
0
40
0.0624999999999819
40
0.0624999999999819
40
0.124999999999964
40
0.124999999999964
40
0.249999999999928
40
0.249999999999928
40
0.31249999999991
40
0.31249999999991
40
0.374999999999891
40
0.374999999999891
40
0.437499999999873
40
0.437499999999873
40
0.468749999999864
40
0.468749999999864
40
0.499999999999855
40
0.499999999999855
40
0.531249999999846
40
0.531249999999846
40
0.562499999999837
40
0.562499999999837
40
0.578124999999833
40
0.578124999999833
40
0.593749999999828
40
0.593749999999828
40
0.609374999999824
40
0.609374999999824
40
0.624999999999819
40
0.624999999999819
40
0.65624999999981
40
0.65624999999981
40
0.671874999999805
40
0.671874999999805
40
0.679687499999803
40
0.679687499999803
40
0.683593749999803
40
0.683593749999803
40
0.685546874999803
40
0.685546874999803
40
0.687499999999803
40
0.687499999999803
40
0.691406249999805
40
0.691406249999805
40
0.695312499999807
40
0.703124999999812
40
0.718749999999821
40
0.718749999999821
40
0.749999999999841
40
0.749999999999841
40
0.81249999999988
40
0.81249999999988
40
0.87499999999992
40
0.87499999999992
40
1
40
1
40
1
40
1
41
1
10
11.4123375099794
20
-0.461112251811727
30
0
41
1
10
11.2646601544906
20
-0.3449187577462
30
0
41
1
10
11.1190317341114
20
-0.225534461288277
30
0
41
1
10
10.8284306718672
20
0.0155292353505274
30
0
41
1
10
10.6827936383564
20
0.137692464853444
30
0
41
1
10
10.2489745830334
20
0.497690878819526
30
0
41
1
10
9.96278795990258
20
0.728923737643157
30
0
41
1
10
9.53184494972476
20
1.05565053093838
30
0
41
1
10
9.38765977474736
20
1.16162864806941
30
0
41
1
10
9.10142276603781
20
1.3660157215449
30
0
41
1
10
8.96063819862997
20
1.46351766236882
30
0
41
1
10
8.68689584513706
20
1.64975570452802
30
0
41
1
10
8.55297229877729
20
1.73896226573154
30
0
41
1
10
8.36936326988257
20
1.86305713077655
30
0
41
1
10
8.31092595169051
20
1.90289157464093
30
0
41
1
10
8.2024578663837
20
1.97928701797926
30
0
41
1
10
8.15230363889609
20
2.01593899244216
30
0
41
1
10
8.06920604788988
20
2.0830452210823
30
0
41
1
10
8.03558109835177
20
2.11410482949725
30
0
41
1
10
7.99796285688706
20
2.16616604420386
30
0
41
1
10
7.99426634895462
20
2.18759076779537
30
0
41
1
10
8.01811571053477
20
2.20960135058382
30
0
41
1
10
8.03101774504748
20
2.21543179633534
30
0
41
1
10
8.06524766532459
20
2.22395081623751
30
0
41
1
10
8.08648341288773
20
2.22670907972486
30
0
41
1
10
8.13619900771403
20
2.22988601220103
30
0
41
1
10
8.16456706734164
20
2.23027893298146
30
0
41
1
10
8.22555175691585
20
2.22936146483011
30
0
41
1
10
8.25837788637506
20
2.22806229729005
30
0
41
1
10
8.36259773559073
20
2.22242179395005
30
0
41
1
10
8.43965278852525
20
2.2163610578956
30
0
41
1
10
8.56023011206128
20
2.20603843135268
30
0
41
1
10
8.60146685715267
20
2.2023642090814
30
0
41
1
10
8.66434070819139
20
2.19668451068756
30
0
41
1
10
8.6854757617225
20
2.19476211290731
30
0
41
1
10
8.71742543563474
20
2.19184968954929
30
0
41
1
10
8.72816217285853
20
2.19089320097504
30
0
41
1
10
8.74417002503688
20
2.18939119188633
30
0
41
1
10
8.74954794570561
20
2.18890312888121
30
0
41
1
10
8.76126824481892
20
2.18834571928215
30
0
41
1
10
8.76724483369733
20
2.18822837009105
30
0
41
1
10
8.78495401654027
20
2.18829250933803
30
0
41
1
10
8.7967306732277
20
2.18866945161287
30
0
41
1
10
8.82029760348598
20
2.18918549662203
30
0
41
1
10
8.85563335489766
20
2.18997788725494
30
0
41
1
10
8.93798252982177
20
2.19195001017232
30
0
41
1
10
9.00838933533834
20
2.19383387477024
30
0
41
1
10
9.14880055770286
20
2.19780159625034
30
0
41
1
10
9.24193033560672
20
2.20071697879882
30
0
41
1
10
9.51990633213711
20
2.20976957409405
30
0
41
1
10
9.70374116626306
20
2.21625272999992
30
0
41
1
10
10.0628729637483
20
2.22633458581518
30
0
41
1
10
10.2387657990209
20
2.22993178694327
30
0
41
1
10
10.7565359080686
20
2.23013356043276
30
0
41
1
10
11.0883235256193
20
2.21587947961089
30
0
41
1
10
11.4123375099793
20
2.17082852382904
30
0
0
SPLINE
5
E9
100
AcDbEntity
8
1
62
256
6
ByLayer
370
18
48
1
60
0
100
AcDbSpline
70
4
71
3
72
22
73
18
40
0
40
0
40
0
40
0
40
0.13473931025115
40
0.13473931025115
40
0.269478620502299
40
0.269478620502299
40
0.404217930753449
40
0.404217930753449
40
0.538957241004599
40
0.538957241004599
40
0.673696551255749
40
0.673696551255749
40
0.808435861506898
40
0.808435861506898
40
0.943175171758048
40
0.943175171758048
40
1
40
1
40
1
40
1
41
1
10
18.69279089407
20
0.852240657350166
30
0
41
1
10
18.5416529424275
20
0.961148040449416
30
0
41
1
10
18.3896535989208
20
1.06649334134158
30
0
41
1
10
18.0836965841872
20
1.26945260756761
30
0
41
1
10
17.9321191833433
20
1.36523270169471
30
0
41
1
10
17.6294694269158
20
1.5434892341199
30
0
41
1
10
17.4788494289076
20
1.62642557156468
30
0
41
1
10
17.1772434970022
20
1.77829284327481
30
0
41
1
10
17.025933073914
20
1.84699116957157
30
0
41
1
10
16.7220762793748
20
1.96946988017041
30
0
41
1
10
16.5687395014384
20
2.02314675956026
30
0
41
1
10
16.2647620223672
20
2.11168727713823
30
0
41
1
10
16.1138638821498
20
2.14710446952444
30
0
41
1
10
15.8122244078841
20
2.19971532692904
30
0
41
1
10
15.6612641559633
20
2.21690491530654
30
0
41
1
10
15.446272652344
20
2.22824733262613
30
0
41
1
10
15.3823628344055
20
2.22995716393061
30
0
41
1
10
15.3182995598345
20
2.22999456916332
30
0
0
SPLINE
5
EA
100
AcDbEntity
8
1
62
256
6
ByLayer
370
18
48
1
60
0
100
AcDbSpline
70
4
71
3
72
44
73
40
40
0
40
0
40
0
40
0
40
0.0624999999999987
40
0.0624999999999987
40
0.124999999999997
40
0.124999999999997
40
0.187499999999996
40
0.187499999999996
40
0.218749999999995
40
0.218749999999995
40
0.249999999999995
40
0.249999999999995
40
0.312499999999993
40
0.312499999999993
40
0.374999999999992
40
0.374999999999992
40
0.406249999999992
40
0.406249999999992
40
0.437499999999992
40
0.437499999999992
40
0.499999999999993
40
0.499999999999993
40
0.562499999999993
40
0.562499999999993
40
0.624999999999993
40
0.624999999999993
40
0.687499999999993
40
0.687499999999993
40
0.749999999999994
40
0.749999999999994
40
0.812499999999994
40
0.812499999999994
40
0.843749999999995
40
0.843749999999995
40
0.874999999999996
40
0.874999999999996
40
0.937499999999998
40
0.937499999999998
40
1
40
1
40
1
40
1
41
1
10
11.4123375099793
20
2.17082852382904
30
0
41
1
10
11.5709990442635
20
2.14212057991571
30
0
41
1
10
11.7298889229955
20
2.10401675128341
30
0
41
1
10
12.0456057575279
20
2.00928090478692
30
0
41
1
10
12.20218711923
20
1.95228599925764
30
0
41
1
10
12.5175448043476
20
1.82201064024886
30
0
41
1
10
12.6751608976743
20
1.7480081750787
30
0
41
1
10
12.913126039575
20
1.62446941613615
30
0
41
1
10
12.9931154247011
20
1.58124522492631
30
0
41
1
10
13.152438873949
20
1.49173816552619
30
0
41
1
10
13.2317820553968
20
1.44537119816889
30
0
41
1
10
13.4686833265924
20
1.30127995226113
30
0
41
1
10
13.6258266258219
20
1.19927679249523
30
0
41
1
10
13.9409697239708
20
0.986291038606595
30
0
41
1
10
14.0978426940482
20
0.874000808991354
30
0
41
1
10
14.3351602484612
20
0.700324270890064
30
0
41
1
10
14.414646492105
20
0.641629943297517
30
0
41
1
10
14.5740793847822
20
0.522219239586832
30
0
41
1
10
14.6538397989674
20
0.461491882185953
30
0
41
1
10
14.8914766163656
20
0.278761058560434
30
0
41
1
10
15.0493474109941
20
0.156570382935769
30
0
41
1
10
15.364340979042
20
-0.0881068776374718
30
0
41
1
10
15.5208911168841
20
-0.211333842632001
30
0
41
1
10
15.8366949668402
20
-0.453593290157698
30
0
41
1
10
15.995148394169
20
-0.574007568486593
30
0
41
1
10
16.3137154471786
20
-0.810569581432219
30
0
41
1
10
16.4724318372897
20
-0.923669324753774
30
0
41
1
10
16.7875114128095
20
-1.14143676292943
30
0
41
1
10
16.9443484699007
20
-1.24546632917057
30
0
41
1
10
17.2596923228401
20
-1.44060528833
30
0
41
1
10
17.4170267894868
20
-1.53292613443071
30
0
41
1
10
17.6551912513
20
-1.66061034946651
30
0
41
1
10
17.7352697318244
20
-1.70138717460023
30
0
41
1
10
17.8945541307654
20
-1.7786436822814
30
0
41
1
10
17.9737774505607
20
-1.81522378488438
30
0
41
1
10
18.2105336204824
20
-1.91857908728363
30
0
41
1
10
18.3679542829135
20
-1.97841121566208
30
0
41
1
10
18.6829274521134
20
-2.07981902301074
30
0
41
1
10
18.8396713359256
20
-2.1217105726648
30
0
41
1
10
18.9980044277286
20
-2.15360687092749
30
0
0
SPLINE
5
EB
100
AcDbEntity
8
1
62
256
6
ByLayer
370
18
48
1
60
0
100
AcDbSpline
70
4
71
3
72
8
73
4
40
0
40
0
40
0
40
0
40
1
40
1
40
1
40
1
41
1
10
20.001438469977
20
-1.63738644767685
30
0
41
1
10
19.8822245559903
20
-1.63654729164446
30
0
41
1
10
19.7626198350139
20
-1.6314009187453
30
0
41
1
10
19.6428550182184
20
-1.62212325543717
30
0
0
SPLINE
5
EC
100
AcDbEntity
8
1
62
256
6
ByLayer
370
18
48
1
60
0
100
AcDbSpline
70
4
71
3
72
60
73
56
40
0
40
0
40
0
40
0
40
0.0338810756824439
40
0.0338810756824439
40
0.0677621513648878
40
0.0677621513648878
40
0.101643227047332
40
0.101643227047332
40
0.135524302729776
40
0.135524302729776
40
0.16940537841222
40
0.16940537841222
40
0.203286454094664
40
0.203286454094664
40
0.271048605459551
40
0.271048605459551
40
0.304929681141995
40
0.304929681141995
40
0.338810756824439
40
0.338810756824439
40
0.372691832506883
40
0.372691832506883
40
0.406572908189327
40
0.406572908189327
40
0.440453983871771
40
0.440453983871771
40
0.474335059554215
40
0.474335059554215
40
0.508216135236659
40
0.508216135236659
40
0.542097210919103
40
0.542097210919103
40
0.609859362283989
40
0.609859362283989
40
0.643740437966432
40
0.643740437966432
40
0.677621513648875
40
0.677621513648875
40
0.711502589331318
40
0.711502589331318
40
0.745383665013761
40
0.745383665013761
40
0.779264740696204
40
0.779264740696204
40
0.813145816378647
40
0.813145816378647
40
0.880907967743533
40
0.880907967743533
40
0.914789043425976
40
0.914789043425976
40
0.948670119108419
40
0.948670119108419
40
0.982551194790862
40
0.982551194790862
40
1
40
1
40
1
40
1
41
1
10
20.0357440098798
20
1.63750888149312
30
0
41
1
10
20.1345697415468
20
1.63248508472481
30
0
41
1
10
20.2330023373506
20
1.6245021643829
30
0
41
1
10
20.4299431264683
20
1.60302314074289
30
0
41
1
10
20.5283416719735
20
1.58952729562841
30
0
41
1
10
20.7245311144778
20
1.55681153138758
30
0
41
1
10
20.8223615631379
20
1.53756953414606
30
0
41
1
10
21.0185186927231
20
1.49393959215018
30
0
41
1
10
21.1168853793331
20
1.46962263392709
30
0
41
1
10
21.3137025707901
20
1.4156114412624
30
0
41
1
10
21.4120574275281
20
1.38579567094914
30
0
41
1
10
21.6095239680327
20
1.32119017067504
30
0
41
1
10
21.7089082072132
20
1.28652336687713
30
0
41
1
10
22.0075022453611
20
1.17567270260312
30
0
41
1
10
22.204964877398
20
1.09203272796665
30
0
41
1
10
22.5027556260999
20
0.957132317042607
30
0
41
1
10
22.6020862352183
20
0.910355922826085
30
0
41
1
10
22.8007077088346
20
0.812822740651796
30
0
41
1
10
22.8997771190655
20
0.762426986831002
30
0
41
1
10
23.0975192761712
20
0.66032352958257
30
0
41
1
10
23.1962219436263
20
0.608398722487181
30
0
41
1
10
23.3928179533848
20
0.502021867208725
30
0
41
1
10
23.4907331148827
20
0.447597362668347
30
0
41
1
10
23.6868267447311
20
0.338037899842021
30
0
41
1
10
23.7850596624347
20
0.283005953597836
30
0
41
1
10
23.9814203182269
20
0.171616894319129
30
0
41
1
10
24.0794438827289
20
0.115068611554676
30
0
41
1
10
24.2759913454667
20
0.0016821402205096
30
0
41
1
10
24.374660110609
20
-0.0548902244178748
30
0
41
1
10
24.5727142515428
20
-0.167920964161652
30
0
41
1
10
24.6721618290323
20
-0.224784545601864
30
0
41
1
10
24.9697418435645
20
-0.394244814377743
30
0
41
1
10
25.1681918952164
20
-0.503512895474216
30
0
41
1
10
25.4653646427096
20
-0.662903239688319
30
0
41
1
10
25.5644597073527
20
-0.715176322468011
30
0
41
1
10
25.7633762826015
20
-0.816286201515567
30
0
41
1
10
25.8627899834508
20
-0.865126171274852
30
0
41
1
10
26.0610237963747
20
-0.960147085397637
30
0
41
1
10
26.159846392738
20
-1.00629572381393
30
0
41
1
10
26.3579767449845
20
-1.09435063432255
30
0
41
1
10
26.4573493435023
20
-1.1361976838993
30
0
41
1
10
26.6562275419914
20
-1.21616736815613
30
0
41
1
10
26.755340272841
20
-1.25427966360809
30
0
41
1
10
26.9527221215988
20
-1.32539353954431
30
0
41
1
10
27.0512907007239
20
-1.35831414705427
30
0
41
1
10
27.3465365784543
20
-1.44955792244431
30
0
41
1
10
27.5418401281175
20
-1.5010298075461
30
0
41
1
10
27.8363776237954
20
-1.56120094937978
30
0
41
1
10
27.9346661266778
20
-1.57857443412269
30
0
41
1
10
28.1311828197184
20
-1.60796681544233
30
0
41
1
10
28.2295212324897
20
-1.61989859470438
30
0
41
1
10
28.4273355702909
20
-1.63783970450885
30
0
41
1
10
28.5269849160522
20
-1.64391785576962
30
0
41
1
10
28.6773336889107
20
-1.64866868890124
30
0
41
1
10
28.7283052179988
20
-1.64949515734463
30
0
41
1
10
28.7792115484644
20
-1.64953566564051
30
0
0
SPLINE
5
ED
100
AcDbEntity
8
1
62
256
6
ByLayer
370
18
48
1
60
0
100
AcDbSpline
70
4
71
3
72
8
73
4
40
0
40
0
40
0
40
0
40
1
40
1
40
1
40
1
41
1
10
29.99994101974
20
0.0321470667747121
30
0
41
1
10
30.0000196742461
20
0.0107118299237356
30
0
41
1
10
30.0000196449362
20
-0.0107198175491305
30
0
41
1
10
29.9999410197402
20
-0.0321470667403787
30
0
0
SPLINE
5
EE
100
AcDbEntity
8
1
62
256
6
ByLayer
370
18
48
1
60
0
100
AcDbSpline
70
4
71
3
72
36
73
32
40
0
40
0
40
0
40
0
40
0.0072878926241556
40
0.0072878926241556
40
0.170547099942599
40
0.170547099942599
40
0.25217670360182
40
0.25217670360182
40
0.333806307261042
40
0.333806307261042
40
0.497065514579485
40
0.497065514579485
40
0.660324721897928
40
0.660324721897928
40
0.665426572126629
40
0.665426572126629
40
0.670528422355331
40
0.670528422355331
40
0.675630272584032
40
0.675630272584032
40
0.680732122812733
40
0.701139523727539
40
0.741954325557149
40
0.741954325557149
40
0.823583929216371
40
0.823583929216371
40
0.905213532875592
40
0.905213532875592
40
0.986843136534814
40
0.986843136534814
40
1
40
1
40
1
40
1
41
1
10
11.4123375099793
20
2.17082852383268
30
0
41
1
10
11.4123375099793
20
2.16389339447412
30
0
41
1
10
11.4123375099793
20
2.15694997846748
30
0
41
1
10
11.4123375099793
20
1.99428942680976
30
0
41
1
10
11.4123375099794
20
1.83373302464875
30
0
41
1
10
11.4123375099794
20
1.58650585396344
30
0
41
1
10
11.4123375099794
20
1.50283349545703
30
0
41
1
10
11.4123375099794
20
1.33645053865703
30
0
41
1
10
11.4123375099794
20
1.25337222906953
30
0
41
1
10
11.4123375099794
20
1.00445203953856
30
0
41
1
10
11.4123375099794
20
0.838922578926002
30
0
41
1
10
11.4123375099794
20
0.508638113618758
30
0
41
1
10
11.4123375099794
20
0.343614457509204
30
0
41
1
10
11.4123375099794
20
0.177135659783261
30
0
41
1
10
11.4123375099794
20
0.172070604292202
30
0
41
1
10
11.4123375099794
20
0.162512128736836
30
0
41
1
10
11.4123375099794
20
0.158079198408728
30
0
41
1
10
11.4123375099794
20
0.150289282838912
30
0
41
1
10
11.4123375099794
20
0.147040193223432
30
0
41
1
10
11.4123375099794
20
0.140248462600255
30
0
41
1
10
11.4123375099794
20
0.123327160907422
30
0
41
1
10
11.4123375099794
20
0.0800871614891889
30
0
41
1
10
11.4123375099794
20
0.0418569982365398
30
0
41
1
10
11.4123375099794
20
-0.0323161881021008
30
0
41
1
10
11.4123375099794
20
-0.0787222484793233
30
0
41
1
10
11.4123375099794
20
-0.165075850670206
30
0
41
1
10
11.4123375099794
20
-0.205026198145703
30
0
41
1
10
11.4123375099794
20
-0.277849093805202
30
0
41
1
10
11.4123375099794
20
-0.310507899670256
30
0
41
1
10
11.4123375099794
20
-0.343307158877877
30
0
41
1
10
11.4123375099794
20
-0.347748991315228
30
0
41
1
10
11.4123375099794
20
-0.352078476160926
30
0
0
SPLINE
5
EF
100
AcDbEntity
8
1
62
256
6
ByLayer
370
18
48
1
60
0
100
AcDbSpline
70
4
71
3
72
10
73
6
40
0
40
0
40
0
40
0
40
0.770690284984515
40
0.770690284984515
40
1
40
1
40
1
40
1
41
1
10
11.4123375099794
20
-0.429799463064967
30
0
41
1
10
11.4123375099794
20
-0.439854904357787
30
0
41
1
10
11.4123375099793
20
-0.447974981082524
30
0
41
1
10
11.4123375099793
20
-0.455759499426534
30
0
41
1
10
11.4123375099794
20
-0.457357911946417
30
0
41
1
10
11.4123375099794
20
-0.458767463064959
30
0
0
SPLINE
5
F0
100
AcDbEntity
8
1
62
256
6
ByLayer
370
18
48
1
60
0
100
AcDbSpline
70
4
71
3
72
10
73
6
40
0
40
0
40
0
40
0
40
0.5
40
0.5
40
1
40
1
40
1
40
1
41
1
10
19.3591479033326
20
0.179866339317499
30
0
41
1
10
19.2394404560792
20
0.261919257356197
30
0
41
1
10
19.1258303213654
20
0.36096620049122
30
0
41
1
10
18.9046546180996
20
0.587138588233188
30
0
41
1
10
18.7966477218658
20
0.715364197594511
30
0
41
1
10
18.6927908940887
20
0.852240657326291
30
0
0
SPLINE
5
F1
100
AcDbEntity
8
1
62
256
6
ByLayer
370
18
48
1
60
0
100
AcDbSpline
70
4
71
3
72
32
73
28
40
0
40
0
40
0
40
0
40
0.0342811808737157
40
0.0342811808737157
40
0.108567243883429
40
0.108567243883429
40
0.182853306893143
40
0.182853306893143
40
0.257139369902857
40
0.257139369902857
40
0.33142543291257
40
0.33142543291257
40
0.405711495922284
40
0.405711495922284
40
0.479997558931998
40
0.479997558931998
40
0.554283621941712
40
0.554283621941712
40
0.628569684951425
40
0.628569684951425
40
0.702855747961139
40
0.702855747961139
40
0.851427873980568
40
0.851427873980568
40
0.925713936990284
40
0.925713936990284
40
1
40
1
40
1
40
1
41
1
10
17.5367923400534
20
-1.59284052766523
30
0
41
1
10
17.4671911766175
20
-1.63078492613616
30
0
41
1
10
17.3976383021608
20
-1.66731771242419
30
0
41
1
10
17.1772434970034
20
-1.77829284327424
30
0
41
1
10
17.0259330739152
20
-1.84699116957103
30
0
41
1
10
16.7220762793759
20
-1.96946988016998
30
0
41
1
10
16.5687395014395
20
-2.02314675955989
30
0
41
1
10
16.2647620223682
20
-2.11168727713795
30
0
41
1
10
16.1138638821508
20
-2.14710446952424
30
0
41
1
10
15.812224407885
20
-2.19971532692892
30
0
41
1
10
15.6612641559643
20
-2.21690491530646
30
0
41
1
10
15.3588296070408
20
-2.2328606103363
30
0
41
1
10
15.2068500146537
20
-2.23153505669583
30
0
41
1
10
14.9008897949697
20
-2.20980555473378
30
0
41
1
10
14.7493960389642
20
-2.18951020127446
30
0
41
1
10
14.4470762084756
20
-2.1311215536617
30
0
41
1
10
14.2961731446512
20
-2.09311368167843
30
0
41
1
10
13.9945140500835
20
-1.9996880182845
30
0
41
1
10
13.8434047628832
20
-1.94441864703705
30
0
41
1
10
13.5391556040396
20
-1.81735936808582
30
0
41
1
10
13.3859469355454
20
-1.74496916553696
30
0
41
1
10
12.9304378400791
20
-1.50944590855585
30
0
41
1
10
12.6301834235086
20
-1.3261275217742
30
0
41
1
10
12.176041857052
20
-1.0210280503843
30
0
41
1
10
12.0240791604525
20
-0.91376450955363
30
0
41
1
10
11.718287598748
20
-0.691491201532472
30
0
41
1
10
11.5653108464583
20
-0.57768812927921
30
0
41
1
10
11.4123375099794
20
-0.461112251811755
30
0
0
SPLINE
5
F2
100
AcDbEntity
8
1
62
256
6
ByLayer
370
18
48
1
60
0
100
AcDbSpline
70
4
71
3
72
14
73
10
40
0
40
0
40
0
40
0
40
0.25
40
0.25
40
0.5
40
0.5
40
0.75
40
0.75
40
1
40
1
40
1
40
1
41
1
10
29.3131919757195
20
-1.225396916021
30
0
41
1
10
29.312741284022
20
-1.2802678135742
30
0
41
1
10
29.3147027335884
20
-1.32884582994444
30
0
41
1
10
29.3235788524814
20
-1.41362323232548
30
0
41
1
10
29.3306092339079
20
-1.45004741942717
30
0
41
1
10
29.3496053643091
20
-1.50793238867917
30
0
41
1
10
29.3615346956447
20
-1.52968975791529
30
0
41
1
10
29.3905699341744
20
-1.55923183008593
30
0
41
1
10
29.4077982900073
20
-1.56695618575151
30
0
41
1
10
29.427499950403
20
-1.56744424054418
30
0
0
SPLINE
5
F3
100
AcDbEntity
8
1
62
256
6
ByLayer
370
13
48
1
60
0
100
AcDbSpline
70
4
71
3
72
28
73
24
40
0
40
0
40
0
40
0
40
0.168328974153147
40
0.168328974153147
40
0.25249346122972
40
0.25249346122972
40
0.294575704768005
40
0.294575704768005
40
0.336657948306289
40
0.336657948306289
40
0.504986922459423
40
0.504986922459423
40
0.58915140953599
40
0.58915140953599
40
0.673315896612556
40
0.673315896612556
40
0.757480383689123
40
0.757480383689123
40
0.799562627227408
40
0.799562627227408
40
0.841644870765692
40
0.841644870765692
40
1
40
1
40
1
40
1
41
1
10
29.4274999528031
20
-1.5674442405421
30
0
41
1
10
29.01694947669
20
-1.56604937211137
30
0
41
1
10
28.6119396177954
20
-1.51610122617842
30
0
41
1
10
28.0010674937205
20
-1.37575857966803
30
0
41
1
10
27.7967878650885
20
-1.31804918109697
30
0
41
1
10
27.4879453425715
20
-1.21605050424742
30
0
41
1
10
27.3849040157597
20
-1.17959125783338
30
0
41
1
10
27.1799450454409
20
-1.10272770402011
30
0
41
1
10
27.0777922405918
20
-1.06224324935025
30
0
41
1
10
26.5680016528925
20
-0.850622353013165
30
0
41
1
10
26.163435348953
20
-0.651564597851348
30
0
41
1
10
25.5488123910004
20
-0.328925312617741
30
0
41
1
10
25.3418731326139
20
-0.217065704593153
30
0
41
1
10
24.9321763280893
20
0.005934315095999
30
0
41
1
10
24.7285105174396
20
0.117769421536821
30
0
41
1
10
24.3212234907523
20
0.337862209478686
30
0
41
1
10
24.1175766344796
20
0.446041663165119
30
0
41
1
10
23.8106666037215
20
0.602916330479076
30
0
41
1
10
23.7080975082951
20
0.654259907639528
30
0
41
1
10
23.5021450674316
20
0.754515379989243
30
0
41
1
10
23.3989486686743
20
0.803390322199618
30
0
41
1
10
22.9102655983814
20
1.02726972677576
30
0
41
1
10
22.5285382674539
20
1.17852152532967
30
0
41
1
10
22.1443606244113
20
1.29556692612172
30
0
0
SPLINE
5
F4
100
AcDbEntity
8
1
62
256
6
ByLayer
370
18
48
1
60
0
100
AcDbSpline
70
4
71
3
72
10
73
6
40
0
40
0
40
0
40
0
40
0.5
40
0.5
40
1
40
1
40
1
40
1
41
1
10
29.4246382150187
20
0.453315625584366
30
0
41
1
10
29.5156854578243
20
0.452513415281629
30
0
41
1
10
29.6066682758156
20
0.452122948459618
30
0
41
1
10
29.7885450655781
20
0.451909837204227
30
0
41
1
10
29.879421019526
20
0.452202345936541
30
0
41
1
10
29.9701202762861
20
0.453624138717998
30
0
0
SPLINE
5
F5
100
AcDbEntity
8
1
62
256
6
ByLayer
370
18
48
1
60
0
100
AcDbSpline
70
4
71
3
72
22
73
18
40
0
40
0
40
0
40
0
40
0.125
40
0.125
40
0.25
40
0.25
40
0.375
40
0.375
40
0.500000000000001
40
0.500000000000001
40
0.625
40
0.625
40
0.75
40
0.75
40
0.875
40
0.875
40
1
40
1
40
1
40
1
41
1
10
19.6147224525564
20
-1.58213320951214
30
0
41
1
10
19.6147224525564
20
-1.56149055692484
30
0
41
1
10
19.6147224525564
20
-1.53329152637559
30
0
41
1
10
19.6147224525564
20
-1.46248376202908
30
0
41
1
10
19.6147224525564
20
-1.41965697739073
30
0
41
1
10
19.6147224525564
20
-1.31961643939806
30
0
41
1
10
19.6147224525564
20
-1.26351370405556
30
0
41
1
10
19.6147224525564
20
-1.13963253201334
30
0
41
1
10
19.6147224525564
20
-1.07145941579981
30
0
41
1
10
19.6147224525564
20
-0.924430885695585
30
0
41
1
10
19.6147224525564
20
-0.846932470522148
30
0
41
1
10
19.6147224525563
20
-0.684348247177809
30
0
41
1
10
19.6147224525564
20
-0.598687070446232
30
0
41
1
10
19.6147224525563
20
-0.421811757490929
30
0
41
1
10
19.6147224525564
20
-0.331959892699331
30
0
41
1
10
19.6147224525564
20
-0.149535678444437
30
0
41
1
10
19.6147224525563
20
-0.056293015988615
30
0
41
1
10
19.6147224525563
20
0.0368214684775694
30
0
0
SPLINE
5
F6
100
AcDbEntity
8
1
62
256
6
ByLayer
370
18
48
1
60
0
100
AcDbSpline
70
4
71
3
72
8
73
4
40
0
40
0
40
0
40
0
40
1
40
1
40
1
40
1
41
1
10
29.4236700347526
20
1.64679625502177
30
0
41
1
10
29.3643451394023
20
1.64887490916391
30
0
41
1
10
29.3049624641868
20
1.64988058011849
30
0
41
1
10
29.2455613531042
20
1.64982131524965
30
0
0
SPLINE
5
F7
100
AcDbEntity
8
1
62
256
6
ByLayer
370
18
48
1
60
0
100
AcDbSpline
70
4
71
3
72
10
73
6
40
0
40
0
40
0
40
0
40
0.477652705951235
40
0.477652705951235
40
1
40
1
40
1
40
1
41
1
10
21.1555059617954
20
-1.56276807003317
30
0
41
1
10
20.975244356473
20
-1.59492568792169
30
0
41
1
10
20.7951013725209
20
-1.6177432985279
30
0
41
1
10
20.4193013429668
20
-1.64518311541826
30
0
41
1
10
20.2232407275901
20
-1.64801078143162
30
0
41
1
10
20.0263932578796
20
-1.63919480033701
30
0
0
SPLINE
5
F8
100
AcDbEntity
8
1
62
256
6
ByLayer
370
18
48
1
60
0
100
AcDbSpline
70
4
71
3
72
24
73
20
40
0
40
0
40
0
40
0
40
0.0625000000000009
40
0.0625000000000009
40
0.125000000000002
40
0.125000000000002
40
0.250000000000009
40
0.250000000000009
40
0.312500000000013
40
0.312500000000013
40
0.375000000000016
40
0.375000000000016
40
0.500000000000013
40
0.500000000000013
40
0.62500000000001
40
0.62500000000001
40
0.750000000000007
40
0.750000000000007
40
1
40
1
40
1
40
1
41
1
10
27.9028518901641
20
0.418570299414625
30
0
41
1
10
27.9067864917083
20
0.371108898333148
30
0
41
1
10
27.9138216155169
20
0.323601022334344
30
0
41
1
10
27.9337423954022
20
0.228497574463802
30
0
41
1
10
27.9467211730776
20
0.180632902201552
30
0
41
1
10
27.9935343972117
20
0.0387565438838635
30
0
41
1
10
28.0342570917959
20
-0.051437312373082
30
0
41
1
10
28.1063226523856
20
-0.181660440182497
30
0
41
1
10
28.1322432644012
20
-0.224227334223599
30
0
41
1
10
28.186308502099
20
-0.306128215265915
30
0
41
1
10
28.2145834490843
20
-0.345708970365166
30
0
41
1
10
28.3026503502059
20
-0.460876815660527
30
0
41
1
10
28.3656590390744
20
-0.532917407522405
30
0
41
1
10
28.4987386708186
20
-0.669212350178071
30
0
41
1
10
28.5680974469392
20
-0.732697774397423
30
0
41
1
10
28.7095166712952
20
-0.850764919258808
30
0
41
1
10
28.7818850247145
20
-0.905641277083731
30
0
41
1
10
29.0031699110449
20
-1.05979467565243
30
0
41
1
10
29.1569941085043
20
-1.14911309663822
30
0
41
1
10
29.3131919757195
20
-1.225396916021
30
0
0
SPLINE
5
F9
100
AcDbEntity
8
1
62
256
6
ByLayer
370
18
48
1
60
0
100
AcDbSpline
70
4
71
3
72
36
73
32
40
0
40
0
40
0
40
0
40
0.0639928267122267
40
0.0639928267122267
40
0.127985653424453
40
0.127985653424453
40
0.255971306848904
40
0.255971306848904
40
0.287967720205018
40
0.287967720205018
40
0.319964133561134
40
0.319964133561134
40
0.383956960273365
40
0.383956960273365
40
0.447949786985597
40
0.447949786985597
40
0.511942613697829
40
0.511942613697829
40
0.639928267122294
40
0.639928267122294
40
0.671924680478411
40
0.671924680478411
40
0.703921093834527
40
0.703921093834527
40
0.767913920546758
40
0.767913920546758
40
0.89589957397122
40
0.89589957397122
40
0.95989240068345
40
0.95989240068345
40
1
40
1
40
1
40
1
41
1
10
29.4236700347526
20
-1.64679625502177
30
0
41
1
10
29.2267694361942
20
-1.65369535264961
30
0
41
1
10
29.0292323402346
20
-1.64877457134429
30
0
41
1
10
28.6357621454924
20
-1.61588170662659
30
0
41
1
10
28.4404779643467
20
-1.5880398461654
30
0
41
1
10
27.8561074988635
20
-1.4724301875429
30
0
41
1
10
27.4683572021898
20
-1.35258614187947
30
0
41
1
10
26.9756563367204
20
-1.15728564794506
30
0
41
1
10
26.8769786536615
20
-1.11605788427627
30
0
41
1
10
26.6807119087895
20
-1.0303306905904
30
0
41
1
10
26.5828782428173
20
-0.985749122853008
30
0
41
1
10
26.289969725473
20
-0.847354205338348
30
0
41
1
10
26.0956063999023
20
-0.748700593964429
30
0
41
1
10
25.7062799022667
20
-0.542415328663395
30
0
41
1
10
25.5113205984953
20
-0.434788736340209
30
0
41
1
10
25.1188108136506
20
-0.213828091756284
30
0
41
1
10
24.9206859579416
20
-0.100132490832465
30
0
41
1
10
24.3331734729496
20
0.237885078331317
30
0
41
1
10
23.9457976678972
20
0.460041363664942
30
0
41
1
10
23.4570175179308
20
0.716655107404733
30
0
41
1
10
23.3590684539977
20
0.766981209656848
30
0
41
1
10
23.1624647743537
20
0.865091756412454
30
0
41
1
10
23.0635482506321
20
0.912962123977678
30
0
41
1
10
22.7683497131741
20
1.05063323311134
30
0
41
1
10
22.5730565266166
20
1.13500633026496
30
0
41
1
10
21.9883424087818
20
1.36215969967245
30
0
41
1
10
21.6004069780858
20
1.47934682140127
30
0
41
1
10
21.0089623985084
20
1.59057051589682
30
0
41
1
10
20.8118976000316
20
1.61651688721645
30
0
41
1
10
20.4925693274785
20
1.63983330189782
30
0
41
1
10
20.3696324827768
20
1.64429706196569
30
0
41
1
10
20.2465367392271
20
1.64420725707379
30
0
0
SPLINE
5
FA
100
AcDbEntity
8
1
62
256
6
ByLayer
370
18
48
1
60
0
100
AcDbSpline
70
4
71
3
72
8
73
4
40
0
40
0
40
0
40
0
40
1
40
1
40
1
40
1
41
1
10
20.0357440098799
20
1.63750888149377
30
0
41
1
10
19.9051757716569
20
1.63749686787344
30
0
41
1
10
19.7741115413932
20
1.63229113162649
30
0
41
1
10
19.6428550182184
20
1.62212325543717
30
0
0
SPLINE
5
FB
100
AcDbEntity
8
1
62
256
6
ByLayer
370
18
48
1
60
0
100
AcDbSpline
70
4
71
3
72
10
73
6
40
0
40
0
40
0
40
0
40
0.5
40
0.5
40
1
40
1
40
1
40
1
41
1
10
29.514929762743
20
-1.5959663826653
30
0
41
1
10
29.4980373509966
20
-1.60940964515396
30
0
41
1
10
29.4817639869469
20
-1.62057897951186
30
0
41
1
10
29.4512747183921
20
-1.63758907795921
30
0
41
1
10
29.4370105652715
20
-1.6434923272158
30
0
41
1
10
29.4236700347527
20
-1.64679625502177
30
0
0
SPLINE
5
FC
100
AcDbEntity
8
1
62
256
6
ByLayer
370
18
48
1
60
0
100
AcDbSpline
70
4
71
3
72
8
73
4
40
0
40
0
40
0
40
0
40
1
40
1
40
1
40
1
41
1
10
29.9899497974895
20
0.0954598530153419
30
0
41
1
10
29.9905796632956
20
0.0777735826137018
30
0
41
1
10
29.9944246069319
20
0.0554676250974921
30
0
41
1
10
29.99994101974
20
0.0321470667747406
30
0
0
SPLINE
5
FD
100
AcDbEntity
8
1
62
256
6
ByLayer
370
18
48
1
60
0
100
AcDbSpline
70
4
71
3
72
34
73
30
40
0
40
0
40
0
40
0
40
0.0124799192851885
40
0.0124799192851885
40
0.0708647090348349
40
0.0708647090348349
40
0.187634288534134
40
0.187634288534134
40
0.246019078283788
40
0.246019078283788
40
0.275211473158611
40
0.275211473158611
40
0.289807670596022
40
0.289807670596022
40
0.297105769314728
40
0.297105769314728
40
0.304403868033434
40
0.304403868033434
40
0.319000065470837
40
0.319000065470837
40
0.33359626290824
40
0.362788657783045
40
0.421173447532648
40
0.421173447532648
40
0.537943027031863
40
0.537943027031863
40
0.771482186030301
40
0.771482186030301
40
1
40
1
40
1
40
1
41
1
10
8.1758106427381
20
-2.22999427043902
30
0
41
1
10
8.18212081591392
20
-2.22997739802699
30
0
41
1
10
8.18854158439689
20
-2.22991825465388
30
0
41
1
10
8.22555175691608
20
-2.22936146483008
30
0
41
1
10
8.25837788637534
20
-2.22806229729002
30
0
41
1
10
8.36259773559104
20
-2.22242179395002
30
0
41
1
10
8.43965278852554
20
-2.21636105789557
30
0
41
1
10
8.56023011206162
20
-2.20603843135265
30
0
41
1
10
8.60146685715304
20
-2.20236420908137
30
0
41
1
10
8.66434070819173
20
-2.19668451068753
30
0
41
1
10
8.6854757617229
20
-2.19476211290728
30
0
41
1
10
8.71742543563511
20
-2.19184968954926
30
0
41
1
10
8.7281621728589
20
-2.19089320097498
30
0
41
1
10
8.74417002503722
20
-2.1893911918863
30
0
41
1
10
8.74954794570601
20
-2.18890312888118
30
0
41
1
10
8.76126824481935
20
-2.18834571928213
30
0
41
1
10
8.76724483369773
20
-2.18822837009105
30
0
41
1
10
8.7849540165407
20
-2.18829250933803
30
0
41
1
10
8.79673067322815
20
-2.18866945161287
30
0
41
1
10
8.82029760348644
20
-2.18918549662203
30
0
41
1
10
8.85563335489803
20
-2.18997788725494
30
0
41
1
10
8.93798252982219
20
-2.19195001017232
30
0
41
1
10
9.00838933533879
20
-2.19383387477026
30
0
41
1
10
9.14880055770334
20
-2.19780159625037
30
0
41
1
10
9.24193033560721
20
-2.20071697879885
30
0
41
1
10
9.51990633213771
20
-2.20976957409405
30
0
41
1
10
9.70374116626357
20
-2.21625272999992
30
0
41
1
10
10.0590121023117
20
-2.22622620040181
30
0
41
1
10
10.2312003277935
20
-2.22977643206747
30
0
41
1
10
10.4002186325668
20
-2.22998983151874
30
0
0
SPLINE
5
FE
100
AcDbEntity
8
1
62
256
6
ByLayer
370
18
48
1
60
0
100
AcDbSpline
70
4
71
1
72
4
73
2
40
0
40
0
40
1
40
1
41
1
10
19.6215547968629
20
-1.59990220995945
30
0
41
1
10
19.7678990925172
20
-1.60746325355845
30
0
0
SPLINE
5
FF
100
AcDbEntity
8
1
62
256
6
ByLayer
370
18
48
1
60
0
100
AcDbSpline
70
4
71
2
72
6
73
3
40
0
40
0
40
0
40
1
40
1
40
1
41
1
10
29.1222983644793
20
-1.55859659626088
30
0
41
1
10
29.2576976331991
20
-1.55761193367894
30
0
41
1
10
29.3926877684049
20
-1.55588121448255
30
0
0
SPLINE
5
100
100
AcDbEntity
8
1
62
256
6
ByLayer
370
18
48
1
60
0
100
AcDbSpline
70
4
71
3
72
14
73
10
40
0
40
0
40
0
40
0
40
0.14766527965496
40
0.258107137016921
40
0.354760060121086
40
0.478915200725044
40
0.649216517315941
40
0.805420598171882
40
1
40
1
40
1
40
1
41
1
10
20.3980723921876
20
-1.56198408857043
30
0
41
1
10
20.5855090737481
20
-1.5620652347406
30
0
41
1
10
20.9130661780272
20
-1.56223585805571
30
0
41
1
10
21.3635572527341
20
-1.56240554313001
30
0
41
1
10
21.7833098187073
20
-1.56285039429952
30
0
41
1
10
22.2799707281361
20
-1.56302287201052
30
0
41
1
10
22.8519049396235
20
-1.56338780617131
30
0
41
1
10
23.5125609678889
20
-1.56214936873022
30
0
41
1
10
23.956721862919
20
-1.56312874039847
30
0
41
1
10
24.2029295661173
20
-1.56394413987309
30
0
0
SPLINE
5
101
100
AcDbEntity
8
1
62
256
6
ByLayer
370
18
48
1
60
0
100
AcDbSpline
70
4
71
1
72
4
73
2
40
0
40
0
40
1
40
1
41
1
10
29.5436908597703
20
-0.793260009085827
30
0
41
1
10
29.5561342477683
20
-0.795761908799619
30
0
0
SPLINE
5
102
100
AcDbEntity
8
1
62
256
6
ByLayer
370
18
48
1
60
0
100
AcDbSpline
70
4
71
3
72
13
73
9
40
0
40
0
40
0
40
0
40
0.242524251786273
40
0.437306730695303
40
0.649647164939512
40
0.804429341306451
40
0.924918596283264
40
1
40
1
40
1
40
1
41
1
10
24.2025758907021
20
1.56394322486617
30
0
41
1
10
23.9564541797497
20
1.56312721649931
30
0
41
1
10
23.5123568714238
20
1.56214690098042
30
0
41
1
10
22.8517585753628
20
1.56338745612703
30
0
41
1
10
22.2798154111971
20
1.5630222189331
30
0
41
1
10
21.7831892690996
20
1.56285050936529
30
0
41
1
10
21.4271178206645
20
1.56247296409506
30
0
41
1
10
21.2280379516073
20
1.56236509373906
30
0
41
1
10
21.1515940026009
20
1.56232916833372
30
0
0
LINE
5
7D
100
AcDbEntity
8
SK1
62
256
6
ByLayer
370
18
48
1
60
0
100
AcDbLine
10
-36
20
2.065
30
0
11
-36
21
0.773949
31
0
39
0
210
0
220
0
230
1
0
LINE
5
7F
100
AcDbEntity
8
SK1
62
256
6
ByLayer
370
13
48
1
60
0
100
AcDbLine
10
-35.75
20
0.77727
30
0
11
-35.75
21
0.722613
31
0
39
0
210
0
220
0
230
1
0
LINE
5
80
100
AcDbEntity
8
SK1
62
256
6
ByLayer
370
18
48
1
60
0
100
AcDbLine
10
-36
20
-0.725934
30
0
11
-36
21
-2.065
31
0
39
0
210
0
220
0
230
1
0
LINE
5
81
100
AcDbEntity
8
SK1
62
256
6
ByLayer
370
18
48
1
60
0
100
AcDbLine
10
-35.65
20
-0.620927
30
0
11
-35.65
21
0.678972
31
0
39
0
210
0
220
0
230
1
0
LINE
5
82
100
AcDbEntity
8
SK1
62
256
6
ByLayer
370
18
48
1
60
0
100
AcDbLine
10
-35.065
20
3
30
0
11
-35.065
21
-3
31
0
39
0
210
0
220
0
230
1
0
LINE
5
83
100
AcDbEntity
8
SK1
62
256
6
ByLayer
370
18
48
1
60
0
100
AcDbLine
10
-36
20
0.773949
30
0
11
-36
21
0.725934
31
0
39
0
210
0
220
0
230
1
0
LINE
5
84
100
AcDbEntity
8
SK1
62
256
6
ByLayer
370
18
48
1
60
0
100
AcDbLine
10
0
20
-3
30
0
11
0
21
3
31
0
39
0
210
0
220
0
230
1
0
LINE
5
85
100
AcDbEntity
8
1
62
256
6
ByLayer
370
13
48
1
60
0
100
AcDbLine
10
1.367882
20
2.23
30
0
11
1.367882
21
-2.23
31
0
39
0
210
0
220
0
230
1
0
LINE
5
86
100
AcDbEntity
8
1
62
256
6
ByLayer
370
13
48
1
60
0
100
AcDbLine
10
0.683941
20
2.615
30
0
11
0.683941
21
-2.615
31
0
39
0
210
0
220
0
230
1
0
LINE
5
87
100
AcDbEntity
8
1
62
256
6
ByLayer
370
13
48
1
60
0
100
AcDbLine
10
29.424638
20
0.453316
30
0
11
29.98995
21
0.09546
31
0
39
0
210
0
220
0
230
1
0
LINE
5
88
100
AcDbEntity
8
1
62
256
6
ByLayer
370
18
48
1
60
0
100
AcDbLine
10
0
20
-3
30
0
11
0
21
3
31
0
39
0
210
0
220
0
230
1
0
LINE
5
89
100
AcDbEntity
8
1
62
256
6
ByLayer
370
13
48
1
60
0
100
AcDbLine
10
29.342535
20
0.385676
30
0
11
29.979069
21
-0.017265
31
0
39
0
210
0
220
0
230
1
0
LINE
5
8A
100
AcDbEntity
8
1
62
256
6
ByLayer
370
18
48
1
60
0
100
AcDbLine
10
20.030756
20
1.644082
30
0
11
20.035744
21
1.637509
31
0
39
0
210
0
220
0
230
1
0
LINE
5
8B
100
AcDbEntity
8
80
62
256
6
ByLayer
370
18
48
1
60
0
100
AcDbLine
10
0
20
0
30
0
11
-5
21
0
31
0
39
0
210
0
220
0
230
1
0
LINE
5
8C
100
AcDbEntity
8
SK4
62
256
6
ByLayer
370
18
48
0.05
60
0
100
AcDbLine
10
35
20
0
30
0
11
-41
21
0
31
0
39
0
210
0
220
0
230
1
0
LINE
5
8E
100
AcDbEntity
8
4
62
256
6
ByLayer
370
18
48
0.05
60
0
100
AcDbLine
10
30
20
0
30
0
11
0
21
0
31
0
39
0
210
0
220
0
230
1
0
LINE
5
90
100
AcDbEntity
8
SK1
62
256
6
ByLayer
370
18
48
1
60
0
100
AcDbLine
10
-35.065
20
-3
30
0
11
0
21
-3
31
0
39
0
210
0
220
0
230
1
0
LINE
5
91
100
AcDbEntity
8
SK1
62
256
6
ByLayer
370
18
48
1
60
0
100
AcDbLine
10
0
20
3
30
0
11
-35.065
21
3
31
0
39
0
210
0
220
0
230
1
0
LINE
5
92
100
AcDbEntity
8
SK1
62
256
6
ByLayer
370
18
48
1
60
0
100
AcDbLine
10
-36
20
-2.065
30
0
11
-35.065
21
-3
31
0
39
0
210
0
220
0
230
1
0
LINE
5
93
100
AcDbEntity
8
SK1
62
256
6
ByLayer
370
18
48
1
60
0
100
AcDbLine
10
-35.065
20
3
30
0
11
-36
21
2.065
31
0
39
0
210
0
220
0
230
1
0
LINE
5
94
100
AcDbEntity
8
1
62
256
6
ByLayer
370
18
48
1
60
0
100
AcDbLine
10
20.00367
20
-1.644056
30
0
11
20.245629
21
-1.644207
31
0
39
0
210
0
220
0
230
1
0
LINE
5
95
100
AcDbEntity
8
1
62
256
6
ByLayer
370
18
48
1
60
0
100
AcDbLine
10
29.246926
20
1.649833
30
0
11
28.779193
21
1.64954
31
0
39
0
210
0
220
0
230
1
0
LINE
5
96
100
AcDbEntity
8
1
62
256
6
ByLayer
370
18
48
1
60
0
100
AcDbLine
10
28.779193
20
-1.64954
30
0
11
29.246926
21
-1.649833
31
0
39
0
210
0
220
0
230
1
0
LINE
5
97
100
AcDbEntity
8
1
62
256
6
ByLayer
370
18
48
1
60
0
100
AcDbLine
10
20.245629
20
1.644207
30
0
11
20.00367
21
1.644056
31
0
39
0
210
0
220
0
230
1
0
LINE
5
98
100
AcDbEntity
8
1
62
256
6
ByLayer
370
18
48
1
60
0
100
AcDbLine
10
15.315675
20
2.23
30
0
11
10.392752
21
2.23
31
0
39
0
210
0
220
0
230
1
0
LINE
5
99
100
AcDbEntity
8
1
62
256
6
ByLayer
370
18
48
1
60
0
100
AcDbLine
10
8.184411
20
2.23
30
0
11
1.367882
21
2.23
31
0
39
0
210
0
220
0
230
1
0
LINE
5
9A
100
AcDbEntity
8
1
62
256
6
ByLayer
370
18
48
1
60
0
100
AcDbLine
10
1.367882
20
-2.23
30
0
11
8.184411
21
-2.23
31
0
39
0
210
0
220
0
230
1
0
LINE
5
9B
100
AcDbEntity
8
1
62
256
6
ByLayer
370
18
48
1
60
0
100
AcDbLine
10
10.392752
20
-2.23
30
0
11
15.315675
21
-2.23
31
0
39
0
210
0
220
0
230
1
0
LINE
5
9C
100
AcDbEntity
8
81
62
256
6
ByLayer
370
18
48
1
60
0
100
AcDbLine
10
30
20
0
30
0
11
35
21
0
31
0
39
0
210
0
220
0
230
1
0
LINE
5
9D
100
AcDbEntity
8
2
62
256
6
ByLayer
370
13
48
1
60
0
100
AcDbLine
10
52.236431
20
30.342948
30
0
11
52.236431
21
-10.98
31
0
39
0
210
0
220
0
230
1
0
LINE
5
9F
100
AcDbEntity
8
2
62
256
6
ByLayer
370
13
48
1
60
0
100
AcDbLine
10
20.6332
20
2.23
30
0
11
54.236431
21
2.23
31
0
39
0
210
0
220
0
230
1
0
LINE
5
A0
100
AcDbEntity
8
2
62
256
6
ByLayer
370
13
48
1
60
0
100
AcDbLine
10
20.6332
20
-2.23
30
0
11
54.236431
21
-2.23
31
0
39
0
210
0
220
0
230
1
0
LINE
5
A1
100
AcDbEntity
8
1
62
256
6
ByLayer
370
18
48
1
60
1
100
AcDbLine
10
52.236431
20
2.23
30
0
11
51.775647
21
5.729998
31
0
39
0
210
0
220
0
230
1
0
LINE
5
A2
100
AcDbEntity
8
1
62
256
6
ByLayer
370
18
48
1
60
1
100
AcDbLine
10
51.775647
20
5.729998
30
0
11
52.697214
21
5.730002
31
0
39
0
210
0
220
0
230
1
0
LINE
5
A3
100
AcDbEntity
8
1
62
256
6
ByLayer
370
18
48
1
60
1
100
AcDbLine
10
52.697214
20
5.730002
30
0
11
52.236431
21
2.23
31
0
39
0
210
0
220
0
230
1
0
LINE
5
A4
100
AcDbEntity
8
1
62
256
6
ByLayer
370
18
48
1
60
1
100
AcDbLine
10
52.236431
20
-2.23
30
0
11
52.697214
21
-5.729998
31
0
39
0
210
0
220
0
230
1
0
LINE
5
A5
100
AcDbEntity
8
1
62
256
6
ByLayer
370
18
48
1
60
1
100
AcDbLine
10
52.697214
20
-5.729998
30
0
11
51.775647
21
-5.730002
31
0
39
0
210
0
220
0
230
1
0
LINE
5
A6
100
AcDbEntity
8
1
62
256
6
ByLayer
370
18
48
1
60
1
100
AcDbLine
10
51.775647
20
-5.730002
30
0
11
52.236431
21
-2.23
31
0
39
0
210
0
220
0
230
1
0
LINE
5
A7
100
AcDbEntity
8
SK2
62
256
6
ByLayer
370
13
48
1
60
0
100
AcDbLine
10
-44.625163
20
32.117107
30
0
11
-44.625163
21
-11.75
31
0
39
0
210
0
220
0
230
1
0
LINE
5
A9
100
AcDbEntity
8
SK2
62
256
6
ByLayer
370
13
48
1
60
0
100
AcDbLine
10
-37.5875
20
3
30
0
11
-46.625163
21
3
31
0
39
0
210
0
220
0
230
1
0
LINE
5
AA
100
AcDbEntity
8
SK2
62
256
6
ByLayer
370
13
48
1
60
0
100
AcDbLine
10
-37.5875
20
-3
30
0
11
-46.625163
21
-3
31
0
39
0
210
0
220
0
230
1
0
LINE
5
AB
100
AcDbEntity
8
1
62
256
6
ByLayer
370
18
48
1
60
1
100
AcDbLine
10
-44.625163
20
3
30
0
11
-45.085946
21
6.499998
31
0
39
0
210
0
220
0
230
1
0
LINE
5
AC
100
AcDbEntity
8
1
62
256
6
ByLayer
370
18
48
1
60
1
100
AcDbLine
10
-45.085946
20
6.499998
30
0
11
-44.164379
21
6.500002
31
0
39
0
210
0
220
0
230
1
0
LINE
5
AD
100
AcDbEntity
8
1
62
256
6
ByLayer
370
18
48
1
60
1
100
AcDbLine
10
-44.164379
20
6.500002
30
0
11
-44.625163
21
3
31
0
39
0
210
0
220
0
230
1
0
LINE
5
AE
100
AcDbEntity
8
1
62
256
6
ByLayer
370
18
48
1
60
1
100
AcDbLine
10
-44.625163
20
-3
30
0
11
-44.164379
21
-6.499998
31
0
39
0
210
0
220
0
230
1
0
LINE
5
AF
100
AcDbEntity
8
1
62
256
6
ByLayer
370
18
48
1
60
1
100
AcDbLine
10
-44.164379
20
-6.499998
30
0
11
-45.085946
21
-6.500002
31
0
39
0
210
0
220
0
230
1
0
LINE
5
B0
100
AcDbEntity
8
1
62
256
6
ByLayer
370
18
48
1
60
1
100
AcDbLine
10
-45.085946
20
-6.500002
30
0
11
-44.625163
21
-3
31
0
39
0
210
0
220
0
230
1
0
LINE
5
B1
100
AcDbEntity
8
2
62
256
6
ByLayer
370
13
48
1
60
0
100
AcDbLine
10
43.970081
20
30.11483
30
0
11
43.970081
21
-10.4
31
0
39
0
210
0
220
0
230
1
0
LINE
5
B2
100
AcDbEntity
8
2
62
256
6
ByLayer
370
13
48
1
60
0
100
AcDbLine
10
31.1132
20
1.65
30
0
11
45.970081
21
1.65
31
0
39
0
210
0
220
0
230
1
0
LINE
5
B3
100
AcDbEntity
8
2
62
256
6
ByLayer
370
13
48
1
60
0
100
AcDbLine
10
31.1132
20
-1.65
30
0
11
45.970081
21
-1.65
31
0
39
0
210
0
220
0
230
1
0
LINE
5
B4
100
AcDbEntity
8
1
62
256
6
ByLayer
370
18
48
1
60
1
100
AcDbLine
10
43.970081
20
1.65
30
0
11
43.509297
21
5.149998
31
0
39
0
210
0
220
0
230
1
0
LINE
5
B5
100
AcDbEntity
8
1
62
256
6
ByLayer
370
18
48
1
60
1
100
AcDbLine
10
43.509297
20
5.149998
30
0
11
44.430865
21
5.150002
31
0
39
0
210
0
220
0
230
1
0
LINE
5
B6
100
AcDbEntity
8
1
62
256
6
ByLayer
370
18
48
1
60
1
100
AcDbLine
10
44.430865
20
5.150002
30
0
11
43.970081
21
1.65
31
0
39
0
210
0
220
0
230
1
0
LINE
5
B7
100
AcDbEntity
8
1
62
256
6
ByLayer
370
18
48
1
60
1
100
AcDbLine
10
43.970081
20
-1.65
30
0
11
44.430865
21
-5.149998
31
0
39
0
210
0
220
0
230
1
0
LINE
5
B8
100
AcDbEntity
8
1
62
256
6
ByLayer
370
18
48
1
60
1
100
AcDbLine
10
44.430865
20
-5.149998
30
0
11
43.509297
21
-5.150002
31
0
39
0
210
0
220
0
230
1
0
LINE
5
B9
100
AcDbEntity
8
1
62
256
6
ByLayer
370
18
48
1
60
1
100
AcDbLine
10
43.509297
20
-5.150002
30
0
11
43.970081
21
-1.65
31
0
39
0
210
0
220
0
230
1
0
LINE
5
BA
100
AcDbEntity
8
SK2
62
256
6
ByLayer
370
13
48
1
60
0
100
AcDbLine
10
17.923168
20
-3.352532
30
0
11
7.846063
21
-13.429637
31
0
39
0
210
0
220
0
230
1
0
LINE
5
BB
100
AcDbEntity
8
SK2
62
256
6
ByLayer
370
13
48
1
60
0
100
AcDbLine
10
17.923168
20
3.352532
30
0
11
7.846063
21
13.429637
31
0
39
0
210
0
220
0
230
1
0
LINE
5
BC
100
AcDbEntity
8
1
62
256
6
ByLayer
370
18
48
1
60
1
100
AcDbLine
10
9.260277
20
-12.015423
30
0
11
6.573492
21
-9.725554
31
0
39
0
210
0
220
0
230
1
0
LINE
5
BD
100
AcDbEntity
8
1
62
256
6
ByLayer
370
18
48
1
60
1
100
AcDbLine
10
6.573492
20
-9.725554
30
0
11
7.257702
21
-9.108186
31
0
39
0
210
0
220
0
230
1
0
LINE
5
BE
100
AcDbEntity
8
1
62
256
6
ByLayer
370
18
48
1
60
1
100
AcDbLine
10
7.257702
20
-9.108186
30
0
11
9.260277
21
-12.015423
31
0
39
0
210
0
220
0
230
1
0
LINE
5
BF
100
AcDbEntity
8
1
62
256
6
ByLayer
370
18
48
1
60
1
100
AcDbLine
10
9.260277
20
12.015423
30
0
11
7.257704
21
9.108189
31
0
39
0
210
0
220
0
230
1
0
LINE
5
C0
100
AcDbEntity
8
1
62
256
6
ByLayer
370
18
48
1
60
1
100
AcDbLine
10
7.257704
20
9.108189
30
0
11
6.57349
21
9.725552
31
0
39
0
210
0
220
0
230
1
0
LINE
5
C1
100
AcDbEntity
8
1
62
256
6
ByLayer
370
18
48
1
60
1
100
AcDbLine
10
6.57349
20
9.725552
30
0
11
9.260277
21
12.015423
31
0
39
0
210
0
220
0
230
1
0
LINE
5
109
100
AcDbEntity
8
1
62
256
6
ByLayer
370
18
48
1
60
1
100
AcDbLine
10
52.236431
20
2.23
30
0
11
51.775647
21
5.729998
31
0
39
0
210
0
220
0
230
1
0
LINE
5
10A
100
AcDbEntity
8
1
62
256
6
ByLayer
370
18
48
1
60
1
100
AcDbLine
10
51.775647
20
5.729998
30
0
11
52.697214
21
5.730002
31
0
39
0
210
0
220
0
230
1
0
LINE
5
10B
100
AcDbEntity
8
1
62
256
6
ByLayer
370
18
48
1
60
1
100
AcDbLine
10
52.697214
20
5.730002
30
0
11
52.236431
21
2.23
31
0
39
0
210
0
220
0
230
1
0
LINE
5
10D
100
AcDbEntity
8
1
62
256
6
ByLayer
370
18
48
1
60
1
100
AcDbLine
10
52.236431
20
-2.23
30
0
11
52.697214
21
-5.729998
31
0
39
0
210
0
220
0
230
1
0
LINE
5
10E
100
AcDbEntity
8
1
62
256
6
ByLayer
370
18
48
1
60
1
100
AcDbLine
10
52.697214
20
-5.729998
30
0
11
51.775647
21
-5.730002
31
0
39
0
210
0
220
0
230
1
0
LINE
5
10F
100
AcDbEntity
8
1
62
256
6
ByLayer
370
18
48
1
60
1
100
AcDbLine
10
51.775647
20
-5.730002
30
0
11
52.236431
21
-2.23
31
0
39
0
210
0
220
0
230
1
0
LINE
5
113
100
AcDbEntity
8
1
62
256
6
ByLayer
370
18
48
1
60
1
100
AcDbLine
10
-44.625163
20
3
30
0
11
-45.085946
21
6.499998
31
0
39
0
210
0
220
0
230
1
0
LINE
5
114
100
AcDbEntity
8
1
62
256
6
ByLayer
370
18
48
1
60
1
100
AcDbLine
10
-45.085946
20
6.499998
30
0
11
-44.164379
21
6.500002
31
0
39
0
210
0
220
0
230
1
0
LINE
5
115
100
AcDbEntity
8
1
62
256
6
ByLayer
370
18
48
1
60
1
100
AcDbLine
10
-44.164379
20
6.500002
30
0
11
-44.625163
21
3
31
0
39
0
210
0
220
0
230
1
0
LINE
5
117
100
AcDbEntity
8
1
62
256
6
ByLayer
370
18
48
1
60
1
100
AcDbLine
10
-44.625163
20
-3
30
0
11
-44.164379
21
-6.499998
31
0
39
0
210
0
220
0
230
1
0
LINE
5
118
100
AcDbEntity
8
1
62
256
6
ByLayer
370
18
48
1
60
1
100
AcDbLine
10
-44.164379
20
-6.499998
30
0
11
-45.085946
21
-6.500002
31
0
39
0
210
0
220
0
230
1
0
LINE
5
119
100
AcDbEntity
8
1
62
256
6
ByLayer
370
18
48
1
60
1
100
AcDbLine
10
-45.085946
20
-6.500002
30
0
11
-44.625163
21
-3
31
0
39
0
210
0
220
0
230
1
0
LINE
5
11D
100
AcDbEntity
8
1
62
256
6
ByLayer
370
18
48
1
60
1
100
AcDbLine
10
43.970081
20
1.65
30
0
11
43.509297
21
5.149998
31
0
39
0
210
0
220
0
230
1
0
LINE
5
11E
100
AcDbEntity
8
1
62
256
6
ByLayer
370
18
48
1
60
1
100
AcDbLine
10
43.509297
20
5.149998
30
0
11
44.430865
21
5.150002
31
0
39
0
210
0
220
0
230
1
0
LINE
5
11F
100
AcDbEntity
8
1
62
256
6
ByLayer
370
18
48
1
60
1
100
AcDbLine
10
44.430865
20
5.150002
30
0
11
43.970081
21
1.65
31
0
39
0
210
0
220
0
230
1
0
LINE
5
121
100
AcDbEntity
8
1
62
256
6
ByLayer
370
18
48
1
60
1
100
AcDbLine
10
43.970081
20
-1.65
30
0
11
44.430865
21
-5.149998
31
0
39
0
210
0
220
0
230
1
0
LINE
5
122
100
AcDbEntity
8
1
62
256
6
ByLayer
370
18
48
1
60
1
100
AcDbLine
10
44.430865
20
-5.149998
30
0
11
43.509297
21
-5.150002
31
0
39
0
210
0
220
0
230
1
0
LINE
5
123
100
AcDbEntity
8
1
62
256
6
ByLayer
370
18
48
1
60
1
100
AcDbLine
10
43.509297
20
-5.150002
30
0
11
43.970081
21
-1.65
31
0
39
0
210
0
220
0
230
1
0
LINE
5
126
100
AcDbEntity
8
1
62
256
6
ByLayer
370
18
48
1
60
1
100
AcDbLine
10
9.260277
20
-12.015423
30
0
11
6.573492
21
-9.725554
31
0
39
0
210
0
220
0
230
1
0
LINE
5
127
100
AcDbEntity
8
1
62
256
6
ByLayer
370
18
48
1
60
1
100
AcDbLine
10
6.573492
20
-9.725554
30
0
11
7.257702
21
-9.108186
31
0
39
0
210
0
220
0
230
1
0
LINE
5
128
100
AcDbEntity
8
1
62
256
6
ByLayer
370
18
48
1
60
1
100
AcDbLine
10
7.257702
20
-9.108186
30
0
11
9.260277
21
-12.015423
31
0
39
0
210
0
220
0
230
1
0
LINE
5
12A
100
AcDbEntity
8
1
62
256
6
ByLayer
370
18
48
1
60
1
100
AcDbLine
10
9.260277
20
12.015423
30
0
11
7.257704
21
9.108189
31
0
39
0
210
0
220
0
230
1
0
LINE
5
12B
100
AcDbEntity
8
1
62
256
6
ByLayer
370
18
48
1
60
1
100
AcDbLine
10
7.257704
20
9.108189
30
0
11
6.57349
21
9.725552
31
0
39
0
210
0
220
0
230
1
0
LINE
5
12C
100
AcDbEntity
8
1
62
256
6
ByLayer
370
18
48
1
60
1
100
AcDbLine
10
6.57349
20
9.725552
30
0
11
9.260277
21
12.015423
31
0
39
0
210
0
220
0
230
1
0
MTEXT
5
103
100
AcDbEntity
8
SK6
62
256
6
ByLayer
370
13
48
1
60
0
100
AcDbMText
10
-32.145193
20
34.190328
30
0
210
0
220
0
230
1
1
\W0.7670;462.2-0330-010A1-XM X2BM
40
3.5
41
0
44
1.084337
50
0
71
7
72
5
7
iso_b_vert
0
MTEXT
5
107
100
AcDbEntity
8
2
62
256
6
ByLayer
370
18
48
1
60
0
100
AcDbMText
10
50.671797
20
13.897798
30
0
210
0
220
0
230
1
1
%%c
40
3.5
41
0
44
1.084337
50
90
71
7
72
5
7
iso_b_vert
0
MTEXT
5
108
100
AcDbEntity
8
2
62
256
6
ByLayer
370
18
48
1
60
0
100
AcDbMText
10
50.671797
20
19.120454
30
0
210
0
220
0
230
1
1
\W0.7845;4,460
40
3.5
41
0
44
1.084337
50
90
71
7
72
5
7
iso_b_vert
0
MTEXT
5
111
100
AcDbEntity
8
SK2
62
256
6
ByLayer
370
18
48
1
60
0
100
AcDbMText
10
-46.189796
20
16.409024
30
0
210
0
220
0
230
1
1
%%c
40
3.5
41
0
44
1.084337
50
90
71
7
72
5
7
iso_b_vert
0
MTEXT
5
112
100
AcDbEntity
8
SK2
62
256
6
ByLayer
370
18
48
1
60
0
100
AcDbMText
10
-46.189796
20
21.63168
30
0
210
0
220
0
230
1
1
\W0.7317;6,000
40
3.5
41
0
44
1.084337
50
90
71
7
72
5
7
iso_b_vert
0
MTEXT
5
11B
100
AcDbEntity
8
2
62
256
6
ByLayer
370
18
48
1
60
0
100
AcDbMText
10
42.405448
20
14.406747
30
0
210
0
220
0
230
1
1
%%c
40
3.5
41
0
44
1.084337
50
90
71
7
72
5
7
iso_b_vert
0
MTEXT
5
11C
100
AcDbEntity
8
2
62
256
6
ByLayer
370
18
48
1
60
0
100
AcDbMText
10
42.405448
20
19.629403
30
0
210
0
220
0
230
1
1
\W0.7317;3,300
40
3.5
41
0
44
1.084337
50
90
71
7
72
5
7
iso_b_vert
0
MTEXT
5
125
100
AcDbEntity
8
SK2
62
256
6
ByLayer
370
13
48
1
60
0
100
AcDbMText
10
-0.517425
20
-0.291663
30
0
210
0
220
0
230
1
1
\W0.8181;90,0%%d
40
3.5
41
0
44
1.084337
50
0
71
7
72
5
7
iso_b_vert
0
HATCH
5
10C
100
AcDbEntity
8
2
62
256
6
ByLayer
370
13
48
1
60
0
100
AcDbHatch
10
0
20
0
30
0
210
0
220
0
230
1
2
ANSI31
70
0
71
0
91
1
92
5
93
3
72
1
10
52.2364306046164
20
2.22999999999999
11
51.7756468630637
21
5.72999830744681
72
1
10
51.7756468630637
20
5.72999830744681
11
52.6972143461692
21
5.73000169255317
72
1
10
52.6972143461692
20
5.73000169255317
11
52.2364306046164
21
2.22999999999999
97
0
75
0
76
1
52
0
41
0.0062
77
0
78
1
53
45
43
0
44
0
45
-0.0139193969876572
46
0.0139193969876572
79
0
47
0
98
1
10
0
20
0
0
HATCH
5
110
100
AcDbEntity
8
2
62
256
6
ByLayer
370
13
48
1
60
0
100
AcDbHatch
10
0
20
0
30
0
210
0
220
0
230
1
2
ANSI31
70
0
71
0
91
1
92
5
93
3
72
1
10
52.2364306046164
20
-2.22999999999999
11
52.6972143461692
21
-5.72999830744681
72
1
10
52.6972143461692
20
-5.72999830744681
11
51.7756468630637
21
-5.73000169255317
72
1
10
51.7756468630637
20
-5.73000169255317
11
52.2364306046164
21
-2.22999999999999
97
0
75
0
76
1
52
0
41
0.0062
77
0
78
1
53
45
43
0
44
0
45
-0.0139193969876572
46
0.0139193969876572
79
0
47
0
98
1
10
0
20
0
0
HATCH
5
116
100
AcDbEntity
8
SK2
62
256
6
ByLayer
370
13
48
1
60
0
100
AcDbHatch
10
0
20
0
30
0
210
0
220
0
230
1
2
ANSI31
70
0
71
0
91
1
92
5
93
3
72
1
10
-44.6251625675374
20
3
11
-45.0859463090902
21
6.49999830744682
72
1
10
-45.0859463090902
20
6.49999830744682
11
-44.1643788259847
21
6.50000169255318
72
1
10
-44.1643788259847
20
6.50000169255318
11
-44.6251625675374
21
3
97
0
75
0
76
1
52
0
41
0.0062
77
0
78
1
53
45
43
0
44
0
45
-0.0139193969876572
46
0.0139193969876572
79
0
47
0
98
1
10
0
20
0
0
HATCH
5
11A
100
AcDbEntity
8
SK2
62
256
6
ByLayer
370
13
48
1
60
0
100
AcDbHatch
10
0
20
0
30
0
210
0
220
0
230
1
2
ANSI31
70
0
71
0
91
1
92
5
93
3
72
1
10
-44.6251625675374
20
-3
11
-44.1643788259847
21
-6.49999830744682
72
1
10
-44.1643788259847
20
-6.49999830744682
11
-45.0859463090902
21
-6.50000169255318
72
1
10
-45.0859463090902
20
-6.50000169255318
11
-44.6251625675374
21
-3
97
0
75
0
76
1
52
0
41
0.0062
77
0
78
1
53
45
43
0
44
0
45
-0.0139193969876572
46
0.0139193969876572
79
0
47
0
98
1
10
0
20
0
0
HATCH
5
120
100
AcDbEntity
8
2
62
256
6
ByLayer
370
13
48
1
60
0
100
AcDbHatch
10
0
20
0
30
0
210
0
220
0
230
1
2
ANSI31
70
0
71
0
91
1
92
5
93
3
72
1
10
43.9700811011615
20
1.65000000000001
11
43.5092973596088
21
5.14999830744682
72
1
10
43.5092973596088
20
5.14999830744682
11
44.4308648427142
21
5.15000169255319
72
1
10
44.4308648427142
20
5.15000169255319
11
43.9700811011615
21
1.65000000000001
97
0
75
0
76
1
52
0
41
0.0062
77
0
78
1
53
45
43
0
44
0
45
-0.0139193969876572
46
0.0139193969876572
79
0
47
0
98
1
10
0
20
0
0
HATCH
5
124
100
AcDbEntity
8
2
62
256
6
ByLayer
370
13
48
1
60
0
100
AcDbHatch
10
0
20
0
30
0
210
0
220
0
230
1
2
ANSI31
70
0
71
0
91
1
92
5
93
3
72
1
10
43.9700811011615
20
-1.64999999999998
11
44.4308648427142
21
-5.14999830744679
72
1
10
44.4308648427142
20
-5.14999830744679
11
43.5092973596088
21
-5.15000169255316
72
1
10
43.5092973596088
20
-5.15000169255316
11
43.9700811011615
21
-1.64999999999998
97
0
75
0
76
1
52
0
41
0.0062
77
0
78
1
53
45
43
0
44
0
45
-0.0139193969876572
46
0.0139193969876572
79
0
47
0
98
1
10
0
20
0
0
HATCH
5
129
100
AcDbEntity
8
SK2
62
256
6
ByLayer
370
13
48
1
60
0
100
AcDbHatch
10
0
20
0
30
0
210
0
220
0
230
1
2
ANSI31
70
0
71
0
91
1
92
5
93
3
72
1
10
9.26027662736121
20
-12.0154233726388
11
6.5734923985892
21
-9.72555431161547
72
1
10
6.5734923985892
20
-9.72555431161547
11
7.25770217106557
21
-9.10818601539623
72
1
10
7.25770217106557
20
-9.10818601539623
11
9.26027662736121
21
-12.0154233726388
97
0
75
0
76
1
52
0
41
0.0062
77
0
78
1
53
45
43
0
44
0
45
-0.0139193969876572
46
0.0139193969876572
79
0
47
0
98
1
10
0
20
0
0
HATCH
5
12D
100
AcDbEntity
8
SK2
62
256
6
ByLayer
370
13
48
1
60
0
100
AcDbHatch
10
0
20
0
30
0
210
0
220
0
230
1
2
ANSI31
70
0
71
0
91
1
92
5
93
3
72
1
10
9.26027662736121
20
12.0154233726388
11
7.25770443877673
21
9.10818852864739
72
1
10
7.25770443877673
20
9.10818852864739
11
6.57349013087804
21
9.72555179836431
72
1
10
6.57349013087804
20
9.72555179836431
11
9.26027662736121
21
12.0154233726388
97
0
75
0
76
1
52
0
41
0.0062
77
0
78
1
53
45
43
0
44
0
45
-0.0139193969876572
46
0.0139193969876572
79
0
47
0
98
1
10
0
20
0
0
DIMENSION
5
12F
100
AcDbEntity
8
SK2
62
256
6
ByLayer
370
13
48
1
60
0
100
AcDbDimension
2
_U0
10
29.5257
20
-14.452503
30
0
11
14.76285
21
-14.452503
31
0
70
32
71
1
72
1
41
1
210
0
220
0
230
1
3
Standard
100
AcDbAlignedDimension
13
0
23
0
33
0
14
29.5257
24
-1.65
34
0
50
0
100
AcDbRotatedDimension
1001
ACAD
1000
DSTYLE
1002
{
1070
   371
1070
    13
1070
   372
1070
    13
1070
   170
1070
     0
1070
   144
1040
1.0
1070
   277
1070
     2
1070
   278
1070
    44
1070
   146
1040
1.0
1070
   345
1005
16
1070
   347
1005
16
1070
   346
1005
16
1070
   344
1005
0
1070
   343
1005
0
1070
   172
1070
     1
1070
    76
1070
     0
1070
    75
1070
     0
1070
   282
1070
     0
1070
   281
1070
     0
1070
    71
1070
     0
1070
    74
1070
     0
1070
   279
1070
     0
1070
   173
1070
     1
1070
   340
1005
104
1070
   271
1070
     2
1070
   272
1070
     2
1070
    77
1070
     1
1070
    73
1070
     1
1070
   171
1070
     3
1070
   274
1070
     4
1070
   177
1070
    35
1070
   176
1070
    35
1070
   178
1070
    35
1070
    48
1040
-0.1
1070
    41
1040
3.5
1070
   147
1040
1.75
1070
    42
1040
1.5875
1070
    44
1040
2.0
1070
   140
1040
3.5
1002
}
1001
ACAD_DSTYLE_DIM_LINETYPE
1070
   380
1005
16
1001
ACAD_DSTYLE_DIM_EXT1_LINETYPE
1070
   381
1005
16
1001
ACAD_DSTYLE_DIM_EXT2_LINETYPE
1070
   382
1005
16
0
DIMENSION
5
148
100
AcDbEntity
8
SK2
62
256
6
ByLayer
370
13
48
1
60
0
100
AcDbDimension
2
_U1
10
30
20
-34.192985
30
0
11
-3
21
-34.192985
31
0
70
32
71
1
72
1
41
1
210
0
220
0
230
1
3
Standard
100
AcDbAlignedDimension
13
-36
23
-3
33
0
14
30
24
0
34
0
50
0
100
AcDbRotatedDimension
1001
ACAD
1000
DSTYLE
1002
{
1070
   371
1070
    13
1070
   372
1070
    13
1070
   170
1070
     0
1070
   144
1040
1.0
1070
   277
1070
     2
1070
   278
1070
    44
1070
   146
1040
1.0
1070
   345
1005
16
1070
   347
1005
16
1070
   346
1005
16
1070
   344
1005
0
1070
   343
1005
0
1070
   172
1070
     1
1070
    76
1070
     0
1070
    75
1070
     0
1070
   282
1070
     0
1070
   281
1070
     0
1070
    71
1070
     0
1070
    74
1070
     0
1070
   279
1070
     0
1070
   173
1070
     1
1070
   340
1005
104
1070
   271
1070
     2
1070
   272
1070
     2
1070
    77
1070
     1
1070
    73
1070
     1
1070
   171
1070
     3
1070
   274
1070
     4
1070
   177
1070
    35
1070
   176
1070
    35
1070
   178
1070
    35
1070
    48
1040
-0.1
1070
    41
1040
3.5
1070
   147
1040
1.75
1070
    42
1040
1.5875
1070
    44
1040
2.0
1070
   140
1040
3.5
1002
}
1001
ACAD_DSTYLE_DIM_LINETYPE
1070
   380
1005
16
1001
ACAD_DSTYLE_DIM_EXT1_LINETYPE
1070
   381
1005
16
1001
ACAD_DSTYLE_DIM_EXT2_LINETYPE
1070
   382
1005
16
0
DIMENSION
5
160
100
AcDbEntity
8
SK2
62
256
6
ByLayer
370
13
48
1
60
0
100
AcDbDimension
2
_U2
10
30
20
13.259119
30
0
11
24.525
21
13.259119
31
0
70
32
71
1
72
1
41
1
210
0
220
0
230
1
3
Standard
100
AcDbAlignedDimension
13
19.05
23
2.23
33
0
14
30
24
0
34
0
50
0
100
AcDbRotatedDimension
1001
ACAD
1000
DSTYLE
1002
{
1070
   371
1070
    13
1070
   372
1070
    13
1070
   170
1070
     0
1070
   144
1040
1.0
1070
   277
1070
     2
1070
   278
1070
    44
1070
   146
1040
1.0
1070
   345
1005
16
1070
   347
1005
16
1070
   346
1005
16
1070
   344
1005
0
1070
   343
1005
0
1070
   172
1070
     1
1070
    76
1070
     0
1070
    75
1070
     0
1070
   282
1070
     0
1070
   281
1070
     0
1070
    71
1070
     0
1070
    74
1070
     0
1070
   279
1070
     0
1070
   173
1070
     1
1070
   340
1005
104
1070
   271
1070
     2
1070
   272
1070
     2
1070
    77
1070
     1
1070
    73
1070
     1
1070
   171
1070
     3
1070
   274
1070
     4
1070
   177
1070
    35
1070
   176
1070
    35
1070
   178
1070
    35
1070
    48
1040
-0.1
1070
    41
1040
3.5
1070
   147
1040
1.75
1070
    42
1040
1.5875
1070
    44
1040
2.0
1070
   140
1040
3.5
1002
}
1001
ACAD_DSTYLE_DIM_LINETYPE
1070
   380
1005
16
1001
ACAD_DSTYLE_DIM_EXT1_LINETYPE
1070
   381
1005
16
1001
ACAD_DSTYLE_DIM_EXT2_LINETYPE
1070
   382
1005
16
0
DIMENSION
5
179
100
AcDbEntity
8
SK2
62
256
6
ByLayer
370
13
48
1
60
0
100
AcDbDimension
2
_U3
10
29.5257
20
-14.452503
30
0
11
47.583333
21
-14.452503
31
0
70
32
71
1
72
1
41
1
210
0
220
0
230
1
3
Standard
100
AcDbAlignedDimension
13
30
23
0
33
0
14
29.5257
24
-1.65
34
0
50
0
100
AcDbRotatedDimension
1001
ACAD
1000
DSTYLE
1002
{
1070
   371
1070
    13
1070
   372
1070
    13
1070
   170
1070
     0
1070
   144
1040
1.0
1070
   277
1070
     2
1070
   278
1070
    44
1070
   146
1040
1.0
1070
   345
1005
16
1070
   347
1005
16
1070
   346
1005
16
1070
   344
1005
0
1070
   343
1005
0
1070
   172
1070
     1
1070
    76
1070
     0
1070
    75
1070
     0
1070
   282
1070
     0
1070
   281
1070
     0
1070
    71
1070
     0
1070
    74
1070
     0
1070
   279
1070
     0
1070
   173
1070
     1
1070
   340
1005
104
1070
   271
1070
     2
1070
   272
1070
     2
1070
    77
1070
     1
1070
    73
1070
     1
1070
   171
1070
     3
1070
   274
1070
     4
1070
   177
1070
    35
1070
   176
1070
    35
1070
   178
1070
    35
1070
    48
1040
-0.1
1070
    41
1040
3.5
1070
   147
1040
1.75
1070
    42
1040
1.5875
1070
    44
1040
2.0
1070
   140
1040
3.5
1002
}
1001
ACAD_DSTYLE_DIM_LINETYPE
1070
   380
1005
16
1001
ACAD_DSTYLE_DIM_EXT1_LINETYPE
1070
   381
1005
16
1001
ACAD_DSTYLE_DIM_EXT2_LINETYPE
1070
   382
1005
16
0
DIMENSION
5
193
100
AcDbEntity
8
SK2
62
256
6
ByLayer
370
13
48
1
60
0
100
AcDbDimension
2
_U4
10
19.6257
20
5.785371
30
0
11
24.5757
21
5.785371
31
0
70
32
71
1
72
1
41
1
210
0
220
0
230
1
3
Standard
100
AcDbAlignedDimension
13
29.5257
23
1.65
33
0
14
19.6257
24
1.65
34
0
50
0
100
AcDbRotatedDimension
1001
ACAD
1000
DSTYLE
1002
{
1070
   371
1070
    13
1070
   372
1070
    13
1070
   170
1070
     0
1070
   144
1040
1.0
1070
   277
1070
     2
1070
   278
1070
    44
1070
   146
1040
1.0
1070
   345
1005
16
1070
   347
1005
16
1070
   346
1005
16
1070
   344
1005
0
1070
   343
1005
0
1070
   172
1070
     1
1070
    76
1070
     0
1070
    75
1070
     0
1070
   282
1070
     0
1070
   281
1070
     0
1070
    71
1070
     0
1070
    74
1070
     0
1070
   279
1070
     0
1070
   173
1070
     1
1070
   340
1005
104
1070
   271
1070
     2
1070
   272
1070
     2
1070
    77
1070
     1
1070
    73
1070
     1
1070
   171
1070
     3
1070
   274
1070
     4
1070
   177
1070
    35
1070
   176
1070
    35
1070
   178
1070
    35
1070
    48
1040
-0.1
1070
    41
1040
3.5
1070
   147
1040
1.75
1070
    42
1040
1.5875
1070
    44
1040
2.0
1070
   140
1040
3.5
1002
}
1001
ACAD_DSTYLE_DIM_LINETYPE
1070
   380
1005
16
1001
ACAD_DSTYLE_DIM_EXT1_LINETYPE
1070
   381
1005
16
1001
ACAD_DSTYLE_DIM_EXT2_LINETYPE
1070
   382
1005
16
0
DIMENSION
5
1AC
100
AcDbEntity
8
SK2
62
256
6
ByLayer
370
13
48
1
60
0
100
AcDbDimension
2
_U5
10
29.5257
20
-23.690158
30
0
11
-3.23715
21
-23.690158
31
0
70
32
71
1
72
1
41
1
210
0
220
0
230
1
3
Standard
100
AcDbAlignedDimension
13
-36
23
-3
33
0
14
29.5257
24
-1.65
34
0
50
0
100
AcDbRotatedDimension
1001
ACAD
1000
DSTYLE
1002
{
1070
   371
1070
    13
1070
   372
1070
    13
1070
   170
1070
     0
1070
   144
1040
1.0
1070
   277
1070
     2
1070
   278
1070
    44
1070
   146
1040
1.0
1070
   345
1005
16
1070
   347
1005
16
1070
   346
1005
16
1070
   344
1005
0
1070
   343
1005
0
1070
   172
1070
     1
1070
    76
1070
     0
1070
    75
1070
     0
1070
   282
1070
     0
1070
   281
1070
     0
1070
    71
1070
     0
1070
    74
1070
     0
1070
   279
1070
     0
1070
   173
1070
     1
1070
   340
1005
104
1070
   271
1070
     2
1070
   272
1070
     2
1070
    77
1070
     1
1070
    73
1070
     1
1070
   171
1070
     3
1070
   274
1070
     4
1070
   177
1070
    35
1070
   176
1070
    35
1070
   178
1070
    35
1070
    48
1040
-0.1
1070
    41
1040
3.5
1070
   147
1040
1.75
1070
    42
1040
1.5875
1070
    44
1040
2.0
1070
   140
1040
3.5
1002
}
1001
ACAD_DSTYLE_DIM_LINETYPE
1070
   380
1005
16
1001
ACAD_DSTYLE_DIM_EXT1_LINETYPE
1070
   381
1005
16
1001
ACAD_DSTYLE_DIM_EXT2_LINETYPE
1070
   382
1005
16
0
ENDSEC
0
SECTION
2
OBJECTS
0
DICTIONARY
5
234
330
0
100
AcDbDictionary
280
0
281
1
3
ACAD_GROUP
350
235
3
ACAD_MLINESTYLE
350
236
0
DICTIONARY
5
235
330
0
100
AcDbDictionary
280
0
281
1
0
DICTIONARY
5
236
330
0
100
AcDbDictionary
280
0
281
1
3
Standard
350
18
0
MLINESTYLE
5
18
330
236
100
AcDbMlineStyle
2
Standard
70
0
3

62
256
51
90
52
90
71
2
49
-0.5
62
256
6
ByLayer
49
0.5
62
256
6
ByLayer
0
RASTERVARIABLES
5
222
330

100
AcDbRasterVariables
90
0
70
1
71
1
72
1
0
ENDSEC
0
EOF
