0
SECTION
2
HEADER
9
$ACADVER
1
AC1015
9
$DWGCODEPAGE
3
ANSI_1252
9
$HANDSEED
5
240
9
$ANGBASE
50
0
9
$ANGDIR
70
0
9
$ATTMODE
70
1
9
$AUNITS
70
0
9
$AUPREC
70
0
9
$CECOLOR
62
256
9
$CELTSCALE
40
1
9
$CELTYPE
6
ByLayer
9
$CELWEIGHT
370
18
9
$CLAYER
8
0
9
$CMLJUST
70
0
9
$CMLSCALE
40
1
9
$CMLSTYLE
2
Standard
9
$DIMSTYLE
2
Standard
9
$TEXTSIZE
40
0.2
9
$TEXTSTYLE
7
Standard
9
$LUNITS
70
2
9
$LUPREC
70
4
9
$EXTNAMES
290
1
9
$INSUNITS
70
4
9
$LTSCALE
40
1
9
$LWDISPLAY
290
1
9
$PDMODE
70
0
9
$PDSIZE
40
0
9
$PLINEGEN
70
0
0
ENDSEC
0
SECTION
2
CLASSES
0
CLASS
1
RASTERVARIABLES
2
AcDbRasterVariables
3
ISM
90
0
280
0
281
0
0
ENDSEC
0
SECTION
2
TABLES
0
TABLE
2
VPORT
5
236
100
AcDbSymbolTable
0
VPORT
5
1
100
AcDbSymbolTableRecord
100
AcDbViewportTableRecord
2
*Active
70
0
10
0
20
0
11
1
21
1
12
-1
22
1
13
0
23
0
14
0.5
24
0.5
15
10
25
10
16
0
26
0
36
1
17
0
27
0
37
0
0
ENDTAB
0
TABLE
2
LTYPE
5
237
100
AcDbSymbolTable
0
LTYPE
5
14
100
AcDbSymbolTableRecord
100
AcDbLinetypeTableRecord
70
0
2
ByBlock
3

72
65
73
0
40
0
0
LTYPE
5
15
100
AcDbSymbolTableRecord
100
AcDbLinetypeTableRecord
70
0
2
ByLayer
3

72
65
73
0
40
0
0
LTYPE
5
16
100
AcDbSymbolTableRecord
100
AcDbLinetypeTableRecord
70
0
2
Continuous
3
Solid line
72
65
73
0
40
0
0
LTYPE
5
6E
100
AcDbSymbolTableRecord
100
AcDbLinetypeTableRecord
70
0
2
CENTER
3
____ _ ____ _ ____ _ ____
72
65
73
4
40
47.5
49
22
74
0
49
-8.5
74
0
49
8.5
74
0
49
-8.5
74
0
0
LTYPE
5
6F
100
AcDbSymbolTableRecord
100
AcDbLinetypeTableRecord
70
0
2
DASHED
3
__ __ __ __ __ __ __ __ __
72
65
73
2
40
25.72
49
12.86
74
0
49
-12.86
74
0
0
ENDTAB
0
TABLE
2
LAYER
5
238
100
AcDbSymbolTable
0
LAYER
5
10
100
AcDbSymbolTableRecord
100
AcDbLayerTableRecord
2
0
70
0
62
7
6
Continuous
290
1
370
-3
390
0
0
LAYER
5
71
100
AcDbSymbolTableRecord
100
AcDbLayerTableRecord
2
80
70
0
62
-6
6
Continuous
290
1
370
-3
390
0
0
LAYER
5
73
100
AcDbSymbolTableRecord
100
AcDbLayerTableRecord
2
81
70
0
62
-3
6
Continuous
290
1
370
-3
390
0
0
LAYER
5
75
100
AcDbSymbolTableRecord
100
AcDbLayerTableRecord
2
1
70
0
62
4
6
Continuous
290
1
370
-3
390
0
0
LAYER
5
8D
100
AcDbSymbolTableRecord
100
AcDbLayerTableRecord
2
4
70
0
62
-2
6
CENTER
290
1
370
-3
390
0
0
LAYER
5
9C
100
AcDbSymbolTableRecord
100
AcDbLayerTableRecord
2
2
70
0
62
7
6
Continuous
290
1
370
-3
390
0
0
LAYER
5
132
100
AcDbSymbolTableRecord
100
AcDbLayerTableRecord
2
Defpoints
70
0
62
7
6
Continuous
290
0
370
-3
390
0
0
LAYER
5
222
100
AcDbSymbolTableRecord
100
AcDbLayerTableRecord
2
SK1
70
0
62
4
6
Continuous
290
1
370
-3
390
0
0
LAYER
5
223
100
AcDbSymbolTableRecord
100
AcDbLayerTableRecord
2
SK4
70
0
62
2
6
CENTER
290
1
370
-3
390
0
0
LAYER
5
224
100
AcDbSymbolTableRecord
100
AcDbLayerTableRecord
2
SK2
70
0
62
7
6
Continuous
290
1
370
-3
390
0
0
LAYER
5
225
100
AcDbSymbolTableRecord
100
AcDbLayerTableRecord
2
SK6
70
0
62
5
6
Continuous
290
1
370
-3
390
0
0
ENDTAB
0
TABLE
2
STYLE
5
239
100
AcDbSymbolTable
0
STYLE
5
11
100
AcDbSymbolTableRecord
100
AcDbTextStyleTableRecord
2
Standard
3
txt
70
0
71
0
40
0
41
1
42
0
50
0
0
STYLE
5
104
100
AcDbSymbolTableRecord
100
AcDbTextStyleTableRecord
2
iso_b_vert
3
simplex.shx
70
0
71
0
40
0
41
1
42
0
50
0
0
STYLE
5
105
100
AcDbSymbolTableRecord
100
AcDbTextStyleTableRecord
2
DWGDirectTextStyle
3
simplex
70
0
71
0
40
0
41
1
42
0
50
0
0
ENDTAB
0
TABLE
2
DIMSTYLE
5
23a
100
AcDbSymbolTable
100
AcDbDimStyleTable
0
DIMSTYLE
105
27
100
AcDbSymbolTableRecord
100
AcDbDimStyleTableRecord
2
Standard
70
0
3
<>
41
0.18
42
0.0625
44
0.18
140
0.18
147
0.09
73
0
74
0
77
1
271
2
275
0
278
52
280
0
340
11
0
ENDTAB
0
TABLE
2
VIEW
5
23b
100
AcDbSymbolTable
0
ENDTAB
0
TABLE
2
UCS
5
23c
100
AcDbSymbolTable
0
ENDTAB
0
TABLE
2
APPID
5
23d
100
AcDbSymbolTable
0
APPID
5
12
100
AcDbSymbolTableRecord
100
AcDbRegAppTableRecord
2
ACAD
70
0
0
APPID
5
12E
100
AcDbSymbolTableRecord
100
AcDbRegAppTableRecord
2
ACAD_DSTYLE_DIMBREAK
70
0
0
APPID
5
1E1
100
AcDbSymbolTableRecord
100
AcDbRegAppTableRecord
2
ACAD_DSTYLE_DIM_LINETYPE
70
0
0
APPID
5
1E2
100
AcDbSymbolTableRecord
100
AcDbRegAppTableRecord
2
ACAD_DSTYLE_DIM_EXT1_LINETYPE
70
0
0
APPID
5
1E3
100
AcDbSymbolTableRecord
100
AcDbRegAppTableRecord
2
ACAD_DSTYLE_DIM_EXT2_LINETYPE
70
0
0
APPID
5
21E
100
AcDbSymbolTableRecord
100
AcDbRegAppTableRecord
2
ACAD_MLEADERVER
70
0
0
ENDTAB
0
TABLE
2
BLOCK_RECORD
5
23e
100
AcDbSymbolTable
0
BLOCK_RECORD
5
1F
100
AcDbSymbolTableRecord
100
AcDbBlockTableRecord
2
*Model_Space
340
0
70
0
0
BLOCK_RECORD
5
1B
100
AcDbSymbolTableRecord
100
AcDbBlockTableRecord
2
*Paper_Space
340
0
70
0
0
BLOCK_RECORD
5
23
100
AcDbSymbolTableRecord
100
AcDbBlockTableRecord
2
*Paper_Space0
340
0
70
0
0
BLOCK_RECORD
5
133
100
AcDbSymbolTableRecord
100
AcDbBlockTableRecord
2
*D1
340
0
70
0
0
BLOCK_RECORD
5
13F
100
AcDbSymbolTableRecord
100
AcDbBlockTableRecord
2
_U0
340
0
70
0
0
BLOCK_RECORD
5
14B
100
AcDbSymbolTableRecord
100
AcDbBlockTableRecord
2
*D3
340
0
70
0
0
BLOCK_RECORD
5
157
100
AcDbSymbolTableRecord
100
AcDbBlockTableRecord
2
_U1
340
0
70
0
0
BLOCK_RECORD
5
163
100
AcDbSymbolTableRecord
100
AcDbBlockTableRecord
2
*D5
340
0
70
0
0
BLOCK_RECORD
5
16F
100
AcDbSymbolTableRecord
100
AcDbBlockTableRecord
2
_U2
340
0
70
0
0
BLOCK_RECORD
5
17B
100
AcDbSymbolTableRecord
100
AcDbBlockTableRecord
2
*D7
340
0
70
0
0
BLOCK_RECORD
5
189
100
AcDbSymbolTableRecord
100
AcDbBlockTableRecord
2
_U3
340
0
70
0
0
BLOCK_RECORD
5
195
100
AcDbSymbolTableRecord
100
AcDbBlockTableRecord
2
*D9
340
0
70
0
0
BLOCK_RECORD
5
1A2
100
AcDbSymbolTableRecord
100
AcDbBlockTableRecord
2
_U4
340
0
70
0
0
BLOCK_RECORD
5
1AE
100
AcDbSymbolTableRecord
100
AcDbBlockTableRecord
2
*D11
340
0
70
0
0
BLOCK_RECORD
5
1BA
100
AcDbSymbolTableRecord
100
AcDbBlockTableRecord
2
_U5
340
0
70
0
0
ENDTAB
0
ENDSEC
0
SECTION
2
BLOCKS
0
BLOCK
5
20
100
AcDbEntity
8
0
100
AcDbBlockBegin
2
*Model_Space
70
0
10
0
20
0
30
0
3
*Model_Space
0
ENDBLK
5
21
100
AcDbEntity
8
0
100
AcDbBlockEnd
0
BLOCK
5
1C
100
AcDbEntity
8
0
100
AcDbBlockBegin
2
*Paper_Space
70
0
10
0
20
0
30
0
3
*Paper_Space
0
ENDBLK
5
1D
100
AcDbEntity
8
0
100
AcDbBlockEnd
0
BLOCK
5
24
100
AcDbEntity
8
0
100
AcDbBlockBegin
2
*Paper_Space0
70
0
10
0
20
0
30
0
3
*Paper_Space0
0
ENDBLK
5
25
100
AcDbEntity
8
0
100
AcDbBlockEnd
0
BLOCK
5
134
100
AcDbEntity
8
0
100
AcDbBlockBegin
2
*D1
70
1
10
0
20
0
30
0
3
*D1
0
LINE
5
136
100
AcDbEntity
8
0
62
256
6
ByLayer
370
-2
48
1
60
0
100
AcDbLine
10
0
20
-1.5875
30
0
11
0
21
-17.677503
31
0
39
0
210
0
220
0
230
1
0
LINE
5
137
100
AcDbEntity
8
0
62
256
6
ByLayer
370
-2
48
1
60
0
100
AcDbLine
10
42.1565
20
-4.4625
30
0
11
42.1565
21
-17.677503
31
0
39
0
210
0
220
0
230
1
0
LINE
5
138
100
AcDbEntity
8
0
62
256
6
ByLayer
370
-2
48
1
60
0
100
AcDbLine
10
3.5
20
-15.677503
30
0
11
38.6565
21
-15.677503
31
0
39
0
210
0
220
0
230
1
0
SOLID
5
139
100
AcDbEntity
8
0
62
256
6
ByLayer
370
-1
48
1
60
0
100
AcDbTrace
10
3.5
20
-15.09417
30
0
11
3.5
21
-16.260837
31
0
12
0
22
-15.677503
32
0
13
0
23
-15.677503
33
0
39
0
210
0
220
0
230
1
0
SOLID
5
13A
100
AcDbEntity
8
0
62
256
6
ByLayer
370
-1
48
1
60
0
100
AcDbTrace
10
38.6565
20
-16.260837
30
0
11
38.6565
21
-15.09417
31
0
12
42.1565
22
-15.677503
32
0
13
42.1565
23
-15.677503
33
0
39
0
210
0
220
0
230
1
0
MTEXT
5
13B
100
AcDbEntity
8
0
62
256
6
ByLayer
370
18
48
1
60
0
100
AcDbMText
10
21.07825
20
-8.677503
30
0
210
0
220
0
230
1
1
\A1;42.16
40
3.5
41
0
44
1
50
0
71
5
72
5
7
iso_b_vert
0
POINT
5
13C
100
AcDbEntity
8
Defpoints
62
0
6
ByLayer
370
-1
48
1
60
0
100
AcDbPoint
10
0
20
0
30
0
39
0
210
0
220
0
230
1
50
360
0
POINT
5
13D
100
AcDbEntity
8
Defpoints
62
0
6
ByLayer
370
-1
48
1
60
0
100
AcDbPoint
10
42.1565
20
-2.875
30
0
39
0
210
0
220
0
230
1
50
360
0
POINT
5
13E
100
AcDbEntity
8
Defpoints
62
0
6
ByLayer
370
-1
48
1
60
0
100
AcDbPoint
10
42.1565
20
-15.677503
30
0
39
0
210
0
220
0
230
1
50
360
0
ENDBLK
5
135
100
AcDbEntity
8
0
100
AcDbBlockEnd
0
BLOCK
5
146
100
AcDbEntity
8
0
100
AcDbBlockBegin
2
_U0
70
0
10
0
20
0
30
0
3
_U0
0
MTEXT
5
140
100
AcDbEntity
8
SK2
62
256
6
ByLayer
370
13
48
1
60
0
100
AcDbMText
10
16.194118
20
-14.64487
30
0
210
0
220
0
230
1
1
\W0.6977;42,16
40
3.5
41
0
44
1.084337
50
0
71
7
72
5
7
iso_b_vert
0
LINE
5
141
100
AcDbEntity
8
SK2
62
256
6
ByLayer
370
13
48
1
60
0
100
AcDbLine
10
0
20
-1.5875
30
0
11
0
21
-17.677503
31
0
39
0
210
0
220
0
230
1
0
LINE
5
142
100
AcDbEntity
8
SK2
62
256
6
ByLayer
370
13
48
1
60
0
100
AcDbLine
10
42.1565
20
-4.4625
30
0
11
42.1565
21
-17.677503
31
0
39
0
210
0
220
0
230
1
0
LINE
5
143
100
AcDbEntity
8
SK2
62
256
6
ByLayer
370
13
48
1
60
0
100
AcDbLine
10
0
20
-15.677503
30
0
11
42.1565
21
-15.677503
31
0
39
0
210
0
220
0
230
1
0
SOLID
5
144
100
AcDbEntity
8
SK2
62
256
6
ByLayer
370
18
48
1
60
0
100
AcDbTrace
10
0
20
-15.677503
30
0
11
3.499998
21
-15.216719
31
0
12
3.500002
22
-16.138287
32
0
13
3.500002
23
-16.138287
33
0
39
0
210
0
220
0
230
1
0
SOLID
5
145
100
AcDbEntity
8
SK2
62
256
6
ByLayer
370
18
48
1
60
0
100
AcDbTrace
10
42.1565
20
-15.677503
30
0
11
38.656502
21
-16.138287
31
0
12
38.656498
22
-15.216719
32
0
13
38.656498
23
-15.216719
33
0
39
0
210
0
220
0
230
1
0
ENDBLK
5
147
100
AcDbEntity
8
0
100
AcDbBlockEnd
0
BLOCK
5
14C
100
AcDbEntity
8
0
100
AcDbBlockBegin
2
*D3
70
1
10
0
20
0
30
0
3
*D3
0
LINE
5
14E
100
AcDbEntity
8
0
62
256
6
ByLayer
370
-2
48
1
60
0
100
AcDbLine
10
-36
20
-5.5875
30
0
11
-36
21
-37.192985
31
0
39
0
210
0
220
0
230
1
0
LINE
5
14F
100
AcDbEntity
8
0
62
256
6
ByLayer
370
-2
48
1
60
0
100
AcDbLine
10
43
20
-1.5875
30
0
11
43
21
-37.192985
31
0
39
0
210
0
220
0
230
1
0
LINE
5
150
100
AcDbEntity
8
0
62
256
6
ByLayer
370
-2
48
1
60
0
100
AcDbLine
10
-32.5
20
-35.192985
30
0
11
39.5
21
-35.192985
31
0
39
0
210
0
220
0
230
1
0
SOLID
5
151
100
AcDbEntity
8
0
62
256
6
ByLayer
370
-1
48
1
60
0
100
AcDbTrace
10
-32.5
20
-34.609652
30
0
11
-32.5
21
-35.776319
31
0
12
-36
22
-35.192985
32
0
13
-36
23
-35.192985
33
0
39
0
210
0
220
0
230
1
0
SOLID
5
152
100
AcDbEntity
8
0
62
256
6
ByLayer
370
-1
48
1
60
0
100
AcDbTrace
10
39.5
20
-35.776319
30
0
11
39.5
21
-34.609652
31
0
12
43
22
-35.192985
32
0
13
43
23
-35.192985
33
0
39
0
210
0
220
0
230
1
0
MTEXT
5
153
100
AcDbEntity
8
0
62
256
6
ByLayer
370
18
48
1
60
0
100
AcDbMText
10
3.5
20
-28.192985
30
0
210
0
220
0
230
1
1
\A1;79.00
40
3.5
41
0
44
1
50
0
71
5
72
5
7
iso_b_vert
0
POINT
5
154
100
AcDbEntity
8
Defpoints
62
0
6
ByLayer
370
-1
48
1
60
0
100
AcDbPoint
10
-36
20
-4
30
0
39
0
210
0
220
0
230
1
50
360
0
POINT
5
155
100
AcDbEntity
8
Defpoints
62
0
6
ByLayer
370
-1
48
1
60
0
100
AcDbPoint
10
43
20
0
30
0
39
0
210
0
220
0
230
1
50
360
0
POINT
5
156
100
AcDbEntity
8
Defpoints
62
0
6
ByLayer
370
-1
48
1
60
0
100
AcDbPoint
10
43
20
-35.192985
30
0
39
0
210
0
220
0
230
1
50
360
0
ENDBLK
5
14D
100
AcDbEntity
8
0
100
AcDbBlockEnd
0
BLOCK
5
15E
100
AcDbEntity
8
0
100
AcDbBlockBegin
2
_U1
70
0
10
0
20
0
30
0
3
_U1
0
MTEXT
5
158
100
AcDbEntity
8
SK2
62
256
6
ByLayer
370
13
48
1
60
0
100
AcDbMText
10
-1.637299
20
-34.160352
30
0
210
0
220
0
230
1
1
\W0.7317;79,00
40
3.5
41
0
44
1.084337
50
0
71
7
72
5
7
iso_b_vert
0
LINE
5
159
100
AcDbEntity
8
SK2
62
256
6
ByLayer
370
13
48
1
60
0
100
AcDbLine
10
-36
20
-5.5875
30
0
11
-36
21
-37.192985
31
0
39
0
210
0
220
0
230
1
0
LINE
5
15A
100
AcDbEntity
8
SK2
62
256
6
ByLayer
370
13
48
1
60
0
100
AcDbLine
10
43
20
-1.5875
30
0
11
43
21
-37.192985
31
0
39
0
210
0
220
0
230
1
0
LINE
5
15B
100
AcDbEntity
8
SK2
62
256
6
ByLayer
370
13
48
1
60
0
100
AcDbLine
10
-36
20
-35.192985
30
0
11
43
21
-35.192985
31
0
39
0
210
0
220
0
230
1
0
SOLID
5
15C
100
AcDbEntity
8
SK2
62
256
6
ByLayer
370
18
48
1
60
0
100
AcDbTrace
10
-36
20
-35.192985
30
0
11
-32.500002
21
-34.732202
31
0
12
-32.499998
22
-35.653769
32
0
13
-32.499998
23
-35.653769
33
0
39
0
210
0
220
0
230
1
0
SOLID
5
15D
100
AcDbEntity
8
SK2
62
256
6
ByLayer
370
18
48
1
60
0
100
AcDbTrace
10
43
20
-35.192985
30
0
11
39.500002
21
-35.653769
31
0
12
39.499998
22
-34.732202
32
0
13
39.499998
23
-34.732202
33
0
39
0
210
0
220
0
230
1
0
ENDBLK
5
15F
100
AcDbEntity
8
0
100
AcDbBlockEnd
0
BLOCK
5
164
100
AcDbEntity
8
0
100
AcDbBlockBegin
2
*D5
70
1
10
0
20
0
30
0
3
*D5
0
LINE
5
166
100
AcDbEntity
8
0
62
256
6
ByLayer
370
-2
48
1
60
0
100
AcDbLine
10
23.9
20
5.4675
30
0
11
23.9
21
16.484119
31
0
39
0
210
0
220
0
230
1
0
LINE
5
167
100
AcDbEntity
8
0
62
256
6
ByLayer
370
-2
48
1
60
0
100
AcDbLine
10
43
20
1.5875
30
0
11
43
21
16.484119
31
0
39
0
210
0
220
0
230
1
0
LINE
5
168
100
AcDbEntity
8
0
62
256
6
ByLayer
370
-2
48
1
60
0
100
AcDbLine
10
27.4
20
14.484119
30
0
11
39.5
21
14.484119
31
0
39
0
210
0
220
0
230
1
0
SOLID
5
169
100
AcDbEntity
8
0
62
256
6
ByLayer
370
-1
48
1
60
0
100
AcDbTrace
10
27.4
20
15.067453
30
0
11
27.4
21
13.900786
31
0
12
23.9
22
14.484119
32
0
13
23.9
23
14.484119
33
0
39
0
210
0
220
0
230
1
0
SOLID
5
16A
100
AcDbEntity
8
0
62
256
6
ByLayer
370
-1
48
1
60
0
100
AcDbTrace
10
39.5
20
13.900786
30
0
11
39.5
21
15.067453
31
0
12
43
22
14.484119
32
0
13
43
23
14.484119
33
0
39
0
210
0
220
0
230
1
0
MTEXT
5
16B
100
AcDbEntity
8
0
62
256
6
ByLayer
370
18
48
1
60
0
100
AcDbMText
10
33.45
20
21.484119
30
0
210
0
220
0
230
1
1
\A1;19.10
40
3.5
41
0
44
1
50
0
71
5
72
5
7
iso_b_vert
0
POINT
5
16C
100
AcDbEntity
8
Defpoints
62
0
6
ByLayer
370
-1
48
1
60
0
100
AcDbPoint
10
23.9
20
3.88
30
0
39
0
210
0
220
0
230
1
50
360
0
POINT
5
16D
100
AcDbEntity
8
Defpoints
62
0
6
ByLayer
370
-1
48
1
60
0
100
AcDbPoint
10
43
20
0
30
0
39
0
210
0
220
0
230
1
50
360
0
POINT
5
16E
100
AcDbEntity
8
Defpoints
62
0
6
ByLayer
370
-1
48
1
60
0
100
AcDbPoint
10
43
20
14.484119
30
0
39
0
210
0
220
0
230
1
50
360
0
ENDBLK
5
165
100
AcDbEntity
8
0
100
AcDbBlockEnd
0
BLOCK
5
176
100
AcDbEntity
8
0
100
AcDbBlockBegin
2
_U2
70
0
10
0
20
0
30
0
3
_U2
0
MTEXT
5
170
100
AcDbEntity
8
SK2
62
256
6
ByLayer
370
13
48
1
60
0
100
AcDbMText
10
29.187568
20
15.516753
30
0
210
0
220
0
230
1
1
\W0.6110;19,10
40
3.5
41
0
44
1.084337
50
0
71
7
72
5
7
iso_b_vert
0
LINE
5
171
100
AcDbEntity
8
SK2
62
256
6
ByLayer
370
13
48
1
60
0
100
AcDbLine
10
23.9
20
5.4675
30
0
11
23.9
21
16.484119
31
0
39
0
210
0
220
0
230
1
0
LINE
5
172
100
AcDbEntity
8
SK2
62
256
6
ByLayer
370
13
48
1
60
0
100
AcDbLine
10
43
20
1.5875
30
0
11
43
21
16.484119
31
0
39
0
210
0
220
0
230
1
0
LINE
5
173
100
AcDbEntity
8
SK2
62
256
6
ByLayer
370
13
48
1
60
0
100
AcDbLine
10
23.9
20
14.484119
30
0
11
43
21
14.484119
31
0
39
0
210
0
220
0
230
1
0
SOLID
5
174
100
AcDbEntity
8
SK2
62
256
6
ByLayer
370
18
48
1
60
0
100
AcDbTrace
10
23.9
20
14.484119
30
0
11
27.399998
21
14.944903
31
0
12
27.400002
22
14.023335
32
0
13
27.400002
23
14.023335
33
0
39
0
210
0
220
0
230
1
0
SOLID
5
175
100
AcDbEntity
8
SK2
62
256
6
ByLayer
370
18
48
1
60
0
100
AcDbTrace
10
43
20
14.484119
30
0
11
39.500002
21
14.023335
31
0
12
39.499998
22
14.944903
32
0
13
39.499998
23
14.944903
33
0
39
0
210
0
220
0
230
1
0
ENDBLK
5
177
100
AcDbEntity
8
0
100
AcDbBlockEnd
0
BLOCK
5
17C
100
AcDbEntity
8
0
100
AcDbBlockBegin
2
*D7
70
1
10
0
20
0
30
0
3
*D7
0
LINE
5
17E
100
AcDbEntity
8
0
62
256
6
ByLayer
370
-2
48
1
60
0
100
AcDbLine
10
43
20
-1.5875
30
0
11
43
21
-17.677503
31
0
39
0
210
0
220
0
230
1
0
LINE
5
17F
100
AcDbEntity
8
0
62
256
6
ByLayer
370
-2
48
1
60
0
100
AcDbLine
10
42.1565
20
-4.4625
30
0
11
42.1565
21
-17.677503
31
0
39
0
210
0
220
0
230
1
0
LINE
5
180
100
AcDbEntity
8
0
62
256
6
ByLayer
370
-2
48
1
60
0
100
AcDbLine
10
43
20
-15.677503
30
0
11
71.333333
21
-15.677503
31
0
39
0
210
0
220
0
230
1
0
LINE
5
181
100
AcDbEntity
8
0
62
256
6
ByLayer
370
-2
48
1
60
0
100
AcDbLine
10
46.5
20
-15.677503
30
0
11
50
21
-15.677503
31
0
39
0
210
0
220
0
230
1
0
LINE
5
182
100
AcDbEntity
8
0
62
256
6
ByLayer
370
-2
48
1
60
0
100
AcDbLine
10
38.6565
20
-15.677503
30
0
11
35.1565
21
-15.677503
31
0
39
0
210
0
220
0
230
1
0
SOLID
5
183
100
AcDbEntity
8
0
62
256
6
ByLayer
370
-1
48
1
60
0
100
AcDbTrace
10
46.5
20
-15.09417
30
0
11
46.5
21
-16.260837
31
0
12
43
22
-15.677503
32
0
13
43
23
-15.677503
33
0
39
0
210
0
220
0
230
1
0
SOLID
5
184
100
AcDbEntity
8
0
62
256
6
ByLayer
370
-1
48
1
60
0
100
AcDbTrace
10
38.6565
20
-16.260837
30
0
11
38.6565
21
-15.09417
31
0
12
42.1565
22
-15.677503
32
0
13
42.1565
23
-15.677503
33
0
39
0
210
0
220
0
230
1
0
MTEXT
5
185
100
AcDbEntity
8
0
62
256
6
ByLayer
370
18
48
1
60
0
100
AcDbMText
10
60.666667
20
-8.677503
30
0
210
0
220
0
230
1
1
\A1;0.84
40
3.5
41
0
44
1
50
0
71
5
72
5
7
iso_b_vert
0
POINT
5
186
100
AcDbEntity
8
Defpoints
62
0
6
ByLayer
370
-1
48
1
60
0
100
AcDbPoint
10
43
20
0
30
0
39
0
210
0
220
0
230
1
50
360
0
POINT
5
187
100
AcDbEntity
8
Defpoints
62
0
6
ByLayer
370
-1
48
1
60
0
100
AcDbPoint
10
42.1565
20
-2.875
30
0
39
0
210
0
220
0
230
1
50
360
0
POINT
5
188
100
AcDbEntity
8
Defpoints
62
0
6
ByLayer
370
-1
48
1
60
0
100
AcDbPoint
10
42.1565
20
-15.677503
30
0
39
0
210
0
220
0
230
1
50
360
0
ENDBLK
5
17D
100
AcDbEntity
8
0
100
AcDbBlockEnd
0
BLOCK
5
190
100
AcDbEntity
8
0
100
AcDbBlockBegin
2
_U3
70
0
10
0
20
0
30
0
3
_U3
0
MTEXT
5
18A
100
AcDbEntity
8
SK2
62
256
6
ByLayer
370
13
48
1
60
0
100
AcDbMText
10
48.967593
20
-14.64487
30
0
210
0
220
0
230
1
1
\W0.7383;0,84
40
3.5
41
0
44
1.084337
50
0
71
7
72
5
7
iso_b_vert
0
LINE
5
18B
100
AcDbEntity
8
SK2
62
256
6
ByLayer
370
13
48
1
60
0
100
AcDbLine
10
43
20
-1.5875
30
0
11
43
21
-17.677503
31
0
39
0
210
0
220
0
230
1
0
LINE
5
18C
100
AcDbEntity
8
SK2
62
256
6
ByLayer
370
13
48
1
60
0
100
AcDbLine
10
42.1565
20
-4.4625
30
0
11
42.1565
21
-17.677503
31
0
39
0
210
0
220
0
230
1
0
LINE
5
18D
100
AcDbEntity
8
SK2
62
256
6
ByLayer
370
13
48
1
60
0
100
AcDbLine
10
33.4065
20
-15.677503
30
0
11
57.180758
21
-15.677503
31
0
39
0
210
0
220
0
230
1
0
SOLID
5
18E
100
AcDbEntity
8
SK2
62
256
6
ByLayer
370
18
48
1
60
0
100
AcDbTrace
10
43
20
-15.677503
30
0
11
46.499998
21
-15.216719
31
0
12
46.500002
22
-16.138287
32
0
13
46.500002
23
-16.138287
33
0
39
0
210
0
220
0
230
1
0
SOLID
5
18F
100
AcDbEntity
8
SK2
62
256
6
ByLayer
370
18
48
1
60
0
100
AcDbTrace
10
42.1565
20
-15.677503
30
0
11
38.656502
21
-16.138287
31
0
12
38.656498
22
-15.216719
32
0
13
38.656498
23
-15.216719
33
0
39
0
210
0
220
0
230
1
0
ENDBLK
5
191
100
AcDbEntity
8
0
100
AcDbBlockEnd
0
BLOCK
5
196
100
AcDbEntity
8
0
100
AcDbBlockBegin
2
*D9
70
1
10
0
20
0
30
0
3
*D9
0
LINE
5
198
100
AcDbEntity
8
0
62
256
6
ByLayer
370
-2
48
1
60
0
100
AcDbLine
10
42.1565
20
4.4625
30
0
11
42.1565
21
9.010371
31
0
39
0
210
0
220
0
230
1
0
LINE
5
199
100
AcDbEntity
8
0
62
256
6
ByLayer
370
-2
48
1
60
0
100
AcDbLine
10
24.9065
20
4.4625
30
0
11
24.9065
21
9.010371
31
0
39
0
210
0
220
0
230
1
0
LINE
5
19A
100
AcDbEntity
8
0
62
256
6
ByLayer
370
-2
48
1
60
0
100
AcDbLine
10
45.6565
20
7.010371
30
0
11
49.1565
21
7.010371
31
0
39
0
210
0
220
0
230
1
0
LINE
5
19B
100
AcDbEntity
8
0
62
256
6
ByLayer
370
-2
48
1
60
0
100
AcDbLine
10
21.4065
20
7.010371
30
0
11
17.9065
21
7.010371
31
0
39
0
210
0
220
0
230
1
0
SOLID
5
19C
100
AcDbEntity
8
0
62
256
6
ByLayer
370
-1
48
1
60
0
100
AcDbTrace
10
45.6565
20
7.593705
30
0
11
45.6565
21
6.427038
31
0
12
42.1565
22
7.010371
32
0
13
42.1565
23
7.010371
33
0
39
0
210
0
220
0
230
1
0
SOLID
5
19D
100
AcDbEntity
8
0
62
256
6
ByLayer
370
-1
48
1
60
0
100
AcDbTrace
10
21.4065
20
6.427038
30
0
11
21.4065
21
7.593705
31
0
12
24.9065
22
7.010371
32
0
13
24.9065
23
7.010371
33
0
39
0
210
0
220
0
230
1
0
MTEXT
5
19E
100
AcDbEntity
8
0
62
256
6
ByLayer
370
18
48
1
60
0
100
AcDbMText
10
33.5315
20
14.010371
30
0
210
0
220
0
230
1
1
\A1;17.25
40
3.5
41
0
44
1
50
0
71
5
72
5
7
iso_b_vert
0
POINT
5
19F
100
AcDbEntity
8
Defpoints
62
0
6
ByLayer
370
-1
48
1
60
0
100
AcDbPoint
10
42.1565
20
2.875
30
0
39
0
210
0
220
0
230
1
50
360
0
POINT
5
1A0
100
AcDbEntity
8
Defpoints
62
0
6
ByLayer
370
-1
48
1
60
0
100
AcDbPoint
10
24.9065
20
2.875
30
0
39
0
210
0
220
0
230
1
50
360
0
POINT
5
1A1
100
AcDbEntity
8
Defpoints
62
0
6
ByLayer
370
-1
48
1
60
0
100
AcDbPoint
10
24.9065
20
7.010371
30
0
39
0
210
0
220
0
230
1
50
360
0
ENDBLK
5
197
100
AcDbEntity
8
0
100
AcDbBlockEnd
0
BLOCK
5
1A9
100
AcDbEntity
8
0
100
AcDbBlockBegin
2
_U4
70
0
10
0
20
0
30
0
3
_U4
0
MTEXT
5
1A3
100
AcDbEntity
8
SK2
62
256
6
ByLayer
370
13
48
1
60
0
100
AcDbMText
10
28.831635
20
8.043005
30
0
210
0
220
0
230
1
1
\W0.6713;17,25
40
3.5
41
0
44
1.084337
50
0
71
7
72
5
7
iso_b_vert
0
LINE
5
1A4
100
AcDbEntity
8
SK2
62
256
6
ByLayer
370
13
48
1
60
0
100
AcDbLine
10
42.1565
20
4.4625
30
0
11
42.1565
21
9.010371
31
0
39
0
210
0
220
0
230
1
0
LINE
5
1A5
100
AcDbEntity
8
SK2
62
256
6
ByLayer
370
13
48
1
60
0
100
AcDbLine
10
24.9065
20
4.4625
30
0
11
24.9065
21
9.010371
31
0
39
0
210
0
220
0
230
1
0
LINE
5
1A6
100
AcDbEntity
8
SK2
62
256
6
ByLayer
370
13
48
1
60
0
100
AcDbLine
10
42.1565
20
7.010371
30
0
11
24.9065
21
7.010371
31
0
39
0
210
0
220
0
230
1
0
SOLID
5
1A7
100
AcDbEntity
8
SK2
62
256
6
ByLayer
370
18
48
1
60
0
100
AcDbTrace
10
42.1565
20
7.010371
30
0
11
38.656502
21
6.549588
31
0
12
38.656498
22
7.471155
32
0
13
38.656498
23
7.471155
33
0
39
0
210
0
220
0
230
1
0
SOLID
5
1A8
100
AcDbEntity
8
SK2
62
256
6
ByLayer
370
18
48
1
60
0
100
AcDbTrace
10
24.9065
20
7.010371
30
0
11
28.406498
21
7.471155
31
0
12
28.406502
22
6.549588
32
0
13
28.406502
23
6.549588
33
0
39
0
210
0
220
0
230
1
0
ENDBLK
5
1AA
100
AcDbEntity
8
0
100
AcDbBlockEnd
0
BLOCK
5
1AF
100
AcDbEntity
8
0
100
AcDbBlockBegin
2
*D11
70
1
10
0
20
0
30
0
3
*D11
0
LINE
5
1B1
100
AcDbEntity
8
0
62
256
6
ByLayer
370
-2
48
1
60
0
100
AcDbLine
10
-36
20
-5.5875
30
0
11
-36
21
-26.690158
31
0
39
0
210
0
220
0
230
1
0
LINE
5
1B2
100
AcDbEntity
8
0
62
256
6
ByLayer
370
-2
48
1
60
0
100
AcDbLine
10
42.1565
20
-4.4625
30
0
11
42.1565
21
-26.690158
31
0
39
0
210
0
220
0
230
1
0
LINE
5
1B3
100
AcDbEntity
8
0
62
256
6
ByLayer
370
-2
48
1
60
0
100
AcDbLine
10
-32.5
20
-24.690158
30
0
11
38.6565
21
-24.690158
31
0
39
0
210
0
220
0
230
1
0
SOLID
5
1B4
100
AcDbEntity
8
0
62
256
6
ByLayer
370
-1
48
1
60
0
100
AcDbTrace
10
-32.5
20
-24.106825
30
0
11
-32.5
21
-25.273491
31
0
12
-36
22
-24.690158
32
0
13
-36
23
-24.690158
33
0
39
0
210
0
220
0
230
1
0
SOLID
5
1B5
100
AcDbEntity
8
0
62
256
6
ByLayer
370
-1
48
1
60
0
100
AcDbTrace
10
38.6565
20
-25.273491
30
0
11
38.6565
21
-24.106825
31
0
12
42.1565
22
-24.690158
32
0
13
42.1565
23
-24.690158
33
0
39
0
210
0
220
0
230
1
0
MTEXT
5
1B6
100
AcDbEntity
8
0
62
256
6
ByLayer
370
18
48
1
60
0
100
AcDbMText
10
3.07825
20
-17.690158
30
0
210
0
220
0
230
1
1
\A1;78.16
40
3.5
41
0
44
1
50
0
71
5
72
5
7
iso_b_vert
0
POINT
5
1B7
100
AcDbEntity
8
Defpoints
62
0
6
ByLayer
370
-1
48
1
60
0
100
AcDbPoint
10
-36
20
-4
30
0
39
0
210
0
220
0
230
1
50
360
0
POINT
5
1B8
100
AcDbEntity
8
Defpoints
62
0
6
ByLayer
370
-1
48
1
60
0
100
AcDbPoint
10
42.1565
20
-2.875
30
0
39
0
210
0
220
0
230
1
50
360
0
POINT
5
1B9
100
AcDbEntity
8
Defpoints
62
0
6
ByLayer
370
-1
48
1
60
0
100
AcDbPoint
10
42.1565
20
-24.690158
30
0
39
0
210
0
220
0
230
1
50
360
0
ENDBLK
5
1B0
100
AcDbEntity
8
0
100
AcDbBlockEnd
0
BLOCK
5
1C1
100
AcDbEntity
8
0
100
AcDbBlockBegin
2
_U5
70
0
10
0
20
0
30
0
3
_U5
0
MTEXT
5
1BB
100
AcDbEntity
8
SK2
62
256
6
ByLayer
370
13
48
1
60
0
100
AcDbMText
10
-1.621615
20
-23.657524
30
0
210
0
220
0
230
1
1
\W0.6713;78,16
40
3.5
41
0
44
1.084337
50
0
71
7
72
5
7
iso_b_vert
0
LINE
5
1BC
100
AcDbEntity
8
SK2
62
256
6
ByLayer
370
13
48
1
60
0
100
AcDbLine
10
-36
20
-5.5875
30
0
11
-36
21
-26.690158
31
0
39
0
210
0
220
0
230
1
0
LINE
5
1BD
100
AcDbEntity
8
SK2
62
256
6
ByLayer
370
13
48
1
60
0
100
AcDbLine
10
42.1565
20
-4.4625
30
0
11
42.1565
21
-26.690158
31
0
39
0
210
0
220
0
230
1
0
LINE
5
1BE
100
AcDbEntity
8
SK2
62
256
6
ByLayer
370
13
48
1
60
0
100
AcDbLine
10
-36
20
-24.690158
30
0
11
42.1565
21
-24.690158
31
0
39
0
210
0
220
0
230
1
0
SOLID
5
1BF
100
AcDbEntity
8
SK2
62
256
6
ByLayer
370
18
48
1
60
0
100
AcDbTrace
10
-36
20
-24.690158
30
0
11
-32.500002
21
-24.229374
31
0
12
-32.499998
22
-25.150942
32
0
13
-32.499998
23
-25.150942
33
0
39
0
210
0
220
0
230
1
0
SOLID
5
1C0
100
AcDbEntity
8
SK2
62
256
6
ByLayer
370
18
48
1
60
0
100
AcDbTrace
10
42.1565
20
-24.690158
30
0
11
38.656502
21
-25.150942
31
0
12
38.656498
22
-24.229374
32
0
13
38.656498
23
-24.229374
33
0
39
0
210
0
220
0
230
1
0
ENDBLK
5
1C2
100
AcDbEntity
8
0
100
AcDbBlockEnd
0
ENDSEC
0
SECTION
2
ENTITIES
0
ARC
5
C0
100
AcDbEntity
8
SK2
62
256
6
ByLayer
370
13
48
1
60
0
100
AcDbCircle
39
0
10
27.7815
20
0
30
0
40
18.2079673082777
210
0
220
0
230
1
100
AcDbArc
50
183.382499
51
225
0
ARC
5
C1
100
AcDbEntity
8
SK2
62
256
6
ByLayer
370
13
48
1
60
0
100
AcDbCircle
39
0
10
27.7815
20
0
30
0
40
18.2079673082777
210
0
220
0
230
1
100
AcDbArc
50
135
51
162.663375
0
POINT
5
70
100
AcDbEntity
8
80
62
256
6
ByLayer
370
18
48
1
60
0
100
AcDbPoint
10
0
20
0
30
0
39
0
210
0
220
0
230
1
50
360
0
POINT
5
72
100
AcDbEntity
8
81
62
256
6
ByLayer
370
18
48
1
60
0
100
AcDbPoint
10
43
20
0
30
0
39
0
210
0
220
0
230
1
50
360
0
POINT
5
74
100
AcDbEntity
8
1
62
256
6
ByLayer
370
18
48
1
60
1
100
AcDbPoint
10
42.1565
20
-2.875
30
0
39
0
210
0
220
0
230
1
50
360
0
POINT
5
76
100
AcDbEntity
8
1
62
256
6
ByLayer
370
18
48
1
60
1
100
AcDbPoint
10
-36
20
-4
30
0
39
0
210
0
220
0
230
1
50
360
0
POINT
5
77
100
AcDbEntity
8
1
62
256
6
ByLayer
370
18
48
1
60
1
100
AcDbPoint
10
23.9
20
3.88
30
0
39
0
210
0
220
0
230
1
50
360
0
POINT
5
78
100
AcDbEntity
8
1
62
256
6
ByLayer
370
18
48
1
60
1
100
AcDbPoint
10
42.1565
20
-2.875
30
0
39
0
210
0
220
0
230
1
50
360
0
POINT
5
79
100
AcDbEntity
8
1
62
256
6
ByLayer
370
18
48
1
60
1
100
AcDbPoint
10
42.1565
20
2.875
30
0
39
0
210
0
220
0
230
1
50
360
0
POINT
5
7A
100
AcDbEntity
8
1
62
256
6
ByLayer
370
18
48
1
60
1
100
AcDbPoint
10
24.9065
20
2.875
30
0
39
0
210
0
220
0
230
1
50
360
0
POINT
5
7B
100
AcDbEntity
8
1
62
256
6
ByLayer
370
18
48
1
60
1
100
AcDbPoint
10
-36
20
-4
30
0
39
0
210
0
220
0
230
1
50
360
0
POINT
5
7C
100
AcDbEntity
8
1
62
256
6
ByLayer
370
18
48
1
60
1
100
AcDbPoint
10
42.1565
20
-2.875
30
0
39
0
210
0
220
0
230
1
50
360
0
SPLINE
5
C2
100
AcDbEntity
8
SK1
62
256
6
ByLayer
370
18
48
1
60
0
100
AcDbSpline
70
4
71
3
72
8
73
4
40
0
40
0
40
0
40
0
40
1
40
1
40
1
40
1
41
1
10
-35.5
20
2.41800553076058
30
0
41
1
10
-35.6671088782559
20
2.32055400656583
30
0
41
1
10
-35.8338584626699
20
2.22290796641687
30
0
41
1
10
-36
20
2.12493273927672
30
0
0
SPLINE
5
C3
100
AcDbEntity
8
SK1
62
256
6
ByLayer
370
18
48
1
60
0
100
AcDbSpline
70
4
71
3
72
12
73
8
40
0
40
0
40
0
40
0
40
0.499999999999999
40
0.499999999999999
40
0.749999999999999
40
0.749999999999999
40
1
40
1
40
1
40
1
41
1
10
-35.5
20
1.18296528689623
30
0
41
1
10
-35.4764535706457
20
1.19669666642477
30
0
41
1
10
-35.453758325367
20
1.21757089467363
30
0
41
1
10
-35.4256589034923
20
1.25673774175829
30
0
41
1
10
-35.4170915256394
20
1.27149122079837
30
0
41
1
10
-35.4042768359918
20
1.30294291272469
30
0
41
1
10
-35.4
20
1.32008772169763
30
0
41
1
10
-35.4
20
1.33565909930971
30
0
0
SPLINE
5
C4
100
AcDbEntity
8
SK1
62
256
6
ByLayer
370
18
48
1
60
0
100
AcDbSpline
70
4
71
3
72
8
73
4
40
0
40
0
40
0
40
0
40
1
40
1
40
1
40
1
41
1
10
-36
20
0.889892495412482
30
0
41
1
10
-35.8338634694943
20
0.987864769981172
30
0
41
1
10
-35.6671131192885
20
1.08551128949315
30
0
41
1
10
-35.5
20
1.18296528689635
30
0
0
SPLINE
5
C5
100
AcDbEntity
8
SK1
62
256
6
ByLayer
370
18
48
1
60
0
100
AcDbSpline
70
4
71
3
72
12
73
8
40
0
40
0
40
0
40
0
40
0.250000000000001
40
0.250000000000001
40
0.500000000000003
40
0.500000000000003
40
1
40
1
40
1
40
1
41
1
10
-35.4
20
2.40602731065872
30
0
41
1
10
-35.4
20
2.41788827815378
30
0
41
1
10
-35.4042405317345
20
2.42637143235595
30
0
41
1
10
-35.4170629445097
20
2.43686616977831
30
0
41
1
10
-35.4255309618335
20
2.43908576963139
30
0
41
1
10
-35.4538111153162
20
2.43950351157272
30
0
41
1
10
-35.4764597265186
20
2.43173332041891
30
0
41
1
10
-35.5
20
2.41800553076069
30
0
0
SPLINE
5
C6
100
AcDbEntity
8
1
62
256
6
ByLayer
370
18
48
1
60
0
100
AcDbSpline
70
4
71
3
72
44
73
40
40
0
40
0
40
0
40
0
40
0.0678508138034766
40
0.0678508138034766
40
0.135701627606953
40
0.135701627606953
40
0.169627034508692
40
0.169627034508692
40
0.20355244141043
40
0.20355244141043
40
0.271403255213907
40
0.271403255213907
40
0.339254069017383
40
0.339254069017383
40
0.40710488282086
40
0.40710488282086
40
0.441030289722598
40
0.441030289722598
40
0.474955696624337
40
0.474955696624337
40
0.542806510427813
40
0.542806510427813
40
0.576731917329552
40
0.576731917329552
40
0.61065732423129
40
0.61065732423129
40
0.678508138034765
40
0.678508138034765
40
0.74635895183824
40
0.74635895183824
40
0.814209765641714
40
0.814209765641714
40
0.882060579445189
40
0.882060579445189
40
0.915985986346926
40
0.915985986346926
40
0.949911393248662
40
0.949911393248662
40
1
40
1
40
1
40
1
41
1
10
15.5158908541037
20
-0.745427584316161
30
0
41
1
10
15.6903479337927
20
-0.86613036946855
30
0
41
1
10
15.8647149398528
20
-0.984137257376233
30
0
41
1
10
16.2128526149336
20
-1.21567384456395
30
0
41
1
10
16.3868565240857
20
-1.32889092004024
30
0
41
1
10
16.6459807964018
20
-1.49734928845154
30
0
41
1
10
16.7320670123408
20
-1.5532269003977
30
0
41
1
10
16.9047526000321
20
-1.66297874731686
30
0
41
1
10
16.9912525807868
20
-1.7169933128838
30
0
41
1
10
17.2504868022876
20
-1.87743914546826
30
0
41
1
10
17.4235082256084
20
-1.98155242647599
30
0
41
1
10
17.7696945722628
20
-2.18439776583898
30
0
41
1
10
17.9419721568428
20
-2.28417353445991
30
0
41
1
10
18.2893920995681
20
-2.47495855588932
30
0
41
1
10
18.4635579622438
20
-2.56714876098081
30
0
41
1
10
18.726094935209
20
-2.69988383564626
30
0
41
1
10
18.8138722436977
20
-2.74328019919005
30
0
41
1
10
18.9881915038781
20
-2.82840183709104
30
0
41
1
10
19.0750448334249
20
-2.86995854427099
30
0
41
1
10
19.3360897307888
20
-2.99028208524933
30
0
41
1
10
19.5096998833076
20
-3.06579719993752
30
0
41
1
10
19.7697355960707
20
-3.17197863088398
30
0
41
1
10
19.8563969127384
20
-3.20615407794509
30
0
41
1
10
20.0293048538191
20
-3.2723820308338
30
0
41
1
10
20.1153385180955
20
-3.30459154547103
30
0
41
1
10
20.3737616154242
20
-3.39722759490203
30
0
41
1
10
20.5466627254838
20
-3.45359539038048
30
0
41
1
10
20.8924607595426
20
-3.55659772423218
30
0
41
1
10
21.0659182154716
20
-3.60290538776312
30
0
41
1
10
21.4115501478489
20
-3.68617710341565
30
0
41
1
10
21.58524505819
20
-3.72233127907475
30
0
41
1
10
21.9340299563984
20
-3.78385937525448
30
0
41
1
10
22.1099509594178
20
-3.80915731270218
30
0
41
1
10
22.3716618651461
20
-3.83869748352291
30
0
41
1
10
22.458396960677
20
-3.84718464841356
30
0
41
1
10
22.6320616593144
20
-3.861194673905
30
0
41
1
10
22.7190505999748
20
-3.8667293513532
30
0
41
1
10
22.9340505114586
20
-3.876982437625
30
0
41
1
10
23.0620985549662
20
-3.88001624110083
30
0
41
1
10
23.1900757774696
20
-3.88000054293175
30
0
0
SPLINE
5
C7
100
AcDbEntity
8
1
62
256
6
ByLayer
370
18
48
1
60
0
100
AcDbSpline
70
4
71
3
72
8
73
4
40
0
40
0
40
0
40
0
40
1
40
1
40
1
40
1
41
1
10
42.9999661717402
20
0.0321369584850117
30
0
41
1
10
42.9949160914623
20
0.0145537573364152
30
0
41
1
10
42.9871837403593
20
-0.0039480337585758
30
0
41
1
10
42.9790532843958
20
-0.0172552697071069
30
0
0
SPLINE
5
C8
100
AcDbEntity
8
1
62
256
6
ByLayer
370
18
48
1
60
0
100
AcDbSpline
70
4
71
3
72
36
73
32
40
0
40
0
40
0
40
0
40
0.0625000000000024
40
0.0625000000000024
40
0.125000000000005
40
0.125000000000005
40
0.250000000000009
40
0.250000000000009
40
0.312500000000011
40
0.312500000000011
40
0.34375000000001
40
0.34375000000001
40
0.37500000000001
40
0.37500000000001
40
0.500000000000011
40
0.500000000000011
40
0.56250000000001
40
0.56250000000001
40
0.593750000000009
40
0.593750000000009
40
0.625000000000008
40
0.625000000000008
40
0.750000000000006
40
0.750000000000006
40
0.812500000000006
40
0.812500000000006
40
0.843750000000005
40
0.843750000000005
40
0.875000000000003
40
0.875000000000003
40
1
40
1
40
1
40
1
41
1
10
42.0058313675804
20
-2.86667581949655
30
0
41
1
10
41.6565346727226
20
-2.88011473537443
30
0
41
1
10
41.3077087582592
20
-2.87653399173749
30
0
41
1
10
40.6086138463726
20
-2.83564768386145
30
0
41
1
10
40.2576453009908
20
-2.7980798498393
30
0
41
1
10
39.2133186273023
20
-2.63790535238849
30
0
41
1
10
38.5241425159639
20
-2.46797616247787
30
0
41
1
10
37.4863724702823
20
-2.13350906396448
30
0
41
1
10
37.1397706434853
20
-2.00877285990711
30
0
41
1
10
36.6168442817689
20
-1.80415689676738
30
0
41
1
10
36.441719553172
20
-1.73288074055205
30
0
41
1
10
36.0916790914556
20
-1.58551208557694
30
0
41
1
10
35.9172525133048
20
-1.50963837535952
30
0
41
1
10
35.0472487561877
20
-1.12090539376723
30
0
41
1
10
34.3583467580368
20
-0.779388420263132
30
0
41
1
10
33.3202419222856
20
-0.25077203977807
30
0
41
1
10
32.9734685844587
20
-0.0717518769564549
30
0
41
1
10
32.4504133669654
20
0.197546209661766
30
0
41
1
10
32.2752178193232
20
0.287616283094138
30
0
41
1
10
31.9252015270236
20
0.466302800092109
30
0
41
1
10
31.7507522012773
20
0.554704602717408
30
0
41
1
10
30.8807877615799
20
0.99114650195628
30
0
41
1
10
30.1917477764071
20
1.32163730674682
30
0
41
1
10
29.1534913350541
20
1.76264318609424
30
0
41
1
10
28.8066653990776
20
1.90060974292547
30
0
41
1
10
28.2834151383648
20
2.09074646932615
30
0
41
1
10
28.1081760622296
20
2.15143454863224
30
0
41
1
10
27.7579915559514
20
2.2661065291486
30
0
41
1
10
27.583296943216
20
2.32000966396123
30
0
41
1
10
26.7111902074233
20
2.57182734084435
30
0
41
1
10
26.0172271486051
20
2.71590877049033
30
0
41
1
10
25.3174103469169
20
2.79456800594693
30
0
0
SPLINE
5
C9
100
AcDbEntity
8
1
62
256
6
ByLayer
370
18
48
1
60
0
100
AcDbSpline
70
4
71
3
72
8
73
4
40
0
40
0
40
0
40
0
40
1
40
1
40
1
40
1
41
1
10
42.1588801780231
20
2.77758354814856
30
0
41
1
10
42.1025246302619
20
2.82296851435345
30
0
41
1
10
42.0515870021829
20
2.85306814081838
30
0
41
1
10
42.0058313675803
20
2.86667581949683
30
0
0
SPLINE
5
CA
100
AcDbEntity
8
1
62
256
6
ByLayer
370
18
48
1
60
0
100
AcDbSpline
70
4
71
3
72
8
73
4
40
0
40
0
40
0
40
0
40
1
40
1
40
1
40
1
41
1
10
24.3261049804066
20
-3.3575898961065
30
0
41
1
10
24.1652895338534
20
-3.52522937733087
30
0
41
1
10
24.0048224179569
20
-3.69050065855564
30
0
41
1
10
23.8447174317253
20
-3.85305939485767
30
0
0
SPLINE
5
CB
100
AcDbEntity
8
1
62
256
6
ByLayer
370
18
48
1
60
0
100
AcDbSpline
70
4
71
3
72
14
73
10
40
0
40
0
40
0
40
0
40
0.25
40
0.25
40
0.5
40
0.5
40
0.75
40
0.75
40
1
40
1
40
1
40
1
41
1
10
42.032408871113
20
-2.72892885774505
30
0
41
1
10
42.0357806694167
20
-2.72837075151728
30
0
41
1
10
42.0385228361084
20
-2.7294727503818
30
0
41
1
10
42.0423494284537
20
-2.73601236829069
30
0
41
1
10
42.043384295081
20
-2.74152397437314
30
0
41
1
10
42.0425987298237
20
-2.75803026200609
30
0
41
1
10
42.0407021940037
20
-2.769027050099
30
0
41
1
10
42.0340322356959
20
-2.79400229792577
30
0
41
1
10
42.0293059015841
20
-2.80783023749365
30
0
41
1
10
42.0240585862674
20
-2.82100086326159
30
0
0
SPLINE
5
CC
100
AcDbEntity
8
1
62
256
6
ByLayer
370
18
48
1
60
0
100
AcDbSpline
70
4
71
3
72
30
73
26
40
0
40
0
40
0
40
0
40
0.0214668221914914
40
0.0214668221914914
40
0.0826251458045212
40
0.0826251458045212
40
0.143783469417551
40
0.143783469417551
40
0.204941793030581
40
0.204941793030581
40
0.266100116643611
40
0.266100116643611
40
0.388416763869675
40
0.388416763869675
40
0.449575087482709
40
0.449575087482709
40
0.510733411095743
40
0.510733411095743
40
0.633050058321808
40
0.633050058321808
40
0.755366705547872
40
0.755366705547872
40
0.877683352773936
40
0.877683352773936
40
1
40
1
40
1
40
1
41
1
10
31.9593856907755
20
2.72434048396039
30
0
41
1
10
32.0120825690717
20
2.72445368512294
30
0
41
1
10
32.0647738684828
20
2.72418456233078
30
0
41
1
10
32.2675326817953
20
2.72152453042557
30
0
41
1
10
32.4175430899043
20
2.71630482952673
30
0
41
1
10
32.7176384741542
20
2.70024332918672
30
0
41
1
10
32.8676368667203
20
2.68959249993409
30
0
41
1
10
33.1683346528636
20
2.66248925277535
30
0
41
1
10
33.3190440922103
20
2.64553384711183
30
0
41
1
10
33.6198467230013
20
2.60593513278263
30
0
41
1
10
33.7700347312942
20
2.58347372404259
30
0
41
1
10
34.2202201338792
20
2.50773433844222
30
0
41
1
10
34.5204352778197
20
2.44562867244508
30
0
41
1
10
34.9707619353172
20
2.33827780892796
30
0
41
1
10
35.1208508407074
20
2.29988547260246
30
0
41
1
10
35.4217282876187
20
2.21763577615522
30
0
41
1
10
35.5724483910043
20
2.17389877327452
30
0
41
1
10
36.0233705244881
20
2.03552374690625
30
0
41
1
10
36.3231354376623
20
1.93365026800336
30
0
41
1
10
36.9237042849816
20
1.71644461760948
30
0
41
1
10
37.2237971726656
20
1.60013060344735
30
0
41
1
10
37.8258225835223
20
1.35200825307933
30
0
41
1
10
38.1263030573948
20
1.22241026427767
30
0
41
1
10
38.726291121085
20
0.952399494056465
30
0
41
1
10
39.026459177712
20
0.813418254090948
30
0
41
1
10
39.3270386242111
20
0.670767582857138
30
0
0
SPLINE
5
CD
100
AcDbEntity
8
1
62
256
6
ByLayer
370
18
48
1
60
0
100
AcDbSpline
70
4
71
3
72
8
73
4
40
0
40
0
40
0
40
0
40
1
40
1
40
1
40
1
41
1
10
42.0240585862666
20
-2.82100086326344
30
0
41
1
10
42.0179891193531
20
-2.83623506828147
30
0
41
1
10
42.011913254026
20
-2.85146019286583
30
0
41
1
10
42.0058313675804
20
-2.86667581949658
30
0
0
SPLINE
5
CE
100
AcDbEntity
8
1
62
256
6
ByLayer
370
18
48
1
60
0
100
AcDbSpline
70
4
71
3
72
30
73
26
40
0
40
0
40
0
40
0
40
0.0464849251559227
40
0.0464849251559227
40
0.114593144787642
40
0.114593144787642
40
0.182701364419362
40
0.182701364419362
40
0.318917803682801
40
0.318917803682801
40
0.387026023314521
40
0.387026023314521
40
0.455134242946241
40
0.455134242946241
40
0.523242462577961
40
0.523242462577961
40
0.591350682209681
40
0.591350682209681
40
0.727567121473121
40
0.727567121473121
40
0.79567534110484
40
0.79567534110484
40
0.86378356073656
40
0.86378356073656
40
1
40
1
40
1
40
1
41
1
10
23.8011537612231
20
-3.87899153151071
30
0
41
1
10
23.7936992976738
20
-3.87685394770307
30
0
41
1
10
23.7862279190656
20
-3.87132206287012
30
0
41
1
10
23.7675443293089
20
-3.84936846153781
30
0
41
1
10
23.7563022419349
20
-3.82907913500415
30
0
41
1
10
23.7336946377478
20
-3.77364700642272
30
0
41
1
10
23.7222973230778
20
-3.73838137216043
30
0
41
1
10
23.6889334828344
20
-3.61272388725789
30
0
41
1
10
23.6673559180767
20
-3.50212745303142
30
0
41
1
10
23.6337037224892
20
-3.29587640787869
30
0
41
1
10
23.6223703591434
20
-3.21989060407017
30
0
41
1
10
23.6002844833606
20
-3.05749628913824
30
0
41
1
10
23.5894369904617
20
-2.97084963096134
30
0
41
1
10
23.5672565800181
20
-2.78692373890354
30
0
41
1
10
23.5559774747134
20
-2.68964300969449
30
0
41
1
10
23.533726109991
20
-2.48426311413797
30
0
41
1
10
23.5226379037206
20
-2.37546621188091
30
0
41
1
10
23.4892465361945
20
-2.03810088700774
30
0
41
1
10
23.4671171818023
20
-1.79935125336189
30
0
41
1
10
23.433973994757
20
-1.42086765107436
30
0
41
1
10
23.4228282500748
20
-1.29077416106151
30
0
41
1
10
23.4004591622704
20
-1.02579184752494
30
0
41
1
10
23.3892423810077
20
-0.892193779404437
30
0
41
1
10
23.3562329701341
20
-0.488126665665277
30
0
41
1
10
23.3341345744012
20
-0.214495957711222
30
0
41
1
10
23.3117364671513
20
0.0635308288657086
30
0
0
SPLINE
5
CF
100
AcDbEntity
8
1
62
256
6
ByLayer
370
18
48
1
60
0
100
AcDbSpline
70
4
71
3
72
12
73
8
40
0
40
0
40
0
40
0
40
0.249999999999998
40
0.249999999999998
40
0.499999999999996
40
0.499999999999996
40
1
40
1
40
1
40
1
41
1
10
24.9416119514568
20
2.70624713530245
30
0
41
1
10
24.8498052750011
20
2.80467773149775
30
0
41
1
10
24.7583190209106
20
2.90238147856221
30
0
41
1
10
24.5753567011503
20
3.09641457266889
30
0
41
1
10
24.4837835052064
20
3.192798955586
30
0
41
1
10
24.2093133685442
20
3.47984351996834
30
0
41
1
10
24.0267812622215
20
3.66820527564281
30
0
41
1
10
23.8447174317254
20
3.85305939485767
30
0
0
SPLINE
5
D0
100
AcDbEntity
8
1
62
256
6
ByLayer
370
18
48
1
60
0
100
AcDbSpline
70
4
71
3
72
30
73
26
40
0
40
0
40
0
40
0
40
0.250000000000012
40
0.250000000000012
40
0.375000000000013
40
0.375000000000013
40
0.500000000000015
40
0.500000000000015
40
0.625000000000016
40
0.625000000000016
40
0.750000000000017
40
0.750000000000017
40
0.875000000000019
40
0.875000000000019
40
0.882812500000017
40
0.882812500000017
40
0.890625000000016
40
0.890625000000016
40
0.898437500000015
40
0.898437500000015
40
0.906250000000014
40
0.906250000000014
40
0.937500000000009
40
0.937500000000009
40
1
40
1
40
1
40
1
41
1
10
39.3270386242111
20
0.670767582857138
30
0
41
1
10
39.5579697690835
20
0.524857532807573
30
0
41
1
10
39.7942780869746
20
0.401757717398681
30
0
41
1
10
40.158633141925
20
0.259072801290671
30
0
41
1
10
40.2825064015219
20
0.218134666209323
30
0
41
1
10
40.5290866249952
20
0.15340888734076
30
0
41
1
10
40.6517832981002
20
0.129445020405626
30
0
41
1
10
40.8957945096138
20
0.101078838137511
30
0
41
1
10
41.017163635982
20
0.0967664495343286
30
0
41
1
10
41.2579833103087
20
0.111807334412163
30
0
41
1
10
41.3757952021097
20
0.130970611349824
30
0
41
1
10
41.6027689874188
20
0.195461501538233
30
0
41
1
10
41.7118976250138
20
0.240865917658823
30
0
41
1
10
41.8201472702103
20
0.303994679033138
30
0
41
1
10
41.8264926233859
20
0.307752538711981
30
0
41
1
10
41.8391112333937
20
0.315403004748106
30
0
41
1
10
41.845343758174
20
0.319344601076551
30
0
41
1
10
41.854747799187
20
0.331866867060626
30
0
41
1
10
41.8578587621756
20
0.339991093808265
30
0
41
1
10
41.8594714619505
20
0.357829934121043
30
0
41
1
10
41.8581396562105
20
0.367437404724086
30
0
41
1
10
41.8539048533606
20
0.414405306804298
30
0
41
1
10
41.8509212802429
20
0.451936760877601
30
0
41
1
10
41.8399229041686
20
0.564730495445502
30
0
41
1
10
41.831327049964
20
0.6400250436769
30
0
41
1
10
41.821658410446
20
0.715403408493728
30
0
0
SPLINE
5
D1
100
AcDbEntity
8
1
62
256
6
ByLayer
370
18
48
1
60
0
100
AcDbSpline
70
4
71
3
72
8
73
4
40
0
40
0
40
0
40
0
40
1
40
1
40
1
40
1
41
1
10
24.9087249117914
20
-0.856907857897284
30
0
41
1
10
24.7522524438685
20
-0.778246873099619
30
0
41
1
10
24.595885511102
20
-0.698778582863753
30
0
41
1
10
24.4391773075432
20
-0.619359547140135
30
0
0
SPLINE
5
D2
100
AcDbEntity
8
1
62
256
6
ByLayer
370
18
48
1
60
0
100
AcDbSpline
70
4
71
3
72
35
73
31
40
0
40
0
40
0
40
0
40
0.0168620089666855
40
0.0168620089666855
40
0.0323182409762888
40
0.0323182409762888
40
0.0400463569810902
40
0.0400463569810902
40
0.0477744729858919
40
0.0477744729858919
40
0.0555025889906935
40
0.0555025889906935
40
0.0632307049954949
40
0.0632307049954949
40
0.0786869370050983
40
0.109599401024304
40
0.109599401024304
40
0.171424329062716
40
0.171424329062716
40
0.295074185139541
40
0.295074185139541
40
0.418724041216367
40
0.418724041216367
40
0.542373897293191
40
0.542373897293191
40
0.666023753370016
40
0.666023753370016
40
0.789673609446841
40
0.789673609446841
40
1
40
1
40
1
40
1
41
1
10
15.5158908541038
20
-0.745637451871943
30
0
41
1
10
15.5158908541038
20
-0.750783734185802
30
0
41
1
10
15.5158908541038
20
-0.756010292870599
30
0
41
1
10
15.5158908541038
20
-0.766180155079695
30
0
41
1
10
15.5158908541038
20
-0.771110327815364
30
0
41
1
10
15.5158908541038
20
-0.778604934895469
30
0
41
1
10
15.5158908541038
20
-0.780811565694592
30
0
41
1
10
15.5158908541038
20
-0.786680772268596
30
0
41
1
10
15.5158908541038
20
-0.79094211549554
30
0
41
1
10
15.5158908541038
20
-0.801454345382183
30
0
41
1
10
15.5158908541059
20
-0.80787439105444
30
0
41
1
10
15.5158908541059
20
-0.822252188107484
30
0
41
1
10
15.5158908541038
20
-0.829469245045118
30
0
41
1
10
15.5158908541038
20
-0.851130860121827
30
0
41
1
10
15.5158908541039
20
-0.894594428364798
30
0
41
1
10
15.5158908541038
20
-0.938480810302707
30
0
41
1
10
15.5158908541038
20
-1.02682292330024
30
0
41
1
10
15.5158908541038
20
-1.08649919962846
30
0
41
1
10
15.5158908541038
20
-1.26745895747325
30
0
41
1
10
15.5158908541038
20
-1.39077851440527
30
0
41
1
10
15.5158908541038
20
-1.64302608902005
30
0
41
1
10
15.5158908541038
20
-1.77167802981964
30
0
41
1
10
15.5158908541038
20
-2.03211414942521
30
0
41
1
10
15.5158908541039
20
-2.16418702037987
30
0
41
1
10
15.5158908541039
20
-2.43221981238398
30
0
41
1
10
15.5158908541038
20
-2.5681786085585
30
0
41
1
10
15.5158908541038
20
-2.84428044337466
30
0
41
1
10
15.5158908541038
20
-2.98443951708114
30
0
41
1
10
15.5158908541038
20
-3.36066468371317
30
0
41
1
10
15.5158908541038
20
-3.59725175808637
30
0
41
1
10
15.5158908541038
20
-3.83346245186993
30
0
0
SPLINE
5
D3
100
AcDbEntity
8
1
62
256
6
ByLayer
370
18
48
1
60
0
100
AcDbSpline
70
4
71
3
72
8
73
4
40
0
40
0
40
0
40
0
40
1
40
1
40
1
40
1
41
1
10
25.3174103469169
20
2.7945680059469
30
0
41
1
10
25.3229405242
20
2.76065878092922
30
0
41
1
10
25.3286266231404
20
2.71492138618405
30
0
41
1
10
25.3337579324002
20
2.65746193015235
30
0
0
SPLINE
5
D4
100
AcDbEntity
8
1
62
256
6
ByLayer
370
18
48
1
60
0
100
AcDbSpline
70
4
71
3
72
76
73
72
40
0
40
0
40
0
40
0
40
0.0342061439435419
40
0.0342061439435419
40
0.0684122878870839
40
0.0684122878870839
40
0.102618431830626
40
0.102618431830626
40
0.119721503802398
40
0.119721503802398
40
0.13682457577417
40
0.13682457577417
40
0.171030719717714
40
0.171030719717714
40
0.205236863661258
40
0.205236863661258
40
0.239443007604802
40
0.239443007604802
40
0.256546079576574
40
0.256546079576574
40
0.273649151548346
40
0.273649151548346
40
0.342061439435434
40
0.342061439435434
40
0.37626758337898
40
0.37626758337898
40
0.410473727322525
40
0.410473727322525
40
0.44467987126607
40
0.44467987126607
40
0.478886015209615
40
0.478886015209615
40
0.495989087181388
40
0.495989087181388
40
0.51309215915316
40
0.51309215915316
40
0.547298303096708
40
0.547298303096708
40
0.581504447040255
40
0.581504447040255
40
0.615710590983802
40
0.615710590983802
40
0.632813662955575
40
0.632813662955575
40
0.649916734927347
40
0.649916734927347
40
0.684122878870892
40
0.684122878870892
40
0.701225950842664
40
0.701225950842664
40
0.718329022814435
40
0.718329022814435
40
0.752535166757978
40
0.752535166757978
40
0.786741310701521
40
0.786741310701521
40
0.820947454645064
40
0.820947454645064
40
0.855153598588607
40
0.855153598588607
40
0.87225667056038
40
0.87225667056038
40
0.889359742532152
40
0.889359742532152
40
0.923565886475698
40
0.923565886475698
40
0.957772030419243
40
0.957772030419243
40
0.991978174362788
40
0.991978174362788
40
1
40
1
40
1
40
1
41
1
10
25.3337579324002
20
2.65746193015235
30
0
41
1
10
25.5103214406342
20
2.62378408702344
30
0
41
1
10
25.6867474035528
20
2.58663486497844
30
0
41
1
10
26.0369723203135
20
2.50324726134602
30
0
41
1
10
26.2120777492893
20
2.45818922869066
30
0
41
1
10
26.5618554004767
20
2.36117710780829
30
0
41
1
10
26.7369475022538
20
2.30970849424966
30
0
41
1
10
26.9986377419942
20
2.22659961920237
30
0
41
1
10
27.0855535100565
20
2.19769656983109
30
0
41
1
10
27.2597834721181
20
2.13877167241355
30
0
41
1
10
27.3471184726407
20
2.10879575694395
30
0
41
1
10
27.6089417847681
20
2.01624493535192
30
0
41
1
10
27.7837065672171
20
1.95165149753876
30
0
41
1
10
28.1337986510037
20
1.81691181367702
30
0
41
1
10
28.3081270849029
20
1.74516217348671
30
0
41
1
10
28.6591843924129
20
1.59885817811548
30
0
41
1
10
28.8350582328805
20
1.52295541411164
30
0
41
1
10
29.1000140913337
20
1.40603729252098
30
0
41
1
10
29.1885886221648
20
1.36653178518401
30
0
41
1
10
29.3651713748794
20
1.28538484408199
30
0
41
1
10
29.4531497024036
20
1.24408254211622
30
0
41
1
10
29.8936278900196
20
1.03801214892437
30
0
41
1
10
30.2449239557527
20
0.869013119248734
30
0
41
1
10
30.768123012899
20
0.605260252007696
30
0
41
1
10
30.9428472706134
20
0.517472161877521
30
0
41
1
10
31.292011907731
20
0.340366334938153
30
0
41
1
10
31.4669400116818
20
0.252012175571878
30
0
41
1
10
31.8151573125756
20
0.0710612164082534
30
0
41
1
10
31.9897934804962
20
-0.0188655160697806
30
0
41
1
10
32.3395970288286
20
-0.198645780343867
30
0
41
1
10
32.5152093490743
20
-0.287600569808177
30
0
41
1
10
32.7783831124905
20
-0.422293354257874
30
0
41
1
10
32.8659352548271
20
-0.467672480870505
30
0
41
1
10
33.0417073961084
20
-0.557334498260133
30
0
41
1
10
33.1299271927478
20
-0.601614705304598
30
0
41
1
10
33.3947823561403
20
-0.734450863588279
30
0
41
1
10
33.5720030778965
20
-0.821942711214888
30
0
41
1
10
33.9245610795398
20
-0.993335697552254
30
0
41
1
10
34.0993983277116
20
-1.07919164877958
30
0
41
1
10
34.4499214906704
20
-1.24410497398193
30
0
41
1
10
34.6247882641291
20
-1.32474069879768
30
0
41
1
10
34.8870928459944
20
-1.44196530594635
30
0
41
1
10
34.9745091431754
20
-1.4804606616288
30
0
41
1
10
35.1486804173935
20
-1.55732250788242
30
0
41
1
10
35.235606298465
20
-1.59538711322682
30
0
41
1
10
35.497126177225
20
-1.70648668192897
30
0
41
1
10
35.67155256798
20
-1.77794182574323
30
0
41
1
10
35.9335589996639
20
-1.88087219189515
30
0
41
1
10
36.0209956747847
20
-1.9144162836383
30
0
41
1
10
36.1957144842498
20
-1.9804943263853
30
0
41
1
10
36.2827989022588
20
-2.01330711225927
30
0
41
1
10
36.5445956318803
20
-2.10903202439971
30
0
41
1
10
36.7199450227714
20
-2.16915406287822
30
0
41
1
10
37.0713590275253
20
-2.28335193777443
30
0
41
1
10
37.2478702706321
20
-2.33687463756266
30
0
41
1
10
37.6003604091354
20
-2.43913735117758
30
0
41
1
10
37.7772242327445
20
-2.48613877505798
30
0
41
1
10
38.1292075835719
20
-2.57222952841892
30
0
41
1
10
38.3051858789836
20
-2.61097474134786
30
0
41
1
10
38.5675994042415
20
-2.66400045630476
30
0
41
1
10
38.6547394530587
20
-2.68084996096326
30
0
41
1
10
38.8293393023167
20
-2.71217699013673
30
0
41
1
10
38.916765064852
20
-2.72670149890146
30
0
41
1
10
39.1786595369106
20
-2.76740601533496
30
0
41
1
10
39.353266645773
20
-2.79038409231694
30
0
41
1
10
39.7023768253529
20
-2.82820358681607
30
0
41
1
10
39.8759820595384
20
-2.84330001154069
30
0
41
1
10
40.2250611742986
20
-2.86455484152734
30
0
41
1
10
40.3997025461551
20
-2.8709981246472
30
0
41
1
10
40.6159053333256
20
-2.87373693761674
30
0
41
1
10
40.6569982871087
20
-2.8740281956687
30
0
41
1
10
40.6980820457044
20
-2.87408578216414
30
0
0
SPLINE
5
D5
100
AcDbEntity
8
1
62
256
6
ByLayer
370
18
48
1
60
0
100
AcDbSpline
70
4
71
3
72
8
73
4
40
0
40
0
40
0
40
0
40
1
40
1
40
1
40
1
41
1
10
24.9087249117927
20
2.81234490598956
30
0
41
1
10
25.0451277571478
20
2.80902842359893
30
0
41
1
10
25.1813265448633
20
2.80310932900287
30
0
41
1
10
25.3174103469169
20
2.79456800594693
30
0
0
SPLINE
5
D6
100
AcDbEntity
8
1
62
256
6
ByLayer
370
18
48
1
60
0
100
AcDbSpline
70
4
71
3
72
12
73
8
40
0
40
0
40
0
40
0
40
0.25
40
0.25
40
0.5
40
0.5
40
1
40
1
40
1
40
1
41
1
10
41.9039458275402
20
0.782926378962372
30
0
41
1
10
41.9915865365168
20
0.780965007306321
30
0
41
1
10
42.0791437057465
20
0.779660374119544
30
0
41
1
10
42.2542808375004
20
0.776871920784316
30
0
41
1
10
42.3418706651657
20
0.775310546922185
30
0
41
1
10
42.6045282522791
20
0.771506082425702
30
0
41
1
10
42.7795738275133
20
0.769437390532175
30
0
41
1
10
42.9545220365576
20
0.76813413215811
30
0
0
SPLINE
5
D7
100
AcDbEntity
8
1
62
256
6
ByLayer
370
18
48
1
60
0
100
AcDbSpline
70
4
71
3
72
16
73
12
40
0
40
0
40
0
40
0
40
0.27742104297377
40
0.27742104297377
40
0.55484208594754
40
0.55484208594754
40
0.832263128921311
40
0.832263128921311
40
0.970973650408194
40
0.970973650408194
40
1
40
1
40
1
40
1
41
1
10
41.8034423247521
20
-2.14669854492615
30
0
41
1
10
41.8029741236081
20
-2.2471586820109
30
0
41
1
10
41.8072227318616
20
-2.33525296233154
30
0
41
1
10
41.8254651520575
20
-2.48708962156803
30
0
41
1
10
41.8396944774683
20
-2.5510661364803
30
0
41
1
10
41.8776969163561
20
-2.64950232618136
30
0
41
1
10
41.9014624558172
20
-2.68475955527478
30
0
41
1
10
41.9448564594858
20
-2.71706296122909
30
0
41
1
10
41.9606849617624
20
-2.72438497087865
30
0
41
1
10
41.9812724957594
20
-2.72893455538647
30
0
41
1
10
41.9848873713967
20
-2.72956759226696
30
0
41
1
10
41.9885549113439
20
-2.73004694929216
30
0
0
SPLINE
5
D8
100
AcDbEntity
8
1
62
256
6
ByLayer
370
18
48
1
60
0
100
AcDbSpline
70
4
71
3
72
12
73
8
40
0
40
0
40
0
40
0
40
0.25000000000007
40
0.25000000000007
40
0.500000000000139
40
0.500000000000139
40
1
40
1
40
1
40
1
41
1
10
41.821658410446
20
0.715403408493728
30
0
41
1
10
41.8203728976296
20
0.725425485940406
30
0
41
1
10
41.8214422117444
20
0.735772614124983
30
0
41
1
10
41.8295342456848
20
0.754326081942594
30
0
41
1
10
41.8366703810786
20
0.762432079185402
30
0
41
1
10
41.8620977709712
20
0.779830084425356
30
0
41
1
10
41.8834217857811
20
0.783385700597819
30
0
41
1
10
41.9039458275402
20
0.782926378962429
30
0
0
SPLINE
5
D9
100
AcDbEntity
8
1
62
256
6
ByLayer
370
18
48
1
60
0
100
AcDbSpline
70
4
71
3
72
22
73
18
40
0
40
0
40
0
40
0
40
0.124999999999999
40
0.124999999999999
40
0.249999999999998
40
0.249999999999998
40
0.312499999999997
40
0.312499999999997
40
0.374999999999997
40
0.374999999999997
40
0.499999999999996
40
0.499999999999996
40
0.624999999999995
40
0.624999999999995
40
0.749999999999994
40
0.749999999999994
40
1
40
1
40
1
40
1
41
1
10
39.3270386242111
20
0.670767582857138
30
0
41
1
10
39.3456976898132
20
0.505806593952713
30
0
41
1
10
39.3851653916465
20
0.341827186139994
30
0
41
1
10
39.5010875513933
20
0.0156131028463165
30
0
41
1
10
39.5747409236635
20
-0.139060324305433
30
0
41
1
10
39.7030127849019
20
-0.36145016721531
30
0
41
1
10
39.7490172579296
20
-0.434271886266544
30
0
41
1
10
39.8448503743329
20
-0.574661696395651
30
0
41
1
10
39.8947519341234
20
-0.642420393955859
30
0
41
1
10
40.0495594337513
20
-0.839433756635913
30
0
41
1
10
40.1595189601566
20
-0.962486116634125
30
0
41
1
10
40.3905088899684
20
-1.19500346532573
30
0
41
1
10
40.511877475058
20
-1.30450479296496
30
0
41
1
10
40.7583498505837
20
-1.50698708090755
30
0
41
1
10
40.8841708149171
20
-1.60080619610386
30
0
41
1
10
41.2679692252784
20
-1.86407148879127
30
0
41
1
10
41.5326781292307
20
-2.015819814586
30
0
41
1
10
41.8034423247521
20
-2.14669854492615
30
0
0
SPLINE
5
DA
100
AcDbEntity
8
1
62
256
6
ByLayer
370
18
48
1
60
0
100
AcDbSpline
70
4
71
3
72
12
73
8
40
0
40
0
40
0
40
0
40
0.547307755920992
40
0.547307755920992
40
0.820961633881488
40
0.820961633881488
40
1
40
1
40
1
40
1
41
1
10
42.0324088880989
20
-2.72892885741123
30
0
41
1
10
41.3156749266259
20
-2.74301495204333
30
0
41
1
10
40.6040501691629
20
-2.68862761935523
30
0
41
1
10
39.5299134671695
20
-2.51039179594446
30
0
41
1
10
39.1695662913202
20
-2.43446981356945
30
0
41
1
10
38.57840405016
20
-2.28593826816365
30
0
41
1
10
38.3454312932731
20
-2.22122110545982
30
0
41
1
10
38.1129547801553
20
-2.15101734158915
30
0
0
SPLINE
5
DB
100
AcDbEntity
8
1
62
256
6
ByLayer
370
13
48
1
60
0
100
AcDbSpline
70
4
71
3
72
24
73
20
40
0
40
0
40
0
40
0
40
0.0419165717223159
40
0.0419165717223159
40
0.284384941077243
40
0.284384941077243
40
0.345002033415974
40
0.345002033415974
40
0.405619125754705
40
0.405619125754705
40
0.526853310432166
40
0.526853310432166
40
0.769321679787093
40
0.769321679787093
40
0.829938772125825
40
0.829938772125825
40
0.890555864464557
40
0.890555864464557
40
1
40
1
40
1
40
1
41
1
10
38.1129547148199
20
-2.15101732185903
30
0
41
1
10
37.9900990339468
20
-2.11391709515544
30
0
41
1
10
37.8673819416265
20
-2.0752845970064
30
0
41
1
10
37.035408096493
20
-1.80327227802243
30
0
41
1
10
36.328747154811
20
-1.52277900944409
30
0
41
1
10
35.4365457394892
20
-1.1312063133839
30
0
41
1
10
35.2576585758453
20
-1.05085095931892
30
0
41
1
10
34.8986928807087
20
-0.88653335826578
30
0
41
1
10
34.7187754782289
20
-0.802640115416295
30
0
41
1
10
34.1818995849487
20
-0.548878123402829
30
0
41
1
10
33.8260081041897
20
-0.37645825862495
30
0
41
1
10
32.7609202443142
20
0.143204479336845
30
0
41
1
10
32.0542907556967
20
0.492790265282423
30
0
41
1
10
31.1631301445344
20
0.908278457418561
30
0
41
1
10
30.9844996789612
20
0.990292857142549
30
0
41
1
10
30.6260699697417
20
1.15137737065342
30
0
41
1
10
30.4459338924645
20
1.23063313586141
30
0
41
1
10
29.9428627790693
20
1.44630307603941
30
0
41
1
10
29.6208176313874
20
1.57759138785508
30
0
41
1
10
29.2996310183907
20
1.7001398450316
30
0
0
SPLINE
5
DC
100
AcDbEntity
8
1
62
256
6
ByLayer
370
18
48
1
60
0
100
AcDbSpline
70
4
71
3
72
8
73
4
40
0
40
0
40
0
40
0
40
1
40
1
40
1
40
1
41
1
10
15.5158908541042
20
3.83346245204936
30
0
41
1
10
15.2282013322919
20
3.86359312902158
30
0
41
1
10
14.9443618636006
20
3.87964792486878
30
0
41
1
10
14.6619098847468
20
3.87999425078786
30
0
0
SPLINE
5
DD
100
AcDbEntity
8
1
62
256
6
ByLayer
370
18
48
1
60
0
100
AcDbSpline
70
4
71
3
72
36
73
32
40
0
40
0
40
0
40
0
40
0.062500000000015
40
0.062500000000015
40
0.12500000000003
40
0.12500000000003
40
0.25000000000005
40
0.25000000000005
40
0.31250000000006
40
0.31250000000006
40
0.37500000000007
40
0.37500000000007
40
0.406250000000071
40
0.406250000000071
40
0.437500000000073
40
0.437500000000073
40
0.468750000000074
40
0.468750000000074
40
0.500000000000076
40
0.500000000000076
40
0.531250000000077
40
0.531250000000077
40
0.562500000000079
40
0.562500000000079
40
0.625000000000072
40
0.625000000000072
40
0.750000000000048
40
0.750000000000048
40
0.875000000000024
40
0.875000000000024
40
1
40
1
40
1
40
1
41
1
10
42.170823794027
20
-1.43251875345186
30
0
41
1
10
42.1176035555109
20
-1.41630058361687
30
0
41
1
10
42.0644345832648
20
-1.39765981215601
30
0
41
1
10
41.9581999859891
20
-1.35549456819618
30
0
41
1
10
41.9049828307616
20
-1.33188451606682
30
0
41
1
10
41.7477053348742
20
-1.25412996025102
30
0
41
1
10
41.6453096884616
20
-1.19340338621842
30
0
41
1
10
41.4973332206506
20
-1.08198130488967
30
0
41
1
10
41.4491726887528
20
-1.04151767625055
30
0
41
1
10
41.3580983949407
20
-0.95164034904542
30
0
41
1
10
41.315567399755
20
-0.903043890298619
30
0
41
1
10
41.261926805694
20
-0.820136620287997
30
0
41
1
10
41.245502589173
20
-0.790186132272851
30
0
41
1
10
41.2206217827926
20
-0.727477501750485
30
0
41
1
10
41.2121629428786
20
-0.69435661901889
30
0
41
1
10
41.2095127370274
20
-0.629935121129932
30
0
41
1
10
41.2157736387536
20
-0.599181576576711
30
0
41
1
10
41.2409697775512
20
-0.548218570702716
30
0
41
1
10
41.25931054105
20
-0.527940436991742
30
0
41
1
10
41.3003379670496
20
-0.4961542359992
30
0
41
1
10
41.3235246852699
20
-0.484145040829816
30
0
41
1
10
41.3713794294075
20
-0.46571530727627
30
0
41
1
10
41.3962088976159
20
-0.459187789902444
30
0
41
1
10
41.4724935586865
20
-0.444956295694141
30
0
41
1
10
41.5256038602719
20
-0.442612065048053
30
0
41
1
10
41.6845617143752
20
-0.447747339688533
30
0
41
1
10
41.7925321050021
20
-0.46706904862296
30
0
41
1
10
42.008501227874
20
-0.523520655765822
30
0
41
1
10
42.1158276307098
20
-0.560835529751387
30
0
41
1
10
42.3293046262016
20
-0.65170303791308
30
0
41
1
10
42.4343576119247
20
-0.704709179506068
30
0
41
1
10
42.5368315032638
20
-0.767489127291128
30
0
0
SPLINE
5
DE
100
AcDbEntity
8
1
62
256
6
ByLayer
370
18
48
1
60
0
100
AcDbSpline
70
4
71
3
72
8
73
4
40
0
40
0
40
0
40
0
40
1
40
1
40
1
40
1
41
1
10
42.158880178023
20
2.77758354814856
30
0
41
1
10
42.4207845651866
20
2.10602202790668
30
0
41
1
10
42.6873415924026
20
1.43705829500499
30
0
41
1
10
42.9545220365576
20
0.76813413215811
30
0
0
SPLINE
5
DF
100
AcDbEntity
8
1
62
256
6
ByLayer
370
18
48
1
60
0
100
AcDbSpline
70
4
71
3
72
10
73
6
40
0
40
0
40
0
40
0
40
0.903358508549377
40
0.903358508549377
40
1
40
1
40
1
40
1
41
1
10
23.8447174317314
20
3.85305939485181
30
0
41
1
10
23.8335635322551
20
3.86937603815281
30
0
41
1
10
23.8224823967836
20
3.87826767099227
30
0
41
1
10
23.8103855921644
20
3.87992968889668
30
0
41
1
10
23.809217160368
20
3.88000667912004
30
0
41
1
10
23.8080490005774
20
3.88000011926269
30
0
0
SPLINE
5
E0
100
AcDbEntity
8
1
62
256
6
ByLayer
370
18
48
1
60
0
100
AcDbSpline
70
4
71
3
72
8
73
4
40
0
40
0
40
0
40
0
40
1
40
1
40
1
40
1
41
1
10
42.9999661717431
20
0.0321369584898434
30
0
41
1
10
43.00001128027
20
0.0107103315216364
30
0
41
1
10
43.0000112718796
20
-0.010714316982444
30
0
41
1
10
42.9999661717432
20
-0.0321369584602564
30
0
0
SPLINE
5
E1
100
AcDbEntity
8
1
62
256
6
ByLayer
370
18
48
1
60
0
100
AcDbSpline
70
4
71
3
72
8
73
4
40
0
40
0
40
0
40
0
40
1
40
1
40
1
40
1
41
1
10
25.3337579324002
20
2.65746193015235
30
0
41
1
10
25.2031317574424
20
2.67599778790154
30
0
41
1
10
25.0724328216107
20
2.69226353047282
30
0
41
1
10
24.9416119514568
20
2.70624713530245
30
0
0
SPLINE
5
E2
100
AcDbEntity
8
1
62
256
6
ByLayer
370
18
48
1
60
0
100
AcDbSpline
70
4
71
3
72
8
73
4
40
0
40
0
40
0
40
0
40
1
40
1
40
1
40
1
41
1
10
42.990120379511
20
-0.0953518705090914
30
0
41
1
10
42.9906782680212
20
-0.0777007869075419
30
0
41
1
10
42.99448087201
20
-0.0554219300531713
30
0
41
1
10
42.9999661717478
20
-0.032136958475121
30
0
0
SPLINE
5
E3
100
AcDbEntity
8
1
62
256
6
ByLayer
370
18
48
1
60
0
100
AcDbSpline
70
4
71
3
72
28
73
24
40
0
40
0
40
0
40
0
40
0.0333089753669353
40
0.0333089753669353
40
0.102358334269297
40
0.102358334269297
40
0.171407693171659
40
0.171407693171659
40
0.309506410976382
40
0.309506410976382
40
0.447605128781106
40
0.447605128781106
40
0.58570384658583
40
0.58570384658583
40
0.654753205488191
40
0.654753205488191
40
0.723802564390553
40
0.723802564390553
40
0.861901282195277
40
0.861901282195277
40
0.930950641097638
40
0.930950641097638
40
1
40
1
40
1
40
1
41
1
10
24.9087249117928
20
-2.84384721507522
30
0
41
1
10
24.9087249117928
20
-2.84448107226626
30
0
41
1
10
24.9087249117928
20
-2.8442581238198
30
0
41
1
10
24.9087249117927
20
-2.84094792952303
30
0
41
1
10
24.9087249117927
20
-2.83504210466552
30
0
41
1
10
24.9087249117927
20
-2.81568089380971
30
0
41
1
10
24.9087249117927
20
-2.80222897385579
30
0
41
1
10
24.9087249117927
20
-2.75131242104189
30
0
41
1
10
24.9087249117927
20
-2.7032124499413
30
0
41
1
10
24.9087249117928
20
-2.57897072633145
30
0
41
1
10
24.9087249117927
20
-2.50193638376263
30
0
41
1
10
24.9087249117927
20
-2.32477675526476
30
0
41
1
10
24.9087249117927
20
-2.22441376280841
30
0
41
1
10
24.9087249117927
20
-2.05603619591773
30
0
41
1
10
24.9087249117927
20
-1.99667333842024
30
0
41
1
10
24.9087249117927
20
-1.87296044816651
30
0
41
1
10
24.9087249117927
20
-1.80897838111611
30
0
41
1
10
24.9087249117928
20
-1.61083092878982
30
0
41
1
10
24.9087249117927
20
-1.4705047881863
30
0
41
1
10
24.9087249117927
20
-1.2475296461848
30
0
41
1
10
24.9087249117927
20
-1.1707042287164
30
0
41
1
10
24.9087249117927
20
-1.01523395295209
30
0
41
1
10
24.9087249117927
20
-0.936542483185832
30
0
41
1
10
24.9087249117927
20
-0.856907857897312
30
0
0
SPLINE
5
E4
100
AcDbEntity
8
1
62
256
6
ByLayer
370
18
48
1
60
0
100
AcDbSpline
70
4
71
3
72
21
73
17
40
0
40
0
40
0
40
0
40
0.04261785609814
40
0.101505166006164
40
0.160370603027221
40
0.278110369463478
40
0.359098847380985
40
0.42542385702639
40
0.513984183666675
40
0.602738976370286
40
0.632345210306112
40
0.72854834997266
40
0.809884315466679
40
0.854202006549097
40
0.942685733646976
40
1
40
1
40
1
40
1
41
1
10
24.4391773075432
20
-0.619359547140135
30
0
41
1
10
24.4455392742818
20
-0.677479637525209
30
0
41
1
10
24.460684060912
20
-0.814884883661392
30
0
41
1
10
24.4846223089567
20
-1.02743940965107
30
0
41
1
10
24.5197894803301
20
-1.32953378275462
30
0
41
1
10
24.5582537700945
20
-1.63932062730487
30
0
41
1
10
24.5978136568362
20
-1.92585377597791
30
0
41
1
10
24.6329815193569
20
-2.15622969551481
30
0
41
1
10
24.6692631693936
20
-2.36459798792106
30
0
41
1
10
24.6999908583717
20
-2.50995021107909
30
0
41
1
10
24.731841119763
20
-2.63715090727513
30
0
41
1
10
24.7625928020874
20
-2.73563710249019
30
0
41
1
10
24.7955556274731
20
-2.80214178700021
30
0
41
1
10
24.8274078788108
20
-2.83892359368107
30
0
41
1
10
24.8557335784417
20
-2.84574522889133
30
0
41
1
10
24.8775081542199
20
-2.82878193028853
30
0
41
1
10
24.8860828337751
20
-2.81869127109763
30
0
0
SPLINE
5
E5
100
AcDbEntity
8
1
62
256
6
ByLayer
370
18
48
1
60
0
100
AcDbSpline
70
4
71
3
72
12
73
8
40
0
40
0
40
0
40
0
40
0.5
40
0.5
40
0.75
40
0.75
40
1
40
1
40
1
40
1
41
1
10
24.4391773075432
20
-0.619359547140135
30
0
41
1
10
24.2392451037345
20
-0.561383834907076
30
0
41
1
10
24.0477354228901
20
-0.47344124499233
30
0
41
1
10
23.7672022796322
20
-0.30185655904296
30
0
41
1
10
23.674888134944
20
-0.237826557256483
30
0
41
1
10
23.4918670234762
20
-0.0964379812756988
30
0
41
1
10
23.4010441971048
20
-0.0190908205578069
30
0
41
1
10
23.3117364671513
20
0.0635308288657086
30
0
0
SPLINE
5
E6
100
AcDbEntity
8
1
62
256
6
ByLayer
370
18
48
1
60
0
100
AcDbSpline
70
4
71
3
72
46
73
42
40
0
40
0
40
0
40
0
40
0.0410251593680468
40
0.0410251593680468
40
0.0809824443943758
40
0.0809824443943758
40
0.120939729420705
40
0.120939729420705
40
0.200854299473363
40
0.200854299473363
40
0.280768869526021
40
0.280768869526021
40
0.320726154552351
40
0.320726154552351
40
0.360683439578682
40
0.360683439578682
40
0.400640724605012
40
0.400640724605012
40
0.440598009631343
40
0.440598009631343
40
0.520512579684007
40
0.520512579684007
40
0.560469864710339
40
0.560469864710339
40
0.600427149736671
40
0.600427149736671
40
0.680341719789338
40
0.680341719789338
40
0.72029900481567
40
0.72029900481567
40
0.760256289842002
40
0.760256289842002
40
0.800213574868334
40
0.800213574868334
40
0.840170859894666
40
0.840170859894666
40
0.920085429947333
40
0.920085429947333
40
0.960042714973667
40
0.960042714973667
40
1
40
1
40
1
40
1
41
1
10
36.1848585811036
20
-1.97861014889347
30
0
41
1
10
36.0305662888566
20
-2.03072266150309
30
0
41
1
10
35.8761897284808
20
-2.08070120213952
30
0
41
1
10
35.5711781132921
20
-2.17427690776066
30
0
41
1
10
35.4207852043709
20
-2.217900626914
30
0
41
1
10
35.1204807503183
20
-2.29997956814427
30
0
41
1
10
34.9705763718248
20
-2.33832299034913
30
0
41
1
10
34.5205502055321
20
-2.44559938271223
30
0
41
1
10
34.2202260148574
20
-2.50774565317687
30
0
41
1
10
33.6189887403419
20
-2.60887344228311
30
0
41
1
10
33.3178753331636
20
-2.64902167049416
30
0
41
1
10
32.8674340825585
20
-2.68960516974687
30
0
41
1
10
32.7175451524284
20
-2.70024912498099
30
0
41
1
10
32.4175078918732
20
-2.71630591193616
30
0
41
1
10
32.2674396433822
20
-2.72152937704305
30
0
41
1
10
31.9669629110892
20
-2.72546413101134
30
0
41
1
10
31.81651725884
20
-2.72400059270399
30
0
41
1
10
31.5155874250111
20
-2.71602987638482
30
0
41
1
10
31.3652028810216
20
-2.70927176251053
30
0
41
1
10
30.9144960934178
20
-2.67985237821182
30
0
41
1
10
30.6144113833585
20
-2.64783010941639
30
0
41
1
10
30.1642943183286
20
-2.58382323578587
30
0
41
1
10
30.0141737762394
20
-2.55970294954943
30
0
41
1
10
29.7134875317663
20
-2.50497339402986
30
0
41
1
10
29.5627346384387
20
-2.47492315669149
30
0
41
1
10
29.1115142512176
20
-2.37757403713337
30
0
41
1
10
28.8116107041366
20
-2.30211246925742
30
0
41
1
10
28.3615458825909
20
-2.17473233765617
30
0
41
1
10
28.2116771121167
20
-2.1298142468647
30
0
41
1
10
27.9118393881606
20
-2.03501268498619
30
0
41
1
10
27.7617992817489
20
-1.98493686262435
30
0
41
1
10
27.461261667108
20
-1.88062425386008
30
0
41
1
10
27.3106471052005
20
-1.82699902131532
30
0
41
1
10
27.0096321631242
20
-1.71548463863445
30
0
41
1
10
26.8594527733885
20
-1.65781146156988
30
0
41
1
10
26.4091203949595
20
-1.48017689021805
30
0
41
1
10
26.1092313458336
20
-1.35588310184318
30
0
41
1
10
25.6597335321521
20
-1.15833098936676
30
0
41
1
10
25.5097872000313
20
-1.0910911990297
30
0
41
1
10
25.2095484438023
20
-0.955057997603376
30
0
41
1
10
25.0592090161199
20
-0.886237037469073
30
0
41
1
10
24.9087249117927
20
-0.816305563691174
30
0
0
SPLINE
5
E7
100
AcDbEntity
8
1
62
256
6
ByLayer
370
18
48
1
60
0
100
AcDbSpline
70
4
71
3
72
24
73
20
40
0
40
0
40
0
40
0
40
0.124999999999994
40
0.124999999999994
40
0.187499999999995
40
0.187499999999995
40
0.249999999999996
40
0.249999999999996
40
0.374999999999996
40
0.374999999999996
40
0.499999999999997
40
0.499999999999997
40
0.624999999999998
40
0.624999999999998
40
0.749999999999998
40
0.749999999999998
40
0.874999999999999
40
0.874999999999999
40
1
40
1
40
1
40
1
41
1
10
42.5368315032638
20
-0.767489127291128
30
0
41
1
10
42.53304471365
20
-0.804545032157733
30
0
41
1
10
42.5252560596647
20
-0.847701962861578
30
0
41
1
10
42.5086157299893
20
-0.915300913211041
30
0
41
1
10
42.5021412645839
20
-0.938779600173405
30
0
41
1
10
42.4879421200542
20
-0.985569885756007
30
0
41
1
10
42.4802275405763
20
-1.00891177298436
30
0
41
1
10
42.4553599469384
20
-1.07879617062039
30
0
41
1
10
42.436793649881
20
-1.12425860790705
30
0
41
1
10
42.397977972877
20
-1.20898262254906
30
0
41
1
10
42.3780319364172
20
-1.24765960763702
30
0
41
1
10
42.3382070998416
20
-1.31658908731455
30
0
41
1
10
42.3183369907629
20
-1.34670657996045
30
0
41
1
10
42.2811595691664
20
-1.39526540397122
30
0
41
1
10
42.2634768725018
20
-1.4143119478577
30
0
41
1
10
42.2306707042593
20
-1.44091013322384
30
0
41
1
10
42.2159992197102
20
-1.44816492373829
30
0
41
1
10
42.1901179031801
20
-1.45014114824025
30
0
41
1
10
42.1791806146635
20
-1.44465733707929
30
0
41
1
10
42.1708237940269
20
-1.43251875345189
30
0
0
SPLINE
5
E8
100
AcDbEntity
8
1
62
256
6
ByLayer
370
18
48
1
60
0
100
AcDbSpline
70
4
71
3
72
8
73
4
40
0
40
0
40
0
40
0
40
1
40
1
40
1
40
1
41
1
10
42.9545220365576
20
-0.768134132158139
30
0
41
1
10
42.9711704504579
20
-0.543637112300303
30
0
41
1
10
42.9830397604078
20
-0.319376200539466
30
0
41
1
10
42.9901203795109
20
-0.0953518705091483
30
0
0
SPLINE
5
E9
100
AcDbEntity
8
1
62
256
6
ByLayer
370
13
48
1
60
0
100
AcDbSpline
70
4
71
3
72
8
73
4
40
0
40
0
40
0
40
0
40
1
40
1
40
1
40
1
41
1
10
24.9087249117927
20
-2.78840498101474
30
0
41
1
10
25.1019547377431
20
-2.77407887237666
30
0
41
1
10
25.29532798367
20
-2.75466094098073
30
0
41
1
10
25.4887441917715
20
-2.73032956625087
30
0
0
SPLINE
5
EA
100
AcDbEntity
8
1
62
256
6
ByLayer
370
18
48
1
60
0
100
AcDbSpline
70
4
71
3
72
36
73
32
40
0
40
0
40
0
40
0
40
0.0318173866214976
40
0.0318173866214976
40
0.119833987837722
40
0.119833987837722
40
0.207850589053947
40
0.207850589053947
40
0.295867190270171
40
0.295867190270171
40
0.383883791486396
40
0.383883791486396
40
0.427892092094508
40
0.427892092094508
40
0.47190039270262
40
0.47190039270262
40
0.55991699391885
40
0.55991699391885
40
0.64793359513508
40
0.64793359513508
40
0.73595019635131
40
0.73595019635131
40
0.779958496959425
40
0.779958496959425
40
0.82396679756754
40
0.82396679756754
40
0.91198339878377
40
0.91198339878377
40
0.955991699391885
40
0.955991699391885
40
1
40
1
40
1
40
1
41
1
10
36.1809007972172
20
1.97484561695856
30
0
41
1
10
36.2439755861759
20
1.99860411944843
30
0
41
1
10
36.3069726859098
20
2.02214615818411
30
0
41
1
10
36.5445956318838
20
2.10903202440096
30
0
41
1
10
36.7199450227751
20
2.16915406287944
30
0
41
1
10
37.0713590275291
20
2.28335193777559
30
0
41
1
10
37.2478702706359
20
2.3368746375638
30
0
41
1
10
37.6003604091393
20
2.43913735117869
30
0
41
1
10
37.7772242327484
20
2.48613877505903
30
0
41
1
10
38.1292075835759
20
2.57222952841982
30
0
41
1
10
38.3051858789877
20
2.61097474134874
30
0
41
1
10
38.5675994042457
20
2.66400045630559
30
0
41
1
10
38.6547394530629
20
2.68084996096405
30
0
41
1
10
38.8293393023209
20
2.71217699013746
30
0
41
1
10
38.9167650648562
20
2.72670149890215
30
0
41
1
10
39.178659536915
20
2.76740601533555
30
0
41
1
10
39.3532666457774
20
2.79038409231751
30
0
41
1
10
39.7023768253574
20
2.8282035868165
30
0
41
1
10
39.875982059543
20
2.84330001154103
30
0
41
1
10
40.2250611743033
20
2.86455484152754
30
0
41
1
10
40.3997025461598
20
2.87099812464734
30
0
41
1
10
40.662400364657
20
2.87432592722453
30
0
41
1
10
40.7500665171282
20
2.87439413665152
30
0
41
1
10
40.9249936912909
20
2.87235827315823
30
0
41
1
10
41.0124309181078
20
2.87023990740769
30
0
41
1
10
41.2758519587626
20
2.86073409136964
30
0
41
1
10
41.4520308299694
20
2.85010875902407
30
0
41
1
10
41.7174273132079
20
2.82779312962953
30
0
41
1
10
41.8060343425672
20
2.81932042028754
30
0
41
1
10
41.9827622166069
20
2.8001593077434
30
0
41
1
10
42.0707525921632
20
2.78937037812804
30
0
41
1
10
42.158880178023
20
2.77758354814856
30
0
0
SPLINE
5
EB
100
AcDbEntity
8
1
62
256
6
ByLayer
370
18
48
1
60
0
100
AcDbSpline
70
4
71
3
72
30
73
26
40
0
40
0
40
0
40
0
40
0.0533304316881401
40
0.0533304316881401
40
0.132219562380799
40
0.132219562380799
40
0.171664127727128
40
0.171664127727128
40
0.211108693073457
40
0.211108693073457
40
0.368886954458772
40
0.368886954458772
40
0.447776085151428
40
0.447776085151428
40
0.487220650497755
40
0.487220650497755
40
0.526665215844082
40
0.526665215844082
40
0.684443477229387
40
0.684443477229387
40
0.763332607922041
40
0.763332607922041
40
0.842221738614695
40
0.842221738614695
40
1
40
1
40
1
40
1
41
1
10
28.4738355981354
20
1.98976172108863
30
0
41
1
10
28.7135987876727
20
1.90376714082765
30
0
41
1
10
28.9534216642738
20
1.8122168202672
30
0
41
1
10
29.549152876077
20
1.57284840090182
30
0
41
1
10
29.9056191800473
20
1.41916267625501
30
0
41
1
10
30.4437711288122
20
1.17514653084763
30
0
41
1
10
30.6238819625692
20
1.09152623615231
30
0
41
1
10
30.982053577189
20
0.922040786306553
30
0
41
1
10
31.1605350041927
20
0.835951042117387
30
0
41
1
10
32.050929394344
20
0.400807000210165
30
0
41
1
10
32.7567553621708
20
0.0375578024327012
30
0
41
1
10
33.8212918247471
20
-0.498591492938715
30
0
41
1
10
34.1770808145881
20
-0.675898609064973
30
0
41
1
10
34.7140721756544
20
-0.935909816676144
30
0
41
1
10
34.8941050408541
20
-1.02173939963492
30
0
41
1
10
35.2528490509856
20
-1.18925342720075
30
0
41
1
10
35.4316123371045
20
-1.27096591025477
30
0
41
1
10
36.3231280941942
20
-1.66825228276014
30
0
41
1
10
37.0289722168757
20
-1.94988679925146
30
0
41
1
10
38.0923557082384
20
-2.294348710713
30
0
41
1
10
38.447657005049
20
-2.39612621352958
30
0
41
1
10
39.1624411713545
20
-2.5701117659907
30
0
41
1
10
39.5228557438638
20
-2.64234560190457
30
0
41
1
10
40.5964246267216
20
-2.80709472969619
30
0
41
1
10
41.3075569223362
20
-2.84950791539163
30
0
41
1
10
42.024058586263
20
-2.82100086326173
30
0
0
SPLINE
5
EC
100
AcDbEntity
8
1
62
256
6
ByLayer
370
18
48
1
60
0
100
AcDbSpline
70
4
71
3
72
8
73
4
40
0
40
0
40
0
40
0
40
1
40
1
40
1
40
1
41
1
10
42.9545220365576
20
0.76813413215811
30
0
41
1
10
42.9711770780661
20
0.543547741726684
30
0
41
1
10
42.9830425787879
20
0.31928702956688
30
0
41
1
10
42.9901203795109
20
0.0953518705091767
30
0
0
SPLINE
5
ED
100
AcDbEntity
8
1
62
256
6
ByLayer
370
18
48
1
60
0
100
AcDbSpline
70
4
71
3
72
8
73
4
40
0
40
0
40
0
40
0
40
1
40
1
40
1
40
1
41
1
10
24.9087249117927
20
-2.81234490598956
30
0
41
1
10
25.0451277571478
20
-2.80902842359893
30
0
41
1
10
25.1813265448633
20
-2.80310932900284
30
0
41
1
10
25.3174103469169
20
-2.7945680059469
30
0
0
SPLINE
5
EE
100
AcDbEntity
8
1
62
256
6
ByLayer
370
18
48
1
60
0
100
AcDbSpline
70
4
71
3
72
66
73
62
40
0
40
0
40
0
40
0
40
0.0625000000000021
40
0.0625000000000021
40
0.0937500000000031
40
0.0937500000000031
40
0.125000000000004
40
0.125000000000004
40
0.187500000000006
40
0.187500000000006
40
0.250000000000008
40
0.250000000000008
40
0.31250000000001
40
0.31250000000001
40
0.375000000000012
40
0.375000000000012
40
0.406250000000014
40
0.406250000000014
40
0.437500000000015
40
0.437500000000015
40
0.468750000000017
40
0.468750000000017
40
0.500000000000018
40
0.500000000000018
40
0.515625000000019
40
0.515625000000019
40
0.53125000000002
40
0.53125000000002
40
0.54687500000002
40
0.54687500000002
40
0.562500000000021
40
0.562500000000021
40
0.578125000000022
40
0.578125000000022
40
0.593750000000023
40
0.593750000000023
40
0.609375000000023
40
0.609375000000023
40
0.625000000000024
40
0.625000000000024
40
0.656250000000026
40
0.656250000000026
40
0.671875000000027
40
0.671875000000027
40
0.675781250000027
40
0.675781250000027
40
0.677734375000027
40
0.677734375000027
40
0.679687500000028
40
0.679687500000028
40
0.683593750000028
40
0.683593750000028
40
0.687500000000028
40
0.687500000000028
40
0.750000000000022
40
0.750000000000022
40
0.875000000000011
40
0.875000000000011
40
0.937500000000005
40
0.937500000000005
40
1
40
1
40
1
40
1
41
1
10
15.5158908541042
20
-3.83346245204936
30
0
41
1
10
15.2277691521059
20
-3.86363839268463
30
0
41
1
10
14.9435090793643
20
-3.87969612958125
30
0
41
1
10
14.5192008970094
20
-3.88014549305711
30
0
41
1
10
14.3781143479264
20
-3.87637415787614
30
0
41
1
10
14.0960866548628
20
-3.86075695496024
30
0
41
1
10
13.955180131654
20
-3.84889555830233
30
0
41
1
10
13.5350300617296
20
-3.80142292241771
30
0
41
1
10
13.2572819769015
20
-3.75390958398367
30
0
41
1
10
12.7038461888145
20
-3.6279039794957
30
0
41
1
10
12.4281549712181
20
-3.54947439936291
30
0
41
1
10
11.8779119032015
20
-3.36095794541862
30
0
41
1
10
11.603341910689
20
-3.25098089215527
30
0
41
1
10
11.056390077657
20
-2.99479443013863
30
0
41
1
10
10.786931720977
20
-2.8501372621889
30
0
41
1
10
10.3941496413634
20
-2.60153285880722
30
0
41
1
10
10.2650277175341
20
-2.51319338584582
30
0
41
1
10
10.0148091103295
20
-2.3252163569401
30
0
41
1
10
9.89336507563596
20
-2.22543036822654
30
0
41
1
10
9.66089688143228
20
-2.01064097394638
30
0
41
1
10
9.54978511107532
20
-1.89574500257603
30
0
41
1
10
9.34389127628975
20
-1.64366838148939
30
0
41
1
10
9.2506307846736
20
-1.50847209382633
30
0
41
1
10
9.13657336819995
20
-1.28678652595127
30
0
41
1
10
9.1030705441278
20
-1.20975989754345
30
0
41
1
10
9.04901585009128
20
-1.05201633058658
30
0
41
1
10
9.02820042649273
20
-0.970855957292002
30
0
41
1
10
9.00210464561323
20
-0.802958856976005
30
0
41
1
10
8.99715948553128
20
-0.715711032567782
30
0
41
1
10
9.00611797472993
20
-0.543915852620188
30
0
41
1
10
9.01993457368164
20
-0.457870648119581
30
0
41
1
10
9.06650260496122
20
-0.288639701483675
30
0
41
1
10
9.09852833202407
20
-0.207594794807221
30
0
41
1
10
9.17772726804606
20
-0.0517223795339987
30
0
41
1
10
9.22524002837272
20
0.0233271552658607
30
0
41
1
10
9.32959955409382
20
0.162994775705073
30
0
41
1
10
9.38677798453142
20
0.228409904618047
30
0
41
1
10
9.5091269333405
20
0.35219468738697
30
0
41
1
10
9.57459452391305
20
0.410776088145042
30
0
41
1
10
9.77840978202437
20
0.575627948847966
30
0
41
1
10
9.92444635992655
20
0.671766794953214
30
0
41
1
10
10.1521337576379
20
0.800987439736758
30
0
41
1
10
10.2293991044461
20
0.84146758520555
30
0
41
1
10
10.3274454304467
20
0.889322508987192
30
0
41
1
10
10.3471300281226
20
0.89875640438089
30
0
41
1
10
10.3767457579368
20
0.912699682628414
30
0
41
1
10
10.3866276977786
20
0.917324507410513
30
0
41
1
10
10.4064383789747
20
0.926472901107275
30
0
41
1
10
10.4168886398847
20
0.930263596618175
30
0
41
1
10
10.4490341824757
20
0.936195887145288
30
0
41
1
10
10.4711600157999
20
0.933963468389834
30
0
41
1
10
10.5148406258823
20
0.928518197900814
30
0
41
1
10
10.536710100262
20
0.926020988308494
30
0
41
1
10
10.908104904058
20
0.880562479460991
30
0
41
1
10
11.2558496425975
20
0.822450279776632
30
0
41
1
10
12.2873106767873
20
0.603719976085046
30
0
41
1
10
12.9553971747092
20
0.399040701080736
30
0
41
1
10
13.9335254227377
20
0.0169174665060439
30
0
41
1
10
14.2560720461421
20
-0.123001145293443
30
0
41
1
10
14.8929307550152
20
-0.42218804863731
30
0
41
1
10
15.2062319236965
20
-0.58091241167952
30
0
41
1
10
15.515890854104
20
-0.745427584316332
30
0
0
SPLINE
5
EF
100
AcDbEntity
8
1
62
256
6
ByLayer
370
18
48
1
60
0
100
AcDbSpline
70
4
71
3
72
8
73
4
40
0
40
0
40
0
40
0
40
1
40
1
40
1
40
1
41
1
10
24.9087249117927
20
2.81234490598956
30
0
41
1
10
24.9087249117927
20
2.83139081891952
30
0
41
1
10
24.9087249117928
20
2.84186611204262
30
0
41
1
10
24.9087249117928
20
2.84385090598954
30
0
0
SPLINE
5
F0
100
AcDbEntity
8
1
62
256
6
ByLayer
370
18
48
1
60
0
100
AcDbSpline
70
4
71
3
72
8
73
4
40
0
40
0
40
0
40
0
40
1
40
1
40
1
40
1
41
1
10
42.1588801780183
20
-2.77758354816086
30
0
41
1
10
42.4207784849796
20
-2.10603761845516
30
0
41
1
10
42.6873385748193
20
-1.43706584995312
30
0
41
1
10
42.9545220365576
20
-0.768134132158139
30
0
0
SPLINE
5
F1
100
AcDbEntity
8
1
62
256
6
ByLayer
370
18
48
1
60
0
100
AcDbSpline
70
4
71
3
72
18
73
14
40
0
40
0
40
0
40
0
40
0.141016576587902
40
0.141016576587902
40
0.284180480489918
40
0.284180480489918
40
0.427344384391935
40
0.427344384391935
40
0.570508288293951
40
0.570508288293951
40
0.713672192195967
40
0.713672192195967
40
1
40
1
40
1
40
1
41
1
10
18.9223165353875
20
-2.79493222949006
30
0
41
1
10
18.7617921508852
20
-2.8727159858405
30
0
41
1
10
18.6001382183456
20
-2.94723871689101
30
0
41
1
10
18.2757197676541
20
-3.08908351793377
30
0
41
1
10
18.1127519146982
20
-3.15632604064561
30
0
41
1
10
17.7879900132359
20
-3.28270293097452
30
0
41
1
10
17.6261522143032
20
-3.34177093309793
30
0
41
1
10
17.3022641927052
20
-3.45079087583792
30
0
41
1
10
17.1404118220538
20
-3.50090276406669
30
0
41
1
10
16.8166580870453
20
-3.59221774843689
30
0
41
1
10
16.6550185100221
20
-3.63355710162361
30
0
41
1
10
16.1690292655819
20
-3.74351947588846
30
0
41
1
10
15.8434940354179
20
-3.79819311299127
30
0
41
1
10
15.5158908541038
20
-3.83346245204942
30
0
0
SPLINE
5
F2
100
AcDbEntity
8
1
62
256
6
ByLayer
370
18
48
1
60
0
100
AcDbSpline
70
4
71
3
72
32
73
28
40
0
40
0
40
0
40
0
40
0.124999999999999
40
0.124999999999999
40
0.187499999999998
40
0.187499999999998
40
0.249999999999997
40
0.249999999999997
40
0.374999999999996
40
0.374999999999996
40
0.437499999999996
40
0.437499999999996
40
0.499999999999996
40
0.499999999999996
40
0.562499999999997
40
0.562499999999997
40
0.624999999999997
40
0.624999999999997
40
0.687499999999997
40
0.687499999999997
40
0.749999999999997
40
0.749999999999997
40
0.812499999999998
40
0.812499999999998
40
0.874999999999998
40
0.874999999999998
40
1
40
1
40
1
40
1
41
1
10
23.3117364671512
20
0.0635308288658507
30
0
41
1
10
22.9882071919073
20
0.288845334275066
30
0
41
1
10
22.6639883287937
20
0.513590926597118
30
0
41
1
10
22.1756463813276
20
0.84844534712667
30
0
41
1
10
22.0117710929782
20
0.959376024526932
30
0
41
1
10
21.6844477251665
20
1.17823037999253
30
0
41
1
10
21.521332859872
20
1.28570081004514
30
0
41
1
10
21.0341909814781
20
1.60314334971599
30
0
41
1
10
20.7108721256195
20
1.80605763044918
30
0
41
1
10
20.2260305544171
20
2.09508627609361
30
0
41
1
10
20.0648191708509
20
2.18932803608891
30
0
41
1
10
19.7415732462868
20
2.3715974016701
30
0
41
1
10
19.579660948071
20
2.45978672764116
30
0
41
1
10
19.2551640220665
20
2.63013974002323
30
0
41
1
10
19.0925823082896
20
2.71230778423504
30
0
41
1
10
18.7667154708746
20
2.87044543972618
30
0
41
1
10
18.602589592202
20
2.94616690782402
30
0
41
1
10
18.2757197676541
20
3.0890835179338
30
0
41
1
10
18.1127519146982
20
3.15632604064561
30
0
41
1
10
17.7879900132359
20
3.28270293097452
30
0
41
1
10
17.6261522143032
20
3.34177093309793
30
0
41
1
10
17.3022641927052
20
3.45079087583795
30
0
41
1
10
17.1404118220538
20
3.50090276406672
30
0
41
1
10
16.8166580870453
20
3.59221774843689
30
0
41
1
10
16.6550185100221
20
3.63355710162364
30
0
41
1
10
16.1690292655819
20
3.74351947588849
30
0
41
1
10
15.8434940354179
20
3.79819311299127
30
0
41
1
10
15.5158908541038
20
3.83346245204942
30
0
0
SPLINE
5
F3
100
AcDbEntity
8
1
62
256
6
ByLayer
370
18
48
1
60
0
100
AcDbSpline
70
4
71
3
72
8
73
4
40
0
40
0
40
0
40
0
40
1
40
1
40
1
40
1
41
1
10
42.170823794027
20
-1.43251875345186
30
0
41
1
10
42.0454322358012
20
-1.66790952782614
30
0
41
1
10
41.9229614864201
20
-1.90596011546688
30
0
41
1
10
41.8034423247522
20
-2.14669854492618
30
0
0
SPLINE
5
F4
100
AcDbEntity
8
1
62
256
6
ByLayer
370
18
48
1
60
0
100
AcDbSpline
70
4
71
3
72
11
73
7
40
0
40
0
40
0
40
0
40
0.194212300183179
40
0.653483406236136
40
0.849254134708692
40
1
40
1
40
1
40
1
41
1
10
24.8409453253117
20
2.84015670504297
30
0
41
1
10
24.8474248636597
20
2.8416288015917
30
0
41
1
10
24.869240806927
20
2.84000428090226
30
0
41
1
10
24.8976602438267
20
2.80884395504211
30
0
41
1
10
24.9247896803172
20
2.75175978831558
30
0
41
1
10
24.9365046291487
20
2.72087559504925
30
0
41
1
10
24.9416119514568
20
2.70624713530242
30
0
0
SPLINE
5
F5
100
AcDbEntity
8
1
62
256
6
ByLayer
370
18
48
1
60
0
100
AcDbSpline
70
4
71
3
72
30
73
26
40
0
40
0
40
0
40
0
40
0.0489274412728235
40
0.0489274412728235
40
0.154602170020286
40
0.154602170020286
40
0.207439534394018
40
0.207439534394018
40
0.26027689876775
40
0.26027689876775
40
0.365951627515215
40
0.365951627515215
40
0.47162635626268
40
0.47162635626268
40
0.577301085010144
40
0.577301085010144
40
0.682975813757609
40
0.682975813757609
40
0.73581317813134
40
0.73581317813134
40
0.788650542505071
40
0.788650542505071
40
0.894325271252535
40
0.894325271252535
40
1
40
1
40
1
40
1
41
1
10
18.9203762623153
20
2.79527274337355
30
0
41
1
10
19.0010465441253
20
2.83454423011486
30
0
41
1
10
19.0814838719518
20
2.87292649317121
30
0
41
1
10
19.3360897307888
20
2.99028208524936
30
0
41
1
10
19.5096998833076
20
3.06579719993755
30
0
41
1
10
19.7697355960707
20
3.17197863088398
30
0
41
1
10
19.8563969127384
20
3.20615407794512
30
0
41
1
10
20.0293048538191
20
3.2723820308338
30
0
41
1
10
20.1153385180955
20
3.30459154547103
30
0
41
1
10
20.3737616154242
20
3.39722759490206
30
0
41
1
10
20.5466627254838
20
3.45359539038048
30
0
41
1
10
20.8924607595426
20
3.55659772423218
30
0
41
1
10
21.0659182154716
20
3.60290538776312
30
0
41
1
10
21.411550147849
20
3.68617710341565
30
0
41
1
10
21.5852450581901
20
3.72233127907475
30
0
41
1
10
21.9340299563985
20
3.78385937525451
30
0
41
1
10
22.1099509594179
20
3.80915731270218
30
0
41
1
10
22.3716618651461
20
3.83869748352291
30
0
41
1
10
22.4583969606771
20
3.84718464841356
30
0
41
1
10
22.6320616593145
20
3.861194673905
30
0
41
1
10
22.7190505999748
20
3.8667293513532
30
0
41
1
10
22.9795057013479
20
3.879150140766
30
0
41
1
10
23.1528974637054
20
3.88178071605478
30
0
41
1
10
23.4995026509554
20
3.87588871038139
30
0
41
1
10
23.6715490521994
20
3.86722414531872
30
0
41
1
10
23.8447174317257
20
3.85305939485164
30
0
0
SPLINE
5
F6
100
AcDbEntity
8
1
62
256
6
ByLayer
370
18
48
1
60
0
100
AcDbSpline
70
4
71
3
72
8
73
4
40
0
40
0
40
0
40
0
40
1
40
1
40
1
40
1
41
1
10
42.9901203795109
20
0.0953518705091767
30
0
41
1
10
42.9906782680211
20
0.0777007869105262
30
0
41
1
10
42.9944808720088
20
0.0554219300603904
30
0
41
1
10
42.9999661717451
20
0.0321369584866602
30
0
0
SPLINE
5
F7
100
AcDbEntity
8
1
62
256
6
ByLayer
370
18
48
1
60
0
100
AcDbSpline
70
4
71
3
72
8
73
4
40
0
40
0
40
0
40
0
40
1
40
1
40
1
40
1
41
1
10
42.0058313675804
20
2.86667581949655
30
0
41
1
10
41.8648895484339
20
2.87209844524443
30
0
41
1
10
41.7240243787582
20
2.87475003823056
30
0
41
1
10
41.5831575282695
20
2.87464092903411
30
0
0
SPLINE
5
F8
100
AcDbEntity
8
1
62
256
6
ByLayer
370
18
48
1
60
0
100
AcDbSpline
70
4
71
3
72
8
73
4
40
0
40
0
40
0
40
0
40
1
40
1
40
1
40
1
41
1
10
25.7460853132929
20
-2.73817301296137
30
0
41
1
10
25.6033838571984
20
-2.75966129626249
30
0
41
1
10
25.4605194987641
20
-2.7784825726678
30
0
41
1
10
25.3174103469169
20
-2.7945680059469
30
0
0
SPLINE
5
F9
100
AcDbEntity
8
1
62
256
6
ByLayer
370
18
48
1
60
0
100
AcDbSpline
70
4
71
3
72
8
73
4
40
0
40
0
40
0
40
0
40
1
40
1
40
1
40
1
41
1
10
24.9087249117928
20
-0.856907857897937
30
0
41
1
10
24.9087249117928
20
-0.844019466732533
30
0
41
1
10
24.9087249117927
20
-0.830483059215851
30
0
41
1
10
24.9087249117927
20
-0.816305563691174
30
0
0
SPLINE
5
FA
100
AcDbEntity
8
1
62
256
6
ByLayer
370
18
48
1
60
0
100
AcDbSpline
70
4
71
3
72
8
73
4
40
0
40
0
40
0
40
0
40
1
40
1
40
1
40
1
41
1
10
42.9790532843958
20
-0.0172552697071353
30
0
41
1
10
42.8281858349467
20
-0.264182226299795
30
0
41
1
10
42.6807627505908
20
-0.514245768837213
30
0
41
1
10
42.5368315032638
20
-0.767489127291128
30
0
0
SPLINE
5
FB
100
AcDbEntity
8
1
62
256
6
ByLayer
370
18
48
1
60
0
100
AcDbSpline
70
4
71
3
72
8
73
4
40
0
40
0
40
0
40
0
40
1
40
1
40
1
40
1
41
1
10
42.1588801780218
20
-2.77758354814958
30
0
41
1
10
42.1025246302612
20
-2.8229685143539
30
0
41
1
10
42.0515870021826
20
-2.85306814081846
30
0
41
1
10
42.0058313675803
20
-2.86667581949683
30
0
0
SPLINE
5
FC
100
AcDbEntity
8
1
62
256
6
ByLayer
370
18
48
1
60
0
100
AcDbSpline
70
4
71
3
72
23
73
19
40
0
40
0
40
0
40
0
40
0.0937795061260644
40
0.169534063539039
40
0.233806225221039
40
0.297485549846952
40
0.353423758960847
40
0.403111819076046
40
0.456311192691155
40
0.531512681450107
40
0.617801939312855
40
0.68212786435151
40
0.709226680735785
40
0.735282454029871
40
0.766693023806191
40
0.821873894918592
40
0.902027598425291
40
1
40
1
40
1
40
1
41
1
10
24.9087124613445
20
-2.72000248982948
30
0
41
1
10
25.129161324022
20
-2.72002702298752
30
0
41
1
10
25.5275910805681
20
-2.72017053098458
30
0
41
1
10
26.0767728677249
20
-2.72176461448217
30
0
41
1
10
26.5551708968491
20
-2.72148102586405
30
0
41
1
10
26.987510934339
20
-2.72119954573873
30
0
41
1
10
27.3855406942608
20
-2.72074501145241
30
0
41
1
10
27.7588413947809
20
-2.72195307153297
30
0
41
1
10
28.1775451486489
20
-2.72265904602179
30
0
41
1
10
28.6821810009872
20
-2.72267279692062
30
0
41
1
10
29.212922485251
20
-2.72246923196175
30
0
41
1
10
29.6306363677983
20
-2.72224869709444
30
0
41
1
10
29.9065447086899
20
-2.72324487291616
30
0
41
1
10
30.1053443824218
20
-2.72336961481096
30
0
41
1
10
30.3701667355352
20
-2.7231377763695
30
0
41
1
10
30.7621628382212
20
-2.72348678335078
30
0
41
1
10
31.3106476089501
20
-2.72385285534372
30
0
41
1
10
31.7293987245494
20
-2.72420909498908
30
0
41
1
10
31.95971828352
20
-2.72440951208341
30
0
0
SPLINE
5
FD
100
AcDbEntity
8
1
62
256
6
ByLayer
370
18
48
1
60
0
100
AcDbSpline
70
4
71
1
72
4
73
2
40
0
40
0
40
1
40
1
41
1
10
24.841631795483
20
-2.84030534724999
30
0
41
1
10
24.9073051352373
20
-2.84374119135296
30
0
0
SPLINE
5
FE
100
AcDbEntity
8
1
62
256
6
ByLayer
370
18
48
1
60
0
100
AcDbSpline
70
4
71
3
72
24
73
20
40
0
40
0
40
0
40
0
40
0.0729244601084978
40
0.135973618190362
40
0.208743675256825
40
0.267772051922346
40
0.343409391276033
40
0.412142257194928
40
0.466514073220333
40
0.515017191339991
40
0.56297687828448
40
0.64310381311991
40
0.733888935961565
40
0.814677033024448
40
0.849175931227032
40
0.878933078399752
40
0.912766871842164
40
0.969015785780638
40
1
40
1
40
1
40
1
41
1
10
31.9606227251975
20
2.72438671879149
30
0
41
1
10
31.8094805473049
20
2.72407590600162
30
0
41
1
10
31.5276620596886
20
2.72362426826732
30
0
41
1
10
31.095005738369
20
2.72400885654986
30
0
41
1
10
30.6911682643897
20
2.72327785917832
30
0
41
1
10
30.2612293584285
20
2.72325849498267
30
0
41
1
10
29.8396558669494
20
2.72310554703037
30
0
41
1
10
29.4277346321006
20
2.72224315320108
30
0
41
1
10
29.0720534360059
20
2.72269800309107
30
0
41
1
10
28.7594241302941
20
2.72271058541796
30
0
41
1
10
28.3934613780983
20
2.72251684431558
30
0
41
1
10
27.9398007865255
20
2.72266463012744
30
0
41
1
10
27.418129977974
20
2.72058012371599
30
0
41
1
10
26.9910156111691
20
2.72119669507785
30
0
41
1
10
26.6903939760116
20
2.72139335519699
30
0
41
1
10
26.4870902383535
20
2.72152332455974
30
0
41
1
10
26.2387044540158
20
2.72160885384005
30
0
41
1
10
25.9878259747653
20
2.72149188443191
30
0
41
1
10
25.8070876889566
20
2.72117456609368
30
0
41
1
10
25.7428982123012
20
2.72105252290379
30
0
0
SPLINE
5
FF
100
AcDbEntity
8
1
62
256
6
ByLayer
370
18
48
1
60
0
100
AcDbSpline
70
4
71
2
72
6
73
3
40
0
40
0
40
0
40
1
40
1
40
1
41
1
10
41.6869588613981
20
-2.73077450423213
30
0
41
1
10
41.8389916366324
20
-2.73060738657904
30
0
41
1
10
41.9905219155884
20
-2.73005370204592
30
0
0
SPLINE
5
100
100
AcDbEntity
8
1
62
256
6
ByLayer
370
18
48
1
60
0
100
AcDbSpline
70
4
71
2
72
6
73
3
40
0
40
0
40
0
40
1
40
1
40
1
41
1
10
24.8442642732337
20
2.84073963286761
30
0
41
1
10
24.3252731786035
20
3.35758305236334
30
0
41
1
10
23.80646748395
20
3.87377903121333
30
0
0
SPLINE
5
101
100
AcDbEntity
8
1
62
256
6
ByLayer
370
18
48
1
60
0
100
AcDbSpline
70
4
71
1
72
4
73
2
40
0
40
0
40
1
40
1
41
1
10
24.9073051352374
20
2.84374119135296
30
0
41
1
10
24.841631795483
20
2.84030534724999
30
0
0
SPLINE
5
102
100
AcDbEntity
8
1
62
256
6
ByLayer
370
18
48
1
60
0
100
AcDbSpline
70
4
71
2
72
6
73
3
40
0
40
0
40
0
40
1
40
1
40
1
41
1
10
23.80646748395
20
-3.87377903121333
30
0
41
1
10
24.3252731786035
20
-3.35758305236334
30
0
41
1
10
24.8442642732336
20
-2.84073963286761
30
0
0
LINE
5
7D
100
AcDbEntity
8
SK1
62
256
6
ByLayer
370
18
48
1
60
0
100
AcDbLine
10
-36
20
2.124933
30
0
11
-36
21
0.889891
31
0
39
0
210
0
220
0
230
1
0
LINE
5
7F
100
AcDbEntity
8
SK1
62
256
6
ByLayer
370
18
48
1
60
0
100
AcDbLine
10
-36
20
0.889892
30
0
11
-36
21
-2.76
31
0
39
0
210
0
220
0
230
1
0
LINE
5
80
100
AcDbEntity
8
SK1
62
256
6
ByLayer
370
18
48
1
60
0
100
AcDbLine
10
-35.4
20
1.335659
30
0
11
-35.4
21
2.406027
31
0
39
0
210
0
220
0
230
1
0
LINE
5
81
100
AcDbEntity
8
SK1
62
256
6
ByLayer
370
18
48
1
60
0
100
AcDbLine
10
-34.76
20
4
30
0
11
-34.76
21
-4
31
0
39
0
210
0
220
0
230
1
0
LINE
5
82
100
AcDbEntity
8
SK1
62
256
6
ByLayer
370
13
48
1
60
0
100
AcDbLine
10
-35.5
20
2.418006
30
0
11
-35.5
21
1.182929
31
0
39
0
210
0
220
0
230
1
0
LINE
5
83
100
AcDbEntity
8
SK1
62
256
6
ByLayer
370
18
48
1
60
0
100
AcDbLine
10
-36
20
2.76
30
0
11
-36
21
2.124933
31
0
39
0
210
0
220
0
230
1
0
LINE
5
84
100
AcDbEntity
8
SK1
62
256
6
ByLayer
370
18
48
1
60
0
100
AcDbLine
10
0
20
-4
30
0
11
0
21
4
31
0
39
0
210
0
220
0
230
1
0
LINE
5
85
100
AcDbEntity
8
1
62
256
6
ByLayer
370
13
48
1
60
0
100
AcDbLine
10
41.903946
20
0.782926
30
0
11
42.99012
21
0.095352
31
0
39
0
210
0
220
0
230
1
0
LINE
5
86
100
AcDbEntity
8
1
62
256
6
ByLayer
370
18
48
1
60
0
100
AcDbLine
10
0
20
-4
30
0
11
0
21
4
31
0
39
0
210
0
220
0
230
1
0
LINE
5
87
100
AcDbEntity
8
1
62
256
6
ByLayer
370
13
48
1
60
0
100
AcDbLine
10
41.821658
20
0.715403
30
0
11
42.979053
21
-0.017255
31
0
39
0
210
0
220
0
230
1
0
LINE
5
88
100
AcDbEntity
8
1
62
256
6
ByLayer
370
18
48
1
60
0
100
AcDbLine
10
1.5
20
3.88
30
0
11
1.5
21
-3.88
31
0
39
0
210
0
220
0
230
1
0
LINE
5
89
100
AcDbEntity
8
80
62
256
6
ByLayer
370
18
48
1
60
0
100
AcDbLine
10
0
20
0
30
0
11
-5
21
0
31
0
39
0
210
0
220
0
230
1
0
LINE
5
8A
100
AcDbEntity
8
SK4
62
256
6
ByLayer
370
18
48
0.05
60
0
100
AcDbLine
10
48
20
0
30
0
11
-41
21
0
31
0
39
0
210
0
220
0
230
1
0
LINE
5
8C
100
AcDbEntity
8
4
62
256
6
ByLayer
370
18
48
0.05
60
0
100
AcDbLine
10
43
20
0
30
0
11
0
21
0
31
0
39
0
210
0
220
0
230
1
0
LINE
5
8E
100
AcDbEntity
8
SK1
62
256
6
ByLayer
370
18
48
1
60
0
100
AcDbLine
10
-36
20
-2.76
30
0
11
-34.76
21
-4
31
0
39
0
210
0
220
0
230
1
0
LINE
5
8F
100
AcDbEntity
8
SK1
62
256
6
ByLayer
370
18
48
1
60
0
100
AcDbLine
10
-34.76
20
4
30
0
11
-36
21
2.76
31
0
39
0
210
0
220
0
230
1
0
LINE
5
90
100
AcDbEntity
8
SK1
62
256
6
ByLayer
370
18
48
1
60
0
100
AcDbLine
10
-34.76
20
-4
30
0
11
0
21
-4
31
0
39
0
210
0
220
0
230
1
0
LINE
5
91
100
AcDbEntity
8
SK1
62
256
6
ByLayer
370
18
48
1
60
0
100
AcDbLine
10
0
20
4
30
0
11
-34.76
21
4
31
0
39
0
210
0
220
0
230
1
0
LINE
5
92
100
AcDbEntity
8
1
62
256
6
ByLayer
370
18
48
1
60
0
100
AcDbLine
10
41.585043
20
2.874641
30
0
11
40.705729
21
2.874092
31
0
39
0
210
0
220
0
230
1
0
LINE
5
93
100
AcDbEntity
8
1
62
256
6
ByLayer
370
18
48
1
60
0
100
AcDbLine
10
40.705729
20
-2.874092
30
0
11
41.585043
21
-2.874641
31
0
39
0
210
0
220
0
230
1
0
LINE
5
94
100
AcDbEntity
8
1
62
256
6
ByLayer
370
18
48
1
60
0
100
AcDbLine
10
23.808197
20
3.88
30
0
11
23.188019
21
3.88
31
0
39
0
210
0
220
0
230
1
0
LINE
5
95
100
AcDbEntity
8
1
62
256
6
ByLayer
370
18
48
1
60
0
100
AcDbLine
10
14.662532
20
3.88
30
0
11
1.5
21
3.88
31
0
39
0
210
0
220
0
230
1
0
LINE
5
96
100
AcDbEntity
8
1
62
256
6
ByLayer
370
18
48
1
60
0
100
AcDbLine
10
1.5
20
-3.88
30
0
11
14.662532
21
-3.88
31
0
39
0
210
0
220
0
230
1
0
LINE
5
97
100
AcDbEntity
8
1
62
256
6
ByLayer
370
18
48
1
60
0
100
AcDbLine
10
23.188019
20
-3.88
30
0
11
23.808197
21
-3.88
31
0
39
0
210
0
220
0
230
1
0
LINE
5
98
100
AcDbEntity
8
1
62
256
6
ByLayer
370
18
48
1
60
0
100
AcDbLine
10
1.5
20
3.88
30
0
11
0
21
4
31
0
39
0
210
0
220
0
230
1
0
LINE
5
99
100
AcDbEntity
8
1
62
256
6
ByLayer
370
18
48
1
60
0
100
AcDbLine
10
0
20
-4
30
0
11
1.5
21
-3.88
31
0
39
0
210
0
220
0
230
1
0
LINE
5
9A
100
AcDbEntity
8
81
62
256
6
ByLayer
370
18
48
1
60
0
100
AcDbLine
10
43
20
0
30
0
11
48
21
0
31
0
39
0
210
0
220
0
230
1
0
LINE
5
9B
100
AcDbEntity
8
2
62
256
6
ByLayer
370
13
48
1
60
0
100
AcDbLine
10
65.236431
20
-3.88
30
0
11
65.236431
21
30.830881
31
0
39
0
210
0
220
0
230
1
0
LINE
5
9D
100
AcDbEntity
8
2
62
256
6
ByLayer
370
13
48
1
60
0
100
AcDbLine
10
25.489
20
3.88
30
0
11
67.236431
21
3.88
31
0
39
0
210
0
220
0
230
1
0
LINE
5
9E
100
AcDbEntity
8
2
62
256
6
ByLayer
370
13
48
1
60
0
100
AcDbLine
10
25.489
20
-3.88
30
0
11
67.236431
21
-3.88
31
0
39
0
210
0
220
0
230
1
0
LINE
5
9F
100
AcDbEntity
8
1
62
256
6
ByLayer
370
18
48
1
60
1
100
AcDbLine
10
65.236431
20
3.88
30
0
11
65.697214
21
0.380002
31
0
39
0
210
0
220
0
230
1
0
LINE
5
A0
100
AcDbEntity
8
1
62
256
6
ByLayer
370
18
48
1
60
1
100
AcDbLine
10
65.697214
20
0.380002
30
0
11
64.775647
21
0.379998
31
0
39
0
210
0
220
0
230
1
0
LINE
5
A1
100
AcDbEntity
8
1
62
256
6
ByLayer
370
18
48
1
60
1
100
AcDbLine
10
64.775647
20
0.379998
30
0
11
65.236431
21
3.88
31
0
39
0
210
0
220
0
230
1
0
LINE
5
A2
100
AcDbEntity
8
1
62
256
6
ByLayer
370
18
48
1
60
1
100
AcDbLine
10
65.236431
20
-3.88
30
0
11
64.775647
21
-0.380002
31
0
39
0
210
0
220
0
230
1
0
LINE
5
A3
100
AcDbEntity
8
1
62
256
6
ByLayer
370
18
48
1
60
1
100
AcDbLine
10
64.775647
20
-0.380002
30
0
11
65.697214
21
-0.379998
31
0
39
0
210
0
220
0
230
1
0
LINE
5
A4
100
AcDbEntity
8
1
62
256
6
ByLayer
370
18
48
1
60
1
100
AcDbLine
10
65.697214
20
-0.379998
30
0
11
65.236431
21
-3.88
31
0
39
0
210
0
220
0
230
1
0
LINE
5
A5
100
AcDbEntity
8
SK2
62
256
6
ByLayer
370
13
48
1
60
0
100
AcDbLine
10
-44.625163
20
-4
30
0
11
-44.625163
21
33.117107
31
0
39
0
210
0
220
0
230
1
0
LINE
5
A7
100
AcDbEntity
8
SK2
62
256
6
ByLayer
370
13
48
1
60
0
100
AcDbLine
10
-37.5875
20
4
30
0
11
-46.625163
21
4
31
0
39
0
210
0
220
0
230
1
0
LINE
5
A8
100
AcDbEntity
8
SK2
62
256
6
ByLayer
370
13
48
1
60
0
100
AcDbLine
10
-37.5875
20
-4
30
0
11
-46.625163
21
-4
31
0
39
0
210
0
220
0
230
1
0
LINE
5
A9
100
AcDbEntity
8
1
62
256
6
ByLayer
370
18
48
1
60
1
100
AcDbLine
10
-44.625163
20
4
30
0
11
-44.164379
21
0.500002
31
0
39
0
210
0
220
0
230
1
0
LINE
5
AA
100
AcDbEntity
8
1
62
256
6
ByLayer
370
18
48
1
60
1
100
AcDbLine
10
-44.164379
20
0.500002
30
0
11
-45.085946
21
0.499998
31
0
39
0
210
0
220
0
230
1
0
LINE
5
AB
100
AcDbEntity
8
1
62
256
6
ByLayer
370
18
48
1
60
1
100
AcDbLine
10
-45.085946
20
0.499998
30
0
11
-44.625163
21
4
31
0
39
0
210
0
220
0
230
1
0
LINE
5
AC
100
AcDbEntity
8
1
62
256
6
ByLayer
370
18
48
1
60
1
100
AcDbLine
10
-44.625163
20
-4
30
0
11
-45.085946
21
-0.500002
31
0
39
0
210
0
220
0
230
1
0
LINE
5
AD
100
AcDbEntity
8
1
62
256
6
ByLayer
370
18
48
1
60
1
100
AcDbLine
10
-45.085946
20
-0.500002
30
0
11
-44.164379
21
-0.499998
31
0
39
0
210
0
220
0
230
1
0
LINE
5
AE
100
AcDbEntity
8
1
62
256
6
ByLayer
370
18
48
1
60
1
100
AcDbLine
10
-44.164379
20
-0.499998
30
0
11
-44.625163
21
-4
31
0
39
0
210
0
220
0
230
1
0
LINE
5
AF
100
AcDbEntity
8
2
62
256
6
ByLayer
370
13
48
1
60
0
100
AcDbLine
10
56.970081
20
31.33983
30
0
11
56.970081
21
-11.625
31
0
39
0
210
0
220
0
230
1
0
LINE
5
B0
100
AcDbEntity
8
2
62
256
6
ByLayer
370
13
48
1
60
0
100
AcDbLine
10
43.744
20
2.875
30
0
11
58.970081
21
2.875
31
0
39
0
210
0
220
0
230
1
0
LINE
5
B1
100
AcDbEntity
8
2
62
256
6
ByLayer
370
13
48
1
60
0
100
AcDbLine
10
43.744
20
-2.875
30
0
11
58.970081
21
-2.875
31
0
39
0
210
0
220
0
230
1
0
LINE
5
B2
100
AcDbEntity
8
1
62
256
6
ByLayer
370
18
48
1
60
1
100
AcDbLine
10
56.970081
20
2.875
30
0
11
56.509297
21
6.374998
31
0
39
0
210
0
220
0
230
1
0
LINE
5
B3
100
AcDbEntity
8
1
62
256
6
ByLayer
370
18
48
1
60
1
100
AcDbLine
10
56.509297
20
6.374998
30
0
11
57.430865
21
6.375002
31
0
39
0
210
0
220
0
230
1
0
LINE
5
B4
100
AcDbEntity
8
1
62
256
6
ByLayer
370
18
48
1
60
1
100
AcDbLine
10
57.430865
20
6.375002
30
0
11
56.970081
21
2.875
31
0
39
0
210
0
220
0
230
1
0
LINE
5
B5
100
AcDbEntity
8
1
62
256
6
ByLayer
370
18
48
1
60
1
100
AcDbLine
10
56.970081
20
-2.875
30
0
11
57.430865
21
-6.374998
31
0
39
0
210
0
220
0
230
1
0
LINE
5
B6
100
AcDbEntity
8
1
62
256
6
ByLayer
370
18
48
1
60
1
100
AcDbLine
10
57.430865
20
-6.374998
30
0
11
56.509297
21
-6.375002
31
0
39
0
210
0
220
0
230
1
0
LINE
5
B7
100
AcDbEntity
8
1
62
256
6
ByLayer
370
18
48
1
60
1
100
AcDbLine
10
56.509297
20
-6.375002
30
0
11
56.970081
21
-2.875
31
0
39
0
210
0
220
0
230
1
0
LINE
5
B8
100
AcDbEntity
8
SK2
62
256
6
ByLayer
370
13
48
1
60
0
100
AcDbLine
10
22.778968
20
-5.002532
30
0
11
13.492309
21
-14.289191
31
0
39
0
210
0
220
0
230
1
0
LINE
5
B9
100
AcDbEntity
8
SK2
62
256
6
ByLayer
370
13
48
1
60
0
100
AcDbLine
10
22.778968
20
5.002532
30
0
11
13.492309
21
14.289191
31
0
39
0
210
0
220
0
230
1
0
LINE
5
BA
100
AcDbEntity
8
1
62
256
6
ByLayer
370
18
48
1
60
1
100
AcDbLine
10
14.906523
20
-12.874977
30
0
11
12.211959
21
-10.594267
31
0
39
0
210
0
220
0
230
1
0
LINE
5
BB
100
AcDbEntity
8
1
62
256
6
ByLayer
370
18
48
1
60
1
100
AcDbLine
10
12.211959
20
-10.594267
30
0
11
12.894064
21
-9.974573
31
0
39
0
210
0
220
0
230
1
0
LINE
5
BC
100
AcDbEntity
8
1
62
256
6
ByLayer
370
18
48
1
60
1
100
AcDbLine
10
12.894064
20
-9.974573
30
0
11
14.906523
21
-12.874977
31
0
39
0
210
0
220
0
230
1
0
LINE
5
BD
100
AcDbEntity
8
1
62
256
6
ByLayer
370
18
48
1
60
1
100
AcDbLine
10
14.906523
20
12.874977
30
0
11
12.894066
21
9.974576
31
0
39
0
210
0
220
0
230
1
0
LINE
5
BE
100
AcDbEntity
8
1
62
256
6
ByLayer
370
18
48
1
60
1
100
AcDbLine
10
12.894066
20
9.974576
30
0
11
12.211957
21
10.594265
31
0
39
0
210
0
220
0
230
1
0
LINE
5
BF
100
AcDbEntity
8
1
62
256
6
ByLayer
370
18
48
1
60
1
100
AcDbLine
10
12.211957
20
10.594265
30
0
11
14.906523
21
12.874977
31
0
39
0
210
0
220
0
230
1
0
LINE
5
109
100
AcDbEntity
8
1
62
256
6
ByLayer
370
18
48
1
60
1
100
AcDbLine
10
65.236431
20
3.88
30
0
11
65.697214
21
0.380002
31
0
39
0
210
0
220
0
230
1
0
LINE
5
10A
100
AcDbEntity
8
1
62
256
6
ByLayer
370
18
48
1
60
1
100
AcDbLine
10
65.697214
20
0.380002
30
0
11
64.775647
21
0.379998
31
0
39
0
210
0
220
0
230
1
0
LINE
5
10B
100
AcDbEntity
8
1
62
256
6
ByLayer
370
18
48
1
60
1
100
AcDbLine
10
64.775647
20
0.379998
30
0
11
65.236431
21
3.88
31
0
39
0
210
0
220
0
230
1
0
LINE
5
10D
100
AcDbEntity
8
1
62
256
6
ByLayer
370
18
48
1
60
1
100
AcDbLine
10
65.236431
20
-3.88
30
0
11
64.775647
21
-0.380002
31
0
39
0
210
0
220
0
230
1
0
LINE
5
10E
100
AcDbEntity
8
1
62
256
6
ByLayer
370
18
48
1
60
1
100
AcDbLine
10
64.775647
20
-0.380002
30
0
11
65.697214
21
-0.379998
31
0
39
0
210
0
220
0
230
1
0
LINE
5
10F
100
AcDbEntity
8
1
62
256
6
ByLayer
370
18
48
1
60
1
100
AcDbLine
10
65.697214
20
-0.379998
30
0
11
65.236431
21
-3.88
31
0
39
0
210
0
220
0
230
1
0
LINE
5
113
100
AcDbEntity
8
1
62
256
6
ByLayer
370
18
48
1
60
1
100
AcDbLine
10
-44.625163
20
4
30
0
11
-44.164379
21
0.500002
31
0
39
0
210
0
220
0
230
1
0
LINE
5
114
100
AcDbEntity
8
1
62
256
6
ByLayer
370
18
48
1
60
1
100
AcDbLine
10
-44.164379
20
0.500002
30
0
11
-45.085946
21
0.499998
31
0
39
0
210
0
220
0
230
1
0
LINE
5
115
100
AcDbEntity
8
1
62
256
6
ByLayer
370
18
48
1
60
1
100
AcDbLine
10
-45.085946
20
0.499998
30
0
11
-44.625163
21
4
31
0
39
0
210
0
220
0
230
1
0
LINE
5
117
100
AcDbEntity
8
1
62
256
6
ByLayer
370
18
48
1
60
1
100
AcDbLine
10
-44.625163
20
-4
30
0
11
-45.085946
21
-0.500002
31
0
39
0
210
0
220
0
230
1
0
LINE
5
118
100
AcDbEntity
8
1
62
256
6
ByLayer
370
18
48
1
60
1
100
AcDbLine
10
-45.085946
20
-0.500002
30
0
11
-44.164379
21
-0.499998
31
0
39
0
210
0
220
0
230
1
0
LINE
5
119
100
AcDbEntity
8
1
62
256
6
ByLayer
370
18
48
1
60
1
100
AcDbLine
10
-44.164379
20
-0.499998
30
0
11
-44.625163
21
-4
31
0
39
0
210
0
220
0
230
1
0
LINE
5
11D
100
AcDbEntity
8
1
62
256
6
ByLayer
370
18
48
1
60
1
100
AcDbLine
10
56.970081
20
2.875
30
0
11
56.509297
21
6.374998
31
0
39
0
210
0
220
0
230
1
0
LINE
5
11E
100
AcDbEntity
8
1
62
256
6
ByLayer
370
18
48
1
60
1
100
AcDbLine
10
56.509297
20
6.374998
30
0
11
57.430865
21
6.375002
31
0
39
0
210
0
220
0
230
1
0
LINE
5
11F
100
AcDbEntity
8
1
62
256
6
ByLayer
370
18
48
1
60
1
100
AcDbLine
10
57.430865
20
6.375002
30
0
11
56.970081
21
2.875
31
0
39
0
210
0
220
0
230
1
0
LINE
5
121
100
AcDbEntity
8
1
62
256
6
ByLayer
370
18
48
1
60
1
100
AcDbLine
10
56.970081
20
-2.875
30
0
11
57.430865
21
-6.374998
31
0
39
0
210
0
220
0
230
1
0
LINE
5
122
100
AcDbEntity
8
1
62
256
6
ByLayer
370
18
48
1
60
1
100
AcDbLine
10
57.430865
20
-6.374998
30
0
11
56.509297
21
-6.375002
31
0
39
0
210
0
220
0
230
1
0
LINE
5
123
100
AcDbEntity
8
1
62
256
6
ByLayer
370
18
48
1
60
1
100
AcDbLine
10
56.509297
20
-6.375002
30
0
11
56.970081
21
-2.875
31
0
39
0
210
0
220
0
230
1
0
LINE
5
126
100
AcDbEntity
8
1
62
256
6
ByLayer
370
18
48
1
60
1
100
AcDbLine
10
14.906523
20
-12.874977
30
0
11
12.211959
21
-10.594267
31
0
39
0
210
0
220
0
230
1
0
LINE
5
127
100
AcDbEntity
8
1
62
256
6
ByLayer
370
18
48
1
60
1
100
AcDbLine
10
12.211959
20
-10.594267
30
0
11
12.894064
21
-9.974573
31
0
39
0
210
0
220
0
230
1
0
LINE
5
128
100
AcDbEntity
8
1
62
256
6
ByLayer
370
18
48
1
60
1
100
AcDbLine
10
12.894064
20
-9.974573
30
0
11
14.906523
21
-12.874977
31
0
39
0
210
0
220
0
230
1
0
LINE
5
12A
100
AcDbEntity
8
1
62
256
6
ByLayer
370
18
48
1
60
1
100
AcDbLine
10
14.906523
20
12.874977
30
0
11
12.894066
21
9.974576
31
0
39
0
210
0
220
0
230
1
0
LINE
5
12B
100
AcDbEntity
8
1
62
256
6
ByLayer
370
18
48
1
60
1
100
AcDbLine
10
12.894066
20
9.974576
30
0
11
12.211957
21
10.594265
31
0
39
0
210
0
220
0
230
1
0
LINE
5
12C
100
AcDbEntity
8
1
62
256
6
ByLayer
370
18
48
1
60
1
100
AcDbLine
10
12.211957
20
10.594265
30
0
11
14.906523
21
12.874977
31
0
39
0
210
0
220
0
230
1
0
MTEXT
5
103
100
AcDbEntity
8
SK6
62
256
6
ByLayer
370
13
48
1
60
0
100
AcDbMText
10
-25.645193
20
35.415328
30
0
210
0
220
0
230
1
1
\W0.7670;462.2-0575-018A1-XM X2BM
40
3.5
41
0
44
1.084337
50
0
71
7
72
5
7
iso_b_vert
0
MTEXT
5
107
100
AcDbEntity
8
2
62
256
6
ByLayer
370
18
48
1
60
0
100
AcDbMText
10
63.671797
20
15.122798
30
0
210
0
220
0
230
1
1
%%c
40
3.5
41
0
44
1.084337
50
90
71
7
72
5
7
iso_b_vert
0
MTEXT
5
108
100
AcDbEntity
8
2
62
256
6
ByLayer
370
18
48
1
60
0
100
AcDbMText
10
63.671797
20
20.345454
30
0
210
0
220
0
230
1
1
\W0.7317;7,760
40
3.5
41
0
44
1.084337
50
90
71
7
72
5
7
iso_b_vert
0
MTEXT
5
111
100
AcDbEntity
8
SK2
62
256
6
ByLayer
370
18
48
1
60
0
100
AcDbMText
10
-46.189796
20
17.409024
30
0
210
0
220
0
230
1
1
%%c
40
3.5
41
0
44
1.084337
50
90
71
7
72
5
7
iso_b_vert
0
MTEXT
5
112
100
AcDbEntity
8
SK2
62
256
6
ByLayer
370
18
48
1
60
0
100
AcDbMText
10
-46.189796
20
22.63168
30
0
210
0
220
0
230
1
1
\W0.7317;8,000
40
3.5
41
0
44
1.084337
50
90
71
7
72
5
7
iso_b_vert
0
MTEXT
5
11B
100
AcDbEntity
8
2
62
256
6
ByLayer
370
18
48
1
60
0
100
AcDbMText
10
55.405448
20
15.631747
30
0
210
0
220
0
230
1
1
%%c
40
3.5
41
0
44
1.084337
50
90
71
7
72
5
7
iso_b_vert
0
MTEXT
5
11C
100
AcDbEntity
8
2
62
256
6
ByLayer
370
18
48
1
60
0
100
AcDbMText
10
55.405448
20
20.854403
30
0
210
0
220
0
230
1
1
\W0.7317;5,750
40
3.5
41
0
44
1.084337
50
90
71
7
72
5
7
iso_b_vert
0
MTEXT
5
125
100
AcDbEntity
8
SK2
62
256
6
ByLayer
370
13
48
1
60
0
100
AcDbMText
10
4.763375
20
-0.291663
30
0
210
0
220
0
230
1
1
\W0.8181;90,0%%d
40
3.5
41
0
44
1.084337
50
0
71
7
72
5
7
iso_b_vert
0
HATCH
5
10C
100
AcDbEntity
8
2
62
256
6
ByLayer
370
13
48
1
60
0
100
AcDbHatch
10
0
20
0
30
0
210
0
220
0
230
1
2
ANSI31
70
0
71
0
91
1
92
5
93
3
72
1
10
65.2364306046164
20
3.88
11
65.6972143461692
21
0.380001692553179
72
1
10
65.6972143461692
20
0.380001692553179
11
64.7756468630637
21
0.379998307446812
72
1
10
64.7756468630637
20
0.379998307446812
11
65.2364306046164
21
3.88
97
0
75
0
76
1
52
0
41
0.0062
77
0
78
1
53
45
43
0
44
0
45
-0.0139193969876572
46
0.0139193969876572
79
0
47
0
98
1
10
0
20
0
0
HATCH
5
110
100
AcDbEntity
8
2
62
256
6
ByLayer
370
13
48
1
60
0
100
AcDbHatch
10
0
20
0
30
0
210
0
220
0
230
1
2
ANSI31
70
0
71
0
91
1
92
5
93
3
72
1
10
65.2364306046164
20
-3.88
11
64.7756468630637
21
-0.380001692553179
72
1
10
64.7756468630637
20
-0.380001692553179
11
65.6972143461692
21
-0.379998307446812
72
1
10
65.6972143461692
20
-0.379998307446812
11
65.2364306046164
21
-3.88
97
0
75
0
76
1
52
0
41
0.0062
77
0
78
1
53
45
43
0
44
0
45
-0.0139193969876572
46
0.0139193969876572
79
0
47
0
98
1
10
0
20
0
0
HATCH
5
116
100
AcDbEntity
8
SK2
62
256
6
ByLayer
370
13
48
1
60
0
100
AcDbHatch
10
0
20
0
30
0
210
0
220
0
230
1
2
ANSI31
70
0
71
0
91
1
92
5
93
3
72
1
10
-44.6251625675374
20
4
11
-44.1643788259847
21
0.500001692553184
72
1
10
-44.1643788259847
20
0.500001692553184
11
-45.0859463090902
21
0.499998307446816
72
1
10
-45.0859463090902
20
0.499998307446816
11
-44.6251625675374
21
4
97
0
75
0
76
1
52
0
41
0.0062
77
0
78
1
53
45
43
0
44
0
45
-0.0139193969876572
46
0.0139193969876572
79
0
47
0
98
1
10
0
20
0
0
HATCH
5
11A
100
AcDbEntity
8
SK2
62
256
6
ByLayer
370
13
48
1
60
0
100
AcDbHatch
10
0
20
0
30
0
210
0
220
0
230
1
2
ANSI31
70
0
71
0
91
1
92
5
93
3
72
1
10
-44.6251625675374
20
-4
11
-45.0859463090902
21
-0.500001692553184
72
1
10
-45.0859463090902
20
-0.500001692553184
11
-44.1643788259847
21
-0.499998307446816
72
1
10
-44.1643788259847
20
-0.499998307446816
11
-44.6251625675374
21
-4
97
0
75
0
76
1
52
0
41
0.0062
77
0
78
1
53
45
43
0
44
0
45
-0.0139193969876572
46
0.0139193969876572
79
0
47
0
98
1
10
0
20
0
0
HATCH
5
120
100
AcDbEntity
8
2
62
256
6
ByLayer
370
13
48
1
60
0
100
AcDbHatch
10
0
20
0
30
0
210
0
220
0
230
1
2
ANSI31
70
0
71
0
91
1
92
5
93
3
72
1
10
56.9700811011615
20
2.875
11
56.5092973596088
21
6.37499830744682
72
1
10
56.5092973596088
20
6.37499830744682
11
57.4308648427142
21
6.37500169255318
72
1
10
57.4308648427142
20
6.37500169255318
11
56.9700811011615
21
2.875
97
0
75
0
76
1
52
0
41
0.0062
77
0
78
1
53
45
43
0
44
0
45
-0.0139193969876572
46
0.0139193969876572
79
0
47
0
98
1
10
0
20
0
0
HATCH
5
124
100
AcDbEntity
8
2
62
256
6
ByLayer
370
13
48
1
60
0
100
AcDbHatch
10
0
20
0
30
0
210
0
220
0
230
1
2
ANSI31
70
0
71
0
91
1
92
5
93
3
72
1
10
56.9700811011615
20
-2.875
11
57.4308648427142
21
-6.37499830744682
72
1
10
57.4308648427142
20
-6.37499830744682
11
56.5092973596088
21
-6.37500169255318
72
1
10
56.5092973596088
20
-6.37500169255318
11
56.9700811011615
21
-2.875
97
0
75
0
76
1
52
0
41
0.0062
77
0
78
1
53
45
43
0
44
0
45
-0.0139193969876572
46
0.0139193969876572
79
0
47
0
98
1
10
0
20
0
0
HATCH
5
129
100
AcDbEntity
8
SK2
62
256
6
ByLayer
370
13
48
1
60
0
100
AcDbHatch
10
0
20
0
30
0
210
0
220
0
230
1
2
ANSI31
70
0
71
0
91
1
92
5
93
3
72
1
10
14.9065228446938
20
-12.8749771553061
11
12.2119593637253
21
-10.5942672974679
72
1
10
12.2119593637253
20
-10.5942672974679
11
12.8940636221727
21
-9.97457349683991
72
1
10
12.8940636221727
20
-9.97457349683991
11
14.9065228446938
21
-12.8749771553061
97
0
75
0
76
1
52
0
41
0.0062
77
0
78
1
53
45
43
0
44
0
45
-0.0139193969876572
46
0.0139193969876572
79
0
47
0
98
1
10
0
20
0
0
HATCH
5
12D
100
AcDbEntity
8
SK2
62
256
6
ByLayer
370
13
48
1
60
0
100
AcDbHatch
10
0
20
0
30
0
210
0
220
0
230
1
2
ANSI31
70
0
71
0
91
1
92
5
93
3
72
1
10
14.9065228446939
20
12.8749771553061
11
12.894065898426
21
9.97457600235714
72
1
10
12.894065898426
20
9.97457600235714
11
12.2119570874721
21
10.5942647919507
72
1
10
12.2119570874721
20
10.5942647919507
11
14.9065228446939
21
12.8749771553061
97
0
75
0
76
1
52
0
41
0.0062
77
0
78
1
53
45
43
0
44
0
45
-0.0139193969876572
46
0.0139193969876572
79
0
47
0
98
1
10
0
20
0
0
DIMENSION
5
12F
100
AcDbEntity
8
SK2
62
256
6
ByLayer
370
13
48
1
60
0
100
AcDbDimension
2
_U0
10
42.1565
20
-15.677503
30
0
11
21.07825
21
-15.677503
31
0
70
32
71
1
72
1
41
1
210
0
220
0
230
1
3
Standard
100
AcDbAlignedDimension
13
0
23
0
33
0
14
42.1565
24
-2.875
34
0
50
0
100
AcDbRotatedDimension
1001
ACAD
1000
DSTYLE
1002
{
1070
   371
1070
    13
1070
   372
1070
    13
1070
   170
1070
     0
1070
   144
1040
1.0
1070
   277
1070
     2
1070
   278
1070
    44
1070
   146
1040
1.0
1070
   345
1005
16
1070
   347
1005
16
1070
   346
1005
16
1070
   344
1005
0
1070
   343
1005
0
1070
   172
1070
     1
1070
    76
1070
     0
1070
    75
1070
     0
1070
   282
1070
     0
1070
   281
1070
     0
1070
    71
1070
     0
1070
    74
1070
     0
1070
   279
1070
     0
1070
   173
1070
     1
1070
   340
1005
104
1070
   271
1070
     2
1070
   272
1070
     2
1070
    77
1070
     1
1070
    73
1070
     1
1070
   171
1070
     3
1070
   274
1070
     4
1070
   177
1070
    35
1070
   176
1070
    35
1070
   178
1070
    35
1070
    48
1040
-0.1
1070
    41
1040
3.5
1070
   147
1040
1.75
1070
    42
1040
1.5875
1070
    44
1040
2.0
1070
   140
1040
3.5
1002
}
1001
ACAD_DSTYLE_DIM_LINETYPE
1070
   380
1005
16
1001
ACAD_DSTYLE_DIM_EXT1_LINETYPE
1070
   381
1005
16
1001
ACAD_DSTYLE_DIM_EXT2_LINETYPE
1070
   382
1005
16
0
DIMENSION
5
148
100
AcDbEntity
8
SK2
62
256
6
ByLayer
370
13
48
1
60
0
100
AcDbDimension
2
_U1
10
43
20
-35.192985
30
0
11
3.5
21
-35.192985
31
0
70
32
71
1
72
1
41
1
210
0
220
0
230
1
3
Standard
100
AcDbAlignedDimension
13
-36
23
-4
33
0
14
43
24
0
34
0
50
0
100
AcDbRotatedDimension
1001
ACAD
1000
DSTYLE
1002
{
1070
   371
1070
    13
1070
   372
1070
    13
1070
   170
1070
     0
1070
   144
1040
1.0
1070
   277
1070
     2
1070
   278
1070
    44
1070
   146
1040
1.0
1070
   345
1005
16
1070
   347
1005
16
1070
   346
1005
16
1070
   344
1005
0
1070
   343
1005
0
1070
   172
1070
     1
1070
    76
1070
     0
1070
    75
1070
     0
1070
   282
1070
     0
1070
   281
1070
     0
1070
    71
1070
     0
1070
    74
1070
     0
1070
   279
1070
     0
1070
   173
1070
     1
1070
   340
1005
104
1070
   271
1070
     2
1070
   272
1070
     2
1070
    77
1070
     1
1070
    73
1070
     1
1070
   171
1070
     3
1070
   274
1070
     4
1070
   177
1070
    35
1070
   176
1070
    35
1070
   178
1070
    35
1070
    48
1040
-0.1
1070
    41
1040
3.5
1070
   147
1040
1.75
1070
    42
1040
1.5875
1070
    44
1040
2.0
1070
   140
1040
3.5
1002
}
1001
ACAD_DSTYLE_DIM_LINETYPE
1070
   380
1005
16
1001
ACAD_DSTYLE_DIM_EXT1_LINETYPE
1070
   381
1005
16
1001
ACAD_DSTYLE_DIM_EXT2_LINETYPE
1070
   382
1005
16
0
DIMENSION
5
160
100
AcDbEntity
8
SK2
62
256
6
ByLayer
370
13
48
1
60
0
100
AcDbDimension
2
_U2
10
43
20
14.484119
30
0
11
33.45
21
14.484119
31
0
70
32
71
1
72
1
41
1
210
0
220
0
230
1
3
Standard
100
AcDbAlignedDimension
13
23.9
23
3.88
33
0
14
43
24
0
34
0
50
0
100
AcDbRotatedDimension
1001
ACAD
1000
DSTYLE
1002
{
1070
   371
1070
    13
1070
   372
1070
    13
1070
   170
1070
     0
1070
   144
1040
1.0
1070
   277
1070
     2
1070
   278
1070
    44
1070
   146
1040
1.0
1070
   345
1005
16
1070
   347
1005
16
1070
   346
1005
16
1070
   344
1005
0
1070
   343
1005
0
1070
   172
1070
     1
1070
    76
1070
     0
1070
    75
1070
     0
1070
   282
1070
     0
1070
   281
1070
     0
1070
    71
1070
     0
1070
    74
1070
     0
1070
   279
1070
     0
1070
   173
1070
     1
1070
   340
1005
104
1070
   271
1070
     2
1070
   272
1070
     2
1070
    77
1070
     1
1070
    73
1070
     1
1070
   171
1070
     3
1070
   274
1070
     4
1070
   177
1070
    35
1070
   176
1070
    35
1070
   178
1070
    35
1070
    48
1040
-0.1
1070
    41
1040
3.5
1070
   147
1040
1.75
1070
    42
1040
1.5875
1070
    44
1040
2.0
1070
   140
1040
3.5
1002
}
1001
ACAD_DSTYLE_DIM_LINETYPE
1070
   380
1005
16
1001
ACAD_DSTYLE_DIM_EXT1_LINETYPE
1070
   381
1005
16
1001
ACAD_DSTYLE_DIM_EXT2_LINETYPE
1070
   382
1005
16
0
DIMENSION
5
178
100
AcDbEntity
8
SK2
62
256
6
ByLayer
370
13
48
1
60
0
100
AcDbDimension
2
_U3
10
42.1565
20
-15.677503
30
0
11
60.666667
21
-15.677503
31
0
70
32
71
1
72
1
41
1
210
0
220
0
230
1
3
Standard
100
AcDbAlignedDimension
13
43
23
0
33
0
14
42.1565
24
-2.875
34
0
50
0
100
AcDbRotatedDimension
1001
ACAD
1000
DSTYLE
1002
{
1070
   371
1070
    13
1070
   372
1070
    13
1070
   170
1070
     0
1070
   144
1040
1.0
1070
   277
1070
     2
1070
   278
1070
    44
1070
   146
1040
1.0
1070
   345
1005
16
1070
   347
1005
16
1070
   346
1005
16
1070
   344
1005
0
1070
   343
1005
0
1070
   172
1070
     1
1070
    76
1070
     0
1070
    75
1070
     0
1070
   282
1070
     0
1070
   281
1070
     0
1070
    71
1070
     0
1070
    74
1070
     0
1070
   279
1070
     0
1070
   173
1070
     1
1070
   340
1005
104
1070
   271
1070
     2
1070
   272
1070
     2
1070
    77
1070
     1
1070
    73
1070
     1
1070
   171
1070
     3
1070
   274
1070
     4
1070
   177
1070
    35
1070
   176
1070
    35
1070
   178
1070
    35
1070
    48
1040
-0.1
1070
    41
1040
3.5
1070
   147
1040
1.75
1070
    42
1040
1.5875
1070
    44
1040
2.0
1070
   140
1040
3.5
1002
}
1001
ACAD_DSTYLE_DIM_LINETYPE
1070
   380
1005
16
1001
ACAD_DSTYLE_DIM_EXT1_LINETYPE
1070
   381
1005
16
1001
ACAD_DSTYLE_DIM_EXT2_LINETYPE
1070
   382
1005
16
0
DIMENSION
5
192
100
AcDbEntity
8
SK2
62
256
6
ByLayer
370
13
48
1
60
0
100
AcDbDimension
2
_U4
10
24.9065
20
7.010371
30
0
11
33.5315
21
7.010371
31
0
70
32
71
1
72
1
41
1
210
0
220
0
230
1
3
Standard
100
AcDbAlignedDimension
13
42.1565
23
2.875
33
0
14
24.9065
24
2.875
34
0
50
0
100
AcDbRotatedDimension
1001
ACAD
1000
DSTYLE
1002
{
1070
   371
1070
    13
1070
   372
1070
    13
1070
   170
1070
     0
1070
   144
1040
1.0
1070
   277
1070
     2
1070
   278
1070
    44
1070
   146
1040
1.0
1070
   345
1005
16
1070
   347
1005
16
1070
   346
1005
16
1070
   344
1005
0
1070
   343
1005
0
1070
   172
1070
     1
1070
    76
1070
     0
1070
    75
1070
     0
1070
   282
1070
     0
1070
   281
1070
     0
1070
    71
1070
     0
1070
    74
1070
     0
1070
   279
1070
     0
1070
   173
1070
     1
1070
   340
1005
104
1070
   271
1070
     2
1070
   272
1070
     2
1070
    77
1070
     1
1070
    73
1070
     1
1070
   171
1070
     3
1070
   274
1070
     4
1070
   177
1070
    35
1070
   176
1070
    35
1070
   178
1070
    35
1070
    48
1040
-0.1
1070
    41
1040
3.5
1070
   147
1040
1.75
1070
    42
1040
1.5875
1070
    44
1040
2.0
1070
   140
1040
3.5
1002
}
1001
ACAD_DSTYLE_DIM_LINETYPE
1070
   380
1005
16
1001
ACAD_DSTYLE_DIM_EXT1_LINETYPE
1070
   381
1005
16
1001
ACAD_DSTYLE_DIM_EXT2_LINETYPE
1070
   382
1005
16
0
DIMENSION
5
1AB
100
AcDbEntity
8
SK2
62
256
6
ByLayer
370
13
48
1
60
0
100
AcDbDimension
2
_U5
10
42.1565
20
-24.690158
30
0
11
3.07825
21
-24.690158
31
0
70
32
71
1
72
1
41
1
210
0
220
0
230
1
3
Standard
100
AcDbAlignedDimension
13
-36
23
-4
33
0
14
42.1565
24
-2.875
34
0
50
0
100
AcDbRotatedDimension
1001
ACAD
1000
DSTYLE
1002
{
1070
   371
1070
    13
1070
   372
1070
    13
1070
   170
1070
     0
1070
   144
1040
1.0
1070
   277
1070
     2
1070
   278
1070
    44
1070
   146
1040
1.0
1070
   345
1005
16
1070
   347
1005
16
1070
   346
1005
16
1070
   344
1005
0
1070
   343
1005
0
1070
   172
1070
     1
1070
    76
1070
     0
1070
    75
1070
     0
1070
   282
1070
     0
1070
   281
1070
     0
1070
    71
1070
     0
1070
    74
1070
     0
1070
   279
1070
     0
1070
   173
1070
     1
1070
   340
1005
104
1070
   271
1070
     2
1070
   272
1070
     2
1070
    77
1070
     1
1070
    73
1070
     1
1070
   171
1070
     3
1070
   274
1070
     4
1070
   177
1070
    35
1070
   176
1070
    35
1070
   178
1070
    35
1070
    48
1040
-0.1
1070
    41
1040
3.5
1070
   147
1040
1.75
1070
    42
1040
1.5875
1070
    44
1040
2.0
1070
   140
1040
3.5
1002
}
1001
ACAD_DSTYLE_DIM_LINETYPE
1070
   380
1005
16
1001
ACAD_DSTYLE_DIM_EXT1_LINETYPE
1070
   381
1005
16
1001
ACAD_DSTYLE_DIM_EXT2_LINETYPE
1070
   382
1005
16
0
ENDSEC
0
SECTION
2
OBJECTS
0
DICTIONARY
5
233
330
0
100
AcDbDictionary
280
0
281
1
3
ACAD_GROUP
350
234
3
ACAD_MLINESTYLE
350
235
0
DICTIONARY
5
234
330
0
100
AcDbDictionary
280
0
281
1
0
DICTIONARY
5
235
330
0
100
AcDbDictionary
280
0
281
1
3
Standard
350
18
0
MLINESTYLE
5
18
330
235
100
AcDbMlineStyle
2
Standard
70
0
3

62
256
51
90
52
90
71
2
49
-0.5
62
256
6
ByLayer
49
0.5
62
256
6
ByLayer
0
RASTERVARIABLES
5
221
330

100
AcDbRasterVariables
90
0
70
1
71
1
72
1
0
ENDSEC
0
EOF
