0
SECTION
2
HEADER
9
$ACADVER
1
AC1015
9
$DWGCODEPAGE
3
ANSI_1252
9
$HANDSEED
5
23a
9
$ANGBASE
50
0
9
$ANGDIR
70
0
9
$ATTMODE
70
1
9
$AUNITS
70
0
9
$AUPREC
70
0
9
$CECOLOR
62
256
9
$CELTSCALE
40
1
9
$CELTYPE
6
ByLayer
9
$CELWEIGHT
370
18
9
$CLAYER
8
0
9
$CMLJUST
70
0
9
$CMLSCALE
40
1
9
$CMLSTYLE
2
Standard
9
$DIMSTYLE
2
Standard
9
$TEXTSIZE
40
0.2
9
$TEXTSTYLE
7
Standard
9
$LUNITS
70
2
9
$LUPREC
70
4
9
$EXTNAMES
290
1
9
$INSUNITS
70
4
9
$LTSCALE
40
1
9
$LWDISPLAY
290
1
9
$PDMODE
70
0
9
$PDSIZE
40
0
9
$PLINEGEN
70
0
0
ENDSEC
0
SECTION
2
CLASSES
0
CLASS
1
RASTERVARIABLES
2
AcDbRasterVariables
3
ISM
90
0
280
0
281
0
0
ENDSEC
0
SECTION
2
TABLES
0
TABLE
2
VPORT
5
230
100
AcDbSymbolTable
0
VPORT
5
1
100
AcDbSymbolTableRecord
100
AcDbViewportTableRecord
2
*Active
70
0
10
0
20
0
11
1
21
1
12
-1
22
1
13
0
23
0
14
0.5
24
0.5
15
10
25
10
16
0
26
0
36
1
17
0
27
0
37
0
0
ENDTAB
0
TABLE
2
LTYPE
5
231
100
AcDbSymbolTable
0
LTYPE
5
14
100
AcDbSymbolTableRecord
100
AcDbLinetypeTableRecord
70
0
2
ByBlock
3

72
65
73
0
40
0
0
LTYPE
5
15
100
AcDbSymbolTableRecord
100
AcDbLinetypeTableRecord
70
0
2
ByLayer
3

72
65
73
0
40
0
0
LTYPE
5
16
100
AcDbSymbolTableRecord
100
AcDbLinetypeTableRecord
70
0
2
Continuous
3
Solid line
72
65
73
0
40
0
0
LTYPE
5
6E
100
AcDbSymbolTableRecord
100
AcDbLinetypeTableRecord
70
0
2
CENTER
3
____ _ ____ _ ____ _ ____
72
65
73
4
40
47.5
49
22
74
0
49
-8.5
74
0
49
8.5
74
0
49
-8.5
74
0
0
LTYPE
5
6F
100
AcDbSymbolTableRecord
100
AcDbLinetypeTableRecord
70
0
2
DASHED
3
__ __ __ __ __ __ __ __ __
72
65
73
2
40
25.72
49
12.86
74
0
49
-12.86
74
0
0
ENDTAB
0
TABLE
2
LAYER
5
232
100
AcDbSymbolTable
0
LAYER
5
10
100
AcDbSymbolTableRecord
100
AcDbLayerTableRecord
2
0
70
0
62
7
6
Continuous
290
1
370
-3
390
0
0
LAYER
5
71
100
AcDbSymbolTableRecord
100
AcDbLayerTableRecord
2
80
70
0
62
-6
6
Continuous
290
1
370
-3
390
0
0
LAYER
5
73
100
AcDbSymbolTableRecord
100
AcDbLayerTableRecord
2
81
70
0
62
-3
6
Continuous
290
1
370
-3
390
0
0
LAYER
5
75
100
AcDbSymbolTableRecord
100
AcDbLayerTableRecord
2
1
70
0
62
4
6
Continuous
290
1
370
-3
390
0
0
LAYER
5
8C
100
AcDbSymbolTableRecord
100
AcDbLayerTableRecord
2
4
70
0
62
-2
6
CENTER
290
1
370
-3
390
0
0
LAYER
5
99
100
AcDbSymbolTableRecord
100
AcDbLayerTableRecord
2
2
70
0
62
7
6
Continuous
290
1
370
-3
390
0
0
LAYER
5
12D
100
AcDbSymbolTableRecord
100
AcDbLayerTableRecord
2
Defpoints
70
0
62
7
6
Continuous
290
0
370
-3
390
0
0
LAYER
5
21c
100
AcDbSymbolTableRecord
100
AcDbLayerTableRecord
2
SK1
70
0
62
4
6
Continuous
290
1
370
-3
390
0
0
LAYER
5
21d
100
AcDbSymbolTableRecord
100
AcDbLayerTableRecord
2
SK4
70
0
62
2
6
CENTER
290
1
370
-3
390
0
0
LAYER
5
21e
100
AcDbSymbolTableRecord
100
AcDbLayerTableRecord
2
SK2
70
0
62
7
6
Continuous
290
1
370
-3
390
0
0
LAYER
5
21f
100
AcDbSymbolTableRecord
100
AcDbLayerTableRecord
2
SK6
70
0
62
5
6
Continuous
290
1
370
-3
390
0
0
ENDTAB
0
TABLE
2
STYLE
5
233
100
AcDbSymbolTable
0
STYLE
5
11
100
AcDbSymbolTableRecord
100
AcDbTextStyleTableRecord
2
Standard
3
txt
70
0
71
0
40
0
41
1
42
0
50
0
0
STYLE
5
FF
100
AcDbSymbolTableRecord
100
AcDbTextStyleTableRecord
2
iso_b_vert
3
simplex.shx
70
0
71
0
40
0
41
1
42
0
50
0
0
STYLE
5
100
100
AcDbSymbolTableRecord
100
AcDbTextStyleTableRecord
2
DWGDirectTextStyle
3
simplex
70
0
71
0
40
0
41
1
42
0
50
0
0
ENDTAB
0
TABLE
2
DIMSTYLE
5
234
100
AcDbSymbolTable
100
AcDbDimStyleTable
0
DIMSTYLE
105
27
100
AcDbSymbolTableRecord
100
AcDbDimStyleTableRecord
2
Standard
70
0
3
<>
41
0.18
42
0.0625
44
0.18
140
0.18
147
0.09
73
0
74
0
77
1
271
2
275
0
278
52
280
0
340
11
0
ENDTAB
0
TABLE
2
VIEW
5
235
100
AcDbSymbolTable
0
ENDTAB
0
TABLE
2
UCS
5
236
100
AcDbSymbolTable
0
ENDTAB
0
TABLE
2
APPID
5
237
100
AcDbSymbolTable
0
APPID
5
12
100
AcDbSymbolTableRecord
100
AcDbRegAppTableRecord
2
ACAD
70
0
0
APPID
5
129
100
AcDbSymbolTableRecord
100
AcDbRegAppTableRecord
2
ACAD_DSTYLE_DIMBREAK
70
0
0
APPID
5
1DB
100
AcDbSymbolTableRecord
100
AcDbRegAppTableRecord
2
ACAD_DSTYLE_DIM_LINETYPE
70
0
0
APPID
5
1DC
100
AcDbSymbolTableRecord
100
AcDbRegAppTableRecord
2
ACAD_DSTYLE_DIM_EXT1_LINETYPE
70
0
0
APPID
5
1DD
100
AcDbSymbolTableRecord
100
AcDbRegAppTableRecord
2
ACAD_DSTYLE_DIM_EXT2_LINETYPE
70
0
0
APPID
5
218
100
AcDbSymbolTableRecord
100
AcDbRegAppTableRecord
2
ACAD_MLEADERVER
70
0
0
ENDTAB
0
TABLE
2
BLOCK_RECORD
5
238
100
AcDbSymbolTable
0
BLOCK_RECORD
5
1F
100
AcDbSymbolTableRecord
100
AcDbBlockTableRecord
2
*Model_Space
340
0
70
0
0
BLOCK_RECORD
5
1B
100
AcDbSymbolTableRecord
100
AcDbBlockTableRecord
2
*Paper_Space
340
0
70
0
0
BLOCK_RECORD
5
23
100
AcDbSymbolTableRecord
100
AcDbBlockTableRecord
2
*Paper_Space0
340
0
70
0
0
BLOCK_RECORD
5
12E
100
AcDbSymbolTableRecord
100
AcDbBlockTableRecord
2
*D1
340
0
70
0
0
BLOCK_RECORD
5
13A
100
AcDbSymbolTableRecord
100
AcDbBlockTableRecord
2
_U0
340
0
70
0
0
BLOCK_RECORD
5
146
100
AcDbSymbolTableRecord
100
AcDbBlockTableRecord
2
*D3
340
0
70
0
0
BLOCK_RECORD
5
152
100
AcDbSymbolTableRecord
100
AcDbBlockTableRecord
2
_U1
340
0
70
0
0
BLOCK_RECORD
5
15E
100
AcDbSymbolTableRecord
100
AcDbBlockTableRecord
2
*D5
340
0
70
0
0
BLOCK_RECORD
5
16A
100
AcDbSymbolTableRecord
100
AcDbBlockTableRecord
2
_U2
340
0
70
0
0
BLOCK_RECORD
5
176
100
AcDbSymbolTableRecord
100
AcDbBlockTableRecord
2
*D7
340
0
70
0
0
BLOCK_RECORD
5
184
100
AcDbSymbolTableRecord
100
AcDbBlockTableRecord
2
_U3
340
0
70
0
0
BLOCK_RECORD
5
190
100
AcDbSymbolTableRecord
100
AcDbBlockTableRecord
2
*D9
340
0
70
0
0
BLOCK_RECORD
5
19C
100
AcDbSymbolTableRecord
100
AcDbBlockTableRecord
2
_U4
340
0
70
0
0
BLOCK_RECORD
5
1A8
100
AcDbSymbolTableRecord
100
AcDbBlockTableRecord
2
*D11
340
0
70
0
0
BLOCK_RECORD
5
1B4
100
AcDbSymbolTableRecord
100
AcDbBlockTableRecord
2
_U5
340
0
70
0
0
ENDTAB
0
ENDSEC
0
SECTION
2
BLOCKS
0
BLOCK
5
20
100
AcDbEntity
8
0
100
AcDbBlockBegin
2
*Model_Space
70
0
10
0
20
0
30
0
3
*Model_Space
0
ENDBLK
5
21
100
AcDbEntity
8
0
100
AcDbBlockEnd
0
BLOCK
5
1C
100
AcDbEntity
8
0
100
AcDbBlockBegin
2
*Paper_Space
70
0
10
0
20
0
30
0
3
*Paper_Space
0
ENDBLK
5
1D
100
AcDbEntity
8
0
100
AcDbBlockEnd
0
BLOCK
5
24
100
AcDbEntity
8
0
100
AcDbBlockBegin
2
*Paper_Space0
70
0
10
0
20
0
30
0
3
*Paper_Space0
0
ENDBLK
5
25
100
AcDbEntity
8
0
100
AcDbBlockEnd
0
BLOCK
5
12F
100
AcDbEntity
8
0
100
AcDbBlockBegin
2
*D1
70
1
10
0
20
0
30
0
3
*D1
0
LINE
5
131
100
AcDbEntity
8
0
62
256
6
ByLayer
370
-2
48
1
60
0
100
AcDbLine
10
0
20
-1.5875
30
0
11
0
21
-22.652503
31
0
39
0
210
0
220
0
230
1
0
LINE
5
132
100
AcDbEntity
8
0
62
256
6
ByLayer
370
-2
48
1
60
0
100
AcDbLine
10
89.657
20
-9.4375
30
0
11
89.657
21
-22.652503
31
0
39
0
210
0
220
0
230
1
0
LINE
5
133
100
AcDbEntity
8
0
62
256
6
ByLayer
370
-2
48
1
60
0
100
AcDbLine
10
3.5
20
-20.652503
30
0
11
86.157
21
-20.652503
31
0
39
0
210
0
220
0
230
1
0
SOLID
5
134
100
AcDbEntity
8
0
62
256
6
ByLayer
370
-1
48
1
60
0
100
AcDbTrace
10
3.5
20
-20.06917
30
0
11
3.5
21
-21.235837
31
0
12
0
22
-20.652503
32
0
13
0
23
-20.652503
33
0
39
0
210
0
220
0
230
1
0
SOLID
5
135
100
AcDbEntity
8
0
62
256
6
ByLayer
370
-1
48
1
60
0
100
AcDbTrace
10
86.157
20
-21.235837
30
0
11
86.157
21
-20.06917
31
0
12
89.657
22
-20.652503
32
0
13
89.657
23
-20.652503
33
0
39
0
210
0
220
0
230
1
0
MTEXT
5
136
100
AcDbEntity
8
0
62
256
6
ByLayer
370
18
48
1
60
0
100
AcDbMText
10
44.8285
20
-13.652503
30
0
210
0
220
0
230
1
1
\A1;89.66
40
3.5
41
0
44
1
50
0
71
5
72
5
7
iso_b_vert
0
POINT
5
137
100
AcDbEntity
8
Defpoints
62
0
6
ByLayer
370
-1
48
1
60
0
100
AcDbPoint
10
0
20
0
30
0
39
0
210
0
220
0
230
1
50
360
0
POINT
5
138
100
AcDbEntity
8
Defpoints
62
0
6
ByLayer
370
-1
48
1
60
0
100
AcDbPoint
10
89.657
20
-7.85
30
0
39
0
210
0
220
0
230
1
50
360
0
POINT
5
139
100
AcDbEntity
8
Defpoints
62
0
6
ByLayer
370
-1
48
1
60
0
100
AcDbPoint
10
89.657
20
-20.652503
30
0
39
0
210
0
220
0
230
1
50
360
0
ENDBLK
5
130
100
AcDbEntity
8
0
100
AcDbBlockEnd
0
BLOCK
5
141
100
AcDbEntity
8
0
100
AcDbBlockBegin
2
_U0
70
0
10
0
20
0
30
0
3
_U0
0
MTEXT
5
13B
100
AcDbEntity
8
SK2
62
256
6
ByLayer
370
13
48
1
60
0
100
AcDbMText
10
39.691201
20
-19.61987
30
0
210
0
220
0
230
1
1
\W0.7317;89,66
40
3.5
41
0
44
1.084337
50
0
71
7
72
5
7
iso_b_vert
0
LINE
5
13C
100
AcDbEntity
8
SK2
62
256
6
ByLayer
370
13
48
1
60
0
100
AcDbLine
10
0
20
-1.5875
30
0
11
0
21
-22.652503
31
0
39
0
210
0
220
0
230
1
0
LINE
5
13D
100
AcDbEntity
8
SK2
62
256
6
ByLayer
370
13
48
1
60
0
100
AcDbLine
10
89.657
20
-9.4375
30
0
11
89.657
21
-22.652503
31
0
39
0
210
0
220
0
230
1
0
LINE
5
13E
100
AcDbEntity
8
SK2
62
256
6
ByLayer
370
13
48
1
60
0
100
AcDbLine
10
0
20
-20.652503
30
0
11
89.657
21
-20.652503
31
0
39
0
210
0
220
0
230
1
0
SOLID
5
13F
100
AcDbEntity
8
SK2
62
256
6
ByLayer
370
18
48
1
60
0
100
AcDbTrace
10
0
20
-20.652503
30
0
11
3.499998
21
-20.191719
31
0
12
3.500002
22
-21.113287
32
0
13
3.500002
23
-21.113287
33
0
39
0
210
0
220
0
230
1
0
SOLID
5
140
100
AcDbEntity
8
SK2
62
256
6
ByLayer
370
18
48
1
60
0
100
AcDbTrace
10
89.657
20
-20.652503
30
0
11
86.157002
21
-21.113287
31
0
12
86.156998
22
-20.191719
32
0
13
86.156998
23
-20.191719
33
0
39
0
210
0
220
0
230
1
0
ENDBLK
5
142
100
AcDbEntity
8
0
100
AcDbBlockEnd
0
BLOCK
5
147
100
AcDbEntity
8
0
100
AcDbBlockBegin
2
*D3
70
1
10
0
20
0
30
0
3
*D3
0
LINE
5
149
100
AcDbEntity
8
0
62
256
6
ByLayer
370
-2
48
1
60
0
100
AcDbLine
10
-50
20
-11.5875
30
0
11
-50
21
-43.192985
31
0
39
0
210
0
220
0
230
1
0
LINE
5
14A
100
AcDbEntity
8
0
62
256
6
ByLayer
370
-2
48
1
60
0
100
AcDbLine
10
92
20
-1.5875
30
0
11
92
21
-43.192985
31
0
39
0
210
0
220
0
230
1
0
LINE
5
14B
100
AcDbEntity
8
0
62
256
6
ByLayer
370
-2
48
1
60
0
100
AcDbLine
10
-46.5
20
-41.192985
30
0
11
88.5
21
-41.192985
31
0
39
0
210
0
220
0
230
1
0
SOLID
5
14C
100
AcDbEntity
8
0
62
256
6
ByLayer
370
-1
48
1
60
0
100
AcDbTrace
10
-46.5
20
-40.609652
30
0
11
-46.5
21
-41.776319
31
0
12
-50
22
-41.192985
32
0
13
-50
23
-41.192985
33
0
39
0
210
0
220
0
230
1
0
SOLID
5
14D
100
AcDbEntity
8
0
62
256
6
ByLayer
370
-1
48
1
60
0
100
AcDbTrace
10
88.5
20
-41.776319
30
0
11
88.5
21
-40.609652
31
0
12
92
22
-41.192985
32
0
13
92
23
-41.192985
33
0
39
0
210
0
220
0
230
1
0
MTEXT
5
14E
100
AcDbEntity
8
0
62
256
6
ByLayer
370
18
48
1
60
0
100
AcDbMText
10
21
20
-34.192985
30
0
210
0
220
0
230
1
1
\A1;142.00
40
3.5
41
0
44
1
50
0
71
5
72
5
7
iso_b_vert
0
POINT
5
14F
100
AcDbEntity
8
Defpoints
62
0
6
ByLayer
370
-1
48
1
60
0
100
AcDbPoint
10
-50
20
-10
30
0
39
0
210
0
220
0
230
1
50
360
0
POINT
5
150
100
AcDbEntity
8
Defpoints
62
0
6
ByLayer
370
-1
48
1
60
0
100
AcDbPoint
10
92
20
0
30
0
39
0
210
0
220
0
230
1
50
360
0
POINT
5
151
100
AcDbEntity
8
Defpoints
62
0
6
ByLayer
370
-1
48
1
60
0
100
AcDbPoint
10
92
20
-41.192985
30
0
39
0
210
0
220
0
230
1
50
360
0
ENDBLK
5
148
100
AcDbEntity
8
0
100
AcDbBlockEnd
0
BLOCK
5
159
100
AcDbEntity
8
0
100
AcDbBlockBegin
2
_U1
70
0
10
0
20
0
30
0
3
_U1
0
MTEXT
5
153
100
AcDbEntity
8
SK2
62
256
6
ByLayer
370
13
48
1
60
0
100
AcDbMText
10
14.808135
20
-40.160352
30
0
210
0
220
0
230
1
1
\W0.7145;142,00
40
3.5
41
0
44
1.084337
50
0
71
7
72
5
7
iso_b_vert
0
LINE
5
154
100
AcDbEntity
8
SK2
62
256
6
ByLayer
370
13
48
1
60
0
100
AcDbLine
10
-50
20
-11.5875
30
0
11
-50
21
-43.192985
31
0
39
0
210
0
220
0
230
1
0
LINE
5
155
100
AcDbEntity
8
SK2
62
256
6
ByLayer
370
13
48
1
60
0
100
AcDbLine
10
92
20
-1.5875
30
0
11
92
21
-43.192985
31
0
39
0
210
0
220
0
230
1
0
LINE
5
156
100
AcDbEntity
8
SK2
62
256
6
ByLayer
370
13
48
1
60
0
100
AcDbLine
10
-50
20
-41.192985
30
0
11
92
21
-41.192985
31
0
39
0
210
0
220
0
230
1
0
SOLID
5
157
100
AcDbEntity
8
SK2
62
256
6
ByLayer
370
18
48
1
60
0
100
AcDbTrace
10
-50
20
-41.192985
30
0
11
-46.500002
21
-40.732202
31
0
12
-46.499998
22
-41.653769
32
0
13
-46.499998
23
-41.653769
33
0
39
0
210
0
220
0
230
1
0
SOLID
5
158
100
AcDbEntity
8
SK2
62
256
6
ByLayer
370
18
48
1
60
0
100
AcDbTrace
10
92
20
-41.192985
30
0
11
88.500002
21
-41.653769
31
0
12
88.499998
22
-40.732202
32
0
13
88.499998
23
-40.732202
33
0
39
0
210
0
220
0
230
1
0
ENDBLK
5
15A
100
AcDbEntity
8
0
100
AcDbBlockEnd
0
BLOCK
5
15F
100
AcDbEntity
8
0
100
AcDbBlockBegin
2
*D5
70
1
10
0
20
0
30
0
3
*D5
0
LINE
5
161
100
AcDbEntity
8
0
62
256
6
ByLayer
370
-2
48
1
60
0
100
AcDbLine
10
40.41
20
11.5875
30
0
11
40.41
21
21.459119
31
0
39
0
210
0
220
0
230
1
0
LINE
5
162
100
AcDbEntity
8
0
62
256
6
ByLayer
370
-2
48
1
60
0
100
AcDbLine
10
92
20
1.5875
30
0
11
92
21
21.459119
31
0
39
0
210
0
220
0
230
1
0
LINE
5
163
100
AcDbEntity
8
0
62
256
6
ByLayer
370
-2
48
1
60
0
100
AcDbLine
10
43.91
20
19.459119
30
0
11
88.5
21
19.459119
31
0
39
0
210
0
220
0
230
1
0
SOLID
5
164
100
AcDbEntity
8
0
62
256
6
ByLayer
370
-1
48
1
60
0
100
AcDbTrace
10
43.91
20
20.042453
30
0
11
43.91
21
18.875786
31
0
12
40.41
22
19.459119
32
0
13
40.41
23
19.459119
33
0
39
0
210
0
220
0
230
1
0
SOLID
5
165
100
AcDbEntity
8
0
62
256
6
ByLayer
370
-1
48
1
60
0
100
AcDbTrace
10
88.5
20
18.875786
30
0
11
88.5
21
20.042453
31
0
12
92
22
19.459119
32
0
13
92
23
19.459119
33
0
39
0
210
0
220
0
230
1
0
MTEXT
5
166
100
AcDbEntity
8
0
62
256
6
ByLayer
370
18
48
1
60
0
100
AcDbMText
10
66.205
20
26.459119
30
0
210
0
220
0
230
1
1
\A1;51.59
40
3.5
41
0
44
1
50
0
71
5
72
5
7
iso_b_vert
0
POINT
5
167
100
AcDbEntity
8
Defpoints
62
0
6
ByLayer
370
-1
48
1
60
0
100
AcDbPoint
10
40.41
20
10
30
0
39
0
210
0
220
0
230
1
50
360
0
POINT
5
168
100
AcDbEntity
8
Defpoints
62
0
6
ByLayer
370
-1
48
1
60
0
100
AcDbPoint
10
92
20
0
30
0
39
0
210
0
220
0
230
1
50
360
0
POINT
5
169
100
AcDbEntity
8
Defpoints
62
0
6
ByLayer
370
-1
48
1
60
0
100
AcDbPoint
10
92
20
19.459119
30
0
39
0
210
0
220
0
230
1
50
360
0
ENDBLK
5
160
100
AcDbEntity
8
0
100
AcDbBlockEnd
0
BLOCK
5
171
100
AcDbEntity
8
0
100
AcDbBlockBegin
2
_U2
70
0
10
0
20
0
30
0
3
_U2
0
MTEXT
5
16B
100
AcDbEntity
8
SK2
62
256
6
ByLayer
370
13
48
1
60
0
100
AcDbMText
10
61.505135
20
20.491753
30
0
210
0
220
0
230
1
1
\W0.6791;51,59
40
3.5
41
0
44
1.084337
50
0
71
7
72
5
7
iso_b_vert
0
LINE
5
16C
100
AcDbEntity
8
SK2
62
256
6
ByLayer
370
13
48
1
60
0
100
AcDbLine
10
40.41
20
11.5875
30
0
11
40.41
21
21.459119
31
0
39
0
210
0
220
0
230
1
0
LINE
5
16D
100
AcDbEntity
8
SK2
62
256
6
ByLayer
370
13
48
1
60
0
100
AcDbLine
10
92
20
1.5875
30
0
11
92
21
21.459119
31
0
39
0
210
0
220
0
230
1
0
LINE
5
16E
100
AcDbEntity
8
SK2
62
256
6
ByLayer
370
13
48
1
60
0
100
AcDbLine
10
40.41
20
19.459119
30
0
11
92
21
19.459119
31
0
39
0
210
0
220
0
230
1
0
SOLID
5
16F
100
AcDbEntity
8
SK2
62
256
6
ByLayer
370
18
48
1
60
0
100
AcDbTrace
10
40.41
20
19.459119
30
0
11
43.909998
21
19.919903
31
0
12
43.910002
22
18.998335
32
0
13
43.910002
23
18.998335
33
0
39
0
210
0
220
0
230
1
0
SOLID
5
170
100
AcDbEntity
8
SK2
62
256
6
ByLayer
370
18
48
1
60
0
100
AcDbTrace
10
92
20
19.459119
30
0
11
88.500002
21
18.998335
31
0
12
88.499998
22
19.919903
32
0
13
88.499998
23
19.919903
33
0
39
0
210
0
220
0
230
1
0
ENDBLK
5
172
100
AcDbEntity
8
0
100
AcDbBlockEnd
0
BLOCK
5
177
100
AcDbEntity
8
0
100
AcDbBlockBegin
2
*D7
70
1
10
0
20
0
30
0
3
*D7
0
LINE
5
179
100
AcDbEntity
8
0
62
256
6
ByLayer
370
-2
48
1
60
0
100
AcDbLine
10
92
20
-1.5875
30
0
11
92
21
-22.652503
31
0
39
0
210
0
220
0
230
1
0
LINE
5
17A
100
AcDbEntity
8
0
62
256
6
ByLayer
370
-2
48
1
60
0
100
AcDbLine
10
89.657
20
-9.4375
30
0
11
89.657
21
-22.652503
31
0
39
0
210
0
220
0
230
1
0
LINE
5
17B
100
AcDbEntity
8
0
62
256
6
ByLayer
370
-2
48
1
60
0
100
AcDbLine
10
92
20
-20.652503
30
0
11
120.333333
21
-20.652503
31
0
39
0
210
0
220
0
230
1
0
LINE
5
17C
100
AcDbEntity
8
0
62
256
6
ByLayer
370
-2
48
1
60
0
100
AcDbLine
10
95.5
20
-20.652503
30
0
11
99
21
-20.652503
31
0
39
0
210
0
220
0
230
1
0
LINE
5
17D
100
AcDbEntity
8
0
62
256
6
ByLayer
370
-2
48
1
60
0
100
AcDbLine
10
86.157
20
-20.652503
30
0
11
82.657
21
-20.652503
31
0
39
0
210
0
220
0
230
1
0
SOLID
5
17E
100
AcDbEntity
8
0
62
256
6
ByLayer
370
-1
48
1
60
0
100
AcDbTrace
10
95.5
20
-20.06917
30
0
11
95.5
21
-21.235837
31
0
12
92
22
-20.652503
32
0
13
92
23
-20.652503
33
0
39
0
210
0
220
0
230
1
0
SOLID
5
17F
100
AcDbEntity
8
0
62
256
6
ByLayer
370
-1
48
1
60
0
100
AcDbTrace
10
86.157
20
-21.235837
30
0
11
86.157
21
-20.06917
31
0
12
89.657
22
-20.652503
32
0
13
89.657
23
-20.652503
33
0
39
0
210
0
220
0
230
1
0
MTEXT
5
180
100
AcDbEntity
8
0
62
256
6
ByLayer
370
18
48
1
60
0
100
AcDbMText
10
109.666667
20
-13.652503
30
0
210
0
220
0
230
1
1
\A1;2.34
40
3.5
41
0
44
1
50
0
71
5
72
5
7
iso_b_vert
0
POINT
5
181
100
AcDbEntity
8
Defpoints
62
0
6
ByLayer
370
-1
48
1
60
0
100
AcDbPoint
10
92
20
0
30
0
39
0
210
0
220
0
230
1
50
360
0
POINT
5
182
100
AcDbEntity
8
Defpoints
62
0
6
ByLayer
370
-1
48
1
60
0
100
AcDbPoint
10
89.657
20
-7.85
30
0
39
0
210
0
220
0
230
1
50
360
0
POINT
5
183
100
AcDbEntity
8
Defpoints
62
0
6
ByLayer
370
-1
48
1
60
0
100
AcDbPoint
10
89.657
20
-20.652503
30
0
39
0
210
0
220
0
230
1
50
360
0
ENDBLK
5
178
100
AcDbEntity
8
0
100
AcDbBlockEnd
0
BLOCK
5
18B
100
AcDbEntity
8
0
100
AcDbBlockBegin
2
_U3
70
0
10
0
20
0
30
0
3
_U3
0
MTEXT
5
185
100
AcDbEntity
8
SK2
62
256
6
ByLayer
370
13
48
1
60
0
100
AcDbMText
10
97.967593
20
-19.61987
30
0
210
0
220
0
230
1
1
\W0.7383;2,34
40
3.5
41
0
44
1.084337
50
0
71
7
72
5
7
iso_b_vert
0
LINE
5
186
100
AcDbEntity
8
SK2
62
256
6
ByLayer
370
13
48
1
60
0
100
AcDbLine
10
92
20
-1.5875
30
0
11
92
21
-22.652503
31
0
39
0
210
0
220
0
230
1
0
LINE
5
187
100
AcDbEntity
8
SK2
62
256
6
ByLayer
370
13
48
1
60
0
100
AcDbLine
10
89.657
20
-9.4375
30
0
11
89.657
21
-22.652503
31
0
39
0
210
0
220
0
230
1
0
LINE
5
188
100
AcDbEntity
8
SK2
62
256
6
ByLayer
370
13
48
1
60
0
100
AcDbLine
10
80.907
20
-20.652503
30
0
11
106.180758
21
-20.652503
31
0
39
0
210
0
220
0
230
1
0
SOLID
5
189
100
AcDbEntity
8
SK2
62
256
6
ByLayer
370
18
48
1
60
0
100
AcDbTrace
10
92
20
-20.652503
30
0
11
95.499998
21
-20.191719
31
0
12
95.500002
22
-21.113287
32
0
13
95.500002
23
-21.113287
33
0
39
0
210
0
220
0
230
1
0
SOLID
5
18A
100
AcDbEntity
8
SK2
62
256
6
ByLayer
370
18
48
1
60
0
100
AcDbTrace
10
89.657
20
-20.652503
30
0
11
86.157002
21
-21.113287
31
0
12
86.156998
22
-20.191719
32
0
13
86.156998
23
-20.191719
33
0
39
0
210
0
220
0
230
1
0
ENDBLK
5
18C
100
AcDbEntity
8
0
100
AcDbBlockEnd
0
BLOCK
5
191
100
AcDbEntity
8
0
100
AcDbBlockBegin
2
*D9
70
1
10
0
20
0
30
0
3
*D9
0
LINE
5
193
100
AcDbEntity
8
0
62
256
6
ByLayer
370
-2
48
1
60
0
100
AcDbLine
10
89.657
20
9.4375
30
0
11
89.657
21
13.985371
31
0
39
0
210
0
220
0
230
1
0
LINE
5
194
100
AcDbEntity
8
0
62
256
6
ByLayer
370
-2
48
1
60
0
100
AcDbLine
10
42.557
20
9.4375
30
0
11
42.557
21
13.985371
31
0
39
0
210
0
220
0
230
1
0
LINE
5
195
100
AcDbEntity
8
0
62
256
6
ByLayer
370
-2
48
1
60
0
100
AcDbLine
10
86.157
20
11.985371
30
0
11
46.057
21
11.985371
31
0
39
0
210
0
220
0
230
1
0
SOLID
5
196
100
AcDbEntity
8
0
62
256
6
ByLayer
370
-1
48
1
60
0
100
AcDbTrace
10
86.157
20
11.402038
30
0
11
86.157
21
12.568705
31
0
12
89.657
22
11.985371
32
0
13
89.657
23
11.985371
33
0
39
0
210
0
220
0
230
1
0
SOLID
5
197
100
AcDbEntity
8
0
62
256
6
ByLayer
370
-1
48
1
60
0
100
AcDbTrace
10
46.057
20
12.568705
30
0
11
46.057
21
11.402038
31
0
12
42.557
22
11.985371
32
0
13
42.557
23
11.985371
33
0
39
0
210
0
220
0
230
1
0
MTEXT
5
198
100
AcDbEntity
8
0
62
256
6
ByLayer
370
18
48
1
60
0
100
AcDbMText
10
66.107
20
18.985371
30
0
210
0
220
0
230
1
1
\A1;47.10
40
3.5
41
0
44
1
50
0
71
5
72
5
7
iso_b_vert
0
POINT
5
199
100
AcDbEntity
8
Defpoints
62
0
6
ByLayer
370
-1
48
1
60
0
100
AcDbPoint
10
89.657
20
7.85
30
0
39
0
210
0
220
0
230
1
50
360
0
POINT
5
19A
100
AcDbEntity
8
Defpoints
62
0
6
ByLayer
370
-1
48
1
60
0
100
AcDbPoint
10
42.557
20
7.85
30
0
39
0
210
0
220
0
230
1
50
360
0
POINT
5
19B
100
AcDbEntity
8
Defpoints
62
0
6
ByLayer
370
-1
48
1
60
0
100
AcDbPoint
10
42.557
20
11.985371
30
0
39
0
210
0
220
0
230
1
50
360
0
ENDBLK
5
192
100
AcDbEntity
8
0
100
AcDbBlockEnd
0
BLOCK
5
1A3
100
AcDbEntity
8
0
100
AcDbBlockBegin
2
_U4
70
0
10
0
20
0
30
0
3
_U4
0
MTEXT
5
19D
100
AcDbEntity
8
SK2
62
256
6
ByLayer
370
13
48
1
60
0
100
AcDbMText
10
61.222868
20
13.018005
30
0
210
0
220
0
230
1
1
\W0.6977;47,10
40
3.5
41
0
44
1.084337
50
0
71
7
72
5
7
iso_b_vert
0
LINE
5
19E
100
AcDbEntity
8
SK2
62
256
6
ByLayer
370
13
48
1
60
0
100
AcDbLine
10
89.657
20
9.4375
30
0
11
89.657
21
13.985371
31
0
39
0
210
0
220
0
230
1
0
LINE
5
19F
100
AcDbEntity
8
SK2
62
256
6
ByLayer
370
13
48
1
60
0
100
AcDbLine
10
42.557
20
9.4375
30
0
11
42.557
21
13.985371
31
0
39
0
210
0
220
0
230
1
0
LINE
5
1A0
100
AcDbEntity
8
SK2
62
256
6
ByLayer
370
13
48
1
60
0
100
AcDbLine
10
89.657
20
11.985371
30
0
11
42.557
21
11.985371
31
0
39
0
210
0
220
0
230
1
0
SOLID
5
1A1
100
AcDbEntity
8
SK2
62
256
6
ByLayer
370
18
48
1
60
0
100
AcDbTrace
10
89.657
20
11.985371
30
0
11
86.157002
21
11.524588
31
0
12
86.156998
22
12.446155
32
0
13
86.156998
23
12.446155
33
0
39
0
210
0
220
0
230
1
0
SOLID
5
1A2
100
AcDbEntity
8
SK2
62
256
6
ByLayer
370
18
48
1
60
0
100
AcDbTrace
10
42.557
20
11.985371
30
0
11
46.056998
21
12.446155
31
0
12
46.057002
22
11.524588
32
0
13
46.057002
23
11.524588
33
0
39
0
210
0
220
0
230
1
0
ENDBLK
5
1A4
100
AcDbEntity
8
0
100
AcDbBlockEnd
0
BLOCK
5
1A9
100
AcDbEntity
8
0
100
AcDbBlockBegin
2
*D11
70
1
10
0
20
0
30
0
3
*D11
0
LINE
5
1AB
100
AcDbEntity
8
0
62
256
6
ByLayer
370
-2
48
1
60
0
100
AcDbLine
10
-50
20
-11.5875
30
0
11
-50
21
-32.690158
31
0
39
0
210
0
220
0
230
1
0
LINE
5
1AC
100
AcDbEntity
8
0
62
256
6
ByLayer
370
-2
48
1
60
0
100
AcDbLine
10
89.657
20
-9.4375
30
0
11
89.657
21
-32.690158
31
0
39
0
210
0
220
0
230
1
0
LINE
5
1AD
100
AcDbEntity
8
0
62
256
6
ByLayer
370
-2
48
1
60
0
100
AcDbLine
10
-46.5
20
-30.690158
30
0
11
86.157
21
-30.690158
31
0
39
0
210
0
220
0
230
1
0
SOLID
5
1AE
100
AcDbEntity
8
0
62
256
6
ByLayer
370
-1
48
1
60
0
100
AcDbTrace
10
-46.5
20
-30.106825
30
0
11
-46.5
21
-31.273491
31
0
12
-50
22
-30.690158
32
0
13
-50
23
-30.690158
33
0
39
0
210
0
220
0
230
1
0
SOLID
5
1AF
100
AcDbEntity
8
0
62
256
6
ByLayer
370
-1
48
1
60
0
100
AcDbTrace
10
86.157
20
-31.273491
30
0
11
86.157
21
-30.106825
31
0
12
89.657
22
-30.690158
32
0
13
89.657
23
-30.690158
33
0
39
0
210
0
220
0
230
1
0
MTEXT
5
1B0
100
AcDbEntity
8
0
62
256
6
ByLayer
370
18
48
1
60
0
100
AcDbMText
10
19.8285
20
-23.690158
30
0
210
0
220
0
230
1
1
\A1;139.66
40
3.5
41
0
44
1
50
0
71
5
72
5
7
iso_b_vert
0
POINT
5
1B1
100
AcDbEntity
8
Defpoints
62
0
6
ByLayer
370
-1
48
1
60
0
100
AcDbPoint
10
-50
20
-10
30
0
39
0
210
0
220
0
230
1
50
360
0
POINT
5
1B2
100
AcDbEntity
8
Defpoints
62
0
6
ByLayer
370
-1
48
1
60
0
100
AcDbPoint
10
89.657
20
-7.85
30
0
39
0
210
0
220
0
230
1
50
360
0
POINT
5
1B3
100
AcDbEntity
8
Defpoints
62
0
6
ByLayer
370
-1
48
1
60
0
100
AcDbPoint
10
89.657
20
-30.690158
30
0
39
0
210
0
220
0
230
1
50
360
0
ENDBLK
5
1AA
100
AcDbEntity
8
0
100
AcDbBlockEnd
0
BLOCK
5
1BB
100
AcDbEntity
8
0
100
AcDbBlockBegin
2
_U5
70
0
10
0
20
0
30
0
3
_U5
0
MTEXT
5
1B5
100
AcDbEntity
8
SK2
62
256
6
ByLayer
370
13
48
1
60
0
100
AcDbMText
10
13.820901
20
-29.657524
30
0
210
0
220
0
230
1
1
\W0.6930;139,66
40
3.5
41
0
44
1.084337
50
0
71
7
72
5
7
iso_b_vert
0
LINE
5
1B6
100
AcDbEntity
8
SK2
62
256
6
ByLayer
370
13
48
1
60
0
100
AcDbLine
10
-50
20
-11.5875
30
0
11
-50
21
-32.690158
31
0
39
0
210
0
220
0
230
1
0
LINE
5
1B7
100
AcDbEntity
8
SK2
62
256
6
ByLayer
370
13
48
1
60
0
100
AcDbLine
10
89.657
20
-9.4375
30
0
11
89.657
21
-32.690158
31
0
39
0
210
0
220
0
230
1
0
LINE
5
1B8
100
AcDbEntity
8
SK2
62
256
6
ByLayer
370
13
48
1
60
0
100
AcDbLine
10
-50
20
-30.690158
30
0
11
89.657
21
-30.690158
31
0
39
0
210
0
220
0
230
1
0
SOLID
5
1B9
100
AcDbEntity
8
SK2
62
256
6
ByLayer
370
18
48
1
60
0
100
AcDbTrace
10
-50
20
-30.690158
30
0
11
-46.500002
21
-30.229374
31
0
12
-46.499998
22
-31.150942
32
0
13
-46.499998
23
-31.150942
33
0
39
0
210
0
220
0
230
1
0
SOLID
5
1BA
100
AcDbEntity
8
SK2
62
256
6
ByLayer
370
18
48
1
60
0
100
AcDbTrace
10
89.657
20
-30.690158
30
0
11
86.157002
21
-31.150942
31
0
12
86.156998
22
-30.229374
32
0
13
86.156998
23
-30.229374
33
0
39
0
210
0
220
0
230
1
0
ENDBLK
5
1BC
100
AcDbEntity
8
0
100
AcDbBlockEnd
0
ENDSEC
0
SECTION
2
ENTITIES
0
ARC
5
BD
100
AcDbEntity
8
SK2
62
256
6
ByLayer
370
13
48
1
60
0
100
AcDbCircle
39
0
10
50.407
20
0
30
0
40
23.1549547287243
210
0
220
0
230
1
100
AcDbArc
50
182.659248
51
225
0
ARC
5
BE
100
AcDbEntity
8
SK2
62
256
6
ByLayer
370
13
48
1
60
0
100
AcDbCircle
39
0
10
50.407
20
0
30
0
40
23.1549547287243
210
0
220
0
230
1
100
AcDbArc
50
135
51
166.44837
0
POINT
5
70
100
AcDbEntity
8
80
62
256
6
ByLayer
370
18
48
1
60
0
100
AcDbPoint
10
0
20
0
30
0
39
0
210
0
220
0
230
1
50
360
0
POINT
5
72
100
AcDbEntity
8
81
62
256
6
ByLayer
370
18
48
1
60
0
100
AcDbPoint
10
92
20
0
30
0
39
0
210
0
220
0
230
1
50
360
0
POINT
5
74
100
AcDbEntity
8
1
62
256
6
ByLayer
370
18
48
1
60
1
100
AcDbPoint
10
89.657
20
-7.85
30
0
39
0
210
0
220
0
230
1
50
360
0
POINT
5
76
100
AcDbEntity
8
1
62
256
6
ByLayer
370
18
48
1
60
1
100
AcDbPoint
10
-50
20
-10
30
0
39
0
210
0
220
0
230
1
50
360
0
POINT
5
77
100
AcDbEntity
8
1
62
256
6
ByLayer
370
18
48
1
60
1
100
AcDbPoint
10
40.41
20
10
30
0
39
0
210
0
220
0
230
1
50
360
0
POINT
5
78
100
AcDbEntity
8
1
62
256
6
ByLayer
370
18
48
1
60
1
100
AcDbPoint
10
89.657
20
-7.85
30
0
39
0
210
0
220
0
230
1
50
360
0
POINT
5
79
100
AcDbEntity
8
1
62
256
6
ByLayer
370
18
48
1
60
1
100
AcDbPoint
10
89.657
20
7.85
30
0
39
0
210
0
220
0
230
1
50
360
0
POINT
5
7A
100
AcDbEntity
8
1
62
256
6
ByLayer
370
18
48
1
60
1
100
AcDbPoint
10
42.557
20
7.85
30
0
39
0
210
0
220
0
230
1
50
360
0
POINT
5
7B
100
AcDbEntity
8
1
62
256
6
ByLayer
370
18
48
1
60
1
100
AcDbPoint
10
-50
20
-10
30
0
39
0
210
0
220
0
230
1
50
360
0
POINT
5
7C
100
AcDbEntity
8
1
62
256
6
ByLayer
370
18
48
1
60
1
100
AcDbPoint
10
89.657
20
-7.85
30
0
39
0
210
0
220
0
230
1
50
360
0
SPLINE
5
BF
100
AcDbEntity
8
SK1
62
256
6
ByLayer
370
18
48
1
60
0
100
AcDbSpline
70
4
71
3
72
8
73
4
40
0
40
0
40
0
40
0
40
1
40
1
40
1
40
1
41
1
10
-50
20
-1.21714239661404
30
0
41
1
10
-49.2358902284932
20
-1.18359541282217
30
0
41
1
10
-48.468562724793
20
-1.15018394544637
30
0
41
1
10
-47.7
20
-1.11682450003056
30
0
0
SPLINE
5
C0
100
AcDbEntity
8
SK1
62
256
6
ByLayer
370
18
48
1
60
0
100
AcDbSpline
70
4
71
3
72
12
73
8
40
0
40
0
40
0
40
0
40
0.249999999999996
40
0.249999999999996
40
0.499999999999991
40
0.499999999999991
40
1
40
1
40
1
40
1
41
1
10
-47.6
20
1.78554484129398
30
0
41
1
10
-47.6
20
1.80193511364246
30
0
41
1
10
-47.6041468027231
20
1.81705452965201
30
0
41
1
10
-47.6170570586248
20
1.84205092132632
30
0
41
1
10
-47.6255546314712
20
1.85183920999216
30
0
41
1
10
-47.654055184327
20
1.87475156627289
30
0
41
1
10
-47.6767308868523
20
1.88143596805011
30
0
41
1
10
-47.7
20
1.88042597278897
30
0
0
SPLINE
5
C1
100
AcDbEntity
8
SK1
62
256
6
ByLayer
370
18
48
1
60
0
100
AcDbSpline
70
4
71
3
72
12
73
8
40
0
40
0
40
0
40
0
40
0.500000000000008
40
0.500000000000008
40
0.750000000000004
40
0.750000000000004
40
1
40
1
40
1
40
1
41
1
10
-47.7
20
-1.11682450003056
30
0
41
1
10
-47.6767410897415
20
-1.11581494762558
30
0
41
1
10
-47.6540473543102
20
-1.10703368567772
30
0
41
1
10
-47.6255892761979
20
-1.08135830081818
30
0
41
1
10
-47.6170511286925
20
-1.07064395749859
30
0
41
1
10
-47.6041481443464
20
-1.04418664754309
30
0
41
1
10
-47.6
20
-1.02846714071777
30
0
41
1
10
-47.6
20
-1.01188893333759
30
0
0
SPLINE
5
C2
100
AcDbEntity
8
SK1
62
256
6
ByLayer
370
18
48
1
60
0
100
AcDbSpline
70
4
71
3
72
8
73
4
40
0
40
0
40
0
40
0
40
1
40
1
40
1
40
1
41
1
10
-47.7
20
1.88042597278897
30
0
41
1
10
-48.4685741568019
20
1.84706603116712
30
0
41
1
10
-49.2359055550675
20
1.81365438710927
30
0
41
1
10
-50
20
1.78010807620547
30
0
0
SPLINE
5
C3
100
AcDbEntity
8
SK1
62
256
6
ByLayer
370
18
48
1
60
0
100
AcDbSpline
70
4
71
3
72
12
73
8
40
0
40
0
40
0
40
0
40
0.499999999999992
40
0.499999999999992
40
0.749999999999996
40
0.749999999999996
40
1
40
1
40
1
40
1
41
1
10
-47.7
20
1.11682450003053
30
0
41
1
10
-47.6767410897415
20
1.11581494762555
30
0
41
1
10
-47.6540473543102
20
1.10703368567769
30
0
41
1
10
-47.6255892761979
20
1.08135830081815
30
0
41
1
10
-47.6170511286925
20
1.07064395749856
30
0
41
1
10
-47.6041481443464
20
1.04418664754306
30
0
41
1
10
-47.6
20
1.02846714071774
30
0
41
1
10
-47.6
20
1.01188893333756
30
0
0
SPLINE
5
C4
100
AcDbEntity
8
SK1
62
256
6
ByLayer
370
18
48
1
60
0
100
AcDbSpline
70
4
71
3
72
8
73
4
40
0
40
0
40
0
40
0
40
1
40
1
40
1
40
1
41
1
10
-50
20
1.21714239661404
30
0
41
1
10
-49.2358902284932
20
1.18359541282217
30
0
41
1
10
-48.468562724793
20
1.15018394544634
30
0
41
1
10
-47.7
20
1.11682450003053
30
0
0
SPLINE
5
C5
100
AcDbEntity
8
1
62
256
6
ByLayer
370
18
48
1
60
0
100
AcDbSpline
70
4
71
3
72
8
73
4
40
0
40
0
40
0
40
0
40
1
40
1
40
1
40
1
41
1
10
42.9928646518807
20
-7.78380298772228
30
0
41
1
10
42.8617981779953
20
-7.7696258172642
30
0
41
1
10
42.7306635515325
20
-7.75433087878315
30
0
41
1
10
42.5992955820086
20
-7.73795985729984
30
0
0
SPLINE
5
C6
100
AcDbEntity
8
1
62
256
6
ByLayer
370
18
48
1
60
0
100
AcDbSpline
70
4
71
3
72
10
73
6
40
0
40
0
40
0
40
0
40
0.5
40
0.5
40
1
40
1
40
1
40
1
41
1
10
91.9999721365884
20
0.0481945605706926
30
0
41
1
10
91.9952292396879
20
0.0265989999810472
30
0
41
1
10
91.9884110271597
20
0.0031311978304132
30
0
41
1
10
91.9713386883906
20
-0.0418606442974294
30
0
41
1
10
91.9609708373982
20
-0.0634811895279483
30
0
41
1
10
91.9504524813632
20
-0.0806827415684666
30
0
0
SPLINE
5
C7
100
AcDbEntity
8
1
62
256
6
ByLayer
370
18
48
1
60
0
100
AcDbSpline
70
4
71
3
72
42
73
38
40
0
40
0
40
0
40
0
40
0.124999999999997
40
0.124999999999997
40
0.156249999999997
40
0.156249999999997
40
0.187499999999996
40
0.187499999999996
40
0.249999999999997
40
0.249999999999997
40
0.312499999999998
40
0.312499999999998
40
0.343749999999999
40
0.343749999999999
40
0.375000000000001
40
0.375000000000001
40
0.437500000000001
40
0.437500000000001
40
0.500000000000002
40
0.500000000000002
40
0.625000000000004
40
0.625000000000004
40
0.687500000000004
40
0.687500000000004
40
0.750000000000004
40
0.750000000000004
40
0.812500000000004
40
0.812500000000004
40
0.843750000000003
40
0.843750000000003
40
0.875000000000003
40
0.875000000000003
40
0.937500000000001
40
0.937500000000001
40
0.968750000000001
40
0.968750000000001
40
1
40
1
40
1
40
1
41
1
10
22.9721263369778
20
-0.0010994495140437
30
0
41
1
10
23.6962832218626
20
-0.546957134330313
30
0
41
1
10
24.4199937939842
20
-1.08068372826207
30
0
41
1
10
25.3190099494804
20
-1.74062175329104
30
0
41
1
10
25.4985025404242
20
-1.87227808307242
30
0
41
1
10
25.8567672802864
20
-2.13504881450569
30
0
41
1
10
26.0355556278008
20
-2.26613816036738
30
0
41
1
10
26.5727515730112
20
-2.65605447334346
30
0
41
1
10
26.931528893271
20
-2.91215969780077
30
0
41
1
10
27.6494872558808
20
-3.41793108060506
30
0
41
1
10
28.0087189802987
20
-3.66753205335644
30
0
41
1
10
28.5472667159785
20
-4.03778903288037
30
0
41
1
10
28.7265681151888
20
-4.16071929296402
30
0
41
1
10
29.086006574666
20
-4.40400173228693
30
0
41
1
10
29.2661459334622
20
-4.52435437112078
30
0
41
1
10
29.8077946815159
20
-4.88159128480984
30
0
41
1
10
30.1704680479948
20
-5.11474473057308
30
0
41
1
10
30.8981679820775
20
-5.57190199067966
30
0
41
1
10
31.2600918676251
20
-5.79423957999992
30
0
41
1
10
32.340614964981
20
-6.44196944129766
30
0
41
1
10
33.060657792952
20
-6.84100775210041
30
0
41
1
10
34.1362750783823
20
-7.39614538307248
30
0
41
1
10
34.4933138831372
20
-7.57451953094741
30
0
41
1
10
35.2097760499802
20
-7.91299920578342
30
0
41
1
10
35.5689841737768
20
-8.07337642073267
30
0
41
1
10
36.2883944343211
20
-8.37725060110827
30
0
41
1
10
36.6487035260308
20
-8.52066765994965
30
0
41
1
10
37.189252581031
20
-8.7232669613596
30
0
41
1
10
37.3694217254786
20
-8.78871586038892
30
0
41
1
10
37.7310368225854
20
-8.91453463202086
30
0
41
1
10
37.9123601766843
20
-8.97499415435081
30
0
41
1
10
38.457795954648
20
-9.14906791753313
30
0
41
1
10
38.8212618638905
20
-9.25479271367539
30
0
41
1
10
39.3649241044714
20
-9.39813721423039
30
0
41
1
10
39.5459498472402
20
-9.44337719239451
30
0
41
1
10
39.9073988681045
20
-9.52883898540227
30
0
41
1
10
40.0876777537985
20
-9.56910910780883
30
0
41
1
10
40.2681677805146
20
-9.60664709625266
30
0
0
SPLINE
5
C8
100
AcDbEntity
8
1
62
256
6
ByLayer
370
18
48
1
60
0
100
AcDbSpline
70
4
71
3
72
40
73
36
40
0
40
0
40
0
40
0
40
0.03125
40
0.03125
40
0.0625
40
0.0625
40
0.125
40
0.125
40
0.1875
40
0.1875
40
0.21875
40
0.21875
40
0.25
40
0.25
40
0.375
40
0.375
40
0.40625
40
0.40625
40
0.4375
40
0.4375
40
0.5
40
0.5
40
0.562499999999999
40
0.562499999999999
40
0.593749999999999
40
0.593749999999999
40
0.624999999999999
40
0.624999999999999
40
0.749999999999999
40
0.749999999999999
40
0.812499999999999
40
0.812499999999999
40
0.875
40
0.875
40
1
40
1
40
1
40
1
41
1
10
40.2681677805147
20
-9.60664709625266
30
0
41
1
10
40.2531171323253
20
-9.55777142599712
30
0
41
1
10
40.2380157109865
20
-9.50428571968004
30
0
41
1
10
40.2079775645827
20
-9.38926620032819
30
0
41
1
10
40.193002154281
20
-9.3275994303394
30
0
41
1
10
40.1482026090493
20
-9.13032895273139
30
0
41
1
10
40.1185167740381
20
-8.98248715329984
30
0
41
1
10
40.059211586513
20
-8.65440931567912
30
0
41
1
10
40.0295922511286
20
-8.47417427947133
30
0
41
1
10
39.984704722294
20
-8.17893983713626
30
0
41
1
10
39.9696238258293
20
-8.07605430892198
30
0
41
1
10
39.9395387358061
20
-7.86351405293999
30
0
41
1
10
39.9245475721329
20
-7.75397859150311
30
0
41
1
10
39.8497596793341
20
-7.1903048484071
30
0
41
1
10
39.7905297694425
20
-6.68868898944899
30
0
41
1
10
39.7160531177127
20
-5.99826993704246
30
0
41
1
10
39.7011250506043
20
-5.85698463323612
30
0
41
1
10
39.6711265242144
20
-5.56787965367832
30
0
41
1
10
39.6561039299075
20
-5.42056520123282
30
0
41
1
10
39.6112540119009
20
-4.97380901902497
30
0
41
1
10
39.5815306368366
20
-4.66824410801331
30
0
41
1
10
39.5219988826444
20
-4.04204303887931
30
0
41
1
10
39.4922171464028
20
-3.72140451888546
30
0
41
1
10
39.4474883212065
20
-3.22903157454502
30
0
41
1
10
39.4325661284752
20
-3.06300115576892
30
0
41
1
10
39.4026509174653
20
-2.72706542153748
30
0
41
1
10
39.3876134656394
20
-2.55664958674157
30
0
41
1
10
39.3127799319959
20
-1.70285799104647
30
0
41
1
10
39.2536948747056
20
-1.01301383568384
30
0
41
1
10
39.1642410716402
20
0.0315146429222466
30
0
41
1
10
39.1343375687948
20
0.381335567813721
30
0
41
1
10
39.0741849641564
20
1.08437036885084
30
0
41
1
10
39.0443749333971
20
1.43242221919451
30
0
41
1
10
38.9553659041407
20
2.46155674704724
30
0
41
1
10
38.8961099891176
20
3.12993753815459
30
0
41
1
10
38.8358917347047
20
3.78012877457206
30
0
0
SPLINE
5
C9
100
AcDbEntity
8
1
62
256
6
ByLayer
370
18
48
1
60
0
100
AcDbSpline
70
4
71
3
72
8
73
4
40
0
40
0
40
0
40
0
40
1
40
1
40
1
40
1
41
1
10
42.9928646518807
20
-7.78380298772228
30
0
41
1
10
43.4313086637725
20
-7.80911738386482
30
0
41
1
10
43.8691759961494
20
-7.82154117924861
30
0
41
1
10
44.306012633503
20
-7.82166332378236
30
0
0
SPLINE
5
CA
100
AcDbEntity
8
1
62
256
6
ByLayer
370
18
48
1
60
0
100
AcDbSpline
70
4
71
3
72
40
73
36
40
0
40
0
40
0
40
0
40
0.095386471898981
40
0.095386471898981
40
0.145642779015705
40
0.145642779015705
40
0.19589908613243
40
0.19589908613243
40
0.246155393249154
40
0.246155393249154
40
0.296411700365878
40
0.296411700365878
40
0.346668007482603
40
0.346668007482603
40
0.396924314599326
40
0.396924314599326
40
0.497436928832775
40
0.497436928832775
40
0.547693235949499
40
0.547693235949499
40
0.597949543066224
40
0.597949543066224
40
0.698462157299668
40
0.698462157299668
40
0.74871846441639
40
0.74871846441639
40
0.798974771533112
40
0.798974771533112
40
0.849231078649834
40
0.849231078649834
40
0.899487385766556
40
0.899487385766556
40
0.949743692883278
40
0.949743692883278
40
1
40
1
40
1
40
1
41
1
10
75.1342529094554
20
5.21490465658576
30
0
41
1
10
75.5935440233208
20
5.41498560531647
30
0
41
1
10
76.0536591721665
20
5.60548460889041
30
0
41
1
10
76.7562813655413
20
5.88300872953963
30
0
41
1
10
76.9984055308864
20
5.976721177435
30
0
41
1
10
77.4839090187174
20
6.15773276684212
30
0
41
1
10
77.727330420155
20
6.24500489373247
30
0
41
1
10
78.2153956788524
20
6.41325355098815
30
0
41
1
10
78.4599987171554
20
6.49427485606589
30
0
41
1
10
78.9501401937297
20
6.65027636000713
30
0
41
1
10
79.1957101573341
20
6.72519524061141
30
0
41
1
10
79.6844551096901
20
6.8683045802909
30
0
41
1
10
79.9277387218759
20
6.93681779537727
30
0
41
1
10
80.4143308060028
20
7.06591018033541
30
0
41
1
10
80.6575336569819
20
7.12661467531376
30
0
41
1
10
81.3865939567356
20
7.29770839679324
30
0
41
1
10
81.8718824113638
20
7.39718012187043
30
0
41
1
10
82.5970718055936
20
7.52543213213053
30
0
41
1
10
82.8381366568436
20
7.56473998126964
30
0
41
1
10
83.3211647748726
20
7.6354130867231
30
0
41
1
10
83.5629451145618
20
7.66689556942521
30
0
41
1
10
84.2887135597467
20
7.7500982546099
30
0
41
1
10
84.7731754540557
20
7.79064724606013
30
0
41
1
10
85.4990553307794
20
7.82898404199767
30
0
41
1
10
85.7408107383168
20
7.83796690262031
30
0
41
1
10
86.225977701632
20
7.8480933714018
30
0
41
1
10
86.4691770667757
20
7.84928721552291
30
0
41
1
10
86.9565174610982
20
7.84398256889531
30
0
41
1
10
87.2006407566793
20
7.83748113938978
30
0
41
1
10
87.6896686634383
20
7.81667035689858
30
0
41
1
10
87.9348434883509
20
7.80235173668322
30
0
41
1
10
88.424245112947
20
7.76565467078063
30
0
41
1
10
88.6684763897079
20
7.74332015199013
30
0
41
1
10
89.1576698573804
20
7.69123740836639
30
0
41
1
10
89.4024260860241
20
7.66145486262587
30
0
41
1
10
89.6471725875043
20
7.62792384490874
30
0
0
SPLINE
5
CB
100
AcDbEntity
8
1
62
256
6
ByLayer
370
13
48
1
60
0
100
AcDbSpline
70
4
71
3
72
18
73
14
40
0
40
0
40
0
40
0
40
0.244648333020196
40
0.244648333020196
40
0.366972499530294
40
0.366972499530294
40
0.489296666040392
40
0.489296666040392
40
0.733944999060594
40
0.733944999060594
40
0.978593332080795
40
0.978593332080795
40
1
40
1
40
1
40
1
41
1
10
42.546782178391
20
-7.20655004420084
30
0
41
1
10
43.0334161203751
20
-7.28571626818129
30
0
41
1
10
43.5209412456384
20
-7.35081623968659
30
0
41
1
10
44.2546709718806
20
-7.42662775211701
30
0
41
1
10
44.4996479583113
20
-7.44825866524658
30
0
41
1
10
44.9905476057738
20
-7.48408584989281
30
0
41
1
10
45.2367065504401
20
-7.49828032545355
30
0
41
1
10
45.9748163701804
20
-7.52944377899991
30
0
41
1
10
46.4664682809113
20
-7.53507880040624
30
0
41
1
10
47.4502004461454
20
-7.5160268647335
30
0
41
1
10
47.942583409022
20
-7.49125693483077
30
0
41
1
10
48.4772913250108
20
-7.44799149181114
30
0
41
1
10
48.5203107696408
20
-7.44439575440359
30
0
41
1
10
48.5633277603054
20
-7.44068555811222
30
0
0
SPLINE
5
CC
100
AcDbEntity
8
1
62
256
6
ByLayer
370
18
48
1
60
0
100
AcDbSpline
70
4
71
3
72
8
73
4
40
0
40
0
40
0
40
0
40
1
40
1
40
1
40
1
41
1
10
42.5467821783915
20
0.528283383423968
30
0
41
1
10
42.1233969470192
20
0.771819831435039
30
0
41
1
10
41.699269372598
20
1.0122771014517
30
0
41
1
10
41.2744987550563
20
1.24890456289751
30
0
0
SPLINE
5
CD
100
AcDbEntity
8
1
62
256
6
ByLayer
370
18
48
1
60
0
100
AcDbSpline
70
4
71
3
72
14
73
10
40
0
40
0
40
0
40
0
40
0.25
40
0.25
40
0.5
40
0.5
40
0.75
40
0.75
40
1
40
1
40
1
40
1
41
1
10
89.6471725874982
20
-7.62792384492488
30
0
41
1
10
89.8324617536579
20
-7.13745027279637
30
0
41
1
10
90.0190000294725
20
-6.64749703177057
30
0
41
1
10
90.39386452977
20
-5.66832580147477
30
0
41
1
10
90.5822026935208
20
-5.17911286006302
30
0
41
1
10
90.9602104231977
20
-4.20122785914515
30
0
41
1
10
91.1499887062912
20
-3.71260036719647
30
0
41
1
10
91.5303011959572
20
-2.73564681276028
30
0
41
1
10
91.7207382787377
20
-2.24728677392187
30
0
41
1
10
91.9112311757286
20
-1.75894179354572
30
0
0
SPLINE
5
CE
100
AcDbEntity
8
1
62
256
6
ByLayer
370
18
48
1
60
0
100
AcDbSpline
70
4
71
3
72
12
73
8
40
0
40
0
40
0
40
0
40
0.664617430993129
40
0.664617430993129
40
0.996926146489694
40
0.996926146489694
40
1
40
1
40
1
40
1
41
1
10
89.3545489612529
20
-7.45172785352523
30
0
41
1
10
87.3946646711125
20
-7.49321727261841
30
0
41
1
10
85.4699564032229
20
-7.29454531414899
30
0
41
1
10
82.5741459170407
20
-6.67445601036135
30
0
41
1
10
81.6072421407478
20
-6.41405903950982
30
0
41
1
10
80.6245560470359
20
-6.10040112922246
30
0
41
1
10
80.6155489282067
20
-6.09752208413661
30
0
41
1
10
80.6065412161235
20
-6.09463873900853
30
0
0
SPLINE
5
CF
100
AcDbEntity
8
1
62
256
6
ByLayer
370
13
48
1
60
0
100
AcDbSpline
70
4
71
3
72
24
73
20
40
0
40
0
40
0
40
0
40
0.0862288515590091
40
0.0862288515590091
40
0.130155932476446
40
0.130155932476446
40
0.174083013393882
40
0.174083013393882
40
0.525499660733372
40
0.525499660733372
40
0.613353822568245
40
0.613353822568245
40
0.657280903485682
40
0.657280903485682
40
0.701207984403119
40
0.701207984403119
40
0.876916308072864
40
0.876916308072864
40
1
40
1
40
1
40
1
41
1
10
80.6065410598916
20
-6.09463868899905
30
0
41
1
10
80.1286451339221
20
-5.94166544786185
30
0
41
1
10
79.6490793541519
20
-5.77658872314569
30
0
41
1
10
78.9217405285882
20
-5.50975978440246
30
0
41
1
10
78.6755462446598
20
-5.41660694423521
30
0
41
1
10
78.184906421415
20
-5.2256180689231
30
0
41
1
10
77.9400798652185
20
-5.12764759758406
30
0
41
1
10
75.7401471775265
20
-4.22508636764459
30
0
41
1
10
73.8099513512101
20
-3.27408696960097
30
0
41
1
10
71.3759859056411
20
-1.98539293609741
30
0
41
1
10
70.8882065568862
20
-1.72255616516921
30
0
41
1
10
70.1537802688501
20
-1.3227444390769
30
0
41
1
10
69.9085212216576
20
-1.18853432672501
30
0
41
1
10
69.4169295139783
20
-0.918516232327221
30
0
41
1
10
69.1709127441871
20
-0.782865428801728
30
0
41
1
10
67.9448652836853
20
-0.105005358868169
30
0
41
1
10
66.9714240290618
20
0.437840273985131
30
0
41
1
10
65.3200476704539
20
1.34642011327836
30
0
41
1
10
64.6406853560277
20
1.71604049550899
30
0
41
1
10
63.9606007841565
20
2.07810542868552
30
0
0
SPLINE
5
D0
100
AcDbEntity
8
1
62
256
6
ByLayer
370
18
48
1
60
0
100
AcDbSpline
70
4
71
3
72
8
73
4
40
0
40
0
40
0
40
0
40
1
40
1
40
1
40
1
41
1
10
91.9504524813632
20
-0.0806827415685802
30
0
41
1
10
91.5711781675793
20
-0.700941917474125
30
0
41
1
10
91.1998691959357
20
-1.3284363389219
30
0
41
1
10
90.8366259963299
20
-1.96325723048915
30
0
0
SPLINE
5
D1
100
AcDbEntity
8
1
62
256
6
ByLayer
370
18
48
1
60
0
100
AcDbSpline
70
4
71
3
72
12
73
8
40
0
40
0
40
0
40
0
40
0.25
40
0.25
40
0.5
40
0.5
40
1
40
1
40
1
40
1
41
1
10
89.647172587502
20
-7.62792384491053
30
0
41
1
10
89.6077040936576
20
-7.65775059989275
30
0
41
1
10
89.5689692484724
20
-7.68485570486328
30
0
41
1
10
89.4939909716824
20
-7.73278736741037
30
0
41
1
10
89.4576671229548
20
-7.75368621326399
30
0
41
1
10
89.3520762209276
20
-7.80723508961165
30
0
41
1
10
89.2861835391166
20
-7.83075749429347
30
0
41
1
10
89.2245641956227
20
-7.84200366952223
30
0
0
SPLINE
5
D2
100
AcDbEntity
8
1
62
256
6
ByLayer
370
18
48
1
60
0
100
AcDbSpline
70
4
71
3
72
54
73
50
40
0
40
0
40
0
40
0
40
0.0338312016586187
40
0.0338312016586187
40
0.0676624033172374
40
0.0676624033172374
40
0.135324806634473
40
0.135324806634473
40
0.202987209951709
40
0.202987209951709
40
0.236818411610327
40
0.236818411610327
40
0.253734012439636
40
0.253734012439636
40
0.270649613268945
40
0.270649613268945
40
0.338312016586184
40
0.338312016586184
40
0.355227617415493
40
0.355227617415493
40
0.372143218244803
40
0.372143218244803
40
0.405974419903421
40
0.405974419903421
40
0.541299226537896
40
0.541299226537896
40
0.575130428196514
40
0.575130428196514
40
0.608961629855133
40
0.608961629855133
40
0.67662403317237
40
0.67662403317237
40
0.744286436489608
40
0.744286436489608
40
0.761202037318917
40
0.761202037318917
40
0.778117638148227
40
0.778117638148227
40
0.811948839806847
40
0.811948839806847
40
0.845780041465467
40
0.845780041465467
40
0.862695642294777
40
0.862695642294777
40
0.879611243124087
40
0.879611243124087
40
0.947273646441326
40
0.947273646441326
40
1
40
1
40
1
40
1
41
1
10
89.2245641956227
20
-7.84200366952223
30
0
41
1
10
88.739523044808
20
-7.85430538647398
30
0
41
1
10
88.2543913581187
20
-7.85119437777749
30
0
41
1
10
87.2831710150181
20
-7.81417740272329
30
0
41
1
10
86.7997329043769
20
-7.78037433991497
30
0
41
1
10
85.3538416565459
20
-7.63453511152696
30
0
41
1
10
84.3957682948398
20
-7.47807945094058
30
0
41
1
10
82.4801811313226
20
-7.05419431792672
30
0
41
1
10
81.5225575165895
20
-6.78684570998746
30
0
41
1
10
80.0781598945598
20
-6.30833091197638
30
0
41
1
10
79.5953531021856
20
-6.13592331416956
30
0
41
1
10
78.868094681002
20
-5.85863999753161
30
0
41
1
10
78.6250388371192
20
-5.76303900620059
30
0
41
1
10
78.1398949158903
20
-5.56664306998047
30
0
41
1
10
77.897551708145
20
-5.4657529933651
30
0
41
1
10
76.6864498966045
20
-4.94854749977057
30
0
41
1
10
75.7196656917108
20
-4.4938001703828
30
0
41
1
10
74.5064712280613
20
-3.88405458425984
30
0
41
1
10
74.2633749139146
20
-3.75992178653081
30
0
41
1
10
73.7785619637054
20
-3.50883992556879
30
0
41
1
10
73.5366523992316
20
-3.38180324794175
30
0
41
1
10
72.8121688812648
20
-2.99663080758037
30
0
41
1
10
72.3308591428203
20
-2.7344015638314
30
0
41
1
10
69.9293044990258
20
-1.40185419079461
30
0
41
1
10
68.0228419773431
20
-0.269371750981037
30
0
41
1
10
65.6036420897948
20
1.13546990594165
30
0
41
1
10
65.1168496165374
20
1.41630552674459
30
0
41
1
10
64.1491891313867
20
1.9677115875601
30
0
41
1
10
63.6672249170635
20
2.23909356368588
30
0
41
1
10
62.2248417032911
20
3.03705174934797
30
0
41
1
10
61.2675051678095
20
3.54674413042807
30
0
41
1
10
59.3509897557654
20
4.50581415810214
30
0
41
1
10
58.3916003909486
20
4.95486385840357
30
0
41
1
10
57.1841374956438
20
5.46762968963878
30
0
41
1
10
56.9422196611056
20
5.56773627153203
30
0
41
1
10
56.4573398220907
20
5.76276650428866
30
0
41
1
10
56.2141565945518
20
5.85777892583917
30
0
41
1
10
55.4859544510576
20
6.13363026402101
30
0
41
1
10
55.0014492004627
20
6.3055050652498
30
0
41
1
10
54.0327574802128
20
6.6237106074621
30
0
41
1
10
53.548585089495
20
6.77006294341953
30
0
41
1
10
52.8216136858989
20
6.96956511827847
30
0
41
1
10
52.5791677402972
20
7.03272423533463
30
0
41
1
10
52.0938347316176
20
7.15217897845571
30
0
41
1
10
51.8506677578742
20
7.20853143094106
30
0
41
1
10
50.6374459652647
20
7.47183521203016
30
0
41
1
10
49.6752469939244
20
7.62361039860861
30
0
41
1
10
47.9679544504557
20
7.78780620854934
30
0
41
1
10
47.2218603423087
20
7.82360830518786
30
0
41
1
10
46.4747816135921
20
7.82302726772176
30
0
0
SPLINE
5
D3
100
AcDbEntity
8
1
62
256
6
ByLayer
370
18
48
1
60
0
100
AcDbSpline
70
4
71
3
72
8
73
4
40
0
40
0
40
0
40
0
40
1
40
1
40
1
40
1
41
1
10
42.9928646518809
20
7.78380298772228
30
0
41
1
10
42.8617981779954
20
7.76962581726423
30
0
41
1
10
42.7306635515327
20
7.75433087878318
30
0
41
1
10
42.5992955820087
20
7.73795985729984
30
0
0
SPLINE
5
D4
100
AcDbEntity
8
1
62
256
6
ByLayer
370
18
48
1
60
0
100
AcDbSpline
70
4
71
3
72
8
73
4
40
0
40
0
40
0
40
0
40
1
40
1
40
1
40
1
41
1
10
89.2245641956227
20
7.84200366952223
30
0
41
1
10
89.0247353564708
20
7.84707177109243
30
0
41
1
10
88.8248911506456
20
7.84952386743473
30
0
41
1
10
88.6250044504228
20
7.84936102469823
30
0
0
SPLINE
5
D5
100
AcDbEntity
8
1
62
256
6
ByLayer
370
18
48
1
60
0
100
AcDbSpline
70
4
71
3
72
10
73
6
40
0
40
0
40
0
40
0
40
0.244855405460031
40
0.244855405460031
40
1
40
1
40
1
40
1
41
1
10
50.5874042710344
20
-7.46146870606381
30
0
41
1
10
49.9613457093821
20
-7.57118298235821
30
0
41
1
10
49.3379631700889
20
-7.65604806773939
30
0
41
1
10
46.7965849081679
20
-7.90046058138759
30
0
41
1
10
44.8883088497793
20
-7.84716229471672
30
0
41
1
10
42.9464176185647
20
-7.55138663466568
30
0
0
SPLINE
5
D6
100
AcDbEntity
8
1
62
256
6
ByLayer
370
18
48
1
60
0
100
AcDbSpline
70
4
71
3
72
15
73
11
40
0
40
0
40
0
40
0
40
0.141558307884514
40
0.223033957466097
40
0.386149812432876
40
0.467843198243735
40
0.631467688043085
40
0.713226649822169
40
0.876236313522154
40
1
40
1
40
1
40
1
41
1
10
41.2744987550563
20
1.24890456289754
30
0
41
1
10
41.3370857533262
20
0.668701022657075
30
0
41
1
10
41.4356647640896
20
-0.262767668148172
30
0
41
1
10
41.6062892199971
20
-1.85880656004994
30
0
41
1
10
41.7503506397798
20
-3.15543335377939
30
0
41
1
10
41.9303440999985
20
-4.63039869094146
30
0
41
1
10
42.0741645678611
20
-5.66149197958924
30
0
41
1
10
42.2539400648951
20
-6.70155413713519
30
0
41
1
10
42.4166929335522
20
-7.39234344091471
30
0
41
1
10
42.5439465208932
20
-7.66987271541063
30
0
41
1
10
42.5992955820086
20
-7.73795985729987
30
0
0
SPLINE
5
D7
100
AcDbEntity
8
1
62
256
6
ByLayer
370
18
48
1
60
0
100
AcDbSpline
70
4
71
3
72
24
73
20
40
0
40
0
40
0
40
0
40
0.0592884664011538
40
0.0592884664011538
40
0.153359619761041
40
0.153359619761041
40
0.247430773120927
40
0.247430773120927
40
0.435573079840698
40
0.435573079840698
40
0.529644233200582
40
0.529644233200582
40
0.623715386560466
40
0.623715386560466
40
0.71778653992035
40
0.71778653992035
40
0.811857693280234
40
0.811857693280234
40
1
40
1
40
1
40
1
41
1
10
33.5138101362858
20
-7.06359443039898
30
0
41
1
10
33.3059324925745
20
-7.1732609276952
30
0
41
1
10
33.0982348398075
20
-7.28014638947025
30
0
41
1
10
32.5614066694416
20
-7.54947291497976
30
0
41
1
10
32.2325171354559
20
-7.70771870827275
30
0
41
1
10
31.5756668728645
20
-8.01043796023336
30
0
41
1
10
31.2479934314667
20
-8.15511515602151
30
0
41
1
10
30.2631968624722
20
-8.56583054399599
30
0
41
1
10
29.6047552876386
20
-8.80917076535124
30
0
41
1
10
28.6143444760228
20
-9.12785162712655
30
0
41
1
10
28.2839296812862
20
-9.22639468751271
30
0
41
1
10
27.6198155139661
20
-9.4063499683852
30
0
41
1
10
27.2861343357316
20
-9.48794096724001
30
0
41
1
10
26.6211644720847
20
-9.63298324670009
30
0
41
1
10
26.2892294994284
20
-9.696626498662
30
0
41
1
10
25.6266761287578
20
-9.8062324119922
30
0
41
1
10
25.2958904520819
20
-9.85210931454287
30
0
41
1
10
24.3020750093174
20
-9.96231599918551
30
0
41
1
10
23.6379358762396
20
-9.99956692838228
30
0
41
1
10
22.972126336978
20
-9.99999626624702
30
0
0
SPLINE
5
D8
100
AcDbEntity
8
1
62
256
6
ByLayer
370
18
48
1
60
0
100
AcDbSpline
70
4
71
3
72
12
73
8
40
0
40
0
40
0
40
0
40
0.499999999999984
40
0.499999999999984
40
0.749999999999992
40
0.749999999999992
40
1
40
1
40
1
40
1
41
1
10
89.3519053889907
20
1.80348699908961
30
0
41
1
10
89.7788309885507
20
1.79297846045534
30
0
41
1
10
90.205751833146
20
1.78250942046657
30
0
41
1
10
90.8457617180882
20
1.76989086423785
30
0
41
1
10
91.0589990895105
20
1.76650918815895
30
0
41
1
10
91.4851690489387
20
1.76227761758739
30
0
41
1
10
91.6982145970715
20
1.76048938342808
30
0
41
1
10
91.9112311757286
20
1.75894179354569
30
0
0
SPLINE
5
D9
100
AcDbEntity
8
1
62
256
6
ByLayer
370
18
48
1
60
0
100
AcDbSpline
70
4
71
3
72
8
73
4
40
0
40
0
40
0
40
0
40
1
40
1
40
1
40
1
41
1
10
91.9112311757286
20
1.75894179354569
30
0
41
1
10
91.9474356351733
20
1.21672469354436
30
0
41
1
10
91.9734130923621
20
0.675092311840302
30
0
41
1
10
91.9891544588291
20
0.134045168057156
30
0
0
SPLINE
5
DA
100
AcDbEntity
8
1
62
256
6
ByLayer
370
18
48
1
60
0
100
AcDbSpline
70
4
71
3
72
36
73
32
40
0
40
0
40
0
40
0
40
0.0105656593318474
40
0.0105656593318474
40
0.0812395408081433
40
0.0812395408081433
40
0.151913422284439
40
0.151913422284439
40
0.222587303760735
40
0.222587303760735
40
0.29326118523703
40
0.29326118523703
40
0.363935066713326
40
0.363935066713326
40
0.399272007451475
40
0.399272007451475
40
0.434608948189623
40
0.434608948189623
40
0.505282829665919
40
0.505282829665919
40
0.575956711142215
40
0.575956711142215
40
0.646630592618513
40
0.646630592618513
40
0.71730447409481
40
0.71730447409481
40
0.787978355571107
40
0.787978355571107
40
0.858652237047405
40
0.858652237047405
40
1
40
1
40
1
40
1
41
1
10
64.4509010247509
20
7.44119292343419
30
0
41
1
10
64.5120018842667
20
7.44133996155338
30
0
41
1
10
64.5731242188472
20
7.44124567236659
30
0
41
1
10
65.0432669343203
20
7.43861768157458
30
0
41
1
10
65.4537800677037
20
7.42505676887615
30
0
41
1
10
66.2754570051152
20
7.37860128719868
30
0
41
1
10
66.685898098377
20
7.3464828268545
30
0
41
1
10
67.5056545826195
20
7.25945694679905
30
0
41
1
10
67.9148934363469
20
7.20448994053802
30
0
41
1
10
68.7337661476791
20
7.07522793863754
30
0
41
1
10
69.1441168410965
20
7.00134171328327
30
0
41
1
10
69.9652967341985
20
6.83382810591672
30
0
41
1
10
70.3766876399603
20
6.73947477326263
30
0
41
1
10
70.9919505214739
20
6.58459572535136
30
0
41
1
10
71.1968221778836
20
6.53074322845498
30
0
41
1
10
71.606920302986
20
6.41945979723522
30
0
41
1
10
71.8119731266685
20
6.36200985134471
30
0
41
1
10
72.426917444029
20
6.18237571818452
30
0
41
1
10
72.8366210688869
20
6.05268024032287
30
0
41
1
10
73.6560677472959
20
5.77482590614162
30
0
41
1
10
74.0657020838091
20
5.62674900049802
30
0
41
1
10
74.8876489509897
20
5.31694361416982
30
0
41
1
10
75.2990079860699
20
5.15467363635273
30
0
41
1
10
76.1196685924354
20
4.81735331019783
30
0
41
1
10
76.5291018155379
20
4.64202729722393
30
0
41
1
10
77.3485097324923
20
4.27927077493297
30
0
41
1
10
77.7586070274088
20
4.09179407145041
30
0
41
1
10
78.5790707767508
20
3.7041106174662
30
0
41
1
10
78.9896923751747
20
3.50411283224642
30
0
41
1
10
80.2221135913823
20
2.88832779416146
30
0
41
1
10
81.04258754406
20
2.46361452373816
30
0
41
1
10
81.8619793038368
20
2.02543358501006
30
0
0
SPLINE
5
DB
100
AcDbEntity
8
1
62
256
6
ByLayer
370
18
48
1
60
0
100
AcDbSpline
70
4
71
3
72
14
73
10
40
0
40
0
40
0
40
0
40
0.25
40
0.25
40
0.5
40
0.5
40
0.75
40
0.75
40
1
40
1
40
1
40
1
41
1
10
89.3545489611723
20
-7.45172785352693
30
0
41
1
10
89.3580126341371
20
-7.45117951981882
30
0
41
1
10
89.3608603949932
20
-7.45226531649826
30
0
41
1
10
89.3649029511238
20
-7.45880907088565
30
0
41
1
10
89.3660486243134
20
-7.46433674262795
30
0
41
1
10
89.3653871925241
20
-7.48107996611418
30
0
41
1
10
89.3634874801251
20
-7.492380152892
30
0
41
1
10
89.3564830832358
20
-7.51836766667665
30
0
41
1
10
89.3514908671999
20
-7.53266393196162
30
0
41
1
10
89.3460025364777
20
-7.54609367290661
30
0
0
SPLINE
5
DC
100
AcDbEntity
8
1
62
256
6
ByLayer
370
18
48
1
60
0
100
AcDbSpline
70
4
71
3
72
18
73
14
40
0
40
0
40
0
40
0
40
0.25
40
0.25
40
0.375000000000001
40
0.375000000000001
40
0.500000000000001
40
0.500000000000001
40
0.750000000000001
40
0.750000000000001
40
0.875
40
0.875
40
1
40
1
40
1
40
1
41
1
10
88.7324703780934
20
-5.90548277206497
30
0
41
1
10
88.7326027943975
20
-6.17210700059997
30
0
41
1
10
88.7452210992243
20
-6.40578655367821
30
0
41
1
10
88.7834824397172
20
-6.70772367186169
30
0
41
1
10
88.7994830043405
20
-6.80022642380652
30
0
41
1
10
88.838390078276
20
-6.96851830380456
30
0
41
1
10
88.8611100617514
20
-7.04337648003042
30
0
41
1
10
88.9386218819777
20
-7.23939410619082
30
0
41
1
10
89.0028742089714
20
-7.33301801424307
30
0
41
1
10
89.1195886664522
20
-7.41906584783922
30
0
41
1
10
89.1620534850192
20
-7.43865612922829
30
0
41
1
10
89.253523953716
20
-7.45908995749519
30
0
41
1
10
89.3024079401364
20
-7.45998229316535
30
0
41
1
10
89.354548961187
20
-7.45172785352463
30
0
0
SPLINE
5
DD
100
AcDbEntity
8
1
62
256
6
ByLayer
370
18
48
1
60
0
100
AcDbSpline
70
4
71
3
72
8
73
4
40
0
40
0
40
0
40
0
40
1
40
1
40
1
40
1
41
1
10
91.9891544588292
20
0.134045168057156
30
0
41
1
10
91.9898767833894
20
0.109218121370986
30
0
41
1
10
91.9939250719012
20
0.0796194532011896
30
0
41
1
10
91.9999721365883
20
0.0481945605706642
30
0
0
SPLINE
5
DE
100
AcDbEntity
8
1
62
256
6
ByLayer
370
18
48
1
60
0
100
AcDbSpline
70
4
71
3
72
98
73
94
40
0
40
0
40
0
40
0
40
0.0335519815259211
40
0.0335519815259211
40
0.0503279722888816
40
0.0503279722888816
40
0.0671039630518421
40
0.0671039630518421
40
0.100655944577763
40
0.100655944577763
40
0.117431935340723
40
0.117431935340723
40
0.134207926103684
40
0.134207926103684
40
0.167759907629604
40
0.167759907629604
40
0.184535898392564
40
0.184535898392564
40
0.201311889155524
40
0.201311889155524
40
0.234863870681445
40
0.234863870681445
40
0.251639861444404
40
0.251639861444404
40
0.268415852207364
40
0.268415852207364
40
0.301967833733284
40
0.301967833733284
40
0.318743824496243
40
0.318743824496243
40
0.335519815259203
40
0.335519815259203
40
0.369071796785122
40
0.369071796785122
40
0.385847787548083
40
0.385847787548083
40
0.402623778311043
40
0.402623778311043
40
0.419399769074003
40
0.419399769074003
40
0.436175759836963
40
0.436175759836963
40
0.452951750599923
40
0.452951750599923
40
0.469727741362883
40
0.469727741362883
40
0.503279722888804
40
0.503279722888804
40
0.520055713651764
40
0.520055713651764
40
0.536831704414724
40
0.536831704414724
40
0.570383685940644
40
0.570383685940644
40
0.603935667466563
40
0.603935667466563
40
0.637487648992483
40
0.637487648992483
40
0.654263639755443
40
0.654263639755443
40
0.671039630518403
40
0.671039630518403
40
0.704591612044322
40
0.704591612044322
40
0.721367602807283
40
0.721367602807283
40
0.738143593570243
40
0.738143593570243
40
0.771695575096163
40
0.771695575096163
40
0.788471565859123
40
0.788471565859123
40
0.805247556622083
40
0.805247556622083
40
0.822023547385044
40
0.822023547385044
40
0.838799538148004
40
0.838799538148004
40
0.855575528910964
40
0.855575528910964
40
0.872351519673924
40
0.872351519673924
40
0.905903501199846
40
0.905903501199846
40
0.922679491962806
40
0.922679491962806
40
0.939455482725766
40
0.939455482725766
40
0.973007464251685
40
0.973007464251685
40
0.989783455014645
40
0.989783455014645
40
1
40
1
40
1
40
1
41
1
10
42.9928646518809
20
7.78380298772231
30
0
41
1
10
43.4819276217495
20
7.81203996535709
30
0
41
1
10
43.9702730686625
20
7.82423804839084
30
0
41
1
10
44.7007697760415
20
7.8197029187275
30
0
41
1
10
44.9439268205421
20
7.8143684195818
30
0
41
1
10
45.429328406811
20
7.79603620605812
30
0
41
1
10
45.6712899380921
20
7.78298343946906
30
0
41
1
10
46.3966917113019
20
7.73230621838721
30
0
41
1
10
46.8810604620847
20
7.68361815889304
30
0
41
1
10
47.6075545770141
20
7.5885017664925
30
0
41
1
10
47.8497275530837
20
7.55310654505922
30
0
41
1
10
48.333796413202
20
7.47472857975447
30
0
41
1
10
48.5753706965278
20
7.4315584094621
30
0
41
1
10
49.3012209151121
20
7.29124620078534
30
0
41
1
10
49.7872797355093
20
7.18387580535099
30
0
41
1
10
50.5182918115917
20
7.00138324771831
30
0
41
1
10
50.7623195885109
20
6.9369916704396
30
0
41
1
10
51.250734388911
20
6.80062707857849
30
0
41
1
10
51.4948162213662
20
6.72834690571594
30
0
41
1
10
52.2298021863336
20
6.50182472510733
30
0
41
1
10
52.7191882112755
20
6.33932863972541
30
0
41
1
10
53.4502935325365
20
6.0779147019031
30
0
41
1
10
53.6935918014391
20
5.98786190917579
30
0
41
1
10
54.178917926806
20
5.80137205981274
30
0
41
1
10
54.4207272475174
20
5.70465233299484
30
0
41
1
10
55.1469600782585
20
5.40811994116976
30
0
41
1
10
55.6315903468564
20
5.2013500592075
30
0
41
1
10
56.3578155275198
20
4.87604055653466
30
0
41
1
10
56.5998274559594
20
4.76514534139207
30
0
41
1
10
57.0832019711188
20
4.53763772216359
30
0
41
1
10
57.3244716058367
20
4.42086775505899
30
0
41
1
10
58.0502928913356
20
4.06618701287718
30
0
41
1
10
58.536008109744
20
3.82280741313642
30
0
41
1
10
59.2658906386134
20
3.44517550105721
30
0
41
1
10
59.5094572665047
20
3.31728132748694
30
0
41
1
10
59.9965890722988
20
3.05643480373934
30
0
41
1
10
60.2402513083724
20
2.92361647332433
30
0
41
1
10
60.7296365187685
20
2.65630702584301
30
0
41
1
10
60.9753547111972
20
2.5213573651522
30
0
41
1
10
61.4652013514503
20
2.25019504329038
30
0
41
1
10
61.7096550704568
20
2.11378091344176
30
0
41
1
10
62.197506406361
20
1.83908308475671
30
0
41
1
10
62.4409092282698
20
1.7008084888173
30
0
41
1
10
62.9261066285715
20
1.42142629730094
30
0
41
1
10
63.1682839367744
20
1.28098628206476
30
0
41
1
10
63.8954317341949
20
0.860700412330772
30
0
41
1
10
64.3802476853172
20
0.580545062487602
30
0
41
1
10
65.1062223845231
20
0.158053037577474
30
0
41
1
10
65.3479935651122
20
0.0168245466373378
30
0
41
1
10
65.8306525823464
20
-0.267201271520122
30
0
41
1
10
66.0721319314928
20
-0.408965966481844
30
0
41
1
10
66.7979851438859
20
-0.8318287599499
30
0
41
1
10
67.2832602376983
20
-1.11139254271649
30
0
41
1
10
68.2548563888283
20
-1.66880020458879
30
0
41
1
10
68.7400712999723
20
-1.94857746874459
30
0
41
1
10
69.7175943166427
20
-2.49585039984339
30
0
41
1
10
70.2098643362206
20
-2.76518651053939
30
0
41
1
10
70.9423338844706
20
-3.15952502966258
30
0
41
1
10
71.1855985557075
20
-3.28994211885359
30
0
41
1
10
71.6712154834577
20
-3.54724255298817
30
0
41
1
10
71.9139659563259
20
-3.67349462358843
30
0
41
1
10
72.6420665961111
20
-4.04522705014648
30
0
41
1
10
73.1270704240512
20
-4.28404140935822
30
0
41
1
10
73.8526871096261
20
-4.63076456642588
30
0
41
1
10
74.0939231261526
20
-4.74485314151733
30
0
41
1
10
74.5766168263964
20
-4.9679009300005
30
0
41
1
10
74.818273142116
20
-5.0766033701029
30
0
41
1
10
75.5440903022984
20
-5.39448524093905
30
0
41
1
10
76.0289292034336
20
-5.59571668113202
30
0
41
1
10
76.756281365537
20
-5.88300872953789
30
0
41
1
10
76.9984055308819
20
-5.97672117743329
30
0
41
1
10
77.483909018713
20
-6.15773276684047
30
0
41
1
10
77.7273304201505
20
-6.24500489373085
30
0
41
1
10
78.2153956788477
20
-6.41325355098661
30
0
41
1
10
78.4599987171507
20
-6.49427485606438
30
0
41
1
10
78.950140193725
20
-6.65027636000568
30
0
41
1
10
79.1957101573294
20
-6.72519524060996
30
0
41
1
10
79.6844551096854
20
-6.86830458028953
30
0
41
1
10
79.927738721871
20
-6.9368177953759
30
0
41
1
10
80.4143308059979
20
-7.06591018033416
30
0
41
1
10
80.657533656977
20
-7.12661467531254
30
0
41
1
10
81.3865939567306
20
-7.29770839679216
30
0
41
1
10
81.8718824113588
20
-7.39718012186947
30
0
41
1
10
82.5970718055885
20
-7.52543213212965
30
0
41
1
10
82.8381366568385
20
-7.56473998126882
30
0
41
1
10
83.3211647748674
20
-7.63541308672237
30
0
41
1
10
83.5629451145567
20
-7.66689556942453
30
0
41
1
10
84.2887135597413
20
-7.75009825460938
30
0
41
1
10
84.7731754540501
20
-7.79064724605973
30
0
41
1
10
85.4990553307739
20
-7.82898404199741
30
0
41
1
10
85.7408107383113
20
-7.83796690262011
30
0
41
1
10
86.1311270774839
20
-7.84611363667756
30
0
41
1
10
86.2790883529892
20
-7.84776206239172
30
0
41
1
10
86.4272452845342
20
-7.84798065936303
30
0
0
SPLINE
5
DF
100
AcDbEntity
8
1
62
256
6
ByLayer
370
18
48
1
60
0
100
AcDbSpline
70
4
71
3
72
22
73
18
40
0
40
0
40
0
40
0
40
0.125
40
0.125
40
0.25
40
0.25
40
0.375
40
0.375
40
0.5
40
0.5
40
0.625
40
0.625
40
0.75
40
0.75
40
0.875
40
0.875
40
1
40
1
40
1
40
1
41
1
10
90.8366259963299
20
-1.96325723048921
30
0
41
1
10
90.8303929011476
20
-2.00604041207762
30
0
41
1
10
90.8205282030865
20
-2.05243544174022
30
0
41
1
10
90.794048220732
20
-2.15072620834547
30
0
41
1
10
90.7779125526075
20
-2.20074215421144
30
0
41
1
10
90.7415274438207
20
-2.29902948491525
30
0
41
1
10
90.7215849673154
20
-2.34646654137336
30
0
41
1
10
90.6800402302684
20
-2.43499692014899
30
0
41
1
10
90.6587309794922
20
-2.47552753519909
30
0
41
1
10
90.6158110966124
20
-2.54848860742317
30
0
41
1
10
90.5945348334965
20
-2.5802675681297
30
0
41
1
10
90.5541085419251
20
-2.63264471602258
30
0
41
1
10
90.534495607322
20
-2.65384316915691
30
0
41
1
10
90.4981132974378
20
-2.68433041359196
30
0
41
1
10
90.4815185519625
20
-2.69360707458568
30
0
41
1
10
90.4516492519389
20
-2.69956834277051
30
0
41
1
10
90.4387677195087
20
-2.69604503309495
30
0
41
1
10
90.4284691068477
20
-2.68575387366562
30
0
0
SPLINE
5
E0
100
AcDbEntity
8
1
62
256
6
ByLayer
370
18
48
1
60
0
100
AcDbSpline
70
4
71
3
72
8
73
4
40
0
40
0
40
0
40
0
40
1
40
1
40
1
40
1
41
1
10
91.9999721365883
20
0.0481945605706358
30
0
41
1
10
92.0000092894022
20
0.0160634726403259
30
0
41
1
10
92.000009286209
20
-0.0160662342880755
30
0
41
1
10
91.9999721365883
20
-0.0481945605705505
30
0
0
SPLINE
5
E1
100
AcDbEntity
8
1
62
256
6
ByLayer
370
18
48
1
60
0
100
AcDbSpline
70
4
71
3
72
8
73
4
40
0
40
0
40
0
40
0
40
1
40
1
40
1
40
1
41
1
10
91.9112311757287
20
-1.75894179354572
30
0
41
1
10
91.9474312813506
20
-1.21678989869207
30
0
41
1
10
91.9734111983438
20
-0.675157411220653
30
0
41
1
10
91.9891544588292
20
-0.134045168057156
30
0
0
SPLINE
5
E2
100
AcDbEntity
8
1
62
256
6
ByLayer
370
18
48
1
60
0
100
AcDbSpline
70
4
71
3
72
38
73
34
40
0
40
0
40
0
40
0
40
0.124999999999999
40
0.124999999999999
40
0.187499999999999
40
0.187499999999999
40
0.218749999999999
40
0.218749999999999
40
0.249999999999999
40
0.249999999999999
40
0.374999999999999
40
0.374999999999999
40
0.437499999999999
40
0.437499999999999
40
0.468749999999999
40
0.468749999999999
40
0.499999999999999
40
0.499999999999999
40
0.625
40
0.625
40
0.6875
40
0.6875
40
0.71875
40
0.71875
40
0.75
40
0.75
40
0.875
40
0.875
40
0.9375
40
0.9375
40
0.96875
40
0.96875
40
1
40
1
40
1
40
1
41
1
10
42.5467821783916
20
-7.46777142559642
30
0
41
1
10
42.5467821783916
20
-7.34116068990883
30
0
41
1
10
42.5467821783916
20
-7.1805159681698
30
0
41
1
10
42.5467821783915
20
-6.89046564807694
30
0
41
1
10
42.5467821783916
20
-6.78554985061419
30
0
41
1
10
42.5467821783916
20
-6.6155748216797
30
0
41
1
10
42.5467821783915
20
-6.55681268946228
30
0
41
1
10
42.5467821783915
20
-6.43499310410962
30
0
41
1
10
42.5467821783916
20
-6.37189206566214
30
0
41
1
10
42.5467821783916
20
-6.04863347841078
30
0
41
1
10
42.5467821783916
20
-5.76314432864478
30
0
41
1
10
42.5467821783915
20
-5.29595872797603
30
0
41
1
10
42.5467821783916
20
-5.1337102368781
30
0
41
1
10
42.5467821783916
20
-4.88039284205485
30
0
41
1
10
42.5467821783916
20
-4.79429361263396
30
0
41
1
10
42.5467821783916
20
-4.61871384857159
30
0
41
1
10
42.5467821783915
20
-4.52915512161542
30
0
41
1
10
42.5467821783915
20
-4.07711612701655
30
0
41
1
10
42.5467821783915
20
-3.69877863521828
30
0
41
1
10
42.5467821783915
20
-3.10690347921334
30
0
41
1
10
42.5467821783916
20
-2.9055357954548
30
0
41
1
10
42.5467821783916
20
-2.59730697725675
30
0
41
1
10
42.5467821783916
20
-2.49353270310039
30
0
41
1
10
42.5467821783916
20
-2.28388843879784
30
0
41
1
10
42.5467821783916
20
-2.17790057884122
30
0
41
1
10
42.5467821783916
20
-1.64765640608289
30
0
41
1
10
42.5467821783916
20
-1.21876955535487
30
0
41
1
10
42.5467821783915
20
-0.568580928986819
30
0
41
1
10
42.5467821783915
20
-0.350700227240054
30
0
41
1
10
42.5467821783916
20
-0.0221302712245404
30
0
41
1
10
42.5467821783916
20
0.0876844457658592
30
0
41
1
10
42.5467821783916
20
0.30790431280829
30
0
41
1
10
42.5467821783915
20
0.418455785618022
30
0
41
1
10
42.5467821783916
20
0.528283383423968
30
0
0
SPLINE
5
E3
100
AcDbEntity
8
1
62
256
6
ByLayer
370
18
48
1
60
0
100
AcDbSpline
70
4
71
3
72
12
73
8
40
0
40
0
40
0
40
0
40
0.25
40
0.25
40
0.5
40
0.5
40
1
40
1
40
1
40
1
41
1
10
89.6471725875043
20
7.62792384490879
30
0
41
1
10
89.6077040936597
20
7.65775059989124
30
0
41
1
10
89.5689692484743
20
7.68485570486203
30
0
41
1
10
89.4939909716838
20
7.73278736740951
30
0
41
1
10
89.4576671229561
20
7.75368621326334
30
0
41
1
10
89.3520762209282
20
7.80723508961142
30
0
41
1
10
89.2861835391168
20
7.83075749429341
30
0
41
1
10
89.2245641956227
20
7.84200366952223
30
0
0
SPLINE
5
E4
100
AcDbEntity
8
1
62
256
6
ByLayer
370
18
48
1
60
0
100
AcDbSpline
70
4
71
3
72
8
73
4
40
0
40
0
40
0
40
0
40
1
40
1
40
1
40
1
41
1
10
90.4284691068477
20
-2.68575387366599
30
0
41
1
10
89.8410858817319
20
-3.73896763774562
30
0
41
1
10
89.275621741341
20
-4.81209140157836
30
0
41
1
10
88.7324703780934
20
-5.90548277206497
30
0
0
SPLINE
5
E5
100
AcDbEntity
8
1
62
256
6
ByLayer
370
18
48
1
60
0
100
AcDbSpline
70
4
71
3
72
38
73
34
40
0
40
0
40
0
40
0
40
0.124999999999985
40
0.124999999999985
40
0.249999999999971
40
0.249999999999971
40
0.312499999999972
40
0.312499999999972
40
0.374999999999973
40
0.374999999999973
40
0.406249999999974
40
0.406249999999974
40
0.437499999999974
40
0.437499999999974
40
0.468749999999975
40
0.468749999999975
40
0.499999999999975
40
0.499999999999975
40
0.531249999999975
40
0.531249999999975
40
0.562499999999976
40
0.562499999999976
40
0.624999999999977
40
0.624999999999977
40
0.687499999999978
40
0.687499999999978
40
0.749999999999978
40
0.749999999999978
40
0.874999999999999
40
0.874999999999999
40
0.937499999999999
40
0.937499999999999
40
1
40
1
40
1
40
1
41
1
10
90.4284691068475
20
-2.68575387366568
30
0
41
1
10
90.3086725776665
20
-2.6560254606548
30
0
41
1
10
90.1885983844699
20
-2.61446965695049
30
0
41
1
10
89.9504204570881
20
-2.50752003996257
30
0
41
1
10
89.8340924107624
20
-2.44340328541372
30
0
41
1
10
89.6659045079687
20
-2.32292876573697
30
0
41
1
10
89.6111337572405
20
-2.27876000482638
30
0
41
1
10
89.5079114594984
20
-2.17944566608821
30
0
41
1
10
89.4594230712969
20
-2.12485281159329
30
0
41
1
10
89.3999403751673
20
-2.03002300017332
30
0
41
1
10
89.3823805085322
20
-1.99599523961717
30
0
41
1
10
89.3575339345728
20
-1.9244721425201
30
0
41
1
10
89.3506201465307
20
-1.88729355602109
30
0
41
1
10
89.3534502691167
20
-1.81627559084998
30
0
41
1
10
89.3633475305252
20
-1.78379198126493
30
0
41
1
10
89.3947304522796
20
-1.72985790760149
30
0
41
1
10
89.4157953346549
20
-1.70819240693166
30
0
41
1
10
89.4621949558348
20
-1.67328228008816
30
0
41
1
10
89.4880129592151
20
-1.65965859792752
30
0
41
1
10
89.541074375886
20
-1.63816102514355
30
0
41
1
10
89.5686130087022
20
-1.63012637589776
30
0
41
1
10
89.6533395039172
20
-1.61170583913113
30
0
41
1
10
89.7122240766296
20
-1.60704960198882
30
0
41
1
10
89.8301230167021
20
-1.60699257500127
30
0
41
1
10
89.8896905338787
20
-1.61165149592804
30
0
41
1
10
90.0097473841798
20
-1.62796063589056
30
0
41
1
10
90.0704721985355
20
-1.63972283652507
30
0
41
1
10
90.2511027834658
20
-1.68352639684363
30
0
41
1
10
90.3701708635147
20
-1.7238176609826
30
0
41
1
10
90.5468511834404
20
-1.80001324646059
30
0
41
1
10
90.6054162075562
20
-1.82810477270661
30
0
41
1
10
90.7217820783992
20
-1.89055405117895
30
0
41
1
10
90.7799446981906
20
-1.92512420202417
30
0
41
1
10
90.8366259963299
20
-1.96325723048921
30
0
0
SPLINE
5
E6
100
AcDbEntity
8
1
62
256
6
ByLayer
370
18
48
1
60
0
100
AcDbSpline
70
4
71
3
72
12
73
8
40
0
40
0
40
0
40
0
40
0.292411020307709
40
0.292411020307709
40
0.646205510153855
40
0.646205510153855
40
1
40
1
40
1
40
1
41
1
10
46.7020350537646
20
-7.43067181126384
30
0
41
1
10
46.2955654092648
20
-7.43071101283005
30
0
41
1
10
45.8891469413551
20
-7.42053647272687
30
0
41
1
10
44.9903503934553
20
-7.37552096670288
30
0
41
1
10
44.4991627576175
20
-7.33588802756066
30
0
41
1
10
43.5209695452081
20
-7.22804308887882
30
0
41
1
10
43.0334500501501
20
-7.15981821612144
30
0
41
1
10
42.5467821784098
20
-7.07776502548597
30
0
0
SPLINE
5
E7
100
AcDbEntity
8
1
62
256
6
ByLayer
370
18
48
1
60
0
100
AcDbSpline
70
4
71
3
72
79
73
75
40
0
40
0
40
0
40
0
40
0.0625000000000023
40
0.0625000000000023
40
0.0937500000000034
40
0.0937500000000034
40
0.125000000000004
40
0.125000000000004
40
0.187500000000007
40
0.187500000000007
40
0.250000000000009
40
0.250000000000009
40
0.312500000000011
40
0.312500000000011
40
0.328125000000012
40
0.328125000000012
40
0.343750000000012
40
0.343750000000012
40
0.375000000000013
40
0.375000000000013
40
0.406250000000014
40
0.406250000000014
40
0.437500000000015
40
0.437500000000015
40
0.468750000000015
40
0.468750000000015
40
0.484375000000016
40
0.484375000000016
40
0.500000000000016
40
0.500000000000016
40
0.531250000000017
40
0.531250000000017
40
0.539062500000017
40
0.539062500000017
40
0.546875000000017
40
0.546875000000017
40
0.562500000000018
40
0.562500000000018
40
0.578125000000018
40
0.578125000000018
40
0.585937500000018
40
0.585937500000018
40
0.593750000000019
40
0.593750000000019
40
0.625000000000019
40
0.625000000000019
40
0.640625000000019
40
0.640625000000019
40
0.656250000000019
40
0.656250000000019
40
0.671875000000019
40
0.671875000000019
40
0.679687500000019
40
0.679687500000019
40
0.681640625000019
40
0.681640625000019
40
0.683593750000019
40
0.683593750000019
40
0.68554687500002
40
0.68554687500002
40
0.68750000000002
40
0.718750000000018
40
0.718750000000018
40
0.750000000000016
40
0.750000000000016
40
0.812500000000012
40
0.812500000000012
40
0.875000000000008
40
0.875000000000008
40
0.906250000000006
40
0.906250000000006
40
0.937500000000004
40
0.937500000000004
40
1
40
1
40
1
40
1
41
1
10
22.972126336978
20
-9.99999626624702
30
0
41
1
10
22.3022438159172
20
-10.0004134188356
30
0
41
1
10
21.6450177753012
20
-9.96558502684067
30
0
41
1
10
20.6666600824066
20
-9.85532421014861
30
0
41
1
10
20.3417964926924
20
-9.80895948266487
30
0
41
1
10
19.6929207987213
20
-9.69668637216969
30
0
41
1
10
19.3682997684607
20
-9.63062046122653
30
0
41
1
10
18.4002432940079
20
-9.40464511498115
30
0
41
1
10
17.7612364687579
20
-9.21699864928749
30
0
41
1
10
16.4879802686745
20
-8.77217956357896
30
0
41
1
10
15.8537224174467
20
-8.51517489554803
30
0
41
1
10
14.5879595809261
20
-7.93175560647791
30
0
41
1
10
13.9564136099155
20
-7.60559664074333
30
0
41
1
10
13.171502609557
20
-7.14802197024289
30
0
41
1
10
13.0147648814278
20
-7.05397482759562
30
0
41
1
10
12.701932119628
20
-6.86046025854111
30
0
41
1
10
12.5458439433387
20
-6.76098580995671
30
0
41
1
10
12.0815581289148
20
-6.45559659258075
30
0
41
1
10
11.7764127005446
20
-6.24223564100291
30
0
41
1
10
11.1776183826777
20
-5.79258245339057
30
0
41
1
10
10.8839421279578
20
-5.55633142606894
30
0
41
1
10
10.312375578294
20
-5.05523955946327
30
0
41
1
10
10.0344046463864
20
-4.79051137308875
30
0
41
1
10
9.50161088710138
20
-4.22239282054926
30
0
41
1
10
9.2500853478339
20
-3.9225545246172
30
0
41
1
10
8.90636200412291
20
-3.44145031893424
30
0
41
1
10
8.79738390485272
20
-3.27575180413189
30
0
41
1
10
8.59346087338
20
-2.93125718233287
30
0
41
1
10
8.49970630786058
20
-2.75436142346788
30
0
41
1
10
8.24913686020102
20
-2.21057901894019
30
0
41
1
10
8.1214137376727
20
-1.82981980948742
30
0
41
1
10
8.03589295503423
20
-1.32050832328943
30
0
41
1
10
8.02266642723845
20
-1.2171986435666
30
0
41
1
10
8.00490347728598
20
-1.01145052337299
30
0
41
1
10
8.00026495690514
20
-0.908494304540511
30
0
41
1
10
7.99947186929367
20
-0.599384558218844
30
0
41
1
10
8.01636591682268
20
-0.392967899981898
30
0
41
1
10
8.08771879712054
20
0.020395779214482
30
0
41
1
10
8.1410607391548
20
0.220811367638419
30
0
41
1
10
8.24513742082854
20
0.512923997167263
30
0
41
1
10
8.28384696055582
20
0.60887397799749
30
0
41
1
10
8.36896458110678
20
0.798054882522962
30
0
41
1
10
8.41557729856072
20
0.891661090745032
30
0
41
1
10
8.66442724436399
20
1.34816404300344
30
0
41
1
10
8.91111845175539
20
1.67491883936179
30
0
41
1
10
9.3315565981988
20
2.12500633947573
30
0
41
1
10
9.48053902043085
20
2.26833877742291
30
0
41
1
10
9.78895483722002
20
2.53935110876373
30
0
41
1
10
9.94892054365252
20
2.66762901697626
30
0
41
1
10
10.2787215459801
20
2.91195010988133
30
0
41
1
10
10.4484295198476
20
3.02785756562258
30
0
41
1
10
10.7082311622906
20
3.19299308808371
30
0
41
1
10
10.7955854555935
20
3.24690443640469
30
0
41
1
10
10.906222985867
20
3.31186710275358
30
0
41
1
10
10.9297419804684
20
3.32317704231642
30
0
41
1
10
10.9787522621928
20
3.3376236655983
30
0
41
1
10
11.0040449403179
20
3.34209617333849
30
0
41
1
10
11.0560486725716
20
3.34539455432579
30
0
41
1
10
11.0819913666536
20
3.34451944920534
30
0
41
1
10
11.1338952662877
20
3.34355896564006
30
0
41
1
10
11.5750702302114
20
3.33467386176346
30
0
41
1
10
12.0158002551649
20
3.31349234852266
30
0
41
1
10
12.8433005591283
20
3.25213795839187
30
0
41
1
10
13.2569048518469
20
3.21060644673778
30
0
41
1
10
14.4888742454829
20
3.05427526716147
30
0
41
1
10
15.2981539122352
20
2.90808545849879
30
0
41
1
10
16.8940479786779
20
2.5339959475989
30
0
41
1
10
17.6806431244969
20
2.30601742044217
30
0
41
1
10
18.8448538507521
20
1.90455359647862
30
0
41
1
10
19.23032908214
20
1.76087514003754
30
0
41
1
10
19.9963766216465
20
1.45427231464805
30
0
41
1
10
20.377513649495
20
1.29106977315308
30
0
41
1
10
21.5083493323459
20
0.776876160102574
30
0
41
1
10
22.2463187169869
20
0.400975653519907
30
0
41
1
10
22.9721263369779
20
-0.0010994495140721
30
0
0
SPLINE
5
E8
100
AcDbEntity
8
1
62
256
6
ByLayer
370
18
48
1
60
0
100
AcDbSpline
70
4
71
3
72
51
73
47
40
0
40
0
40
0
40
0
40
0.0100696095740749
40
0.0100696095740749
40
0.0648999219654442
40
0.0648999219654442
40
0.174560546748182
40
0.174560546748182
40
0.229390859139551
40
0.229390859139551
40
0.284221171530921
40
0.284221171530921
40
0.393881796313658
40
0.393881796313658
40
0.503542421096396
40
0.503542421096396
40
0.510396210145318
40
0.510396210145318
40
0.513823104669778
40
0.513823104669778
40
0.517249999194239
40
0.517249999194239
40
0.520676893718699
40
0.520676893718699
40
0.52410378824316
40
0.52410378824316
40
0.530957577292081
40
0.558372733487765
40
0.558372733487765
40
0.613203045879134
40
0.613203045879134
40
0.668033358270503
40
0.668033358270503
40
0.722863670661872
40
0.722863670661872
40
0.832524295444609
40
0.832524295444609
40
0.859939451640294
40
0.859939451640294
40
0.887354607835978
40
0.887354607835978
40
0.942184920227347
40
0.942184920227347
40
0.997015232618716
40
0.997015232618716
40
1
40
1
40
1
40
1
41
1
10
22.9721263369778
20
0.0301451804342889
30
0
41
1
10
22.9721263369778
20
0.0382636463643564
30
0
41
1
10
22.9721263369778
20
0.0459513553664408
30
0
41
1
10
22.9721263369778
20
0.0927040293476011
30
0
41
1
10
22.9721263369775
20
0.119621040190964
30
0
41
1
10
22.9721263369775
20
0.16505622224031
30
0
41
1
10
22.9721263369779
20
0.148464612398186
30
0
41
1
10
22.9721263369779
20
0.0582434832850822
30
0
41
1
10
22.9721263369779
20
0.0172243272913306
30
0
41
1
10
22.9721263369779
20
-0.0864736740665251
30
0
41
1
10
22.9721263369779
20
-0.149270149454452
30
0
41
1
10
22.9721263369779
20
-0.367090568841917
30
0
41
1
10
22.9721263369779
20
-0.55195372016351
30
0
41
1
10
22.9721263369779
20
-0.996810130817465
30
0
41
1
10
22.9721263369779
20
-1.25771614292887
30
0
41
1
10
22.9721263369779
20
-1.57136031864161
30
0
41
1
10
22.9721263369779
20
-1.58993909528903
30
0
41
1
10
22.9721263369779
20
-1.61800030128333
30
0
41
1
10
22.9721263369779
20
-1.62780336536198
30
0
41
1
10
22.9721263369779
20
-1.65276262464533
30
0
41
1
10
22.9721263369779
20
-1.66764248152722
30
0
41
1
10
22.9721263369779
20
-1.70014153495276
30
0
41
1
10
22.9721263369779
20
-1.71801055714892
30
0
41
1
10
22.9721263369779
20
-1.7544703840905
30
0
41
1
10
22.9721263369779
20
-1.77272141306125
30
0
41
1
10
22.9721263369779
20
-1.8275379986197
30
0
41
1
10
22.9721263369779
20
-2.01069905547317
30
0
41
1
10
22.9721263369779
20
-2.19578436034862
30
0
41
1
10
22.9721263369779
20
-2.64341028266134
30
0
41
1
10
22.9721263369779
20
-2.94656019930841
30
0
41
1
10
22.9721263369779
20
-3.56017268153391
30
0
41
1
10
22.9721263369779
20
-3.87051898484262
30
0
41
1
10
22.9721263369779
20
-4.49856806463356
30
0
41
1
10
22.9721263369779
20
-4.81641715905056
30
0
41
1
10
22.9721263369779
20
-5.77142369657912
30
0
41
1
10
22.9721263369779
20
-6.4132256095628
30
0
41
1
10
22.9721263369779
20
-7.22251400748695
30
0
41
1
10
22.9721263369779
20
-7.38472626851416
30
0
41
1
10
22.9721263369779
20
-7.70988805619842
30
0
41
1
10
22.9721263369779
20
-7.87315915715752
30
0
41
1
10
22.9721263369779
20
-8.360226900817
30
0
41
1
10
22.9721263369779
20
-8.6821001971532
30
0
41
1
10
22.9721263369779
20
-9.31998967476997
30
0
41
1
10
22.972126336978
20
-9.63600705414513
30
0
41
1
10
22.972126336978
20
-9.9659559824083
30
0
41
1
10
22.972126336978
20
-9.98298075001537
30
0
41
1
10
22.972126336978
20
-9.99999626623369
30
0
0
SPLINE
5
E9
100
AcDbEntity
8
1
62
256
6
ByLayer
370
18
48
1
60
0
100
AcDbSpline
70
4
71
3
72
10
73
6
40
0
40
0
40
0
40
0
40
0.5
40
0.5
40
1
40
1
40
1
40
1
41
1
10
42.5992955820087
20
7.73795985729984
30
0
41
1
10
42.2088404392308
20
8.07191032316555
30
0
41
1
10
41.8194125730896
20
8.39510083995683
30
0
41
1
10
41.0421532965066
20
9.01870403951321
30
0
41
1
10
40.6543677111885
20
9.31910419315403
30
0
41
1
10
40.2681677805146
20
9.60664709625263
30
0
0
SPLINE
5
EA
100
AcDbEntity
8
1
62
256
6
ByLayer
370
18
48
1
60
0
100
AcDbSpline
70
4
71
3
72
36
73
32
40
0
40
0
40
0
40
0
40
0.0624999999999988
40
0.0624999999999988
40
0.124999999999998
40
0.124999999999998
40
0.187499999999996
40
0.187499999999996
40
0.218749999999997
40
0.218749999999997
40
0.249999999999997
40
0.249999999999997
40
0.312499999999997
40
0.312499999999997
40
0.374999999999998
40
0.374999999999998
40
0.437499999999998
40
0.437499999999998
40
0.499999999999998
40
0.499999999999998
40
0.624999999999999
40
0.624999999999999
40
0.6875
40
0.6875
40
0.75
40
0.75
40
0.812500000000001
40
0.812500000000001
40
0.875000000000001
40
0.875000000000001
40
1
40
1
40
1
40
1
41
1
10
38.8358917347036
20
3.78012877458332
30
0
41
1
10
38.5073615796176
20
4.00653404764242
30
0
41
1
10
38.1786332355934
20
4.22937991409859
30
0
41
1
10
37.5208152001007
20
4.66797113493129
30
0
41
1
10
37.1920017624681
20
4.8840442363375
30
0
41
1
10
36.5329886158733
20
5.30773610164343
30
0
41
1
10
36.202461308106
20
5.51497541175311
30
0
41
1
10
35.7049812632571
20
5.81870336530218
30
0
41
1
10
35.5388758491689
20
5.9187601386717
30
0
41
1
10
35.2061032843241
20
6.11648102424849
30
0
41
1
10
35.0393549458505
20
6.21418787336128
30
0
41
1
10
34.5407414693543
20
6.50230503881153
30
0
41
1
10
34.2100440292997
20
6.68851495650154
30
0
41
1
10
33.5496873777065
20
7.04689674628807
30
0
41
1
10
33.2199900073643
20
7.21906185991114
30
0
41
1
10
32.5614066694415
20
7.54947291497979
30
0
41
1
10
32.2325171354558
20
7.70771870827281
30
0
41
1
10
31.5756668728644
20
8.01043796023339
30
0
41
1
10
31.2479934314667
20
8.15511515602154
30
0
41
1
10
30.2631968624722
20
8.56583054399604
30
0
41
1
10
29.6047552876385
20
8.8091707653513
30
0
41
1
10
28.6143444760227
20
9.12785162712657
30
0
41
1
10
28.2839296812862
20
9.22639468751274
30
0
41
1
10
27.6198155139661
20
9.4063499683852
30
0
41
1
10
27.2861343357316
20
9.48794096724004
30
0
41
1
10
26.6211644720846
20
9.63298324670009
30
0
41
1
10
26.2892294994284
20
9.69662649866203
30
0
41
1
10
25.6266761287578
20
9.8062324119922
30
0
41
1
10
25.2958904520819
20
9.85210931454287
30
0
41
1
10
24.3020750093174
20
9.96231599918551
30
0
41
1
10
23.6379358762395
20
9.99956692838225
30
0
41
1
10
22.972126336978
20
9.99999626624702
30
0
0
SPLINE
5
EB
100
AcDbEntity
8
1
62
256
6
ByLayer
370
18
48
1
60
0
100
AcDbSpline
70
4
71
3
72
45
73
41
40
0
40
0
40
0
40
0
40
0.124999999999994
40
0.124999999999994
40
0.249999999999987
40
0.249999999999987
40
0.312499999999984
40
0.312499999999984
40
0.374999999999981
40
0.374999999999981
40
0.437499999999978
40
0.437499999999978
40
0.499999999999974
40
0.499999999999974
40
0.562499999999971
40
0.562499999999971
40
0.624999999999968
40
0.624999999999968
40
0.749999999999967
40
0.749999999999967
40
0.781249999999966
40
0.781249999999966
40
0.812499999999964
40
0.812499999999964
40
0.874999999999961
40
0.874999999999961
40
0.890624999999958
40
0.890624999999958
40
0.89453124999996
40
0.89453124999996
40
0.898437499999961
40
0.898437499999961
40
0.906249999999964
40
0.906249999999964
40
0.914062499999968
40
0.914062499999968
40
0.921874999999971
40
0.937499999999977
40
0.937499999999977
40
1
40
1
40
1
40
1
41
1
10
81.8619793038368
20
2.02543358501009
30
0
41
1
10
82.1907679761117
20
1.77358104753353
30
0
41
1
10
82.5250882377999
20
1.54007645963946
30
0
41
1
10
83.2061372855734
20
1.11422561340615
30
0
41
1
10
83.5526128501444
20
0.921039434524374
30
0
41
1
10
84.0818386488581
20
0.66281239722332
30
0
41
1
10
84.2598468805559
20
0.58204260173369
30
0
41
1
10
84.6192917895901
20
0.431874958855161
30
0
41
1
10
84.8008301342624
20
0.362468455905201
30
0
41
1
10
85.162566852817
20
0.237841404054791
30
0
41
1
10
85.3433649261681
20
0.182239066916139
30
0
41
1
10
85.7047911856226
20
0.0872559245526077
30
0
41
1
10
85.8854256439893
20
0.0472762178614801
30
0
41
1
10
86.246530591449
20
-0.0170267360841478
30
0
41
1
10
86.4270010913947
20
-0.0413510195971298
30
0
41
1
10
86.7877593617244
20
-0.0725518178730056
30
0
41
1
10
86.9687371757934
20
-0.0793655509796736
30
0
41
1
10
87.5022926280153
20
-0.0702174547510879
30
0
41
1
10
87.8478269664336
20
-0.0261057997511784
30
0
41
1
10
88.2634611962183
20
0.0899023652442565
30
0
41
1
10
88.3457079816842
20
0.116393672515755
30
0
41
1
10
88.508472242635
20
0.175840463794856
30
0
41
1
10
88.5890284829722
20
0.208781705207087
30
0
41
1
10
88.8257799225672
20
0.316641167170047
30
0
41
1
10
88.9780788817528
20
0.400993285741123
30
0
41
1
10
89.1599167501074
20
0.522087625872217
30
0
41
1
10
89.1958547677509
20
0.547087380641841
30
0
41
1
10
89.2401972481779
20
0.579296505580544
30
0
41
1
10
89.2490380752659
20
0.58578725420756
30
0
41
1
10
89.2666571001772
20
0.598861468082646
30
0
41
1
10
89.2753001212755
20
0.605641536855813
30
0
41
1
10
89.2988432435083
20
0.629463561268068
30
0
41
1
10
89.3102993265583
20
0.651477288804244
30
0
41
1
10
89.3195842372575
20
0.701753537255769
30
0
41
1
10
89.3156877136216
20
0.730082406008336
30
0
41
1
10
89.3097274582493
20
0.785054795306081
30
0
41
1
10
89.3005775782575
20
0.86753211240088
30
0
41
1
10
89.290812921714
20
0.950062299156087
30
0
41
1
10
89.2569781975439
20
1.2251978063625
30
0
41
1
10
89.225810090244
20
1.44551940788546
30
0
41
1
10
89.1913343772333
20
1.66590510728994
30
0
0
SPLINE
5
EC
100
AcDbEntity
8
1
62
256
6
ByLayer
370
18
48
1
60
0
100
AcDbSpline
70
4
71
3
72
8
73
4
40
0
40
0
40
0
40
0
40
1
40
1
40
1
40
1
41
1
10
42.5467821783916
20
-7.46777142559645
30
0
41
1
10
42.6800573691617
20
-7.49670891165803
30
0
41
1
10
42.8132623891652
20
-7.52458528436185
30
0
41
1
10
42.9464176185647
20
-7.55138663466568
30
0
0
SPLINE
5
ED
100
AcDbEntity
8
1
62
256
6
ByLayer
370
18
48
1
60
0
100
AcDbSpline
70
4
71
3
72
68
73
64
40
0
40
0
40
0
40
0
40
0.0198851364340379
40
0.0198851364340379
40
0.057581861955806
40
0.057581861955806
40
0.0952785874775741
40
0.0952785874775741
40
0.114126950238458
40
0.114126950238458
40
0.132975312999342
40
0.132975312999342
40
0.17067203852111
40
0.17067203852111
40
0.208368764042878
40
0.208368764042878
40
0.246065489564647
40
0.246065489564647
40
0.283762215086415
40
0.283762215086415
40
0.321458940608183
40
0.321458940608183
40
0.359155666129951
40
0.359155666129951
40
0.378004028890836
40
0.378004028890836
40
0.39685239165172
40
0.39685239165172
40
0.434549117173488
40
0.434549117173488
40
0.472245842695256
40
0.472245842695256
40
0.509942568217025
40
0.509942568217025
40
0.547639293738793
40
0.547639293738793
40
0.585336019260561
40
0.585336019260561
40
0.623032744782329
40
0.623032744782329
40
0.641881107543213
40
0.641881107543213
40
0.660729470304096
40
0.660729470304096
40
0.67957783306498
40
0.67957783306498
40
0.698426195825863
40
0.698426195825863
40
0.73612292134763
40
0.73612292134763
40
0.773819646869397
40
0.773819646869397
40
0.811516372391165
40
0.811516372391165
40
0.849213097912932
40
0.849213097912932
40
0.886909823434699
40
0.886909823434699
40
0.924606548956466
40
0.924606548956466
40
0.962303274478233
40
0.962303274478233
40
1
40
1
40
1
40
1
41
1
10
75.1182966739048
20
-5.22420815282683
30
0
41
1
10
74.9019335713828
20
-5.30965209656063
30
0
41
1
10
74.6858828824601
20
-5.39303152392836
30
0
41
1
10
74.0611769110281
20
-5.62837906728205
30
0
41
1
10
73.653862016503
20
-5.77556650775108
30
0
41
1
10
72.8398139199059
20
-6.0516049215228
30
0
41
1
10
72.4331999899978
20
-6.18037617797398
30
0
41
1
10
71.8235155289237
20
-6.35871737372543
30
0
41
1
10
71.6203171328539
20
-6.41572421103461
30
0
41
1
10
71.214076488846
20
-6.52615409197861
30
0
41
1
10
71.0112042982165
20
-6.57958635647211
30
0
41
1
10
70.4022654627582
20
-6.73333700291954
30
0
41
1
10
69.995892989918
20
-6.82701206851172
30
0
41
1
10
69.1817081715606
20
-6.99420191554899
30
0
41
1
10
68.7737704802352
20
-7.06826601857736
30
0
41
1
10
67.9573903468079
20
-7.19836621272896
30
0
41
1
10
67.5484722525309
20
-7.25408456113342
30
0
41
1
10
66.726819003945
20
-7.34288531300425
30
0
41
1
10
66.3140634275602
20
-7.3757947100473
30
0
41
1
10
65.4913611384788
20
-7.42350066942015
30
0
41
1
10
65.0811844317063
20
-7.43771545102121
30
0
41
1
10
64.2601200074701
20
-7.4436269671433
30
0
41
1
10
63.8493825108192
20
-7.43535399535901
30
0
41
1
10
63.2328468649301
20
-7.40876190966006
30
0
41
1
10
63.0272600251483
20
-7.39745912372467
30
0
41
1
10
62.6160526060924
20
-7.36962853021637
30
0
41
1
10
62.4105907833667
20
-7.35303800310527
30
0
41
1
10
61.7932098994778
20
-7.29500374317541
30
0
41
1
10
61.3818832378488
20
-7.24501400887075
30
0
41
1
10
60.5621752087905
20
-7.12707737732387
30
0
41
1
10
60.1531668118368
20
-7.05901384966046
30
0
41
1
10
59.3382457279502
20
-6.90226925062592
30
0
41
1
10
58.9314333098315
20
-6.81368443627187
30
0
41
1
10
58.1179759029625
20
-6.61961000168449
30
0
41
1
10
57.711410298356
20
-6.51409219929388
30
0
41
1
10
56.8986492062585
20
-6.28479223578236
30
0
41
1
10
56.4928959270584
20
-6.16011101198509
30
0
41
1
10
55.6795301427652
20
-5.89524641948006
30
0
41
1
10
55.2722335768627
20
-5.75513741751797
30
0
41
1
10
54.6601140904466
20
-5.53281218467626
30
0
41
1
10
54.4558587711105
20
-5.45667683879489
30
0
41
1
10
54.047084139625
20
-5.29982780763115
30
0
41
1
10
53.8426312238356
20
-5.21894892280022
30
0
41
1
10
53.4328840213956
20
-5.05407389437067
30
0
41
1
10
53.2276868455443
20
-4.97006907913573
30
0
41
1
10
52.8165207148327
20
-4.7985632836984
30
0
41
1
10
52.6103466139561
20
-4.71092149342448
30
0
41
1
10
51.9925517657123
20
-4.44329105865089
30
0
41
1
10
51.5812899062676
20
-4.25854341215017
30
0
41
1
10
50.7608106600348
20
-3.87591719637678
30
0
41
1
10
50.3506919199529
20
-3.68009950881188
30
0
41
1
10
49.5299420839603
20
-3.27879625765479
30
0
41
1
10
49.1192830564826
20
-3.07323406442933
30
0
41
1
10
48.2974603318185
20
-2.65286796882381
30
0
41
1
10
47.8866490669027
20
-2.43772270946656
30
0
41
1
10
47.0629311029027
20
-2.00234829086679
30
0
41
1
10
46.6517292335249
20
-1.7822559940314
30
0
41
1
10
45.8302441915842
20
-1.33796684164142
30
0
41
1
10
45.4204318469743
20
-1.11311709782188
30
0
41
1
10
44.6005909334655
20
-0.66152032806113
30
0
41
1
10
44.1904195066264
20
-0.435000250217996
30
0
41
1
10
43.3690627542329
20
0.018719784942931
30
0
41
1
10
42.9580240102679
20
0.245987122025781
30
0
41
1
10
42.5467821783916
20
0.474006827709161
30
0
0
SPLINE
5
EE
100
AcDbEntity
8
1
62
256
6
ByLayer
370
18
48
1
60
0
100
AcDbSpline
70
4
71
3
72
30
73
26
40
0
40
0
40
0
40
0
40
0.0624999999999953
40
0.0624999999999953
40
0.0937499999999936
40
0.0937499999999936
40
0.124999999999992
40
0.124999999999992
40
0.24999999999999
40
0.24999999999999
40
0.281249999999989
40
0.281249999999989
40
0.312499999999989
40
0.312499999999989
40
0.374999999999992
40
0.374999999999992
40
0.499999999999993
40
0.499999999999993
40
0.624999999999995
40
0.624999999999995
40
0.749999999999997
40
0.749999999999997
40
0.874999999999998
40
0.874999999999998
40
1
40
1
40
1
40
1
41
1
10
81.8619793038368
20
2.02543358501006
30
0
41
1
10
81.8794756426566
20
1.79523280881418
30
0
41
1
10
81.9123773801871
20
1.56449348090493
30
0
41
1
10
81.9836528864635
20
1.21761809437848
30
0
41
1
10
82.0110727450761
20
1.10186496950948
30
0
41
1
10
82.0731209702999
20
0.870106720170099
30
0
41
1
10
82.1078903227054
20
0.753741149558721
30
0
41
1
10
82.2963654400032
20
0.180442125877846
30
0
41
1
10
82.4945551818728
20
-0.257457152810588
30
0
41
1
10
82.7884827355732
20
-0.784624696472434
30
0
41
1
10
82.8496784340095
20
-0.889100880454237
30
0
41
1
10
82.9751203554889
20
-1.09384251647461
30
0
41
1
10
83.0395291456309
20
-1.1944124346015
30
0
41
1
10
83.2374047933869
20
-1.49116144887981
30
0
41
1
10
83.3755036525484
20
-1.68239823804501
30
0
41
1
10
83.8058277610398
20
-2.23900736374381
30
0
41
1
10
84.1141071251186
20
-2.58780494806862
30
0
41
1
10
84.7643188935907
20
-3.24723929640152
30
0
41
1
10
85.1003096364672
20
-3.55079522926985
30
0
41
1
10
85.7891561879546
20
-4.11737270969587
30
0
41
1
10
86.1419373350063
20
-4.38057370276852
30
0
41
1
10
86.8617510578829
20
-4.87272305603281
30
0
41
1
10
87.2288076830711
20
-5.1016136147208
30
0
41
1
10
87.97577228814
20
-5.52850711083983
30
0
41
1
10
88.3526646001134
20
-5.7248478659379
30
0
41
1
10
88.7324703780934
20
-5.90548277206497
30
0
0
SPLINE
5
EF
100
AcDbEntity
8
1
62
256
6
ByLayer
370
18
48
1
60
0
100
AcDbSpline
70
4
71
3
72
10
73
6
40
0
40
0
40
0
40
0
40
0.5
40
0.5
40
1
40
1
40
1
40
1
41
1
10
41.2744987550563
20
1.24890456289751
30
0
41
1
10
40.8456278760829
20
1.59032517099732
30
0
41
1
10
40.4303117926392
20
1.97663494675095
30
0
41
1
10
39.6155996189715
20
2.83102730709916
30
0
41
1
10
39.2219373720803
20
3.29156641001543
30
0
41
1
10
38.8358917347149
20
3.78012877456896
30
0
0
SPLINE
5
F0
100
AcDbEntity
8
1
62
256
6
ByLayer
370
18
48
1
60
0
100
AcDbSpline
70
4
71
3
72
22
73
18
40
0
40
0
40
0
40
0
40
0.120744707855327
40
0.120744707855327
40
0.18534831889995
40
0.18534831889995
40
0.249951929944573
40
0.249951929944573
40
0.379159152033816
40
0.379159152033816
40
0.637573596212298
40
0.637573596212298
40
0.895988040390783
40
0.895988040390783
40
0.960591651435404
40
0.960591651435404
40
1
40
1
40
1
40
1
41
1
10
67.5522796016847
20
0.0006640687769845
30
0
41
1
10
68.0078703423311
20
-0.255445406174204
30
0
41
1
10
68.4646017784356
20
-0.51219772938407
30
0
41
1
10
69.1682641685613
20
-0.905872361531522
30
0
41
1
10
69.4143947507071
20
-1.04314456790823
30
0
41
1
10
69.905860821041
20
-1.31608205769029
30
0
41
1
10
70.1510529732718
20
-1.45168220486474
30
0
41
1
10
70.8852668406067
20
-1.85546183301901
30
0
41
1
10
71.3728828113768
20
-2.1206822100817
30
0
41
1
10
72.8327681694237
20
-2.9002180190505
30
0
41
1
10
73.801974721961
20
-3.3985047892925
30
0
41
1
10
75.7422859926027
20
-4.33648081431451
30
0
41
1
10
76.7134881807367
20
-4.77588475042674
30
0
41
1
10
77.9357980660874
20
-5.27710741925162
30
0
41
1
10
78.1806656728239
20
-5.37496587642647
30
0
41
1
10
78.5757256284727
20
-5.52841394677623
30
0
41
1
10
78.7257275850375
20
-5.58564924484023
30
0
41
1
10
78.8756634818466
20
-5.64180251185027
30
0
0
SPLINE
5
F1
100
AcDbEntity
8
1
62
256
6
ByLayer
370
13
48
1
60
0
100
AcDbSpline
70
4
71
3
72
14
73
10
40
0
40
0
40
0
40
0
40
0.0271019157912285
40
0.0271019157912285
40
0.166087356392481
40
0.166087356392481
40
0.444058237594985
40
0.444058237594985
40
1
40
1
40
1
40
1
41
1
10
78.8756644184011
20
-5.6418028626041
30
0
41
1
10
78.9715238518273
20
-5.67770367123711
30
0
41
1
10
79.0673562829554
20
-5.7131621988037
30
0
41
1
10
79.6538569571094
20
-5.92746472136395
30
0
41
1
10
80.1422268678766
20
-6.0943576484305
30
0
41
1
10
81.6021001082191
20
-6.55649782907568
30
0
41
1
10
82.5684619094652
20
-6.81309275522275
30
0
41
1
10
85.4626749642587
20
-7.41890251883763
30
0
41
1
10
87.3863941756952
20
-7.6042254590557
30
0
41
1
10
89.3460025363784
20
-7.54609367290956
30
0
0
SPLINE
5
F2
100
AcDbEntity
8
1
62
256
6
ByLayer
370
18
48
1
60
0
100
AcDbSpline
70
4
71
3
72
8
73
4
40
0
40
0
40
0
40
0
40
1
40
1
40
1
40
1
41
1
10
89.3460025364592
20
-7.54609367295186
30
0
41
1
10
89.3056055068476
20
-7.64494370041672
30
0
41
1
10
89.2651235201894
20
-7.7435790300209
30
0
41
1
10
89.2245641956227
20
-7.84200366952226
30
0
0
SPLINE
5
F3
100
AcDbEntity
8
1
62
256
6
ByLayer
370
18
48
1
60
0
100
AcDbSpline
70
4
71
3
72
14
73
10
40
0
40
0
40
0
40
0
40
0.25
40
0.25
40
0.5
40
0.5
40
0.75
40
0.75
40
1
40
1
40
1
40
1
41
1
10
89.1913343772334
20
1.66590510729
30
0
41
1
10
89.188199223559
20
1.68594655023432
30
0
41
1
10
89.189515088785
20
1.7067667879067
30
0
41
1
10
89.2041618211455
20
1.74454908745287
30
0
41
1
10
89.2177956824836
20
1.76129711971274
30
0
41
1
10
89.2512492208586
20
1.78534880318838
30
0
41
1
10
89.2708024303947
20
1.79312406702496
30
0
41
1
10
89.3106739389451
20
1.8023782249995
30
0
41
1
10
89.3313686222122
20
1.80399250030214
30
0
41
1
10
89.3519053889904
20
1.8034869990922
30
0
0
SPLINE
5
F4
100
AcDbEntity
8
1
62
256
6
ByLayer
370
18
48
1
60
0
100
AcDbSpline
70
4
71
3
72
10
73
6
40
0
40
0
40
0
40
0
40
0.5
40
0.5
40
1
40
1
40
1
40
1
41
1
10
42.5992955820086
20
-7.73795985729984
30
0
41
1
10
42.2088404357308
20
-8.07191032615896
30
0
41
1
10
41.8194125718056
20
-8.39510084086214
30
0
41
1
10
41.0421533113939
20
-9.0187040276939
30
0
41
1
10
40.6543677065799
20
-9.31910419658544
30
0
41
1
10
40.2681677805146
20
-9.60664709625266
30
0
0
SPLINE
5
F5
100
AcDbEntity
8
1
62
256
6
ByLayer
370
18
48
1
60
0
100
AcDbSpline
70
4
71
3
72
8
73
4
40
0
40
0
40
0
40
0
40
1
40
1
40
1
40
1
41
1
10
91.9891544588293
20
-0.134045168057014
30
0
41
1
10
91.9898767833895
20
-0.109218121370873
30
0
41
1
10
91.9939250719012
20
-0.0796194532010759
30
0
41
1
10
91.9999721365883
20
-0.0481945605705789
30
0
0
SPLINE
5
F6
100
AcDbEntity
8
1
62
256
6
ByLayer
370
18
48
1
60
0
100
AcDbSpline
70
4
71
3
72
24
73
20
40
0
40
0
40
0
40
0
40
0.0401928781696954
40
0.0401928781696954
40
0.20016073180808
40
0.20016073180808
40
0.360128585446464
40
0.360128585446464
40
0.520096439084848
40
0.520096439084848
40
0.60008036590404
40
0.60008036590404
40
0.680064292723232
40
0.680064292723232
40
0.840032146361616
40
0.840032146361616
40
0.920016073180808
40
0.920016073180808
40
1
40
1
40
1
40
1
41
1
10
33.5073456235656
20
7.07023972098665
30
0
41
1
10
33.5975190181942
20
7.1176548977314
30
0
41
1
10
33.6876508952514
20
7.1646056248392
30
0
41
1
10
34.1362750783822
20
7.39614538307245
30
0
41
1
10
34.4933138831372
20
7.57451953094738
30
0
41
1
10
35.2097760499801
20
7.91299920578342
30
0
41
1
10
35.5689841737767
20
8.07337642073264
30
0
41
1
10
36.288394434321
20
8.37725060110824
30
0
41
1
10
36.6487035260307
20
8.52066765994965
30
0
41
1
10
37.189252581031
20
8.72326696135957
30
0
41
1
10
37.3694217254786
20
8.78871586038892
30
0
41
1
10
37.7310368225854
20
8.91453463202086
30
0
41
1
10
37.9123601766843
20
8.97499415435081
30
0
41
1
10
38.457795954648
20
9.14906791753313
30
0
41
1
10
38.8212618638905
20
9.25479271367536
30
0
41
1
10
39.3649241044714
20
9.39813721423036
30
0
41
1
10
39.5459498472402
20
9.44337719239451
30
0
41
1
10
39.9073988681045
20
9.52883898540225
30
0
41
1
10
40.0876777537985
20
9.5691091078088
30
0
41
1
10
40.2681677805146
20
9.60664709625263
30
0
0
SPLINE
5
F7
100
AcDbEntity
8
1
62
256
6
ByLayer
370
18
48
1
60
0
100
AcDbSpline
70
4
71
3
72
8
73
4
40
0
40
0
40
0
40
0
40
1
40
1
40
1
40
1
41
1
10
42.9464176185648
20
-7.55138663466568
30
0
41
1
10
42.9611643060303
20
-7.66468551122517
30
0
41
1
10
42.9768870627803
20
-7.74184264081566
30
0
41
1
10
42.9928646518807
20
-7.78380298772231
30
0
0
SPLINE
5
F8
100
AcDbEntity
8
1
62
256
6
ByLayer
370
18
48
1
60
0
100
AcDbSpline
70
4
71
3
72
14
73
10
40
0
40
0
40
0
40
0
40
0.25
40
0.25
40
0.5
40
0.5
40
0.75
40
0.75
40
1
40
1
40
1
40
1
41
1
10
89.6471725875043
20
7.62792384490871
30
0
41
1
10
89.8324770064235
20
7.13740989764332
30
0
41
1
10
90.019023968644
20
6.64743422003949
30
0
41
1
10
90.3938976186809
20
5.6682396520705
30
0
41
1
10
90.582236175967
20
5.17902601448176
30
0
41
1
10
90.9602395114748
20
4.20115283777841
30
0
41
1
10
91.1500125289905
20
3.71253911728286
30
0
41
1
10
91.5303123549005
20
2.73561820120781
30
0
41
1
10
91.7207441136167
20
2.24727181570594
30
0
41
1
10
91.9112311757286
20
1.75894179354569
30
0
0
SPLINE
5
F9
100
AcDbEntity
8
1
62
256
6
ByLayer
370
18
48
1
60
0
100
AcDbSpline
70
4
71
3
72
30
73
26
40
0
40
0
40
0
40
0
40
0.0712468787669937
40
0.134380371234236
40
0.181042088135992
40
0.21284245003108
40
0.24226082990232
40
0.292359524097067
40
0.341244464439787
40
0.383514429448833
40
0.421743830398286
40
0.467350755175212
40
0.513282221371988
40
0.553945183356539
40
0.596947624550284
40
0.654456540270324
40
0.709172083335563
40
0.745918996569626
40
0.772275903318876
40
0.807221470121192
40
0.851265813331446
40
0.895963677995267
40
0.935416331550514
40
0.975979022589844
40
1
40
1
40
1
40
1
41
1
10
64.4808898836426
20
7.44122067798276
30
0
41
1
10
64.1514969383994
20
7.44054959378377
30
0
41
1
10
63.530197753635
20
7.439685822992
30
0
41
1
10
62.6932037604748
20
7.4401979718462
30
0
41
1
10
62.0384009789185
20
7.44036115054621
30
0
41
1
10
61.5397586813662
20
7.43956906876079
30
0
41
1
10
61.0251875775176
20
7.4387703275323
30
0
41
1
10
60.4314696497335
20
7.4385012393023
30
0
41
1
10
59.7783399418456
20
7.4386697964938
30
0
41
1
10
59.1800892636672
20
7.43826989737076
30
0
41
1
10
58.5969970861578
20
7.43741443248143
30
0
41
1
10
57.9969727287153
20
7.43715705565737
30
0
41
1
10
57.3856965559112
20
7.43720346590805
30
0
41
1
10
56.7864628186771
20
7.43706226151551
30
0
41
1
10
56.1337056422929
20
7.43621218698112
30
0
41
1
10
55.4159624232798
20
7.43580484488092
30
0
41
1
10
54.7271468810121
20
7.43581795573925
30
0
41
1
10
54.1823720399209
20
7.43549183180224
30
0
41
1
10
53.7290126279286
20
7.43487462870007
30
0
41
1
10
53.2419190794897
20
7.43460303265613
30
0
41
1
10
52.6700079820936
20
7.43478603605845
30
0
41
1
10
52.0772559186164
20
7.43452164955337
30
0
41
1
10
51.5006113187992
20
7.43396416850709
30
0
41
1
10
51.0195739598118
20
7.43337832623942
30
0
41
1
10
50.7209514882933
20
7.43326600882591
30
0
41
1
10
50.6098830810284
20
7.43323460177538
30
0
0
SPLINE
5
FA
100
AcDbEntity
8
1
62
256
6
ByLayer
370
18
48
1
60
0
100
AcDbSpline
70
4
71
3
72
37
73
33
40
0
40
0
40
0
40
0
40
0.050083060014528
40
0.0930277752409698
40
0.123810106824321
40
0.144087616295828
40
0.164704416843719
40
0.213535104772845
40
0.255532887597384
40
0.298771010162862
40
0.350384557360432
40
0.375393090412071
40
0.396168041982075
40
0.41271063414335
40
0.429906775086423
40
0.456066228865378
40
0.490046290488508
40
0.529568697954187
40
0.56042003718379
40
0.586741707225694
40
0.616098175124429
40
0.648173204374733
40
0.677007277757293
40
0.701902493408724
40
0.753098155456423
40
0.811444264262833
40
0.830519465878123
40
0.849742077698111
40
0.875553613589328
40
0.910353883979598
40
0.954157185600128
40
1
40
1
40
1
40
1
41
1
10
46.6825333790228
20
-7.43065994125428
30
0
41
1
10
46.9796619851817
20
-7.43091449754897
30
0
41
1
10
47.5315900784761
20
-7.43135678488105
30
0
41
1
10
48.2662547614087
20
-7.4316909352583
30
0
41
1
10
48.8240171562447
20
-7.43213251019131
30
0
41
1
10
49.2493188485252
20
-7.43251273951989
30
0
41
1
10
49.7817097385933
20
-7.43296529602617
30
0
41
1
10
50.4429646977282
20
-7.43316482295367
30
0
41
1
10
51.238469265921
20
-7.43354001836465
30
0
41
1
10
52.050454572153
20
-7.43460746378162
30
0
41
1
10
52.7616629474024
20
-7.43477405034659
30
0
41
1
10
53.3395717091838
20
-7.43463331654715
30
0
41
1
10
53.709380882253
20
-7.434874995038
30
0
41
1
10
54.032836257841
20
-7.43529086788439
30
0
41
1
10
54.3882493630283
20
-7.43564059475926
30
0
41
1
10
54.8471214866365
20
-7.43581131302545
30
0
41
1
10
55.4384741176572
20
-7.43583872684874
30
0
41
1
10
56.0576662328729
20
-7.43613867377098
30
0
41
1
10
56.6314098731901
20
-7.43688780305925
30
0
41
1
10
57.1448374812461
20
-7.43718123590352
30
0
41
1
10
57.6655288387958
20
-7.43717652757724
30
0
41
1
10
58.2011268470452
20
-7.43721189636403
30
0
41
1
10
58.7102538553522
20
-7.43756346984844
30
0
41
1
10
59.3328344801199
20
-7.4384897147913
30
0
41
1
10
60.1305164604042
20
-7.43861703451714
30
0
41
1
10
60.8937143945463
20
-7.43859173450434
30
0
41
1
10
61.4670543640379
20
-7.43944533273276
30
0
41
1
10
61.8472614161351
20
-7.44009050635799
30
0
41
1
10
62.3210157735815
20
-7.44039112392596
30
0
41
1
10
62.9405446219677
20
-7.43996181411853
30
0
41
1
10
63.6788857035989
20
-7.43990220213453
30
0
41
1
10
64.2107605116284
20
-7.44065149843354
30
0
41
1
10
64.4827460572756
20
-7.44120572038275
30
0
0
SPLINE
5
FB
100
AcDbEntity
8
1
62
256
6
ByLayer
370
18
48
1
60
0
100
AcDbSpline
70
4
71
2
72
6
73
3
40
0
40
0
40
0
40
1
40
1
40
1
41
1
10
88.839619675953
20
-7.45700065442105
30
0
41
1
10
89.0523992004062
20
-7.45768376883754
30
0
41
1
10
89.2630289708786
20
-7.45623971575401
30
0
0
SPLINE
5
FC
100
AcDbEntity
8
1
62
256
6
ByLayer
370
18
48
1
60
0
100
AcDbSpline
70
4
71
1
72
4
73
2
40
0
40
0
40
1
40
1
41
1
10
90.4482195532606
20
-2.69458002422434
30
0
41
1
10
90.451851048166
20
-2.69512028210485
30
0
0
SPLINE
5
FD
100
AcDbEntity
8
1
62
256
6
ByLayer
370
18
48
1
60
0
100
AcDbSpline
70
4
71
2
72
6
73
3
40
0
40
0
40
0
40
1
40
1
40
1
41
1
10
67.5522395054926
20
0.00080169210284
30
0
41
1
10
67.5522233134229
20
0.0008063474619178
30
0
41
1
10
67.5522071214263
20
0.0008114279772826
30
0
0
LINE
5
7D
100
AcDbEntity
8
SK1
62
256
6
ByLayer
370
18
48
1
60
0
100
AcDbLine
10
0
20
-10
30
0
11
0
21
10
31
0
39
0
210
0
220
0
230
1
0
LINE
5
7F
100
AcDbEntity
8
SK1
62
256
6
ByLayer
370
18
48
1
60
0
100
AcDbLine
10
-50
20
1.780108
30
0
11
-50
21
1.217142
31
0
39
0
210
0
220
0
230
1
0
LINE
5
80
100
AcDbEntity
8
SK1
62
256
6
ByLayer
370
18
48
1
60
0
100
AcDbLine
10
-50
20
6.745
30
0
11
-50
21
1.780108
31
0
39
0
210
0
220
0
230
1
0
LINE
5
81
100
AcDbEntity
8
SK1
62
256
6
ByLayer
370
18
48
1
60
0
100
AcDbLine
10
-47.6
20
-1.011889
30
0
11
-47.6
21
1.785545
31
0
39
0
210
0
220
0
230
1
0
LINE
5
82
100
AcDbEntity
8
SK1
62
256
6
ByLayer
370
13
48
1
60
0
100
AcDbLine
10
-47.7
20
1.880426
30
0
11
-47.7
21
1.116825
31
0
39
0
210
0
220
0
230
1
0
LINE
5
83
100
AcDbEntity
8
SK1
62
256
6
ByLayer
370
18
48
1
60
0
100
AcDbLine
10
-50
20
-1.217142
30
0
11
-50
21
-6.745
31
0
39
0
210
0
220
0
230
1
0
LINE
5
84
100
AcDbEntity
8
SK1
62
256
6
ByLayer
370
18
48
1
60
0
100
AcDbLine
10
-46.745
20
10
30
0
11
-46.745
21
-10
31
0
39
0
210
0
220
0
230
1
0
LINE
5
85
100
AcDbEntity
8
1
62
256
6
ByLayer
370
18
48
1
60
0
100
AcDbLine
10
0
20
-10
30
0
11
0
21
10
31
0
39
0
210
0
220
0
230
1
0
LINE
5
86
100
AcDbEntity
8
1
62
256
6
ByLayer
370
13
48
1
60
0
100
AcDbLine
10
89.351905
20
1.803487
30
0
11
91.989154
21
0.134045
31
0
39
0
210
0
220
0
230
1
0
LINE
5
87
100
AcDbEntity
8
1
62
256
6
ByLayer
370
13
48
1
60
0
100
AcDbLine
10
89.191334
20
1.665905
30
0
11
91.950452
21
-0.080683
31
0
39
0
210
0
220
0
230
1
0
LINE
5
88
100
AcDbEntity
8
80
62
256
6
ByLayer
370
18
48
1
60
0
100
AcDbLine
10
0
20
0
30
0
11
-5
21
0
31
0
39
0
210
0
220
0
230
1
0
LINE
5
89
100
AcDbEntity
8
SK4
62
256
6
ByLayer
370
18
48
0.05
60
0
100
AcDbLine
10
97
20
0
30
0
11
-55
21
0
31
0
39
0
210
0
220
0
230
1
0
LINE
5
8B
100
AcDbEntity
8
4
62
256
6
ByLayer
370
18
48
0.05
60
0
100
AcDbLine
10
92
20
0
30
0
11
0
21
0
31
0
39
0
210
0
220
0
230
1
0
LINE
5
8D
100
AcDbEntity
8
1
62
256
6
ByLayer
370
18
48
1
60
0
100
AcDbLine
10
44.300768
20
-7.821659
30
0
11
46.478505
21
-7.82302
31
0
39
0
210
0
220
0
230
1
0
LINE
5
8E
100
AcDbEntity
8
1
62
256
6
ByLayer
370
18
48
1
60
0
100
AcDbLine
10
88.629161
20
7.849364
30
0
11
86.448462
21
7.848001
31
0
39
0
210
0
220
0
230
1
0
LINE
5
8F
100
AcDbEntity
8
1
62
256
6
ByLayer
370
18
48
1
60
0
100
AcDbLine
10
86.448462
20
-7.848001
30
0
11
88.629161
21
-7.849364
31
0
39
0
210
0
220
0
230
1
0
LINE
5
90
100
AcDbEntity
8
1
62
256
6
ByLayer
370
18
48
1
60
0
100
AcDbLine
10
46.478505
20
7.82302
30
0
11
44.300768
21
7.821659
31
0
39
0
210
0
220
0
230
1
0
LINE
5
91
100
AcDbEntity
8
SK1
62
256
6
ByLayer
370
18
48
1
60
0
100
AcDbLine
10
0
20
10
30
0
11
-46.745
21
10
31
0
39
0
210
0
220
0
230
1
0
LINE
5
92
100
AcDbEntity
8
SK1
62
256
6
ByLayer
370
18
48
1
60
0
100
AcDbLine
10
-46.745
20
-10
30
0
11
0
21
-10
31
0
39
0
210
0
220
0
230
1
0
LINE
5
93
100
AcDbEntity
8
SK1
62
256
6
ByLayer
370
18
48
1
60
0
100
AcDbLine
10
-50
20
-6.745
30
0
11
-46.745
21
-10
31
0
39
0
210
0
220
0
230
1
0
LINE
5
94
100
AcDbEntity
8
SK1
62
256
6
ByLayer
370
18
48
1
60
0
100
AcDbLine
10
-46.745
20
10
30
0
11
-50
21
6.745
31
0
39
0
210
0
220
0
230
1
0
LINE
5
95
100
AcDbEntity
8
1
62
256
6
ByLayer
370
18
48
1
60
0
100
AcDbLine
10
22.960542
20
10
30
0
11
0
21
10
31
0
39
0
210
0
220
0
230
1
0
LINE
5
96
100
AcDbEntity
8
1
62
256
6
ByLayer
370
18
48
1
60
0
100
AcDbLine
10
0
20
-10
30
0
11
22.97692
21
-10
31
0
39
0
210
0
220
0
230
1
0
LINE
5
97
100
AcDbEntity
8
81
62
256
6
ByLayer
370
18
48
1
60
0
100
AcDbLine
10
92
20
0
30
0
11
97
21
0
31
0
39
0
210
0
220
0
230
1
0
LINE
5
98
100
AcDbEntity
8
2
62
256
6
ByLayer
370
13
48
1
60
0
100
AcDbLine
10
114.236431
20
-10
30
0
11
114.236431
21
38.420813
31
0
39
0
210
0
220
0
230
1
0
LINE
5
9A
100
AcDbEntity
8
2
62
256
6
ByLayer
370
13
48
1
60
0
100
AcDbLine
10
41.9945
20
10
30
0
11
116.236431
21
10
31
0
39
0
210
0
220
0
230
1
0
LINE
5
9B
100
AcDbEntity
8
2
62
256
6
ByLayer
370
13
48
1
60
0
100
AcDbLine
10
41.9945
20
-10
30
0
11
116.236431
21
-10
31
0
39
0
210
0
220
0
230
1
0
LINE
5
9C
100
AcDbEntity
8
1
62
256
6
ByLayer
370
18
48
1
60
1
100
AcDbLine
10
114.236431
20
10
30
0
11
114.697214
21
6.500002
31
0
39
0
210
0
220
0
230
1
0
LINE
5
9D
100
AcDbEntity
8
1
62
256
6
ByLayer
370
18
48
1
60
1
100
AcDbLine
10
114.697214
20
6.500002
30
0
11
113.775647
21
6.499998
31
0
39
0
210
0
220
0
230
1
0
LINE
5
9E
100
AcDbEntity
8
1
62
256
6
ByLayer
370
18
48
1
60
1
100
AcDbLine
10
113.775647
20
6.499998
30
0
11
114.236431
21
10
31
0
39
0
210
0
220
0
230
1
0
LINE
5
9F
100
AcDbEntity
8
1
62
256
6
ByLayer
370
18
48
1
60
1
100
AcDbLine
10
114.236431
20
-10
30
0
11
113.775647
21
-6.500002
31
0
39
0
210
0
220
0
230
1
0
LINE
5
A0
100
AcDbEntity
8
1
62
256
6
ByLayer
370
18
48
1
60
1
100
AcDbLine
10
113.775647
20
-6.500002
30
0
11
114.697214
21
-6.499998
31
0
39
0
210
0
220
0
230
1
0
LINE
5
A1
100
AcDbEntity
8
1
62
256
6
ByLayer
370
18
48
1
60
1
100
AcDbLine
10
114.697214
20
-6.499998
30
0
11
114.236431
21
-10
31
0
39
0
210
0
220
0
230
1
0
LINE
5
A2
100
AcDbEntity
8
SK2
62
256
6
ByLayer
370
13
48
1
60
0
100
AcDbLine
10
-58.625163
20
-10
30
0
11
-58.625163
21
41.732039
31
0
39
0
210
0
220
0
230
1
0
LINE
5
A4
100
AcDbEntity
8
SK2
62
256
6
ByLayer
370
13
48
1
60
0
100
AcDbLine
10
-51.5875
20
10
30
0
11
-60.625163
21
10
31
0
39
0
210
0
220
0
230
1
0
LINE
5
A5
100
AcDbEntity
8
SK2
62
256
6
ByLayer
370
13
48
1
60
0
100
AcDbLine
10
-51.5875
20
-10
30
0
11
-60.625163
21
-10
31
0
39
0
210
0
220
0
230
1
0
LINE
5
A6
100
AcDbEntity
8
1
62
256
6
ByLayer
370
18
48
1
60
1
100
AcDbLine
10
-58.625163
20
10
30
0
11
-58.164379
21
6.500002
31
0
39
0
210
0
220
0
230
1
0
LINE
5
A7
100
AcDbEntity
8
1
62
256
6
ByLayer
370
18
48
1
60
1
100
AcDbLine
10
-58.164379
20
6.500002
30
0
11
-59.085946
21
6.499998
31
0
39
0
210
0
220
0
230
1
0
LINE
5
A8
100
AcDbEntity
8
1
62
256
6
ByLayer
370
18
48
1
60
1
100
AcDbLine
10
-59.085946
20
6.499998
30
0
11
-58.625163
21
10
31
0
39
0
210
0
220
0
230
1
0
LINE
5
A9
100
AcDbEntity
8
1
62
256
6
ByLayer
370
18
48
1
60
1
100
AcDbLine
10
-58.625163
20
-10
30
0
11
-59.085946
21
-6.500002
31
0
39
0
210
0
220
0
230
1
0
LINE
5
AA
100
AcDbEntity
8
1
62
256
6
ByLayer
370
18
48
1
60
1
100
AcDbLine
10
-59.085946
20
-6.500002
30
0
11
-58.164379
21
-6.499998
31
0
39
0
210
0
220
0
230
1
0
LINE
5
AB
100
AcDbEntity
8
1
62
256
6
ByLayer
370
18
48
1
60
1
100
AcDbLine
10
-58.164379
20
-6.499998
30
0
11
-58.625163
21
-10
31
0
39
0
210
0
220
0
230
1
0
LINE
5
AC
100
AcDbEntity
8
2
62
256
6
ByLayer
370
13
48
1
60
0
100
AcDbLine
10
105.970081
20
-7.85
30
0
11
105.970081
21
38.054896
31
0
39
0
210
0
220
0
230
1
0
LINE
5
AD
100
AcDbEntity
8
2
62
256
6
ByLayer
370
13
48
1
60
0
100
AcDbLine
10
91.2445
20
7.85
30
0
11
107.970081
21
7.85
31
0
39
0
210
0
220
0
230
1
0
LINE
5
AE
100
AcDbEntity
8
2
62
256
6
ByLayer
370
13
48
1
60
0
100
AcDbLine
10
91.2445
20
-7.85
30
0
11
107.970081
21
-7.85
31
0
39
0
210
0
220
0
230
1
0
LINE
5
AF
100
AcDbEntity
8
1
62
256
6
ByLayer
370
18
48
1
60
1
100
AcDbLine
10
105.970081
20
7.85
30
0
11
106.430865
21
4.350002
31
0
39
0
210
0
220
0
230
1
0
LINE
5
B0
100
AcDbEntity
8
1
62
256
6
ByLayer
370
18
48
1
60
1
100
AcDbLine
10
106.430865
20
4.350002
30
0
11
105.509297
21
4.349998
31
0
39
0
210
0
220
0
230
1
0
LINE
5
B1
100
AcDbEntity
8
1
62
256
6
ByLayer
370
18
48
1
60
1
100
AcDbLine
10
105.509297
20
4.349998
30
0
11
105.970081
21
7.85
31
0
39
0
210
0
220
0
230
1
0
LINE
5
B2
100
AcDbEntity
8
1
62
256
6
ByLayer
370
18
48
1
60
1
100
AcDbLine
10
105.970081
20
-7.85
30
0
11
105.509297
21
-4.350002
31
0
39
0
210
0
220
0
230
1
0
LINE
5
B3
100
AcDbEntity
8
1
62
256
6
ByLayer
370
18
48
1
60
1
100
AcDbLine
10
105.509297
20
-4.350002
30
0
11
106.430865
21
-4.349998
31
0
39
0
210
0
220
0
230
1
0
LINE
5
B4
100
AcDbEntity
8
1
62
256
6
ByLayer
370
18
48
1
60
1
100
AcDbLine
10
106.430865
20
-4.349998
30
0
11
105.970081
21
-7.85
31
0
39
0
210
0
220
0
230
1
0
LINE
5
B5
100
AcDbEntity
8
SK2
62
256
6
ByLayer
370
13
48
1
60
0
100
AcDbLine
10
39.284468
20
-11.122532
30
0
11
32.619761
21
-17.787239
31
0
39
0
210
0
220
0
230
1
0
LINE
5
B6
100
AcDbEntity
8
SK2
62
256
6
ByLayer
370
13
48
1
60
0
100
AcDbLine
10
39.284468
20
11.122532
30
0
11
32.619761
21
17.787239
31
0
39
0
210
0
220
0
230
1
0
LINE
5
B7
100
AcDbEntity
8
1
62
256
6
ByLayer
370
18
48
1
60
1
100
AcDbLine
10
34.033974
20
-16.373026
30
0
11
31.316307
21
-14.119895
31
0
39
0
210
0
220
0
230
1
0
LINE
5
B8
100
AcDbEntity
8
1
62
256
6
ByLayer
370
18
48
1
60
1
100
AcDbLine
10
31.316307
20
-14.119895
30
0
11
31.992061
21
-13.493282
31
0
39
0
210
0
220
0
230
1
0
LINE
5
B9
100
AcDbEntity
8
1
62
256
6
ByLayer
370
18
48
1
60
1
100
AcDbLine
10
31.992061
20
-13.493282
30
0
11
34.033974
21
-16.373026
31
0
39
0
210
0
220
0
230
1
0
LINE
5
BA
100
AcDbEntity
8
1
62
256
6
ByLayer
370
18
48
1
60
1
100
AcDbLine
10
34.033974
20
16.373026
30
0
11
31.992063
21
13.493285
31
0
39
0
210
0
220
0
230
1
0
LINE
5
BB
100
AcDbEntity
8
1
62
256
6
ByLayer
370
18
48
1
60
1
100
AcDbLine
10
31.992063
20
13.493285
30
0
11
31.316305
21
14.119893
31
0
39
0
210
0
220
0
230
1
0
LINE
5
BC
100
AcDbEntity
8
1
62
256
6
ByLayer
370
18
48
1
60
1
100
AcDbLine
10
31.316305
20
14.119893
30
0
11
34.033974
21
16.373026
31
0
39
0
210
0
220
0
230
1
0
LINE
5
104
100
AcDbEntity
8
1
62
256
6
ByLayer
370
18
48
1
60
1
100
AcDbLine
10
114.236431
20
10
30
0
11
114.697214
21
6.500002
31
0
39
0
210
0
220
0
230
1
0
LINE
5
105
100
AcDbEntity
8
1
62
256
6
ByLayer
370
18
48
1
60
1
100
AcDbLine
10
114.697214
20
6.500002
30
0
11
113.775647
21
6.499998
31
0
39
0
210
0
220
0
230
1
0
LINE
5
106
100
AcDbEntity
8
1
62
256
6
ByLayer
370
18
48
1
60
1
100
AcDbLine
10
113.775647
20
6.499998
30
0
11
114.236431
21
10
31
0
39
0
210
0
220
0
230
1
0
LINE
5
108
100
AcDbEntity
8
1
62
256
6
ByLayer
370
18
48
1
60
1
100
AcDbLine
10
114.236431
20
-10
30
0
11
113.775647
21
-6.500002
31
0
39
0
210
0
220
0
230
1
0
LINE
5
109
100
AcDbEntity
8
1
62
256
6
ByLayer
370
18
48
1
60
1
100
AcDbLine
10
113.775647
20
-6.500002
30
0
11
114.697214
21
-6.499998
31
0
39
0
210
0
220
0
230
1
0
LINE
5
10A
100
AcDbEntity
8
1
62
256
6
ByLayer
370
18
48
1
60
1
100
AcDbLine
10
114.697214
20
-6.499998
30
0
11
114.236431
21
-10
31
0
39
0
210
0
220
0
230
1
0
LINE
5
10E
100
AcDbEntity
8
1
62
256
6
ByLayer
370
18
48
1
60
1
100
AcDbLine
10
-58.625163
20
10
30
0
11
-58.164379
21
6.500002
31
0
39
0
210
0
220
0
230
1
0
LINE
5
10F
100
AcDbEntity
8
1
62
256
6
ByLayer
370
18
48
1
60
1
100
AcDbLine
10
-58.164379
20
6.500002
30
0
11
-59.085946
21
6.499998
31
0
39
0
210
0
220
0
230
1
0
LINE
5
110
100
AcDbEntity
8
1
62
256
6
ByLayer
370
18
48
1
60
1
100
AcDbLine
10
-59.085946
20
6.499998
30
0
11
-58.625163
21
10
31
0
39
0
210
0
220
0
230
1
0
LINE
5
112
100
AcDbEntity
8
1
62
256
6
ByLayer
370
18
48
1
60
1
100
AcDbLine
10
-58.625163
20
-10
30
0
11
-59.085946
21
-6.500002
31
0
39
0
210
0
220
0
230
1
0
LINE
5
113
100
AcDbEntity
8
1
62
256
6
ByLayer
370
18
48
1
60
1
100
AcDbLine
10
-59.085946
20
-6.500002
30
0
11
-58.164379
21
-6.499998
31
0
39
0
210
0
220
0
230
1
0
LINE
5
114
100
AcDbEntity
8
1
62
256
6
ByLayer
370
18
48
1
60
1
100
AcDbLine
10
-58.164379
20
-6.499998
30
0
11
-58.625163
21
-10
31
0
39
0
210
0
220
0
230
1
0
LINE
5
118
100
AcDbEntity
8
1
62
256
6
ByLayer
370
18
48
1
60
1
100
AcDbLine
10
105.970081
20
7.85
30
0
11
106.430865
21
4.350002
31
0
39
0
210
0
220
0
230
1
0
LINE
5
119
100
AcDbEntity
8
1
62
256
6
ByLayer
370
18
48
1
60
1
100
AcDbLine
10
106.430865
20
4.350002
30
0
11
105.509297
21
4.349998
31
0
39
0
210
0
220
0
230
1
0
LINE
5
11A
100
AcDbEntity
8
1
62
256
6
ByLayer
370
18
48
1
60
1
100
AcDbLine
10
105.509297
20
4.349998
30
0
11
105.970081
21
7.85
31
0
39
0
210
0
220
0
230
1
0
LINE
5
11C
100
AcDbEntity
8
1
62
256
6
ByLayer
370
18
48
1
60
1
100
AcDbLine
10
105.970081
20
-7.85
30
0
11
105.509297
21
-4.350002
31
0
39
0
210
0
220
0
230
1
0
LINE
5
11D
100
AcDbEntity
8
1
62
256
6
ByLayer
370
18
48
1
60
1
100
AcDbLine
10
105.509297
20
-4.350002
30
0
11
106.430865
21
-4.349998
31
0
39
0
210
0
220
0
230
1
0
LINE
5
11E
100
AcDbEntity
8
1
62
256
6
ByLayer
370
18
48
1
60
1
100
AcDbLine
10
106.430865
20
-4.349998
30
0
11
105.970081
21
-7.85
31
0
39
0
210
0
220
0
230
1
0
LINE
5
121
100
AcDbEntity
8
1
62
256
6
ByLayer
370
18
48
1
60
1
100
AcDbLine
10
34.033974
20
-16.373026
30
0
11
31.316307
21
-14.119895
31
0
39
0
210
0
220
0
230
1
0
LINE
5
122
100
AcDbEntity
8
1
62
256
6
ByLayer
370
18
48
1
60
1
100
AcDbLine
10
31.316307
20
-14.119895
30
0
11
31.992061
21
-13.493282
31
0
39
0
210
0
220
0
230
1
0
LINE
5
123
100
AcDbEntity
8
1
62
256
6
ByLayer
370
18
48
1
60
1
100
AcDbLine
10
31.992061
20
-13.493282
30
0
11
34.033974
21
-16.373026
31
0
39
0
210
0
220
0
230
1
0
LINE
5
125
100
AcDbEntity
8
1
62
256
6
ByLayer
370
18
48
1
60
1
100
AcDbLine
10
34.033974
20
16.373026
30
0
11
31.992063
21
13.493285
31
0
39
0
210
0
220
0
230
1
0
LINE
5
126
100
AcDbEntity
8
1
62
256
6
ByLayer
370
18
48
1
60
1
100
AcDbLine
10
31.992063
20
13.493285
30
0
11
31.316305
21
14.119893
31
0
39
0
210
0
220
0
230
1
0
LINE
5
127
100
AcDbEntity
8
1
62
256
6
ByLayer
370
18
48
1
60
1
100
AcDbLine
10
31.316305
20
14.119893
30
0
11
34.033974
21
16.373026
31
0
39
0
210
0
220
0
230
1
0
MTEXT
5
FE
100
AcDbEntity
8
SK6
62
256
6
ByLayer
370
13
48
1
60
0
100
AcDbMText
10
-7.70776
20
40.390328
30
0
210
0
220
0
230
1
1
\W0.7563;462.2-1570-051A1-XM X2BM
40
3.5
41
0
44
1.084337
50
0
71
7
72
5
7
iso_b_vert
0
MTEXT
5
102
100
AcDbEntity
8
2
62
256
6
ByLayer
370
18
48
1
60
0
100
AcDbMText
10
112.671797
20
20.097798
30
0
210
0
220
0
230
1
1
%%c
40
3.5
41
0
44
1.084337
50
90
71
7
72
5
7
iso_b_vert
0
MTEXT
5
103
100
AcDbEntity
8
2
62
256
6
ByLayer
370
18
48
1
60
0
100
AcDbMText
10
112.671797
20
25.320454
30
0
210
0
220
0
230
1
1
\W0.7421;20,000
40
3.5
41
0
44
1.084337
50
90
71
7
72
5
7
iso_b_vert
0
MTEXT
5
10C
100
AcDbEntity
8
SK2
62
256
6
ByLayer
370
18
48
1
60
0
100
AcDbMText
10
-60.189796
20
23.409024
30
0
210
0
220
0
230
1
1
%%c
40
3.5
41
0
44
1.084337
50
90
71
7
72
5
7
iso_b_vert
0
MTEXT
5
10D
100
AcDbEntity
8
SK2
62
256
6
ByLayer
370
18
48
1
60
0
100
AcDbMText
10
-60.189796
20
28.63168
30
0
210
0
220
0
230
1
1
\W0.7421;20,000
40
3.5
41
0
44
1.084337
50
90
71
7
72
5
7
iso_b_vert
0
MTEXT
5
116
100
AcDbEntity
8
2
62
256
6
ByLayer
370
18
48
1
60
0
100
AcDbMText
10
104.405448
20
20.606747
30
0
210
0
220
0
230
1
1
%%c
40
3.5
41
0
44
1.084337
50
90
71
7
72
5
7
iso_b_vert
0
MTEXT
5
117
100
AcDbEntity
8
2
62
256
6
ByLayer
370
18
48
1
60
0
100
AcDbMText
10
104.405448
20
25.829403
30
0
210
0
220
0
230
1
1
\W0.6930;15,700
40
3.5
41
0
44
1.084337
50
90
71
7
72
5
7
iso_b_vert
0
MTEXT
5
120
100
AcDbEntity
8
SK2
62
256
6
ByLayer
370
13
48
1
60
0
100
AcDbMText
10
22.413875
20
-0.291663
30
0
210
0
220
0
230
1
1
\W0.8181;90,0%%d
40
3.5
41
0
44
1.084337
50
0
71
7
72
5
7
iso_b_vert
0
HATCH
5
107
100
AcDbEntity
8
2
62
256
6
ByLayer
370
13
48
1
60
0
100
AcDbHatch
10
0
20
0
30
0
210
0
220
0
230
1
2
ANSI31
70
0
71
0
91
1
92
5
93
3
72
1
10
114.236430604616
20
10
11
114.697214346169
21
6.50000169255318
72
1
10
114.697214346169
20
6.50000169255318
11
113.775646863064
21
6.49999830744682
72
1
10
113.775646863064
20
6.49999830744682
11
114.236430604616
21
10
97
0
75
0
76
1
52
0
41
0.0062
77
0
78
1
53
45
43
0
44
0
45
-0.0139193969876572
46
0.0139193969876572
79
0
47
0
98
1
10
0
20
0
0
HATCH
5
10B
100
AcDbEntity
8
2
62
256
6
ByLayer
370
13
48
1
60
0
100
AcDbHatch
10
0
20
0
30
0
210
0
220
0
230
1
2
ANSI31
70
0
71
0
91
1
92
5
93
3
72
1
10
114.236430604616
20
-10
11
113.775646863064
21
-6.50000169255318
72
1
10
113.775646863064
20
-6.50000169255318
11
114.697214346169
21
-6.49999830744682
72
1
10
114.697214346169
20
-6.49999830744682
11
114.236430604616
21
-10
97
0
75
0
76
1
52
0
41
0.0062
77
0
78
1
53
45
43
0
44
0
45
-0.0139193969876572
46
0.0139193969876572
79
0
47
0
98
1
10
0
20
0
0
HATCH
5
111
100
AcDbEntity
8
SK2
62
256
6
ByLayer
370
13
48
1
60
0
100
AcDbHatch
10
0
20
0
30
0
210
0
220
0
230
1
2
ANSI31
70
0
71
0
91
1
92
5
93
3
72
1
10
-58.6251625675374
20
10
11
-58.1643788259847
21
6.50000169255318
72
1
10
-58.1643788259847
20
6.50000169255318
11
-59.0859463090902
21
6.49999830744682
72
1
10
-59.0859463090902
20
6.49999830744682
11
-58.6251625675374
21
10
97
0
75
0
76
1
52
0
41
0.0062
77
0
78
1
53
45
43
0
44
0
45
-0.0139193969876572
46
0.0139193969876572
79
0
47
0
98
1
10
0
20
0
0
HATCH
5
115
100
AcDbEntity
8
SK2
62
256
6
ByLayer
370
13
48
1
60
0
100
AcDbHatch
10
0
20
0
30
0
210
0
220
0
230
1
2
ANSI31
70
0
71
0
91
1
92
5
93
3
72
1
10
-58.6251625675374
20
-10
11
-59.0859463090902
21
-6.50000169255318
72
1
10
-59.0859463090902
20
-6.50000169255318
11
-58.1643788259847
21
-6.49999830744682
72
1
10
-58.1643788259847
20
-6.49999830744682
11
-58.6251625675374
21
-10
97
0
75
0
76
1
52
0
41
0.0062
77
0
78
1
53
45
43
0
44
0
45
-0.0139193969876572
46
0.0139193969876572
79
0
47
0
98
1
10
0
20
0
0
HATCH
5
11B
100
AcDbEntity
8
2
62
256
6
ByLayer
370
13
48
1
60
0
100
AcDbHatch
10
0
20
0
30
0
210
0
220
0
230
1
2
ANSI31
70
0
71
0
91
1
92
5
93
3
72
1
10
105.970081101161
20
7.85000000000002
11
106.430864842714
21
4.35000169255321
72
1
10
106.430864842714
20
4.35000169255321
11
105.509297359609
21
4.34999830744684
72
1
10
105.509297359609
20
4.34999830744684
11
105.970081101161
21
7.85000000000002
97
0
75
0
76
1
52
0
41
0.0062
77
0
78
1
53
45
43
0
44
0
45
-0.0139193969876572
46
0.0139193969876572
79
0
47
0
98
1
10
0
20
0
0
HATCH
5
11F
100
AcDbEntity
8
2
62
256
6
ByLayer
370
13
48
1
60
0
100
AcDbHatch
10
0
20
0
30
0
210
0
220
0
230
1
2
ANSI31
70
0
71
0
91
1
92
5
93
3
72
1
10
105.970081101161
20
-7.84999999999999
11
105.509297359609
21
-4.35000169255318
72
1
10
105.509297359609
20
-4.35000169255318
11
106.430864842714
21
-4.34999830744681
72
1
10
106.430864842714
20
-4.34999830744681
11
105.970081101161
21
-7.84999999999999
97
0
75
0
76
1
52
0
41
0.0062
77
0
78
1
53
45
43
0
44
0
45
-0.0139193969876572
46
0.0139193969876572
79
0
47
0
98
1
10
0
20
0
0
HATCH
5
124
100
AcDbEntity
8
SK2
62
256
6
ByLayer
370
13
48
1
60
0
100
AcDbHatch
10
0
20
0
30
0
210
0
220
0
230
1
2
ANSI31
70
0
71
0
91
1
92
5
93
3
72
1
10
34.0339744932516
20
-16.3730255067484
11
31.3163073949568
21
-14.119895383685
72
1
10
31.3163073949568
20
-14.119895383685
11
31.9920607014535
21
-13.4932821898503
72
1
10
31.9920607014535
20
-13.4932821898503
11
34.0339744932516
21
-16.3730255067484
97
0
75
0
76
1
52
0
41
0.0062
77
0
78
1
53
45
43
0
44
0
45
-0.0139193969876572
46
0.0139193969876572
79
0
47
0
98
1
10
0
20
0
0
HATCH
5
128
100
AcDbEntity
8
SK2
62
256
6
ByLayer
370
13
48
1
60
0
100
AcDbHatch
10
0
20
0
30
0
210
0
220
0
230
1
2
ANSI31
70
0
71
0
91
1
92
5
93
3
72
1
10
34.0339744932515
20
16.3730255067484
11
31.9920630031231
21
13.4932846720393
72
1
10
31.9920630031231
20
13.4932846720393
11
31.316305093287
21
14.119892901496
72
1
10
31.316305093287
20
14.119892901496
11
34.0339744932515
21
16.3730255067484
97
0
75
0
76
1
52
0
41
0.0062
77
0
78
1
53
45
43
0
44
0
45
-0.0139193969876572
46
0.0139193969876572
79
0
47
0
98
1
10
0
20
0
0
DIMENSION
5
12A
100
AcDbEntity
8
SK2
62
256
6
ByLayer
370
13
48
1
60
0
100
AcDbDimension
2
_U0
10
89.657
20
-20.652503
30
0
11
44.8285
21
-20.652503
31
0
70
32
71
1
72
1
41
1
210
0
220
0
230
1
3
Standard
100
AcDbAlignedDimension
13
0
23
0
33
0
14
89.657
24
-7.85
34
0
50
0
100
AcDbRotatedDimension
1001
ACAD
1000
DSTYLE
1002
{
1070
   371
1070
    13
1070
   372
1070
    13
1070
   170
1070
     0
1070
   144
1040
1.0
1070
   277
1070
     2
1070
   278
1070
    44
1070
   146
1040
1.0
1070
   345
1005
16
1070
   347
1005
16
1070
   346
1005
16
1070
   344
1005
0
1070
   343
1005
0
1070
   172
1070
     1
1070
    76
1070
     0
1070
    75
1070
     0
1070
   282
1070
     0
1070
   281
1070
     0
1070
    71
1070
     0
1070
    74
1070
     0
1070
   279
1070
     0
1070
   173
1070
     1
1070
   340
1005
FF
1070
   271
1070
     2
1070
   272
1070
     2
1070
    77
1070
     1
1070
    73
1070
     1
1070
   171
1070
     3
1070
   274
1070
     4
1070
   177
1070
    35
1070
   176
1070
    35
1070
   178
1070
    35
1070
    48
1040
-0.1
1070
    41
1040
3.5
1070
   147
1040
1.75
1070
    42
1040
1.5875
1070
    44
1040
2.0
1070
   140
1040
3.5
1002
}
1001
ACAD_DSTYLE_DIM_LINETYPE
1070
   380
1005
16
1001
ACAD_DSTYLE_DIM_EXT1_LINETYPE
1070
   381
1005
16
1001
ACAD_DSTYLE_DIM_EXT2_LINETYPE
1070
   382
1005
16
0
DIMENSION
5
143
100
AcDbEntity
8
SK2
62
256
6
ByLayer
370
13
48
1
60
0
100
AcDbDimension
2
_U1
10
92
20
-41.192985
30
0
11
21
21
-41.192985
31
0
70
32
71
1
72
1
41
1
210
0
220
0
230
1
3
Standard
100
AcDbAlignedDimension
13
-50
23
-10
33
0
14
92
24
0
34
0
50
0
100
AcDbRotatedDimension
1001
ACAD
1000
DSTYLE
1002
{
1070
   371
1070
    13
1070
   372
1070
    13
1070
   170
1070
     0
1070
   144
1040
1.0
1070
   277
1070
     2
1070
   278
1070
    44
1070
   146
1040
1.0
1070
   345
1005
16
1070
   347
1005
16
1070
   346
1005
16
1070
   344
1005
0
1070
   343
1005
0
1070
   172
1070
     1
1070
    76
1070
     0
1070
    75
1070
     0
1070
   282
1070
     0
1070
   281
1070
     0
1070
    71
1070
     0
1070
    74
1070
     0
1070
   279
1070
     0
1070
   173
1070
     1
1070
   340
1005
FF
1070
   271
1070
     2
1070
   272
1070
     2
1070
    77
1070
     1
1070
    73
1070
     1
1070
   171
1070
     3
1070
   274
1070
     4
1070
   177
1070
    35
1070
   176
1070
    35
1070
   178
1070
    35
1070
    48
1040
-0.1
1070
    41
1040
3.5
1070
   147
1040
1.75
1070
    42
1040
1.5875
1070
    44
1040
2.0
1070
   140
1040
3.5
1002
}
1001
ACAD_DSTYLE_DIM_LINETYPE
1070
   380
1005
16
1001
ACAD_DSTYLE_DIM_EXT1_LINETYPE
1070
   381
1005
16
1001
ACAD_DSTYLE_DIM_EXT2_LINETYPE
1070
   382
1005
16
0
DIMENSION
5
15B
100
AcDbEntity
8
SK2
62
256
6
ByLayer
370
13
48
1
60
0
100
AcDbDimension
2
_U2
10
92
20
19.459119
30
0
11
66.205
21
19.459119
31
0
70
32
71
1
72
1
41
1
210
0
220
0
230
1
3
Standard
100
AcDbAlignedDimension
13
40.41
23
10
33
0
14
92
24
0
34
0
50
0
100
AcDbRotatedDimension
1001
ACAD
1000
DSTYLE
1002
{
1070
   371
1070
    13
1070
   372
1070
    13
1070
   170
1070
     0
1070
   144
1040
1.0
1070
   277
1070
     2
1070
   278
1070
    44
1070
   146
1040
1.0
1070
   345
1005
16
1070
   347
1005
16
1070
   346
1005
16
1070
   344
1005
0
1070
   343
1005
0
1070
   172
1070
     1
1070
    76
1070
     0
1070
    75
1070
     0
1070
   282
1070
     0
1070
   281
1070
     0
1070
    71
1070
     0
1070
    74
1070
     0
1070
   279
1070
     0
1070
   173
1070
     1
1070
   340
1005
FF
1070
   271
1070
     2
1070
   272
1070
     2
1070
    77
1070
     1
1070
    73
1070
     1
1070
   171
1070
     3
1070
   274
1070
     4
1070
   177
1070
    35
1070
   176
1070
    35
1070
   178
1070
    35
1070
    48
1040
-0.1
1070
    41
1040
3.5
1070
   147
1040
1.75
1070
    42
1040
1.5875
1070
    44
1040
2.0
1070
   140
1040
3.5
1002
}
1001
ACAD_DSTYLE_DIM_LINETYPE
1070
   380
1005
16
1001
ACAD_DSTYLE_DIM_EXT1_LINETYPE
1070
   381
1005
16
1001
ACAD_DSTYLE_DIM_EXT2_LINETYPE
1070
   382
1005
16
0
DIMENSION
5
173
100
AcDbEntity
8
SK2
62
256
6
ByLayer
370
13
48
1
60
0
100
AcDbDimension
2
_U3
10
89.657
20
-20.652503
30
0
11
109.666667
21
-20.652503
31
0
70
32
71
1
72
1
41
1
210
0
220
0
230
1
3
Standard
100
AcDbAlignedDimension
13
92
23
0
33
0
14
89.657
24
-7.85
34
0
50
0
100
AcDbRotatedDimension
1001
ACAD
1000
DSTYLE
1002
{
1070
   371
1070
    13
1070
   372
1070
    13
1070
   170
1070
     0
1070
   144
1040
1.0
1070
   277
1070
     2
1070
   278
1070
    44
1070
   146
1040
1.0
1070
   345
1005
16
1070
   347
1005
16
1070
   346
1005
16
1070
   344
1005
0
1070
   343
1005
0
1070
   172
1070
     1
1070
    76
1070
     0
1070
    75
1070
     0
1070
   282
1070
     0
1070
   281
1070
     0
1070
    71
1070
     0
1070
    74
1070
     0
1070
   279
1070
     0
1070
   173
1070
     1
1070
   340
1005
FF
1070
   271
1070
     2
1070
   272
1070
     2
1070
    77
1070
     1
1070
    73
1070
     1
1070
   171
1070
     3
1070
   274
1070
     4
1070
   177
1070
    35
1070
   176
1070
    35
1070
   178
1070
    35
1070
    48
1040
-0.1
1070
    41
1040
3.5
1070
   147
1040
1.75
1070
    42
1040
1.5875
1070
    44
1040
2.0
1070
   140
1040
3.5
1002
}
1001
ACAD_DSTYLE_DIM_LINETYPE
1070
   380
1005
16
1001
ACAD_DSTYLE_DIM_EXT1_LINETYPE
1070
   381
1005
16
1001
ACAD_DSTYLE_DIM_EXT2_LINETYPE
1070
   382
1005
16
0
DIMENSION
5
18D
100
AcDbEntity
8
SK2
62
256
6
ByLayer
370
13
48
1
60
0
100
AcDbDimension
2
_U4
10
42.557
20
11.985371
30
0
11
66.107
21
11.985371
31
0
70
32
71
1
72
1
41
1
210
0
220
0
230
1
3
Standard
100
AcDbAlignedDimension
13
89.657
23
7.85
33
0
14
42.557
24
7.85
34
0
50
0
100
AcDbRotatedDimension
1001
ACAD
1000
DSTYLE
1002
{
1070
   371
1070
    13
1070
   372
1070
    13
1070
   170
1070
     0
1070
   144
1040
1.0
1070
   277
1070
     2
1070
   278
1070
    44
1070
   146
1040
1.0
1070
   345
1005
16
1070
   347
1005
16
1070
   346
1005
16
1070
   344
1005
0
1070
   343
1005
0
1070
   172
1070
     1
1070
    76
1070
     0
1070
    75
1070
     0
1070
   282
1070
     0
1070
   281
1070
     0
1070
    71
1070
     0
1070
    74
1070
     0
1070
   279
1070
     0
1070
   173
1070
     1
1070
   340
1005
FF
1070
   271
1070
     2
1070
   272
1070
     2
1070
    77
1070
     1
1070
    73
1070
     1
1070
   171
1070
     3
1070
   274
1070
     4
1070
   177
1070
    35
1070
   176
1070
    35
1070
   178
1070
    35
1070
    48
1040
-0.1
1070
    41
1040
3.5
1070
   147
1040
1.75
1070
    42
1040
1.5875
1070
    44
1040
2.0
1070
   140
1040
3.5
1002
}
1001
ACAD_DSTYLE_DIM_LINETYPE
1070
   380
1005
16
1001
ACAD_DSTYLE_DIM_EXT1_LINETYPE
1070
   381
1005
16
1001
ACAD_DSTYLE_DIM_EXT2_LINETYPE
1070
   382
1005
16
0
DIMENSION
5
1A5
100
AcDbEntity
8
SK2
62
256
6
ByLayer
370
13
48
1
60
0
100
AcDbDimension
2
_U5
10
89.657
20
-30.690158
30
0
11
19.8285
21
-30.690158
31
0
70
32
71
1
72
1
41
1
210
0
220
0
230
1
3
Standard
100
AcDbAlignedDimension
13
-50
23
-10
33
0
14
89.657
24
-7.85
34
0
50
0
100
AcDbRotatedDimension
1001
ACAD
1000
DSTYLE
1002
{
1070
   371
1070
    13
1070
   372
1070
    13
1070
   170
1070
     0
1070
   144
1040
1.0
1070
   277
1070
     2
1070
   278
1070
    44
1070
   146
1040
1.0
1070
   345
1005
16
1070
   347
1005
16
1070
   346
1005
16
1070
   344
1005
0
1070
   343
1005
0
1070
   172
1070
     1
1070
    76
1070
     0
1070
    75
1070
     0
1070
   282
1070
     0
1070
   281
1070
     0
1070
    71
1070
     0
1070
    74
1070
     0
1070
   279
1070
     0
1070
   173
1070
     1
1070
   340
1005
FF
1070
   271
1070
     2
1070
   272
1070
     2
1070
    77
1070
     1
1070
    73
1070
     1
1070
   171
1070
     3
1070
   274
1070
     4
1070
   177
1070
    35
1070
   176
1070
    35
1070
   178
1070
    35
1070
    48
1040
-0.1
1070
    41
1040
3.5
1070
   147
1040
1.75
1070
    42
1040
1.5875
1070
    44
1040
2.0
1070
   140
1040
3.5
1002
}
1001
ACAD_DSTYLE_DIM_LINETYPE
1070
   380
1005
16
1001
ACAD_DSTYLE_DIM_EXT1_LINETYPE
1070
   381
1005
16
1001
ACAD_DSTYLE_DIM_EXT2_LINETYPE
1070
   382
1005
16
0
ENDSEC
0
SECTION
2
OBJECTS
0
DICTIONARY
5
22d
330
0
100
AcDbDictionary
280
0
281
1
3
ACAD_GROUP
350
22e
3
ACAD_MLINESTYLE
350
22f
0
DICTIONARY
5
22e
330
0
100
AcDbDictionary
280
0
281
1
0
DICTIONARY
5
22f
330
0
100
AcDbDictionary
280
0
281
1
3
Standard
350
18
0
MLINESTYLE
5
18
330
22f
100
AcDbMlineStyle
2
Standard
70
0
3

62
256
51
90
52
90
71
2
49
-0.5
62
256
6
ByLayer
49
0.5
62
256
6
ByLayer
0
RASTERVARIABLES
5
21b
330

100
AcDbRasterVariables
90
0
70
1
71
1
72
1
0
ENDSEC
0
EOF
