0
SECTION
2
HEADER
9
$ACADVER
1
AC1015
9
$DWGCODEPAGE
3
ANSI_1252
9
$HANDSEED
5
23f
9
$ANGBASE
50
0
9
$ANGDIR
70
0
9
$ATTMODE
70
1
9
$AUNITS
70
0
9
$AUPREC
70
0
9
$CECOLOR
62
256
9
$CELTSCALE
40
1
9
$CELTYPE
6
ByLayer
9
$CELWEIGHT
370
18
9
$CLAYER
8
0
9
$CMLJUST
70
0
9
$CMLSCALE
40
1
9
$CMLSTYLE
2
Standard
9
$DIMSTYLE
2
Standard
9
$TEXTSIZE
40
0.2
9
$TEXTSTYLE
7
Standard
9
$LUNITS
70
2
9
$LUPREC
70
4
9
$EXTNAMES
290
1
9
$INSUNITS
70
4
9
$LTSCALE
40
1
9
$LWDISPLAY
290
1
9
$PDMODE
70
0
9
$PDSIZE
40
0
9
$PLINEGEN
70
0
0
ENDSEC
0
SECTION
2
CLASSES
0
CLASS
1
RASTERVARIABLES
2
AcDbRasterVariables
3
ISM
90
0
280
0
281
0
0
ENDSEC
0
SECTION
2
TABLES
0
TABLE
2
VPORT
5
235
100
AcDbSymbolTable
0
VPORT
5
1
100
AcDbSymbolTableRecord
100
AcDbViewportTableRecord
2
*Active
70
0
10
0
20
0
11
1
21
1
12
-1
22
1
13
0
23
0
14
0.5
24
0.5
15
10
25
10
16
0
26
0
36
1
17
0
27
0
37
0
0
ENDTAB
0
TABLE
2
LTYPE
5
236
100
AcDbSymbolTable
0
LTYPE
5
14
100
AcDbSymbolTableRecord
100
AcDbLinetypeTableRecord
70
0
2
ByBlock
3

72
65
73
0
40
0
0
LTYPE
5
15
100
AcDbSymbolTableRecord
100
AcDbLinetypeTableRecord
70
0
2
ByLayer
3

72
65
73
0
40
0
0
LTYPE
5
16
100
AcDbSymbolTableRecord
100
AcDbLinetypeTableRecord
70
0
2
Continuous
3
Solid line
72
65
73
0
40
0
0
LTYPE
5
6E
100
AcDbSymbolTableRecord
100
AcDbLinetypeTableRecord
70
0
2
CENTER
3
____ _ ____ _ ____ _ ____
72
65
73
4
40
47.5
49
22
74
0
49
-8.5
74
0
49
8.5
74
0
49
-8.5
74
0
0
LTYPE
5
6F
100
AcDbSymbolTableRecord
100
AcDbLinetypeTableRecord
70
0
2
DASHED
3
__ __ __ __ __ __ __ __ __
72
65
73
2
40
25.72
49
12.86
74
0
49
-12.86
74
0
0
ENDTAB
0
TABLE
2
LAYER
5
237
100
AcDbSymbolTable
0
LAYER
5
10
100
AcDbSymbolTableRecord
100
AcDbLayerTableRecord
2
0
70
0
62
7
6
Continuous
290
1
370
-3
390
0
0
LAYER
5
71
100
AcDbSymbolTableRecord
100
AcDbLayerTableRecord
2
80
70
0
62
-6
6
Continuous
290
1
370
-3
390
0
0
LAYER
5
73
100
AcDbSymbolTableRecord
100
AcDbLayerTableRecord
2
81
70
0
62
-3
6
Continuous
290
1
370
-3
390
0
0
LAYER
5
75
100
AcDbSymbolTableRecord
100
AcDbLayerTableRecord
2
1
70
0
62
4
6
Continuous
290
1
370
-3
390
0
0
LAYER
5
8D
100
AcDbSymbolTableRecord
100
AcDbLayerTableRecord
2
4
70
0
62
-2
6
CENTER
290
1
370
-3
390
0
0
LAYER
5
9C
100
AcDbSymbolTableRecord
100
AcDbLayerTableRecord
2
2
70
0
62
7
6
Continuous
290
1
370
-3
390
0
0
LAYER
5
132
100
AcDbSymbolTableRecord
100
AcDbLayerTableRecord
2
Defpoints
70
0
62
7
6
Continuous
290
0
370
-3
390
0
0
LAYER
5
221
100
AcDbSymbolTableRecord
100
AcDbLayerTableRecord
2
SK1
70
0
62
4
6
Continuous
290
1
370
-3
390
0
0
LAYER
5
222
100
AcDbSymbolTableRecord
100
AcDbLayerTableRecord
2
SK4
70
0
62
2
6
CENTER
290
1
370
-3
390
0
0
LAYER
5
223
100
AcDbSymbolTableRecord
100
AcDbLayerTableRecord
2
SK2
70
0
62
7
6
Continuous
290
1
370
-3
390
0
0
LAYER
5
224
100
AcDbSymbolTableRecord
100
AcDbLayerTableRecord
2
SK6
70
0
62
5
6
Continuous
290
1
370
-3
390
0
0
ENDTAB
0
TABLE
2
STYLE
5
238
100
AcDbSymbolTable
0
STYLE
5
11
100
AcDbSymbolTableRecord
100
AcDbTextStyleTableRecord
2
Standard
3
txt
70
0
71
0
40
0
41
1
42
0
50
0
0
STYLE
5
104
100
AcDbSymbolTableRecord
100
AcDbTextStyleTableRecord
2
iso_b_vert
3
simplex.shx
70
0
71
0
40
0
41
1
42
0
50
0
0
STYLE
5
105
100
AcDbSymbolTableRecord
100
AcDbTextStyleTableRecord
2
DWGDirectTextStyle
3
simplex
70
0
71
0
40
0
41
1
42
0
50
0
0
ENDTAB
0
TABLE
2
DIMSTYLE
5
239
100
AcDbSymbolTable
100
AcDbDimStyleTable
0
DIMSTYLE
105
27
100
AcDbSymbolTableRecord
100
AcDbDimStyleTableRecord
2
Standard
70
0
3
<>
41
0.18
42
0.0625
44
0.18
140
0.18
147
0.09
73
0
74
0
77
1
271
2
275
0
278
52
280
0
340
11
0
ENDTAB
0
TABLE
2
VIEW
5
23a
100
AcDbSymbolTable
0
ENDTAB
0
TABLE
2
UCS
5
23b
100
AcDbSymbolTable
0
ENDTAB
0
TABLE
2
APPID
5
23c
100
AcDbSymbolTable
0
APPID
5
12
100
AcDbSymbolTableRecord
100
AcDbRegAppTableRecord
2
ACAD
70
0
0
APPID
5
12E
100
AcDbSymbolTableRecord
100
AcDbRegAppTableRecord
2
ACAD_DSTYLE_DIMBREAK
70
0
0
APPID
5
1E0
100
AcDbSymbolTableRecord
100
AcDbRegAppTableRecord
2
ACAD_DSTYLE_DIM_LINETYPE
70
0
0
APPID
5
1E1
100
AcDbSymbolTableRecord
100
AcDbRegAppTableRecord
2
ACAD_DSTYLE_DIM_EXT1_LINETYPE
70
0
0
APPID
5
1E2
100
AcDbSymbolTableRecord
100
AcDbRegAppTableRecord
2
ACAD_DSTYLE_DIM_EXT2_LINETYPE
70
0
0
APPID
5
21D
100
AcDbSymbolTableRecord
100
AcDbRegAppTableRecord
2
ACAD_MLEADERVER
70
0
0
ENDTAB
0
TABLE
2
BLOCK_RECORD
5
23d
100
AcDbSymbolTable
0
BLOCK_RECORD
5
1F
100
AcDbSymbolTableRecord
100
AcDbBlockTableRecord
2
*Model_Space
340
0
70
0
0
BLOCK_RECORD
5
1B
100
AcDbSymbolTableRecord
100
AcDbBlockTableRecord
2
*Paper_Space
340
0
70
0
0
BLOCK_RECORD
5
23
100
AcDbSymbolTableRecord
100
AcDbBlockTableRecord
2
*Paper_Space0
340
0
70
0
0
BLOCK_RECORD
5
133
100
AcDbSymbolTableRecord
100
AcDbBlockTableRecord
2
*D1
340
0
70
0
0
BLOCK_RECORD
5
13F
100
AcDbSymbolTableRecord
100
AcDbBlockTableRecord
2
_U0
340
0
70
0
0
BLOCK_RECORD
5
14B
100
AcDbSymbolTableRecord
100
AcDbBlockTableRecord
2
*D3
340
0
70
0
0
BLOCK_RECORD
5
157
100
AcDbSymbolTableRecord
100
AcDbBlockTableRecord
2
_U1
340
0
70
0
0
BLOCK_RECORD
5
163
100
AcDbSymbolTableRecord
100
AcDbBlockTableRecord
2
*D5
340
0
70
0
0
BLOCK_RECORD
5
16F
100
AcDbSymbolTableRecord
100
AcDbBlockTableRecord
2
_U2
340
0
70
0
0
BLOCK_RECORD
5
17B
100
AcDbSymbolTableRecord
100
AcDbBlockTableRecord
2
*D7
340
0
70
0
0
BLOCK_RECORD
5
189
100
AcDbSymbolTableRecord
100
AcDbBlockTableRecord
2
_U3
340
0
70
0
0
BLOCK_RECORD
5
195
100
AcDbSymbolTableRecord
100
AcDbBlockTableRecord
2
*D9
340
0
70
0
0
BLOCK_RECORD
5
1A1
100
AcDbSymbolTableRecord
100
AcDbBlockTableRecord
2
_U4
340
0
70
0
0
BLOCK_RECORD
5
1AD
100
AcDbSymbolTableRecord
100
AcDbBlockTableRecord
2
*D11
340
0
70
0
0
BLOCK_RECORD
5
1B9
100
AcDbSymbolTableRecord
100
AcDbBlockTableRecord
2
_U5
340
0
70
0
0
ENDTAB
0
ENDSEC
0
SECTION
2
BLOCKS
0
BLOCK
5
20
100
AcDbEntity
8
0
100
AcDbBlockBegin
2
*Model_Space
70
0
10
0
20
0
30
0
3
*Model_Space
0
ENDBLK
5
21
100
AcDbEntity
8
0
100
AcDbBlockEnd
0
BLOCK
5
1C
100
AcDbEntity
8
0
100
AcDbBlockBegin
2
*Paper_Space
70
0
10
0
20
0
30
0
3
*Paper_Space
0
ENDBLK
5
1D
100
AcDbEntity
8
0
100
AcDbBlockEnd
0
BLOCK
5
24
100
AcDbEntity
8
0
100
AcDbBlockBegin
2
*Paper_Space0
70
0
10
0
20
0
30
0
3
*Paper_Space0
0
ENDBLK
5
25
100
AcDbEntity
8
0
100
AcDbBlockEnd
0
BLOCK
5
134
100
AcDbEntity
8
0
100
AcDbBlockBegin
2
*D1
70
1
10
0
20
0
30
0
3
*D1
0
LINE
5
136
100
AcDbEntity
8
0
62
256
6
ByLayer
370
-2
48
1
60
0
100
AcDbLine
10
0
20
-1.5875
30
0
11
0
21
-22.202503
31
0
39
0
210
0
220
0
230
1
0
LINE
5
137
100
AcDbEntity
8
0
62
256
6
ByLayer
370
-2
48
1
60
0
100
AcDbLine
10
89.7926
20
-8.9875
30
0
11
89.7926
21
-22.202503
31
0
39
0
210
0
220
0
230
1
0
LINE
5
138
100
AcDbEntity
8
0
62
256
6
ByLayer
370
-2
48
1
60
0
100
AcDbLine
10
3.5
20
-20.202503
30
0
11
86.2926
21
-20.202503
31
0
39
0
210
0
220
0
230
1
0
SOLID
5
139
100
AcDbEntity
8
0
62
256
6
ByLayer
370
-1
48
1
60
0
100
AcDbTrace
10
3.5
20
-19.61917
30
0
11
3.5
21
-20.785837
31
0
12
0
22
-20.202503
32
0
13
0
23
-20.202503
33
0
39
0
210
0
220
0
230
1
0
SOLID
5
13A
100
AcDbEntity
8
0
62
256
6
ByLayer
370
-1
48
1
60
0
100
AcDbTrace
10
86.2926
20
-20.785837
30
0
11
86.2926
21
-19.61917
31
0
12
89.7926
22
-20.202503
32
0
13
89.7926
23
-20.202503
33
0
39
0
210
0
220
0
230
1
0
MTEXT
5
13B
100
AcDbEntity
8
0
62
256
6
ByLayer
370
18
48
1
60
0
100
AcDbMText
10
44.8963
20
-13.202503
30
0
210
0
220
0
230
1
1
\A1;89.79
40
3.5
41
0
44
1
50
0
71
5
72
5
7
iso_b_vert
0
POINT
5
13C
100
AcDbEntity
8
Defpoints
62
0
6
ByLayer
370
-1
48
1
60
0
100
AcDbPoint
10
0
20
0
30
0
39
0
210
0
220
0
230
1
50
360
0
POINT
5
13D
100
AcDbEntity
8
Defpoints
62
0
6
ByLayer
370
-1
48
1
60
0
100
AcDbPoint
10
89.7926
20
-7.4
30
0
39
0
210
0
220
0
230
1
50
360
0
POINT
5
13E
100
AcDbEntity
8
Defpoints
62
0
6
ByLayer
370
-1
48
1
60
0
100
AcDbPoint
10
89.7926
20
-20.202503
30
0
39
0
210
0
220
0
230
1
50
360
0
ENDBLK
5
135
100
AcDbEntity
8
0
100
AcDbBlockEnd
0
BLOCK
5
146
100
AcDbEntity
8
0
100
AcDbBlockBegin
2
_U0
70
0
10
0
20
0
30
0
3
_U0
0
MTEXT
5
140
100
AcDbEntity
8
SK2
62
256
6
ByLayer
370
13
48
1
60
0
100
AcDbMText
10
39.759001
20
-19.16987
30
0
210
0
220
0
230
1
1
\W0.7402;89,79
40
3.5
41
0
44
1.084337
50
0
71
7
72
5
7
iso_b_vert
0
LINE
5
141
100
AcDbEntity
8
SK2
62
256
6
ByLayer
370
13
48
1
60
0
100
AcDbLine
10
0
20
-1.5875
30
0
11
0
21
-22.202503
31
0
39
0
210
0
220
0
230
1
0
LINE
5
142
100
AcDbEntity
8
SK2
62
256
6
ByLayer
370
13
48
1
60
0
100
AcDbLine
10
89.7926
20
-8.9875
30
0
11
89.7926
21
-22.202503
31
0
39
0
210
0
220
0
230
1
0
LINE
5
143
100
AcDbEntity
8
SK2
62
256
6
ByLayer
370
13
48
1
60
0
100
AcDbLine
10
0
20
-20.202503
30
0
11
89.7926
21
-20.202503
31
0
39
0
210
0
220
0
230
1
0
SOLID
5
144
100
AcDbEntity
8
SK2
62
256
6
ByLayer
370
18
48
1
60
0
100
AcDbTrace
10
0
20
-20.202503
30
0
11
3.499998
21
-19.741719
31
0
12
3.500002
22
-20.663287
32
0
13
3.500002
23
-20.663287
33
0
39
0
210
0
220
0
230
1
0
SOLID
5
145
100
AcDbEntity
8
SK2
62
256
6
ByLayer
370
18
48
1
60
0
100
AcDbTrace
10
89.7926
20
-20.202503
30
0
11
86.292602
21
-20.663287
31
0
12
86.292598
22
-19.741719
32
0
13
86.292598
23
-19.741719
33
0
39
0
210
0
220
0
230
1
0
ENDBLK
5
147
100
AcDbEntity
8
0
100
AcDbBlockEnd
0
BLOCK
5
14C
100
AcDbEntity
8
0
100
AcDbBlockBegin
2
*D3
70
1
10
0
20
0
30
0
3
*D3
0
LINE
5
14E
100
AcDbEntity
8
0
62
256
6
ByLayer
370
-2
48
1
60
0
100
AcDbLine
10
-50
20
-11.5875
30
0
11
-50
21
-43.192985
31
0
39
0
210
0
220
0
230
1
0
LINE
5
14F
100
AcDbEntity
8
0
62
256
6
ByLayer
370
-2
48
1
60
0
100
AcDbLine
10
92
20
-1.5875
30
0
11
92
21
-43.192985
31
0
39
0
210
0
220
0
230
1
0
LINE
5
150
100
AcDbEntity
8
0
62
256
6
ByLayer
370
-2
48
1
60
0
100
AcDbLine
10
-46.5
20
-41.192985
30
0
11
88.5
21
-41.192985
31
0
39
0
210
0
220
0
230
1
0
SOLID
5
151
100
AcDbEntity
8
0
62
256
6
ByLayer
370
-1
48
1
60
0
100
AcDbTrace
10
-46.5
20
-40.609652
30
0
11
-46.5
21
-41.776319
31
0
12
-50
22
-41.192985
32
0
13
-50
23
-41.192985
33
0
39
0
210
0
220
0
230
1
0
SOLID
5
152
100
AcDbEntity
8
0
62
256
6
ByLayer
370
-1
48
1
60
0
100
AcDbTrace
10
88.5
20
-41.776319
30
0
11
88.5
21
-40.609652
31
0
12
92
22
-41.192985
32
0
13
92
23
-41.192985
33
0
39
0
210
0
220
0
230
1
0
MTEXT
5
153
100
AcDbEntity
8
0
62
256
6
ByLayer
370
18
48
1
60
0
100
AcDbMText
10
21
20
-34.192985
30
0
210
0
220
0
230
1
1
\A1;142.00
40
3.5
41
0
44
1
50
0
71
5
72
5
7
iso_b_vert
0
POINT
5
154
100
AcDbEntity
8
Defpoints
62
0
6
ByLayer
370
-1
48
1
60
0
100
AcDbPoint
10
-50
20
-10
30
0
39
0
210
0
220
0
230
1
50
360
0
POINT
5
155
100
AcDbEntity
8
Defpoints
62
0
6
ByLayer
370
-1
48
1
60
0
100
AcDbPoint
10
92
20
0
30
0
39
0
210
0
220
0
230
1
50
360
0
POINT
5
156
100
AcDbEntity
8
Defpoints
62
0
6
ByLayer
370
-1
48
1
60
0
100
AcDbPoint
10
92
20
-41.192985
30
0
39
0
210
0
220
0
230
1
50
360
0
ENDBLK
5
14D
100
AcDbEntity
8
0
100
AcDbBlockEnd
0
BLOCK
5
15E
100
AcDbEntity
8
0
100
AcDbBlockBegin
2
_U1
70
0
10
0
20
0
30
0
3
_U1
0
MTEXT
5
158
100
AcDbEntity
8
SK2
62
256
6
ByLayer
370
13
48
1
60
0
100
AcDbMText
10
14.808135
20
-40.160352
30
0
210
0
220
0
230
1
1
\W0.7145;142,00
40
3.5
41
0
44
1.084337
50
0
71
7
72
5
7
iso_b_vert
0
LINE
5
159
100
AcDbEntity
8
SK2
62
256
6
ByLayer
370
13
48
1
60
0
100
AcDbLine
10
-50
20
-11.5875
30
0
11
-50
21
-43.192985
31
0
39
0
210
0
220
0
230
1
0
LINE
5
15A
100
AcDbEntity
8
SK2
62
256
6
ByLayer
370
13
48
1
60
0
100
AcDbLine
10
92
20
-1.5875
30
0
11
92
21
-43.192985
31
0
39
0
210
0
220
0
230
1
0
LINE
5
15B
100
AcDbEntity
8
SK2
62
256
6
ByLayer
370
13
48
1
60
0
100
AcDbLine
10
-50
20
-41.192985
30
0
11
92
21
-41.192985
31
0
39
0
210
0
220
0
230
1
0
SOLID
5
15C
100
AcDbEntity
8
SK2
62
256
6
ByLayer
370
18
48
1
60
0
100
AcDbTrace
10
-50
20
-41.192985
30
0
11
-46.500002
21
-40.732202
31
0
12
-46.499998
22
-41.653769
32
0
13
-46.499998
23
-41.653769
33
0
39
0
210
0
220
0
230
1
0
SOLID
5
15D
100
AcDbEntity
8
SK2
62
256
6
ByLayer
370
18
48
1
60
0
100
AcDbTrace
10
92
20
-41.192985
30
0
11
88.500002
21
-41.653769
31
0
12
88.499998
22
-40.732202
32
0
13
88.499998
23
-40.732202
33
0
39
0
210
0
220
0
230
1
0
ENDBLK
5
15F
100
AcDbEntity
8
0
100
AcDbBlockEnd
0
BLOCK
5
164
100
AcDbEntity
8
0
100
AcDbBlockBegin
2
*D5
70
1
10
0
20
0
30
0
3
*D5
0
LINE
5
166
100
AcDbEntity
8
0
62
256
6
ByLayer
370
-2
48
1
60
0
100
AcDbLine
10
42.8
20
11.5775
30
0
11
42.8
21
21.009119
31
0
39
0
210
0
220
0
230
1
0
LINE
5
167
100
AcDbEntity
8
0
62
256
6
ByLayer
370
-2
48
1
60
0
100
AcDbLine
10
92
20
1.5875
30
0
11
92
21
21.009119
31
0
39
0
210
0
220
0
230
1
0
LINE
5
168
100
AcDbEntity
8
0
62
256
6
ByLayer
370
-2
48
1
60
0
100
AcDbLine
10
46.3
20
19.009119
30
0
11
88.5
21
19.009119
31
0
39
0
210
0
220
0
230
1
0
SOLID
5
169
100
AcDbEntity
8
0
62
256
6
ByLayer
370
-1
48
1
60
0
100
AcDbTrace
10
46.3
20
19.592453
30
0
11
46.3
21
18.425786
31
0
12
42.8
22
19.009119
32
0
13
42.8
23
19.009119
33
0
39
0
210
0
220
0
230
1
0
SOLID
5
16A
100
AcDbEntity
8
0
62
256
6
ByLayer
370
-1
48
1
60
0
100
AcDbTrace
10
88.5
20
18.425786
30
0
11
88.5
21
19.592453
31
0
12
92
22
19.009119
32
0
13
92
23
19.009119
33
0
39
0
210
0
220
0
230
1
0
MTEXT
5
16B
100
AcDbEntity
8
0
62
256
6
ByLayer
370
18
48
1
60
0
100
AcDbMText
10
67.4
20
26.009119
30
0
210
0
220
0
230
1
1
\A1;49.20
40
3.5
41
0
44
1
50
0
71
5
72
5
7
iso_b_vert
0
POINT
5
16C
100
AcDbEntity
8
Defpoints
62
0
6
ByLayer
370
-1
48
1
60
0
100
AcDbPoint
10
42.8
20
9.99
30
0
39
0
210
0
220
0
230
1
50
360
0
POINT
5
16D
100
AcDbEntity
8
Defpoints
62
0
6
ByLayer
370
-1
48
1
60
0
100
AcDbPoint
10
92
20
0
30
0
39
0
210
0
220
0
230
1
50
360
0
POINT
5
16E
100
AcDbEntity
8
Defpoints
62
0
6
ByLayer
370
-1
48
1
60
0
100
AcDbPoint
10
92
20
19.009119
30
0
39
0
210
0
220
0
230
1
50
360
0
ENDBLK
5
165
100
AcDbEntity
8
0
100
AcDbBlockEnd
0
BLOCK
5
176
100
AcDbEntity
8
0
100
AcDbBlockBegin
2
_U2
70
0
10
0
20
0
30
0
3
_U2
0
MTEXT
5
170
100
AcDbEntity
8
SK2
62
256
6
ByLayer
370
13
48
1
60
0
100
AcDbMText
10
62.078435
20
20.041753
30
0
210
0
220
0
230
1
1
\W0.7581;49,20
40
3.5
41
0
44
1.084337
50
0
71
7
72
5
7
iso_b_vert
0
LINE
5
171
100
AcDbEntity
8
SK2
62
256
6
ByLayer
370
13
48
1
60
0
100
AcDbLine
10
42.8
20
11.5775
30
0
11
42.8
21
21.009119
31
0
39
0
210
0
220
0
230
1
0
LINE
5
172
100
AcDbEntity
8
SK2
62
256
6
ByLayer
370
13
48
1
60
0
100
AcDbLine
10
92
20
1.5875
30
0
11
92
21
21.009119
31
0
39
0
210
0
220
0
230
1
0
LINE
5
173
100
AcDbEntity
8
SK2
62
256
6
ByLayer
370
13
48
1
60
0
100
AcDbLine
10
42.8
20
19.009119
30
0
11
92
21
19.009119
31
0
39
0
210
0
220
0
230
1
0
SOLID
5
174
100
AcDbEntity
8
SK2
62
256
6
ByLayer
370
18
48
1
60
0
100
AcDbTrace
10
42.8
20
19.009119
30
0
11
46.299998
21
19.469903
31
0
12
46.300002
22
18.548335
32
0
13
46.300002
23
18.548335
33
0
39
0
210
0
220
0
230
1
0
SOLID
5
175
100
AcDbEntity
8
SK2
62
256
6
ByLayer
370
18
48
1
60
0
100
AcDbTrace
10
92
20
19.009119
30
0
11
88.500002
21
18.548335
31
0
12
88.499998
22
19.469903
32
0
13
88.499998
23
19.469903
33
0
39
0
210
0
220
0
230
1
0
ENDBLK
5
177
100
AcDbEntity
8
0
100
AcDbBlockEnd
0
BLOCK
5
17C
100
AcDbEntity
8
0
100
AcDbBlockBegin
2
*D7
70
1
10
0
20
0
30
0
3
*D7
0
LINE
5
17E
100
AcDbEntity
8
0
62
256
6
ByLayer
370
-2
48
1
60
0
100
AcDbLine
10
92
20
-1.5875
30
0
11
92
21
-22.202503
31
0
39
0
210
0
220
0
230
1
0
LINE
5
17F
100
AcDbEntity
8
0
62
256
6
ByLayer
370
-2
48
1
60
0
100
AcDbLine
10
89.7926
20
-8.9875
30
0
11
89.7926
21
-22.202503
31
0
39
0
210
0
220
0
230
1
0
LINE
5
180
100
AcDbEntity
8
0
62
256
6
ByLayer
370
-2
48
1
60
0
100
AcDbLine
10
92
20
-20.202503
30
0
11
119.166667
21
-20.202503
31
0
39
0
210
0
220
0
230
1
0
LINE
5
181
100
AcDbEntity
8
0
62
256
6
ByLayer
370
-2
48
1
60
0
100
AcDbLine
10
95.5
20
-20.202503
30
0
11
99
21
-20.202503
31
0
39
0
210
0
220
0
230
1
0
LINE
5
182
100
AcDbEntity
8
0
62
256
6
ByLayer
370
-2
48
1
60
0
100
AcDbLine
10
86.2926
20
-20.202503
30
0
11
82.7926
21
-20.202503
31
0
39
0
210
0
220
0
230
1
0
SOLID
5
183
100
AcDbEntity
8
0
62
256
6
ByLayer
370
-1
48
1
60
0
100
AcDbTrace
10
95.5
20
-19.61917
30
0
11
95.5
21
-20.785837
31
0
12
92
22
-20.202503
32
0
13
92
23
-20.202503
33
0
39
0
210
0
220
0
230
1
0
SOLID
5
184
100
AcDbEntity
8
0
62
256
6
ByLayer
370
-1
48
1
60
0
100
AcDbTrace
10
86.2926
20
-20.785837
30
0
11
86.2926
21
-19.61917
31
0
12
89.7926
22
-20.202503
32
0
13
89.7926
23
-20.202503
33
0
39
0
210
0
220
0
230
1
0
MTEXT
5
185
100
AcDbEntity
8
0
62
256
6
ByLayer
370
18
48
1
60
0
100
AcDbMText
10
109.083333
20
-13.202503
30
0
210
0
220
0
230
1
1
\A1;2.21
40
3.5
41
0
44
1
50
0
71
5
72
5
7
iso_b_vert
0
POINT
5
186
100
AcDbEntity
8
Defpoints
62
0
6
ByLayer
370
-1
48
1
60
0
100
AcDbPoint
10
92
20
0
30
0
39
0
210
0
220
0
230
1
50
360
0
POINT
5
187
100
AcDbEntity
8
Defpoints
62
0
6
ByLayer
370
-1
48
1
60
0
100
AcDbPoint
10
89.7926
20
-7.4
30
0
39
0
210
0
220
0
230
1
50
360
0
POINT
5
188
100
AcDbEntity
8
Defpoints
62
0
6
ByLayer
370
-1
48
1
60
0
100
AcDbPoint
10
89.7926
20
-20.202503
30
0
39
0
210
0
220
0
230
1
50
360
0
ENDBLK
5
17D
100
AcDbEntity
8
0
100
AcDbBlockEnd
0
BLOCK
5
190
100
AcDbEntity
8
0
100
AcDbBlockBegin
2
_U3
70
0
10
0
20
0
30
0
3
_U3
0
MTEXT
5
18A
100
AcDbEntity
8
SK2
62
256
6
ByLayer
370
13
48
1
60
0
100
AcDbMText
10
98.589293
20
-19.16987
30
0
210
0
220
0
230
1
1
\W0.6993;2,21
40
3.5
41
0
44
1.084337
50
0
71
7
72
5
7
iso_b_vert
0
LINE
5
18B
100
AcDbEntity
8
SK2
62
256
6
ByLayer
370
13
48
1
60
0
100
AcDbLine
10
92
20
-1.5875
30
0
11
92
21
-22.202503
31
0
39
0
210
0
220
0
230
1
0
LINE
5
18C
100
AcDbEntity
8
SK2
62
256
6
ByLayer
370
13
48
1
60
0
100
AcDbLine
10
89.7926
20
-8.9875
30
0
11
89.7926
21
-22.202503
31
0
39
0
210
0
220
0
230
1
0
LINE
5
18D
100
AcDbEntity
8
SK2
62
256
6
ByLayer
370
13
48
1
60
0
100
AcDbLine
10
81.0426
20
-20.202503
30
0
11
105.559058
21
-20.202503
31
0
39
0
210
0
220
0
230
1
0
SOLID
5
18E
100
AcDbEntity
8
SK2
62
256
6
ByLayer
370
18
48
1
60
0
100
AcDbTrace
10
92
20
-20.202503
30
0
11
95.499998
21
-19.741719
31
0
12
95.500002
22
-20.663287
32
0
13
95.500002
23
-20.663287
33
0
39
0
210
0
220
0
230
1
0
SOLID
5
18F
100
AcDbEntity
8
SK2
62
256
6
ByLayer
370
18
48
1
60
0
100
AcDbTrace
10
89.7926
20
-20.202503
30
0
11
86.292602
21
-20.663287
31
0
12
86.292598
22
-19.741719
32
0
13
86.292598
23
-19.741719
33
0
39
0
210
0
220
0
230
1
0
ENDBLK
5
191
100
AcDbEntity
8
0
100
AcDbBlockEnd
0
BLOCK
5
196
100
AcDbEntity
8
0
100
AcDbBlockBegin
2
*D9
70
1
10
0
20
0
30
0
3
*D9
0
LINE
5
198
100
AcDbEntity
8
0
62
256
6
ByLayer
370
-2
48
1
60
0
100
AcDbLine
10
89.7926
20
8.9875
30
0
11
89.7926
21
13.535371
31
0
39
0
210
0
220
0
230
1
0
LINE
5
199
100
AcDbEntity
8
0
62
256
6
ByLayer
370
-2
48
1
60
0
100
AcDbLine
10
45.3926
20
8.9875
30
0
11
45.3926
21
13.535371
31
0
39
0
210
0
220
0
230
1
0
LINE
5
19A
100
AcDbEntity
8
0
62
256
6
ByLayer
370
-2
48
1
60
0
100
AcDbLine
10
86.2926
20
11.535371
30
0
11
48.8926
21
11.535371
31
0
39
0
210
0
220
0
230
1
0
SOLID
5
19B
100
AcDbEntity
8
0
62
256
6
ByLayer
370
-1
48
1
60
0
100
AcDbTrace
10
86.2926
20
10.952038
30
0
11
86.2926
21
12.118705
31
0
12
89.7926
22
11.535371
32
0
13
89.7926
23
11.535371
33
0
39
0
210
0
220
0
230
1
0
SOLID
5
19C
100
AcDbEntity
8
0
62
256
6
ByLayer
370
-1
48
1
60
0
100
AcDbTrace
10
48.8926
20
12.118705
30
0
11
48.8926
21
10.952038
31
0
12
45.3926
22
11.535371
32
0
13
45.3926
23
11.535371
33
0
39
0
210
0
220
0
230
1
0
MTEXT
5
19D
100
AcDbEntity
8
0
62
256
6
ByLayer
370
18
48
1
60
0
100
AcDbMText
10
67.5926
20
18.535371
30
0
210
0
220
0
230
1
1
\A1;44.40
40
3.5
41
0
44
1
50
0
71
5
72
5
7
iso_b_vert
0
POINT
5
19E
100
AcDbEntity
8
Defpoints
62
0
6
ByLayer
370
-1
48
1
60
0
100
AcDbPoint
10
89.7926
20
7.4
30
0
39
0
210
0
220
0
230
1
50
360
0
POINT
5
19F
100
AcDbEntity
8
Defpoints
62
0
6
ByLayer
370
-1
48
1
60
0
100
AcDbPoint
10
45.3926
20
7.4
30
0
39
0
210
0
220
0
230
1
50
360
0
POINT
5
1A0
100
AcDbEntity
8
Defpoints
62
0
6
ByLayer
370
-1
48
1
60
0
100
AcDbPoint
10
45.3926
20
11.535371
30
0
39
0
210
0
220
0
230
1
50
360
0
ENDBLK
5
197
100
AcDbEntity
8
0
100
AcDbBlockEnd
0
BLOCK
5
1A8
100
AcDbEntity
8
0
100
AcDbBlockBegin
2
_U4
70
0
10
0
20
0
30
0
3
_U4
0
MTEXT
5
1A2
100
AcDbEntity
8
SK2
62
256
6
ByLayer
370
13
48
1
60
0
100
AcDbMText
10
61.902501
20
12.568005
30
0
210
0
220
0
230
1
1
\W0.8071;44,40
40
3.5
41
0
44
1.084337
50
0
71
7
72
5
7
iso_b_vert
0
LINE
5
1A3
100
AcDbEntity
8
SK2
62
256
6
ByLayer
370
13
48
1
60
0
100
AcDbLine
10
89.7926
20
8.9875
30
0
11
89.7926
21
13.535371
31
0
39
0
210
0
220
0
230
1
0
LINE
5
1A4
100
AcDbEntity
8
SK2
62
256
6
ByLayer
370
13
48
1
60
0
100
AcDbLine
10
45.3926
20
8.9875
30
0
11
45.3926
21
13.535371
31
0
39
0
210
0
220
0
230
1
0
LINE
5
1A5
100
AcDbEntity
8
SK2
62
256
6
ByLayer
370
13
48
1
60
0
100
AcDbLine
10
89.7926
20
11.535371
30
0
11
45.3926
21
11.535371
31
0
39
0
210
0
220
0
230
1
0
SOLID
5
1A6
100
AcDbEntity
8
SK2
62
256
6
ByLayer
370
18
48
1
60
0
100
AcDbTrace
10
89.7926
20
11.535371
30
0
11
86.292602
21
11.074588
31
0
12
86.292598
22
11.996155
32
0
13
86.292598
23
11.996155
33
0
39
0
210
0
220
0
230
1
0
SOLID
5
1A7
100
AcDbEntity
8
SK2
62
256
6
ByLayer
370
18
48
1
60
0
100
AcDbTrace
10
45.3926
20
11.535371
30
0
11
48.892598
21
11.996155
31
0
12
48.892602
22
11.074588
32
0
13
48.892602
23
11.074588
33
0
39
0
210
0
220
0
230
1
0
ENDBLK
5
1A9
100
AcDbEntity
8
0
100
AcDbBlockEnd
0
BLOCK
5
1AE
100
AcDbEntity
8
0
100
AcDbBlockBegin
2
*D11
70
1
10
0
20
0
30
0
3
*D11
0
LINE
5
1B0
100
AcDbEntity
8
0
62
256
6
ByLayer
370
-2
48
1
60
0
100
AcDbLine
10
-50
20
-11.5875
30
0
11
-50
21
-32.690158
31
0
39
0
210
0
220
0
230
1
0
LINE
5
1B1
100
AcDbEntity
8
0
62
256
6
ByLayer
370
-2
48
1
60
0
100
AcDbLine
10
89.7926
20
-8.9875
30
0
11
89.7926
21
-32.690158
31
0
39
0
210
0
220
0
230
1
0
LINE
5
1B2
100
AcDbEntity
8
0
62
256
6
ByLayer
370
-2
48
1
60
0
100
AcDbLine
10
-46.5
20
-30.690158
30
0
11
86.2926
21
-30.690158
31
0
39
0
210
0
220
0
230
1
0
SOLID
5
1B3
100
AcDbEntity
8
0
62
256
6
ByLayer
370
-1
48
1
60
0
100
AcDbTrace
10
-46.5
20
-30.106825
30
0
11
-46.5
21
-31.273491
31
0
12
-50
22
-30.690158
32
0
13
-50
23
-30.690158
33
0
39
0
210
0
220
0
230
1
0
SOLID
5
1B4
100
AcDbEntity
8
0
62
256
6
ByLayer
370
-1
48
1
60
0
100
AcDbTrace
10
86.2926
20
-31.273491
30
0
11
86.2926
21
-30.106825
31
0
12
89.7926
22
-30.690158
32
0
13
89.7926
23
-30.690158
33
0
39
0
210
0
220
0
230
1
0
MTEXT
5
1B5
100
AcDbEntity
8
0
62
256
6
ByLayer
370
18
48
1
60
0
100
AcDbMText
10
19.8963
20
-23.690158
30
0
210
0
220
0
230
1
1
\A1;139.79
40
3.5
41
0
44
1
50
0
71
5
72
5
7
iso_b_vert
0
POINT
5
1B6
100
AcDbEntity
8
Defpoints
62
0
6
ByLayer
370
-1
48
1
60
0
100
AcDbPoint
10
-50
20
-10
30
0
39
0
210
0
220
0
230
1
50
360
0
POINT
5
1B7
100
AcDbEntity
8
Defpoints
62
0
6
ByLayer
370
-1
48
1
60
0
100
AcDbPoint
10
89.7926
20
-7.4
30
0
39
0
210
0
220
0
230
1
50
360
0
POINT
5
1B8
100
AcDbEntity
8
Defpoints
62
0
6
ByLayer
370
-1
48
1
60
0
100
AcDbPoint
10
89.7926
20
-30.690158
30
0
39
0
210
0
220
0
230
1
50
360
0
ENDBLK
5
1AF
100
AcDbEntity
8
0
100
AcDbBlockEnd
0
BLOCK
5
1C0
100
AcDbEntity
8
0
100
AcDbBlockBegin
2
_U5
70
0
10
0
20
0
30
0
3
_U5
0
MTEXT
5
1BA
100
AcDbEntity
8
SK2
62
256
6
ByLayer
370
13
48
1
60
0
100
AcDbMText
10
13.888701
20
-29.657524
30
0
210
0
220
0
230
1
1
\W0.6996;139,79
40
3.5
41
0
44
1.084337
50
0
71
7
72
5
7
iso_b_vert
0
LINE
5
1BB
100
AcDbEntity
8
SK2
62
256
6
ByLayer
370
13
48
1
60
0
100
AcDbLine
10
-50
20
-11.5875
30
0
11
-50
21
-32.690158
31
0
39
0
210
0
220
0
230
1
0
LINE
5
1BC
100
AcDbEntity
8
SK2
62
256
6
ByLayer
370
13
48
1
60
0
100
AcDbLine
10
89.7926
20
-8.9875
30
0
11
89.7926
21
-32.690158
31
0
39
0
210
0
220
0
230
1
0
LINE
5
1BD
100
AcDbEntity
8
SK2
62
256
6
ByLayer
370
13
48
1
60
0
100
AcDbLine
10
-50
20
-30.690158
30
0
11
89.7926
21
-30.690158
31
0
39
0
210
0
220
0
230
1
0
SOLID
5
1BE
100
AcDbEntity
8
SK2
62
256
6
ByLayer
370
18
48
1
60
0
100
AcDbTrace
10
-50
20
-30.690158
30
0
11
-46.500002
21
-30.229374
31
0
12
-46.499998
22
-31.150942
32
0
13
-46.499998
23
-31.150942
33
0
39
0
210
0
220
0
230
1
0
SOLID
5
1BF
100
AcDbEntity
8
SK2
62
256
6
ByLayer
370
18
48
1
60
0
100
AcDbTrace
10
89.7926
20
-30.690158
30
0
11
86.292602
21
-31.150942
31
0
12
86.292598
22
-30.229374
32
0
13
86.292598
23
-30.229374
33
0
39
0
210
0
220
0
230
1
0
ENDBLK
5
1C1
100
AcDbEntity
8
0
100
AcDbBlockEnd
0
ENDSEC
0
SECTION
2
ENTITIES
0
ARC
5
C0
100
AcDbEntity
8
SK2
62
256
6
ByLayer
370
13
48
1
60
0
100
AcDbCircle
39
0
10
52.7926
20
0
30
0
40
22.7069850264779
210
0
220
0
230
1
100
AcDbArc
50
182.711749
51
225
0
ARC
5
C1
100
AcDbEntity
8
SK2
62
256
6
ByLayer
370
13
48
1
60
0
100
AcDbCircle
39
0
10
52.7926
20
0
30
0
40
22.7069850264779
210
0
220
0
230
1
100
AcDbArc
50
135
51
166.175762
0
POINT
5
70
100
AcDbEntity
8
80
62
256
6
ByLayer
370
18
48
1
60
0
100
AcDbPoint
10
0
20
0
30
0
39
0
210
0
220
0
230
1
50
360
0
POINT
5
72
100
AcDbEntity
8
81
62
256
6
ByLayer
370
18
48
1
60
0
100
AcDbPoint
10
92
20
0
30
0
39
0
210
0
220
0
230
1
50
360
0
POINT
5
74
100
AcDbEntity
8
1
62
256
6
ByLayer
370
18
48
1
60
1
100
AcDbPoint
10
89.7926
20
-7.4
30
0
39
0
210
0
220
0
230
1
50
360
0
POINT
5
76
100
AcDbEntity
8
1
62
256
6
ByLayer
370
18
48
1
60
1
100
AcDbPoint
10
-50
20
-10
30
0
39
0
210
0
220
0
230
1
50
360
0
POINT
5
77
100
AcDbEntity
8
1
62
256
6
ByLayer
370
18
48
1
60
1
100
AcDbPoint
10
42.8
20
9.99
30
0
39
0
210
0
220
0
230
1
50
360
0
POINT
5
78
100
AcDbEntity
8
1
62
256
6
ByLayer
370
18
48
1
60
1
100
AcDbPoint
10
89.7926
20
-7.4
30
0
39
0
210
0
220
0
230
1
50
360
0
POINT
5
79
100
AcDbEntity
8
1
62
256
6
ByLayer
370
18
48
1
60
1
100
AcDbPoint
10
89.7926
20
7.4
30
0
39
0
210
0
220
0
230
1
50
360
0
POINT
5
7A
100
AcDbEntity
8
1
62
256
6
ByLayer
370
18
48
1
60
1
100
AcDbPoint
10
45.3926
20
7.4
30
0
39
0
210
0
220
0
230
1
50
360
0
POINT
5
7B
100
AcDbEntity
8
1
62
256
6
ByLayer
370
18
48
1
60
1
100
AcDbPoint
10
-50
20
-10
30
0
39
0
210
0
220
0
230
1
50
360
0
POINT
5
7C
100
AcDbEntity
8
1
62
256
6
ByLayer
370
18
48
1
60
1
100
AcDbPoint
10
89.7926
20
-7.4
30
0
39
0
210
0
220
0
230
1
50
360
0
SPLINE
5
C2
100
AcDbEntity
8
SK1
62
256
6
ByLayer
370
18
48
1
60
0
100
AcDbSpline
70
4
71
3
72
8
73
4
40
0
40
0
40
0
40
0
40
1
40
1
40
1
40
1
41
1
10
-50
20
1.2157880529717
30
0
41
1
10
-49.235890233871
20
1.18208122522464
30
0
41
1
10
-48.4685627288041
20
1.14851055930075
30
0
41
1
10
-47.7
20
1.11499216309775
30
0
0
SPLINE
5
C3
100
AcDbEntity
8
SK1
62
256
6
ByLayer
370
18
48
1
60
0
100
AcDbSpline
70
4
71
3
72
12
73
8
40
0
40
0
40
0
40
0
40
0.249999999999996
40
0.249999999999996
40
0.499999999999991
40
0.499999999999991
40
1
40
1
40
1
40
1
41
1
10
-47.6
20
1.78737573132076
30
0
41
1
10
-47.6
20
1.80376533722602
30
0
41
1
10
-47.6041468027231
20
1.81888326521241
30
0
41
1
10
-47.6170570586248
20
1.84387592317782
30
0
41
1
10
-47.6255546314712
20
1.85366202605419
30
0
41
1
10
-47.654055184327
20
1.87656746339866
30
0
41
1
10
-47.6767308868523
20
1.88324684099288
30
0
41
1
10
-47.7
20
1.88223203332063
30
0
0
SPLINE
5
C4
100
AcDbEntity
8
SK1
62
256
6
ByLayer
370
18
48
1
60
0
100
AcDbSpline
70
4
71
3
72
12
73
8
40
0
40
0
40
0
40
0
40
0.499999999999999
40
0.499999999999999
40
0.749999999999999
40
0.749999999999999
40
1
40
1
40
1
40
1
41
1
10
-47.7
20
-1.11499216309773
30
0
41
1
10
-47.6767410897415
20
-1.11397780039178
30
0
41
1
10
-47.6540473543102
20
-1.10519164559892
30
0
41
1
10
-47.6255892761979
20
-1.07950977820653
30
0
41
1
10
-47.6170511286925
20
-1.06879341896885
30
0
41
1
10
-47.6041481443464
20
-1.04233282826561
30
0
41
1
10
-47.6
20
-1.0266121024855
30
0
41
1
10
-47.6
20
-1.0100335186697
30
0
0
SPLINE
5
C5
100
AcDbEntity
8
SK1
62
256
6
ByLayer
370
18
48
1
60
0
100
AcDbSpline
70
4
71
3
72
8
73
4
40
0
40
0
40
0
40
0
40
1
40
1
40
1
40
1
41
1
10
-47.7
20
1.88223203332063
30
0
41
1
10
-48.4685741559538
20
1.84871313875919
30
0
41
1
10
-49.2359055539304
20
1.81514229538692
30
0
41
1
10
-50
20
1.78143614344668
30
0
0
SPLINE
5
C6
100
AcDbEntity
8
SK1
62
256
6
ByLayer
370
18
48
1
60
0
100
AcDbSpline
70
4
71
3
72
8
73
4
40
0
40
0
40
0
40
0
40
1
40
1
40
1
40
1
41
1
10
-50
20
-1.2157880529717
30
0
41
1
10
-49.235890233871
20
-1.18208122522461
30
0
41
1
10
-48.4685627288041
20
-1.14851055930072
30
0
41
1
10
-47.7
20
-1.11499216309773
30
0
0
SPLINE
5
C7
100
AcDbEntity
8
SK1
62
256
6
ByLayer
370
18
48
1
60
0
100
AcDbSpline
70
4
71
3
72
12
73
8
40
0
40
0
40
0
40
0
40
0.500000000000003
40
0.500000000000003
40
0.750000000000001
40
0.750000000000001
40
1
40
1
40
1
40
1
41
1
10
-47.7
20
1.11499216309775
30
0
41
1
10
-47.6767410897415
20
1.11397780039178
30
0
41
1
10
-47.6540473543102
20
1.10519164559895
30
0
41
1
10
-47.6255892761979
20
1.07950977820656
30
0
41
1
10
-47.6170511286925
20
1.06879341896885
30
0
41
1
10
-47.6041481443464
20
1.04233282826561
30
0
41
1
10
-47.6
20
1.02661210248553
30
0
41
1
10
-47.6
20
1.01003351866973
30
0
0
SPLINE
5
C8
100
AcDbEntity
8
1
62
256
6
ByLayer
370
18
48
1
60
0
100
AcDbSpline
70
4
71
3
72
48
73
44
40
0
40
0
40
0
40
0
40
0.125000000000005
40
0.125000000000005
40
0.187500000000007
40
0.187500000000007
40
0.250000000000009
40
0.250000000000009
40
0.312500000000012
40
0.312500000000012
40
0.343750000000013
40
0.343750000000013
40
0.375000000000014
40
0.375000000000014
40
0.406250000000015
40
0.406250000000015
40
0.437500000000016
40
0.437500000000016
40
0.468750000000017
40
0.468750000000017
40
0.500000000000019
40
0.500000000000019
40
0.625000000000019
40
0.625000000000019
40
0.656250000000019
40
0.656250000000019
40
0.687500000000018
40
0.687500000000018
40
0.750000000000016
40
0.750000000000016
40
0.781250000000014
40
0.781250000000014
40
0.812500000000012
40
0.812500000000012
40
0.843750000000011
40
0.843750000000011
40
0.875000000000009
40
0.875000000000009
40
0.937500000000004
40
0.937500000000004
40
0.968750000000002
40
0.968750000000002
40
1
40
1
40
1
40
1
41
1
10
25.0698980565063
20
-1.4981661920848
30
0
41
1
10
25.8059653153933
20
-2.04601388228591
30
0
41
1
10
26.5415428817155
20
-2.57472210930564
30
0
41
1
10
27.6375949412581
20
-3.34967285578409
30
0
41
1
10
28.0009402765518
20
-3.60589036093629
30
0
41
1
10
28.7291713970628
20
-4.10702492530163
30
0
41
1
10
29.0939061680261
20
-4.35218276198589
30
0
41
1
10
29.8236015962912
20
-4.83302024079583
30
0
41
1
10
30.1886654579241
20
-5.06857669766023
30
0
41
1
10
30.7357003840345
20
-5.41550431482301
30
0
41
1
10
30.9180161790791
20
-5.52999567753611
30
0
41
1
10
31.2837690629736
20
-5.7553129305729
30
0
41
1
10
31.4670738140553
20
-5.86629463154876
30
0
41
1
10
31.8344536122776
20
-6.08500474256945
30
0
41
1
10
32.0185186540266
20
-6.19274450440639
30
0
41
1
10
32.3872743486947
20
-6.40511260228394
30
0
41
1
10
32.5721911918703
20
-6.50985751890147
30
0
41
1
10
32.9415162268096
20
-6.71563776248985
30
0
41
1
10
33.1257059617145
20
-6.81656139443962
30
0
41
1
10
33.4929163546991
20
-7.01470502487388
30
0
41
1
10
33.6759483075589
20
-7.11190103388043
30
0
41
1
10
34.5915165181526
20
-7.5854200625221
30
0
41
1
10
35.3233791347517
20
-7.92682745201807
30
0
41
1
10
36.2329445481782
20
-8.31159468370862
30
0
41
1
10
36.4144871347109
20
-8.38649138645258
30
0
41
1
10
36.7782394230134
20
-8.53111875991337
30
0
41
1
10
36.9603435392777
20
-8.60093724542037
30
0
41
1
10
37.5072594302794
20
-8.8030261643473
30
0
41
1
10
37.8725908118421
20
-8.92800915745659
30
0
41
1
10
38.4210823322012
20
-9.10114210948299
30
0
41
1
10
38.6040157891618
20
-9.15644663256032
30
0
41
1
10
38.9698732322425
20
-9.26228701324652
30
0
41
1
10
39.1526623704536
20
-9.31288214810957
30
0
41
1
10
39.5193438952056
20
-9.40865843354868
30
0
41
1
10
39.7031900673056
20
-9.45387358258102
30
0
41
1
10
40.071858733912
20
-9.53897715797643
30
0
41
1
10
40.2568868674379
20
-9.57891186421287
30
0
41
1
10
40.8111582308645
20
-9.69037393635773
30
0
41
1
10
41.179768441832
20
-9.75362239894423
30
0
41
1
10
41.7306190080903
20
-9.83215442809822
30
0
41
1
10
41.9137133280833
20
-9.85563438084125
30
0
41
1
10
42.2801711350955
20
-9.89688700112643
30
0
41
1
10
42.4635417252927
20
-9.91467072039563
30
0
41
1
10
42.6470398879284
20
-9.9296506217481
30
0
0
SPLINE
5
C9
100
AcDbEntity
8
1
62
256
6
ByLayer
370
18
48
1
60
0
100
AcDbSpline
70
4
71
3
72
52
73
48
40
0
40
0
40
0
40
0
40
0.0318308991141939
40
0.0318308991141939
40
0.0636617982283878
40
0.0636617982283878
40
0.127323596456777
40
0.127323596456777
40
0.159154495570971
40
0.159154495570971
40
0.190985394685165
40
0.190985394685165
40
0.222816293799359
40
0.222816293799359
40
0.254647192913553
40
0.254647192913553
40
0.318308991141939
40
0.318308991141939
40
0.350139890256132
40
0.350139890256132
40
0.381970789370326
40
0.381970789370326
40
0.445632587598712
40
0.445632587598712
40
0.477463486712905
40
0.477463486712905
40
0.509294385827098
40
0.509294385827098
40
0.572956184055484
40
0.572956184055484
40
0.604787083169676
40
0.604787083169676
40
0.636617982283869
40
0.636617982283869
40
0.763941578740639
40
0.763941578740639
40
0.795772477854831
40
0.795772477854831
40
0.827603376969024
40
0.827603376969024
40
0.891265175197409
40
0.891265175197409
40
0.923096074311601
40
0.923096074311601
40
0.954926973425794
40
0.954926973425794
40
1
40
1
40
1
40
1
41
1
10
89.3929493183617
20
-7.39067539084152
30
0
41
1
10
88.9376108854985
20
-7.40284032495978
30
0
41
1
10
88.4822861938834
20
-7.40220409925203
30
0
41
1
10
87.5706979818148
20
-7.37534726757318
30
0
41
1
10
87.1154107923442
20
-7.34914044636739
30
0
41
1
10
85.7514943208943
20
-7.23288234699444
30
0
41
1
10
84.8439219691516
20
-7.105168894472
30
0
41
1
10
83.4785884148421
20
-6.84105851903408
30
0
41
1
10
83.0223491572031
20
-6.74083093678422
30
0
41
1
10
82.112158979637
20
-6.51797530263556
30
0
41
1
10
81.6577376886443
20
-6.3952438749038
30
0
41
1
10
80.7490404087125
20
-6.12834690245981
30
0
41
1
10
80.2947667192955
20
-5.98418218732246
30
0
41
1
10
79.3852878721609
20
-5.67552209639632
30
0
41
1
10
78.9297131049127
20
-5.51087741968482
30
0
41
1
10
77.5625599360957
20
-4.9889597085814
30
0
41
1
10
76.6547057568558
20
-4.60521943362497
30
0
41
1
10
75.2912278424338
20
-3.98616019953897
30
0
41
1
10
74.8364699139866
20
-3.77254772624971
30
0
41
1
10
73.9253554691847
20
-3.33238529204797
30
0
41
1
10
73.4692533153162
20
-3.10593098017449
30
0
41
1
10
72.1044702968174
20
-2.41315640087646
30
0
41
1
10
71.1968017689839
20
-1.93246618450047
30
0
41
1
10
69.8317150903403
20
-1.19515084626227
30
0
41
1
10
69.3755257608456
20
-0.94622514770208
30
0
41
1
10
68.4645903840608
20
-0.446870835190737
30
0
41
1
10
68.0098345112569
20
-0.196474004761455
30
0
41
1
10
66.6461628196711
20
0.554068290239314
30
0
41
1
10
65.7379289740709
20
1.05372077173538
30
0
41
1
10
64.3700450010253
20
1.78964087999614
30
0
41
1
10
63.915383569919
20
2.03175302375666
30
0
41
1
10
63.0092529650487
20
2.50622319308431
30
0
41
1
10
62.5574408686867
20
2.73871580468651
30
0
41
1
10
60.3025180976251
20
3.87422512774293
30
0
41
1
10
58.5114460642451
20
4.69551814989697
30
0
41
1
10
56.2464958646837
20
5.54757472202854
30
0
41
1
10
55.792223560199
20
5.70929626271706
30
0
41
1
10
54.87993386848
20
6.01357575659023
30
0
41
1
10
54.4247304835968
20
6.15520269404749
30
0
41
1
10
53.0603796130135
20
6.54722839678607
30
0
41
1
10
52.1524334437983
20
6.76470162599327
30
0
41
1
10
50.7864284489458
20
7.01972088512255
30
0
41
1
10
50.3298878184398
20
7.09290823259238
30
0
41
1
10
49.4191608895615
20
7.21413884992216
30
0
41
1
10
48.9645083113214
20
7.26228714926529
30
0
41
1
10
47.8664987546513
20
7.34822763438319
30
0
41
1
10
47.2233051340138
20
7.37336628801802
30
0
41
1
10
46.5789102987093
20
7.37299599990183
30
0
0
SPLINE
5
CA
100
AcDbEntity
8
1
62
256
6
ByLayer
370
18
48
1
60
0
100
AcDbSpline
70
4
71
3
72
55
73
51
40
0
40
0
40
0
40
0
40
0.0170035623009223
40
0.0170035623009223
40
0.0440876383193007
40
0.0440876383193007
40
0.0711717143376787
40
0.0711717143376787
40
0.179508018411192
40
0.179508018411192
40
0.287844322484706
40
0.287844322484706
40
0.314928398503085
40
0.314928398503085
40
0.342012474521463
40
0.342012474521463
40
0.39618062655822
40
0.39618062655822
40
0.450348778594977
40
0.450348778594977
40
0.504516930631734
40
0.504516930631734
40
0.511287949636328
40
0.511287949636328
40
0.514673459138625
40
0.514673459138625
40
0.518058968640923
40
0.518058968640923
40
0.52144447814322
40
0.52144447814322
40
0.523137232894369
40
0.523137232894369
40
0.524829987645517
40
0.531601006650112
40
0.531601006650112
40
0.55868508266849
40
0.55868508266849
40
0.612853234705247
40
0.612853234705247
40
0.667021386742004
40
0.667021386742004
40
0.72118953877876
40
0.72118953877876
40
0.829525842852273
40
0.829525842852273
40
0.88369399488903
40
0.88369399488903
40
0.937862146925787
40
0.937862146925787
40
1
40
1
40
1
40
1
41
1
10
25.0698980565063
20
-1.45589781000581
30
0
41
1
10
25.0698980565063
20
-1.42549314705346
30
0
41
1
10
25.0698980565063
20
-1.39622905637725
30
0
41
1
10
25.0698980565063
20
-1.32328964055702
30
0
41
1
10
25.0698980565063
20
-1.28132646150439
30
0
41
1
10
25.0698980565063
20
-1.20375635272234
30
0
41
1
10
25.0698980565063
20
-1.16805193947369
30
0
41
1
10
25.0698980565063
20
-1.0043754372725
30
0
41
1
10
25.0698980565064
20
-0.920631099603355
30
0
41
1
10
25.0698980565064
20
-0.838822352785911
30
0
41
1
10
25.0698980565063
20
-0.840829513291339
30
0
41
1
10
25.0698980565063
20
-0.895533219281276
30
0
41
1
10
25.0698980565063
20
-0.909120112358323
30
0
41
1
10
25.0698980565063
20
-0.941359836474817
30
0
41
1
10
25.0698980565063
20
-0.960018812360318
30
0
41
1
10
25.0698980565063
20
-1.02347084786615
30
0
41
1
10
25.0698980565064
20
-1.07572956706966
30
0
41
1
10
25.0698980565064
20
-1.19964831238659
30
0
41
1
10
25.0698980565063
20
-1.27130941619541
30
0
41
1
10
25.0698980565063
20
-1.4338124900386
30
0
41
1
10
25.0698980565064
20
-1.52467208772873
30
0
41
1
10
25.0698980565064
20
-1.63710537098351
30
0
41
1
10
25.0698980565064
20
-1.64974329173165
30
0
41
1
10
25.0698980565064
20
-1.6689050469723
30
0
41
1
10
25.0698980565063
20
-1.67473644371719
30
0
41
1
10
25.0698980565063
20
-1.68923727143098
30
0
41
1
10
25.0698980565067
20
-1.69876153464889
30
0
41
1
10
25.0698980565067
20
-1.72251601310529
30
0
41
1
10
25.0698980565063
20
-1.73697170855357
30
0
41
1
10
25.0698980565063
20
-1.76075625074094
30
0
41
1
10
25.0698980565063
20
-1.76918329966955
30
0
41
1
10
25.0698980565063
20
-1.78579837722404
30
0
41
1
10
25.0698980565064
20
-1.82736859078426
30
0
41
1
10
25.0698980565063
20
-1.86910155869572
30
0
41
1
10
25.0698980565063
20
-2.03655642990879
30
0
41
1
10
25.0698980565063
20
-2.17218407029327
30
0
41
1
10
25.0698980565063
20
-2.5834020197068
30
0
41
1
10
25.0698980565063
20
-2.86356440979048
30
0
41
1
10
25.0698980565063
20
-3.43637770475684
30
0
41
1
10
25.0698980565063
20
-3.72812315409715
30
0
41
1
10
25.0698980565063
20
-4.3218303528304
30
0
41
1
10
25.0698980565064
20
-4.62474191112932
30
0
41
1
10
25.0698980565064
20
-5.54297546035667
30
0
41
1
10
25.0698980565065
20
-6.16712697667342
30
0
41
1
10
25.0698980565065
20
-7.12284253900668
30
0
41
1
10
25.0698980565063
20
-7.44468019378795
30
0
41
1
10
25.0698980565063
20
-8.09541583187698
30
0
41
1
10
25.0698980565063
20
-8.42085444890492
30
0
41
1
10
25.0698980565063
20
-9.11672726693774
30
0
41
1
10
25.0698980565063
20
-9.48734093254373
30
0
41
1
10
25.0698980565063
20
-9.85669730134467
30
0
0
SPLINE
5
CB
100
AcDbEntity
8
1
62
256
6
ByLayer
370
18
48
1
60
0
100
AcDbSpline
70
4
71
3
72
10
73
6
40
0
40
0
40
0
40
0
40
0.216519077778423
40
0.216519077778423
40
1
40
1
40
1
40
1
41
1
10
45.7974983215126
20
7.37251126539164
30
0
41
1
10
45.7996740596506
20
7.37250910644448
30
0
41
1
10
45.8018392705546
20
7.37187727696525
30
0
41
1
10
45.8116041263813
20
7.36606993663318
30
0
41
1
10
45.8190873973062
20
7.35332722024503
30
0
41
1
10
45.8262266265345
20
7.33241255106802
30
0
0
SPLINE
5
CC
100
AcDbEntity
8
1
62
256
6
ByLayer
370
18
48
1
60
0
100
AcDbSpline
70
4
71
3
72
8
73
4
40
0
40
0
40
0
40
0
40
1
40
1
40
1
40
1
41
1
10
45.3826022488863
20
-1.16598321076222
30
0
41
1
10
45.3826022488863
20
-1.15499660233598
30
0
41
1
10
45.3826022488863
20
-1.14198333120061
30
0
41
1
10
45.3826022488863
20
-1.12702009697003
30
0
0
SPLINE
5
CD
100
AcDbEntity
8
1
62
256
6
ByLayer
370
18
48
1
60
0
100
AcDbSpline
70
4
71
3
72
81
73
77
40
0
40
0
40
0
40
0
40
0.0624999999999996
40
0.0624999999999996
40
0.0937499999999998
40
0.0937499999999998
40
0.125
40
0.125
40
0.187500000000001
40
0.187500000000001
40
0.250000000000001
40
0.250000000000001
40
0.312500000000001
40
0.312500000000001
40
0.343750000000002
40
0.343750000000002
40
0.375000000000002
40
0.375000000000002
40
0.390625000000002
40
0.390625000000002
40
0.406250000000002
40
0.406250000000002
40
0.437500000000002
40
0.437500000000002
40
0.468750000000002
40
0.468750000000002
40
0.484375000000003
40
0.484375000000003
40
0.492187500000003
40
0.492187500000003
40
0.500000000000003
40
0.500000000000003
40
0.515625000000003
40
0.515625000000003
40
0.523437500000003
40
0.523437500000003
40
0.531250000000003
40
0.531250000000003
40
0.562500000000004
40
0.562500000000004
40
0.593750000000005
40
0.593750000000005
40
0.625000000000005
40
0.625000000000005
40
0.640625000000006
40
0.640625000000006
40
0.656250000000006
40
0.656250000000006
40
0.671875000000006
40
0.671875000000006
40
0.679687500000007
40
0.679687500000007
40
0.683593750000007
40
0.683593750000007
40
0.685546875000007
40
0.685546875000007
40
0.687500000000007
40
0.687500000000007
40
0.689453125000007
40
0.689453125000007
40
0.691406250000007
40
0.691406250000007
40
0.695312500000007
40
0.703125000000006
40
0.703125000000006
40
0.718750000000006
40
0.718750000000006
40
0.750000000000005
40
0.750000000000005
40
0.812500000000004
40
0.812500000000004
40
0.875000000000002
40
0.875000000000002
40
0.937500000000001
40
0.937500000000001
40
1
40
1
40
1
40
1
41
1
10
25.0698980565063
20
-9.85669730136951
30
0
41
1
10
24.402451773583
20
-9.93559553194399
30
0
41
1
10
23.7475682111449
20
-9.98133265764949
30
0
41
1
10
22.7723255474132
20
-9.99264855573222
30
0
41
1
10
22.4484486967022
20
-9.9869345631017
30
0
41
1
10
21.8013861389794
20
-9.95588410015759
30
0
41
1
10
21.4776707751662
20
-9.93046739486519
30
0
41
1
10
20.5124546824501
20
-9.8251540477973
30
0
41
1
10
19.8749378020459
20
-9.71628940659872
30
0
41
1
10
18.6037933962176
20
-9.42452887133595
30
0
41
1
10
17.9701565383613
20
-9.24181017917414
30
0
41
1
10
16.7046374083968
20
-8.80237186324348
30
0
41
1
10
16.0727210622693
20
-8.54590917970901
30
0
41
1
10
15.1293254055049
20
-8.09850793696813
30
0
41
1
10
14.8149401055649
20
-7.93840633285379
30
0
41
1
10
14.1941221971698
20
-7.59692592017049
30
0
41
1
10
13.8874179367701
20
-7.41550286042059
30
0
41
1
10
13.4348384865371
20
-7.12471802672508
30
0
41
1
10
13.2852332041597
20
-7.0246676477729
30
0
41
1
10
12.9889837959327
20
-6.81766753610157
30
0
41
1
10
12.8420982888991
20
-6.71053162316005
30
0
41
1
10
12.4087870115304
20
-6.37906993219116
30
0
41
1
10
12.1297978398035
20
-6.14502738720347
30
0
41
1
10
11.59861068816
20
-5.64411871405412
30
0
41
1
10
11.3462927099889
20
-5.37738216612377
30
0
41
1
10
10.997154304571
20
-4.94359393213983
30
0
41
1
10
10.8857141672034
20
-4.79333265438169
30
0
41
1
10
10.7278898396641
20
-4.55751130430573
30
0
41
1
10
10.6768445070613
20
-4.47715892374691
30
0
41
1
10
10.5783080184693
20
-4.31253062445305
30
0
41
1
10
10.5307386456979
20
-4.22807339271762
30
0
41
1
10
10.3958113370921
20
-3.97137247651202
30
0
41
1
10
10.3156257729643
20
-3.79496080060963
30
0
41
1
10
10.2130622014141
20
-3.52099813683955
30
0
41
1
10
10.1818331586734
20
-3.42811616771854
30
0
41
1
10
10.1259444102753
20
-3.23892299269204
30
0
41
1
10
10.101201168407
20
-3.14218880301758
30
0
41
1
10
9.99704032991176
20
-2.65476079050097
30
0
41
1
10
9.97576283784164
20
-2.25558857660906
30
0
41
1
10
10.0825616015233
20
-1.43689191646575
30
0
41
1
10
10.2080468553531
20
-1.04359759161386
30
0
41
1
10
10.5801912194985
20
-0.293994361176033
30
0
41
1
10
10.8167559775616
20
0.045107049658327
30
0
41
1
10
11.2251264718054
20
0.515887295342651
30
0
41
1
10
11.3706850180634
20
0.666586829732324
30
0
41
1
10
11.6731189071471
20
0.952513042550379
30
0
41
1
10
11.8304990561552
20
1.08838040440702
30
0
41
1
10
12.1558162173357
20
1.34802003192578
30
0
41
1
10
12.3234435468273
20
1.4715111129795
30
0
41
1
10
12.5801906272729
20
1.64782464084419
30
0
41
1
10
12.6667198538389
20
1.70515027637572
30
0
41
1
10
12.7978435931573
20
1.78911685453616
30
0
41
1
10
12.8417733955355
20
1.81676836674009
30
0
41
1
10
12.9079907189572
20
1.85775615680242
30
0
41
1
10
12.92988044248
20
1.8716753496451
30
0
41
1
10
12.9747292303058
20
1.89797550506137
30
0
41
1
10
12.9999603116469
20
1.90754570815818
30
0
41
1
10
13.0511874478349
20
1.91981548500499
30
0
41
1
10
13.0778030522364
20
1.92265044095859
30
0
41
1
10
13.1307740246726
20
1.92317037488397
30
0
41
1
10
13.1572349652208
20
1.9220645939952
30
0
41
1
10
13.2366494139442
20
1.92050698166329
30
0
41
1
10
13.3954699564217
20
1.91684011040365
30
0
41
1
10
13.5542544962241
20
1.9115159661022
30
0
41
1
10
13.8716488660959
20
1.89867147205376
30
0
41
1
10
14.0830569453747
20
1.88718081477762
30
0
41
1
10
14.7167192739932
20
1.84394857750081
30
0
41
1
10
15.138768108761
20
1.80337132438692
30
0
41
1
10
16.395600193163
20
1.64758472952792
30
0
41
1
10
17.2232469382702
20
1.49827082416118
30
0
41
1
10
18.8590336565275
20
1.11159424298859
30
0
41
1
10
19.6671446807712
20
0.874097233138201
30
0
41
1
10
21.2652059294178
20
0.314857701185332
30
0
41
1
10
22.0470675557058
20
-0.0040156436877226
30
0
41
1
10
23.5794380896704
20
-0.706723750965949
30
0
41
1
10
24.3304018516305
20
-1.0905514907588
30
0
41
1
10
25.0698980565063
20
-1.4981661920848
30
0
0
SPLINE
5
CE
100
AcDbEntity
8
1
62
256
6
ByLayer
370
18
48
1
60
0
100
AcDbSpline
70
4
71
3
72
25
73
21
40
0
40
0
40
0
40
0
40
0.0408237446224721
40
0.096164119876657
40
0.206886140714909
40
0.283063978875307
40
0.345459243906204
40
0.400981362711773
40
0.428771164144951
40
0.512250652286773
40
0.540094749197283
40
0.595782364328383
40
0.63057827193529
40
0.707072601900872
40
0.748750306471947
40
0.831968775122955
40
0.928675198535435
40
0.969895204038944
40
0.983594830541322
40
1
40
1
40
1
40
1
41
1
10
44.2094729925553
20
-0.525443003494047
30
0
41
1
10
44.2261596542726
20
-0.681899511834359
30
0
41
1
10
44.2654665255613
20
-1.04968177581119
30
0
41
1
10
44.3500554223526
20
-1.83347266361687
30
0
41
1
10
44.4490539866265
20
-2.72446523946695
30
0
41
1
10
44.550873653007
20
-3.58694893833749
30
0
41
1
10
44.6300482077673
20
-4.21806135126548
30
0
41
1
10
44.689427639794
20
-4.66157208286845
30
0
41
1
10
44.7573234214078
20
-5.14185308372979
30
0
41
1
10
44.8138574207352
20
-5.5103362324094
30
0
41
1
10
44.8817081720885
20
-5.91002376282643
30
0
41
1
10
44.9297783159612
20
-6.16965872833936
30
0
41
1
10
44.9976323271014
20
-6.49774430456381
30
0
41
1
10
45.059834819683
20
-6.7540900301216
30
0
41
1
10
45.1418252032511
20
-7.02575594342767
30
0
41
1
10
45.2321804890908
20
-7.24544677857247
30
0
41
1
10
45.3226419173054
20
-7.34729205280132
30
0
41
1
10
45.3850491242035
20
-7.35266942238457
30
0
41
1
10
45.4144961393272
20
-7.34305883328537
30
0
41
1
10
45.4269477509284
20
-7.33617132616894
30
0
41
1
10
45.4337405041734
20
-7.3315754664352
30
0
0
SPLINE
5
CF
100
AcDbEntity
8
1
62
256
6
ByLayer
370
18
48
1
60
0
100
AcDbSpline
70
4
71
3
72
62
73
58
40
0
40
0
40
0
40
0
40
0.0255666672692931
40
0.0255666672692931
40
0.064544000578523
40
0.064544000578523
40
0.0840326672331374
40
0.0840326672331374
40
0.103521333887752
40
0.103521333887752
40
0.142498667196981
40
0.142498667196981
40
0.181476000506209
40
0.181476000506209
40
0.220453333815438
40
0.220453333815438
40
0.259430667124667
40
0.259430667124667
40
0.298408000433896
40
0.298408000433896
40
0.337385333743125
40
0.337385333743125
40
0.376362667052353
40
0.376362667052353
40
0.415340000361582
40
0.415340000361582
40
0.454317333670811
40
0.454317333670811
40
0.49329466698004
40
0.49329466698004
40
0.532272000289268
40
0.532272000289268
40
0.551760666943882
40
0.551760666943882
40
0.571249333598496
40
0.571249333598496
40
0.610226666907724
40
0.610226666907724
40
0.649204000216951
40
0.649204000216951
40
0.688181333526179
40
0.688181333526179
40
0.727158666835407
40
0.727158666835407
40
0.766136000144634
40
0.766136000144634
40
0.805113333453862
40
0.805113333453862
40
0.844090666763089
40
0.844090666763089
40
0.883068000072317
40
0.883068000072317
40
0.922045333381545
40
0.922045333381545
40
0.961022666690772
40
0.961022666690772
40
1
40
1
40
1
40
1
41
1
10
75.11771994985
20
-4.85331247439092
30
0
41
1
10
74.8633604654626
20
-4.9499184985641
30
0
41
1
10
74.6091156902789
20
-5.04411280863519
30
0
41
1
10
73.9676009427189
20
-5.27386124297141
30
0
41
1
10
73.5804420129997
20
-5.40588737384471
30
0
41
1
10
72.9998669183448
20
-5.59222499362997
30
0
41
1
10
72.8063435095646
20
-5.65237537142181
30
0
41
1
10
72.4195528809128
20
-5.76902207489388
30
0
41
1
10
72.2263057856935
20
-5.82562376354915
30
0
41
1
10
71.6460405083407
20
-5.99049706533302
30
0
41
1
10
71.2587415255969
20
-6.09367394286551
30
0
41
1
10
70.482944194356
20
-6.28450236856145
30
0
41
1
10
70.0941406875233
20
-6.37157046027173
30
0
41
1
10
69.3196092110387
20
-6.53092179489462
30
0
41
1
10
68.9327357430862
20
-6.60292691052604
30
0
41
1
10
68.1587229193092
20
-6.72940626383195
30
0
41
1
10
67.7716685233402
20
-6.78368093723947
30
0
41
1
10
66.9973317562658
20
-6.87468511240783
30
0
41
1
10
66.6105613020995
20
-6.91223962011233
30
0
41
1
10
65.835448267247
20
-6.97057132646816
30
0
41
1
10
65.4468618187173
20
-6.99105586259395
30
0
41
1
10
64.671262033904
20
-7.01311459768888
30
0
41
1
10
64.2839401854808
20
-7.01552935824446
30
0
41
1
10
63.5104939323039
20
-7.00391167766404
30
0
41
1
10
63.1237341521826
20
-6.98962421062743
30
0
41
1
10
62.3495506797775
20
-6.94212106819157
30
0
41
1
10
61.9621027740265
20
-6.90929278532468
30
0
41
1
10
61.1868105611712
20
-6.82763119877345
30
0
41
1
10
60.7987152172385
20
-6.7781815209791
30
0
41
1
10
60.0243776132871
20
-6.66239450912283
30
0
41
1
10
59.6382109363699
20
-6.59580243069209
30
0
41
1
10
59.0600991610915
20
-6.48501874272563
30
0
41
1
10
58.8675814346932
20
-6.44623818526318
30
0
41
1
10
58.4831242507246
20
-6.36468883191029
30
0
41
1
10
58.2912784283925
20
-6.32181855888885
30
0
41
1
10
57.7157890723217
20
-6.18750412675627
30
0
41
1
10
57.332432584692
20
-6.08963474284923
30
0
41
1
10
56.5659113875931
20
-5.88145745909904
30
0
41
1
10
56.1826339120683
20
-5.77099662164022
30
0
41
1
10
55.4171006725975
20
-5.53393442863197
30
0
41
1
10
55.0344132619996
20
-5.40759179847217
30
0
41
1
10
54.2675394789645
20
-5.14313663881543
30
0
41
1
10
53.8836396173899
20
-5.00555881896835
30
0
41
1
10
53.1145851124553
20
-4.71691510307267
30
0
41
1
10
52.7298556695224
20
-4.56524763068822
30
0
41
1
10
51.9579462533876
20
-4.25038164672651
30
0
41
1
10
51.5708348478168
20
-4.08813907698004
30
0
41
1
10
50.7942561936422
20
-3.75301757612792
30
0
41
1
10
50.4066945302974
20
-3.58086532697496
30
0
41
1
10
49.6337454934118
20
-3.2260170616195
30
0
41
1
10
49.2475287620522
20
-3.04525397112249
30
0
41
1
10
48.4750974204625
20
-2.67771518707312
30
0
41
1
10
48.0889159040232
20
-2.49083864159402
30
0
41
1
10
47.3165487808727
20
-2.10998749842125
30
0
41
1
10
46.930839061595
20
-1.91561778880668
30
0
41
1
10
46.1577454045568
20
-1.52412480032271
30
0
41
1
10
45.7705928398532
20
-1.32651411659501
30
0
41
1
10
45.3826022488863
20
-1.12702009697003
30
0
0
SPLINE
5
D0
100
AcDbEntity
8
1
62
256
6
ByLayer
370
18
48
1
60
0
100
AcDbSpline
70
4
71
3
72
8
73
4
40
0
40
0
40
0
40
0
40
1
40
1
40
1
40
1
41
1
10
45.780915534711
20
-7.35950221994588
30
0
41
1
10
45.7860315123073
20
-7.36820484789334
30
0
41
1
10
45.791800739343
20
-7.37251666071472
30
0
41
1
10
45.79749781028
20
-7.37251126588734
30
0
0
SPLINE
5
D1
100
AcDbEntity
8
1
62
256
6
ByLayer
370
18
48
1
60
0
100
AcDbSpline
70
4
71
3
72
8
73
4
40
0
40
0
40
0
40
0
40
1
40
1
40
1
40
1
41
1
10
91.9157709785506
20
-1.66055907939614
30
0
41
1
10
91.949801975408
20
-1.15123678219996
30
0
41
1
10
91.9742646175007
20
-0.642400853493115
30
0
41
1
10
91.9891435497361
20
-0.134052073789405
30
0
0
SPLINE
5
D2
100
AcDbEntity
8
1
62
256
6
ByLayer
370
18
48
1
60
0
100
AcDbSpline
70
4
71
3
72
8
73
4
40
0
40
0
40
0
40
0
40
1
40
1
40
1
40
1
41
1
10
91.9999704414791
20
0.0481951394226314
30
0
41
1
10
92.0000098546476
20
0.016063571668127
30
0
41
1
10
92.0000098510297
20
-0.0160665211449498
30
0
41
1
10
91.9999704414791
20
-0.0481951394227735
30
0
0
SPLINE
5
D3
100
AcDbEntity
8
1
62
256
6
ByLayer
370
18
48
1
60
0
100
AcDbSpline
70
4
71
3
72
8
73
4
40
0
40
0
40
0
40
0
40
1
40
1
40
1
40
1
41
1
10
45.3826022488863
20
-7.32285674012311
30
0
41
1
10
45.5154323700509
20
-7.3361424540887
30
0
41
1
10
45.6481990561654
20
-7.34836147307627
30
0
41
1
10
45.780915534711
20
-7.35950221994588
30
0
0
SPLINE
5
D4
100
AcDbEntity
8
1
62
256
6
ByLayer
370
18
48
1
60
0
100
AcDbSpline
70
4
71
3
72
12
73
8
40
0
40
0
40
0
40
0
40
0.250000000000002
40
0.250000000000002
40
0.500000000000003
40
0.500000000000003
40
1
40
1
40
1
40
1
41
1
10
44.2094729925553
20
-0.525443003494047
30
0
41
1
10
43.9523769674532
20
-0.387128421306073
30
0
41
1
10
43.6999121837544
20
-0.229649285208694
30
0
41
1
10
43.2014816034796
20
0.12132570253894
30
0
41
1
10
42.9547497906406
20
0.315625938134275
30
0
41
1
10
42.2306653905888
20
0.942677414689086
30
0
41
1
10
41.7673472315193
20
1.42124761822618
30
0
41
1
10
41.3129938711035
20
1.95240692199997
30
0
0
SPLINE
5
D5
100
AcDbEntity
8
1
62
256
6
ByLayer
370
18
48
1
60
0
100
AcDbSpline
70
4
71
3
72
8
73
4
40
0
40
0
40
0
40
0
40
1
40
1
40
1
40
1
41
1
10
89.7834187612248
20
-7.18961712281421
30
0
41
1
10
89.6372290259475
20
-7.30028949458858
30
0
41
1
10
89.5076072574175
20
-7.36749143837412
30
0
41
1
10
89.3929493183617
20
-7.39067539084152
30
0
0
SPLINE
5
D6
100
AcDbEntity
8
1
62
256
6
ByLayer
370
18
48
1
60
0
100
AcDbSpline
70
4
71
3
72
8
73
4
40
0
40
0
40
0
40
0
40
1
40
1
40
1
40
1
41
1
10
91.9891435497361
20
0.134052073789462
30
0
41
1
10
91.9898702807915
20
0.109222815927978
30
0
41
1
10
91.9939214196412
20
0.0796221849301446
30
0
41
1
10
91.9999704414791
20
0.0481951394226598
30
0
0
SPLINE
5
D7
100
AcDbEntity
8
1
62
256
6
ByLayer
370
18
48
1
60
0
100
AcDbSpline
70
4
71
3
72
8
73
4
40
0
40
0
40
0
40
0
40
1
40
1
40
1
40
1
41
1
10
89.783418761226
20
7.18961712281327
30
0
41
1
10
89.6372290259482
20
7.30028949458818
30
0
41
1
10
89.5076072574178
20
7.36749143837403
30
0
41
1
10
89.3929493183616
20
7.39067539084152
30
0
0
SPLINE
5
D8
100
AcDbEntity
8
1
62
256
6
ByLayer
370
18
48
1
60
0
100
AcDbSpline
70
4
71
3
72
94
73
90
40
0
40
0
40
0
40
0
40
0.0337097581724588
40
0.0337097581724588
40
0.0505646372586878
40
0.0505646372586878
40
0.0674195163449167
40
0.0674195163449167
40
0.101129274517375
40
0.101129274517375
40
0.117984153603603
40
0.117984153603603
40
0.134839032689832
40
0.134839032689832
40
0.16854879086229
40
0.16854879086229
40
0.185403669948519
40
0.185403669948519
40
0.202258549034749
40
0.202258549034749
40
0.219113428120978
40
0.219113428120978
40
0.235968307207207
40
0.235968307207207
40
0.252823186293437
40
0.252823186293437
40
0.269678065379666
40
0.269678065379666
40
0.303387823552124
40
0.303387823552124
40
0.320242702638353
40
0.320242702638353
40
0.337097581724581
40
0.337097581724581
40
0.370807339897038
40
0.370807339897038
40
0.404517098069494
40
0.404517098069494
40
0.438226856241951
40
0.438226856241951
40
0.455081735328179
40
0.455081735328179
40
0.471936614414408
40
0.471936614414408
40
0.505646372586864
40
0.505646372586864
40
0.539356130759321
40
0.539356130759321
40
0.573065888931777
40
0.573065888931777
40
0.589920768018005
40
0.589920768018005
40
0.606775647104234
40
0.606775647104234
40
0.640485405276692
40
0.640485405276692
40
0.657340284362921
40
0.657340284362921
40
0.67419516344915
40
0.67419516344915
40
0.707904921621608
40
0.707904921621608
40
0.724759800707837
40
0.724759800707837
40
0.741614679794065
40
0.741614679794065
40
0.775324437966521
40
0.775324437966521
40
0.792179317052748
40
0.792179317052748
40
0.809034196138975
40
0.809034196138975
40
0.842743954311428
40
0.842743954311428
40
0.859598833397654
40
0.859598833397654
40
0.87645371248388
40
0.87645371248388
40
0.910163470656333
40
0.910163470656333
40
0.927018349742559
40
0.927018349742559
40
0.943873228828785
40
0.943873228828785
40
0.977582987001238
40
0.977582987001238
40
0.994437866087464
40
0.994437866087464
40
1
40
1
40
1
40
1
41
1
10
45.8262266265344
20
7.33241255106802
30
0
41
1
10
46.2883528782481
20
7.30634151069486
30
0
41
1
10
46.7490833193337
20
7.26758981652264
30
0
41
1
10
47.4367399672576
20
7.19012623018784
30
0
41
1
10
47.6651715422704
20
7.16094966862377
30
0
41
1
10
48.1223557517064
20
7.09674073880026
30
0
41
1
10
48.3509724084783
20
7.06167360116874
30
0
41
1
10
49.0366493997132
20
6.94765210141654
30
0
41
1
10
49.4935103610688
20
6.85992367580059
30
0
41
1
10
50.1771367314933
20
6.70980426482905
30
0
41
1
10
50.4044645133124
20
6.65643128703388
30
0
41
1
10
50.8598815454892
20
6.54443866066626
30
0
41
1
10
51.0878883174169
20
6.48577904131056
30
0
41
1
10
51.7726097209627
20
6.30178156710082
30
0
41
1
10
52.2299425161494
20
6.16841033775307
30
0
41
1
10
52.9160470753902
20
5.95080392969831
30
0
41
1
10
53.1444727542926
20
5.87498094493807
30
0
41
1
10
53.6024743957528
20
5.71858331286629
30
0
41
1
10
53.8320461495206
20
5.63803047152987
30
0
41
1
10
54.2922426920464
20
5.47216879973627
30
0
41
1
10
54.5228336904922
20
5.38681868570998
30
0
41
1
10
54.984818792346
20
5.21099514808569
30
0
41
1
10
55.216395586631
20
5.12050675015246
30
0
41
1
10
55.6776335888117
20
4.93500570878663
30
0
41
1
10
55.9073182302602
20
4.83948005062348
30
0
41
1
10
56.3663546356745
20
4.64510495896681
30
0
41
1
10
56.5957638975398
20
4.54635194761843
30
0
41
1
10
57.2835970352789
20
4.24541110430491
30
0
41
1
10
57.7414883762139
20
4.03836044132265
30
0
41
1
10
58.4262468471503
20
3.71651566465201
30
0
41
1
10
58.6538711512035
20
3.60688900628216
30
0
41
1
10
59.1091449916788
20
3.38498660029523
30
0
41
1
10
59.3369513081345
20
3.27297632514228
30
0
41
1
10
60.0208538217397
20
2.933812029036
30
0
41
1
10
60.4772616578951
20
2.70326385200247
30
0
41
1
10
61.3896284361803
20
2.2308475334936
30
0
41
1
10
61.8447784843579
20
1.98744781976947
30
0
41
1
10
62.7600882148544
20
1.49887504798517
30
0
41
1
10
63.2193453645696
20
1.25215890567551
30
0
41
1
10
63.9096386724666
20
0.876434451793301
30
0
41
1
10
64.1398047201325
20
0.749921534296988
30
0
41
1
10
64.600728154257
20
0.495139149024368
30
0
41
1
10
64.8317721781415
20
0.367773934152041
30
0
41
1
10
65.5233132064859
20
-0.0122183708468526
30
0
41
1
10
65.9832878509865
20
-0.263803713573026
30
0
41
1
10
66.8998213527139
20
-0.766156060499156
30
0
41
1
10
67.3553895930793
20
-1.01872091439205
30
0
41
1
10
68.2681584019234
20
-1.51357573241489
30
0
41
1
10
68.7246537585168
20
-1.75723686631341
30
0
41
1
10
69.4085332488523
20
-2.118987744984
30
0
41
1
10
69.6363029833796
20
-2.23902682751026
30
0
41
1
10
70.0911893414981
20
-2.47845428413811
30
0
41
1
10
70.3188365138972
20
-2.59690637358508
30
0
41
1
10
71.0029802050605
20
-2.94749153212822
30
0
41
1
10
71.4603410476143
20
-3.17546546779019
30
0
41
1
10
72.1472162802368
20
-3.51059737010303
30
0
41
1
10
72.3763148097103
20
-3.62116517436596
30
0
41
1
10
72.8343433534536
20
-3.84070317998405
30
0
41
1
10
73.0637122980765
20
-3.94894284299173
30
0
41
1
10
73.7540122709047
20
-4.26724341365755
30
0
41
1
10
74.2177212099563
20
-4.47218101524285
30
0
41
1
10
74.9089472873304
20
-4.76674979586428
30
0
41
1
10
75.1388466071597
20
-4.86286961986045
30
0
41
1
10
75.5971325960704
20
-5.05161643360259
30
0
41
1
10
75.8258548480397
20
-5.14374579770387
30
0
41
1
10
76.5123130028298
20
-5.41144072163959
30
0
41
1
10
76.9697423106074
20
-5.57923203830401
30
0
41
1
10
77.6544367387775
20
-5.81666895151648
30
0
41
1
10
77.8824585738238
20
-5.8933930737478
30
0
41
1
10
78.3375797372772
20
-6.04247158605256
30
0
41
1
10
78.5648530500482
20
-6.11461024105398
30
0
41
1
10
79.2479289888842
20
-6.32166720221429
30
0
41
1
10
79.7042630088464
20
-6.44809949165855
30
0
41
1
10
80.3889842895506
20
-6.6216042770231
30
0
41
1
10
80.6173069967413
20
-6.67670039771161
30
0
41
1
10
81.0736338657931
20
-6.78168470720217
30
0
41
1
10
81.3016603074581
20
-6.83152579182229
30
0
41
1
10
81.9878772823813
20
-6.97120121933412
30
0
41
1
10
82.4474505108033
20
-7.05187245327849
30
0
41
1
10
83.138755147016
20
-7.15488589203454
30
0
41
1
10
83.3697372778503
20
-7.18620923879388
30
0
41
1
10
83.8312461187055
20
-7.24273701972547
30
0
41
1
10
84.0611681228654
20
-7.26786923314529
30
0
41
1
10
84.7511765951447
20
-7.33296361506214
30
0
41
1
10
85.2108143272148
20
-7.36305243530279
30
0
41
1
10
85.8985278200304
20
-7.38908968047832
30
0
41
1
10
86.1275253061805
20
-7.39456690340378
30
0
41
1
10
86.4314725336682
20
-7.39756828847291
30
0
41
1
10
86.5068222267466
20
-7.39795866991278
30
0
41
1
10
86.5821402512809
20
-7.39799541839892
30
0
0
SPLINE
5
D9
100
AcDbEntity
8
1
62
256
6
ByLayer
370
18
48
1
60
0
100
AcDbSpline
70
4
71
3
72
8
73
4
40
0
40
0
40
0
40
0
40
1
40
1
40
1
40
1
41
1
10
46.7324642660888
20
-7.00290470252094
30
0
41
1
10
46.2817088382917
20
-7.00157944272064
30
0
41
1
10
45.8319216358928
20
-6.98840554520061
30
0
41
1
10
45.3826022489046
20
-6.96351967888251
30
0
0
SPLINE
5
DA
100
AcDbEntity
8
1
62
256
6
ByLayer
370
18
48
1
60
0
100
AcDbSpline
70
4
71
3
72
8
73
4
40
0
40
0
40
0
40
0
40
1
40
1
40
1
40
1
41
1
10
45.382602248877
20
-1.16598321075727
30
0
41
1
10
44.9916904839807
20
-0.952593479976827
30
0
41
1
10
44.6006846009175
20
-0.738779363469149
30
0
41
1
10
44.2094729925553
20
-0.525443003494047
30
0
0
SPLINE
5
DB
100
AcDbEntity
8
1
62
256
6
ByLayer
370
18
48
1
60
0
100
AcDbSpline
70
4
71
3
72
8
73
4
40
0
40
0
40
0
40
0
40
1
40
1
40
1
40
1
41
1
10
45.478411612334
20
-7.3319859285466
30
0
41
1
10
45.4635211912452
20
-7.33186259364962
30
0
41
1
10
45.4486308087672
20
-7.33172577198283
30
0
41
1
10
45.4337405041734
20
-7.33157546643523
30
0
0
SPLINE
5
DC
100
AcDbEntity
8
1
62
256
6
ByLayer
370
18
48
1
60
0
100
AcDbSpline
70
4
71
3
72
36
73
32
40
0
40
0
40
0
40
0
40
0.125000000000014
40
0.125000000000014
40
0.250000000000027
40
0.250000000000027
40
0.312500000000034
40
0.312500000000034
40
0.375000000000041
40
0.375000000000041
40
0.406250000000044
40
0.406250000000044
40
0.437500000000047
40
0.437500000000047
40
0.453125000000049
40
0.453125000000049
40
0.468750000000051
40
0.468750000000051
40
0.500000000000045
40
0.500000000000045
40
0.531250000000039
40
0.531250000000039
40
0.562500000000032
40
0.562500000000032
40
0.62500000000002
40
0.62500000000002
40
0.750000000000013
40
0.750000000000013
40
0.875000000000007
40
0.875000000000007
40
1
40
1
40
1
40
1
41
1
10
90.43255194009
20
-2.6864432716504
30
0
41
1
10
90.3123524502917
20
-2.65695655267581
30
0
41
1
10
90.1919374548022
20
-2.61556619309778
30
0
41
1
10
89.952824913364
20
-2.50874104290247
30
0
41
1
10
89.8360480267999
20
-2.4446256184948
30
0
41
1
10
89.6671993630603
20
-2.32412827129988
30
0
41
1
10
89.6121790901077
20
-2.27992189624459
30
0
41
1
10
89.508479332159
20
-2.1805519713665
30
0
41
1
10
89.4597012724708
20
-2.12586404415043
30
0
41
1
10
89.3998154182224
20
-2.03100672939218
30
0
41
1
10
89.3820659361763
20
-1.99688834441201
30
0
41
1
10
89.3568705205644
20
-1.92526715944172
30
0
41
1
10
89.3497377588135
20
-1.88798221500232
30
0
41
1
10
89.3516254639011
20
-1.83437135762256
30
0
41
1
10
89.3542767037472
20
-1.81743988311499
30
0
41
1
10
89.3633979519808
20
-1.78534997785027
30
0
41
1
10
89.3699022997955
20
-1.77030056631281
30
0
41
1
10
89.39329073781
20
-1.72978633233464
30
0
41
1
10
89.414463860385
20
-1.70788024020973
30
0
41
1
10
89.4608671766962
20
-1.67285713369344
30
0
41
1
10
89.4866982141782
20
-1.65918331350875
30
0
41
1
10
89.5400649766995
20
-1.63753775066166
30
0
41
1
10
89.5676670093242
20
-1.62949961850524
30
0
41
1
10
89.6523573751051
20
-1.61109688312249
30
0
41
1
10
89.711607924147
20
-1.6064067885269
30
0
41
1
10
89.8893231897688
20
-1.60644048788939
30
0
41
1
10
90.0094803653653
20
-1.62451906677651
30
0
41
1
10
90.2519151929668
20
-1.68346193856192
30
0
41
1
10
90.3720731209158
20
-1.72430386923619
30
0
41
1
10
90.6081699530595
20
-1.82655820119535
30
0
41
1
10
90.7245471837799
20
-1.88771088693616
30
0
41
1
10
90.8383089386808
20
-1.96455393550286
30
0
0
SPLINE
5
DD
100
AcDbEntity
8
1
62
256
6
ByLayer
370
18
48
1
60
0
100
AcDbSpline
70
4
71
3
72
10
73
6
40
0
40
0
40
0
40
0
40
0.5
40
0.5
40
1
40
1
40
1
40
1
41
1
10
45.4337405041734
20
7.33157546643523
30
0
41
1
10
44.9662007751362
20
7.78886667139213
30
0
41
1
10
44.5015509385066
20
8.23324767785286
30
0
41
1
10
43.572444662225
20
9.10012922747467
30
0
41
1
10
43.1088278593394
20
9.52178285649805
30
0
41
1
10
42.6470398879284
20
9.92965062174784
30
0
0
SPLINE
5
DE
100
AcDbEntity
8
1
62
256
6
ByLayer
370
18
48
1
60
0
100
AcDbSpline
70
4
71
3
72
8
73
4
40
0
40
0
40
0
40
0
40
1
40
1
40
1
40
1
41
1
10
89.3929493183616
20
7.39067539084152
30
0
41
1
10
89.1707441659992
20
7.39661187861444
30
0
41
1
10
88.9485422860324
20
7.39949984706061
30
0
41
1
10
88.7262875288794
20
7.39934033858654
30
0
0
SPLINE
5
DF
100
AcDbEntity
8
1
62
256
6
ByLayer
370
18
48
1
60
0
100
AcDbSpline
70
4
71
3
72
12
73
8
40
0
40
0
40
0
40
0
40
0.182460329477075
40
0.182460329477075
40
0.454973552984716
40
0.454973552984716
40
1
40
1
40
1
40
1
41
1
10
50.790053609817
20
-7.0150873439525
30
0
41
1
10
50.4848262787886
20
-7.06671802722985
30
0
41
1
10
50.1794114588684
20
-7.11293876137762
30
0
41
1
10
49.4191608895616
20
-7.21413884992214
30
0
41
1
10
48.9645083113215
20
-7.26228714926526
30
0
41
1
10
47.6010942419384
20
-7.36900067086225
30
0
41
1
10
46.6928389359176
20
-7.38981000526053
30
0
41
1
10
45.780915534711
20
-7.35950221994588
30
0
0
SPLINE
5
E0
100
AcDbEntity
8
1
62
256
6
ByLayer
370
18
48
1
60
0
100
AcDbSpline
70
4
71
3
72
47
73
43
40
0
40
0
40
0
40
0
40
0.124999999999996
40
0.124999999999996
40
0.249999999999991
40
0.249999999999991
40
0.312499999999989
40
0.312499999999989
40
0.374999999999986
40
0.374999999999986
40
0.499999999999988
40
0.499999999999988
40
0.562499999999989
40
0.562499999999989
40
0.62499999999999
40
0.62499999999999
40
0.749999999999992
40
0.749999999999992
40
0.812499999999993
40
0.812499999999993
40
0.874999999999993
40
0.874999999999993
40
0.882812499999995
40
0.882812499999995
40
0.890624999999996
40
0.890624999999996
40
0.894531249999997
40
0.894531249999997
40
0.898437499999997
40
0.898437499999997
40
0.902343749999998
40
0.902343749999998
40
0.906249999999999
40
0.906249999999999
40
0.910156249999999
40
0.910156249999999
40
0.9140625
40
0.9140625
40
0.921875
40
0.9375
40
0.9375
40
1
40
1
40
1
40
1
41
1
10
82.4906359111883
20
1.49410961783639
30
0
41
1
10
82.8063751970217
20
1.27896718698574
30
0
41
1
10
83.127188486603
20
1.08017055995535
30
0
41
1
10
83.7796391311919
20
0.717446820935351
30
0
41
1
10
84.1115927050603
20
0.554538401819968
30
0
41
1
10
84.6189448974122
20
0.340528019181306
30
0
41
1
10
84.7894010464569
20
0.274337780082277
30
0
41
1
10
85.1292943756972
20
0.15415304049381
30
0
41
1
10
85.2992355430401
20
0.0999434396890422
30
0
41
1
10
85.8090417616609
20
-0.0441899708612823
30
0
41
1
10
86.148890099166
20
-0.116227969053142
30
0
41
1
10
86.6586202202418
20
-0.17892756054232
30
0
41
1
10
86.8290643535663
20
-0.191604172280364
30
0
41
1
10
87.1674153867361
20
-0.200461179642758
30
0
41
1
10
87.3344021915978
20
-0.196507697221932
30
0
41
1
10
87.8284165240221
20
-0.158046230049365
30
0
41
1
10
88.1485597671033
20
-0.0971738884794888
30
0
41
1
10
88.611772519459
20
0.0592466563088578
30
0
41
1
10
88.7630151288604
20
0.122316513209569
30
0
41
1
10
89.0539067431457
20
0.270462773687512
30
0
41
1
10
89.194383724708
20
0.355856175405791
30
0
41
1
10
89.3445396048245
20
0.4649078207988
30
0
41
1
10
89.3611145375406
20
0.477207955476871
30
0
41
1
10
89.3940453889611
20
0.502175414043904
30
0
41
1
10
89.4105596702751
20
0.514581024512779
30
0
41
1
10
89.4347031296225
20
0.534193535795367
30
0
41
1
10
89.4420564367113
20
0.541596059245052
30
0
41
1
10
89.4545066747338
20
0.559071131436497
30
0
41
1
10
89.4597252257605
20
0.569116337867712
30
0
41
1
10
89.4671155515089
20
0.590785470073456
30
0
41
1
10
89.4694500150634
20
0.602709634420108
30
0
41
1
10
89.4709345341519
20
0.627484609695529
30
0
41
1
10
89.4699147773844
20
0.640195195632828
30
0
41
1
10
89.4669943913826
20
0.665777891776202
30
0
41
1
10
89.4650566897021
20
0.678637026142241
30
0
41
1
10
89.4617422549615
20
0.704292447261452
30
0
41
1
10
89.4601599279445
20
0.717116271931303
30
0
41
1
10
89.4552456382295
20
0.7555963844205
30
0
41
1
10
89.4452500286016
20
0.832564199029491
30
0
41
1
10
89.4347636179008
20
0.909554314987986
30
0
41
1
10
89.3987702017288
20
1.16623523262811
30
0
41
1
10
89.3666868053476
20
1.37160149264071
30
0
41
1
10
89.3318518379841
20
1.57695418884583
30
0
0
SPLINE
5
E1
100
AcDbEntity
8
1
62
256
6
ByLayer
370
18
48
1
60
0
100
AcDbSpline
70
4
71
3
72
36
73
32
40
0
40
0
40
0
40
0
40
0.125000000000003
40
0.125000000000003
40
0.187500000000005
40
0.187500000000005
40
0.218750000000004
40
0.218750000000004
40
0.250000000000004
40
0.250000000000004
40
0.312500000000004
40
0.312500000000004
40
0.375000000000004
40
0.375000000000004
40
0.437500000000003
40
0.437500000000003
40
0.500000000000003
40
0.500000000000003
40
0.625000000000003
40
0.625000000000003
40
0.656250000000002
40
0.656250000000002
40
0.687500000000002
40
0.687500000000002
40
0.750000000000002
40
0.750000000000002
40
0.812500000000002
40
0.812500000000002
40
0.875000000000002
40
0.875000000000002
40
1
40
1
40
1
40
1
41
1
10
41.3129938710917
20
1.95240692201364
30
0
41
1
10
40.6406548615288
20
2.44397292457353
30
0
41
1
10
39.9661588278553
20
2.92664344145558
30
0
41
1
10
38.9516385236842
20
3.63775045837198
30
0
41
1
10
38.6130617479536
20
3.87269825409038
30
0
41
1
10
38.1025226192763
20
4.21927474841627
30
0
41
1
10
37.9317896955188
20
4.33404671341774
30
0
41
1
10
37.591148850496
20
4.5607794645623
30
0
41
1
10
37.4211036164443
20
4.67283434378501
30
0
41
1
10
36.9117994264612
20
5.00512308477531
30
0
41
1
10
36.5733692704574
20
5.22148752073017
30
0
41
1
10
35.8989692084327
20
5.64425779733725
30
0
41
1
10
35.5622889523512
20
5.84982796296984
30
0
41
1
10
34.888952459348
20
6.24842168666092
30
0
41
1
10
34.5524215658757
20
6.4415934605592
30
0
41
1
10
33.8797025756871
20
6.81580820691019
30
0
41
1
10
33.5437677285852
20
6.99709349367208
30
0
41
1
10
32.5352641213923
20
7.52133225477186
30
0
41
1
10
31.8599006645092
20
7.84284452443703
30
0
41
1
10
31.011810830029
20
8.20911881962527
30
0
41
1
10
30.8420129983659
20
8.28059612006666
30
0
41
1
10
30.5020813228314
20
8.41995939823107
30
0
41
1
10
30.3316844232223
20
8.48783883675003
30
0
41
1
10
29.8209256834061
20
8.68459529121131
30
0
41
1
10
29.4808979179044
20
8.80691214247116
30
0
41
1
10
28.8017138713652
20
9.03411289044465
30
0
41
1
10
28.4625535381151
20
9.13899879569715
30
0
41
1
10
27.7853378201857
20
9.33147094595904
30
0
41
1
10
27.4473060934257
20
9.41902529770198
30
0
41
1
10
26.4311611711793
20
9.65387430866039
30
0
41
1
10
25.75159455626
20
9.77392661814125
30
0
41
1
10
25.0698980565063
20
9.85669730136951
30
0
0
SPLINE
5
E2
100
AcDbEntity
8
1
62
256
6
ByLayer
370
18
48
1
60
0
100
AcDbSpline
70
4
71
3
72
24
73
20
40
0
40
0
40
0
40
0
40
0.0906281094927545
40
0.0906281094927545
40
0.220538379565218
40
0.220538379565218
40
0.350448649637682
40
0.350448649637682
40
0.480358919710146
40
0.480358919710146
40
0.610269189782609
40
0.610269189782609
40
0.740179459855073
40
0.740179459855073
40
0.805134594891305
40
0.805134594891305
40
0.870089729927537
40
0.870089729927537
40
1
40
1
40
1
40
1
41
1
10
45.3826022488863
20
-7.28138821077607
30
0
41
1
10
45.3826022488863
20
-7.24253419186616
30
0
41
1
10
45.3826022488863
20
-7.18768313860369
30
0
41
1
10
45.3826022488863
20
-7.01642246840231
30
0
41
1
10
45.3826022488863
20
-6.8832368764115
30
0
41
1
10
45.3826022488863
20
-6.55049881513258
30
0
41
1
10
45.3826022488862
20
-6.35557781130254
30
0
41
1
10
45.3826022488862
20
-5.91041349552907
30
0
41
1
10
45.3826022488863
20
-5.66018852617228
30
0
41
1
10
45.3826022488863
20
-5.10265872032844
30
0
41
1
10
45.3826022488863
20
-4.80228696497767
30
0
41
1
10
45.3826022488863
20
-4.16232831941005
30
0
41
1
10
45.3826022488863
20
-3.8224093185525
30
0
41
1
10
45.3826022488862
20
-3.28146948818539
30
0
41
1
10
45.3826022488862
20
-3.09730951258092
30
0
41
1
10
45.3826022488862
20
-2.72488644106397
30
0
41
1
10
45.3826022488862
20
-2.53609431193769
30
0
41
1
10
45.3826022488862
20
-1.96209246074784
30
0
41
1
10
45.3826022488863
20
-1.56927336453754
30
0
41
1
10
45.3826022488863
20
-1.16598321075733
30
0
0
SPLINE
5
E3
100
AcDbEntity
8
1
62
256
6
ByLayer
370
18
48
1
60
0
100
AcDbSpline
70
4
71
3
72
10
73
6
40
0
40
0
40
0
40
0
40
0.5
40
0.5
40
1
40
1
40
1
40
1
41
1
10
89.7834187612158
20
-7.1896171228403
30
0
41
1
10
90.1336589455336
20
-6.26597602391143
30
0
41
1
10
90.4875305110207
20
-5.34385365703031
30
0
41
1
10
91.1993185929451
20
-3.50125249920489
30
0
41
1
10
91.5571585103683
20
-2.58073286770355
30
0
41
1
10
91.9157709785513
20
-1.66055907939403
30
0
0
SPLINE
5
E4
100
AcDbEntity
8
1
62
256
6
ByLayer
370
18
48
1
60
0
100
AcDbSpline
70
4
71
3
72
8
73
4
40
0
40
0
40
0
40
0
40
1
40
1
40
1
40
1
41
1
10
91.9504555688994
20
-0.0806846960378493
30
0
41
1
10
91.5712536466715
20
-0.700932738389156
30
0
41
1
10
91.2005005253118
20
-1.32885501863481
30
0
41
1
10
90.8383089386807
20
-1.96455393550301
30
0
0
SPLINE
5
E5
100
AcDbEntity
8
1
62
256
6
ByLayer
370
18
48
1
60
0
100
AcDbSpline
70
4
71
3
72
10
73
6
40
0
40
0
40
0
40
0
40
0.5
40
0.5
40
1
40
1
40
1
40
1
41
1
10
89.4905628226488
20
1.71571352234821
30
0
41
1
10
89.894835700472
20
1.70588402748089
30
0
41
1
10
90.2991331194091
20
1.69583592007834
30
0
41
1
10
91.1076672894349
20
1.67628013519152
30
0
41
1
10
91.5118947929973
20
1.66685483478022
30
0
41
1
10
91.9157709785505
20
1.66055907939594
30
0
0
SPLINE
5
E6
100
AcDbEntity
8
1
62
256
6
ByLayer
370
18
48
1
60
0
100
AcDbSpline
70
4
71
3
72
12
73
8
40
0
40
0
40
0
40
0
40
0.596880242291463
40
0.596880242291463
40
0.895320363437194
40
0.895320363437194
40
1
40
1
40
1
40
1
41
1
10
89.51255126853
20
-7.02350415237311
30
0
41
1
10
87.6639528861261
20
-7.06390577732077
30
0
41
1
10
85.8400577221975
20
-6.90272696016845
30
0
41
1
10
83.0935430531401
20
-6.38412343536046
30
0
41
1
10
82.1761102695837
20
-6.16513319061539
30
0
41
1
10
80.9289399936195
20
-5.81038475806139
30
0
41
1
10
80.6037939571689
20
-5.71271688132435
30
0
41
1
10
80.2790178750183
20
-5.61026501732019
30
0
0
SPLINE
5
E7
100
AcDbEntity
8
1
62
256
6
ByLayer
370
13
48
1
60
0
100
AcDbSpline
70
4
71
3
72
26
73
22
40
0
40
0
40
0
40
0
40
0.0245558697826138
40
0.0245558697826138
40
0.106823240609266
40
0.106823240609266
40
0.271357982262566
40
0.271357982262566
40
0.435892723915868
40
0.435892723915868
40
0.518160094742519
40
0.518160094742519
40
0.559293780155844
40
0.559293780155844
40
0.600427465569169
40
0.600427465569169
40
0.764962207222471
40
0.764962207222471
40
0.929496948875773
40
0.929496948875773
40
1
40
1
40
1
40
1
41
1
10
80.2790184178144
20
-5.61026518854729
30
0
41
1
10
80.1408283758869
20
-5.5666726107504
30
0
41
1
10
80.0027053119962
20
-5.52221391812753
30
0
41
1
10
79.4026878635403
20
-5.32529776063257
30
0
41
1
10
78.9421875029129
20
-5.16446049450556
30
0
41
1
10
77.5639479849007
20
-4.65676819061642
30
0
41
1
10
76.649509857702
20
-4.2846145663718
30
0
41
1
10
74.8208393414524
20
-3.48681203347692
30
0
41
1
10
73.9065771057426
20
-3.06127916229318
30
0
41
1
10
72.5295651086204
20
-2.39245478764516
30
0
41
1
10
72.0696266474091
20
-2.16440595650189
30
0
41
1
10
71.3774894986326
20
-1.8161201777591
30
0
41
1
10
71.1464018163922
20
-1.69899514967739
30
0
41
1
10
70.683342591084
20
-1.46291608613791
30
0
41
1
10
70.4513959984252
20
-1.34397402565745
30
0
41
1
10
69.2952078949598
20
-0.748416090954521
30
0
41
1
10
68.3767976688617
20
-0.266630629675007
30
0
41
1
10
66.5444887349375
20
0.690816494494129
30
0
41
1
10
65.6307878890053
20
1.16692238991777
30
0
41
1
10
64.3230614690254
20
1.83161267922489
30
0
41
1
10
63.9304916106713
20
2.02906455088927
30
0
41
1
10
63.5372923615751
20
2.22394866695862
30
0
0
SPLINE
5
E8
100
AcDbEntity
8
1
62
256
6
ByLayer
370
18
48
1
60
0
100
AcDbSpline
70
4
71
3
72
40
73
36
40
0
40
0
40
0
40
0
40
0.0423624465429137
40
0.0423624465429137
40
0.106204950106719
40
0.106204950106719
40
0.170047453670523
40
0.170047453670523
40
0.233889957234328
40
0.233889957234328
40
0.297732460798133
40
0.297732460798133
40
0.361574964361938
40
0.361574964361938
40
0.425417467925742
40
0.425417467925742
40
0.457338719707645
40
0.457338719707645
40
0.489259971489547
40
0.489259971489547
40
0.553102475053354
40
0.553102475053354
40
0.61694497861716
40
0.61694497861716
40
0.680787482180967
40
0.680787482180967
40
0.744629985744774
40
0.744629985744774
40
0.80847248930858
40
0.80847248930858
40
0.872314992872387
40
0.872314992872387
40
0.936157496436193
40
0.936157496436193
40
1
40
1
40
1
40
1
41
1
10
64.3295783055504
20
7.01276463556411
30
0
41
1
10
64.5835196501516
20
7.01252584439808
30
0
41
1
10
64.8375960338068
20
7.00869407208324
30
0
41
1
10
65.4747188036347
20
6.98974281879296
30
0
41
1
10
65.8578445011391
20
6.96914641637844
30
0
41
1
10
66.6246006393003
20
6.91090985844258
30
0
41
1
10
67.0081453241264
20
6.8735343424363
30
0
41
1
10
67.7778213476608
20
6.78283505047364
30
0
41
1
10
68.1635338179461
20
6.72868697021934
30
0
41
1
10
68.9369157506317
20
6.60217624268307
30
0
41
1
10
69.3250446394603
20
6.52986974164244
30
0
41
1
10
70.0997644564631
20
6.37034625209407
30
0
41
1
10
70.4873047766707
20
6.2834771311671
30
0
41
1
10
71.2613702251514
20
6.09297954688782
30
0
41
1
10
71.6481205641871
20
5.98992737825077
30
0
41
1
10
72.2279789921147
20
5.82513760896521
30
0
41
1
10
72.4211547745373
20
5.76854817132605
30
0
41
1
10
72.8079736450801
20
5.65187449605173
30
0
41
1
10
73.0015967605877
20
5.5916823462357
30
0
41
1
10
73.5827346350183
20
5.40512625833068
30
0
41
1
10
73.9710141013447
20
5.27268308846231
30
0
41
1
10
74.7466996812985
20
4.99479460635649
30
0
41
1
10
75.1334739493582
20
4.84894069766554
30
0
41
1
10
75.9077352531647
20
4.54791951872829
30
0
41
1
10
76.2948910195965
20
4.39233351708975
30
0
41
1
10
77.0689051449778
20
4.07110734439476
30
0
41
1
10
77.4557576001255
20
3.90537844474093
30
0
41
1
10
78.2296640719714
20
3.56218052755182
30
0
41
1
10
78.6174884795018
20
3.38580342973805
30
0
41
1
10
79.3940978489415
20
3.02485511360484
30
0
41
1
10
79.7817353442308
20
2.84057609273472
30
0
41
1
10
80.5559094548788
20
2.46488879305591
30
0
41
1
10
80.9423164972556
20
2.27320023378076
30
0
41
1
10
81.7163289041995
20
1.8870663380589
30
0
41
1
10
82.1034347131405
20
1.69189084636375
30
0
41
1
10
82.4906359111883
20
1.49410961783633
30
0
0
SPLINE
5
E9
100
AcDbEntity
8
1
62
256
6
ByLayer
370
18
48
1
60
0
100
AcDbSpline
70
4
71
3
72
8
73
4
40
0
40
0
40
0
40
0
40
1
40
1
40
1
40
1
41
1
10
45.8262266265344
20
7.33241255106802
30
0
41
1
10
45.695409665945
20
7.3331757864843
30
0
41
1
10
45.5645720787272
20
7.3328961050652
30
0
41
1
10
45.4337405041734
20
7.33157546643523
30
0
0
SPLINE
5
EA
100
AcDbEntity
8
1
62
256
6
ByLayer
370
18
48
1
60
0
100
AcDbSpline
70
4
71
3
72
30
73
26
40
0
40
0
40
0
40
0
40
0.125
40
0.125
40
0.1875
40
0.1875
40
0.25
40
0.25
40
0.281250000000002
40
0.281250000000002
40
0.312500000000004
40
0.312500000000004
40
0.375000000000004
40
0.375000000000004
40
0.500000000000003
40
0.500000000000003
40
0.562500000000002
40
0.562500000000002
40
0.625000000000002
40
0.625000000000002
40
0.750000000000001
40
0.750000000000001
40
0.875000000000001
40
0.875000000000001
40
1
40
1
40
1
40
1
41
1
10
82.4906359111884
20
1.49410961783636
30
0
41
1
10
82.5575930053382
20
1.07373447096839
30
0
41
1
10
82.675245346624
20
0.659012489464033
30
0
41
1
10
82.9177685772252
20
0.0442943440333465
30
0
41
1
10
83.008258732285
20
-0.155664653360617
30
0
41
1
10
83.2047758634001
20
-0.544917627564558
30
0
41
1
10
83.3109726770084
20
-0.734611052432399
30
0
41
1
10
83.480756013529
20
-1.01263356403791
30
0
41
1
10
83.5391039241762
20
-1.10421807944925
30
0
41
1
10
83.6591248812367
20
-1.28532077251498
30
0
41
1
10
83.7209035361487
20
-1.37497497937483
30
0
41
1
10
83.9093465395459
20
-1.63873954692218
30
0
41
1
10
84.0395357888874
20
-1.80836842374362
30
0
41
1
10
84.4418445538095
20
-2.30125694708147
30
0
41
1
10
84.7254595829806
20
-2.60885300504307
30
0
41
1
10
85.1703079369424
20
-3.04377781803828
30
0
41
1
10
85.3218978776022
20
-3.18424648196864
30
0
41
1
10
85.6310507550473
20
-3.45704510832502
30
0
41
1
10
85.7884378497791
20
-3.58920365724904
30
0
41
1
10
86.2632254460791
20
-3.97029730057406
30
0
41
1
10
86.5851197877212
20
-4.20554476401611
30
0
41
1
10
87.2378872443737
20
-4.64457636786329
30
0
41
1
10
87.5687753635348
20
-4.84830793088273
30
0
41
1
10
88.2384909980198
20
-5.22794990853694
30
0
41
1
10
88.577312845487
20
-5.40388018441524
30
0
41
1
10
88.9198438048202
20
-5.56681302957296
30
0
0
SPLINE
5
EB
100
AcDbEntity
8
1
62
256
6
ByLayer
370
18
48
1
60
0
100
AcDbSpline
70
4
71
3
72
8
73
4
40
0
40
0
40
0
40
0
40
1
40
1
40
1
40
1
41
1
10
90.4325519400905
20
-2.68644327165114
30
0
41
1
10
89.9096198443784
20
-3.62958447649623
30
0
41
1
10
89.405278756613
20
-4.58961231648701
30
0
41
1
10
88.9198438048202
20
-5.56681302957301
30
0
0
SPLINE
5
EC
100
AcDbEntity
8
1
62
256
6
ByLayer
370
18
48
1
60
0
100
AcDbSpline
70
4
71
3
72
10
73
6
40
0
40
0
40
0
40
0
40
0.5
40
0.5
40
1
40
1
40
1
40
1
41
1
10
45.4337405041734
20
-7.33157546643523
30
0
41
1
10
44.9662007629735
20
-7.78886668328821
30
0
41
1
10
44.5015509320656
20
-8.23324768367533
30
0
41
1
10
43.5724446926016
20
-9.10012919931967
30
0
41
1
10
43.1088278393962
20
-9.52178287411255
30
0
41
1
10
42.6470398879284
20
-9.92965062174784
30
0
0
SPLINE
5
ED
100
AcDbEntity
8
1
62
256
6
ByLayer
370
18
48
1
60
0
100
AcDbSpline
70
4
71
3
72
18
73
14
40
0
40
0
40
0
40
0
40
0.25
40
0.25
40
0.375
40
0.375
40
0.500000000000001
40
0.500000000000001
40
0.749999999999999
40
0.749999999999999
40
0.874999999999999
40
0.874999999999999
40
1
40
1
40
1
40
1
41
1
10
88.9198438048202
20
-5.56681302957296
30
0
41
1
10
88.9199654041402
20
-5.81951223770099
30
0
41
1
10
88.9319828743588
20
-6.0408236756746
30
0
41
1
10
88.9684382290631
20
-6.3264981265915
30
0
41
1
10
88.9836850937855
20
-6.41396329964437
30
0
41
1
10
89.0207668249134
20
-6.57295964955028
30
0
41
1
10
89.0424029966175
20
-6.64354003926124
30
0
41
1
10
89.1162453782018
20
-6.82819148025231
30
0
41
1
10
89.1774602135982
20
-6.91601447477916
30
0
41
1
10
89.2886957111232
20
-6.9959112875016
30
0
41
1
10
89.3291830935998
20
-7.01387307844396
30
0
41
1
10
89.4163154925668
20
-7.03191885806538
30
0
41
1
10
89.4628811382216
20
-7.03206628831799
30
0
41
1
10
89.5125512684826
20
-7.02350415237262
30
0
0
SPLINE
5
EE
100
AcDbEntity
8
1
62
256
6
ByLayer
370
18
48
1
60
0
100
AcDbSpline
70
4
71
3
72
10
73
6
40
0
40
0
40
0
40
0
40
0.918906746317611
40
0.918906746317611
40
1
40
1
40
1
40
1
41
1
10
25.0698980565063
20
9.85669730136951
30
0
41
1
10
24.4024517735831
20
9.93559553194396
30
0
41
1
10
23.7475682111452
20
9.98133265764949
30
0
41
1
10
23.0400298472945
20
9.98954233951915
30
0
41
1
10
22.9826907674859
20
9.98991258232164
30
0
41
1
10
22.925384475783
20
9.98998552961828
30
0
0
SPLINE
5
EF
100
AcDbEntity
8
1
62
256
6
ByLayer
370
18
48
1
60
0
100
AcDbSpline
70
4
71
3
72
22
73
18
40
0
40
0
40
0
40
0
40
0.0366344785738319
40
0.0366344785738319
40
0.277475858930374
40
0.277475858930374
40
0.337686204019509
40
0.337686204019509
40
0.397896549108645
40
0.397896549108645
40
0.518317239286916
40
0.518317239286916
40
0.638737929465186
40
0.638737929465186
40
0.759158619643458
40
0.759158619643458
40
1
40
1
40
1
40
1
41
1
10
33.5143614510461
20
-7.01056003048507
30
0
41
1
10
33.4121168086729
20
-7.06491166811477
30
0
41
1
10
33.3098691172225
20
-7.11867830246118
30
0
41
1
10
32.5352641213923
20
-7.52133225477183
30
0
41
1
10
31.8599006645092
20
-7.84284452443697
30
0
41
1
10
31.011810830029
20
-8.20911881962525
30
0
41
1
10
30.8420129983659
20
-8.28059612006663
30
0
41
1
10
30.5020813228314
20
-8.41995939823101
30
0
41
1
10
30.3316844232223
20
-8.48783883675
30
0
41
1
10
29.8209256834061
20
-8.68459529121128
30
0
41
1
10
29.4808979179045
20
-8.80691214247116
30
0
41
1
10
28.8017138713652
20
-9.03411289044462
30
0
41
1
10
28.4625535381151
20
-9.13899879569712
30
0
41
1
10
27.7853378201858
20
-9.33147094595904
30
0
41
1
10
27.4473060934258
20
-9.41902529770195
30
0
41
1
10
26.4311611711793
20
-9.65387430866039
30
0
41
1
10
25.75159455626
20
-9.77392661814125
30
0
41
1
10
25.0698980565064
20
-9.85669730136951
30
0
0
SPLINE
5
F0
100
AcDbEntity
8
1
62
256
6
ByLayer
370
18
48
1
60
0
100
AcDbSpline
70
4
71
3
72
8
73
4
40
0
40
0
40
0
40
0
40
1
40
1
40
1
40
1
41
1
10
91.9891435497362
20
-0.134052073789263
30
0
41
1
10
91.9898702807916
20
-0.109222815927893
30
0
41
1
10
91.9939214196412
20
-0.0796221849302015
30
0
41
1
10
91.9999704414791
20
-0.0481951394229156
30
0
0
SPLINE
5
F1
100
AcDbEntity
8
1
62
256
6
ByLayer
370
18
48
1
60
0
100
AcDbSpline
70
4
71
3
72
10
73
6
40
0
40
0
40
0
40
0
40
0.5
40
0.5
40
1
40
1
40
1
40
1
41
1
10
91.9999704414791
20
0.0481951394226598
30
0
41
1
10
91.9952286452067
20
0.0265995022224672
30
0
41
1
10
91.9884110382443
20
0.0031315795636431
30
0
41
1
10
91.9713399068622
20
-0.041860918669812
30
0
41
1
10
91.9609727940905
20
-0.0634820186425031
30
0
41
1
10
91.9504555688994
20
-0.0806846960377356
30
0
0
SPLINE
5
F2
100
AcDbEntity
8
1
62
256
6
ByLayer
370
18
48
1
60
0
100
AcDbSpline
70
4
71
3
72
10
73
6
40
0
40
0
40
0
40
0
40
0.5
40
0.5
40
1
40
1
40
1
40
1
41
1
10
89.783418761226
20
7.18961712281333
30
0
41
1
10
90.1336848034342
20
6.26590783236531
30
0
41
1
10
90.4875602469118
20
5.34377638806455
30
0
41
1
10
91.1993387416911
20
3.50120063215718
30
0
41
1
10
91.5571617956476
20
2.5807244379132
30
0
41
1
10
91.9157709785505
20
1.66055907939597
30
0
0
SPLINE
5
F3
100
AcDbEntity
8
1
62
256
6
ByLayer
370
18
48
1
60
0
100
AcDbSpline
70
4
71
3
72
40
73
36
40
0
40
0
40
0
40
0
40
0.125000000000001
40
0.125000000000001
40
0.187500000000001
40
0.187500000000001
40
0.218750000000001
40
0.218750000000001
40
0.250000000000001
40
0.250000000000001
40
0.312500000000001
40
0.312500000000001
40
0.375000000000001
40
0.375000000000001
40
0.406250000000001
40
0.406250000000001
40
0.437500000000001
40
0.437500000000001
40
0.500000000000001
40
0.500000000000001
40
0.562500000000001
40
0.562500000000001
40
0.593750000000001
40
0.593750000000001
40
0.625000000000001
40
0.625000000000001
40
0.750000000000001
40
0.750000000000001
40
0.781250000000001
40
0.781250000000001
40
0.812500000000001
40
0.812500000000001
40
0.875000000000001
40
0.875000000000001
40
1
40
1
40
1
40
1
41
1
10
42.6470398879283
20
-9.9296506217481
30
0
41
1
10
42.5909492180251
20
-9.85339689666466
30
0
41
1
10
42.5358309327051
20
-9.70706985717354
30
0
41
1
10
42.4527384047356
20
-9.38563448826369
30
0
41
1
10
42.4248899639051
20
-9.26136570820813
30
0
41
1
10
42.3828151672992
20
-9.04841701620981
30
0
41
1
10
42.3687710903436
20
-8.97315936877229
30
0
41
1
10
42.3408601111283
20
-8.81551914647378
30
0
41
1
10
42.3269568948771
20
-8.73295765747423
30
0
41
1
10
42.285358468211
20
-8.47422691160759
30
0
41
1
10
42.2579483210824
20
-8.28703234307784
30
0
41
1
10
42.2029692590733
20
-7.88348249131803
30
0
41
1
10
42.1748108718591
20
-7.66715914135492
30
0
41
1
10
42.1326452559235
20
-7.32026379526138
30
0
41
1
10
42.1185329778445
20
-7.20054274727991
30
0
41
1
10
42.0905261909866
20
-6.95524898100823
30
0
41
1
10
42.0766660504289
20
-6.82988563306776
30
0
41
1
10
42.0355516450286
20
-6.44580457254119
30
0
41
1
10
42.008209085988
20
-6.17914921038857
30
0
41
1
10
41.952390381344
20
-5.62506383707938
30
0
41
1
10
41.9240353211428
20
-5.33762801853624
30
0
41
1
10
41.8818475570223
20
-4.8905682258632
30
0
41
1
10
41.8678813709391
20
-4.73888899135909
30
0
41
1
10
41.8400161092311
20
-4.43011169344808
30
0
41
1
10
41.8261257187153
20
-4.27316506652011
30
0
41
1
10
41.7570122539599
20
-3.48407750811759
30
0
41
1
10
41.7012317936418
20
-2.83207255364326
30
0
41
1
10
41.6323092532371
20
-1.99149000807753
30
0
41
1
10
41.6185390592153
20
-1.82208369913531
30
0
41
1
10
41.5908204005688
20
-1.48066726697198
30
0
41
1
10
41.5768225197216
20
-1.30824193126114
30
0
41
1
10
41.5347325952057
20
-0.789965296725654
30
0
41
1
10
41.5069012955072
20
-0.44526201543971
30
0
41
1
10
41.4238959212896
20
0.586470309488703
30
0
41
1
10
41.3692930222308
20
1.27115359451722
30
0
41
1
10
41.3129938710929
20
1.95240692200119
30
0
0
SPLINE
5
F4
100
AcDbEntity
8
1
62
256
6
ByLayer
370
18
48
1
60
0
100
AcDbSpline
70
4
71
3
72
22
73
18
40
0
40
0
40
0
40
0
40
0.125
40
0.125
40
0.25
40
0.25
40
0.375
40
0.375
40
0.5
40
0.5
40
0.625
40
0.625
40
0.75
40
0.75
40
0.875
40
0.875
40
1
40
1
40
1
40
1
41
1
10
90.8383089386808
20
-1.96455393550295
30
0
41
1
10
90.832028452595
20
-2.00722214566946
30
0
41
1
10
90.8221489815871
20
-2.05352780790537
30
0
41
1
10
90.7957643530576
20
-2.15140913409383
30
0
41
1
10
90.7797056063125
20
-2.20124390893523
30
0
41
1
10
90.743552616232
20
-2.29911800591475
30
0
41
1
10
90.7237457961446
20
-2.34637890049007
30
0
41
1
10
90.6825004420054
20
-2.43460785030842
30
0
41
1
10
90.6613510497538
20
-2.47502045582618
30
0
41
1
10
90.6187478215342
20
-2.54783596131335
30
0
41
1
10
90.5976242016353
20
-2.57959043145326
30
0
41
1
10
90.5574883304708
20
-2.63199215756538
30
0
41
1
10
90.5380243997809
20
-2.65323462842988
30
0
41
1
10
90.5018741255607
20
-2.68393232493469
30
0
41
1
10
90.4853835929175
20
-2.69334892698976
30
0
41
1
10
90.4556843657331
20
-2.69970552944588
30
0
41
1
10
90.4428380691513
20
-2.69642954651749
30
0
41
1
10
90.4325519400907
20
-2.68644327165038
30
0
0
SPLINE
5
F5
100
AcDbEntity
8
1
62
256
6
ByLayer
370
18
48
1
60
0
100
AcDbSpline
70
4
71
3
72
8
73
4
40
0
40
0
40
0
40
0
40
1
40
1
40
1
40
1
41
1
10
89.5039107214531
20
-7.11743628456577
30
0
41
1
10
89.4670007453913
20
-7.20868292468035
30
0
41
1
10
89.4300115076096
20
-7.29976159226533
30
0
41
1
10
89.3929493183616
20
-7.39067539084155
30
0
0
SPLINE
5
F6
100
AcDbEntity
8
1
62
256
6
ByLayer
370
18
48
1
60
0
100
AcDbSpline
70
4
71
3
72
14
73
10
40
0
40
0
40
0
40
0
40
0.25
40
0.25
40
0.5
40
0.5
40
0.75
40
0.75
40
1
40
1
40
1
40
1
41
1
10
89.3318518379842
20
1.57695418884586
30
0
41
1
10
89.328452480619
20
1.59699345551215
30
0
41
1
10
89.3294017657608
20
1.61786488955988
30
0
41
1
10
89.3433802984058
20
1.65592902270024
30
0
41
1
10
89.3567582715467
20
1.67291161254568
30
0
41
1
10
89.3899683343301
20
1.69730877270169
30
0
41
1
10
89.4094845784023
20
1.70519303098121
30
0
41
1
10
89.4493383247752
20
1.714577577592
30
0
41
1
10
89.4700258648363
20
1.71621285815323
30
0
41
1
10
89.4905628226483
20
1.71571352235182
30
0
0
SPLINE
5
F7
100
AcDbEntity
8
1
62
256
6
ByLayer
370
13
48
1
60
0
100
AcDbSpline
70
4
71
3
72
10
73
6
40
0
40
0
40
0
40
0
40
0.801761367548525
40
0.801761367548525
40
1
40
1
40
1
40
1
41
1
10
45.3826022488861
20
-7.07340449530466
30
0
41
1
10
46.2984872731907
20
-7.11715011710578
30
0
41
1
10
47.2164338894783
20
-7.11146987171819
30
0
41
1
10
48.3693230719554
20
-7.04132745396751
30
0
41
1
10
48.5983888256234
20
-7.02429738662934
30
0
41
1
10
48.8276192454789
20
-7.0041881666954
30
0
0
SPLINE
5
F8
100
AcDbEntity
8
1
62
256
6
ByLayer
370
18
48
1
60
0
100
AcDbSpline
70
4
71
3
72
40
73
36
40
0
40
0
40
0
40
0
40
0.0169919643227613
40
0.0169919643227613
40
0.0638018707835826
40
0.0638018707835826
40
0.15742168370523
40
0.15742168370523
40
0.204231590166054
40
0.204231590166054
40
0.251041496626878
40
0.251041496626878
40
0.344661309548522
40
0.344661309548522
40
0.391471216009341
40
0.391471216009341
40
0.438281122470161
40
0.438281122470161
40
0.531900935391804
40
0.531900935391804
40
0.578710841852624
40
0.578710841852624
40
0.625520748313443
40
0.625520748313443
40
0.719140561235078
40
0.719140561235078
40
0.765950467695898
40
0.765950467695898
40
0.812760374156717
40
0.812760374156717
40
0.906380187078356
40
0.906380187078356
40
0.953190093539178
40
0.953190093539178
40
1
40
1
40
1
40
1
41
1
10
75.118166179137
20
4.85376474362801
30
0
41
1
10
75.2015324383552
20
4.88849793847811
30
0
41
1
10
75.2848108499211
20
4.92298554399551
30
0
41
1
10
75.5971325960763
20
5.05161643360498
30
0
41
1
10
75.8258548480457
20
5.14374579770623
30
0
41
1
10
76.5123130028359
20
5.41144072164187
30
0
41
1
10
76.9697423106136
20
5.57923203830626
30
0
41
1
10
77.6544367387838
20
5.81666895151864
30
0
41
1
10
77.8824585738301
20
5.89339307374993
30
0
41
1
10
78.3375797372836
20
6.0424715860546
30
0
41
1
10
78.5648530500546
20
6.114610241056
30
0
41
1
10
79.2479289888907
20
6.32166720221619
30
0
41
1
10
79.7042630088532
20
6.44809949166037
30
0
41
1
10
80.3889842895574
20
6.62160427702477
30
0
41
1
10
80.6173069967481
20
6.67670039771323
30
0
41
1
10
81.0736338658
20
6.78168470720371
30
0
41
1
10
81.301660307465
20
6.83152579182379
30
0
41
1
10
81.9878772823884
20
6.97120121933546
30
0
41
1
10
82.4474505108106
20
7.05187245327971
30
0
41
1
10
83.1387551470233
20
7.15488589203559
30
0
41
1
10
83.3697372778578
20
7.18620923879485
30
0
41
1
10
83.831246118713
20
7.24273701972632
30
0
41
1
10
84.0611681228729
20
7.26786923314609
30
0
41
1
10
84.7511765951522
20
7.33296361506274
30
0
41
1
10
85.2108143272226
20
7.36305243530322
30
0
41
1
10
85.8985278200383
20
7.38908968047855
30
0
41
1
10
86.1275253061884
20
7.39456690340393
30
0
41
1
10
86.5845883206215
20
7.39908025961535
30
0
41
1
10
86.8125135227199
20
7.39808328768049
30
0
41
1
10
87.4973384169464
20
7.38538923633391
30
0
41
1
10
87.9546873464128
20
7.36414749004956
30
0
41
1
10
88.6406780509883
20
7.31326110697717
30
0
41
1
10
88.8693853438468
20
7.29312813734745
30
0
41
1
10
89.3264821903896
20
7.24629339047104
30
0
41
1
10
89.5546603213428
20
7.21948175690119
30
0
41
1
10
89.7834187612261
20
7.18961712281327
30
0
0
SPLINE
5
F9
100
AcDbEntity
8
1
62
256
6
ByLayer
370
18
48
1
60
0
100
AcDbSpline
70
4
71
3
72
18
73
14
40
0
40
0
40
0
40
0
40
0.244472336274846
40
0.244472336274846
40
0.310474588518379
40
0.310474588518379
40
0.376476840761912
40
0.376476840761912
40
0.508481345248978
40
0.508481345248978
40
0.77249035422311
40
0.77249035422311
40
1
40
1
40
1
40
1
41
1
10
67.6603935516887
20
-0.0039822166494616
30
0
41
1
10
68.50895238523
20
-0.453933835862728
30
0
41
1
10
69.3598266267193
20
-0.90537731972961
30
0
41
1
10
70.4477680577671
20
-1.4720835194509
30
0
41
1
10
70.679772024559
20
-1.59233975015556
30
0
41
1
10
71.1427152455229
20
-1.83080822803473
30
0
41
1
10
71.3737391637073
20
-1.94906540322262
30
0
41
1
10
72.0656665389162
20
-2.30056496870762
30
0
41
1
10
72.5254365973668
20
-2.53052007575127
30
0
41
1
10
73.9019661192722
20
-3.20425442797273
30
0
41
1
10
74.815927674917
20
-3.63202812829951
30
0
41
1
10
76.517694631717
20
-4.37714787764548
30
0
41
1
10
77.3054942929712
20
-4.70147521154087
30
0
41
1
10
78.0962389004205
20
-5.00074657977692
30
0
0
SPLINE
5
FA
100
AcDbEntity
8
1
62
256
6
ByLayer
370
13
48
1
60
0
100
AcDbSpline
70
4
71
3
72
16
73
12
40
0
40
0
40
0
40
0
40
0.0334079456300545
40
0.0334079456300545
40
0.154231952426301
40
0.154231952426301
40
0.275055959222547
40
0.275055959222547
40
0.516703972815033
40
0.516703972815033
40
1
40
1
40
1
40
1
41
1
10
78.0962389002631
20
-5.00074657971734
30
0
41
1
10
78.2230980254529
20
-5.04875867314362
30
0
41
1
10
78.3500329469959
20
-5.09612588184251
30
0
41
1
10
78.9364479906826
20
-5.3117397505566
30
0
41
1
10
79.3969707736777
20
-5.4720095079104
30
0
41
1
10
80.3212925209117
20
-5.77368554000623
30
0
41
1
10
80.7855383975494
20
-5.91516685651328
30
0
41
1
10
82.1700922749153
20
-6.30497777212852
30
0
41
1
10
83.0871417761902
20
-6.52019588733296
30
0
41
1
10
85.8324700265852
20
-7.02490845346253
30
0
41
1
10
87.6555748958353
20
-7.1734239720102
30
0
41
1
10
89.5039107213472
20
-7.11743628451262
30
0
0
SPLINE
5
FB
100
AcDbEntity
8
1
62
256
6
ByLayer
370
18
48
1
60
0
100
AcDbSpline
70
4
71
3
72
8
73
4
40
0
40
0
40
0
40
0
40
1
40
1
40
1
40
1
41
1
10
91.9157709785505
20
1.66055907939597
30
0
41
1
10
91.949806316091
20
1.15117181770205
30
0
41
1
10
91.9742665158516
20
0.642335995051951
30
0
41
1
10
91.9891435497361
20
0.134052073789462
30
0
0
SPLINE
5
FC
100
AcDbEntity
8
1
62
256
6
ByLayer
370
18
48
1
60
0
100
AcDbSpline
70
4
71
3
72
30
73
26
40
0
40
0
40
0
40
0
40
0.039212469883241
40
0.039212469883241
40
0.279409352412428
40
0.279409352412428
40
0.339458573044724
40
0.339458573044724
40
0.39950779367702
40
0.39950779367702
40
0.519606234941616
40
0.519606234941616
40
0.579655455573913
40
0.579655455573913
40
0.639704676206211
40
0.639704676206211
40
0.699753896838509
40
0.699753896838509
40
0.759803117470807
40
0.759803117470807
40
0.879901558735402
40
0.879901558735402
40
0.939950779367701
40
0.939950779367701
40
1
40
1
40
1
40
1
41
1
10
33.5002614501828
20
7.01806201833995
30
0
41
1
10
33.6199483613463
20
7.08185791646184
30
0
41
1
10
33.7394877387023
20
7.14476273590034
30
0
41
1
10
34.5915165181526
20
7.58542006252205
30
0
41
1
10
35.3233791347517
20
7.92682745201807
30
0
41
1
10
36.2329445481781
20
8.31159468370859
30
0
41
1
10
36.4144871347109
20
8.38649138645255
30
0
41
1
10
36.7782394230134
20
8.53111875991334
30
0
41
1
10
36.9603435392777
20
8.60093724542034
30
0
41
1
10
37.5072594302793
20
8.8030261643473
30
0
41
1
10
37.8725908118421
20
8.92800915745656
30
0
41
1
10
38.4210823322012
20
9.10114210948296
30
0
41
1
10
38.6040157891618
20
9.15644663256032
30
0
41
1
10
38.9698732322426
20
9.26228701324652
30
0
41
1
10
39.1526623704536
20
9.31288214810954
30
0
41
1
10
39.5193438952055
20
9.40865843354865
30
0
41
1
10
39.7031900673055
20
9.453873582581
30
0
41
1
10
40.0718587339119
20
9.5389771579764
30
0
41
1
10
40.2568868674379
20
9.57891186421284
30
0
41
1
10
40.8111582308645
20
9.69037393635773
30
0
41
1
10
41.179768441832
20
9.7536223989442
30
0
41
1
10
41.7306190080902
20
9.83215442809822
30
0
41
1
10
41.9137133280832
20
9.85563438084125
30
0
41
1
10
42.2801711350955
20
9.8968870011264
30
0
41
1
10
42.4635417252927
20
9.91467072039563
30
0
41
1
10
42.6470398879283
20
9.92965062174807
30
0
0
SPLINE
5
FD
100
AcDbEntity
8
1
62
256
6
ByLayer
370
18
48
1
60
0
100
AcDbSpline
70
4
71
3
72
14
73
10
40
0
40
0
40
0
40
0
40
0.25
40
0.25
40
0.5
40
0.5
40
0.75
40
0.75
40
1
40
1
40
1
40
1
41
1
10
89.5125512684725
20
-7.02350415237436
30
0
41
1
10
89.5159996228667
20
-7.02290972512097
30
0
41
1
10
89.518814842095
20
-7.02399047326233
30
0
41
1
10
89.5227655872965
20
-7.03058185028004
30
0
41
1
10
89.5238482953617
20
-7.03617195729382
30
0
41
1
10
89.5230747801694
20
-7.05297924571971
30
0
41
1
10
89.5211355112185
20
-7.06424726144891
30
0
41
1
10
89.5142112384968
20
-7.08994266443949
30
0
41
1
10
89.5093131371944
20
-7.10408075477403
30
0
41
1
10
89.5039107214761
20
-7.11743628450873
30
0
0
SPLINE
5
FE
100
AcDbEntity
8
1
62
256
6
ByLayer
370
18
48
1
60
0
100
AcDbSpline
70
4
71
2
72
6
73
3
40
0
40
0
40
0
40
1
40
1
40
1
41
1
10
88.9633077434237
20
-7.02949448989102
30
0
41
1
10
89.1932042059721
20
-7.03014325042483
30
0
41
1
10
89.4210933659604
20
-7.02882481257586
30
0
0
SPLINE
5
FF
100
AcDbEntity
8
1
62
256
6
ByLayer
370
18
48
1
60
0
100
AcDbSpline
70
4
71
3
72
32
73
28
40
0
40
0
40
0
40
0
40
0.0490209585394068
40
0.0947593275418342
40
0.134031671611916
40
0.170779522267654
40
0.205557916663499
40
0.239681657156083
40
0.280302754731951
40
0.327943647024172
40
0.372571754731708
40
0.408433121577269
40
0.443326790236781
40
0.483489794473116
40
0.528253590010756
40
0.566618913059156
40
0.594685528089167
40
0.616525088687769
40
0.652344539444022
40
0.701169254827412
40
0.749538988168493
40
0.791096953488092
40
0.830906537072333
40
0.880322206305092
40
0.932225554382903
40
0.987888449147921
40
1
40
1
40
1
40
1
41
1
10
64.3298306776514
20
7.01251195127875
30
0
41
1
10
64.1183793244014
20
7.0115141761467
30
0
41
1
10
63.7051873196254
20
7.01032065753327
30
0
41
1
10
63.0897270529453
20
7.00856641646465
30
0
41
1
10
62.5525549555887
20
7.0121167608892
30
0
41
1
10
62.0570657462436
20
7.0116971569399
30
0
41
1
10
61.5795067737085
20
7.01138571024734
30
0
41
1
10
61.0833212799398
20
7.0113164456439
30
0
41
1
10
60.5291663930559
20
7.01142443567829
30
0
41
1
10
59.9273521209598
20
7.01084988694925
30
0
41
1
10
59.3471205523517
20
7.01009267887537
30
0
41
1
10
58.82460716313
20
7.00998549301124
30
0
41
1
10
58.322315925828
20
7.01009055869432
30
0
41
1
10
57.7797102380841
20
7.01005079951042
30
0
41
1
10
57.2213836347085
20
7.00893529001456
30
0
41
1
10
56.7178334712333
20
7.00885773011578
30
0
41
1
10
56.3180976995527
20
7.00907435700375
30
0
41
1
10
55.9298885738516
20
7.00907112451236
30
0
41
1
10
55.4476818398678
20
7.00893603765263
30
0
41
1
10
54.8453316055825
20
7.00792705088622
30
0
41
1
10
54.2169891543492
20
7.00742357657731
30
0
41
1
10
53.6294828410493
20
7.00764938172966
30
0
41
1
10
53.0372260643638
20
7.00740227055073
30
0
41
1
10
52.3981450799494
20
7.0066354895834
30
0
41
1
10
51.6872533532075
20
7.00603980598137
30
0
41
1
10
51.1452952135877
20
7.00608192363654
30
0
41
1
10
50.8383814978629
20
7.00594316487633
30
0
41
1
10
50.7835348664536
20
7.0059135304675
30
0
0
SPLINE
5
100
100
AcDbEntity
8
1
62
256
6
ByLayer
370
18
48
1
60
0
100
AcDbSpline
70
4
71
1
72
4
73
2
40
0
40
0
40
1
40
1
41
1
10
90.4502627519335
20
-2.6944729327806
30
0
41
1
10
90.4551959473606
20
-2.69520690973536
30
0
0
SPLINE
5
101
100
AcDbEntity
8
1
62
256
6
ByLayer
370
18
48
1
60
0
100
AcDbSpline
70
4
71
1
72
4
73
2
40
0
40
0
40
1
40
1
41
1
10
45.2670434183075
20
-7.27560257936287
30
0
41
1
10
45.3814968917533
20
-7.28154271407058
30
0
0
SPLINE
5
102
100
AcDbEntity
8
1
62
256
6
ByLayer
370
18
48
1
60
0
100
AcDbSpline
70
4
71
3
72
31
73
27
40
0
40
0
40
0
40
0
40
0.0407297976705028
40
0.0773187017957832
40
0.11065323142568
40
0.136006624621276
40
0.154264650238668
40
0.185890991291902
40
0.229965262283877
40
0.271831575835296
40
0.319004770860996
40
0.37827858085437
40
0.436389734575174
40
0.486960352122053
40
0.525905775885372
40
0.567209780875375
40
0.60998901773467
40
0.653330899204461
40
0.703813418567368
40
0.755592533363534
40
0.786770577902824
40
0.817759425595895
40
0.852698564805625
40
0.893820169218993
40
0.944809967970888
40
1
40
1
40
1
40
1
41
1
10
46.6752934839022
20
-7.00291605973237
30
0
41
1
10
46.9064932595606
20
-7.0019701399716
30
0
41
1
10
47.3484592938885
20
-7.00104637745216
30
0
41
1
10
48.0117094739256
20
-7.00119549916985
30
0
41
1
10
48.5524456613159
20
-7.0046454496067
30
0
41
1
10
49.0009871443768
20
-7.00443472315334
30
0
41
1
10
49.4454742922056
20
-7.0047190088732
30
0
41
1
10
49.9988437802765
20
-7.005130404532
30
0
41
1
10
50.6919843123063
20
-7.00593962442724
30
0
41
1
10
51.4766563008528
20
-7.00604540468814
30
0
41
1
10
52.350622680411
20
-7.00644365743665
30
0
41
1
10
53.3207194765309
20
-7.00787695986659
30
0
41
1
10
54.3107242492518
20
-7.00711878540963
30
0
41
1
10
55.1809240333938
20
-7.00867363339634
30
0
41
1
10
55.9520482779125
20
-7.00921216595208
30
0
41
1
10
56.6772691008213
20
-7.00874045316584
30
0
41
1
10
57.4283211285127
20
-7.00935259341335
30
0
41
1
10
58.233804354299
20
-7.01035747743737
30
0
41
1
10
59.0909339718632
20
-7.00965212771197
30
0
41
1
10
59.8814054347029
20
-7.01113748127975
30
0
41
1
10
60.5421690494888
20
-7.01058358447546
30
0
41
1
10
61.1168601568312
20
-7.00970030122906
30
0
41
1
10
61.7433806191475
20
-7.01144848688256
30
0
41
1
10
62.4817734422483
20
-7.01248927278456
30
0
41
1
10
63.3538151101332
20
-7.01270803450183
30
0
41
1
10
63.9777087203521
20
-7.0128171916293
30
0
41
1
10
64.3022989646245
20
-7.01279311991667
30
0
0
LINE
5
7D
100
AcDbEntity
8
SK1
62
256
6
ByLayer
370
18
48
1
60
0
100
AcDbLine
10
0
20
-10
30
0
11
0
21
10
31
0
39
0
210
0
220
0
230
1
0
LINE
5
7F
100
AcDbEntity
8
SK1
62
256
6
ByLayer
370
18
48
1
60
0
100
AcDbLine
10
-50
20
6.745
30
0
11
-50
21
1.781436
31
0
39
0
210
0
220
0
230
1
0
LINE
5
80
100
AcDbEntity
8
SK1
62
256
6
ByLayer
370
18
48
1
60
0
100
AcDbLine
10
-50
20
1.781436
30
0
11
-50
21
1.215788
31
0
39
0
210
0
220
0
230
1
0
LINE
5
81
100
AcDbEntity
8
SK1
62
256
6
ByLayer
370
18
48
1
60
0
100
AcDbLine
10
-50
20
-1.215788
30
0
11
-50
21
-6.745
31
0
39
0
210
0
220
0
230
1
0
LINE
5
82
100
AcDbEntity
8
SK1
62
256
6
ByLayer
370
18
48
1
60
0
100
AcDbLine
10
-47.6
20
-1.010034
30
0
11
-47.6
21
1.787376
31
0
39
0
210
0
220
0
230
1
0
LINE
5
83
100
AcDbEntity
8
SK1
62
256
6
ByLayer
370
13
48
1
60
0
100
AcDbLine
10
-47.7
20
1.882232
30
0
11
-47.7
21
1.114992
31
0
39
0
210
0
220
0
230
1
0
LINE
5
84
100
AcDbEntity
8
SK1
62
256
6
ByLayer
370
18
48
1
60
0
100
AcDbLine
10
-46.745
20
10
30
0
11
-46.745
21
-10
31
0
39
0
210
0
220
0
230
1
0
LINE
5
85
100
AcDbEntity
8
1
62
256
6
ByLayer
370
13
48
1
60
0
100
AcDbLine
10
89.490563
20
1.715714
30
0
11
91.989144
21
0.134052
31
0
39
0
210
0
220
0
230
1
0
LINE
5
86
100
AcDbEntity
8
1
62
256
6
ByLayer
370
18
48
1
60
0
100
AcDbLine
10
1.5
20
9.99
30
0
11
1.5
21
-9.99
31
0
39
0
210
0
220
0
230
1
0
LINE
5
87
100
AcDbEntity
8
1
62
256
6
ByLayer
370
18
48
1
60
0
100
AcDbLine
10
0
20
-10
30
0
11
0
21
10
31
0
39
0
210
0
220
0
230
1
0
LINE
5
88
100
AcDbEntity
8
1
62
256
6
ByLayer
370
13
48
1
60
0
100
AcDbLine
10
89.331852
20
1.576954
30
0
11
91.950456
21
-0.080685
31
0
39
0
210
0
220
0
230
1
0
LINE
5
89
100
AcDbEntity
8
80
62
256
6
ByLayer
370
18
48
1
60
0
100
AcDbLine
10
0
20
0
30
0
11
-5
21
0
31
0
39
0
210
0
220
0
230
1
0
LINE
5
8A
100
AcDbEntity
8
SK4
62
256
6
ByLayer
370
18
48
0.05
60
0
100
AcDbLine
10
97
20
0
30
0
11
-55
21
0
31
0
39
0
210
0
220
0
230
1
0
LINE
5
8C
100
AcDbEntity
8
4
62
256
6
ByLayer
370
18
48
0.05
60
0
100
AcDbLine
10
92
20
0
30
0
11
0
21
0
31
0
39
0
210
0
220
0
230
1
0
LINE
5
8E
100
AcDbEntity
8
SK1
62
256
6
ByLayer
370
18
48
1
60
0
100
AcDbLine
10
-46.745
20
-10
30
0
11
0
21
-10
31
0
39
0
210
0
220
0
230
1
0
LINE
5
8F
100
AcDbEntity
8
SK1
62
256
6
ByLayer
370
18
48
1
60
0
100
AcDbLine
10
0
20
10
30
0
11
-46.745
21
10
31
0
39
0
210
0
220
0
230
1
0
LINE
5
90
100
AcDbEntity
8
SK1
62
256
6
ByLayer
370
18
48
1
60
0
100
AcDbLine
10
-50
20
-6.745
30
0
11
-46.745
21
-10
31
0
39
0
210
0
220
0
230
1
0
LINE
5
91
100
AcDbEntity
8
SK1
62
256
6
ByLayer
370
18
48
1
60
0
100
AcDbLine
10
-46.745
20
10
30
0
11
-50
21
6.745
31
0
39
0
210
0
220
0
230
1
0
LINE
5
92
100
AcDbEntity
8
1
62
256
6
ByLayer
370
18
48
1
60
0
100
AcDbLine
10
45.797327
20
-7.372509
30
0
11
46.577118
21
-7.372997
31
0
39
0
210
0
220
0
230
1
0
LINE
5
93
100
AcDbEntity
8
1
62
256
6
ByLayer
370
18
48
1
60
0
100
AcDbLine
10
88.728317
20
7.399341
30
0
11
86.578811
21
7.397998
31
0
39
0
210
0
220
0
230
1
0
LINE
5
94
100
AcDbEntity
8
1
62
256
6
ByLayer
370
18
48
1
60
0
100
AcDbLine
10
86.578811
20
-7.397998
30
0
11
88.728317
21
-7.399341
31
0
39
0
210
0
220
0
230
1
0
LINE
5
95
100
AcDbEntity
8
1
62
256
6
ByLayer
370
18
48
1
60
0
100
AcDbLine
10
46.577118
20
7.372997
30
0
11
45.797327
21
7.372509
31
0
39
0
210
0
220
0
230
1
0
LINE
5
96
100
AcDbEntity
8
1
62
256
6
ByLayer
370
18
48
1
60
0
100
AcDbLine
10
22.909271
20
9.99
30
0
11
1.5
21
9.99
31
0
39
0
210
0
220
0
230
1
0
LINE
5
97
100
AcDbEntity
8
1
62
256
6
ByLayer
370
18
48
1
60
0
100
AcDbLine
10
1.5
20
-9.99
30
0
11
22.909271
21
-9.99
31
0
39
0
210
0
220
0
230
1
0
LINE
5
98
100
AcDbEntity
8
1
62
256
6
ByLayer
370
18
48
1
60
0
100
AcDbLine
10
1.5
20
9.99
30
0
11
0
21
10
31
0
39
0
210
0
220
0
230
1
0
LINE
5
99
100
AcDbEntity
8
1
62
256
6
ByLayer
370
18
48
1
60
0
100
AcDbLine
10
0
20
-10
30
0
11
1.5
21
-9.99
31
0
39
0
210
0
220
0
230
1
0
LINE
5
9A
100
AcDbEntity
8
81
62
256
6
ByLayer
370
18
48
1
60
0
100
AcDbLine
10
92
20
0
30
0
11
97
21
0
31
0
39
0
210
0
220
0
230
1
0
LINE
5
9B
100
AcDbEntity
8
2
62
256
6
ByLayer
370
13
48
1
60
0
100
AcDbLine
10
114.236431
20
-9.99
30
0
11
114.236431
21
37.095947
31
0
39
0
210
0
220
0
230
1
0
LINE
5
9D
100
AcDbEntity
8
2
62
256
6
ByLayer
370
13
48
1
60
0
100
AcDbLine
10
44.3901
20
9.99
30
0
11
116.236431
21
9.99
31
0
39
0
210
0
220
0
230
1
0
LINE
5
9E
100
AcDbEntity
8
2
62
256
6
ByLayer
370
13
48
1
60
0
100
AcDbLine
10
44.3901
20
-9.99
30
0
11
116.236431
21
-9.99
31
0
39
0
210
0
220
0
230
1
0
LINE
5
9F
100
AcDbEntity
8
1
62
256
6
ByLayer
370
18
48
1
60
1
100
AcDbLine
10
114.236431
20
9.99
30
0
11
114.697214
21
6.490002
31
0
39
0
210
0
220
0
230
1
0
LINE
5
A0
100
AcDbEntity
8
1
62
256
6
ByLayer
370
18
48
1
60
1
100
AcDbLine
10
114.697214
20
6.490002
30
0
11
113.775647
21
6.489998
31
0
39
0
210
0
220
0
230
1
0
LINE
5
A1
100
AcDbEntity
8
1
62
256
6
ByLayer
370
18
48
1
60
1
100
AcDbLine
10
113.775647
20
6.489998
30
0
11
114.236431
21
9.99
31
0
39
0
210
0
220
0
230
1
0
LINE
5
A2
100
AcDbEntity
8
1
62
256
6
ByLayer
370
18
48
1
60
1
100
AcDbLine
10
114.236431
20
-9.99
30
0
11
113.775647
21
-6.490002
31
0
39
0
210
0
220
0
230
1
0
LINE
5
A3
100
AcDbEntity
8
1
62
256
6
ByLayer
370
18
48
1
60
1
100
AcDbLine
10
113.775647
20
-6.490002
30
0
11
114.697214
21
-6.489998
31
0
39
0
210
0
220
0
230
1
0
LINE
5
A4
100
AcDbEntity
8
1
62
256
6
ByLayer
370
18
48
1
60
1
100
AcDbLine
10
114.697214
20
-6.489998
30
0
11
114.236431
21
-9.99
31
0
39
0
210
0
220
0
230
1
0
LINE
5
A5
100
AcDbEntity
8
SK2
62
256
6
ByLayer
370
13
48
1
60
0
100
AcDbLine
10
-58.625163
20
-10
30
0
11
-58.625163
21
41.732039
31
0
39
0
210
0
220
0
230
1
0
LINE
5
A7
100
AcDbEntity
8
SK2
62
256
6
ByLayer
370
13
48
1
60
0
100
AcDbLine
10
-51.5875
20
10
30
0
11
-60.625163
21
10
31
0
39
0
210
0
220
0
230
1
0
LINE
5
A8
100
AcDbEntity
8
SK2
62
256
6
ByLayer
370
13
48
1
60
0
100
AcDbLine
10
-51.5875
20
-10
30
0
11
-60.625163
21
-10
31
0
39
0
210
0
220
0
230
1
0
LINE
5
A9
100
AcDbEntity
8
1
62
256
6
ByLayer
370
18
48
1
60
1
100
AcDbLine
10
-58.625163
20
10
30
0
11
-58.164379
21
6.500002
31
0
39
0
210
0
220
0
230
1
0
LINE
5
AA
100
AcDbEntity
8
1
62
256
6
ByLayer
370
18
48
1
60
1
100
AcDbLine
10
-58.164379
20
6.500002
30
0
11
-59.085946
21
6.499998
31
0
39
0
210
0
220
0
230
1
0
LINE
5
AB
100
AcDbEntity
8
1
62
256
6
ByLayer
370
18
48
1
60
1
100
AcDbLine
10
-59.085946
20
6.499998
30
0
11
-58.625163
21
10
31
0
39
0
210
0
220
0
230
1
0
LINE
5
AC
100
AcDbEntity
8
1
62
256
6
ByLayer
370
18
48
1
60
1
100
AcDbLine
10
-58.625163
20
-10
30
0
11
-59.085946
21
-6.500002
31
0
39
0
210
0
220
0
230
1
0
LINE
5
AD
100
AcDbEntity
8
1
62
256
6
ByLayer
370
18
48
1
60
1
100
AcDbLine
10
-59.085946
20
-6.500002
30
0
11
-58.164379
21
-6.499998
31
0
39
0
210
0
220
0
230
1
0
LINE
5
AE
100
AcDbEntity
8
1
62
256
6
ByLayer
370
18
48
1
60
1
100
AcDbLine
10
-58.164379
20
-6.499998
30
0
11
-58.625163
21
-10
31
0
39
0
210
0
220
0
230
1
0
LINE
5
AF
100
AcDbEntity
8
2
62
256
6
ByLayer
370
13
48
1
60
0
100
AcDbLine
10
105.970081
20
-7.4
30
0
11
105.970081
21
37.973429
31
0
39
0
210
0
220
0
230
1
0
LINE
5
B0
100
AcDbEntity
8
2
62
256
6
ByLayer
370
13
48
1
60
0
100
AcDbLine
10
91.3801
20
7.4
30
0
11
107.970081
21
7.4
31
0
39
0
210
0
220
0
230
1
0
LINE
5
B1
100
AcDbEntity
8
2
62
256
6
ByLayer
370
13
48
1
60
0
100
AcDbLine
10
91.3801
20
-7.4
30
0
11
107.970081
21
-7.4
31
0
39
0
210
0
220
0
230
1
0
LINE
5
B2
100
AcDbEntity
8
1
62
256
6
ByLayer
370
18
48
1
60
1
100
AcDbLine
10
105.970081
20
7.4
30
0
11
106.430865
21
3.900002
31
0
39
0
210
0
220
0
230
1
0
LINE
5
B3
100
AcDbEntity
8
1
62
256
6
ByLayer
370
18
48
1
60
1
100
AcDbLine
10
106.430865
20
3.900002
30
0
11
105.509297
21
3.899998
31
0
39
0
210
0
220
0
230
1
0
LINE
5
B4
100
AcDbEntity
8
1
62
256
6
ByLayer
370
18
48
1
60
1
100
AcDbLine
10
105.509297
20
3.899998
30
0
11
105.970081
21
7.4
31
0
39
0
210
0
220
0
230
1
0
LINE
5
B5
100
AcDbEntity
8
1
62
256
6
ByLayer
370
18
48
1
60
1
100
AcDbLine
10
105.970081
20
-7.4
30
0
11
105.509297
21
-3.900002
31
0
39
0
210
0
220
0
230
1
0
LINE
5
B6
100
AcDbEntity
8
1
62
256
6
ByLayer
370
18
48
1
60
1
100
AcDbLine
10
105.509297
20
-3.900002
30
0
11
106.430865
21
-3.899998
31
0
39
0
210
0
220
0
230
1
0
LINE
5
B7
100
AcDbEntity
8
1
62
256
6
ByLayer
370
18
48
1
60
1
100
AcDbLine
10
106.430865
20
-3.899998
30
0
11
105.970081
21
-7.4
31
0
39
0
210
0
220
0
230
1
0
LINE
5
B8
100
AcDbEntity
8
SK2
62
256
6
ByLayer
370
13
48
1
60
0
100
AcDbLine
10
41.680068
20
-11.112532
30
0
11
35.322123
21
-17.470477
31
0
39
0
210
0
220
0
230
1
0
LINE
5
B9
100
AcDbEntity
8
SK2
62
256
6
ByLayer
370
13
48
1
60
0
100
AcDbLine
10
41.680068
20
11.112532
30
0
11
35.322123
21
17.470477
31
0
39
0
210
0
220
0
230
1
0
LINE
5
BA
100
AcDbEntity
8
1
62
256
6
ByLayer
370
18
48
1
60
1
100
AcDbLine
10
36.736337
20
-16.056263
30
0
11
34.020341
21
-13.801119
31
0
39
0
210
0
220
0
230
1
0
LINE
5
BB
100
AcDbEntity
8
1
62
256
6
ByLayer
370
18
48
1
60
1
100
AcDbLine
10
34.020341
20
-13.801119
30
0
11
34.696558
21
-13.175007
31
0
39
0
210
0
220
0
230
1
0
LINE
5
BC
100
AcDbEntity
8
1
62
256
6
ByLayer
370
18
48
1
60
1
100
AcDbLine
10
34.696558
20
-13.175007
30
0
11
36.736337
21
-16.056263
31
0
39
0
210
0
220
0
230
1
0
LINE
5
BD
100
AcDbEntity
8
1
62
256
6
ByLayer
370
18
48
1
60
1
100
AcDbLine
10
36.736337
20
16.056263
30
0
11
34.69656
21
13.17501
31
0
39
0
210
0
220
0
230
1
0
LINE
5
BE
100
AcDbEntity
8
1
62
256
6
ByLayer
370
18
48
1
60
1
100
AcDbLine
10
34.69656
20
13.17501
30
0
11
34.020338
21
13.801117
31
0
39
0
210
0
220
0
230
1
0
LINE
5
BF
100
AcDbEntity
8
1
62
256
6
ByLayer
370
18
48
1
60
1
100
AcDbLine
10
34.020338
20
13.801117
30
0
11
36.736337
21
16.056263
31
0
39
0
210
0
220
0
230
1
0
LINE
5
109
100
AcDbEntity
8
1
62
256
6
ByLayer
370
18
48
1
60
1
100
AcDbLine
10
114.236431
20
9.99
30
0
11
114.697214
21
6.490002
31
0
39
0
210
0
220
0
230
1
0
LINE
5
10A
100
AcDbEntity
8
1
62
256
6
ByLayer
370
18
48
1
60
1
100
AcDbLine
10
114.697214
20
6.490002
30
0
11
113.775647
21
6.489998
31
0
39
0
210
0
220
0
230
1
0
LINE
5
10B
100
AcDbEntity
8
1
62
256
6
ByLayer
370
18
48
1
60
1
100
AcDbLine
10
113.775647
20
6.489998
30
0
11
114.236431
21
9.99
31
0
39
0
210
0
220
0
230
1
0
LINE
5
10D
100
AcDbEntity
8
1
62
256
6
ByLayer
370
18
48
1
60
1
100
AcDbLine
10
114.236431
20
-9.99
30
0
11
113.775647
21
-6.490002
31
0
39
0
210
0
220
0
230
1
0
LINE
5
10E
100
AcDbEntity
8
1
62
256
6
ByLayer
370
18
48
1
60
1
100
AcDbLine
10
113.775647
20
-6.490002
30
0
11
114.697214
21
-6.489998
31
0
39
0
210
0
220
0
230
1
0
LINE
5
10F
100
AcDbEntity
8
1
62
256
6
ByLayer
370
18
48
1
60
1
100
AcDbLine
10
114.697214
20
-6.489998
30
0
11
114.236431
21
-9.99
31
0
39
0
210
0
220
0
230
1
0
LINE
5
113
100
AcDbEntity
8
1
62
256
6
ByLayer
370
18
48
1
60
1
100
AcDbLine
10
-58.625163
20
10
30
0
11
-58.164379
21
6.500002
31
0
39
0
210
0
220
0
230
1
0
LINE
5
114
100
AcDbEntity
8
1
62
256
6
ByLayer
370
18
48
1
60
1
100
AcDbLine
10
-58.164379
20
6.500002
30
0
11
-59.085946
21
6.499998
31
0
39
0
210
0
220
0
230
1
0
LINE
5
115
100
AcDbEntity
8
1
62
256
6
ByLayer
370
18
48
1
60
1
100
AcDbLine
10
-59.085946
20
6.499998
30
0
11
-58.625163
21
10
31
0
39
0
210
0
220
0
230
1
0
LINE
5
117
100
AcDbEntity
8
1
62
256
6
ByLayer
370
18
48
1
60
1
100
AcDbLine
10
-58.625163
20
-10
30
0
11
-59.085946
21
-6.500002
31
0
39
0
210
0
220
0
230
1
0
LINE
5
118
100
AcDbEntity
8
1
62
256
6
ByLayer
370
18
48
1
60
1
100
AcDbLine
10
-59.085946
20
-6.500002
30
0
11
-58.164379
21
-6.499998
31
0
39
0
210
0
220
0
230
1
0
LINE
5
119
100
AcDbEntity
8
1
62
256
6
ByLayer
370
18
48
1
60
1
100
AcDbLine
10
-58.164379
20
-6.499998
30
0
11
-58.625163
21
-10
31
0
39
0
210
0
220
0
230
1
0
LINE
5
11D
100
AcDbEntity
8
1
62
256
6
ByLayer
370
18
48
1
60
1
100
AcDbLine
10
105.970081
20
7.4
30
0
11
106.430865
21
3.900002
31
0
39
0
210
0
220
0
230
1
0
LINE
5
11E
100
AcDbEntity
8
1
62
256
6
ByLayer
370
18
48
1
60
1
100
AcDbLine
10
106.430865
20
3.900002
30
0
11
105.509297
21
3.899998
31
0
39
0
210
0
220
0
230
1
0
LINE
5
11F
100
AcDbEntity
8
1
62
256
6
ByLayer
370
18
48
1
60
1
100
AcDbLine
10
105.509297
20
3.899998
30
0
11
105.970081
21
7.4
31
0
39
0
210
0
220
0
230
1
0
LINE
5
121
100
AcDbEntity
8
1
62
256
6
ByLayer
370
18
48
1
60
1
100
AcDbLine
10
105.970081
20
-7.4
30
0
11
105.509297
21
-3.900002
31
0
39
0
210
0
220
0
230
1
0
LINE
5
122
100
AcDbEntity
8
1
62
256
6
ByLayer
370
18
48
1
60
1
100
AcDbLine
10
105.509297
20
-3.900002
30
0
11
106.430865
21
-3.899998
31
0
39
0
210
0
220
0
230
1
0
LINE
5
123
100
AcDbEntity
8
1
62
256
6
ByLayer
370
18
48
1
60
1
100
AcDbLine
10
106.430865
20
-3.899998
30
0
11
105.970081
21
-7.4
31
0
39
0
210
0
220
0
230
1
0
LINE
5
126
100
AcDbEntity
8
1
62
256
6
ByLayer
370
18
48
1
60
1
100
AcDbLine
10
36.736337
20
-16.056263
30
0
11
34.020341
21
-13.801119
31
0
39
0
210
0
220
0
230
1
0
LINE
5
127
100
AcDbEntity
8
1
62
256
6
ByLayer
370
18
48
1
60
1
100
AcDbLine
10
34.020341
20
-13.801119
30
0
11
34.696558
21
-13.175007
31
0
39
0
210
0
220
0
230
1
0
LINE
5
128
100
AcDbEntity
8
1
62
256
6
ByLayer
370
18
48
1
60
1
100
AcDbLine
10
34.696558
20
-13.175007
30
0
11
36.736337
21
-16.056263
31
0
39
0
210
0
220
0
230
1
0
LINE
5
12A
100
AcDbEntity
8
1
62
256
6
ByLayer
370
18
48
1
60
1
100
AcDbLine
10
36.736337
20
16.056263
30
0
11
34.69656
21
13.17501
31
0
39
0
210
0
220
0
230
1
0
LINE
5
12B
100
AcDbEntity
8
1
62
256
6
ByLayer
370
18
48
1
60
1
100
AcDbLine
10
34.69656
20
13.17501
30
0
11
34.020338
21
13.801117
31
0
39
0
210
0
220
0
230
1
0
LINE
5
12C
100
AcDbEntity
8
1
62
256
6
ByLayer
370
18
48
1
60
1
100
AcDbLine
10
34.020338
20
13.801117
30
0
11
36.736337
21
16.056263
31
0
39
0
210
0
220
0
230
1
0
MTEXT
5
103
100
AcDbEntity
8
SK6
62
256
6
ByLayer
370
13
48
1
60
0
100
AcDbMText
10
-8.513727
20
39.940328
30
0
210
0
220
0
230
1
1
\W0.7763;462.2-1480-048A1-XM X2BM
40
3.5
41
0
44
1.084337
50
0
71
7
72
5
7
iso_b_vert
0
MTEXT
5
107
100
AcDbEntity
8
2
62
256
6
ByLayer
370
18
48
1
60
0
100
AcDbMText
10
112.671797
20
19.647798
30
0
210
0
220
0
230
1
1
%%c
40
3.5
41
0
44
1.084337
50
90
71
7
72
5
7
iso_b_vert
0
MTEXT
5
108
100
AcDbEntity
8
2
62
256
6
ByLayer
370
18
48
1
60
0
100
AcDbMText
10
112.671797
20
24.870454
30
0
210
0
220
0
230
1
1
\W0.6930;19,980
40
3.5
41
0
44
1.084337
50
90
71
7
72
5
7
iso_b_vert
0
MTEXT
5
111
100
AcDbEntity
8
SK2
62
256
6
ByLayer
370
18
48
1
60
0
100
AcDbMText
10
-60.189796
20
23.409024
30
0
210
0
220
0
230
1
1
%%c
40
3.5
41
0
44
1.084337
50
90
71
7
72
5
7
iso_b_vert
0
MTEXT
5
112
100
AcDbEntity
8
SK2
62
256
6
ByLayer
370
18
48
1
60
0
100
AcDbMText
10
-60.189796
20
28.63168
30
0
210
0
220
0
230
1
1
\W0.7421;20,000
40
3.5
41
0
44
1.084337
50
90
71
7
72
5
7
iso_b_vert
0
MTEXT
5
11B
100
AcDbEntity
8
2
62
256
6
ByLayer
370
18
48
1
60
0
100
AcDbMText
10
104.405448
20
20.156747
30
0
210
0
220
0
230
1
1
%%c
40
3.5
41
0
44
1.084337
50
90
71
7
72
5
7
iso_b_vert
0
MTEXT
5
11C
100
AcDbEntity
8
2
62
256
6
ByLayer
370
18
48
1
60
0
100
AcDbMText
10
104.405448
20
25.379403
30
0
210
0
220
0
230
1
1
\W0.7145;14,800
40
3.5
41
0
44
1.084337
50
90
71
7
72
5
7
iso_b_vert
0
MTEXT
5
125
100
AcDbEntity
8
SK2
62
256
6
ByLayer
370
13
48
1
60
0
100
AcDbMText
10
25.249475
20
-0.291663
30
0
210
0
220
0
230
1
1
\W0.8181;90,0%%d
40
3.5
41
0
44
1.084337
50
0
71
7
72
5
7
iso_b_vert
0
HATCH
5
10C
100
AcDbEntity
8
2
62
256
6
ByLayer
370
13
48
1
60
0
100
AcDbHatch
10
0
20
0
30
0
210
0
220
0
230
1
2
ANSI31
70
0
71
0
91
1
92
5
93
3
72
1
10
114.236430604616
20
9.99000000000001
11
114.697214346169
21
6.49000169255319
72
1
10
114.697214346169
20
6.49000169255319
11
113.775646863064
21
6.48999830744683
72
1
10
113.775646863064
20
6.48999830744683
11
114.236430604616
21
9.99000000000001
97
0
75
0
76
1
52
0
41
0.0062
77
0
78
1
53
45
43
0
44
0
45
-0.0139193969876572
46
0.0139193969876572
79
0
47
0
98
1
10
0
20
0
0
HATCH
5
110
100
AcDbEntity
8
2
62
256
6
ByLayer
370
13
48
1
60
0
100
AcDbHatch
10
0
20
0
30
0
210
0
220
0
230
1
2
ANSI31
70
0
71
0
91
1
92
5
93
3
72
1
10
114.236430604616
20
-9.98999999999998
11
113.775646863064
21
-6.49000169255317
72
1
10
113.775646863064
20
-6.49000169255317
11
114.697214346169
21
-6.4899983074468
72
1
10
114.697214346169
20
-6.4899983074468
11
114.236430604616
21
-9.98999999999998
97
0
75
0
76
1
52
0
41
0.0062
77
0
78
1
53
45
43
0
44
0
45
-0.0139193969876572
46
0.0139193969876572
79
0
47
0
98
1
10
0
20
0
0
HATCH
5
116
100
AcDbEntity
8
SK2
62
256
6
ByLayer
370
13
48
1
60
0
100
AcDbHatch
10
0
20
0
30
0
210
0
220
0
230
1
2
ANSI31
70
0
71
0
91
1
92
5
93
3
72
1
10
-58.6251625675374
20
10
11
-58.1643788259847
21
6.50000169255318
72
1
10
-58.1643788259847
20
6.50000169255318
11
-59.0859463090902
21
6.49999830744682
72
1
10
-59.0859463090902
20
6.49999830744682
11
-58.6251625675374
21
10
97
0
75
0
76
1
52
0
41
0.0062
77
0
78
1
53
45
43
0
44
0
45
-0.0139193969876572
46
0.0139193969876572
79
0
47
0
98
1
10
0
20
0
0
HATCH
5
11A
100
AcDbEntity
8
SK2
62
256
6
ByLayer
370
13
48
1
60
0
100
AcDbHatch
10
0
20
0
30
0
210
0
220
0
230
1
2
ANSI31
70
0
71
0
91
1
92
5
93
3
72
1
10
-58.6251625675374
20
-10
11
-59.0859463090902
21
-6.50000169255318
72
1
10
-59.0859463090902
20
-6.50000169255318
11
-58.1643788259847
21
-6.49999830744682
72
1
10
-58.1643788259847
20
-6.49999830744682
11
-58.6251625675374
21
-10
97
0
75
0
76
1
52
0
41
0.0062
77
0
78
1
53
45
43
0
44
0
45
-0.0139193969876572
46
0.0139193969876572
79
0
47
0
98
1
10
0
20
0
0
HATCH
5
120
100
AcDbEntity
8
2
62
256
6
ByLayer
370
13
48
1
60
0
100
AcDbHatch
10
0
20
0
30
0
210
0
220
0
230
1
2
ANSI31
70
0
71
0
91
1
92
5
93
3
72
1
10
105.970081101161
20
7.40000000000001
11
106.430864842714
21
3.90000169255319
72
1
10
106.430864842714
20
3.90000169255319
11
105.509297359609
21
3.89999830744682
72
1
10
105.509297359609
20
3.89999830744682
11
105.970081101161
21
7.40000000000001
97
0
75
0
76
1
52
0
41
0.0062
77
0
78
1
53
45
43
0
44
0
45
-0.0139193969876572
46
0.0139193969876572
79
0
47
0
98
1
10
0
20
0
0
HATCH
5
124
100
AcDbEntity
8
2
62
256
6
ByLayer
370
13
48
1
60
0
100
AcDbHatch
10
0
20
0
30
0
210
0
220
0
230
1
2
ANSI31
70
0
71
0
91
1
92
5
93
3
72
1
10
105.970081101161
20
-7.39999999999998
11
105.509297359609
21
-3.90000169255316
72
1
10
105.509297359609
20
-3.90000169255316
11
106.430864842714
21
-3.89999830744679
72
1
10
106.430864842714
20
-3.89999830744679
11
105.970081101161
21
-7.39999999999998
97
0
75
0
76
1
52
0
41
0.0062
77
0
78
1
53
45
43
0
44
0
45
-0.0139193969876572
46
0.0139193969876572
79
0
47
0
98
1
10
0
20
0
0
HATCH
5
129
100
AcDbEntity
8
SK2
62
256
6
ByLayer
370
13
48
1
60
0
100
AcDbHatch
10
0
20
0
30
0
210
0
220
0
230
1
2
ANSI31
70
0
71
0
91
1
92
5
93
3
72
1
10
36.736336907476
20
-16.0562630925239
11
34.0203405573652
21
-13.8011192756478
72
1
10
34.0203405573652
20
-13.8011192756478
11
34.6965581188375
21
-13.1750071167774
72
1
10
34.6965581188375
20
-13.1750071167774
11
36.736336907476
21
-16.0562630925239
97
0
75
0
76
1
52
0
41
0.0062
77
0
78
1
53
45
43
0
44
0
45
-0.0139193969876572
46
0.0139193969876572
79
0
47
0
98
1
10
0
20
0
0
HATCH
5
12D
100
AcDbEntity
8
SK2
62
256
6
ByLayer
370
13
48
1
60
0
100
AcDbHatch
10
0
20
0
30
0
210
0
220
0
230
1
2
ANSI31
70
0
71
0
91
1
92
5
93
3
72
1
10
36.7363369074761
20
16.0562630925239
11
34.6965604186668
21
13.1750096006717
72
1
10
34.6965604186668
20
13.1750096006717
11
34.020338257536
21
13.8011167917536
72
1
10
34.020338257536
20
13.8011167917536
11
36.7363369074761
21
16.0562630925239
97
0
75
0
76
1
52
0
41
0.0062
77
0
78
1
53
45
43
0
44
0
45
-0.0139193969876572
46
0.0139193969876572
79
0
47
0
98
1
10
0
20
0
0
DIMENSION
5
12F
100
AcDbEntity
8
SK2
62
256
6
ByLayer
370
13
48
1
60
0
100
AcDbDimension
2
_U0
10
89.7926
20
-20.202503
30
0
11
44.8963
21
-20.202503
31
0
70
32
71
1
72
1
41
1
210
0
220
0
230
1
3
Standard
100
AcDbAlignedDimension
13
0
23
0
33
0
14
89.7926
24
-7.4
34
0
50
0
100
AcDbRotatedDimension
1001
ACAD
1000
DSTYLE
1002
{
1070
   371
1070
    13
1070
   372
1070
    13
1070
   170
1070
     0
1070
   144
1040
1.0
1070
   277
1070
     2
1070
   278
1070
    44
1070
   146
1040
1.0
1070
   345
1005
16
1070
   347
1005
16
1070
   346
1005
16
1070
   344
1005
0
1070
   343
1005
0
1070
   172
1070
     1
1070
    76
1070
     0
1070
    75
1070
     0
1070
   282
1070
     0
1070
   281
1070
     0
1070
    71
1070
     0
1070
    74
1070
     0
1070
   279
1070
     0
1070
   173
1070
     1
1070
   340
1005
104
1070
   271
1070
     2
1070
   272
1070
     2
1070
    77
1070
     1
1070
    73
1070
     1
1070
   171
1070
     3
1070
   274
1070
     4
1070
   177
1070
    35
1070
   176
1070
    35
1070
   178
1070
    35
1070
    48
1040
-0.1
1070
    41
1040
3.5
1070
   147
1040
1.75
1070
    42
1040
1.5875
1070
    44
1040
2.0
1070
   140
1040
3.5
1002
}
1001
ACAD_DSTYLE_DIM_LINETYPE
1070
   380
1005
16
1001
ACAD_DSTYLE_DIM_EXT1_LINETYPE
1070
   381
1005
16
1001
ACAD_DSTYLE_DIM_EXT2_LINETYPE
1070
   382
1005
16
0
DIMENSION
5
148
100
AcDbEntity
8
SK2
62
256
6
ByLayer
370
13
48
1
60
0
100
AcDbDimension
2
_U1
10
92
20
-41.192985
30
0
11
21
21
-41.192985
31
0
70
32
71
1
72
1
41
1
210
0
220
0
230
1
3
Standard
100
AcDbAlignedDimension
13
-50
23
-10
33
0
14
92
24
0
34
0
50
0
100
AcDbRotatedDimension
1001
ACAD
1000
DSTYLE
1002
{
1070
   371
1070
    13
1070
   372
1070
    13
1070
   170
1070
     0
1070
   144
1040
1.0
1070
   277
1070
     2
1070
   278
1070
    44
1070
   146
1040
1.0
1070
   345
1005
16
1070
   347
1005
16
1070
   346
1005
16
1070
   344
1005
0
1070
   343
1005
0
1070
   172
1070
     1
1070
    76
1070
     0
1070
    75
1070
     0
1070
   282
1070
     0
1070
   281
1070
     0
1070
    71
1070
     0
1070
    74
1070
     0
1070
   279
1070
     0
1070
   173
1070
     1
1070
   340
1005
104
1070
   271
1070
     2
1070
   272
1070
     2
1070
    77
1070
     1
1070
    73
1070
     1
1070
   171
1070
     3
1070
   274
1070
     4
1070
   177
1070
    35
1070
   176
1070
    35
1070
   178
1070
    35
1070
    48
1040
-0.1
1070
    41
1040
3.5
1070
   147
1040
1.75
1070
    42
1040
1.5875
1070
    44
1040
2.0
1070
   140
1040
3.5
1002
}
1001
ACAD_DSTYLE_DIM_LINETYPE
1070
   380
1005
16
1001
ACAD_DSTYLE_DIM_EXT1_LINETYPE
1070
   381
1005
16
1001
ACAD_DSTYLE_DIM_EXT2_LINETYPE
1070
   382
1005
16
0
DIMENSION
5
160
100
AcDbEntity
8
SK2
62
256
6
ByLayer
370
13
48
1
60
0
100
AcDbDimension
2
_U2
10
92
20
19.009119
30
0
11
67.4
21
19.009119
31
0
70
32
71
1
72
1
41
1
210
0
220
0
230
1
3
Standard
100
AcDbAlignedDimension
13
42.8
23
9.99
33
0
14
92
24
0
34
0
50
0
100
AcDbRotatedDimension
1001
ACAD
1000
DSTYLE
1002
{
1070
   371
1070
    13
1070
   372
1070
    13
1070
   170
1070
     0
1070
   144
1040
1.0
1070
   277
1070
     2
1070
   278
1070
    44
1070
   146
1040
1.0
1070
   345
1005
16
1070
   347
1005
16
1070
   346
1005
16
1070
   344
1005
0
1070
   343
1005
0
1070
   172
1070
     1
1070
    76
1070
     0
1070
    75
1070
     0
1070
   282
1070
     0
1070
   281
1070
     0
1070
    71
1070
     0
1070
    74
1070
     0
1070
   279
1070
     0
1070
   173
1070
     1
1070
   340
1005
104
1070
   271
1070
     2
1070
   272
1070
     2
1070
    77
1070
     1
1070
    73
1070
     1
1070
   171
1070
     3
1070
   274
1070
     4
1070
   177
1070
    35
1070
   176
1070
    35
1070
   178
1070
    35
1070
    48
1040
-0.1
1070
    41
1040
3.5
1070
   147
1040
1.75
1070
    42
1040
1.5875
1070
    44
1040
2.0
1070
   140
1040
3.5
1002
}
1001
ACAD_DSTYLE_DIM_LINETYPE
1070
   380
1005
16
1001
ACAD_DSTYLE_DIM_EXT1_LINETYPE
1070
   381
1005
16
1001
ACAD_DSTYLE_DIM_EXT2_LINETYPE
1070
   382
1005
16
0
DIMENSION
5
178
100
AcDbEntity
8
SK2
62
256
6
ByLayer
370
13
48
1
60
0
100
AcDbDimension
2
_U3
10
89.7926
20
-20.202503
30
0
11
109.083333
21
-20.202503
31
0
70
32
71
1
72
1
41
1
210
0
220
0
230
1
3
Standard
100
AcDbAlignedDimension
13
92
23
0
33
0
14
89.7926
24
-7.4
34
0
50
0
100
AcDbRotatedDimension
1001
ACAD
1000
DSTYLE
1002
{
1070
   371
1070
    13
1070
   372
1070
    13
1070
   170
1070
     0
1070
   144
1040
1.0
1070
   277
1070
     2
1070
   278
1070
    44
1070
   146
1040
1.0
1070
   345
1005
16
1070
   347
1005
16
1070
   346
1005
16
1070
   344
1005
0
1070
   343
1005
0
1070
   172
1070
     1
1070
    76
1070
     0
1070
    75
1070
     0
1070
   282
1070
     0
1070
   281
1070
     0
1070
    71
1070
     0
1070
    74
1070
     0
1070
   279
1070
     0
1070
   173
1070
     1
1070
   340
1005
104
1070
   271
1070
     2
1070
   272
1070
     2
1070
    77
1070
     1
1070
    73
1070
     1
1070
   171
1070
     3
1070
   274
1070
     4
1070
   177
1070
    35
1070
   176
1070
    35
1070
   178
1070
    35
1070
    48
1040
-0.1
1070
    41
1040
3.5
1070
   147
1040
1.75
1070
    42
1040
1.5875
1070
    44
1040
2.0
1070
   140
1040
3.5
1002
}
1001
ACAD_DSTYLE_DIM_LINETYPE
1070
   380
1005
16
1001
ACAD_DSTYLE_DIM_EXT1_LINETYPE
1070
   381
1005
16
1001
ACAD_DSTYLE_DIM_EXT2_LINETYPE
1070
   382
1005
16
0
DIMENSION
5
192
100
AcDbEntity
8
SK2
62
256
6
ByLayer
370
13
48
1
60
0
100
AcDbDimension
2
_U4
10
45.3926
20
11.535371
30
0
11
67.5926
21
11.535371
31
0
70
32
71
1
72
1
41
1
210
0
220
0
230
1
3
Standard
100
AcDbAlignedDimension
13
89.7926
23
7.4
33
0
14
45.3926
24
7.4
34
0
50
0
100
AcDbRotatedDimension
1001
ACAD
1000
DSTYLE
1002
{
1070
   371
1070
    13
1070
   372
1070
    13
1070
   170
1070
     0
1070
   144
1040
1.0
1070
   277
1070
     2
1070
   278
1070
    44
1070
   146
1040
1.0
1070
   345
1005
16
1070
   347
1005
16
1070
   346
1005
16
1070
   344
1005
0
1070
   343
1005
0
1070
   172
1070
     1
1070
    76
1070
     0
1070
    75
1070
     0
1070
   282
1070
     0
1070
   281
1070
     0
1070
    71
1070
     0
1070
    74
1070
     0
1070
   279
1070
     0
1070
   173
1070
     1
1070
   340
1005
104
1070
   271
1070
     2
1070
   272
1070
     2
1070
    77
1070
     1
1070
    73
1070
     1
1070
   171
1070
     3
1070
   274
1070
     4
1070
   177
1070
    35
1070
   176
1070
    35
1070
   178
1070
    35
1070
    48
1040
-0.1
1070
    41
1040
3.5
1070
   147
1040
1.75
1070
    42
1040
1.5875
1070
    44
1040
2.0
1070
   140
1040
3.5
1002
}
1001
ACAD_DSTYLE_DIM_LINETYPE
1070
   380
1005
16
1001
ACAD_DSTYLE_DIM_EXT1_LINETYPE
1070
   381
1005
16
1001
ACAD_DSTYLE_DIM_EXT2_LINETYPE
1070
   382
1005
16
0
DIMENSION
5
1AA
100
AcDbEntity
8
SK2
62
256
6
ByLayer
370
13
48
1
60
0
100
AcDbDimension
2
_U5
10
89.7926
20
-30.690158
30
0
11
19.8963
21
-30.690158
31
0
70
32
71
1
72
1
41
1
210
0
220
0
230
1
3
Standard
100
AcDbAlignedDimension
13
-50
23
-10
33
0
14
89.7926
24
-7.4
34
0
50
0
100
AcDbRotatedDimension
1001
ACAD
1000
DSTYLE
1002
{
1070
   371
1070
    13
1070
   372
1070
    13
1070
   170
1070
     0
1070
   144
1040
1.0
1070
   277
1070
     2
1070
   278
1070
    44
1070
   146
1040
1.0
1070
   345
1005
16
1070
   347
1005
16
1070
   346
1005
16
1070
   344
1005
0
1070
   343
1005
0
1070
   172
1070
     1
1070
    76
1070
     0
1070
    75
1070
     0
1070
   282
1070
     0
1070
   281
1070
     0
1070
    71
1070
     0
1070
    74
1070
     0
1070
   279
1070
     0
1070
   173
1070
     1
1070
   340
1005
104
1070
   271
1070
     2
1070
   272
1070
     2
1070
    77
1070
     1
1070
    73
1070
     1
1070
   171
1070
     3
1070
   274
1070
     4
1070
   177
1070
    35
1070
   176
1070
    35
1070
   178
1070
    35
1070
    48
1040
-0.1
1070
    41
1040
3.5
1070
   147
1040
1.75
1070
    42
1040
1.5875
1070
    44
1040
2.0
1070
   140
1040
3.5
1002
}
1001
ACAD_DSTYLE_DIM_LINETYPE
1070
   380
1005
16
1001
ACAD_DSTYLE_DIM_EXT1_LINETYPE
1070
   381
1005
16
1001
ACAD_DSTYLE_DIM_EXT2_LINETYPE
1070
   382
1005
16
0
ENDSEC
0
SECTION
2
OBJECTS
0
DICTIONARY
5
232
330
0
100
AcDbDictionary
280
0
281
1
3
ACAD_GROUP
350
233
3
ACAD_MLINESTYLE
350
234
0
DICTIONARY
5
233
330
0
100
AcDbDictionary
280
0
281
1
0
DICTIONARY
5
234
330
0
100
AcDbDictionary
280
0
281
1
3
Standard
350
18
0
MLINESTYLE
5
18
330
234
100
AcDbMlineStyle
2
Standard
70
0
3

62
256
51
90
52
90
71
2
49
-0.5
62
256
6
ByLayer
49
0.5
62
256
6
ByLayer
0
RASTERVARIABLES
5
220
330

100
AcDbRasterVariables
90
0
70
1
71
1
72
1
0
ENDSEC
0
EOF
