0
SECTION
2
HEADER
9
$ACADVER
1
AC1015
9
$DWGCODEPAGE
3
ANSI_1252
9
$HANDSEED
5
23c
9
$ANGBASE
50
0
9
$ANGDIR
70
0
9
$ATTMODE
70
1
9
$AUNITS
70
0
9
$AUPREC
70
0
9
$CECOLOR
62
256
9
$CELTSCALE
40
1
9
$CELTYPE
6
ByLayer
9
$CELWEIGHT
370
18
9
$CLAYER
8
0
9
$CMLJUST
70
0
9
$CMLSCALE
40
1
9
$CMLSTYLE
2
Standard
9
$DIMSTYLE
2
Standard
9
$TEXTSIZE
40
0.2
9
$TEXTSTYLE
7
Standard
9
$LUNITS
70
2
9
$LUPREC
70
4
9
$EXTNAMES
290
1
9
$INSUNITS
70
4
9
$LTSCALE
40
1
9
$LWDISPLAY
290
1
9
$PDMODE
70
0
9
$PDSIZE
40
0
9
$PLINEGEN
70
0
0
ENDSEC
0
SECTION
2
CLASSES
0
CLASS
1
RASTERVARIABLES
2
AcDbRasterVariables
3
ISM
90
0
280
0
281
0
0
ENDSEC
0
SECTION
2
TABLES
0
TABLE
2
VPORT
5
232
100
AcDbSymbolTable
0
VPORT
5
1
100
AcDbSymbolTableRecord
100
AcDbViewportTableRecord
2
*Active
70
0
10
0
20
0
11
1
21
1
12
-1
22
1
13
0
23
0
14
0.5
24
0.5
15
10
25
10
16
0
26
0
36
1
17
0
27
0
37
0
0
ENDTAB
0
TABLE
2
LTYPE
5
233
100
AcDbSymbolTable
0
LTYPE
5
14
100
AcDbSymbolTableRecord
100
AcDbLinetypeTableRecord
70
0
2
ByBlock
3

72
65
73
0
40
0
0
LTYPE
5
15
100
AcDbSymbolTableRecord
100
AcDbLinetypeTableRecord
70
0
2
ByLayer
3

72
65
73
0
40
0
0
LTYPE
5
16
100
AcDbSymbolTableRecord
100
AcDbLinetypeTableRecord
70
0
2
Continuous
3
Solid line
72
65
73
0
40
0
0
LTYPE
5
6E
100
AcDbSymbolTableRecord
100
AcDbLinetypeTableRecord
70
0
2
CENTER
3
____ _ ____ _ ____ _ ____
72
65
73
4
40
47.5
49
22
74
0
49
-8.5
74
0
49
8.5
74
0
49
-8.5
74
0
0
LTYPE
5
6F
100
AcDbSymbolTableRecord
100
AcDbLinetypeTableRecord
70
0
2
DASHED
3
__ __ __ __ __ __ __ __ __
72
65
73
2
40
25.72
49
12.86
74
0
49
-12.86
74
0
0
ENDTAB
0
TABLE
2
LAYER
5
234
100
AcDbSymbolTable
0
LAYER
5
10
100
AcDbSymbolTableRecord
100
AcDbLayerTableRecord
2
0
70
0
62
7
6
Continuous
290
1
370
-3
390
0
0
LAYER
5
71
100
AcDbSymbolTableRecord
100
AcDbLayerTableRecord
2
80
70
0
62
-6
6
Continuous
290
1
370
-3
390
0
0
LAYER
5
73
100
AcDbSymbolTableRecord
100
AcDbLayerTableRecord
2
81
70
0
62
-3
6
Continuous
290
1
370
-3
390
0
0
LAYER
5
75
100
AcDbSymbolTableRecord
100
AcDbLayerTableRecord
2
1
70
0
62
4
6
Continuous
290
1
370
-3
390
0
0
LAYER
5
8E
100
AcDbSymbolTableRecord
100
AcDbLayerTableRecord
2
4
70
0
62
-2
6
CENTER
290
1
370
-3
390
0
0
LAYER
5
9B
100
AcDbSymbolTableRecord
100
AcDbLayerTableRecord
2
2
70
0
62
7
6
Continuous
290
1
370
-3
390
0
0
LAYER
5
12F
100
AcDbSymbolTableRecord
100
AcDbLayerTableRecord
2
Defpoints
70
0
62
7
6
Continuous
290
0
370
-3
390
0
0
LAYER
5
21e
100
AcDbSymbolTableRecord
100
AcDbLayerTableRecord
2
SK1
70
0
62
4
6
Continuous
290
1
370
-3
390
0
0
LAYER
5
21f
100
AcDbSymbolTableRecord
100
AcDbLayerTableRecord
2
SK4
70
0
62
2
6
CENTER
290
1
370
-3
390
0
0
LAYER
5
220
100
AcDbSymbolTableRecord
100
AcDbLayerTableRecord
2
SK2
70
0
62
7
6
Continuous
290
1
370
-3
390
0
0
LAYER
5
221
100
AcDbSymbolTableRecord
100
AcDbLayerTableRecord
2
SK6
70
0
62
5
6
Continuous
290
1
370
-3
390
0
0
ENDTAB
0
TABLE
2
STYLE
5
235
100
AcDbSymbolTable
0
STYLE
5
11
100
AcDbSymbolTableRecord
100
AcDbTextStyleTableRecord
2
Standard
3
txt
70
0
71
0
40
0
41
1
42
0
50
0
0
STYLE
5
101
100
AcDbSymbolTableRecord
100
AcDbTextStyleTableRecord
2
iso_b_vert
3
simplex.shx
70
0
71
0
40
0
41
1
42
0
50
0
0
STYLE
5
102
100
AcDbSymbolTableRecord
100
AcDbTextStyleTableRecord
2
DWGDirectTextStyle
3
simplex
70
0
71
0
40
0
41
1
42
0
50
0
0
ENDTAB
0
TABLE
2
DIMSTYLE
5
236
100
AcDbSymbolTable
100
AcDbDimStyleTable
0
DIMSTYLE
105
27
100
AcDbSymbolTableRecord
100
AcDbDimStyleTableRecord
2
Standard
70
0
3
<>
41
0.18
42
0.0625
44
0.18
140
0.18
147
0.09
73
0
74
0
77
1
271
2
275
0
278
52
280
0
340
11
0
ENDTAB
0
TABLE
2
VIEW
5
237
100
AcDbSymbolTable
0
ENDTAB
0
TABLE
2
UCS
5
238
100
AcDbSymbolTable
0
ENDTAB
0
TABLE
2
APPID
5
239
100
AcDbSymbolTable
0
APPID
5
12
100
AcDbSymbolTableRecord
100
AcDbRegAppTableRecord
2
ACAD
70
0
0
APPID
5
12B
100
AcDbSymbolTableRecord
100
AcDbRegAppTableRecord
2
ACAD_DSTYLE_DIMBREAK
70
0
0
APPID
5
1DD
100
AcDbSymbolTableRecord
100
AcDbRegAppTableRecord
2
ACAD_DSTYLE_DIM_LINETYPE
70
0
0
APPID
5
1DE
100
AcDbSymbolTableRecord
100
AcDbRegAppTableRecord
2
ACAD_DSTYLE_DIM_EXT1_LINETYPE
70
0
0
APPID
5
1DF
100
AcDbSymbolTableRecord
100
AcDbRegAppTableRecord
2
ACAD_DSTYLE_DIM_EXT2_LINETYPE
70
0
0
APPID
5
21A
100
AcDbSymbolTableRecord
100
AcDbRegAppTableRecord
2
ACAD_MLEADERVER
70
0
0
ENDTAB
0
TABLE
2
BLOCK_RECORD
5
23a
100
AcDbSymbolTable
0
BLOCK_RECORD
5
1F
100
AcDbSymbolTableRecord
100
AcDbBlockTableRecord
2
*Model_Space
340
0
70
0
0
BLOCK_RECORD
5
1B
100
AcDbSymbolTableRecord
100
AcDbBlockTableRecord
2
*Paper_Space
340
0
70
0
0
BLOCK_RECORD
5
23
100
AcDbSymbolTableRecord
100
AcDbBlockTableRecord
2
*Paper_Space0
340
0
70
0
0
BLOCK_RECORD
5
130
100
AcDbSymbolTableRecord
100
AcDbBlockTableRecord
2
*D1
340
0
70
0
0
BLOCK_RECORD
5
13C
100
AcDbSymbolTableRecord
100
AcDbBlockTableRecord
2
_U0
340
0
70
0
0
BLOCK_RECORD
5
148
100
AcDbSymbolTableRecord
100
AcDbBlockTableRecord
2
*D3
340
0
70
0
0
BLOCK_RECORD
5
154
100
AcDbSymbolTableRecord
100
AcDbBlockTableRecord
2
_U1
340
0
70
0
0
BLOCK_RECORD
5
160
100
AcDbSymbolTableRecord
100
AcDbBlockTableRecord
2
*D5
340
0
70
0
0
BLOCK_RECORD
5
16C
100
AcDbSymbolTableRecord
100
AcDbBlockTableRecord
2
_U2
340
0
70
0
0
BLOCK_RECORD
5
178
100
AcDbSymbolTableRecord
100
AcDbBlockTableRecord
2
*D7
340
0
70
0
0
BLOCK_RECORD
5
186
100
AcDbSymbolTableRecord
100
AcDbBlockTableRecord
2
_U3
340
0
70
0
0
BLOCK_RECORD
5
192
100
AcDbSymbolTableRecord
100
AcDbBlockTableRecord
2
*D9
340
0
70
0
0
BLOCK_RECORD
5
19E
100
AcDbSymbolTableRecord
100
AcDbBlockTableRecord
2
_U4
340
0
70
0
0
BLOCK_RECORD
5
1AA
100
AcDbSymbolTableRecord
100
AcDbBlockTableRecord
2
*D11
340
0
70
0
0
BLOCK_RECORD
5
1B6
100
AcDbSymbolTableRecord
100
AcDbBlockTableRecord
2
_U5
340
0
70
0
0
ENDTAB
0
ENDSEC
0
SECTION
2
BLOCKS
0
BLOCK
5
20
100
AcDbEntity
8
0
100
AcDbBlockBegin
2
*Model_Space
70
0
10
0
20
0
30
0
3
*Model_Space
0
ENDBLK
5
21
100
AcDbEntity
8
0
100
AcDbBlockEnd
0
BLOCK
5
1C
100
AcDbEntity
8
0
100
AcDbBlockBegin
2
*Paper_Space
70
0
10
0
20
0
30
0
3
*Paper_Space
0
ENDBLK
5
1D
100
AcDbEntity
8
0
100
AcDbBlockEnd
0
BLOCK
5
24
100
AcDbEntity
8
0
100
AcDbBlockBegin
2
*Paper_Space0
70
0
10
0
20
0
30
0
3
*Paper_Space0
0
ENDBLK
5
25
100
AcDbEntity
8
0
100
AcDbBlockEnd
0
BLOCK
5
131
100
AcDbEntity
8
0
100
AcDbBlockBegin
2
*D1
70
1
10
0
20
0
30
0
3
*D1
0
LINE
5
133
100
AcDbEntity
8
0
62
256
6
ByLayer
370
-2
48
1
60
0
100
AcDbLine
10
0
20
-1.5875
30
0
11
0
21
-20.577503
31
0
39
0
210
0
220
0
230
1
0
LINE
5
134
100
AcDbEntity
8
0
62
256
6
ByLayer
370
-2
48
1
60
0
100
AcDbLine
10
65.2824
20
-7.3625
30
0
11
65.2824
21
-20.577503
31
0
39
0
210
0
220
0
230
1
0
LINE
5
135
100
AcDbEntity
8
0
62
256
6
ByLayer
370
-2
48
1
60
0
100
AcDbLine
10
3.5
20
-18.577503
30
0
11
61.7824
21
-18.577503
31
0
39
0
210
0
220
0
230
1
0
SOLID
5
136
100
AcDbEntity
8
0
62
256
6
ByLayer
370
-1
48
1
60
0
100
AcDbTrace
10
3.5
20
-17.99417
30
0
11
3.5
21
-19.160837
31
0
12
0
22
-18.577503
32
0
13
0
23
-18.577503
33
0
39
0
210
0
220
0
230
1
0
SOLID
5
137
100
AcDbEntity
8
0
62
256
6
ByLayer
370
-1
48
1
60
0
100
AcDbTrace
10
61.7824
20
-19.160837
30
0
11
61.7824
21
-17.99417
31
0
12
65.2824
22
-18.577503
32
0
13
65.2824
23
-18.577503
33
0
39
0
210
0
220
0
230
1
0
MTEXT
5
138
100
AcDbEntity
8
0
62
256
6
ByLayer
370
18
48
1
60
0
100
AcDbMText
10
32.6412
20
-11.577503
30
0
210
0
220
0
230
1
1
\A1;65.28
40
3.5
41
0
44
1
50
0
71
5
72
5
7
iso_b_vert
0
POINT
5
139
100
AcDbEntity
8
Defpoints
62
0
6
ByLayer
370
-1
48
1
60
0
100
AcDbPoint
10
0
20
0
30
0
39
0
210
0
220
0
230
1
50
360
0
POINT
5
13A
100
AcDbEntity
8
Defpoints
62
0
6
ByLayer
370
-1
48
1
60
0
100
AcDbPoint
10
65.2824
20
-5.775
30
0
39
0
210
0
220
0
230
1
50
360
0
POINT
5
13B
100
AcDbEntity
8
Defpoints
62
0
6
ByLayer
370
-1
48
1
60
0
100
AcDbPoint
10
65.2824
20
-18.577503
30
0
39
0
210
0
220
0
230
1
50
360
0
ENDBLK
5
132
100
AcDbEntity
8
0
100
AcDbBlockEnd
0
BLOCK
5
143
100
AcDbEntity
8
0
100
AcDbBlockBegin
2
_U0
70
0
10
0
20
0
30
0
3
_U0
0
MTEXT
5
13D
100
AcDbEntity
8
SK2
62
256
6
ByLayer
370
13
48
1
60
0
100
AcDbMText
10
27.503901
20
-17.54487
30
0
210
0
220
0
230
1
1
\W0.7317;65,28
40
3.5
41
0
44
1.084337
50
0
71
7
72
5
7
iso_b_vert
0
LINE
5
13E
100
AcDbEntity
8
SK2
62
256
6
ByLayer
370
13
48
1
60
0
100
AcDbLine
10
0
20
-1.5875
30
0
11
0
21
-20.577503
31
0
39
0
210
0
220
0
230
1
0
LINE
5
13F
100
AcDbEntity
8
SK2
62
256
6
ByLayer
370
13
48
1
60
0
100
AcDbLine
10
65.2824
20
-7.3625
30
0
11
65.2824
21
-20.577503
31
0
39
0
210
0
220
0
230
1
0
LINE
5
140
100
AcDbEntity
8
SK2
62
256
6
ByLayer
370
13
48
1
60
0
100
AcDbLine
10
0
20
-18.577503
30
0
11
65.2824
21
-18.577503
31
0
39
0
210
0
220
0
230
1
0
SOLID
5
141
100
AcDbEntity
8
SK2
62
256
6
ByLayer
370
18
48
1
60
0
100
AcDbTrace
10
0
20
-18.577503
30
0
11
3.499998
21
-18.116719
31
0
12
3.500002
22
-19.038287
32
0
13
3.500002
23
-19.038287
33
0
39
0
210
0
220
0
230
1
0
SOLID
5
142
100
AcDbEntity
8
SK2
62
256
6
ByLayer
370
18
48
1
60
0
100
AcDbTrace
10
65.2824
20
-18.577503
30
0
11
61.782402
21
-19.038287
31
0
12
61.782398
22
-18.116719
32
0
13
61.782398
23
-18.116719
33
0
39
0
210
0
220
0
230
1
0
ENDBLK
5
144
100
AcDbEntity
8
0
100
AcDbBlockEnd
0
BLOCK
5
149
100
AcDbEntity
8
0
100
AcDbBlockBegin
2
*D3
70
1
10
0
20
0
30
0
3
*D3
0
LINE
5
14B
100
AcDbEntity
8
0
62
256
6
ByLayer
370
-2
48
1
60
0
100
AcDbLine
10
-48
20
-9.5875
30
0
11
-48
21
-41.192985
31
0
39
0
210
0
220
0
230
1
0
LINE
5
14C
100
AcDbEntity
8
0
62
256
6
ByLayer
370
-2
48
1
60
0
100
AcDbLine
10
67
20
-1.5875
30
0
11
67
21
-41.192985
31
0
39
0
210
0
220
0
230
1
0
LINE
5
14D
100
AcDbEntity
8
0
62
256
6
ByLayer
370
-2
48
1
60
0
100
AcDbLine
10
-44.5
20
-39.192985
30
0
11
63.5
21
-39.192985
31
0
39
0
210
0
220
0
230
1
0
SOLID
5
14E
100
AcDbEntity
8
0
62
256
6
ByLayer
370
-1
48
1
60
0
100
AcDbTrace
10
-44.5
20
-38.609652
30
0
11
-44.5
21
-39.776319
31
0
12
-48
22
-39.192985
32
0
13
-48
23
-39.192985
33
0
39
0
210
0
220
0
230
1
0
SOLID
5
14F
100
AcDbEntity
8
0
62
256
6
ByLayer
370
-1
48
1
60
0
100
AcDbTrace
10
63.5
20
-39.776319
30
0
11
63.5
21
-38.609652
31
0
12
67
22
-39.192985
32
0
13
67
23
-39.192985
33
0
39
0
210
0
220
0
230
1
0
MTEXT
5
150
100
AcDbEntity
8
0
62
256
6
ByLayer
370
18
48
1
60
0
100
AcDbMText
10
9.5
20
-32.192985
30
0
210
0
220
0
230
1
1
\A1;115.00
40
3.5
41
0
44
1
50
0
71
5
72
5
7
iso_b_vert
0
POINT
5
151
100
AcDbEntity
8
Defpoints
62
0
6
ByLayer
370
-1
48
1
60
0
100
AcDbPoint
10
-48
20
-8
30
0
39
0
210
0
220
0
230
1
50
360
0
POINT
5
152
100
AcDbEntity
8
Defpoints
62
0
6
ByLayer
370
-1
48
1
60
0
100
AcDbPoint
10
67
20
0
30
0
39
0
210
0
220
0
230
1
50
360
0
POINT
5
153
100
AcDbEntity
8
Defpoints
62
0
6
ByLayer
370
-1
48
1
60
0
100
AcDbPoint
10
67
20
-39.192985
30
0
39
0
210
0
220
0
230
1
50
360
0
ENDBLK
5
14A
100
AcDbEntity
8
0
100
AcDbBlockEnd
0
BLOCK
5
15B
100
AcDbEntity
8
0
100
AcDbBlockBegin
2
_U1
70
0
10
0
20
0
30
0
3
_U1
0
MTEXT
5
155
100
AcDbEntity
8
SK2
62
256
6
ByLayer
370
13
48
1
60
0
100
AcDbMText
10
3.929835
20
-38.160352
30
0
210
0
220
0
230
1
1
\W0.6440;115,00
40
3.5
41
0
44
1.084337
50
0
71
7
72
5
7
iso_b_vert
0
LINE
5
156
100
AcDbEntity
8
SK2
62
256
6
ByLayer
370
13
48
1
60
0
100
AcDbLine
10
-48
20
-9.5875
30
0
11
-48
21
-41.192985
31
0
39
0
210
0
220
0
230
1
0
LINE
5
157
100
AcDbEntity
8
SK2
62
256
6
ByLayer
370
13
48
1
60
0
100
AcDbLine
10
67
20
-1.5875
30
0
11
67
21
-41.192985
31
0
39
0
210
0
220
0
230
1
0
LINE
5
158
100
AcDbEntity
8
SK2
62
256
6
ByLayer
370
13
48
1
60
0
100
AcDbLine
10
-48
20
-39.192985
30
0
11
67
21
-39.192985
31
0
39
0
210
0
220
0
230
1
0
SOLID
5
159
100
AcDbEntity
8
SK2
62
256
6
ByLayer
370
18
48
1
60
0
100
AcDbTrace
10
-48
20
-39.192985
30
0
11
-44.500002
21
-38.732202
31
0
12
-44.499998
22
-39.653769
32
0
13
-44.499998
23
-39.653769
33
0
39
0
210
0
220
0
230
1
0
SOLID
5
15A
100
AcDbEntity
8
SK2
62
256
6
ByLayer
370
18
48
1
60
0
100
AcDbTrace
10
67
20
-39.192985
30
0
11
63.500002
21
-39.653769
31
0
12
63.499998
22
-38.732202
32
0
13
63.499998
23
-38.732202
33
0
39
0
210
0
220
0
230
1
0
ENDBLK
5
15C
100
AcDbEntity
8
0
100
AcDbBlockEnd
0
BLOCK
5
161
100
AcDbEntity
8
0
100
AcDbBlockBegin
2
*D5
70
1
10
0
20
0
30
0
3
*D5
0
LINE
5
163
100
AcDbEntity
8
0
62
256
6
ByLayer
370
-2
48
1
60
0
100
AcDbLine
10
28.61
20
9.3825
30
0
11
28.61
21
19.384119
31
0
39
0
210
0
220
0
230
1
0
LINE
5
164
100
AcDbEntity
8
0
62
256
6
ByLayer
370
-2
48
1
60
0
100
AcDbLine
10
67
20
1.5875
30
0
11
67
21
19.384119
31
0
39
0
210
0
220
0
230
1
0
LINE
5
165
100
AcDbEntity
8
0
62
256
6
ByLayer
370
-2
48
1
60
0
100
AcDbLine
10
32.11
20
17.384119
30
0
11
63.5
21
17.384119
31
0
39
0
210
0
220
0
230
1
0
SOLID
5
166
100
AcDbEntity
8
0
62
256
6
ByLayer
370
-1
48
1
60
0
100
AcDbTrace
10
32.11
20
17.967453
30
0
11
32.11
21
16.800786
31
0
12
28.61
22
17.384119
32
0
13
28.61
23
17.384119
33
0
39
0
210
0
220
0
230
1
0
SOLID
5
167
100
AcDbEntity
8
0
62
256
6
ByLayer
370
-1
48
1
60
0
100
AcDbTrace
10
63.5
20
16.800786
30
0
11
63.5
21
17.967453
31
0
12
67
22
17.384119
32
0
13
67
23
17.384119
33
0
39
0
210
0
220
0
230
1
0
MTEXT
5
168
100
AcDbEntity
8
0
62
256
6
ByLayer
370
18
48
1
60
0
100
AcDbMText
10
47.805
20
24.384119
30
0
210
0
220
0
230
1
1
\A1;38.39
40
3.5
41
0
44
1
50
0
71
5
72
5
7
iso_b_vert
0
POINT
5
169
100
AcDbEntity
8
Defpoints
62
0
6
ByLayer
370
-1
48
1
60
0
100
AcDbPoint
10
28.61
20
7.795
30
0
39
0
210
0
220
0
230
1
50
360
0
POINT
5
16A
100
AcDbEntity
8
Defpoints
62
0
6
ByLayer
370
-1
48
1
60
0
100
AcDbPoint
10
67
20
0
30
0
39
0
210
0
220
0
230
1
50
360
0
POINT
5
16B
100
AcDbEntity
8
Defpoints
62
0
6
ByLayer
370
-1
48
1
60
0
100
AcDbPoint
10
67
20
17.384119
30
0
39
0
210
0
220
0
230
1
50
360
0
ENDBLK
5
162
100
AcDbEntity
8
0
100
AcDbBlockEnd
0
BLOCK
5
173
100
AcDbEntity
8
0
100
AcDbBlockBegin
2
_U2
70
0
10
0
20
0
30
0
3
_U2
0
MTEXT
5
16D
100
AcDbEntity
8
SK2
62
256
6
ByLayer
370
13
48
1
60
0
100
AcDbMText
10
42.667701
20
18.416753
30
0
210
0
220
0
230
1
1
\W0.7402;38,39
40
3.5
41
0
44
1.084337
50
0
71
7
72
5
7
iso_b_vert
0
LINE
5
16E
100
AcDbEntity
8
SK2
62
256
6
ByLayer
370
13
48
1
60
0
100
AcDbLine
10
28.61
20
9.3825
30
0
11
28.61
21
19.384119
31
0
39
0
210
0
220
0
230
1
0
LINE
5
16F
100
AcDbEntity
8
SK2
62
256
6
ByLayer
370
13
48
1
60
0
100
AcDbLine
10
67
20
1.5875
30
0
11
67
21
19.384119
31
0
39
0
210
0
220
0
230
1
0
LINE
5
170
100
AcDbEntity
8
SK2
62
256
6
ByLayer
370
13
48
1
60
0
100
AcDbLine
10
28.61
20
17.384119
30
0
11
67
21
17.384119
31
0
39
0
210
0
220
0
230
1
0
SOLID
5
171
100
AcDbEntity
8
SK2
62
256
6
ByLayer
370
18
48
1
60
0
100
AcDbTrace
10
28.61
20
17.384119
30
0
11
32.109998
21
17.844903
31
0
12
32.110002
22
16.923335
32
0
13
32.110002
23
16.923335
33
0
39
0
210
0
220
0
230
1
0
SOLID
5
172
100
AcDbEntity
8
SK2
62
256
6
ByLayer
370
18
48
1
60
0
100
AcDbTrace
10
67
20
17.384119
30
0
11
63.500002
21
16.923335
31
0
12
63.499998
22
17.844903
32
0
13
63.499998
23
17.844903
33
0
39
0
210
0
220
0
230
1
0
ENDBLK
5
174
100
AcDbEntity
8
0
100
AcDbBlockEnd
0
BLOCK
5
179
100
AcDbEntity
8
0
100
AcDbBlockBegin
2
*D7
70
1
10
0
20
0
30
0
3
*D7
0
LINE
5
17B
100
AcDbEntity
8
0
62
256
6
ByLayer
370
-2
48
1
60
0
100
AcDbLine
10
67
20
-1.5875
30
0
11
67
21
-20.577503
31
0
39
0
210
0
220
0
230
1
0
LINE
5
17C
100
AcDbEntity
8
0
62
256
6
ByLayer
370
-2
48
1
60
0
100
AcDbLine
10
65.2824
20
-7.3625
30
0
11
65.2824
21
-20.577503
31
0
39
0
210
0
220
0
230
1
0
LINE
5
17D
100
AcDbEntity
8
0
62
256
6
ByLayer
370
-2
48
1
60
0
100
AcDbLine
10
67
20
-18.577503
30
0
11
94.666667
21
-18.577503
31
0
39
0
210
0
220
0
230
1
0
LINE
5
17E
100
AcDbEntity
8
0
62
256
6
ByLayer
370
-2
48
1
60
0
100
AcDbLine
10
70.5
20
-18.577503
30
0
11
74
21
-18.577503
31
0
39
0
210
0
220
0
230
1
0
LINE
5
17F
100
AcDbEntity
8
0
62
256
6
ByLayer
370
-2
48
1
60
0
100
AcDbLine
10
61.7824
20
-18.577503
30
0
11
58.2824
21
-18.577503
31
0
39
0
210
0
220
0
230
1
0
SOLID
5
180
100
AcDbEntity
8
0
62
256
6
ByLayer
370
-1
48
1
60
0
100
AcDbTrace
10
70.5
20
-17.99417
30
0
11
70.5
21
-19.160837
31
0
12
67
22
-18.577503
32
0
13
67
23
-18.577503
33
0
39
0
210
0
220
0
230
1
0
SOLID
5
181
100
AcDbEntity
8
0
62
256
6
ByLayer
370
-1
48
1
60
0
100
AcDbTrace
10
61.7824
20
-19.160837
30
0
11
61.7824
21
-17.99417
31
0
12
65.2824
22
-18.577503
32
0
13
65.2824
23
-18.577503
33
0
39
0
210
0
220
0
230
1
0
MTEXT
5
182
100
AcDbEntity
8
0
62
256
6
ByLayer
370
18
48
1
60
0
100
AcDbMText
10
84.333333
20
-11.577503
30
0
210
0
220
0
230
1
1
\A1;1.72
40
3.5
41
0
44
1
50
0
71
5
72
5
7
iso_b_vert
0
POINT
5
183
100
AcDbEntity
8
Defpoints
62
0
6
ByLayer
370
-1
48
1
60
0
100
AcDbPoint
10
67
20
0
30
0
39
0
210
0
220
0
230
1
50
360
0
POINT
5
184
100
AcDbEntity
8
Defpoints
62
0
6
ByLayer
370
-1
48
1
60
0
100
AcDbPoint
10
65.2824
20
-5.775
30
0
39
0
210
0
220
0
230
1
50
360
0
POINT
5
185
100
AcDbEntity
8
Defpoints
62
0
6
ByLayer
370
-1
48
1
60
0
100
AcDbPoint
10
65.2824
20
-18.577503
30
0
39
0
210
0
220
0
230
1
50
360
0
ENDBLK
5
17A
100
AcDbEntity
8
0
100
AcDbBlockEnd
0
BLOCK
5
18D
100
AcDbEntity
8
0
100
AcDbBlockBegin
2
_U3
70
0
10
0
20
0
30
0
3
_U3
0
MTEXT
5
187
100
AcDbEntity
8
SK2
62
256
6
ByLayer
370
13
48
1
60
0
100
AcDbMText
10
73.589293
20
-17.54487
30
0
210
0
220
0
230
1
1
\W0.6367;1,72
40
3.5
41
0
44
1.084337
50
0
71
7
72
5
7
iso_b_vert
0
LINE
5
188
100
AcDbEntity
8
SK2
62
256
6
ByLayer
370
13
48
1
60
0
100
AcDbLine
10
67
20
-1.5875
30
0
11
67
21
-20.577503
31
0
39
0
210
0
220
0
230
1
0
LINE
5
189
100
AcDbEntity
8
SK2
62
256
6
ByLayer
370
13
48
1
60
0
100
AcDbLine
10
65.2824
20
-7.3625
30
0
11
65.2824
21
-20.577503
31
0
39
0
210
0
220
0
230
1
0
LINE
5
18A
100
AcDbEntity
8
SK2
62
256
6
ByLayer
370
13
48
1
60
0
100
AcDbLine
10
56.5324
20
-18.577503
30
0
11
80.559058
21
-18.577503
31
0
39
0
210
0
220
0
230
1
0
SOLID
5
18B
100
AcDbEntity
8
SK2
62
256
6
ByLayer
370
18
48
1
60
0
100
AcDbTrace
10
67
20
-18.577503
30
0
11
70.499998
21
-18.116719
31
0
12
70.500002
22
-19.038287
32
0
13
70.500002
23
-19.038287
33
0
39
0
210
0
220
0
230
1
0
SOLID
5
18C
100
AcDbEntity
8
SK2
62
256
6
ByLayer
370
18
48
1
60
0
100
AcDbTrace
10
65.2824
20
-18.577503
30
0
11
61.782402
21
-19.038287
31
0
12
61.782398
22
-18.116719
32
0
13
61.782398
23
-18.116719
33
0
39
0
210
0
220
0
230
1
0
ENDBLK
5
18E
100
AcDbEntity
8
0
100
AcDbBlockEnd
0
BLOCK
5
193
100
AcDbEntity
8
0
100
AcDbBlockBegin
2
*D9
70
1
10
0
20
0
30
0
3
*D9
0
LINE
5
195
100
AcDbEntity
8
0
62
256
6
ByLayer
370
-2
48
1
60
0
100
AcDbLine
10
65.2824
20
7.3625
30
0
11
65.2824
21
11.910371
31
0
39
0
210
0
220
0
230
1
0
LINE
5
196
100
AcDbEntity
8
0
62
256
6
ByLayer
370
-2
48
1
60
0
100
AcDbLine
10
30.6324
20
7.3625
30
0
11
30.6324
21
11.910371
31
0
39
0
210
0
220
0
230
1
0
LINE
5
197
100
AcDbEntity
8
0
62
256
6
ByLayer
370
-2
48
1
60
0
100
AcDbLine
10
61.7824
20
9.910371
30
0
11
34.1324
21
9.910371
31
0
39
0
210
0
220
0
230
1
0
SOLID
5
198
100
AcDbEntity
8
0
62
256
6
ByLayer
370
-1
48
1
60
0
100
AcDbTrace
10
61.7824
20
9.327038
30
0
11
61.7824
21
10.493705
31
0
12
65.2824
22
9.910371
32
0
13
65.2824
23
9.910371
33
0
39
0
210
0
220
0
230
1
0
SOLID
5
199
100
AcDbEntity
8
0
62
256
6
ByLayer
370
-1
48
1
60
0
100
AcDbTrace
10
34.1324
20
10.493705
30
0
11
34.1324
21
9.327038
31
0
12
30.6324
22
9.910371
32
0
13
30.6324
23
9.910371
33
0
39
0
210
0
220
0
230
1
0
MTEXT
5
19A
100
AcDbEntity
8
0
62
256
6
ByLayer
370
18
48
1
60
0
100
AcDbMText
10
47.9574
20
16.910371
30
0
210
0
220
0
230
1
1
\A1;34.65
40
3.5
41
0
44
1
50
0
71
5
72
5
7
iso_b_vert
0
POINT
5
19B
100
AcDbEntity
8
Defpoints
62
0
6
ByLayer
370
-1
48
1
60
0
100
AcDbPoint
10
65.2824
20
5.775
30
0
39
0
210
0
220
0
230
1
50
360
0
POINT
5
19C
100
AcDbEntity
8
Defpoints
62
0
6
ByLayer
370
-1
48
1
60
0
100
AcDbPoint
10
30.6324
20
5.775
30
0
39
0
210
0
220
0
230
1
50
360
0
POINT
5
19D
100
AcDbEntity
8
Defpoints
62
0
6
ByLayer
370
-1
48
1
60
0
100
AcDbPoint
10
30.6324
20
9.910371
30
0
39
0
210
0
220
0
230
1
50
360
0
ENDBLK
5
194
100
AcDbEntity
8
0
100
AcDbBlockEnd
0
BLOCK
5
1A5
100
AcDbEntity
8
0
100
AcDbBlockBegin
2
_U4
70
0
10
0
20
0
30
0
3
_U4
0
MTEXT
5
19F
100
AcDbEntity
8
SK2
62
256
6
ByLayer
370
13
48
1
60
0
100
AcDbMText
10
42.635835
20
10.943005
30
0
210
0
220
0
230
1
1
\W0.7581;34,65
40
3.5
41
0
44
1.084337
50
0
71
7
72
5
7
iso_b_vert
0
LINE
5
1A0
100
AcDbEntity
8
SK2
62
256
6
ByLayer
370
13
48
1
60
0
100
AcDbLine
10
65.2824
20
7.3625
30
0
11
65.2824
21
11.910371
31
0
39
0
210
0
220
0
230
1
0
LINE
5
1A1
100
AcDbEntity
8
SK2
62
256
6
ByLayer
370
13
48
1
60
0
100
AcDbLine
10
30.6324
20
7.3625
30
0
11
30.6324
21
11.910371
31
0
39
0
210
0
220
0
230
1
0
LINE
5
1A2
100
AcDbEntity
8
SK2
62
256
6
ByLayer
370
13
48
1
60
0
100
AcDbLine
10
65.2824
20
9.910371
30
0
11
30.6324
21
9.910371
31
0
39
0
210
0
220
0
230
1
0
SOLID
5
1A3
100
AcDbEntity
8
SK2
62
256
6
ByLayer
370
18
48
1
60
0
100
AcDbTrace
10
65.2824
20
9.910371
30
0
11
61.782402
21
9.449588
31
0
12
61.782398
22
10.371155
32
0
13
61.782398
23
10.371155
33
0
39
0
210
0
220
0
230
1
0
SOLID
5
1A4
100
AcDbEntity
8
SK2
62
256
6
ByLayer
370
18
48
1
60
0
100
AcDbTrace
10
30.6324
20
9.910371
30
0
11
34.132398
21
10.371155
31
0
12
34.132402
22
9.449588
32
0
13
34.132402
23
9.449588
33
0
39
0
210
0
220
0
230
1
0
ENDBLK
5
1A6
100
AcDbEntity
8
0
100
AcDbBlockEnd
0
BLOCK
5
1AB
100
AcDbEntity
8
0
100
AcDbBlockBegin
2
*D11
70
1
10
0
20
0
30
0
3
*D11
0
LINE
5
1AD
100
AcDbEntity
8
0
62
256
6
ByLayer
370
-2
48
1
60
0
100
AcDbLine
10
-48
20
-9.5875
30
0
11
-48
21
-30.690158
31
0
39
0
210
0
220
0
230
1
0
LINE
5
1AE
100
AcDbEntity
8
0
62
256
6
ByLayer
370
-2
48
1
60
0
100
AcDbLine
10
65.2824
20
-7.3625
30
0
11
65.2824
21
-30.690158
31
0
39
0
210
0
220
0
230
1
0
LINE
5
1AF
100
AcDbEntity
8
0
62
256
6
ByLayer
370
-2
48
1
60
0
100
AcDbLine
10
-44.5
20
-28.690158
30
0
11
61.7824
21
-28.690158
31
0
39
0
210
0
220
0
230
1
0
SOLID
5
1B0
100
AcDbEntity
8
0
62
256
6
ByLayer
370
-1
48
1
60
0
100
AcDbTrace
10
-44.5
20
-28.106825
30
0
11
-44.5
21
-29.273491
31
0
12
-48
22
-28.690158
32
0
13
-48
23
-28.690158
33
0
39
0
210
0
220
0
230
1
0
SOLID
5
1B1
100
AcDbEntity
8
0
62
256
6
ByLayer
370
-1
48
1
60
0
100
AcDbTrace
10
61.7824
20
-29.273491
30
0
11
61.7824
21
-28.106825
31
0
12
65.2824
22
-28.690158
32
0
13
65.2824
23
-28.690158
33
0
39
0
210
0
220
0
230
1
0
MTEXT
5
1B2
100
AcDbEntity
8
0
62
256
6
ByLayer
370
18
48
1
60
0
100
AcDbMText
10
8.6412
20
-21.690158
30
0
210
0
220
0
230
1
1
\A1;113.28
40
3.5
41
0
44
1
50
0
71
5
72
5
7
iso_b_vert
0
POINT
5
1B3
100
AcDbEntity
8
Defpoints
62
0
6
ByLayer
370
-1
48
1
60
0
100
AcDbPoint
10
-48
20
-8
30
0
39
0
210
0
220
0
230
1
50
360
0
POINT
5
1B4
100
AcDbEntity
8
Defpoints
62
0
6
ByLayer
370
-1
48
1
60
0
100
AcDbPoint
10
65.2824
20
-5.775
30
0
39
0
210
0
220
0
230
1
50
360
0
POINT
5
1B5
100
AcDbEntity
8
Defpoints
62
0
6
ByLayer
370
-1
48
1
60
0
100
AcDbPoint
10
65.2824
20
-28.690158
30
0
39
0
210
0
220
0
230
1
50
360
0
ENDBLK
5
1AC
100
AcDbEntity
8
0
100
AcDbBlockEnd
0
BLOCK
5
1BD
100
AcDbEntity
8
0
100
AcDbBlockBegin
2
_U5
70
0
10
0
20
0
30
0
3
_U5
0
MTEXT
5
1B7
100
AcDbEntity
8
SK2
62
256
6
ByLayer
370
13
48
1
60
0
100
AcDbMText
10
3.071035
20
-27.657524
30
0
210
0
220
0
230
1
1
\W0.6440;113,28
40
3.5
41
0
44
1.084337
50
0
71
7
72
5
7
iso_b_vert
0
LINE
5
1B8
100
AcDbEntity
8
SK2
62
256
6
ByLayer
370
13
48
1
60
0
100
AcDbLine
10
-48
20
-9.5875
30
0
11
-48
21
-30.690158
31
0
39
0
210
0
220
0
230
1
0
LINE
5
1B9
100
AcDbEntity
8
SK2
62
256
6
ByLayer
370
13
48
1
60
0
100
AcDbLine
10
65.2824
20
-7.3625
30
0
11
65.2824
21
-30.690158
31
0
39
0
210
0
220
0
230
1
0
LINE
5
1BA
100
AcDbEntity
8
SK2
62
256
6
ByLayer
370
13
48
1
60
0
100
AcDbLine
10
-48
20
-28.690158
30
0
11
65.2824
21
-28.690158
31
0
39
0
210
0
220
0
230
1
0
SOLID
5
1BB
100
AcDbEntity
8
SK2
62
256
6
ByLayer
370
18
48
1
60
0
100
AcDbTrace
10
-48
20
-28.690158
30
0
11
-44.500002
21
-28.229374
31
0
12
-44.499998
22
-29.150942
32
0
13
-44.499998
23
-29.150942
33
0
39
0
210
0
220
0
230
1
0
SOLID
5
1BC
100
AcDbEntity
8
SK2
62
256
6
ByLayer
370
18
48
1
60
0
100
AcDbTrace
10
65.2824
20
-28.690158
30
0
11
61.782402
21
-29.150942
31
0
12
61.782398
22
-28.229374
32
0
13
61.782398
23
-28.229374
33
0
39
0
210
0
220
0
230
1
0
ENDBLK
5
1BE
100
AcDbEntity
8
0
100
AcDbBlockEnd
0
ENDSEC
0
SECTION
2
ENTITIES
0
ARC
5
BF
100
AcDbEntity
8
1
62
256
6
ByLayer
370
18
48
1
60
0
100
AcDbCircle
39
0
10
0.783566
20
-8.595
30
0
40
0.800000000000002
210
0
220
0
230
1
100
AcDbArc
50
90
51
119.322737
0
ARC
5
C0
100
AcDbEntity
8
1
62
256
6
ByLayer
370
18
48
1
60
0
100
AcDbCircle
39
0
10
0.783566
20
8.595
30
0
40
0.800000000000002
210
0
220
0
230
1
100
AcDbArc
50
240.677263
51
270
0
ARC
5
C1
100
AcDbEntity
8
1
62
256
6
ByLayer
370
18
48
1
60
0
100
AcDbCircle
39
0
10
0
20
-7.2
30
0
40
0.799999999999998
210
0
220
0
230
1
100
AcDbArc
50
270
51
299.322737
0
ARC
5
C2
100
AcDbEntity
8
1
62
256
6
ByLayer
370
18
48
1
60
0
100
AcDbCircle
39
0
10
0
20
7.2
30
0
40
0.799999999999998
210
0
220
0
230
1
100
AcDbArc
50
60.677263
51
90
0
ARC
5
C3
100
AcDbEntity
8
SK2
62
256
6
ByLayer
370
13
48
1
60
0
100
AcDbCircle
39
0
10
36.4074
20
0
30
0
40
21.0900363844989
210
0
220
0
230
1
100
AcDbArc
50
182.919829
51
225
0
ARC
5
C4
100
AcDbEntity
8
SK2
62
256
6
ByLayer
370
13
48
1
60
0
100
AcDbCircle
39
0
10
36.4074
20
0
30
0
40
21.0900363844989
210
0
220
0
230
1
100
AcDbArc
50
135
51
165.092231
0
POINT
5
70
100
AcDbEntity
8
80
62
256
6
ByLayer
370
18
48
1
60
0
100
AcDbPoint
10
0
20
0
30
0
39
0
210
0
220
0
230
1
50
360
0
POINT
5
72
100
AcDbEntity
8
81
62
256
6
ByLayer
370
18
48
1
60
0
100
AcDbPoint
10
67
20
0
30
0
39
0
210
0
220
0
230
1
50
360
0
POINT
5
74
100
AcDbEntity
8
1
62
256
6
ByLayer
370
18
48
1
60
1
100
AcDbPoint
10
65.2824
20
-5.775
30
0
39
0
210
0
220
0
230
1
50
360
0
POINT
5
76
100
AcDbEntity
8
1
62
256
6
ByLayer
370
18
48
1
60
1
100
AcDbPoint
10
-48
20
-8
30
0
39
0
210
0
220
0
230
1
50
360
0
POINT
5
77
100
AcDbEntity
8
1
62
256
6
ByLayer
370
18
48
1
60
1
100
AcDbPoint
10
28.61
20
7.795
30
0
39
0
210
0
220
0
230
1
50
360
0
POINT
5
78
100
AcDbEntity
8
1
62
256
6
ByLayer
370
18
48
1
60
1
100
AcDbPoint
10
65.2824
20
-5.775
30
0
39
0
210
0
220
0
230
1
50
360
0
POINT
5
79
100
AcDbEntity
8
1
62
256
6
ByLayer
370
18
48
1
60
1
100
AcDbPoint
10
65.2824
20
5.775
30
0
39
0
210
0
220
0
230
1
50
360
0
POINT
5
7A
100
AcDbEntity
8
1
62
256
6
ByLayer
370
18
48
1
60
1
100
AcDbPoint
10
30.6324
20
5.775
30
0
39
0
210
0
220
0
230
1
50
360
0
POINT
5
7B
100
AcDbEntity
8
1
62
256
6
ByLayer
370
18
48
1
60
1
100
AcDbPoint
10
-48
20
-8
30
0
39
0
210
0
220
0
230
1
50
360
0
POINT
5
7C
100
AcDbEntity
8
1
62
256
6
ByLayer
370
18
48
1
60
1
100
AcDbPoint
10
65.2824
20
-5.775
30
0
39
0
210
0
220
0
230
1
50
360
0
SPLINE
5
C5
100
AcDbEntity
8
SK1
62
256
6
ByLayer
370
18
48
1
60
0
100
AcDbSpline
70
4
71
3
72
8
73
4
40
0
40
0
40
0
40
0
40
1
40
1
40
1
40
1
41
1
10
-46.5
20
6.85897136211548
30
0
41
1
10
-47.0011331147847
20
6.39229165867027
30
0
41
1
10
-47.5014464285815
20
5.92488380264746
30
0
41
1
10
-48
20
5.45591293198109
30
0
0
SPLINE
5
C6
100
AcDbEntity
8
SK1
62
256
6
ByLayer
370
18
48
1
60
0
100
AcDbSpline
70
4
71
3
72
12
73
8
40
0
40
0
40
0
40
0
40
0.499999999999994
40
0.499999999999994
40
0.749999999999997
40
0.749999999999997
40
1
40
1
40
1
40
1
41
1
10
-46.5
20
5.85885162717142
30
0
41
1
10
-46.4766765617276
20
5.88057155534051
30
0
41
1
10
-46.4539377815664
20
5.90619751928949
30
0
41
1
10
-46.4257150407642
20
5.9459399157648
30
0
41
1
10
-46.4170867124434
20
5.95976117852115
30
0
41
1
10
-46.4042310471649
20
5.98591749963597
30
0
41
1
10
-46.4
20
5.99849769446152
30
0
41
1
10
-46.4
20
6.0075636328346
30
0
0
SPLINE
5
C7
100
AcDbEntity
8
SK1
62
256
6
ByLayer
370
18
48
1
60
0
100
AcDbSpline
70
4
71
3
72
12
73
8
40
0
40
0
40
0
40
0
40
0.250000000000001
40
0.250000000000001
40
0.500000000000002
40
0.500000000000002
40
1
40
1
40
1
40
1
41
1
10
-46.4
20
6.92767378898316
30
0
41
1
10
-46.4
20
6.93182036960761
30
0
41
1
10
-46.4041640203491
20
6.93176430706376
30
0
41
1
10
-46.4170552197607
20
6.92606528378747
30
0
41
1
10
-46.4255471163326
20
6.92063593076244
30
0
41
1
10
-46.4540060778302
20
6.8999875319914
30
0
41
1
10
-46.4766801706343
20
6.88068792949392
30
0
41
1
10
-46.5
20
6.85897136211548
30
0
0
SPLINE
5
C8
100
AcDbEntity
8
SK1
62
256
6
ByLayer
370
18
48
1
60
0
100
AcDbSpline
70
4
71
3
72
8
73
4
40
0
40
0
40
0
40
0
40
1
40
1
40
1
40
1
41
1
10
-48
20
4.45579319703702
30
0
41
1
10
-47.5014366469029
20
4.92477326896608
30
0
41
1
10
-47.0011254125565
20
5.39217909641832
30
0
41
1
10
-46.5
20
5.85885162717142
30
0
0
SPLINE
5
C9
100
AcDbEntity
8
1
62
256
6
ByLayer
370
18
48
1
60
0
100
AcDbSpline
70
4
71
3
72
8
73
4
40
0
40
0
40
0
40
0
40
1
40
1
40
1
40
1
41
1
10
66.9644035333491
20
-0.0409249369215843
30
0
41
1
10
66.6993793902336
20
-0.474393853904331
30
0
41
1
10
66.4396441692018
20
-0.912667557218725
30
0
41
1
10
66.1852613597595
20
-1.35580372468726
30
0
0
SPLINE
5
CA
100
AcDbEntity
8
1
62
256
6
ByLayer
370
18
48
1
60
0
100
AcDbSpline
70
4
71
3
72
8
73
4
40
0
40
0
40
0
40
0
40
1
40
1
40
1
40
1
41
1
10
31.0555048122712
20
5.73144803966264
30
0
41
1
10
30.9246078203505
20
5.71809591936363
30
0
41
1
10
30.7935940705593
20
5.703280440669
30
0
41
1
10
30.6624927017028
20
5.68701163277004
30
0
0
SPLINE
5
CB
100
AcDbEntity
8
1
62
256
6
ByLayer
370
18
48
1
60
0
100
AcDbSpline
70
4
71
3
72
8
73
4
40
0
40
0
40
0
40
0
40
1
40
1
40
1
40
1
41
1
10
30.6178322286849
20
0.0370697931029156
30
0
41
1
10
30.3216538395105
20
0.208561586010006
30
0
41
1
10
30.0250434418548
20
0.378398794683079
30
0
41
1
10
29.7280601113015
20
0.546695223219729
30
0
0
SPLINE
5
CC
100
AcDbEntity
8
1
62
256
6
ByLayer
370
13
48
1
60
0
100
AcDbSpline
70
4
71
3
72
16
73
12
40
0
40
0
40
0
40
0
40
0.225728231532384
40
0.225728231532384
40
0.451456463064768
40
0.451456463064768
40
0.677184694597151
40
0.677184694597151
40
0.902912926129535
40
0.902912926129535
40
1
40
1
40
1
40
1
41
1
10
30.6178322286845
20
-5.32421814875016
30
0
41
1
10
30.9784067428649
20
-5.383468367831
30
0
41
1
10
31.3405584764309
20
-5.43227363594235
30
0
41
1
10
32.0629813102442
20
-5.50754478643529
30
0
41
1
10
32.42398785873
20
-5.53417957840742
30
0
41
1
10
33.1465933125862
20
-5.5651886183594
30
0
41
1
10
33.5083936809931
20
-5.56950182246146
30
0
41
1
10
34.2309813686736
20
-5.55570567928871
30
0
41
1
10
34.5920752434673
20
-5.53765079105654
30
0
41
1
10
35.1088714348242
20
-5.49593454466557
30
0
41
1
10
35.2643907248088
20
-5.48131675299879
30
0
41
1
10
35.4198036625492
20
-5.46468013171082
30
0
0
SPLINE
5
CD
100
AcDbEntity
8
1
62
256
6
ByLayer
370
18
48
1
60
0
100
AcDbSpline
70
4
71
3
72
30
73
26
40
0
40
0
40
0
40
0
40
0.0625000000000028
40
0.0625000000000028
40
0.125000000000006
40
0.125000000000006
40
0.187500000000008
40
0.187500000000008
40
0.250000000000011
40
0.250000000000011
40
0.312500000000014
40
0.312500000000014
40
0.375000000000017
40
0.375000000000017
40
0.500000000000013
40
0.500000000000013
40
0.62500000000001
40
0.62500000000001
40
0.750000000000007
40
0.750000000000007
40
0.875000000000003
40
0.875000000000003
40
0.937500000000002
40
0.937500000000002
40
1
40
1
40
1
40
1
41
1
10
66.1852613597615
20
-1.35580372468422
30
0
41
1
10
66.1819283989532
20
-1.38497933949333
30
0
41
1
10
66.1770488115875
20
-1.41670171384834
30
0
41
1
10
66.1645616196668
20
-1.4823299072869
30
0
41
1
10
66.1569897645292
20
-1.51624043236294
30
0
41
1
10
66.1392411480105
20
-1.58623324982784
30
0
41
1
10
66.1289639996691
20
-1.62258369189829
30
0
41
1
10
66.1066560311745
20
-1.69456965429518
30
0
41
1
10
66.0945583454676
20
-1.73052096136132
30
0
41
1
10
66.0685653777366
20
-1.80235147533961
30
0
41
1
10
66.0547438909359
20
-1.83798084230142
30
0
41
1
10
66.0263550433206
20
-1.90676436967095
30
0
41
1
10
66.0116790571303
20
-1.94022105823242
30
0
41
1
10
65.9662841274165
20
-2.03789304807418
30
0
41
1
10
65.9354176470982
20
-2.09688751387841
30
0
41
1
10
65.8732930707837
20
-2.20279583407904
30
0
41
1
10
65.8423843029962
20
-2.24889557562
30
0
41
1
10
65.7842855661361
20
-2.32355628770532
30
0
41
1
10
65.7564905105532
20
-2.35301634877962
30
0
41
1
10
65.7049277183303
20
-2.39427196228115
30
0
41
1
10
65.6817450179314
20
-2.40573425839799
30
0
41
1
10
65.6509231263921
20
-2.40859262699817
30
0
41
1
10
65.6413248122703
20
-2.40706316235364
30
0
41
1
10
65.6241404090524
20
-2.39901719672031
30
0
41
1
10
65.6164639627281
20
-2.39252441818275
30
0
41
1
10
65.6097311535466
20
-2.38345901444896
30
0
0
SPLINE
5
CE
100
AcDbEntity
8
1
62
256
6
ByLayer
370
18
48
1
60
0
100
AcDbSpline
70
4
71
3
72
8
73
4
40
0
40
0
40
0
40
0
40
1
40
1
40
1
40
1
41
1
10
65.2675052364148
20
5.61282826211675
30
0
41
1
10
65.1526439342442
20
5.69940107028063
30
0
41
1
10
65.0494154320674
20
5.75266376034702
30
0
41
1
10
64.9574295281392
20
5.76925745271561
30
0
0
SPLINE
5
CF
100
AcDbEntity
8
1
62
256
6
ByLayer
370
18
48
1
60
0
100
AcDbSpline
70
4
71
3
72
14
73
10
40
0
40
0
40
0
40
0
40
0.15508580392636
40
0.15508580392636
40
0.310171607852719
40
0.310171607852719
40
0.620343215705439
40
0.620343215705439
40
1
40
1
40
1
40
1
41
1
10
65.0447959394494
20
-5.48332001688203
30
0
41
1
10
64.6837962371301
20
-5.48960934971311
30
0
41
1
10
64.3229606746427
20
-5.48483450035098
30
0
41
1
10
63.6007171678319
20
-5.45322787668346
30
0
41
1
10
63.2390437340623
20
-5.42632920241172
30
0
41
1
10
62.1601830080834
20
-5.31393307201827
30
0
41
1
10
61.4463282114878
20
-5.19673755494364
30
0
41
1
10
59.8621226758072
20
-4.84913030397831
30
0
41
1
10
58.9924008245473
20
-4.59924167828433
30
0
41
1
10
58.1177007755662
20
-4.29712122644179
30
0
0
SPLINE
5
D0
100
AcDbEntity
8
1
62
256
6
ByLayer
370
13
48
1
60
0
100
AcDbSpline
70
4
71
3
72
28
73
24
40
0
40
0
40
0
40
0
40
0.132081858591673
40
0.132081858591673
40
0.174635208591049
40
0.174635208591049
40
0.217188558590425
40
0.217188558590425
40
0.302295258589178
40
0.302295258589178
40
0.47250865858668
40
0.47250865858668
40
0.642722058584182
40
0.642722058584182
40
0.685275408583557
40
0.685275408583557
40
0.727828758582932
40
0.727828758582932
40
0.812935458581679
40
0.812935458581679
40
0.983148858579174
40
0.983148858579174
40
1
40
1
40
1
40
1
41
1
10
58.1177002324073
20
-4.29712103883529
30
0
41
1
10
57.5631773743649
20
-4.1055894295487
30
0
41
1
10
57.0066537661045
20
-3.89306572438215
30
0
41
1
10
56.2657799596279
20
-3.58645508279287
30
0
41
1
10
56.0849989076642
20
-3.5098141941171
30
0
41
1
10
55.7246691073087
20
-3.35367799907533
30
0
41
1
10
55.5448660651202
20
-3.27406716345342
30
0
41
1
10
55.0063954587076
20
-3.03087137273025
30
0
41
1
10
54.6486581437773
20
-2.86292174344828
30
0
41
1
10
53.5775728679984
20
-2.34435876815334
30
0
41
1
10
52.866309346284
20
-1.97914241677188
30
0
41
1
10
51.4417849995622
20
-1.2226578086721
30
0
41
1
10
50.7286432332287
20
-0.831196324611483
30
0
41
1
10
49.8308714179
20
-0.33450602529382
30
0
41
1
10
49.6510068575838
20
-0.234786049968562
30
0
41
1
10
49.290558486268
20
-0.0347629671168761
30
0
41
1
10
49.1096987352978
20
0.0656789043792116
30
0
41
1
10
48.5681233694935
20
0.366137538583331
30
0
41
1
10
48.2085313736686
20
0.56517401946104
30
0
41
1
10
47.1327219137569
20
1.15596907643715
30
0
41
1
10
46.4195926628371
20
1.54180786285454
30
0
41
1
10
45.635792661963
20
1.94898789811759
30
0
41
1
10
45.5651876522882
20
1.98552130917
30
0
41
1
10
45.4945799348922
20
2.0219017883833
30
0
0
SPLINE
5
D1
100
AcDbEntity
8
1
62
256
6
ByLayer
370
18
48
1
60
0
100
AcDbSpline
70
4
71
3
72
20
73
16
40
0
40
0
40
0
40
0
40
0.274117913951984
40
0.274117913951984
40
0.364853174707986
40
0.364853174707986
40
0.455588435463988
40
0.455588435463988
40
0.637058956975992
40
0.637058956975992
40
0.727794217731994
40
0.727794217731994
40
0.818529478487996
40
0.818529478487996
40
1
40
1
40
1
40
1
41
1
10
23.6916258073801
20
5.33356515535579
30
0
41
1
10
24.1280863276645
20
5.58478281916021
30
0
41
1
10
24.5655454075396
20
5.81918329538962
30
0
41
1
10
25.1471345967497
20
6.11054104238781
30
0
41
1
10
25.2916092261931
20
6.18138125451216
30
0
41
1
10
25.5805267903436
20
6.31838629707065
30
0
41
1
10
25.7250462176134
20
6.38464469676015
30
0
41
1
10
26.1587453670248
20
6.57682058226524
30
0
41
1
10
26.4480019734956
20
6.69620869170265
30
0
41
1
10
26.8814716119895
20
6.86265151145903
30
0
41
1
10
27.0259079064938
20
6.91601208407343
30
0
41
1
10
27.3144065585038
20
7.01859325202005
30
0
41
1
10
27.4584515468717
20
7.06781167641896
30
0
41
1
10
27.8918108399365
20
7.20821881793319
30
0
41
1
10
28.1822271661414
20
7.29237670438761
30
0
41
1
10
28.4717505314983
20
7.3668479163367
30
0
0
SPLINE
5
D2
100
AcDbEntity
8
1
62
256
6
ByLayer
370
18
48
1
60
0
100
AcDbSpline
70
4
71
3
72
12
73
8
40
0
40
0
40
0
40
0
40
0.305918847851203
40
0.305918847851203
40
0.652959423925601
40
0.652959423925601
40
1
40
1
40
1
40
1
41
1
10
33.7412731144753
20
-5.46659131621036
30
0
41
1
10
33.4226697770266
20
-5.46662096267332
30
0
41
1
10
33.1037959725182
20
-5.45808518050168
30
0
41
1
10
32.4240171987838
20
-5.42167815301679
30
0
41
1
10
32.0629748672692
20
-5.3914285041744
30
0
41
1
10
31.3404726006045
20
-5.30938499139188
30
0
41
1
10
30.9783257383391
20
-5.25742019072521
30
0
41
1
10
30.617832228699
20
-5.19530949110933
30
0
0
SPLINE
5
D3
100
AcDbEntity
8
1
62
256
6
ByLayer
370
18
48
1
60
0
100
AcDbSpline
70
4
71
3
72
50
73
46
40
0
40
0
40
0
40
0
40
0.0337392186137368
40
0.0337392186137368
40
0.0674784372274735
40
0.0674784372274735
40
0.134956874454948
40
0.134956874454948
40
0.202435311682422
40
0.202435311682422
40
0.23617453029616
40
0.23617453029616
40
0.269913748909898
40
0.269913748909898
40
0.337392186137372
40
0.337392186137372
40
0.371131404751109
40
0.371131404751109
40
0.404870623364846
40
0.404870623364846
40
0.539827497819791
40
0.539827497819791
40
0.573566716433528
40
0.573566716433528
40
0.607305935047264
40
0.607305935047264
40
0.674784372274738
40
0.674784372274738
40
0.742262809502212
40
0.742262809502212
40
0.776002028115948
40
0.776002028115948
40
0.792871637422816
40
0.792871637422816
40
0.809741246729683
40
0.809741246729683
40
0.877219683957152
40
0.877219683957152
40
0.910958902570885
40
0.910958902570885
40
0.944698121184619
40
0.944698121184619
40
0.978437339798353
40
0.978437339798353
40
1
40
1
40
1
40
1
41
1
10
64.9574295281391
20
-5.76925745271558
30
0
41
1
10
64.6024342172452
20
-5.77815110786767
30
0
41
1
10
64.2475040939763
20
-5.77581121499412
30
0
41
1
10
63.5368483564147
20
-5.74871349030735
30
0
41
1
10
63.1810359741858
20
-5.72388744511107
30
0
41
1
10
62.1195932486011
20
-5.61693429908414
30
0
41
1
10
61.4170047157961
20
-5.50231807036951
30
0
41
1
10
60.0138855021106
20
-5.19237026468224
30
0
41
1
10
59.3132142937601
20
-4.99713052492018
30
0
41
1
10
58.257618374199
20
-4.64831826869795
30
0
41
1
10
57.9049896112026
20
-4.52271853888161
30
0
41
1
10
57.1971786762833
20
-4.25361680702406
30
0
41
1
10
56.8412137572889
20
-4.10974617150359
30
0
41
1
10
55.7757475603276
20
-3.65598893715102
30
0
41
1
10
55.0677610094869
20
-3.32393105059549
30
0
41
1
10
54.0031811433009
20
-2.79000543964799
30
0
41
1
10
53.6470661493802
20
-2.6056615662431
30
0
41
1
10
52.9373546354754
20
-2.22895194120599
30
0
41
1
10
52.5839355873291
20
-2.03671073812365
30
0
41
1
10
50.8215332661287
20
-1.06038443315941
30
0
41
1
10
49.4265069515679
20
-0.231123457291176
30
0
41
1
10
47.660306786571
20
0.79469138358931
30
0
41
1
10
47.3057830224972
20
0.999656459335768
30
0
41
1
10
46.5944956956745
20
1.40595850694081
30
0
41
1
10
46.2403824970845
20
1.60572340860054
30
0
41
1
10
45.1812346310801
20
2.19284053305321
30
0
41
1
10
44.4796305288688
20
2.56837866384174
30
0
41
1
10
43.076246208847
20
3.27391715378835
30
0
41
1
10
42.3749197188427
20
3.6046168393641
30
0
41
1
10
41.3170073008706
20
4.05791899705542
30
0
41
1
10
40.9634404546936
20
4.20197358564215
30
0
41
1
10
40.4308428538359
20
4.40622657135006
30
0
41
1
10
40.2527756326015
20
4.47239162864125
30
0
41
1
10
39.8972533772154
20
4.60004413269562
30
0
41
1
10
39.719658462725
20
4.66159612527511
30
0
41
1
10
38.8322433021991
20
4.95775894591003
30
0
41
1
10
38.1239524980987
20
5.15743082493194
30
0
41
1
10
37.0577479349597
20
5.39569653298125
30
0
41
1
10
36.7016978567061
20
5.46487201654864
30
0
41
1
10
35.9914114204277
20
5.58133774239286
30
0
41
1
10
35.6366531645958
20
5.62876031162614
30
0
41
1
10
34.9269383250444
20
5.70166188343848
30
0
41
1
10
34.57196992222
20
5.72713390348164
30
0
41
1
10
33.9890724280134
20
5.75059157205351
30
0
41
1
10
33.7616999455235
20
5.75516040465459
30
0
41
1
10
33.5345025988854
20
5.75515766569799
30
0
0
SPLINE
5
D4
100
AcDbEntity
8
1
62
256
6
ByLayer
370
18
48
1
60
0
100
AcDbSpline
70
4
71
3
72
26
73
22
40
0
40
0
40
0
40
0
40
0.125
40
0.125
40
0.25
40
0.25
40
0.375
40
0.375
40
0.5
40
0.5
40
0.5625
40
0.5625
40
0.625
40
0.625
40
0.75
40
0.75
40
0.8125
40
0.8125
40
0.875
40
0.875
40
1
40
1
40
1
40
1
41
1
10
30.6178322286849
20
-5.48603407344177
30
0
41
1
10
30.6178322286849
20
-5.39682650962592
30
0
41
1
10
30.6178322286849
20
-5.28496697863906
30
0
41
1
10
30.6178322286849
20
-5.01770267444348
30
0
41
1
10
30.6178322286849
20
-4.86213051018942
30
0
41
1
10
30.6178322286849
20
-4.50536698161667
30
0
41
1
10
30.6178322286849
20
-4.30897980968538
30
0
41
1
10
30.6178322286849
20
-3.88196978824178
30
0
41
1
10
30.6178322286849
20
-3.65121992315255
30
0
41
1
10
30.6178322286849
20
-3.27853516114823
30
0
41
1
10
30.6178322286849
20
-3.1502737457844
30
0
41
1
10
30.6178322286849
20
-2.88937216207458
30
0
41
1
10
30.6178322286849
20
-2.75622634454908
30
0
41
1
10
30.6178322286849
20
-2.34886761989449
30
0
41
1
10
30.6178322286849
20
-2.06675803892827
30
0
41
1
10
30.6178322286849
20
-1.62734810756748
30
0
41
1
10
30.6178322286849
20
-1.47780706558183
30
0
41
1
10
30.6178322286849
20
-1.17855928810837
30
0
41
1
10
30.6178322286849
20
-1.02823576559908
30
0
41
1
10
30.617832228685
20
-0.575208163059386
30
0
41
1
10
30.6178322286849
20
-0.270463833291586
30
0
41
1
10
30.6178322286849
20
0.0370697931028872
30
0
0
SPLINE
5
D5
100
AcDbEntity
8
1
62
256
6
ByLayer
370
18
48
1
60
0
100
AcDbSpline
70
4
71
3
72
8
73
4
40
0
40
0
40
0
40
0
40
1
40
1
40
1
40
1
41
1
10
65.0359836512669
20
-5.57799597330717
30
0
41
1
10
65.0098451973506
20
-5.64187101645959
30
0
41
1
10
64.983659224645
20
-5.70562417835237
30
0
41
1
10
64.9574295281391
20
-5.76925745271558
30
0
0
SPLINE
5
D6
100
AcDbEntity
8
1
62
256
6
ByLayer
370
18
48
1
60
0
100
AcDbSpline
70
4
71
3
72
24
73
20
40
0
40
0
40
0
40
0
40
0.027688915420341
40
0.027688915420341
40
0.11608083220031
40
0.11608083220031
40
0.29286466576025
40
0.29286466576025
40
0.381256582540219
40
0.381256582540219
40
0.469648499320187
40
0.469648499320187
40
0.646432332880122
40
0.646432332880122
40
0.734824249660091
40
0.734824249660091
40
0.82321616644006
40
0.82321616644006
40
1
40
1
40
1
40
1
41
1
10
23.6916485959991
20
-5.3402532362247
30
0
41
1
10
23.6076666319255
20
-5.38849804980268
30
0
41
1
10
23.5236770321704
20
-5.43618820433599
30
0
41
1
10
23.1715461225113
20
-5.63380338360338
30
0
41
1
10
22.9032771098499
20
-5.77906085837873
30
0
41
1
10
22.0983696468404
20
-6.19346596044312
30
0
41
1
10
21.5622045277652
20
-6.441489939549
30
0
41
1
10
20.7590669552934
20
-6.77165297323836
30
0
41
1
10
20.4912748686297
20
-6.87448851324501
30
0
41
1
10
19.9537414079471
20
-7.06456282605618
30
0
41
1
10
19.6853055500156
20
-7.15153153552316
30
0
41
1
10
18.8811418864088
20
-7.38848638089652
30
0
41
1
10
18.3474296608449
20
-7.51477698575576
30
0
41
1
10
17.5421299767717
20
-7.65335444548722
30
0
41
1
10
17.2728919968912
20
-7.6911863228417
30
0
41
1
10
16.7365862338999
20
-7.74965144543845
30
0
41
1
10
16.4693339431752
20
-7.77034559675496
30
0
41
1
10
15.6668040172745
20
-7.8064551204408
30
0
41
1
10
15.1309214358828
20
-7.79619784984152
30
0
41
1
10
14.593542843591
20
-7.75129528462716
30
0
0
SPLINE
5
D7
100
AcDbEntity
8
1
62
256
6
ByLayer
370
18
48
1
60
0
100
AcDbSpline
70
4
71
3
72
40
73
36
40
0
40
0
40
0
40
0
40
0.125000000000002
40
0.125000000000002
40
0.187500000000002
40
0.187500000000002
40
0.250000000000001
40
0.250000000000001
40
0.312500000000001
40
0.312500000000001
40
0.375000000000001
40
0.375000000000001
40
0.437500000000001
40
0.437500000000001
40
0.500000000000001
40
0.500000000000001
40
0.562500000000001
40
0.562500000000001
40
0.593750000000001
40
0.593750000000001
40
0.625000000000001
40
0.625000000000001
40
0.749999999999997
40
0.749999999999997
40
0.781249999999997
40
0.781249999999997
40
0.812499999999998
40
0.812499999999998
40
0.874999999999999
40
0.874999999999999
40
0.906249999999999
40
0.906249999999999
40
0.937499999999999
40
0.937499999999999
40
1
40
1
40
1
40
1
41
1
10
14.5935428435906
20
1.30874607556424
30
0
41
1
10
15.1704086484867
20
0.853923451849198
30
0
41
1
10
15.7502899105089
20
0.401495658531673
30
0
41
1
10
16.6172356325116
20
-0.282849450624667
30
0
41
1
10
16.9051626439768
20
-0.512654621275288
30
0
41
1
10
17.4844912269998
20
-0.968552062549946
30
0
41
1
10
17.7743875210977
20
-1.19434653258102
30
0
41
1
10
18.3530371815587
20
-1.64229775326976
30
0
41
1
10
18.6417300689639
20
-1.86475768006545
30
0
41
1
10
19.2180811001052
20
-2.30628119950049
30
0
41
1
10
19.5072571577184
20
-2.52348747346519
30
0
41
1
10
20.0874035892808
20
-2.95108686766426
30
0
41
1
10
20.3774355084135
20
-3.16095870253884
30
0
41
1
10
20.955153632936
20
-3.57298285801531
30
0
41
1
10
21.2427289260066
20
-3.77560225524331
30
0
41
1
10
21.8205782289601
20
-4.16819035866047
30
0
41
1
10
22.1102341415653
20
-4.35888996681186
30
0
41
1
10
22.5451675115966
20
-4.6372151734877
30
0
41
1
10
22.6902049156311
20
-4.72865033794278
30
0
41
1
10
22.9793825549497
20
-4.90855333231548
30
0
41
1
10
23.1235037319967
20
-4.99720658937267
30
0
41
1
10
23.8445313145348
20
-5.43124854707
30
0
41
1
10
24.4239581192792
20
-5.74825255239023
30
0
41
1
10
25.1471345967498
20
-6.11054104238784
30
0
41
1
10
25.2916092261931
20
-6.18138125451219
30
0
41
1
10
25.5805267903436
20
-6.3183862970707
30
0
41
1
10
25.7250462176135
20
-6.38464469676018
30
0
41
1
10
26.1587453670249
20
-6.57682058226527
30
0
41
1
10
26.4480019734957
20
-6.69620869170268
30
0
41
1
10
26.8814716119895
20
-6.86265151145906
30
0
41
1
10
27.0259079064938
20
-6.91601208407346
30
0
41
1
10
27.3144065585038
20
-7.01859325202008
30
0
41
1
10
27.4584515468717
20
-7.06781167641896
30
0
41
1
10
27.8918108399366
20
-7.20821881793322
30
0
41
1
10
28.1822271661415
20
-7.29237670438764
30
0
41
1
10
28.4717505314983
20
-7.36684791633672
30
0
0
SPLINE
5
D8
100
AcDbEntity
8
1
62
256
6
ByLayer
370
18
48
1
60
0
100
AcDbSpline
70
4
71
3
72
60
73
56
40
0
40
0
40
0
40
0
40
0.0054510132186658
40
0.0054510132186658
40
0.0437028973256402
40
0.0437028973256402
40
0.0819547814326146
40
0.0819547814326146
40
0.120206665539589
40
0.120206665539589
40
0.158458549646563
40
0.158458549646563
40
0.196710433753538
40
0.196710433753538
40
0.234962317860512
40
0.234962317860512
40
0.273214201967487
40
0.273214201967487
40
0.311466086074461
40
0.311466086074461
40
0.349717970181435
40
0.349717970181435
40
0.38796985428841
40
0.38796985428841
40
0.426221738395384
40
0.426221738395384
40
0.464473622502359
40
0.464473622502359
40
0.502725506609333
40
0.502725506609333
40
0.540977390716307
40
0.540977390716307
40
0.579229274823282
40
0.579229274823282
40
0.617481158930256
40
0.617481158930256
40
0.65573304303723
40
0.65573304303723
40
0.693984927144205
40
0.693984927144205
40
0.732236811251179
40
0.732236811251179
40
0.770488695358154
40
0.770488695358154
40
0.808740579465128
40
0.808740579465128
40
0.846992463572102
40
0.846992463572102
40
0.885244347679077
40
0.885244347679077
40
0.923496231786051
40
0.923496231786051
40
0.961748115893026
40
0.961748115893026
40
1
40
1
40
1
40
1
41
1
10
54.3135082236469
20
-3.71242535344382
30
0
41
1
10
54.2705186325423
20
-3.73002089909048
30
0
41
1
10
54.2275204158444
20
-3.74750963257202
30
0
41
1
10
53.8826898044635
20
-3.88682419310948
30
0
41
1
10
53.5804248490668
20
-4.00349106610494
30
0
41
1
10
52.9748268159227
20
-4.22553702409741
30
0
41
1
10
52.6725516654517
20
-4.33103695006227
30
0
41
1
10
52.0691476838128
20
-4.52844887894514
30
0
41
1
10
51.7675172094273
20
-4.61934676766157
30
0
41
1
10
51.1638323624101
20
-4.78914524722268
30
0
41
1
10
50.8617670039093
20
-4.86822841125868
30
0
41
1
10
50.2582107954711
20
-5.01328934559484
30
0
41
1
10
49.9557736625913
20
-5.07841147173485
30
0
41
1
10
49.3506544929778
20
-5.19405195248035
30
0
41
1
10
49.0483058313444
20
-5.24518991095633
30
0
41
1
10
48.4443867693748
20
-5.3322960116158
30
0
41
1
10
48.1431925409698
20
-5.36823779083707
30
0
41
1
10
47.5397768209318
20
-5.42370556767739
30
0
41
1
10
47.2376967809946
20
-5.44406183111269
30
0
41
1
10
46.6327099798278
20
-5.47040991178176
30
0
41
1
10
46.3298440759891
20
-5.47612881125906
30
0
41
1
10
45.7258337980082
20
-5.47060143641599
30
0
41
1
10
45.4239933660773
20
-5.46006326632042
30
0
41
1
10
44.8201728861602
20
-5.42510209094016
30
0
41
1
10
44.5181433434252
20
-5.40045549965708
30
0
41
1
10
43.9148181255767
20
-5.3342948693639
30
0
41
1
10
43.6129438934694
20
-5.29294632611322
30
0
41
1
10
43.0076668658826
20
-5.19698122399853
30
0
41
1
10
42.704801544767
20
-5.14222544512046
30
0
41
1
10
42.1005131385824
20
-5.01754342133987
30
0
41
1
10
41.7992202678223
20
-4.94682368417293
30
0
41
1
10
41.1959238575592
20
-4.7943537383502
30
0
41
1
10
40.8940558444727
20
-4.7118959208907
30
0
41
1
10
40.2896081386611
20
-4.53299662754475
30
0
41
1
10
39.9870039762677
20
-4.43585308144546
30
0
41
1
10
39.3821427698694
20
-4.23011133763305
30
0
41
1
10
39.079980365964
20
-4.12213176323377
30
0
41
1
10
38.4757806442061
20
-3.8947276953711
30
0
41
1
10
38.17363880756
20
-3.77538048208876
30
0
41
1
10
37.5702678356262
20
-3.52498539589868
30
0
41
1
10
37.2686007103978
20
-3.39513567470985
30
0
41
1
10
36.6638587455775
20
-3.12629147462701
30
0
41
1
10
36.3605500468346
20
-2.98710667495763
30
0
41
1
10
35.7553902260398
20
-2.70060697417341
30
0
41
1
10
35.4536747409661
20
-2.55310767824446
30
0
41
1
10
34.8497756981433
20
-2.2523261419253
30
0
41
1
10
34.5476587285289
20
-2.09878187553997
30
0
41
1
10
33.9427251554811
20
-1.7857695375734
30
0
41
1
10
33.6399663988292
20
-1.62619136219217
30
0
41
1
10
33.0350138754627
20
-1.30238256283334
30
0
41
1
10
32.732832304474
20
-1.13898445375798
30
0
41
1
10
32.1284512473423
20
-0.809892716295025
30
0
41
1
10
31.8261244493523
20
-0.644621598557478
30
0
41
1
10
31.2223607332086
20
-0.310709944073977
30
0
41
1
10
30.9205147418024
20
-0.142729318176691
30
0
41
1
10
30.6178322286849
20
0.024857091777875
30
0
0
SPLINE
5
D9
100
AcDbEntity
8
1
62
256
6
ByLayer
370
18
48
1
60
0
100
AcDbSpline
70
4
71
3
72
55
73
51
40
0
40
0
40
0
40
0
40
0.0609148457498661
40
0.0609148457498661
40
0.0891371220898369
40
0.0891371220898369
40
0.117359398429808
40
0.117359398429808
40
0.173803951109749
40
0.173803951109749
40
0.286693056469633
40
0.286693056469633
40
0.399582161829516
40
0.399582161829516
40
0.456026714509458
40
0.456026714509458
40
0.484248990849429
40
0.484248990849429
40
0.498360129019415
40
0.498360129019415
40
0.505415698104407
40
0.508943482646904
40
0.508943482646904
40
0.5124712671894
40
0.5124712671894
40
0.515999051731896
40
0.515999051731896
40
0.519526836274393
40
0.519526836274393
40
0.526582405359385
40
0.526582405359385
40
0.540693543529371
40
0.540693543529371
40
0.568915819869342
40
0.568915819869342
40
0.625360372549283
40
0.625360372549283
40
0.738249477909167
40
0.738249477909167
40
0.794694030589109
40
0.794694030589109
40
0.851138583269051
40
0.851138583269051
40
0.907583135948992
40
0.907583135948992
40
0.935805412288963
40
0.935805412288963
40
0.964027688628934
40
0.964027688628934
40
1
40
1
40
1
40
1
41
1
10
14.5935428435906
20
1.30874607556382
30
0
41
1
10
14.5935428435908
20
1.30187024088829
30
0
41
1
10
14.593542843591
20
1.28267266574753
30
0
41
1
10
14.593542843591
20
1.23747832263578
30
0
41
1
10
14.593542843591
20
1.22064114907658
30
0
41
1
10
14.593542843591
20
1.18196631799017
30
0
41
1
10
14.593542843591
20
1.16007687027172
30
0
41
1
10
14.593542843591
20
1.08750952362232
30
0
41
1
10
14.593542843591
20
1.02990937584733
30
0
41
1
10
14.593542843591
20
0.831336269680179
30
0
41
1
10
14.593542843591
20
0.664736189817035
30
0
41
1
10
14.593542843591
20
0.26865900732102
30
0
41
1
10
14.593542843591
20
0.0391399792186746
30
0
41
1
10
14.593542843591
20
-0.351423921804269
30
0
41
1
10
14.593542843591
20
-0.488998465196147
30
0
41
1
10
14.593542843591
20
-0.705134275477036
30
0
41
1
10
14.593542843591
20
-0.778861820216974
30
0
41
1
10
14.593542843591
20
-0.891955945218513
30
0
41
1
10
14.593542843591
20
-0.930077085650993
30
0
41
1
10
14.593542843591
20
-0.987862235408102
30
0
41
1
10
14.593542843591
20
-1.01690220960501
30
0
41
1
10
14.593542843591
20
-1.04616265738025
30
0
41
1
10
14.593542843591
20
-1.06571855248785
30
0
41
1
10
14.5935428435906
20
-1.07499201311384
30
0
41
1
10
14.5935428435906
20
-1.09753120003859
30
0
41
1
10
14.593542843591
20
-1.11084414335394
30
0
41
1
10
14.593542843591
20
-1.13899273761496
30
0
41
1
10
14.593542843591
20
-1.15404647067788
30
0
41
1
10
14.593542843591
20
-1.20081517740246
30
0
41
1
10
14.593542843591
20
-1.23204667936355
30
0
41
1
10
14.593542843591
20
-1.3258991751915
30
0
41
1
10
14.593542843591
20
-1.38864999347137
30
0
41
1
10
14.593542843591
20
-1.57712743490143
30
0
41
1
10
14.593542843591
20
-1.70320247899744
30
0
41
1
10
14.593542843591
20
-2.08270767280669
30
0
41
1
10
14.593542843591
20
-2.33741571032041
30
0
41
1
10
14.593542843591
20
-3.10680581472511
30
0
41
1
10
14.593542843591
20
-3.62670421373943
30
0
41
1
10
14.593542843591
20
-4.41835707082663
30
0
41
1
10
14.593542843591
20
-4.68276870289085
30
0
41
1
10
14.593542843591
20
-5.2082567947522
30
0
41
1
10
14.593542843591
20
-5.46999640379184
30
0
41
1
10
14.593542843591
20
-5.99136032429439
30
0
41
1
10
14.593542843591
20
-6.25098527226768
30
0
41
1
10
14.593542843591
20
-6.63870850612753
30
0
41
1
10
14.593542843591
20
-6.76796301394822
30
0
41
1
10
14.593542843591
20
-7.02416898334593
30
0
41
1
10
14.593542843591
20
-7.15106556204896
30
0
41
1
10
14.593542843591
20
-7.43692037902699
30
0
41
1
10
14.593542843591
20
-7.59513522175158
30
0
41
1
10
14.593542843591
20
-7.75129528450492
30
0
0
SPLINE
5
DA
100
AcDbEntity
8
1
62
256
6
ByLayer
370
18
48
1
60
0
100
AcDbSpline
70
4
71
3
72
32
73
28
40
0
40
0
40
0
40
0
40
0.0680279254428906
40
0.0680279254428906
40
0.136055850885781
40
0.136055850885781
40
0.204083776328672
40
0.204083776328672
40
0.272111701771563
40
0.272111701771563
40
0.340139627214453
40
0.340139627214453
40
0.408167552657344
40
0.408167552657344
40
0.544223403543123
40
0.544223403543123
40
0.612251328986012
40
0.612251328986012
40
0.6802792544289
40
0.6802792544289
40
0.816335105314675
40
0.816335105314675
40
0.884363030757563
40
0.884363030757563
40
0.95239095620045
40
0.95239095620045
40
1
40
1
40
1
40
1
41
1
10
27.4600704847542
20
2.83916587273362
30
0
41
1
10
27.1922282804664
20
3.03650818528388
30
0
41
1
10
26.9249471549235
20
3.23085058688821
30
0
41
1
10
26.3892966190771
20
3.61100167970417
30
0
41
1
10
26.1211442823273
20
3.79707402203314
30
0
41
1
10
25.584158293125
20
4.16116417743393
30
0
41
1
10
25.3153247058511
20
4.33947041194915
30
0
41
1
10
24.7796025492494
20
4.68562110216865
30
0
41
1
10
24.5117982629774
20
4.85312508786416
30
0
41
1
10
23.9759086505076
20
5.17673712597005
30
0
41
1
10
23.7078194326222
20
5.33284784858242
30
0
41
1
10
23.1715461225113
20
5.63380338360341
30
0
41
1
10
22.9032771098499
20
5.77906085837873
30
0
41
1
10
22.0983696468404
20
6.19346596044312
30
0
41
1
10
21.5622045277652
20
6.44148993954897
30
0
41
1
10
20.7590669552935
20
6.77165297323839
30
0
41
1
10
20.4912748686297
20
6.87448851324504
30
0
41
1
10
19.9537414079471
20
7.06456282605618
30
0
41
1
10
19.6853055500155
20
7.15153153552316
30
0
41
1
10
18.8811418864088
20
7.38848638089652
30
0
41
1
10
18.3474296608448
20
7.51477698575579
30
0
41
1
10
17.5421299767717
20
7.65335444548722
30
0
41
1
10
17.2728919968912
20
7.6911863228417
30
0
41
1
10
16.7365862338999
20
7.74965144543845
30
0
41
1
10
16.4693339431752
20
7.77034559675496
30
0
41
1
10
16.0146082906664
20
7.79080580165186
30
0
41
1
10
15.8272869877995
20
7.79502589366291
30
0
41
1
10
15.6398329210688
20
7.79502888364124
30
0
0
SPLINE
5
DB
100
AcDbEntity
8
1
62
256
6
ByLayer
370
18
48
1
60
0
100
AcDbSpline
70
4
71
3
72
8
73
4
40
0
40
0
40
0
40
0
40
1
40
1
40
1
40
1
41
1
10
65.6097311535466
20
-2.38345901444893
30
0
41
1
10
65.2609868912166
20
-3.02191990056147
30
0
41
1
10
64.9230802600011
20
-3.67022636598537
30
0
41
1
10
64.5961681140822
20
-4.32852090683173
30
0
0
SPLINE
5
DC
100
AcDbEntity
8
1
62
256
6
ByLayer
370
18
48
1
60
0
100
AcDbSpline
70
4
71
3
72
10
73
6
40
0
40
0
40
0
40
0
40
0.618444339500311
40
0.618444339500311
40
1
40
1
40
1
40
1
41
1
10
31.0555048122841
20
-5.73144803966397
30
0
41
1
10
31.2341728693179
20
-5.74066537567913
30
0
41
1
10
31.4125566452793
20
-5.74710657083355
30
0
41
1
10
31.7003430697453
20
-5.75295226761415
30
0
41
1
10
31.8101334852573
20
-5.75409365376251
30
0
41
1
10
31.9199897583601
20
-5.75415609918031
30
0
0
SPLINE
5
DD
100
AcDbEntity
8
1
62
256
6
ByLayer
370
18
48
1
60
0
100
AcDbSpline
70
4
71
3
72
38
73
34
40
0
40
0
40
0
40
0
40
0.0240100324168075
40
0.0240100324168075
40
0.0728095307959706
40
0.0728095307959706
40
0.121609029175134
40
0.121609029175134
40
0.219208025933457
40
0.219208025933457
40
0.268007524312617
40
0.268007524312617
40
0.316807022691778
40
0.316807022691778
40
0.414406019450096
40
0.414406019450096
40
0.463205517829255
40
0.463205517829255
40
0.512005016208413
40
0.512005016208413
40
0.609604012966731
40
0.609604012966731
40
0.65840351134589
40
0.65840351134589
40
0.707203009725049
40
0.707203009725049
40
0.804802006483367
40
0.804802006483367
40
0.853601504862526
40
0.853601504862526
40
0.902401003241685
40
0.902401003241685
40
1
40
1
40
1
40
1
41
1
10
54.3235284321079
20
3.71313137158469
30
0
41
1
10
54.4111634482655
20
3.7522186822795
30
0
41
1
10
54.4987635957624
20
3.79089713742073
30
0
41
1
10
54.7642647568948
20
3.90699939327271
30
0
41
1
10
54.9417657513098
20
3.98349538556428
30
0
41
1
10
55.2970500501523
20
4.13230370654188
30
0
41
1
10
55.4749762568717
20
4.20445333436871
30
0
41
1
10
56.0096328783889
20
4.41420453348928
30
0
41
1
10
56.3676814556445
20
4.54543199127087
30
0
41
1
10
56.9024609750133
20
4.7294074727925
30
0
41
1
10
57.0801194540709
20
4.78884050247643
30
0
41
1
10
57.4355239691067
20
4.90260537735779
30
0
41
1
10
57.613373544469
20
4.95685828162621
30
0
41
1
10
58.1473719981845
20
5.11188076021861
30
0
41
1
10
58.5038966740182
20
5.2050452880143
30
0
41
1
10
59.0381739581017
20
5.33039741663856
30
0
41
1
10
59.2159229436166
20
5.36992465429188
30
0
41
1
10
59.5721098886387
20
5.44347492155364
30
0
41
1
10
59.7506051998193
20
5.4774659043031
30
0
41
1
10
60.2856974085923
20
5.57096887647774
30
0
41
1
10
60.6423840216564
20
5.62223705807537
30
0
41
1
10
61.1760192054519
20
5.68310088877004
30
0
41
1
10
61.3534073475031
20
5.70075966662037
30
0
41
1
10
61.7086608066644
20
5.73032488927615
30
0
41
1
10
61.8865647772877
20
5.74224472468961
30
0
41
1
10
62.4210689812522
20
5.76956413336066
30
0
41
1
10
62.7790138682433
20
5.77659362252919
30
0
41
1
10
63.3135528451134
20
5.77020617593925
30
0
41
1
10
63.4910486360661
20
5.76521386484728
30
0
41
1
10
63.8461808582814
20
5.7495996508886
30
0
41
1
10
64.0238272539585
20
5.73900328008918
30
0
41
1
10
64.5569541171045
20
5.6990288468914
30
0
41
1
10
64.9125843881609
20
5.66153381895168
30
0
41
1
10
65.2675052364122
20
5.61282826211655
30
0
0
SPLINE
5
DE
100
AcDbEntity
8
1
62
256
6
ByLayer
370
18
48
1
60
0
100
AcDbSpline
70
4
71
3
72
10
73
6
40
0
40
0
40
0
40
0
40
0.5
40
0.5
40
1
40
1
40
1
40
1
41
1
10
66.9999621180662
20
0.0481990131360988
30
0
41
1
10
66.9962165651274
20
0.0329497222014083
30
0
41
1
10
66.9911231727738
20
0.0166263014818924
30
0
41
1
10
66.9788743803745
20
-0.0143473462306645
30
0
41
1
10
66.9716870413229
20
-0.0290121569155133
30
0
41
1
10
66.9644035333491
20
-0.0409249369215274
30
0
0
SPLINE
5
DF
100
AcDbEntity
8
1
62
256
6
ByLayer
370
18
48
1
60
0
100
AcDbSpline
70
4
71
3
72
14
73
10
40
0
40
0
40
0
40
0
40
0.25
40
0.25
40
0.499999999999999
40
0.499999999999999
40
0.75
40
0.75
40
1
40
1
40
1
40
1
41
1
10
65.0447959394278
20
-5.48332001688243
30
0
41
1
10
65.0482165920229
20
-5.48286858867064
30
0
41
1
10
65.0510236917582
20
-5.48403997987555
30
0
41
1
10
65.0549892607547
20
-5.4907253470378
30
0
41
1
10
65.0560998719719
20
-5.4963075214869
30
0
41
1
10
65.0553828798144
20
-5.51311545241316
30
0
41
1
10
65.053462845402
20
-5.52442183913448
30
0
41
1
10
65.0464476939042
20
-5.5503567027871
30
0
41
1
10
65.041459663612
20
-5.56461413649464
30
0
41
1
10
65.0359836512736
20
-5.57799597329091
30
0
0
SPLINE
5
E0
100
AcDbEntity
8
1
62
256
6
ByLayer
370
18
48
1
60
0
100
AcDbSpline
70
4
71
3
72
8
73
4
40
0
40
0
40
0
40
0
40
1
40
1
40
1
40
1
41
1
10
65.2675052364141
20
-5.61282826211723
30
0
41
1
10
65.1526439342438
20
-5.69940107028083
30
0
41
1
10
65.0494154320672
20
-5.75266376034705
30
0
41
1
10
64.9574295281391
20
-5.76925745271558
30
0
0
SPLINE
5
E1
100
AcDbEntity
8
1
62
256
6
ByLayer
370
18
48
1
60
0
100
AcDbSpline
70
4
71
3
72
12
73
8
40
0
40
0
40
0
40
0
40
0.5
40
0.5
40
0.75
40
0.75
40
1
40
1
40
1
40
1
41
1
10
30.6624927017027
20
-5.68701163277001
30
0
41
1
10
30.2936140237305
20
-5.99997686162439
30
0
41
1
10
29.9273248662861
20
-6.29664176420712
30
0
41
1
10
29.3802518644417
20
-6.71562011180112
30
0
41
1
10
29.1979933286733
20
-6.85144427465602
30
0
41
1
10
28.8343049253425
20
-7.11523721622754
30
0
41
1
10
28.6528634839862
20
-7.24309610942319
30
0
41
1
10
28.4717505314985
20
-7.3668479163363
30
0
0
SPLINE
5
E2
100
AcDbEntity
8
1
62
256
6
ByLayer
370
18
48
1
60
0
100
AcDbSpline
70
4
71
3
72
8
73
4
40
0
40
0
40
0
40
0
40
1
40
1
40
1
40
1
41
1
10
31.0555048122841
20
-5.73144803966395
30
0
41
1
10
30.9246078203591
20
-5.71809591936463
30
0
41
1
10
30.7935940705635
20
-5.70328044066954
30
0
41
1
10
30.6624927017027
20
-5.68701163277004
30
0
0
SPLINE
5
E3
100
AcDbEntity
8
1
62
256
6
ByLayer
370
18
48
1
60
0
100
AcDbSpline
70
4
71
3
72
12
73
8
40
0
40
0
40
0
40
0
40
0.249999999999995
40
0.249999999999995
40
0.499999999999989
40
0.499999999999989
40
1
40
1
40
1
40
1
41
1
10
65.0511688338109
20
1.35201123345311
30
0
41
1
10
65.2080500320988
20
1.34841887539824
30
0
41
1
10
65.3648875726484
20
1.34509574335465
30
0
41
1
10
65.6782668269934
20
1.34027376656528
30
0
41
1
10
65.8348486676549
20
1.33852746978408
30
0
41
1
10
66.3046251731952
20
1.33309751184478
30
0
41
1
10
66.6177873884714
20
1.32961395901592
30
0
41
1
10
66.9306237603165
20
1.32813979858918
30
0
0
SPLINE
5
E4
100
AcDbEntity
8
1
62
256
6
ByLayer
370
18
48
1
60
0
100
AcDbSpline
70
4
71
3
72
8
73
4
40
0
40
0
40
0
40
0
40
1
40
1
40
1
40
1
41
1
10
64.9574295281392
20
5.76925745271558
30
0
41
1
10
64.8125915263315
20
5.77288606188722
30
0
41
1
10
64.667764375904
20
5.77464469191611
30
0
41
1
10
64.5229166357375
20
5.77453501210874
30
0
0
SPLINE
5
E5
100
AcDbEntity
8
1
62
256
6
ByLayer
370
18
48
1
60
0
100
AcDbSpline
70
4
71
3
72
16
73
12
40
0
40
0
40
0
40
0
40
0.0466093862630282
40
0.0466093862630282
40
0.237287509010422
40
0.237287509010422
40
0.427965631757817
40
0.427965631757817
40
0.618643754505212
40
0.618643754505212
40
1
40
1
40
1
40
1
41
1
10
36.6071282478487
20
-5.47845020414263
30
0
41
1
10
36.5202313374403
20
-5.49398214929613
30
0
41
1
10
36.4333658951062
20
-5.50887043053885
30
0
41
1
10
35.9914114204135
20
-5.58133774239494
30
0
41
1
10
35.6366531645813
20
-5.6287603116279
30
0
41
1
10
34.9269383250297
20
-5.70166188343967
30
0
41
1
10
34.571969922205
20
-5.72713390348255
30
0
41
1
10
33.8607280473277
20
-5.75575656242478
30
0
41
1
10
33.5048722545496
20
-5.75886076389838
30
0
41
1
10
32.4397155196639
20
-5.73462019239582
30
0
41
1
10
31.7310676869889
20
-5.67382749821169
30
0
41
1
10
31.019701511776
20
-5.56923884347455
30
0
0
SPLINE
5
E6
100
AcDbEntity
8
1
62
256
6
ByLayer
370
18
48
1
60
0
100
AcDbSpline
70
4
71
3
72
80
73
76
40
0
40
0
40
0
40
0
40
0.0624999999999959
40
0.0624999999999959
40
0.0937499999999938
40
0.0937499999999938
40
0.124999999999992
40
0.124999999999992
40
0.187499999999988
40
0.187499999999988
40
0.249999999999984
40
0.249999999999984
40
0.312499999999979
40
0.312499999999979
40
0.374999999999975
40
0.374999999999975
40
0.406249999999973
40
0.406249999999973
40
0.437499999999971
40
0.437499999999971
40
0.468749999999969
40
0.468749999999969
40
0.484374999999968
40
0.484374999999968
40
0.499999999999968
40
0.499999999999968
40
0.515624999999967
40
0.515624999999967
40
0.523437499999966
40
0.523437499999966
40
0.531249999999966
40
0.531249999999966
40
0.546874999999965
40
0.546874999999965
40
0.554687499999965
40
0.554687499999965
40
0.562499999999964
40
0.562499999999964
40
0.578124999999964
40
0.578124999999964
40
0.585937499999963
40
0.585937499999963
40
0.593749999999963
40
0.593749999999963
40
0.624999999999962
40
0.624999999999962
40
0.65624999999996
40
0.65624999999996
40
0.687499999999959
40
0.687499999999959
40
0.691406249999959
40
0.691406249999959
40
0.693359374999959
40
0.693359374999959
40
0.695312499999959
40
0.695312499999959
40
0.697265624999959
40
0.697265624999959
40
0.699218749999959
40
0.699218749999959
40
0.703124999999959
40
0.703124999999959
40
0.718749999999961
40
0.718749999999961
40
0.749999999999965
40
0.749999999999965
40
0.812499999999974
40
0.812499999999974
40
0.874999999999982
40
0.874999999999982
40
0.906249999999987
40
0.906249999999987
40
0.937499999999991
40
0.937499999999991
40
1
40
1
40
1
40
1
41
1
10
14.593542843591
20
-7.75129528462725
30
0
41
1
10
14.0734887715714
20
-7.70974194734751
30
0
41
1
10
13.5641109612759
20
-7.63740196451397
30
0
41
1
10
12.8063788677892
20
-7.47976126110876
30
0
41
1
10
12.5548550489957
20
-7.41907281104764
30
0
41
1
10
12.0525095798806
20
-7.2812992180186
30
0
41
1
10
11.8014377732804
20
-7.20410206554553
30
0
41
1
10
11.0537955158369
20
-6.95034621770284
30
0
41
1
10
10.5605949500945
20
-6.75122753167162
30
0
41
1
10
9.57749324076127
20
-6.29757670701886
30
0
41
1
10
9.08758662969657
20
-6.0431688164231
30
0
41
1
10
8.108549456601
20
-5.47952675179815
30
0
41
1
10
7.61932884624059
20
-5.17045506651186
30
0
41
1
10
6.6444034191741
20
-4.48962624935808
30
0
41
1
10
6.16593734234476
20
-4.12328073286284
30
0
41
1
10
5.47102969497831
20
-3.52233528507048
30
0
41
1
10
5.242984658099
20
-3.31304233166335
30
0
41
1
10
4.79909298638376
20
-2.87361521633221
30
0
41
1
10
4.58492400869761
20
-2.6452163183402
30
0
41
1
10
4.17782040754281
20
-2.16592728465304
30
0
41
1
10
3.98478010054231
20
-1.91513899883503
30
0
41
1
10
3.71876444899374
20
-1.51510438576082
30
0
41
1
10
3.63380286163471
20
-1.37727701819483
30
0
41
1
10
3.47516976499554
20
-1.09371859626586
30
0
41
1
10
3.40198307342342
20
-0.948922334011087
30
0
41
1
10
3.27032195287643
20
-0.652149476663624
30
0
41
1
10
3.21183907053995
20
-0.500177248353936
30
0
41
1
10
3.13788338799026
20
-0.265557323257724
30
0
41
1
10
3.11552588170019
20
-0.186090079586307
30
0
41
1
10
3.07656474512555
20
-0.0272404342631773
30
0
41
1
10
3.05985913444363
20
0.0524261668767281
30
0
41
1
10
3.01857550498775
20
0.292202089401002
30
0
41
1
10
3.00277819303295
20
0.453082269734466
30
0
41
1
10
2.99910744075132
20
0.696188057680757
30
0
41
1
10
3.00122737992558
20
0.777521470848569
30
0
41
1
10
3.01264386270194
20
0.94083266802258
30
0
41
1
10
3.02195453763312
20
1.02236729921481
30
0
41
1
10
3.0601196600314
20
1.26224968975936
30
0
41
1
10
3.09929167591557
20
1.41761319347683
30
0
41
1
10
3.17760834539087
20
1.6442731818297
30
0
41
1
10
3.20698354528676
20
1.71875931836467
30
0
41
1
10
3.272134935395
20
1.86565968099541
30
0
41
1
10
3.30792481733454
20
1.93800899775778
30
0
41
1
10
3.49861860187085
20
2.28819353406769
30
0
41
1
10
3.69051311914367
20
2.53779326912689
30
0
41
1
10
4.13223931057695
20
2.99352626507598
30
0
41
1
10
4.37478410167358
20
3.1922888123168
30
0
41
1
10
4.88827255196941
20
3.55013137478727
30
0
41
1
10
5.16012985147074
20
3.70934262306307
30
0
41
1
10
5.47796853442787
20
3.87127754487477
30
0
41
1
10
5.51342623874717
20
3.88901516441004
30
0
41
1
10
5.5668198346213
20
3.9152527548772
30
0
41
1
10
5.58481777055076
20
3.92416021358503
30
0
41
1
10
5.62309230695229
20
3.93542263558314
30
0
41
1
10
5.64307059933915
20
3.93845854889835
30
0
41
1
10
5.68384946084936
20
3.94073481357088
30
0
41
1
10
5.70406025576676
20
3.93934228172807
30
0
41
1
10
5.7445093764378
20
3.93694682464289
30
0
41
1
10
5.76474388957121
20
3.93588995259569
30
0
41
1
10
5.82542493850079
20
3.93240012540429
30
0
41
1
10
5.86587068458922
20
3.92995542635901
30
0
41
1
10
6.06805801607987
20
3.9171405501732
30
0
41
1
10
6.2296235372765
20
3.90499963718443
30
0
41
1
10
6.7135137087505
20
3.86290691742437
30
0
41
1
10
7.03542198412705
20
3.82724166771013
30
0
41
1
10
7.99635579118683
20
3.69743465025252
30
0
41
1
10
8.62735865153883
20
3.58100007220122
30
0
41
1
10
9.87113849555845
20
3.28746685868543
30
0
41
1
10
10.4839337268293
20
3.11041106525167
30
0
41
1
10
11.3904932803989
20
2.79844842135969
30
0
41
1
10
11.6905949285201
20
2.68678686751878
30
0
41
1
10
12.2868732783518
20
2.44810676139397
30
0
41
1
10
12.582529105018
20
2.32128132969626
30
0
41
1
10
13.4590951694379
20
1.9208515557828
30
0
41
1
10
14.0310788838046
20
1.62660742603407
30
0
41
1
10
14.5935428435907
20
1.30874607556419
30
0
0
SPLINE
5
E7
100
AcDbEntity
8
1
62
256
6
ByLayer
370
18
48
1
60
0
100
AcDbSpline
70
4
71
3
72
8
73
4
40
0
40
0
40
0
40
0
40
1
40
1
40
1
40
1
41
1
10
66.9306237603274
20
1.32813979858852
30
0
41
1
10
66.9578253909404
20
0.926669493652867
30
0
41
1
10
66.9774056355539
20
0.525652791914467
30
0
41
1
10
66.9893597193717
20
0.125089977555547
30
0
0
SPLINE
5
E8
100
AcDbEntity
8
1
62
256
6
ByLayer
370
18
48
1
60
0
100
AcDbSpline
70
4
71
3
72
44
73
40
40
0
40
0
40
0
40
0
40
0.0624999999999992
40
0.0624999999999992
40
0.124999999999998
40
0.124999999999998
40
0.249999999999997
40
0.249999999999997
40
0.312499999999999
40
0.312499999999999
40
0.343750000000003
40
0.343750000000003
40
0.375000000000007
40
0.375000000000007
40
0.40625000000001
40
0.40625000000001
40
0.421875000000012
40
0.421875000000012
40
0.437500000000014
40
0.437500000000014
40
0.468750000000018
40
0.468750000000018
40
0.48437500000002
40
0.48437500000002
40
0.500000000000022
40
0.500000000000022
40
0.531250000000021
40
0.531250000000021
40
0.562500000000019
40
0.562500000000019
40
0.625000000000016
40
0.625000000000016
40
0.687500000000014
40
0.687500000000014
40
0.750000000000011
40
0.750000000000011
40
0.875000000000006
40
0.875000000000006
40
1
40
1
40
1
40
1
41
1
10
65.6097311535466
20
-2.38345901444893
30
0
41
1
10
65.5268439286634
20
-2.35922479831805
30
0
41
1
10
65.4440415497735
20
-2.33111293159524
30
0
41
1
10
65.2786067480105
20
-2.26712183022039
30
0
41
1
10
65.1956656889459
20
-2.23108455343643
30
0
41
1
10
64.9501652236597
20
-2.11167900257891
30
0
41
1
10
64.7903985490352
20
-2.01789989980287
30
0
41
1
10
64.5597504292273
20
-1.84451443706479
30
0
41
1
10
64.4848752839413
20
-1.78148411472969
30
0
41
1
10
64.3789391155843
20
-1.67597380085866
30
0
41
1
10
64.3447628747221
20
-1.6389838678939
30
0
41
1
10
64.280456653168
20
-1.56111002182007
30
0
41
1
10
64.2501678560857
20
-1.52015700223251
30
0
41
1
10
64.1954481528808
20
-1.43191615267094
30
0
41
1
10
64.1713251329846
20
-1.38512564372138
30
0
41
1
10
64.1448968264259
20
-1.31092728793007
30
0
41
1
10
64.1379334527671
20
-1.28605510272891
30
0
41
1
10
64.1285081893334
20
-1.23597081599715
30
0
41
1
10
64.1260685651558
20
-1.21035678965967
30
0
41
1
10
64.1273145342357
20
-1.13640839939177
30
0
41
1
10
64.1399564484216
20
-1.09055870284635
30
0
41
1
10
64.1720231777102
20
-1.03388019731489
30
0
41
1
10
64.1847857442934
20
-1.01685476040268
30
0
41
1
10
64.2126950866005
20
-0.986697401648229
30
0
41
1
10
64.2279610154008
20
-0.973368523988
30
0
41
1
10
64.2768438623224
20
-0.937498735787187
30
0
41
1
10
64.3124808158167
20
-0.91969237562472
30
0
41
1
10
64.3865914551703
20
-0.891720180055529
30
0
41
1
10
64.4254944124932
20
-0.881522606877923
30
0
41
1
10
64.5439050887721
20
-0.859319396525933
30
0
41
1
10
64.6248004248947
20
-0.855306919123251
30
0
41
1
10
64.7888164500188
20
-0.859564427957167
30
0
41
1
10
64.8723758409605
20
-0.868167763868655
30
0
41
1
10
65.0389080740251
20
-0.894443765494486
30
0
41
1
10
65.1219117709123
20
-0.912105426222723
30
0
41
1
10
65.3702902456163
20
-0.97599561121163
30
0
41
1
10
65.535049271132
20
-1.03283863806195
30
0
41
1
10
65.8630390291264
20
-1.17286981522585
30
0
41
1
10
66.0266856530263
20
-1.25620694266868
30
0
41
1
10
66.1852613597606
20
-1.35580372468294
30
0
0
SPLINE
5
E9
100
AcDbEntity
8
1
62
256
6
ByLayer
370
18
48
1
60
0
100
AcDbSpline
70
4
71
3
72
40
73
36
40
0
40
0
40
0
40
0
40
0.124999999999999
40
0.124999999999999
40
0.187499999999999
40
0.187499999999999
40
0.249999999999999
40
0.249999999999999
40
0.312499999999999
40
0.312499999999999
40
0.343749999999999
40
0.343749999999999
40
0.374999999999999
40
0.374999999999999
40
0.437499999999999
40
0.437499999999999
40
0.499999999999999
40
0.499999999999999
40
0.5625
40
0.5625
40
0.59375
40
0.59375
40
0.625
40
0.625
40
0.75
40
0.75
40
0.8125
40
0.8125
40
0.875
40
0.875
40
0.9375
40
0.9375
40
0.96875
40
0.96875
40
1
40
1
40
1
40
1
41
1
10
28.4717505314983
20
-7.36684791633672
30
0
41
1
10
28.429563953741
20
-7.19617454195088
30
0
41
1
10
28.3878842551063
20
-6.97767846470973
30
0
41
1
10
28.3244225176906
20
-6.57716975276753
30
0
41
1
10
28.3030375146814
20
-6.43086770274536
30
0
41
1
10
28.2607704398696
20
-6.12006860783879
30
0
41
1
10
28.2397680462789
20
-5.95493515365857
30
0
41
1
10
28.197876109283
20
-5.60556326097571
30
0
41
1
10
28.1771460153674
20
-5.42131518703846
30
0
41
1
10
28.1457730104548
20
-5.13046558389649
30
0
41
1
10
28.1351928114219
20
-5.03110308922192
30
0
41
1
10
28.1137646642478
20
-4.82747189584094
30
0
41
1
10
28.1029198207592
20
-4.72290582912677
30
0
41
1
10
28.0705306568909
20
-4.40481349376554
30
0
41
1
10
28.0490691460595
20
-4.18647121544782
30
0
41
1
10
28.0074401336392
20
-3.73751382448023
30
0
41
1
10
27.9870369599233
20
-3.50691258461868
30
0
41
1
10
27.9453522514279
20
-3.03357856967844
30
0
41
1
10
27.9239877175945
20
-2.79085452482565
30
0
41
1
10
27.8918155587544
20
-2.41734808551641
30
0
41
1
10
27.8811104472848
20
-2.29130584145523
30
0
41
1
10
27.8599617975637
20
-2.03893676455638
30
0
41
1
10
27.8494778331398
20
-1.91225468660738
30
0
41
1
10
27.7971839978294
20
-1.27642207083414
30
0
41
1
10
27.7550650728869
20
-0.760132023134361
30
0
41
1
10
27.6918353310562
20
0.0258811010002944
30
0
41
1
10
27.6706311589959
20
0.291047626952434
30
0
41
1
10
27.6284731929675
20
0.814215078706724
30
0
41
1
10
27.6075263341217
20
1.07327914688534
30
0
41
1
10
27.5653595556732
20
1.58643108878687
30
0
41
1
10
27.5444284885368
20
1.84054194424274
30
0
41
1
10
27.5131830639343
20
2.21796970801927
30
0
41
1
10
27.5026495788425
20
2.34314351295384
30
0
41
1
10
27.4814275310793
20
2.59220683026939
30
0
41
1
10
27.4707277069701
20
2.71640036023695
30
0
41
1
10
27.4600704847542
20
2.83916587273362
30
0
0
SPLINE
5
EA
100
AcDbEntity
8
1
62
256
6
ByLayer
370
18
48
1
60
0
100
AcDbSpline
70
4
71
3
72
8
73
4
40
0
40
0
40
0
40
0
40
1
40
1
40
1
40
1
41
1
10
30.617832228685
20
-5.48603407344177
30
0
41
1
10
30.751877011414
20
-5.51523896870694
30
0
41
1
10
30.8858239070279
20
-5.5429840077027
30
0
41
1
10
31.0197015117759
20
-5.56923884347373
30
0
0
SPLINE
5
EB
100
AcDbEntity
8
1
62
256
6
ByLayer
370
18
48
1
60
0
100
AcDbSpline
70
4
71
3
72
26
73
22
40
0
40
0
40
0
40
0
40
0.125000000000001
40
0.125000000000001
40
0.187500000000001
40
0.187500000000001
40
0.250000000000001
40
0.250000000000001
40
0.312500000000001
40
0.312500000000001
40
0.375000000000001
40
0.375000000000001
40
0.500000000000002
40
0.500000000000002
40
0.5625
40
0.5625
40
0.624999999999999
40
0.624999999999999
40
0.749999999999999
40
0.749999999999999
40
1
40
1
40
1
40
1
41
1
10
59.620111747791
20
1.1259376263759
30
0
41
1
10
59.6750827275808
20
0.801466720481272
30
0
41
1
10
59.7683759289294
20
0.481751967546756
30
0
41
1
10
59.958018432087
20
0.0083484170924351
30
0
41
1
10
60.0285962637045
20
-0.145874305918966
30
0
41
1
10
60.1813966761649
20
-0.445847620077302
30
0
41
1
10
60.2637943692571
20
-0.592013133281199
30
0
41
1
10
60.4391586964282
20
-0.877610431871176
30
0
41
1
10
60.5324865030132
20
-1.0175257673923
30
0
41
1
10
60.7270023794611
20
-1.28892837271047
30
0
41
1
10
60.8277095631146
20
-1.41983788458134
30
0
41
1
10
61.1387077465078
20
-1.80023474754466
30
0
41
1
10
61.3577134262338
20
-2.03761541497724
30
0
41
1
10
61.701025647413
20
-2.37312068882054
30
0
41
1
10
61.8179493087576
20
-2.4815018042614
30
0
41
1
10
62.0562706372575
20
-2.69204861781009
30
0
41
1
10
62.1778368060782
20
-2.79434069843683
30
0
41
1
10
62.5446538911024
20
-3.08944582271454
30
0
41
1
10
62.7933073216534
20
-3.27172561135683
30
0
41
1
10
63.5495687544952
20
-3.78231922214684
30
0
41
1
10
64.0672995941624
20
-4.07501467171875
30
0
41
1
10
64.5961681140823
20
-4.3285209068317
30
0
0
SPLINE
5
EC
100
AcDbEntity
8
1
62
256
6
ByLayer
370
18
48
1
60
0
100
AcDbSpline
70
4
71
3
72
8
73
4
40
0
40
0
40
0
40
0
40
1
40
1
40
1
40
1
41
1
10
66.9999621180592
20
0.0481990131109455
30
0
41
1
10
67.0000126296729
20
0.0160648367426575
30
0
41
1
10
67.0000126242666
20
-0.0160682761276973
30
0
41
1
10
66.9999621180592
20
-0.0481990131072223
30
0
0
SPLINE
5
ED
100
AcDbEntity
8
1
62
256
6
ByLayer
370
18
48
1
60
0
100
AcDbSpline
70
4
71
3
72
25
73
21
40
0
40
0
40
0
40
0
40
0.0189353654624717
40
0.0755382107080241
40
0.188750610090524
40
0.266610649732292
40
0.330378597770141
40
0.387134336549481
40
0.415543228759771
40
0.500883065878521
40
0.529348878907856
40
0.586285176232666
40
0.621862890503874
40
0.70007874404861
40
0.742696221133158
40
0.827793174523092
40
0.926682782293966
40
0.968834168158761
40
0.982843590628412
40
1
40
1
40
1
40
1
41
1
10
29.7280601113015
20
0.546695223219842
30
0
41
1
10
29.7339649923875
20
0.491509216346941
30
0
41
1
10
29.7575227567473
20
0.271006731221092
30
0
41
1
10
29.8164058023239
20
-0.282545763315653
30
0
41
1
10
29.8936585093468
20
-1.00750035023847
30
0
41
1
10
29.9731349538485
20
-1.73275883487014
30
0
41
1
10
30.0349339108934
20
-2.2774912933379
30
0
41
1
10
30.0812676538066
20
-2.66983702794246
30
0
41
1
10
30.1342531662657
20
-3.10316677314896
30
0
41
1
10
30.1783735626743
20
-3.44550513908592
30
0
41
1
10
30.2313254253277
20
-3.82938601808803
30
0
41
1
10
30.2688385161076
20
-4.08621296163977
30
0
41
1
10
30.3217922665791
20
-4.42330094453132
30
0
41
1
10
30.3703356977497
20
-4.7023488585402
30
0
41
1
10
30.4343209080646
20
-5.0239118566719
30
0
41
1
10
30.5048337558371
20
-5.3217029656474
30
0
41
1
10
30.575431142715
20
-5.53339262478983
30
0
41
1
10
30.6241336880488
20
-5.63033852547062
30
0
41
1
10
30.6472338737555
20
-5.66695857882129
30
0
41
1
10
30.6570712981153
20
-5.68032467815809
30
0
41
1
10
30.6624927017027
20
-5.68701163277004
30
0
0
SPLINE
5
EE
100
AcDbEntity
8
1
62
256
6
ByLayer
370
18
48
1
60
0
100
AcDbSpline
70
4
71
3
72
22
73
18
40
0
40
0
40
0
40
0
40
0.0558089199595251
40
0.0558089199595251
40
0.127273585997132
40
0.127273585997132
40
0.413132250147552
40
0.413132250147552
40
0.698990914297972
40
0.698990914297972
40
0.84192024637318
40
0.84192024637318
40
0.913384912410784
40
0.913384912410784
40
0.984849578448387
40
0.984849578448387
40
1
40
1
40
1
40
1
41
1
10
49.0438388347487
20
-0.010805618777681
30
0
41
1
10
49.1848916049298
20
-0.0905189711442347
30
0
41
1
10
49.3259489655584
20
-0.170240099971409
30
0
41
1
10
49.6467675007424
20
-0.351370502328763
30
0
41
1
10
49.8265421698043
20
-0.452723476432965
30
0
41
1
10
50.72385046861
20
-0.957256557953428
30
0
41
1
10
51.4365629984125
20
-1.35399504248292
30
0
41
1
10
52.8603559349734
20
-2.11892897409587
30
0
41
1
10
53.5713330563243
20
-2.48732593055289
30
0
41
1
10
54.6421962427151
20
-3.00914279809649
30
0
41
1
10
54.9998963882053
20
-3.17791843523744
30
0
41
1
10
55.5383868489503
20
-3.42195673855937
30
0
41
1
10
55.7182105370377
20
-3.50178015003192
30
0
41
1
10
56.0786126661236
20
-3.65820481471451
30
0
41
1
10
56.2594712313282
20
-3.73493120583342
30
0
41
1
10
56.4781797140054
20
-3.82541448701693
30
0
41
1
10
56.5164174051816
20
-3.84114779888267
30
0
41
1
10
56.5546376253819
20
-3.85678688996475
30
0
0
SPLINE
5
EF
100
AcDbEntity
8
1
62
256
6
ByLayer
370
13
48
1
60
0
100
AcDbSpline
70
4
71
3
72
14
73
10
40
0
40
0
40
0
40
0
40
0.493286079398044
40
0.493286079398044
40
0.746643039699022
40
0.746643039699022
40
0.873321519849511
40
0.873321519849511
40
1
40
1
40
1
40
1
41
1
10
56.5546376253036
20
-3.85678688993269
30
0
41
1
10
57.958698209368
20
-4.43130559348893
30
0
41
1
10
59.3391810364142
20
-4.87866970830359
30
0
41
1
10
61.4376149200411
20
-5.32585184331012
30
0
41
1
10
62.1513385242488
20
-5.43747657620108
30
0
41
1
10
63.2303498288045
20
-5.54008455379014
30
0
41
1
10
63.5921085390776
20
-5.56346282780916
30
0
41
1
10
64.3142517170185
20
-5.58759588272645
30
0
41
1
10
64.6750299752153
20
-5.58842643920266
30
0
41
1
10
65.035983651238
20
-5.57799597329193
30
0
0
SPLINE
5
F0
100
AcDbEntity
8
1
62
256
6
ByLayer
370
18
48
1
60
0
100
AcDbSpline
70
4
71
3
72
12
73
8
40
0
40
0
40
0
40
0
40
0.500000000000004
40
0.500000000000004
40
0.750000000000002
40
0.750000000000002
40
1
40
1
40
1
40
1
41
1
10
30.6624927017027
20
5.68701163277001
30
0
41
1
10
30.2936140212722
20
5.99997686371003
30
0
41
1
10
29.9273248641053
20
6.29664176585462
30
0
41
1
10
29.3802518667213
20
6.71562011006662
30
0
41
1
10
29.1979933300006
20
6.85144427369502
30
0
41
1
10
28.8343049237708
20
7.11523721736586
30
0
41
1
10
28.6528634824584
20
7.24309611046706
30
0
41
1
10
28.4717505314985
20
7.36684791633627
30
0
0
SPLINE
5
F1
100
AcDbEntity
8
1
62
256
6
ByLayer
370
18
48
1
60
0
100
AcDbSpline
70
4
71
3
72
8
73
4
40
0
40
0
40
0
40
0
40
1
40
1
40
1
40
1
41
1
10
66.9893597193717
20
0.125089977555575
30
0
41
1
10
66.9900136563278
20
0.103177564061553
30
0
41
1
10
66.9940468380768
20
0.0763935993907978
30
0
41
1
10
66.9999621180551
20
0.0481990131269185
30
0
0
SPLINE
5
F2
100
AcDbEntity
8
1
62
256
6
ByLayer
370
18
48
1
60
0
100
AcDbSpline
70
4
71
3
72
18
73
14
40
0
40
0
40
0
40
0
40
0.26902931261408
40
0.26902931261408
40
0.403543968921121
40
0.403543968921121
40
0.538058625228161
40
0.538058625228161
40
0.807087937842242
40
0.807087937842242
40
0.941602594149283
40
0.941602594149283
40
1
40
1
40
1
40
1
41
1
10
64.5961681140823
20
-4.3285209068317
30
0
41
1
10
64.5957636032546
20
-4.52525381678791
30
0
41
1
10
64.6044846549618
20
-4.69798453416243
30
0
41
1
10
64.6316856348766
20
-4.92167281468414
30
0
41
1
10
64.643123672182
20
-4.99030101921997
30
0
41
1
10
64.6710403376331
20
-5.11537688053971
30
0
41
1
10
64.6873913759888
20
-5.17115474550965
30
0
41
1
10
64.7432795636871
20
-5.31758358491788
30
0
41
1
10
64.7897361845711
20
-5.38812166092603
30
0
41
1
10
64.8742794372743
20
-5.45418540709125
30
0
41
1
10
64.9050560323493
20
-5.46956621684731
30
0
41
1
10
64.9526482120164
20
-5.4817946156756
30
0
41
1
10
64.9674897995059
20
-5.48420954394879
30
0
41
1
10
64.9827725774353
20
-5.48534827930206
30
0
0
SPLINE
5
F3
100
AcDbEntity
8
1
62
256
6
ByLayer
370
18
48
1
60
0
100
AcDbSpline
70
4
71
3
72
34
73
30
40
0
40
0
40
0
40
0
40
0.0565406242045356
40
0.0565406242045356
40
0.123930579618498
40
0.123930579618498
40
0.191320535032459
40
0.191320535032459
40
0.258710490446421
40
0.258710490446421
40
0.326100445860383
40
0.326100445860383
40
0.393490401274345
40
0.393490401274345
40
0.460880356688307
40
0.460880356688307
40
0.528270312102269
40
0.528270312102269
40
0.595660267516231
40
0.595660267516231
40
0.663050222930193
40
0.663050222930193
40
0.730440178344155
40
0.730440178344155
40
0.797830133758117
40
0.797830133758117
40
0.865220089172078
40
0.865220089172078
40
1
40
1
40
1
40
1
41
1
10
46.1730725468051
20
5.47404457626933
30
0
41
1
10
46.4267674026667
20
5.47410535541681
30
0
41
1
10
46.6807269348864
20
5.46830724957903
30
0
41
1
10
47.236685933666
20
5.44411946331869
30
0
41
1
10
47.5386490493351
20
5.42378903186051
30
0
41
1
10
48.1419561126182
20
5.3683715719564
30
0
41
1
10
48.4431637750603
20
5.33245354922957
30
0
41
1
10
49.0472460314804
20
5.24536156039827
30
0
41
1
10
49.3497440436385
20
5.19421543953806
30
0
41
1
10
49.9552800505585
20
5.0785162816004
30
0
41
1
10
50.2572827274831
20
5.01349693160069
30
0
41
1
10
50.8606457957652
20
4.86851330342424
30
0
41
1
10
51.1626761952981
20
4.78945590319728
30
0
41
1
10
51.7663959917336
20
4.61967661713149
30
0
41
1
10
52.0680971490198
20
4.52877849446773
30
0
41
1
10
52.6717853377434
20
4.3313017038335
30
0
41
1
10
52.9744534171751
20
4.22566702051734
30
0
41
1
10
53.5797139547569
20
4.00375861951977
30
0
41
1
10
53.8818759777641
20
3.88714274094426
30
0
41
1
10
54.4854337985428
20
3.64332060319183
30
0
41
1
10
54.7866771883607
20
3.51585953721351
30
0
41
1
10
55.3905032195704
20
3.25354432423495
30
0
41
1
10
55.6927002092692
20
3.11809940965071
30
0
41
1
10
56.297495654203
20
2.83685917743199
30
0
41
1
10
56.6002332563652
20
2.69095364994641
30
0
41
1
10
57.2041609928985
20
2.39264874580576
30
0
41
1
10
57.5063397129967
20
2.24111733884513
30
0
41
1
10
58.4121131676243
20
1.77703526096224
30
0
41
1
10
59.0144858998752
20
1.45405569501799
30
0
41
1
10
59.620111747791
20
1.12593762637587
30
0
0
SPLINE
5
F4
100
AcDbEntity
8
1
62
256
6
ByLayer
370
18
48
1
60
0
100
AcDbSpline
70
4
71
3
72
36
73
32
40
0
40
0
40
0
40
0
40
0.125
40
0.125
40
0.25
40
0.25
40
0.312499999999997
40
0.312499999999997
40
0.374999999999995
40
0.374999999999995
40
0.499999999999991
40
0.499999999999991
40
0.562499999999991
40
0.562499999999991
40
0.624999999999991
40
0.624999999999991
40
0.749999999999995
40
0.749999999999995
40
0.874999999999999
40
0.874999999999999
40
0.882812499999999
40
0.882812499999999
40
0.890624999999999
40
0.890624999999999
40
0.898437499999999
40
0.898437499999999
40
0.90625
40
0.90625
40
0.9375
40
0.9375
40
1
40
1
40
1
40
1
41
1
10
59.620111747791
20
1.1259376263759
30
0
41
1
10
59.8672814080167
20
0.953929929048712
30
0
41
1
10
60.1185567788307
20
0.795260529648232
30
0
41
1
10
60.6295801711538
20
0.505446987868112
30
0
41
1
10
60.8892782761089
20
0.374140680656808
30
0
41
1
10
61.2862824840455
20
0.201407077735723
30
0
41
1
10
61.4203946871762
20
0.148053671809379
30
0
41
1
10
61.6881425156113
20
0.0515123132938413
30
0
41
1
10
61.8219831739602
20
0.0081607386935332
30
0
41
1
10
62.2234028342808
20
-0.106759909152942
30
0
41
1
10
62.4908807608099
20
-0.163378217329012
30
0
41
1
10
62.8918549439661
20
-0.212405268841849
30
0
41
1
10
63.025957103105
20
-0.222753279818477
30
0
41
1
10
63.2917587135572
20
-0.229190395982073
30
0
41
1
10
63.4227453004517
20
-0.225151377058865
30
0
41
1
10
63.8093766447578
20
-0.189040730622196
30
0
41
1
10
64.0592294464423
20
-0.135009453048497
30
0
41
1
10
64.5397241505
20
0.0458894023207392
30
0
41
1
10
64.7655036880029
20
0.172055796789493
30
0
41
1
10
64.981600536096
20
0.344786135452125
30
0
41
1
10
64.9942231997959
20
0.355085166901574
30
0
41
1
10
65.0192902362666
20
0.375960792090495
30
0
41
1
10
65.0323852744173
20
0.385781298675624
30
0
41
1
10
65.0518978896839
20
0.413194928530004
30
0
41
1
10
65.0579596667025
20
0.431425301156452
30
0
41
1
10
65.060105368042
20
0.470962886716563
30
0
41
1
10
65.0557665671127
20
0.491501638943731
30
0
41
1
10
65.0409375656756
20
0.593378274923282
30
0
41
1
10
65.0285119029975
20
0.674897283852602
30
0
41
1
10
64.9897226253757
20
0.91944547869025
30
0
41
1
10
64.9618570348451
20
1.08244754351429
30
0
41
1
10
64.9323324313958
20
1.24542474465801
30
0
0
SPLINE
5
F5
100
AcDbEntity
8
1
62
256
6
ByLayer
370
18
48
1
60
0
100
AcDbSpline
70
4
71
3
72
80
73
76
40
0
40
0
40
0
40
0
40
0.0167754536355966
40
0.0167754536355966
40
0.0335509072711931
40
0.0335509072711931
40
0.0671018145423862
40
0.0671018145423862
40
0.0838772681779823
40
0.0838772681779823
40
0.100652721813578
40
0.100652721813578
40
0.134203629084771
40
0.134203629084771
40
0.167754536355964
40
0.167754536355964
40
0.201305443627158
40
0.201305443627158
40
0.234856350898351
40
0.234856350898351
40
0.268407258169544
40
0.268407258169544
40
0.301958165440737
40
0.301958165440737
40
0.33550907271193
40
0.33550907271193
40
0.369059979983123
40
0.369059979983123
40
0.402610887254316
40
0.402610887254316
40
0.436161794525509
40
0.436161794525509
40
0.469712701796702
40
0.469712701796702
40
0.503263609067896
40
0.503263609067896
40
0.536814516339089
40
0.536814516339089
40
0.570365423610282
40
0.570365423610282
40
0.603916330881475
40
0.603916330881475
40
0.637467238152668
40
0.637467238152668
40
0.671018145423861
40
0.671018145423861
40
0.687793599059458
40
0.687793599059458
40
0.704569052695055
40
0.704569052695055
40
0.738119959966249
40
0.738119959966249
40
0.754895413601847
40
0.754895413601847
40
0.771670867237444
40
0.771670867237444
40
0.805221774508639
40
0.805221774508639
40
0.821997228144237
40
0.821997228144237
40
0.838772681779834
40
0.838772681779834
40
0.872323589051029
40
0.872323589051029
40
0.889099042686627
40
0.889099042686627
40
0.905874496322224
40
0.905874496322224
40
0.93942540359342
40
0.93942540359342
40
0.956200857229018
40
0.956200857229018
40
0.972976310864616
40
0.972976310864616
40
1
40
1
40
1
40
1
41
1
10
31.0555048122713
20
5.73144803966329
30
0
41
1
10
31.2341728693052
20
5.74066537567859
30
0
41
1
10
31.4125566452666
20
5.74710657083318
30
0
41
1
10
31.7685164156589
20
5.75433704700222
30
0
41
1
10
31.9464539412689
20
5.75509112441358
30
0
41
1
10
32.4811867233395
20
5.74889930516656
30
0
41
1
10
32.8385076452269
20
5.73359798223612
30
0
41
1
10
33.3746473833922
20
5.69380562048156
30
0
41
1
10
33.5532276253677
20
5.67770741208668
30
0
41
1
10
33.9093556352126
20
5.63973116004141
30
0
41
1
10
34.0873778858174
20
5.6179576893814
30
0
41
1
10
34.6221780387028
20
5.54474870951219
30
0
41
1
10
34.979345399429
20
5.48538642719268
30
0
41
1
10
35.6934928922769
20
5.34494166483702
30
0
41
1
10
36.0496725384331
20
5.26295786527382
30
0
41
1
10
36.763044950817
20
5.08050289466289
30
0
41
1
10
37.1201728634994
20
4.97985265275975
30
0
41
1
10
37.8338513306463
20
4.7586231850477
30
0
41
1
10
38.1897989272655
20
4.63678066532589
30
0
41
1
10
38.9037179698844
20
4.37791221345429
30
0
41
1
10
39.2609208642982
20
4.24064899194767
30
0
41
1
10
39.9743436512184
20
3.94892721744407
30
0
41
1
10
40.3296055999751
20
3.79313069142842
30
0
41
1
10
41.0438644416599
20
3.46996357476044
30
0
41
1
10
41.4014378565644
20
3.30236526049797
30
0
41
1
10
42.1148428791806
20
2.9537123914412
30
0
41
1
10
42.4699378173143
20
2.7711167118996
30
0
41
1
10
43.1835746257639
20
2.39925920874097
30
0
41
1
10
43.5416803582394
20
2.20903422840422
30
0
41
1
10
44.2548194221283
20
1.81985505935361
30
0
41
1
10
44.6094321454722
20
1.61918926939856
30
0
41
1
10
45.3214222993373
20
1.21669458064395
30
0
41
1
10
45.6781252606165
20
1.01380512913121
30
0
41
1
10
46.3914243406368
20
0.602147885400228
30
0
41
1
10
46.7475692069897
20
0.391713597822843
30
0
41
1
10
47.4606413329978
20
-0.0240552444220725
30
0
41
1
10
47.8173105926539
20
-0.23086767090112
30
0
41
1
10
48.5293638514755
20
-0.645028081213809
30
0
41
1
10
48.8839790612519
20
-0.853675231069843
30
0
41
1
10
49.5970533477421
20
-1.26271005302041
30
0
41
1
10
49.9552041653738
20
-1.46462613442881
30
0
41
1
10
50.6683269487386
20
-1.86319507146163
30
0
41
1
10
51.0229561904602
20
-2.06114467247042
30
0
41
1
10
51.7349674000053
20
-2.4437126746125
30
0
41
1
10
52.0915816433372
20
-2.62964591518281
30
0
41
1
10
52.6262053103542
20
-2.90235187240412
30
0
41
1
10
52.8041209768917
20
-2.99257357055942
30
0
41
1
10
53.160432958117
20
-3.17001549238159
30
0
41
1
10
53.3388008821198
20
-3.25686570406242
30
0
41
1
10
53.8737445005712
20
-3.51144315764319
30
0
41
1
10
54.2304202172787
20
-3.67355199492843
30
0
41
1
10
54.7642647568892
20
-3.90699939327027
30
0
41
1
10
54.9417657513042
20
-3.98349538556189
30
0
41
1
10
55.2970500501469
20
-4.1323037065396
30
0
41
1
10
55.4749762568663
20
-4.20445333436655
30
0
41
1
10
56.0096328783836
20
-4.41420453348726
30
0
41
1
10
56.3676814556394
20
-4.54543199126897
30
0
41
1
10
56.9024609750083
20
-4.72940747279083
30
0
41
1
10
57.0801194540661
20
-4.78884050247478
30
0
41
1
10
57.435523969102
20
-4.90260537735628
30
0
41
1
10
57.6133735444643
20
-4.95685828162479
30
0
41
1
10
58.1473719981799
20
-5.11188076021736
30
0
41
1
10
58.5038966740137
20
-5.20504528801317
30
0
41
1
10
59.0381739580973
20
-5.3303974166376
30
0
41
1
10
59.2159229436124
20
-5.36992465429097
30
0
41
1
10
59.5721098886345
20
-5.44347492155282
30
0
41
1
10
59.7506051998152
20
-5.47746590430233
30
0
41
1
10
60.2856974085882
20
-5.57096887647711
30
0
41
1
10
60.6423840216526
20
-5.62223705807486
30
0
41
1
10
61.1760192054483
20
-5.68310088876967
30
0
41
1
10
61.3534073474995
20
-5.70075966662003
30
0
41
1
10
61.7086608066608
20
-5.73032488927589
30
0
41
1
10
61.8865647772842
20
-5.74224472468939
30
0
41
1
10
62.3517449635587
20
-5.7660208662432
30
0
41
1
10
62.6398007671513
20
-5.77343521888017
30
0
41
1
10
62.9272310900251
20
-5.77353973173163
30
0
0
SPLINE
5
F6
100
AcDbEntity
8
1
62
256
6
ByLayer
370
18
48
1
60
0
100
AcDbSpline
70
4
71
3
72
12
73
8
40
0
40
0
40
0
40
0
40
0.25
40
0.25
40
0.5
40
0.5
40
1
40
1
40
1
40
1
41
1
10
29.7280601113017
20
0.546695223219473
30
0
41
1
10
29.5261482280381
20
0.689653953539477
30
0
41
1
10
29.3282837683486
20
0.84722002449044
30
0
41
1
10
28.9378225865549
20
1.18836017403726
30
0
41
1
10
28.7446331848295
20
1.37244339473511
30
0
41
1
10
28.1780664712727
20
1.9528424578601
30
0
41
1
10
27.8151911984837
20
2.37869737694325
30
0
41
1
10
27.4600704847542
20
2.83916587273362
30
0
0
SPLINE
5
F7
100
AcDbEntity
8
1
62
256
6
ByLayer
370
18
48
1
60
0
100
AcDbSpline
70
4
71
3
72
8
73
4
40
0
40
0
40
0
40
0
40
1
40
1
40
1
40
1
41
1
10
66.9893597193718
20
-0.125089977555376
30
0
41
1
10
66.9900136563281
20
-0.103177564056409
30
0
41
1
10
66.9940468380786
20
-0.0763935993786333
30
0
41
1
10
66.9999621180592
20
-0.0481990131076486
30
0
0
SPLINE
5
F8
100
AcDbEntity
8
1
62
256
6
ByLayer
370
18
48
1
60
0
100
AcDbSpline
70
4
71
3
72
10
73
6
40
0
40
0
40
0
40
0
40
0.5
40
0.5
40
1
40
1
40
1
40
1
41
1
10
65.2675052364121
20
5.61282826212513
30
0
41
1
10
65.5440179674084
20
4.89845571942078
30
0
41
1
10
65.8225022995462
20
4.18496896966457
30
0
41
1
10
66.3779810076858
20
2.75723506515561
30
0
41
1
10
66.6551713820671
20
2.04308432748502
30
0
41
1
10
66.9306237603259
20
1.3281397985929
30
0
0
SPLINE
5
F9
100
AcDbEntity
8
1
62
256
6
ByLayer
370
18
48
1
60
0
100
AcDbSpline
70
4
71
3
72
10
73
6
40
0
40
0
40
0
40
0
40
0.5
40
0.5
40
1
40
1
40
1
40
1
41
1
10
65.2675052364097
20
-5.61282826213139
30
0
41
1
10
65.5440184842133
20
-4.89845438425186
30
0
41
1
10
65.8224903326419
20
-4.18499966306129
30
0
41
1
10
66.377963116088
20
-2.7572811163634
30
0
41
1
10
66.655169048258
20
-2.04309038495336
30
0
41
1
10
66.9306237603274
20
-1.32813979858912
30
0
0
SPLINE
5
FA
100
AcDbEntity
8
1
62
256
6
ByLayer
370
18
48
1
60
0
100
AcDbSpline
70
4
71
3
72
8
73
4
40
0
40
0
40
0
40
0
40
1
40
1
40
1
40
1
41
1
10
66.9306237603274
20
-1.32813979858912
30
0
41
1
10
66.9578208318074
20
-0.926736782138676
30
0
41
1
10
66.9774036308977
20
-0.525719964836725
30
0
41
1
10
66.9893597193717
20
-0.12508997755549
30
0
0
SPLINE
5
FB
100
AcDbEntity
8
1
62
256
6
ByLayer
370
18
48
1
60
0
100
AcDbSpline
70
4
71
3
72
10
73
6
40
0
40
0
40
0
40
0
40
0.5
40
0.5
40
1
40
1
40
1
40
1
41
1
10
31.0197015117922
20
-5.56923884347444
30
0
41
1
10
31.0254321541875
20
-5.60945972870846
30
0
41
1
10
31.0321757266387
20
-5.64299890834988
30
0
41
1
10
31.043914302432
20
-5.69702287464537
30
0
41
1
10
31.0500067881155
20
-5.71750016570809
30
0
41
1
10
31.0555048122841
20
-5.73144803966397
30
0
0
SPLINE
5
FC
100
AcDbEntity
8
1
62
256
6
ByLayer
370
18
48
1
60
0
100
AcDbSpline
70
4
71
3
72
14
73
10
40
0
40
0
40
0
40
0
40
0.25
40
0.25
40
0.5
40
0.5
40
0.75
40
0.75
40
1
40
1
40
1
40
1
41
1
10
64.9323324313959
20
1.24542474465804
30
0
41
1
10
64.9295770367277
20
1.26063465295883
30
0
41
1
10
64.9300309554694
20
1.27650906658127
30
0
41
1
10
64.9400617576106
20
1.30563547497115
30
0
41
1
10
64.9499418045367
20
1.31875442778767
30
0
41
1
10
64.9748850270324
20
1.3376670157775
30
0
41
1
10
64.9896587484938
20
1.34379232053701
30
0
41
1
10
65.0198724016294
20
1.35108735663758
30
0
41
1
10
65.0355767571627
20
1.3523682700087
30
0
41
1
10
65.0511688338105
20
1.35201123345644
30
0
0
SPLINE
5
FD
100
AcDbEntity
8
1
62
256
6
ByLayer
370
18
48
1
60
0
100
AcDbSpline
70
4
71
2
72
6
73
3
40
0
40
0
40
0
40
1
40
1
40
1
41
1
10
64.7129268613573
20
-5.48590953434029
30
0
41
1
10
64.8500437993866
20
-5.48629899261886
30
0
41
1
10
64.9858392775801
20
-5.4853336034852
30
0
0
SPLINE
5
FE
100
AcDbEntity
8
1
62
256
6
ByLayer
370
18
48
1
60
0
100
AcDbSpline
70
4
71
3
72
30
73
26
40
0
40
0
40
0
40
0
40
0.0733020890332254
40
0.130980559957468
40
0.170294542307532
40
0.198698939575947
40
0.239029100671416
40
0.277352957770778
40
0.305211983232502
40
0.336204459368555
40
0.37743893097468
40
0.424395960765286
40
0.474037087240475
40
0.510825654827535
40
0.543108698375625
40
0.589104532701732
40
0.638014059838305
40
0.678971695463993
40
0.721122460281602
40
0.763457679677894
40
0.80319658079026
40
0.836401085789191
40
0.874257906906181
40
0.930974657145013
40
1
40
1
40
1
40
1
41
1
10
33.6656230394507
20
-5.46654821403854
30
0
41
1
10
33.9704207147241
20
-5.46636702397595
30
0
41
1
10
34.5149048131636
20
-5.46625093233931
30
0
41
1
10
35.2187164345127
20
-5.46793206253375
30
0
41
1
10
35.7414394184972
20
-5.46776187614816
30
0
41
1
10
36.1912957757863
20
-5.46830930092747
30
0
41
1
10
36.6377684150962
20
-5.46861947726671
30
0
41
1
10
37.0817570805573
20
-5.46880914374876
30
0
41
1
10
37.4867997811054
20
-5.46883327745647
30
0
41
1
10
37.9040298895267
20
-5.4690307615424
30
0
41
1
10
38.4008659686955
20
-5.46976089382366
30
0
41
1
10
38.9754499224227
20
-5.47001573897271
30
0
41
1
10
39.5314866719852
20
-5.4696579772195
30
0
41
1
10
40.0263677221447
20
-5.47040216710178
30
0
41
1
10
40.5060226188504
20
-5.47108606824506
30
0
41
1
10
41.036144516139
20
-5.47105128535515
30
0
41
1
10
41.6025350631667
20
-5.47041148964757
30
0
41
1
10
42.1528234560343
20
-5.47182034940536
30
0
41
1
10
42.6756407878184
20
-5.47205437569684
30
0
41
1
10
43.1935173930366
20
-5.47185245465545
30
0
41
1
10
43.6740886230228
20
-5.47232637070596
30
0
41
1
10
44.1358873180422
20
-5.47330671896796
30
0
41
1
10
44.6685467624109
20
-5.47328461232252
30
0
41
1
10
45.3505263422867
20
-5.47262867216793
30
0
41
1
10
45.8746723942537
20
-5.47339478407491
30
0
41
1
10
46.1623939286677
20
-5.47401905272272
30
0
0
SPLINE
5
FF
100
AcDbEntity
8
1
62
256
6
ByLayer
370
18
48
1
60
0
100
AcDbSpline
70
4
71
3
72
25
73
21
40
0
40
0
40
0
40
0
40
0.0805700581699702
40
0.15383215692459
40
0.214941282010955
40
0.267200481777224
40
0.313579953544416
40
0.368528054293916
40
0.425804616492332
40
0.481796207601721
40
0.533246398458962
40
0.573832277955785
40
0.612527840374886
40
0.677032347254766
40
0.739196402603787
40
0.793308760220673
40
0.860907276770153
40
0.929468419748984
40
0.975762270833066
40
1
40
1
40
1
40
1
41
1
10
46.173766563051
20
5.47397009132811
30
0
41
1
10
45.9179506340529
20
5.47305581754819
30
0
41
1
10
45.429127283161
20
5.47193824057337
30
0
41
1
10
44.7378997314752
20
5.47257714736256
30
0
41
1
10
44.1483334194837
20
5.47356660816089
30
0
41
1
10
43.6364980246863
20
5.47211006779403
30
0
41
1
10
43.1456640367549
20
5.47188762449491
30
0
41
1
10
42.6380847675628
20
5.47207501239407
30
0
41
1
10
42.0998038938346
20
5.47170356491282
30
0
41
1
10
41.5726991088246
20
5.4704992058272
30
0
41
1
10
41.0990089019306
20
5.47100435335733
30
0
41
1
10
40.6806640204327
20
5.471060977641
30
0
41
1
10
40.2205508396401
20
5.47083506492078
30
0
41
1
10
39.6913810275994
20
5.46965323748182
30
0
41
1
10
39.1128803031384
20
5.46997382519123
30
0
41
1
10
38.5244764930654
20
5.46987401692991
30
0
41
1
10
37.9156207650196
20
5.46899175534355
30
0
41
1
10
37.3317489964231
20
5.46883872006191
30
0
41
1
10
36.8866810973947
20
5.46874633049077
30
0
41
1
10
36.6609755452643
20
5.46862541127732
30
0
41
1
10
36.5834141667187
20
5.46857605784336
30
0
0
LINE
5
7D
100
AcDbEntity
8
SK1
62
256
6
ByLayer
370
18
48
1
60
0
100
AcDbLine
10
-45.55
20
8
30
0
11
-45.55
21
-8
31
0
39
0
210
0
220
0
230
1
0
LINE
5
7F
100
AcDbEntity
8
SK1
62
256
6
ByLayer
370
18
48
1
60
0
100
AcDbLine
10
-46.4
20
6.007564
30
0
11
-46.4
21
6.927674
31
0
39
0
210
0
220
0
230
1
0
LINE
5
80
100
AcDbEntity
8
SK1
62
256
6
ByLayer
370
18
48
1
60
0
100
AcDbLine
10
-48
20
4.455793
30
0
11
-48
21
-5.55
31
0
39
0
210
0
220
0
230
1
0
LINE
5
81
100
AcDbEntity
8
SK1
62
256
6
ByLayer
370
18
48
1
60
0
100
AcDbLine
10
0
20
-8
30
0
11
0
21
8
31
0
39
0
210
0
220
0
230
1
0
LINE
5
82
100
AcDbEntity
8
SK1
62
256
6
ByLayer
370
18
48
1
60
0
100
AcDbLine
10
-48
20
5.455913
30
0
11
-48
21
4.45576
31
0
39
0
210
0
220
0
230
1
0
LINE
5
83
100
AcDbEntity
8
SK1
62
256
6
ByLayer
370
13
48
1
60
0
100
AcDbLine
10
-46.5
20
6.858971
30
0
11
-46.5
21
5.858834
31
0
39
0
210
0
220
0
230
1
0
LINE
5
84
100
AcDbEntity
8
SK1
62
256
6
ByLayer
370
18
48
1
60
0
100
AcDbLine
10
-48
20
5.55
30
0
11
-48
21
5.455913
31
0
39
0
210
0
220
0
230
1
0
LINE
5
85
100
AcDbEntity
8
1
62
256
6
ByLayer
370
13
48
1
60
0
100
AcDbLine
10
64.932332
20
1.245425
30
0
11
66.964404
21
-0.040925
31
0
39
0
210
0
220
0
230
1
0
LINE
5
86
100
AcDbEntity
8
1
62
256
6
ByLayer
370
13
48
1
60
0
100
AcDbLine
10
65.051169
20
1.352011
30
0
11
66.98936
21
0.12509
31
0
39
0
210
0
220
0
230
1
0
LINE
5
87
100
AcDbEntity
8
1
62
256
6
ByLayer
370
13
48
1
60
0
100
AcDbLine
10
0.783566
20
7.795
30
0
11
0.783566
21
-7.795
31
0
39
0
210
0
220
0
230
1
0
LINE
5
88
100
AcDbEntity
8
1
62
256
6
ByLayer
370
13
48
1
60
0
100
AcDbLine
10
0.391783
20
7.8975
30
0
11
0.391783
21
-7.8975
31
0
39
0
210
0
220
0
230
1
0
LINE
5
89
100
AcDbEntity
8
1
62
256
6
ByLayer
370
18
48
1
60
0
100
AcDbLine
10
0
20
-8
30
0
11
0
21
8
31
0
39
0
210
0
220
0
230
1
0
LINE
5
8A
100
AcDbEntity
8
80
62
256
6
ByLayer
370
18
48
1
60
0
100
AcDbLine
10
0
20
0
30
0
11
-5
21
0
31
0
39
0
210
0
220
0
230
1
0
LINE
5
8B
100
AcDbEntity
8
SK4
62
256
6
ByLayer
370
18
48
0.05
60
0
100
AcDbLine
10
72
20
0
30
0
11
-53
21
0
31
0
39
0
210
0
220
0
230
1
0
LINE
5
8D
100
AcDbEntity
8
4
62
256
6
ByLayer
370
18
48
0.05
60
0
100
AcDbLine
10
67
20
0
30
0
11
0
21
0
31
0
39
0
210
0
220
0
230
1
0
LINE
5
8F
100
AcDbEntity
8
SK1
62
256
6
ByLayer
370
18
48
1
60
0
100
AcDbLine
10
-48
20
-5.55
30
0
11
-45.55
21
-8
31
0
39
0
210
0
220
0
230
1
0
LINE
5
90
100
AcDbEntity
8
SK1
62
256
6
ByLayer
370
18
48
1
60
0
100
AcDbLine
10
-45.55
20
8
30
0
11
-48
21
5.55
31
0
39
0
210
0
220
0
230
1
0
LINE
5
91
100
AcDbEntity
8
SK1
62
256
6
ByLayer
370
18
48
1
60
0
100
AcDbLine
10
-45.55
20
-8
30
0
11
0
21
-8
31
0
39
0
210
0
220
0
230
1
0
LINE
5
92
100
AcDbEntity
8
SK1
62
256
6
ByLayer
370
18
48
1
60
0
100
AcDbLine
10
0
20
8
30
0
11
-45.55
21
8
31
0
39
0
210
0
220
0
230
1
0
LINE
5
93
100
AcDbEntity
8
1
62
256
6
ByLayer
370
18
48
1
60
0
100
AcDbLine
10
31.919258
20
-5.754157
30
0
11
33.524493
21
-5.75516
31
0
39
0
210
0
220
0
230
1
0
LINE
5
94
100
AcDbEntity
8
1
62
256
6
ByLayer
370
18
48
1
60
0
100
AcDbLine
10
64.525079
20
5.774536
30
0
11
62.922358
21
5.773534
31
0
39
0
210
0
220
0
230
1
0
LINE
5
95
100
AcDbEntity
8
1
62
256
6
ByLayer
370
18
48
1
60
0
100
AcDbLine
10
62.922358
20
-5.773534
30
0
11
64.525079
21
-5.774536
31
0
39
0
210
0
220
0
230
1
0
LINE
5
96
100
AcDbEntity
8
1
62
256
6
ByLayer
370
18
48
1
60
0
100
AcDbLine
10
33.524493
20
5.75516
30
0
11
31.919258
21
5.754157
31
0
39
0
210
0
220
0
230
1
0
LINE
5
97
100
AcDbEntity
8
1
62
256
6
ByLayer
370
18
48
1
60
0
100
AcDbLine
10
15.638686
20
7.795
30
0
11
0.783566
21
7.795
31
0
39
0
210
0
220
0
230
1
0
LINE
5
98
100
AcDbEntity
8
1
62
256
6
ByLayer
370
18
48
1
60
0
100
AcDbLine
10
0.783566
20
-7.795
30
0
11
15.638686
21
-7.795
31
0
39
0
210
0
220
0
230
1
0
LINE
5
99
100
AcDbEntity
8
81
62
256
6
ByLayer
370
18
48
1
60
0
100
AcDbLine
10
67
20
0
30
0
11
72
21
0
31
0
39
0
210
0
220
0
230
1
0
LINE
5
9A
100
AcDbEntity
8
2
62
256
6
ByLayer
370
13
48
1
60
0
100
AcDbLine
10
89.236431
20
-7.795
30
0
11
89.236431
21
35.470947
31
0
39
0
210
0
220
0
230
1
0
LINE
5
9C
100
AcDbEntity
8
2
62
256
6
ByLayer
370
13
48
1
60
0
100
AcDbLine
10
30.1999
20
7.795
30
0
11
91.236431
21
7.795
31
0
39
0
210
0
220
0
230
1
0
LINE
5
9D
100
AcDbEntity
8
2
62
256
6
ByLayer
370
13
48
1
60
0
100
AcDbLine
10
30.1999
20
-7.795
30
0
11
91.236431
21
-7.795
31
0
39
0
210
0
220
0
230
1
0
LINE
5
9E
100
AcDbEntity
8
1
62
256
6
ByLayer
370
18
48
1
60
1
100
AcDbLine
10
89.236431
20
7.795
30
0
11
89.697214
21
4.295002
31
0
39
0
210
0
220
0
230
1
0
LINE
5
9F
100
AcDbEntity
8
1
62
256
6
ByLayer
370
18
48
1
60
1
100
AcDbLine
10
89.697214
20
4.295002
30
0
11
88.775647
21
4.294998
31
0
39
0
210
0
220
0
230
1
0
LINE
5
A0
100
AcDbEntity
8
1
62
256
6
ByLayer
370
18
48
1
60
1
100
AcDbLine
10
88.775647
20
4.294998
30
0
11
89.236431
21
7.795
31
0
39
0
210
0
220
0
230
1
0
LINE
5
A1
100
AcDbEntity
8
1
62
256
6
ByLayer
370
18
48
1
60
1
100
AcDbLine
10
89.236431
20
-7.795
30
0
11
88.775647
21
-4.295002
31
0
39
0
210
0
220
0
230
1
0
LINE
5
A2
100
AcDbEntity
8
1
62
256
6
ByLayer
370
18
48
1
60
1
100
AcDbLine
10
88.775647
20
-4.295002
30
0
11
89.697214
21
-4.294998
31
0
39
0
210
0
220
0
230
1
0
LINE
5
A3
100
AcDbEntity
8
1
62
256
6
ByLayer
370
18
48
1
60
1
100
AcDbLine
10
89.697214
20
-4.294998
30
0
11
89.236431
21
-7.795
31
0
39
0
210
0
220
0
230
1
0
LINE
5
A4
100
AcDbEntity
8
SK2
62
256
6
ByLayer
370
13
48
1
60
0
100
AcDbLine
10
-56.625163
20
-8
30
0
11
-56.625163
21
38.857173
31
0
39
0
210
0
220
0
230
1
0
LINE
5
A6
100
AcDbEntity
8
SK2
62
256
6
ByLayer
370
13
48
1
60
0
100
AcDbLine
10
-49.5875
20
8
30
0
11
-58.625163
21
8
31
0
39
0
210
0
220
0
230
1
0
LINE
5
A7
100
AcDbEntity
8
SK2
62
256
6
ByLayer
370
13
48
1
60
0
100
AcDbLine
10
-49.5875
20
-8
30
0
11
-58.625163
21
-8
31
0
39
0
210
0
220
0
230
1
0
LINE
5
A8
100
AcDbEntity
8
1
62
256
6
ByLayer
370
18
48
1
60
1
100
AcDbLine
10
-56.625163
20
8
30
0
11
-56.164379
21
4.500002
31
0
39
0
210
0
220
0
230
1
0
LINE
5
A9
100
AcDbEntity
8
1
62
256
6
ByLayer
370
18
48
1
60
1
100
AcDbLine
10
-56.164379
20
4.500002
30
0
11
-57.085946
21
4.499998
31
0
39
0
210
0
220
0
230
1
0
LINE
5
AA
100
AcDbEntity
8
1
62
256
6
ByLayer
370
18
48
1
60
1
100
AcDbLine
10
-57.085946
20
4.499998
30
0
11
-56.625163
21
8
31
0
39
0
210
0
220
0
230
1
0
LINE
5
AB
100
AcDbEntity
8
1
62
256
6
ByLayer
370
18
48
1
60
1
100
AcDbLine
10
-56.625163
20
-8
30
0
11
-57.085946
21
-4.500002
31
0
39
0
210
0
220
0
230
1
0
LINE
5
AC
100
AcDbEntity
8
1
62
256
6
ByLayer
370
18
48
1
60
1
100
AcDbLine
10
-57.085946
20
-4.500002
30
0
11
-56.164379
21
-4.499998
31
0
39
0
210
0
220
0
230
1
0
LINE
5
AD
100
AcDbEntity
8
1
62
256
6
ByLayer
370
18
48
1
60
1
100
AcDbLine
10
-56.164379
20
-4.499998
30
0
11
-56.625163
21
-8
31
0
39
0
210
0
220
0
230
1
0
LINE
5
AE
100
AcDbEntity
8
2
62
256
6
ByLayer
370
13
48
1
60
0
100
AcDbLine
10
80.970081
20
-5.775
30
0
11
80.970081
21
35.105029
31
0
39
0
210
0
220
0
230
1
0
LINE
5
AF
100
AcDbEntity
8
2
62
256
6
ByLayer
370
13
48
1
60
0
100
AcDbLine
10
66.8699
20
5.775
30
0
11
82.970081
21
5.775
31
0
39
0
210
0
220
0
230
1
0
LINE
5
B0
100
AcDbEntity
8
2
62
256
6
ByLayer
370
13
48
1
60
0
100
AcDbLine
10
66.8699
20
-5.775
30
0
11
82.970081
21
-5.775
31
0
39
0
210
0
220
0
230
1
0
LINE
5
B1
100
AcDbEntity
8
1
62
256
6
ByLayer
370
18
48
1
60
1
100
AcDbLine
10
80.970081
20
5.775
30
0
11
81.430865
21
2.275002
31
0
39
0
210
0
220
0
230
1
0
LINE
5
B2
100
AcDbEntity
8
1
62
256
6
ByLayer
370
18
48
1
60
1
100
AcDbLine
10
81.430865
20
2.275002
30
0
11
80.509297
21
2.274998
31
0
39
0
210
0
220
0
230
1
0
LINE
5
B3
100
AcDbEntity
8
1
62
256
6
ByLayer
370
18
48
1
60
1
100
AcDbLine
10
80.509297
20
2.274998
30
0
11
80.970081
21
5.775
31
0
39
0
210
0
220
0
230
1
0
LINE
5
B4
100
AcDbEntity
8
1
62
256
6
ByLayer
370
18
48
1
60
1
100
AcDbLine
10
80.970081
20
-5.775
30
0
11
80.509297
21
-2.275002
31
0
39
0
210
0
220
0
230
1
0
LINE
5
B5
100
AcDbEntity
8
1
62
256
6
ByLayer
370
18
48
1
60
1
100
AcDbLine
10
80.509297
20
-2.275002
30
0
11
81.430865
21
-2.274998
31
0
39
0
210
0
220
0
230
1
0
LINE
5
B6
100
AcDbEntity
8
1
62
256
6
ByLayer
370
18
48
1
60
1
100
AcDbLine
10
81.430865
20
-2.274998
30
0
11
80.970081
21
-5.775
31
0
39
0
210
0
220
0
230
1
0
LINE
5
B7
100
AcDbEntity
8
SK2
62
256
6
ByLayer
370
13
48
1
60
0
100
AcDbLine
10
27.489868
20
-8.917532
30
0
11
20.080279
21
-16.327121
31
0
39
0
210
0
220
0
230
1
0
LINE
5
B8
100
AcDbEntity
8
SK2
62
256
6
ByLayer
370
13
48
1
60
0
100
AcDbLine
10
27.489868
20
8.917532
30
0
11
20.080279
21
16.327121
31
0
39
0
210
0
220
0
230
1
0
LINE
5
B9
100
AcDbEntity
8
1
62
256
6
ByLayer
370
18
48
1
60
1
100
AcDbLine
10
21.494492
20
-14.912908
30
0
11
18.785128
21
-12.649801
31
0
39
0
210
0
220
0
230
1
0
LINE
5
BA
100
AcDbEntity
8
1
62
256
6
ByLayer
370
18
48
1
60
1
100
AcDbLine
10
18.785128
20
-12.649801
30
0
11
19.46318
21
-12.025676
31
0
39
0
210
0
220
0
230
1
0
LINE
5
BB
100
AcDbEntity
8
1
62
256
6
ByLayer
370
18
48
1
60
1
100
AcDbLine
10
19.46318
20
-12.025676
30
0
11
21.494492
21
-14.912908
31
0
39
0
210
0
220
0
230
1
0
LINE
5
BC
100
AcDbEntity
8
1
62
256
6
ByLayer
370
18
48
1
60
1
100
AcDbLine
10
21.494492
20
14.912908
30
0
11
19.463183
21
12.025679
31
0
39
0
210
0
220
0
230
1
0
LINE
5
BD
100
AcDbEntity
8
1
62
256
6
ByLayer
370
18
48
1
60
1
100
AcDbLine
10
19.463183
20
12.025679
30
0
11
18.785125
21
12.649798
31
0
39
0
210
0
220
0
230
1
0
LINE
5
BE
100
AcDbEntity
8
1
62
256
6
ByLayer
370
18
48
1
60
1
100
AcDbLine
10
18.785125
20
12.649798
30
0
11
21.494492
21
14.912908
31
0
39
0
210
0
220
0
230
1
0
LINE
5
106
100
AcDbEntity
8
1
62
256
6
ByLayer
370
18
48
1
60
1
100
AcDbLine
10
89.236431
20
7.795
30
0
11
89.697214
21
4.295002
31
0
39
0
210
0
220
0
230
1
0
LINE
5
107
100
AcDbEntity
8
1
62
256
6
ByLayer
370
18
48
1
60
1
100
AcDbLine
10
89.697214
20
4.295002
30
0
11
88.775647
21
4.294998
31
0
39
0
210
0
220
0
230
1
0
LINE
5
108
100
AcDbEntity
8
1
62
256
6
ByLayer
370
18
48
1
60
1
100
AcDbLine
10
88.775647
20
4.294998
30
0
11
89.236431
21
7.795
31
0
39
0
210
0
220
0
230
1
0
LINE
5
10A
100
AcDbEntity
8
1
62
256
6
ByLayer
370
18
48
1
60
1
100
AcDbLine
10
89.236431
20
-7.795
30
0
11
88.775647
21
-4.295002
31
0
39
0
210
0
220
0
230
1
0
LINE
5
10B
100
AcDbEntity
8
1
62
256
6
ByLayer
370
18
48
1
60
1
100
AcDbLine
10
88.775647
20
-4.295002
30
0
11
89.697214
21
-4.294998
31
0
39
0
210
0
220
0
230
1
0
LINE
5
10C
100
AcDbEntity
8
1
62
256
6
ByLayer
370
18
48
1
60
1
100
AcDbLine
10
89.697214
20
-4.294998
30
0
11
89.236431
21
-7.795
31
0
39
0
210
0
220
0
230
1
0
LINE
5
110
100
AcDbEntity
8
1
62
256
6
ByLayer
370
18
48
1
60
1
100
AcDbLine
10
-56.625163
20
8
30
0
11
-56.164379
21
4.500002
31
0
39
0
210
0
220
0
230
1
0
LINE
5
111
100
AcDbEntity
8
1
62
256
6
ByLayer
370
18
48
1
60
1
100
AcDbLine
10
-56.164379
20
4.500002
30
0
11
-57.085946
21
4.499998
31
0
39
0
210
0
220
0
230
1
0
LINE
5
112
100
AcDbEntity
8
1
62
256
6
ByLayer
370
18
48
1
60
1
100
AcDbLine
10
-57.085946
20
4.499998
30
0
11
-56.625163
21
8
31
0
39
0
210
0
220
0
230
1
0
LINE
5
114
100
AcDbEntity
8
1
62
256
6
ByLayer
370
18
48
1
60
1
100
AcDbLine
10
-56.625163
20
-8
30
0
11
-57.085946
21
-4.500002
31
0
39
0
210
0
220
0
230
1
0
LINE
5
115
100
AcDbEntity
8
1
62
256
6
ByLayer
370
18
48
1
60
1
100
AcDbLine
10
-57.085946
20
-4.500002
30
0
11
-56.164379
21
-4.499998
31
0
39
0
210
0
220
0
230
1
0
LINE
5
116
100
AcDbEntity
8
1
62
256
6
ByLayer
370
18
48
1
60
1
100
AcDbLine
10
-56.164379
20
-4.499998
30
0
11
-56.625163
21
-8
31
0
39
0
210
0
220
0
230
1
0
LINE
5
11A
100
AcDbEntity
8
1
62
256
6
ByLayer
370
18
48
1
60
1
100
AcDbLine
10
80.970081
20
5.775
30
0
11
81.430865
21
2.275002
31
0
39
0
210
0
220
0
230
1
0
LINE
5
11B
100
AcDbEntity
8
1
62
256
6
ByLayer
370
18
48
1
60
1
100
AcDbLine
10
81.430865
20
2.275002
30
0
11
80.509297
21
2.274998
31
0
39
0
210
0
220
0
230
1
0
LINE
5
11C
100
AcDbEntity
8
1
62
256
6
ByLayer
370
18
48
1
60
1
100
AcDbLine
10
80.509297
20
2.274998
30
0
11
80.970081
21
5.775
31
0
39
0
210
0
220
0
230
1
0
LINE
5
11E
100
AcDbEntity
8
1
62
256
6
ByLayer
370
18
48
1
60
1
100
AcDbLine
10
80.970081
20
-5.775
30
0
11
80.509297
21
-2.275002
31
0
39
0
210
0
220
0
230
1
0
LINE
5
11F
100
AcDbEntity
8
1
62
256
6
ByLayer
370
18
48
1
60
1
100
AcDbLine
10
80.509297
20
-2.275002
30
0
11
81.430865
21
-2.274998
31
0
39
0
210
0
220
0
230
1
0
LINE
5
120
100
AcDbEntity
8
1
62
256
6
ByLayer
370
18
48
1
60
1
100
AcDbLine
10
81.430865
20
-2.274998
30
0
11
80.970081
21
-5.775
31
0
39
0
210
0
220
0
230
1
0
LINE
5
123
100
AcDbEntity
8
1
62
256
6
ByLayer
370
18
48
1
60
1
100
AcDbLine
10
21.494492
20
-14.912908
30
0
11
18.785128
21
-12.649801
31
0
39
0
210
0
220
0
230
1
0
LINE
5
124
100
AcDbEntity
8
1
62
256
6
ByLayer
370
18
48
1
60
1
100
AcDbLine
10
18.785128
20
-12.649801
30
0
11
19.46318
21
-12.025676
31
0
39
0
210
0
220
0
230
1
0
LINE
5
125
100
AcDbEntity
8
1
62
256
6
ByLayer
370
18
48
1
60
1
100
AcDbLine
10
19.46318
20
-12.025676
30
0
11
21.494492
21
-14.912908
31
0
39
0
210
0
220
0
230
1
0
LINE
5
127
100
AcDbEntity
8
1
62
256
6
ByLayer
370
18
48
1
60
1
100
AcDbLine
10
21.494492
20
14.912908
30
0
11
19.463183
21
12.025679
31
0
39
0
210
0
220
0
230
1
0
LINE
5
128
100
AcDbEntity
8
1
62
256
6
ByLayer
370
18
48
1
60
1
100
AcDbLine
10
19.463183
20
12.025679
30
0
11
18.785125
21
12.649798
31
0
39
0
210
0
220
0
230
1
0
LINE
5
129
100
AcDbEntity
8
1
62
256
6
ByLayer
370
18
48
1
60
1
100
AcDbLine
10
18.785125
20
12.649798
30
0
11
21.494492
21
14.912908
31
0
39
0
210
0
220
0
230
1
0
MTEXT
5
100
100
AcDbEntity
8
SK6
62
256
6
ByLayer
370
13
48
1
60
0
100
AcDbMText
10
-19.20776
20
38.315328
30
0
210
0
220
0
230
1
1
\W0.7563;462.2-1155-037A1-XM X2BM
40
3.5
41
0
44
1.084337
50
0
71
7
72
5
7
iso_b_vert
0
MTEXT
5
104
100
AcDbEntity
8
2
62
256
6
ByLayer
370
18
48
1
60
0
100
AcDbMText
10
87.671797
20
18.022798
30
0
210
0
220
0
230
1
1
%%c
40
3.5
41
0
44
1.084337
50
90
71
7
72
5
7
iso_b_vert
0
MTEXT
5
105
100
AcDbEntity
8
2
62
256
6
ByLayer
370
18
48
1
60
0
100
AcDbMText
10
87.671797
20
23.245454
30
0
210
0
220
0
230
1
1
\W0.6930;15,590
40
3.5
41
0
44
1.084337
50
90
71
7
72
5
7
iso_b_vert
0
MTEXT
5
10E
100
AcDbEntity
8
SK2
62
256
6
ByLayer
370
18
48
1
60
0
100
AcDbMText
10
-58.189796
20
21.409024
30
0
210
0
220
0
230
1
1
%%c
40
3.5
41
0
44
1.084337
50
90
71
7
72
5
7
iso_b_vert
0
MTEXT
5
10F
100
AcDbEntity
8
SK2
62
256
6
ByLayer
370
18
48
1
60
0
100
AcDbMText
10
-58.189796
20
26.63168
30
0
210
0
220
0
230
1
1
\W0.6930;16,000
40
3.5
41
0
44
1.084337
50
90
71
7
72
5
7
iso_b_vert
0
MTEXT
5
118
100
AcDbEntity
8
2
62
256
6
ByLayer
370
18
48
1
60
0
100
AcDbMText
10
79.405448
20
18.531747
30
0
210
0
220
0
230
1
1
%%c
40
3.5
41
0
44
1.084337
50
90
71
7
72
5
7
iso_b_vert
0
MTEXT
5
119
100
AcDbEntity
8
2
62
256
6
ByLayer
370
18
48
1
60
0
100
AcDbMText
10
79.405448
20
23.754403
30
0
210
0
220
0
230
1
1
\W0.6440;11,550
40
3.5
41
0
44
1.084337
50
90
71
7
72
5
7
iso_b_vert
0
MTEXT
5
122
100
AcDbEntity
8
SK2
62
256
6
ByLayer
370
13
48
1
60
0
100
AcDbMText
10
10.489275
20
-0.291663
30
0
210
0
220
0
230
1
1
\W0.8181;90,0%%d
40
3.5
41
0
44
1.084337
50
0
71
7
72
5
7
iso_b_vert
0
HATCH
5
109
100
AcDbEntity
8
2
62
256
6
ByLayer
370
13
48
1
60
0
100
AcDbHatch
10
0
20
0
30
0
210
0
220
0
230
1
2
ANSI31
70
0
71
0
91
1
92
5
93
3
72
1
10
89.2364306046164
20
7.79500000000002
11
89.6972143461692
21
4.2950016925532
72
1
10
89.6972143461692
20
4.2950016925532
11
88.7756468630637
21
4.29499830744683
72
1
10
88.7756468630637
20
4.29499830744683
11
89.2364306046164
21
7.79500000000002
97
0
75
0
76
1
52
0
41
0.0062
77
0
78
1
53
45
43
0
44
0
45
-0.0139193969876572
46
0.0139193969876572
79
0
47
0
98
1
10
0
20
0
0
HATCH
5
10D
100
AcDbEntity
8
2
62
256
6
ByLayer
370
13
48
1
60
0
100
AcDbHatch
10
0
20
0
30
0
210
0
220
0
230
1
2
ANSI31
70
0
71
0
91
1
92
5
93
3
72
1
10
89.2364306046164
20
-7.79499999999999
11
88.7756468630637
21
-4.29500169255317
72
1
10
88.7756468630637
20
-4.29500169255317
11
89.6972143461692
21
-4.2949983074468
72
1
10
89.6972143461692
20
-4.2949983074468
11
89.2364306046164
21
-7.79499999999999
97
0
75
0
76
1
52
0
41
0.0062
77
0
78
1
53
45
43
0
44
0
45
-0.0139193969876572
46
0.0139193969876572
79
0
47
0
98
1
10
0
20
0
0
HATCH
5
113
100
AcDbEntity
8
SK2
62
256
6
ByLayer
370
13
48
1
60
0
100
AcDbHatch
10
0
20
0
30
0
210
0
220
0
230
1
2
ANSI31
70
0
71
0
91
1
92
5
93
3
72
1
10
-56.6251625675374
20
8
11
-56.1643788259847
21
4.50000169255318
72
1
10
-56.1643788259847
20
4.50000169255318
11
-57.0859463090902
21
4.49999830744682
72
1
10
-57.0859463090902
20
4.49999830744682
11
-56.6251625675374
21
8
97
0
75
0
76
1
52
0
41
0.0062
77
0
78
1
53
45
43
0
44
0
45
-0.0139193969876572
46
0.0139193969876572
79
0
47
0
98
1
10
0
20
0
0
HATCH
5
117
100
AcDbEntity
8
SK2
62
256
6
ByLayer
370
13
48
1
60
0
100
AcDbHatch
10
0
20
0
30
0
210
0
220
0
230
1
2
ANSI31
70
0
71
0
91
1
92
5
93
3
72
1
10
-56.6251625675374
20
-8
11
-57.0859463090902
21
-4.50000169255318
72
1
10
-57.0859463090902
20
-4.50000169255318
11
-56.1643788259847
21
-4.49999830744682
72
1
10
-56.1643788259847
20
-4.49999830744682
11
-56.6251625675374
21
-8
97
0
75
0
76
1
52
0
41
0.0062
77
0
78
1
53
45
43
0
44
0
45
-0.0139193969876572
46
0.0139193969876572
79
0
47
0
98
1
10
0
20
0
0
HATCH
5
11D
100
AcDbEntity
8
2
62
256
6
ByLayer
370
13
48
1
60
0
100
AcDbHatch
10
0
20
0
30
0
210
0
220
0
230
1
2
ANSI31
70
0
71
0
91
1
92
5
93
3
72
1
10
80.9700811011615
20
5.77500000000001
11
81.4308648427142
21
2.27500169255319
72
1
10
81.4308648427142
20
2.27500169255319
11
80.5092973596088
21
2.27499830744682
72
1
10
80.5092973596088
20
2.27499830744682
11
80.9700811011615
21
5.77500000000001
97
0
75
0
76
1
52
0
41
0.0062
77
0
78
1
53
45
43
0
44
0
45
-0.0139193969876572
46
0.0139193969876572
79
0
47
0
98
1
10
0
20
0
0
HATCH
5
121
100
AcDbEntity
8
2
62
256
6
ByLayer
370
13
48
1
60
0
100
AcDbHatch
10
0
20
0
30
0
210
0
220
0
230
1
2
ANSI31
70
0
71
0
91
1
92
5
93
3
72
1
10
80.9700811011615
20
-5.77500000000001
11
80.5092973596088
21
-2.27500169255319
72
1
10
80.5092973596088
20
-2.27500169255319
11
81.4308648427142
21
-2.27499830744682
72
1
10
81.4308648427142
20
-2.27499830744682
11
80.9700811011615
21
-5.77500000000001
97
0
75
0
76
1
52
0
41
0.0062
77
0
78
1
53
45
43
0
44
0
45
-0.0139193969876572
46
0.0139193969876572
79
0
47
0
98
1
10
0
20
0
0
HATCH
5
126
100
AcDbEntity
8
SK2
62
256
6
ByLayer
370
13
48
1
60
0
100
AcDbHatch
10
0
20
0
30
0
210
0
220
0
230
1
2
ANSI31
70
0
71
0
91
1
92
5
93
3
72
1
10
21.4944922570498
20
-14.9129077429502
11
18.7851277568182
21
-12.6498006280539
72
1
10
18.7851277568182
20
-12.6498006280539
11
19.4631804047245
21
-12.0256762553557
72
1
10
19.4631804047245
20
-12.0256762553557
11
21.4944922570498
21
-14.9129077429502
97
0
75
0
76
1
52
0
41
0.0062
77
0
78
1
53
45
43
0
44
0
45
-0.0139193969876572
46
0.0139193969876572
79
0
47
0
98
1
10
0
20
0
0
HATCH
5
12A
100
AcDbEntity
8
SK2
62
256
6
ByLayer
370
13
48
1
60
0
100
AcDbHatch
10
0
20
0
30
0
210
0
220
0
230
1
2
ANSI31
70
0
71
0
91
1
92
5
93
3
72
1
10
21.4944922570499
20
14.9129077429503
11
19.4631826972523
21
12.0256787459906
72
1
10
19.4631826972523
20
12.0256787459906
11
18.7851254642906
21
12.649798137419
72
1
10
18.7851254642906
20
12.649798137419
11
21.4944922570499
21
14.9129077429503
97
0
75
0
76
1
52
0
41
0.0062
77
0
78
1
53
45
43
0
44
0
45
-0.0139193969876572
46
0.0139193969876572
79
0
47
0
98
1
10
0
20
0
0
DIMENSION
5
12C
100
AcDbEntity
8
SK2
62
256
6
ByLayer
370
13
48
1
60
0
100
AcDbDimension
2
_U0
10
65.2824
20
-18.577503
30
0
11
32.6412
21
-18.577503
31
0
70
32
71
1
72
1
41
1
210
0
220
0
230
1
3
Standard
100
AcDbAlignedDimension
13
0
23
0
33
0
14
65.2824
24
-5.775
34
0
50
0
100
AcDbRotatedDimension
1001
ACAD
1000
DSTYLE
1002
{
1070
   371
1070
    13
1070
   372
1070
    13
1070
   170
1070
     0
1070
   144
1040
1.0
1070
   277
1070
     2
1070
   278
1070
    44
1070
   146
1040
1.0
1070
   345
1005
16
1070
   347
1005
16
1070
   346
1005
16
1070
   344
1005
0
1070
   343
1005
0
1070
   172
1070
     1
1070
    76
1070
     0
1070
    75
1070
     0
1070
   282
1070
     0
1070
   281
1070
     0
1070
    71
1070
     0
1070
    74
1070
     0
1070
   279
1070
     0
1070
   173
1070
     1
1070
   340
1005
101
1070
   271
1070
     2
1070
   272
1070
     2
1070
    77
1070
     1
1070
    73
1070
     1
1070
   171
1070
     3
1070
   274
1070
     4
1070
   177
1070
    35
1070
   176
1070
    35
1070
   178
1070
    35
1070
    48
1040
-0.1
1070
    41
1040
3.5
1070
   147
1040
1.75
1070
    42
1040
1.5875
1070
    44
1040
2.0
1070
   140
1040
3.5
1002
}
1001
ACAD_DSTYLE_DIM_LINETYPE
1070
   380
1005
16
1001
ACAD_DSTYLE_DIM_EXT1_LINETYPE
1070
   381
1005
16
1001
ACAD_DSTYLE_DIM_EXT2_LINETYPE
1070
   382
1005
16
0
DIMENSION
5
145
100
AcDbEntity
8
SK2
62
256
6
ByLayer
370
13
48
1
60
0
100
AcDbDimension
2
_U1
10
67
20
-39.192985
30
0
11
9.5
21
-39.192985
31
0
70
32
71
1
72
1
41
1
210
0
220
0
230
1
3
Standard
100
AcDbAlignedDimension
13
-48
23
-8
33
0
14
67
24
0
34
0
50
0
100
AcDbRotatedDimension
1001
ACAD
1000
DSTYLE
1002
{
1070
   371
1070
    13
1070
   372
1070
    13
1070
   170
1070
     0
1070
   144
1040
1.0
1070
   277
1070
     2
1070
   278
1070
    44
1070
   146
1040
1.0
1070
   345
1005
16
1070
   347
1005
16
1070
   346
1005
16
1070
   344
1005
0
1070
   343
1005
0
1070
   172
1070
     1
1070
    76
1070
     0
1070
    75
1070
     0
1070
   282
1070
     0
1070
   281
1070
     0
1070
    71
1070
     0
1070
    74
1070
     0
1070
   279
1070
     0
1070
   173
1070
     1
1070
   340
1005
101
1070
   271
1070
     2
1070
   272
1070
     2
1070
    77
1070
     1
1070
    73
1070
     1
1070
   171
1070
     3
1070
   274
1070
     4
1070
   177
1070
    35
1070
   176
1070
    35
1070
   178
1070
    35
1070
    48
1040
-0.1
1070
    41
1040
3.5
1070
   147
1040
1.75
1070
    42
1040
1.5875
1070
    44
1040
2.0
1070
   140
1040
3.5
1002
}
1001
ACAD_DSTYLE_DIM_LINETYPE
1070
   380
1005
16
1001
ACAD_DSTYLE_DIM_EXT1_LINETYPE
1070
   381
1005
16
1001
ACAD_DSTYLE_DIM_EXT2_LINETYPE
1070
   382
1005
16
0
DIMENSION
5
15D
100
AcDbEntity
8
SK2
62
256
6
ByLayer
370
13
48
1
60
0
100
AcDbDimension
2
_U2
10
67
20
17.384119
30
0
11
47.805
21
17.384119
31
0
70
32
71
1
72
1
41
1
210
0
220
0
230
1
3
Standard
100
AcDbAlignedDimension
13
28.61
23
7.795
33
0
14
67
24
0
34
0
50
0
100
AcDbRotatedDimension
1001
ACAD
1000
DSTYLE
1002
{
1070
   371
1070
    13
1070
   372
1070
    13
1070
   170
1070
     0
1070
   144
1040
1.0
1070
   277
1070
     2
1070
   278
1070
    44
1070
   146
1040
1.0
1070
   345
1005
16
1070
   347
1005
16
1070
   346
1005
16
1070
   344
1005
0
1070
   343
1005
0
1070
   172
1070
     1
1070
    76
1070
     0
1070
    75
1070
     0
1070
   282
1070
     0
1070
   281
1070
     0
1070
    71
1070
     0
1070
    74
1070
     0
1070
   279
1070
     0
1070
   173
1070
     1
1070
   340
1005
101
1070
   271
1070
     2
1070
   272
1070
     2
1070
    77
1070
     1
1070
    73
1070
     1
1070
   171
1070
     3
1070
   274
1070
     4
1070
   177
1070
    35
1070
   176
1070
    35
1070
   178
1070
    35
1070
    48
1040
-0.1
1070
    41
1040
3.5
1070
   147
1040
1.75
1070
    42
1040
1.5875
1070
    44
1040
2.0
1070
   140
1040
3.5
1002
}
1001
ACAD_DSTYLE_DIM_LINETYPE
1070
   380
1005
16
1001
ACAD_DSTYLE_DIM_EXT1_LINETYPE
1070
   381
1005
16
1001
ACAD_DSTYLE_DIM_EXT2_LINETYPE
1070
   382
1005
16
0
DIMENSION
5
175
100
AcDbEntity
8
SK2
62
256
6
ByLayer
370
13
48
1
60
0
100
AcDbDimension
2
_U3
10
65.2824
20
-18.577503
30
0
11
84.333333
21
-18.577503
31
0
70
32
71
1
72
1
41
1
210
0
220
0
230
1
3
Standard
100
AcDbAlignedDimension
13
67
23
0
33
0
14
65.2824
24
-5.775
34
0
50
0
100
AcDbRotatedDimension
1001
ACAD
1000
DSTYLE
1002
{
1070
   371
1070
    13
1070
   372
1070
    13
1070
   170
1070
     0
1070
   144
1040
1.0
1070
   277
1070
     2
1070
   278
1070
    44
1070
   146
1040
1.0
1070
   345
1005
16
1070
   347
1005
16
1070
   346
1005
16
1070
   344
1005
0
1070
   343
1005
0
1070
   172
1070
     1
1070
    76
1070
     0
1070
    75
1070
     0
1070
   282
1070
     0
1070
   281
1070
     0
1070
    71
1070
     0
1070
    74
1070
     0
1070
   279
1070
     0
1070
   173
1070
     1
1070
   340
1005
101
1070
   271
1070
     2
1070
   272
1070
     2
1070
    77
1070
     1
1070
    73
1070
     1
1070
   171
1070
     3
1070
   274
1070
     4
1070
   177
1070
    35
1070
   176
1070
    35
1070
   178
1070
    35
1070
    48
1040
-0.1
1070
    41
1040
3.5
1070
   147
1040
1.75
1070
    42
1040
1.5875
1070
    44
1040
2.0
1070
   140
1040
3.5
1002
}
1001
ACAD_DSTYLE_DIM_LINETYPE
1070
   380
1005
16
1001
ACAD_DSTYLE_DIM_EXT1_LINETYPE
1070
   381
1005
16
1001
ACAD_DSTYLE_DIM_EXT2_LINETYPE
1070
   382
1005
16
0
DIMENSION
5
18F
100
AcDbEntity
8
SK2
62
256
6
ByLayer
370
13
48
1
60
0
100
AcDbDimension
2
_U4
10
30.6324
20
9.910371
30
0
11
47.9574
21
9.910371
31
0
70
32
71
1
72
1
41
1
210
0
220
0
230
1
3
Standard
100
AcDbAlignedDimension
13
65.2824
23
5.775
33
0
14
30.6324
24
5.775
34
0
50
0
100
AcDbRotatedDimension
1001
ACAD
1000
DSTYLE
1002
{
1070
   371
1070
    13
1070
   372
1070
    13
1070
   170
1070
     0
1070
   144
1040
1.0
1070
   277
1070
     2
1070
   278
1070
    44
1070
   146
1040
1.0
1070
   345
1005
16
1070
   347
1005
16
1070
   346
1005
16
1070
   344
1005
0
1070
   343
1005
0
1070
   172
1070
     1
1070
    76
1070
     0
1070
    75
1070
     0
1070
   282
1070
     0
1070
   281
1070
     0
1070
    71
1070
     0
1070
    74
1070
     0
1070
   279
1070
     0
1070
   173
1070
     1
1070
   340
1005
101
1070
   271
1070
     2
1070
   272
1070
     2
1070
    77
1070
     1
1070
    73
1070
     1
1070
   171
1070
     3
1070
   274
1070
     4
1070
   177
1070
    35
1070
   176
1070
    35
1070
   178
1070
    35
1070
    48
1040
-0.1
1070
    41
1040
3.5
1070
   147
1040
1.75
1070
    42
1040
1.5875
1070
    44
1040
2.0
1070
   140
1040
3.5
1002
}
1001
ACAD_DSTYLE_DIM_LINETYPE
1070
   380
1005
16
1001
ACAD_DSTYLE_DIM_EXT1_LINETYPE
1070
   381
1005
16
1001
ACAD_DSTYLE_DIM_EXT2_LINETYPE
1070
   382
1005
16
0
DIMENSION
5
1A7
100
AcDbEntity
8
SK2
62
256
6
ByLayer
370
13
48
1
60
0
100
AcDbDimension
2
_U5
10
65.2824
20
-28.690158
30
0
11
8.6412
21
-28.690158
31
0
70
32
71
1
72
1
41
1
210
0
220
0
230
1
3
Standard
100
AcDbAlignedDimension
13
-48
23
-8
33
0
14
65.2824
24
-5.775
34
0
50
0
100
AcDbRotatedDimension
1001
ACAD
1000
DSTYLE
1002
{
1070
   371
1070
    13
1070
   372
1070
    13
1070
   170
1070
     0
1070
   144
1040
1.0
1070
   277
1070
     2
1070
   278
1070
    44
1070
   146
1040
1.0
1070
   345
1005
16
1070
   347
1005
16
1070
   346
1005
16
1070
   344
1005
0
1070
   343
1005
0
1070
   172
1070
     1
1070
    76
1070
     0
1070
    75
1070
     0
1070
   282
1070
     0
1070
   281
1070
     0
1070
    71
1070
     0
1070
    74
1070
     0
1070
   279
1070
     0
1070
   173
1070
     1
1070
   340
1005
101
1070
   271
1070
     2
1070
   272
1070
     2
1070
    77
1070
     1
1070
    73
1070
     1
1070
   171
1070
     3
1070
   274
1070
     4
1070
   177
1070
    35
1070
   176
1070
    35
1070
   178
1070
    35
1070
    48
1040
-0.1
1070
    41
1040
3.5
1070
   147
1040
1.75
1070
    42
1040
1.5875
1070
    44
1040
2.0
1070
   140
1040
3.5
1002
}
1001
ACAD_DSTYLE_DIM_LINETYPE
1070
   380
1005
16
1001
ACAD_DSTYLE_DIM_EXT1_LINETYPE
1070
   381
1005
16
1001
ACAD_DSTYLE_DIM_EXT2_LINETYPE
1070
   382
1005
16
0
ENDSEC
0
SECTION
2
OBJECTS
0
DICTIONARY
5
22f
330
0
100
AcDbDictionary
280
0
281
1
3
ACAD_GROUP
350
230
3
ACAD_MLINESTYLE
350
231
0
DICTIONARY
5
230
330
0
100
AcDbDictionary
280
0
281
1
0
DICTIONARY
5
231
330
0
100
AcDbDictionary
280
0
281
1
3
Standard
350
18
0
MLINESTYLE
5
18
330
231
100
AcDbMlineStyle
2
Standard
70
0
3

62
256
51
90
52
90
71
2
49
-0.5
62
256
6
ByLayer
49
0.5
62
256
6
ByLayer
0
RASTERVARIABLES
5
21d
330

100
AcDbRasterVariables
90
0
70
1
71
1
72
1
0
ENDSEC
0
EOF
