0
SECTION
2
HEADER
9
$ACADVER
1
AC1015
9
$DWGCODEPAGE
3
ANSI_1252
9
$HANDSEED
5
241
9
$ANGBASE
50
0
9
$ANGDIR
70
0
9
$ATTMODE
70
1
9
$AUNITS
70
0
9
$AUPREC
70
0
9
$CECOLOR
62
256
9
$CELTSCALE
40
1
9
$CELTYPE
6
ByLayer
9
$CELWEIGHT
370
18
9
$CLAYER
8
0
9
$CMLJUST
70
0
9
$CMLSCALE
40
1
9
$CMLSTYLE
2
Standard
9
$DIMSTYLE
2
Standard
9
$TEXTSIZE
40
0.2
9
$TEXTSTYLE
7
Standard
9
$LUNITS
70
2
9
$LUPREC
70
4
9
$EXTNAMES
290
1
9
$INSUNITS
70
4
9
$LTSCALE
40
1
9
$LWDISPLAY
290
1
9
$PDMODE
70
0
9
$PDSIZE
40
0
9
$PLINEGEN
70
0
0
ENDSEC
0
SECTION
2
CLASSES
0
CLASS
1
RASTERVARIABLES
2
AcDbRasterVariables
3
ISM
90
0
280
0
281
0
0
ENDSEC
0
SECTION
2
TABLES
0
TABLE
2
VPORT
5
237
100
AcDbSymbolTable
0
VPORT
5
1
100
AcDbSymbolTableRecord
100
AcDbViewportTableRecord
2
*Active
70
0
10
0
20
0
11
1
21
1
12
-1
22
1
13
0
23
0
14
0.5
24
0.5
15
10
25
10
16
0
26
0
36
1
17
0
27
0
37
0
0
ENDTAB
0
TABLE
2
LTYPE
5
238
100
AcDbSymbolTable
0
LTYPE
5
14
100
AcDbSymbolTableRecord
100
AcDbLinetypeTableRecord
70
0
2
ByBlock
3

72
65
73
0
40
0
0
LTYPE
5
15
100
AcDbSymbolTableRecord
100
AcDbLinetypeTableRecord
70
0
2
ByLayer
3

72
65
73
0
40
0
0
LTYPE
5
16
100
AcDbSymbolTableRecord
100
AcDbLinetypeTableRecord
70
0
2
Continuous
3
Solid line
72
65
73
0
40
0
0
LTYPE
5
6E
100
AcDbSymbolTableRecord
100
AcDbLinetypeTableRecord
70
0
2
CENTER
3
____ _ ____ _ ____ _ ____
72
65
73
4
40
47.5
49
22
74
0
49
-8.5
74
0
49
8.5
74
0
49
-8.5
74
0
0
LTYPE
5
6F
100
AcDbSymbolTableRecord
100
AcDbLinetypeTableRecord
70
0
2
DASHED
3
__ __ __ __ __ __ __ __ __
72
65
73
2
40
25.72
49
12.86
74
0
49
-12.86
74
0
0
ENDTAB
0
TABLE
2
LAYER
5
239
100
AcDbSymbolTable
0
LAYER
5
10
100
AcDbSymbolTableRecord
100
AcDbLayerTableRecord
2
0
70
0
62
7
6
Continuous
290
1
370
-3
390
0
0
LAYER
5
71
100
AcDbSymbolTableRecord
100
AcDbLayerTableRecord
2
80
70
0
62
-6
6
Continuous
290
1
370
-3
390
0
0
LAYER
5
73
100
AcDbSymbolTableRecord
100
AcDbLayerTableRecord
2
81
70
0
62
-3
6
Continuous
290
1
370
-3
390
0
0
LAYER
5
75
100
AcDbSymbolTableRecord
100
AcDbLayerTableRecord
2
1
70
0
62
4
6
Continuous
290
1
370
-3
390
0
0
LAYER
5
8D
100
AcDbSymbolTableRecord
100
AcDbLayerTableRecord
2
4
70
0
62
-2
6
CENTER
290
1
370
-3
390
0
0
LAYER
5
9C
100
AcDbSymbolTableRecord
100
AcDbLayerTableRecord
2
2
70
0
62
7
6
Continuous
290
1
370
-3
390
0
0
LAYER
5
134
100
AcDbSymbolTableRecord
100
AcDbLayerTableRecord
2
Defpoints
70
0
62
7
6
Continuous
290
0
370
-3
390
0
0
LAYER
5
223
100
AcDbSymbolTableRecord
100
AcDbLayerTableRecord
2
SK1
70
0
62
4
6
Continuous
290
1
370
-3
390
0
0
LAYER
5
224
100
AcDbSymbolTableRecord
100
AcDbLayerTableRecord
2
SK4
70
0
62
2
6
CENTER
290
1
370
-3
390
0
0
LAYER
5
225
100
AcDbSymbolTableRecord
100
AcDbLayerTableRecord
2
SK2
70
0
62
7
6
Continuous
290
1
370
-3
390
0
0
LAYER
5
226
100
AcDbSymbolTableRecord
100
AcDbLayerTableRecord
2
SK6
70
0
62
5
6
Continuous
290
1
370
-3
390
0
0
ENDTAB
0
TABLE
2
STYLE
5
23a
100
AcDbSymbolTable
0
STYLE
5
11
100
AcDbSymbolTableRecord
100
AcDbTextStyleTableRecord
2
Standard
3
txt
70
0
71
0
40
0
41
1
42
0
50
0
0
STYLE
5
106
100
AcDbSymbolTableRecord
100
AcDbTextStyleTableRecord
2
iso_b_vert
3
simplex.shx
70
0
71
0
40
0
41
1
42
0
50
0
0
STYLE
5
107
100
AcDbSymbolTableRecord
100
AcDbTextStyleTableRecord
2
DWGDirectTextStyle
3
simplex
70
0
71
0
40
0
41
1
42
0
50
0
0
ENDTAB
0
TABLE
2
DIMSTYLE
5
23b
100
AcDbSymbolTable
100
AcDbDimStyleTable
0
DIMSTYLE
105
27
100
AcDbSymbolTableRecord
100
AcDbDimStyleTableRecord
2
Standard
70
0
3
<>
41
0.18
42
0.0625
44
0.18
140
0.18
147
0.09
73
0
74
0
77
1
271
2
275
0
278
52
280
0
340
11
0
ENDTAB
0
TABLE
2
VIEW
5
23c
100
AcDbSymbolTable
0
ENDTAB
0
TABLE
2
UCS
5
23d
100
AcDbSymbolTable
0
ENDTAB
0
TABLE
2
APPID
5
23e
100
AcDbSymbolTable
0
APPID
5
12
100
AcDbSymbolTableRecord
100
AcDbRegAppTableRecord
2
ACAD
70
0
0
APPID
5
130
100
AcDbSymbolTableRecord
100
AcDbRegAppTableRecord
2
ACAD_DSTYLE_DIMBREAK
70
0
0
APPID
5
1E2
100
AcDbSymbolTableRecord
100
AcDbRegAppTableRecord
2
ACAD_DSTYLE_DIM_LINETYPE
70
0
0
APPID
5
1E3
100
AcDbSymbolTableRecord
100
AcDbRegAppTableRecord
2
ACAD_DSTYLE_DIM_EXT1_LINETYPE
70
0
0
APPID
5
1E4
100
AcDbSymbolTableRecord
100
AcDbRegAppTableRecord
2
ACAD_DSTYLE_DIM_EXT2_LINETYPE
70
0
0
APPID
5
21F
100
AcDbSymbolTableRecord
100
AcDbRegAppTableRecord
2
ACAD_MLEADERVER
70
0
0
ENDTAB
0
TABLE
2
BLOCK_RECORD
5
23f
100
AcDbSymbolTable
0
BLOCK_RECORD
5
1F
100
AcDbSymbolTableRecord
100
AcDbBlockTableRecord
2
*Model_Space
340
0
70
0
0
BLOCK_RECORD
5
1B
100
AcDbSymbolTableRecord
100
AcDbBlockTableRecord
2
*Paper_Space
340
0
70
0
0
BLOCK_RECORD
5
23
100
AcDbSymbolTableRecord
100
AcDbBlockTableRecord
2
*Paper_Space0
340
0
70
0
0
BLOCK_RECORD
5
135
100
AcDbSymbolTableRecord
100
AcDbBlockTableRecord
2
*D1
340
0
70
0
0
BLOCK_RECORD
5
141
100
AcDbSymbolTableRecord
100
AcDbBlockTableRecord
2
_U0
340
0
70
0
0
BLOCK_RECORD
5
14D
100
AcDbSymbolTableRecord
100
AcDbBlockTableRecord
2
*D3
340
0
70
0
0
BLOCK_RECORD
5
159
100
AcDbSymbolTableRecord
100
AcDbBlockTableRecord
2
_U1
340
0
70
0
0
BLOCK_RECORD
5
165
100
AcDbSymbolTableRecord
100
AcDbBlockTableRecord
2
*D5
340
0
70
0
0
BLOCK_RECORD
5
171
100
AcDbSymbolTableRecord
100
AcDbBlockTableRecord
2
_U2
340
0
70
0
0
BLOCK_RECORD
5
17D
100
AcDbSymbolTableRecord
100
AcDbBlockTableRecord
2
*D7
340
0
70
0
0
BLOCK_RECORD
5
18B
100
AcDbSymbolTableRecord
100
AcDbBlockTableRecord
2
_U3
340
0
70
0
0
BLOCK_RECORD
5
197
100
AcDbSymbolTableRecord
100
AcDbBlockTableRecord
2
*D9
340
0
70
0
0
BLOCK_RECORD
5
1A3
100
AcDbSymbolTableRecord
100
AcDbBlockTableRecord
2
_U4
340
0
70
0
0
BLOCK_RECORD
5
1AF
100
AcDbSymbolTableRecord
100
AcDbBlockTableRecord
2
*D11
340
0
70
0
0
BLOCK_RECORD
5
1BB
100
AcDbSymbolTableRecord
100
AcDbBlockTableRecord
2
_U5
340
0
70
0
0
ENDTAB
0
ENDSEC
0
SECTION
2
BLOCKS
0
BLOCK
5
20
100
AcDbEntity
8
0
100
AcDbBlockBegin
2
*Model_Space
70
0
10
0
20
0
30
0
3
*Model_Space
0
ENDBLK
5
21
100
AcDbEntity
8
0
100
AcDbBlockEnd
0
BLOCK
5
1C
100
AcDbEntity
8
0
100
AcDbBlockBegin
2
*Paper_Space
70
0
10
0
20
0
30
0
3
*Paper_Space
0
ENDBLK
5
1D
100
AcDbEntity
8
0
100
AcDbBlockEnd
0
BLOCK
5
24
100
AcDbEntity
8
0
100
AcDbBlockBegin
2
*Paper_Space0
70
0
10
0
20
0
30
0
3
*Paper_Space0
0
ENDBLK
5
25
100
AcDbEntity
8
0
100
AcDbBlockEnd
0
BLOCK
5
136
100
AcDbEntity
8
0
100
AcDbBlockBegin
2
*D1
70
1
10
0
20
0
30
0
3
*D1
0
LINE
5
138
100
AcDbEntity
8
0
62
256
6
ByLayer
370
-2
48
1
60
0
100
AcDbLine
10
0
20
-1.5875
30
0
11
0
21
-18.427503
31
0
39
0
210
0
220
0
230
1
0
LINE
5
139
100
AcDbEntity
8
0
62
256
6
ByLayer
370
-2
48
1
60
0
100
AcDbLine
10
47.9304
20
-5.2125
30
0
11
47.9304
21
-18.427503
31
0
39
0
210
0
220
0
230
1
0
LINE
5
13A
100
AcDbEntity
8
0
62
256
6
ByLayer
370
-2
48
1
60
0
100
AcDbLine
10
3.5
20
-16.427503
30
0
11
44.4304
21
-16.427503
31
0
39
0
210
0
220
0
230
1
0
SOLID
5
13B
100
AcDbEntity
8
0
62
256
6
ByLayer
370
-1
48
1
60
0
100
AcDbTrace
10
3.5
20
-15.84417
30
0
11
3.5
21
-17.010837
31
0
12
0
22
-16.427503
32
0
13
0
23
-16.427503
33
0
39
0
210
0
220
0
230
1
0
SOLID
5
13C
100
AcDbEntity
8
0
62
256
6
ByLayer
370
-1
48
1
60
0
100
AcDbTrace
10
44.4304
20
-17.010837
30
0
11
44.4304
21
-15.84417
31
0
12
47.9304
22
-16.427503
32
0
13
47.9304
23
-16.427503
33
0
39
0
210
0
220
0
230
1
0
MTEXT
5
13D
100
AcDbEntity
8
0
62
256
6
ByLayer
370
18
48
1
60
0
100
AcDbMText
10
23.9652
20
-9.427503
30
0
210
0
220
0
230
1
1
\A1;47.93
40
3.5
41
0
44
1
50
0
71
5
72
5
7
iso_b_vert
0
POINT
5
13E
100
AcDbEntity
8
Defpoints
62
0
6
ByLayer
370
-1
48
1
60
0
100
AcDbPoint
10
0
20
0
30
0
39
0
210
0
220
0
230
1
50
360
0
POINT
5
13F
100
AcDbEntity
8
Defpoints
62
0
6
ByLayer
370
-1
48
1
60
0
100
AcDbPoint
10
47.9304
20
-3.625
30
0
39
0
210
0
220
0
230
1
50
360
0
POINT
5
140
100
AcDbEntity
8
Defpoints
62
0
6
ByLayer
370
-1
48
1
60
0
100
AcDbPoint
10
47.9304
20
-16.427503
30
0
39
0
210
0
220
0
230
1
50
360
0
ENDBLK
5
137
100
AcDbEntity
8
0
100
AcDbBlockEnd
0
BLOCK
5
148
100
AcDbEntity
8
0
100
AcDbBlockBegin
2
_U0
70
0
10
0
20
0
30
0
3
_U0
0
MTEXT
5
142
100
AcDbEntity
8
SK2
62
256
6
ByLayer
370
13
48
1
60
0
100
AcDbMText
10
18.643635
20
-15.39487
30
0
210
0
220
0
230
1
1
\W0.7581;47,93
40
3.5
41
0
44
1.084337
50
0
71
7
72
5
7
iso_b_vert
0
LINE
5
143
100
AcDbEntity
8
SK2
62
256
6
ByLayer
370
13
48
1
60
0
100
AcDbLine
10
0
20
-1.5875
30
0
11
0
21
-18.427503
31
0
39
0
210
0
220
0
230
1
0
LINE
5
144
100
AcDbEntity
8
SK2
62
256
6
ByLayer
370
13
48
1
60
0
100
AcDbLine
10
47.9304
20
-5.2125
30
0
11
47.9304
21
-18.427503
31
0
39
0
210
0
220
0
230
1
0
LINE
5
145
100
AcDbEntity
8
SK2
62
256
6
ByLayer
370
13
48
1
60
0
100
AcDbLine
10
0
20
-16.427503
30
0
11
47.9304
21
-16.427503
31
0
39
0
210
0
220
0
230
1
0
SOLID
5
146
100
AcDbEntity
8
SK2
62
256
6
ByLayer
370
18
48
1
60
0
100
AcDbTrace
10
0
20
-16.427503
30
0
11
3.499998
21
-15.966719
31
0
12
3.500002
22
-16.888287
32
0
13
3.500002
23
-16.888287
33
0
39
0
210
0
220
0
230
1
0
SOLID
5
147
100
AcDbEntity
8
SK2
62
256
6
ByLayer
370
18
48
1
60
0
100
AcDbTrace
10
47.9304
20
-16.427503
30
0
11
44.430402
21
-16.888287
31
0
12
44.430398
22
-15.966719
32
0
13
44.430398
23
-15.966719
33
0
39
0
210
0
220
0
230
1
0
ENDBLK
5
149
100
AcDbEntity
8
0
100
AcDbBlockEnd
0
BLOCK
5
14E
100
AcDbEntity
8
0
100
AcDbBlockBegin
2
*D3
70
1
10
0
20
0
30
0
3
*D3
0
LINE
5
150
100
AcDbEntity
8
0
62
256
6
ByLayer
370
-2
48
1
60
0
100
AcDbLine
10
-40
20
-6.5875
30
0
11
-40
21
-38.192985
31
0
39
0
210
0
220
0
230
1
0
LINE
5
151
100
AcDbEntity
8
0
62
256
6
ByLayer
370
-2
48
1
60
0
100
AcDbLine
10
49
20
-1.5875
30
0
11
49
21
-38.192985
31
0
39
0
210
0
220
0
230
1
0
LINE
5
152
100
AcDbEntity
8
0
62
256
6
ByLayer
370
-2
48
1
60
0
100
AcDbLine
10
-36.5
20
-36.192985
30
0
11
45.5
21
-36.192985
31
0
39
0
210
0
220
0
230
1
0
SOLID
5
153
100
AcDbEntity
8
0
62
256
6
ByLayer
370
-1
48
1
60
0
100
AcDbTrace
10
-36.5
20
-35.609652
30
0
11
-36.5
21
-36.776319
31
0
12
-40
22
-36.192985
32
0
13
-40
23
-36.192985
33
0
39
0
210
0
220
0
230
1
0
SOLID
5
154
100
AcDbEntity
8
0
62
256
6
ByLayer
370
-1
48
1
60
0
100
AcDbTrace
10
45.5
20
-36.776319
30
0
11
45.5
21
-35.609652
31
0
12
49
22
-36.192985
32
0
13
49
23
-36.192985
33
0
39
0
210
0
220
0
230
1
0
MTEXT
5
155
100
AcDbEntity
8
0
62
256
6
ByLayer
370
18
48
1
60
0
100
AcDbMText
10
4.5
20
-29.192985
30
0
210
0
220
0
230
1
1
\A1;89.00
40
3.5
41
0
44
1
50
0
71
5
72
5
7
iso_b_vert
0
POINT
5
156
100
AcDbEntity
8
Defpoints
62
0
6
ByLayer
370
-1
48
1
60
0
100
AcDbPoint
10
-40
20
-5
30
0
39
0
210
0
220
0
230
1
50
360
0
POINT
5
157
100
AcDbEntity
8
Defpoints
62
0
6
ByLayer
370
-1
48
1
60
0
100
AcDbPoint
10
49
20
0
30
0
39
0
210
0
220
0
230
1
50
360
0
POINT
5
158
100
AcDbEntity
8
Defpoints
62
0
6
ByLayer
370
-1
48
1
60
0
100
AcDbPoint
10
49
20
-36.192985
30
0
39
0
210
0
220
0
230
1
50
360
0
ENDBLK
5
14F
100
AcDbEntity
8
0
100
AcDbBlockEnd
0
BLOCK
5
160
100
AcDbEntity
8
0
100
AcDbBlockBegin
2
_U1
70
0
10
0
20
0
30
0
3
_U1
0
MTEXT
5
15A
100
AcDbEntity
8
SK2
62
256
6
ByLayer
370
13
48
1
60
0
100
AcDbMText
10
-0.637299
20
-35.160352
30
0
210
0
220
0
230
1
1
\W0.7317;89,00
40
3.5
41
0
44
1.084337
50
0
71
7
72
5
7
iso_b_vert
0
LINE
5
15B
100
AcDbEntity
8
SK2
62
256
6
ByLayer
370
13
48
1
60
0
100
AcDbLine
10
-40
20
-6.5875
30
0
11
-40
21
-38.192985
31
0
39
0
210
0
220
0
230
1
0
LINE
5
15C
100
AcDbEntity
8
SK2
62
256
6
ByLayer
370
13
48
1
60
0
100
AcDbLine
10
49
20
-1.5875
30
0
11
49
21
-38.192985
31
0
39
0
210
0
220
0
230
1
0
LINE
5
15D
100
AcDbEntity
8
SK2
62
256
6
ByLayer
370
13
48
1
60
0
100
AcDbLine
10
-40
20
-36.192985
30
0
11
49
21
-36.192985
31
0
39
0
210
0
220
0
230
1
0
SOLID
5
15E
100
AcDbEntity
8
SK2
62
256
6
ByLayer
370
18
48
1
60
0
100
AcDbTrace
10
-40
20
-36.192985
30
0
11
-36.500002
21
-35.732202
31
0
12
-36.499998
22
-36.653769
32
0
13
-36.499998
23
-36.653769
33
0
39
0
210
0
220
0
230
1
0
SOLID
5
15F
100
AcDbEntity
8
SK2
62
256
6
ByLayer
370
18
48
1
60
0
100
AcDbTrace
10
49
20
-36.192985
30
0
11
45.500002
21
-36.653769
31
0
12
45.499998
22
-35.732202
32
0
13
45.499998
23
-35.732202
33
0
39
0
210
0
220
0
230
1
0
ENDBLK
5
161
100
AcDbEntity
8
0
100
AcDbBlockEnd
0
BLOCK
5
166
100
AcDbEntity
8
0
100
AcDbBlockBegin
2
*D5
70
1
10
0
20
0
30
0
3
*D5
0
LINE
5
168
100
AcDbEntity
8
0
62
256
6
ByLayer
370
-2
48
1
60
0
100
AcDbLine
10
24.91
20
6.4825
30
0
11
24.91
21
17.234119
31
0
39
0
210
0
220
0
230
1
0
LINE
5
169
100
AcDbEntity
8
0
62
256
6
ByLayer
370
-2
48
1
60
0
100
AcDbLine
10
49
20
1.5875
30
0
11
49
21
17.234119
31
0
39
0
210
0
220
0
230
1
0
LINE
5
16A
100
AcDbEntity
8
0
62
256
6
ByLayer
370
-2
48
1
60
0
100
AcDbLine
10
28.41
20
15.234119
30
0
11
45.5
21
15.234119
31
0
39
0
210
0
220
0
230
1
0
SOLID
5
16B
100
AcDbEntity
8
0
62
256
6
ByLayer
370
-1
48
1
60
0
100
AcDbTrace
10
28.41
20
15.817453
30
0
11
28.41
21
14.650786
31
0
12
24.91
22
15.234119
32
0
13
24.91
23
15.234119
33
0
39
0
210
0
220
0
230
1
0
SOLID
5
16C
100
AcDbEntity
8
0
62
256
6
ByLayer
370
-1
48
1
60
0
100
AcDbTrace
10
45.5
20
14.650786
30
0
11
45.5
21
15.817453
31
0
12
49
22
15.234119
32
0
13
49
23
15.234119
33
0
39
0
210
0
220
0
230
1
0
MTEXT
5
16D
100
AcDbEntity
8
0
62
256
6
ByLayer
370
18
48
1
60
0
100
AcDbMText
10
36.955
20
22.234119
30
0
210
0
220
0
230
1
1
\A1;24.09
40
3.5
41
0
44
1
50
0
71
5
72
5
7
iso_b_vert
0
POINT
5
16E
100
AcDbEntity
8
Defpoints
62
0
6
ByLayer
370
-1
48
1
60
0
100
AcDbPoint
10
24.91
20
4.895
30
0
39
0
210
0
220
0
230
1
50
360
0
POINT
5
16F
100
AcDbEntity
8
Defpoints
62
0
6
ByLayer
370
-1
48
1
60
0
100
AcDbPoint
10
49
20
0
30
0
39
0
210
0
220
0
230
1
50
360
0
POINT
5
170
100
AcDbEntity
8
Defpoints
62
0
6
ByLayer
370
-1
48
1
60
0
100
AcDbPoint
10
49
20
15.234119
30
0
39
0
210
0
220
0
230
1
50
360
0
ENDBLK
5
167
100
AcDbEntity
8
0
100
AcDbBlockEnd
0
BLOCK
5
178
100
AcDbEntity
8
0
100
AcDbBlockBegin
2
_U2
70
0
10
0
20
0
30
0
3
_U2
0
MTEXT
5
172
100
AcDbEntity
8
SK2
62
256
6
ByLayer
370
13
48
1
60
0
100
AcDbMText
10
31.633435
20
16.266753
30
0
210
0
220
0
230
1
1
\W0.7669;24,09
40
3.5
41
0
44
1.084337
50
0
71
7
72
5
7
iso_b_vert
0
LINE
5
173
100
AcDbEntity
8
SK2
62
256
6
ByLayer
370
13
48
1
60
0
100
AcDbLine
10
24.91
20
6.4825
30
0
11
24.91
21
17.234119
31
0
39
0
210
0
220
0
230
1
0
LINE
5
174
100
AcDbEntity
8
SK2
62
256
6
ByLayer
370
13
48
1
60
0
100
AcDbLine
10
49
20
1.5875
30
0
11
49
21
17.234119
31
0
39
0
210
0
220
0
230
1
0
LINE
5
175
100
AcDbEntity
8
SK2
62
256
6
ByLayer
370
13
48
1
60
0
100
AcDbLine
10
24.91
20
15.234119
30
0
11
49
21
15.234119
31
0
39
0
210
0
220
0
230
1
0
SOLID
5
176
100
AcDbEntity
8
SK2
62
256
6
ByLayer
370
18
48
1
60
0
100
AcDbTrace
10
24.91
20
15.234119
30
0
11
28.409998
21
15.694903
31
0
12
28.410002
22
14.773335
32
0
13
28.410002
23
14.773335
33
0
39
0
210
0
220
0
230
1
0
SOLID
5
177
100
AcDbEntity
8
SK2
62
256
6
ByLayer
370
18
48
1
60
0
100
AcDbTrace
10
49
20
15.234119
30
0
11
45.500002
21
14.773335
31
0
12
45.499998
22
15.694903
32
0
13
45.499998
23
15.694903
33
0
39
0
210
0
220
0
230
1
0
ENDBLK
5
179
100
AcDbEntity
8
0
100
AcDbBlockEnd
0
BLOCK
5
17E
100
AcDbEntity
8
0
100
AcDbBlockBegin
2
*D7
70
1
10
0
20
0
30
0
3
*D7
0
LINE
5
180
100
AcDbEntity
8
0
62
256
6
ByLayer
370
-2
48
1
60
0
100
AcDbLine
10
49
20
-1.5875
30
0
11
49
21
-18.427503
31
0
39
0
210
0
220
0
230
1
0
LINE
5
181
100
AcDbEntity
8
0
62
256
6
ByLayer
370
-2
48
1
60
0
100
AcDbLine
10
47.9304
20
-5.2125
30
0
11
47.9304
21
-18.427503
31
0
39
0
210
0
220
0
230
1
0
LINE
5
182
100
AcDbEntity
8
0
62
256
6
ByLayer
370
-2
48
1
60
0
100
AcDbLine
10
49
20
-16.427503
30
0
11
76.666667
21
-16.427503
31
0
39
0
210
0
220
0
230
1
0
LINE
5
183
100
AcDbEntity
8
0
62
256
6
ByLayer
370
-2
48
1
60
0
100
AcDbLine
10
52.5
20
-16.427503
30
0
11
56
21
-16.427503
31
0
39
0
210
0
220
0
230
1
0
LINE
5
184
100
AcDbEntity
8
0
62
256
6
ByLayer
370
-2
48
1
60
0
100
AcDbLine
10
44.4304
20
-16.427503
30
0
11
40.9304
21
-16.427503
31
0
39
0
210
0
220
0
230
1
0
SOLID
5
185
100
AcDbEntity
8
0
62
256
6
ByLayer
370
-1
48
1
60
0
100
AcDbTrace
10
52.5
20
-15.84417
30
0
11
52.5
21
-17.010837
31
0
12
49
22
-16.427503
32
0
13
49
23
-16.427503
33
0
39
0
210
0
220
0
230
1
0
SOLID
5
186
100
AcDbEntity
8
0
62
256
6
ByLayer
370
-1
48
1
60
0
100
AcDbTrace
10
44.4304
20
-17.010837
30
0
11
44.4304
21
-15.84417
31
0
12
47.9304
22
-16.427503
32
0
13
47.9304
23
-16.427503
33
0
39
0
210
0
220
0
230
1
0
MTEXT
5
187
100
AcDbEntity
8
0
62
256
6
ByLayer
370
18
48
1
60
0
100
AcDbMText
10
66.333333
20
-9.427503
30
0
210
0
220
0
230
1
1
\A1;1.07
40
3.5
41
0
44
1
50
0
71
5
72
5
7
iso_b_vert
0
POINT
5
188
100
AcDbEntity
8
Defpoints
62
0
6
ByLayer
370
-1
48
1
60
0
100
AcDbPoint
10
49
20
0
30
0
39
0
210
0
220
0
230
1
50
360
0
POINT
5
189
100
AcDbEntity
8
Defpoints
62
0
6
ByLayer
370
-1
48
1
60
0
100
AcDbPoint
10
47.9304
20
-3.625
30
0
39
0
210
0
220
0
230
1
50
360
0
POINT
5
18A
100
AcDbEntity
8
Defpoints
62
0
6
ByLayer
370
-1
48
1
60
0
100
AcDbPoint
10
47.9304
20
-16.427503
30
0
39
0
210
0
220
0
230
1
50
360
0
ENDBLK
5
17F
100
AcDbEntity
8
0
100
AcDbBlockEnd
0
BLOCK
5
192
100
AcDbEntity
8
0
100
AcDbBlockBegin
2
_U3
70
0
10
0
20
0
30
0
3
_U3
0
MTEXT
5
18C
100
AcDbEntity
8
SK2
62
256
6
ByLayer
370
13
48
1
60
0
100
AcDbMText
10
55.589293
20
-15.39487
30
0
210
0
220
0
230
1
1
\W0.6367;1,07
40
3.5
41
0
44
1.084337
50
0
71
7
72
5
7
iso_b_vert
0
LINE
5
18D
100
AcDbEntity
8
SK2
62
256
6
ByLayer
370
13
48
1
60
0
100
AcDbLine
10
49
20
-1.5875
30
0
11
49
21
-18.427503
31
0
39
0
210
0
220
0
230
1
0
LINE
5
18E
100
AcDbEntity
8
SK2
62
256
6
ByLayer
370
13
48
1
60
0
100
AcDbLine
10
47.9304
20
-5.2125
30
0
11
47.9304
21
-18.427503
31
0
39
0
210
0
220
0
230
1
0
LINE
5
18F
100
AcDbEntity
8
SK2
62
256
6
ByLayer
370
13
48
1
60
0
100
AcDbLine
10
39.1804
20
-16.427503
30
0
11
62.559058
21
-16.427503
31
0
39
0
210
0
220
0
230
1
0
SOLID
5
190
100
AcDbEntity
8
SK2
62
256
6
ByLayer
370
18
48
1
60
0
100
AcDbTrace
10
49
20
-16.427503
30
0
11
52.499998
21
-15.966719
31
0
12
52.500002
22
-16.888287
32
0
13
52.500002
23
-16.888287
33
0
39
0
210
0
220
0
230
1
0
SOLID
5
191
100
AcDbEntity
8
SK2
62
256
6
ByLayer
370
18
48
1
60
0
100
AcDbTrace
10
47.9304
20
-16.427503
30
0
11
44.430402
21
-16.888287
31
0
12
44.430398
22
-15.966719
32
0
13
44.430398
23
-15.966719
33
0
39
0
210
0
220
0
230
1
0
ENDBLK
5
193
100
AcDbEntity
8
0
100
AcDbBlockEnd
0
BLOCK
5
198
100
AcDbEntity
8
0
100
AcDbBlockBegin
2
*D9
70
1
10
0
20
0
30
0
3
*D9
0
LINE
5
19A
100
AcDbEntity
8
0
62
256
6
ByLayer
370
-2
48
1
60
0
100
AcDbLine
10
47.9304
20
5.2125
30
0
11
47.9304
21
9.760371
31
0
39
0
210
0
220
0
230
1
0
LINE
5
19B
100
AcDbEntity
8
0
62
256
6
ByLayer
370
-2
48
1
60
0
100
AcDbLine
10
26.1804
20
5.2125
30
0
11
26.1804
21
9.760371
31
0
39
0
210
0
220
0
230
1
0
LINE
5
19C
100
AcDbEntity
8
0
62
256
6
ByLayer
370
-2
48
1
60
0
100
AcDbLine
10
44.4304
20
7.760371
30
0
11
29.6804
21
7.760371
31
0
39
0
210
0
220
0
230
1
0
SOLID
5
19D
100
AcDbEntity
8
0
62
256
6
ByLayer
370
-1
48
1
60
0
100
AcDbTrace
10
44.4304
20
7.177038
30
0
11
44.4304
21
8.343705
31
0
12
47.9304
22
7.760371
32
0
13
47.9304
23
7.760371
33
0
39
0
210
0
220
0
230
1
0
SOLID
5
19E
100
AcDbEntity
8
0
62
256
6
ByLayer
370
-1
48
1
60
0
100
AcDbTrace
10
29.6804
20
8.343705
30
0
11
29.6804
21
7.177038
31
0
12
26.1804
22
7.760371
32
0
13
26.1804
23
7.760371
33
0
39
0
210
0
220
0
230
1
0
MTEXT
5
19F
100
AcDbEntity
8
0
62
256
6
ByLayer
370
18
48
1
60
0
100
AcDbMText
10
37.0554
20
14.760371
30
0
210
0
220
0
230
1
1
\A1;21.75
40
3.5
41
0
44
1
50
0
71
5
72
5
7
iso_b_vert
0
POINT
5
1A0
100
AcDbEntity
8
Defpoints
62
0
6
ByLayer
370
-1
48
1
60
0
100
AcDbPoint
10
47.9304
20
3.625
30
0
39
0
210
0
220
0
230
1
50
360
0
POINT
5
1A1
100
AcDbEntity
8
Defpoints
62
0
6
ByLayer
370
-1
48
1
60
0
100
AcDbPoint
10
26.1804
20
3.625
30
0
39
0
210
0
220
0
230
1
50
360
0
POINT
5
1A2
100
AcDbEntity
8
Defpoints
62
0
6
ByLayer
370
-1
48
1
60
0
100
AcDbPoint
10
26.1804
20
7.760371
30
0
39
0
210
0
220
0
230
1
50
360
0
ENDBLK
5
199
100
AcDbEntity
8
0
100
AcDbBlockEnd
0
BLOCK
5
1AA
100
AcDbEntity
8
0
100
AcDbBlockBegin
2
_U4
70
0
10
0
20
0
30
0
3
_U4
0
MTEXT
5
1A4
100
AcDbEntity
8
SK2
62
256
6
ByLayer
370
13
48
1
60
0
100
AcDbMText
10
32.355535
20
8.793005
30
0
210
0
220
0
230
1
1
\W0.6713;21,75
40
3.5
41
0
44
1.084337
50
0
71
7
72
5
7
iso_b_vert
0
LINE
5
1A5
100
AcDbEntity
8
SK2
62
256
6
ByLayer
370
13
48
1
60
0
100
AcDbLine
10
47.9304
20
5.2125
30
0
11
47.9304
21
9.760371
31
0
39
0
210
0
220
0
230
1
0
LINE
5
1A6
100
AcDbEntity
8
SK2
62
256
6
ByLayer
370
13
48
1
60
0
100
AcDbLine
10
26.1804
20
5.2125
30
0
11
26.1804
21
9.760371
31
0
39
0
210
0
220
0
230
1
0
LINE
5
1A7
100
AcDbEntity
8
SK2
62
256
6
ByLayer
370
13
48
1
60
0
100
AcDbLine
10
47.9304
20
7.760371
30
0
11
26.1804
21
7.760371
31
0
39
0
210
0
220
0
230
1
0
SOLID
5
1A8
100
AcDbEntity
8
SK2
62
256
6
ByLayer
370
18
48
1
60
0
100
AcDbTrace
10
47.9304
20
7.760371
30
0
11
44.430402
21
7.299588
31
0
12
44.430398
22
8.221155
32
0
13
44.430398
23
8.221155
33
0
39
0
210
0
220
0
230
1
0
SOLID
5
1A9
100
AcDbEntity
8
SK2
62
256
6
ByLayer
370
18
48
1
60
0
100
AcDbTrace
10
26.1804
20
7.760371
30
0
11
29.680398
21
8.221155
31
0
12
29.680402
22
7.299588
32
0
13
29.680402
23
7.299588
33
0
39
0
210
0
220
0
230
1
0
ENDBLK
5
1AB
100
AcDbEntity
8
0
100
AcDbBlockEnd
0
BLOCK
5
1B0
100
AcDbEntity
8
0
100
AcDbBlockBegin
2
*D11
70
1
10
0
20
0
30
0
3
*D11
0
LINE
5
1B2
100
AcDbEntity
8
0
62
256
6
ByLayer
370
-2
48
1
60
0
100
AcDbLine
10
-40
20
-6.5875
30
0
11
-40
21
-27.690158
31
0
39
0
210
0
220
0
230
1
0
LINE
5
1B3
100
AcDbEntity
8
0
62
256
6
ByLayer
370
-2
48
1
60
0
100
AcDbLine
10
47.9304
20
-5.2125
30
0
11
47.9304
21
-27.690158
31
0
39
0
210
0
220
0
230
1
0
LINE
5
1B4
100
AcDbEntity
8
0
62
256
6
ByLayer
370
-2
48
1
60
0
100
AcDbLine
10
-36.5
20
-25.690158
30
0
11
44.4304
21
-25.690158
31
0
39
0
210
0
220
0
230
1
0
SOLID
5
1B5
100
AcDbEntity
8
0
62
256
6
ByLayer
370
-1
48
1
60
0
100
AcDbTrace
10
-36.5
20
-25.106825
30
0
11
-36.5
21
-26.273491
31
0
12
-40
22
-25.690158
32
0
13
-40
23
-25.690158
33
0
39
0
210
0
220
0
230
1
0
SOLID
5
1B6
100
AcDbEntity
8
0
62
256
6
ByLayer
370
-1
48
1
60
0
100
AcDbTrace
10
44.4304
20
-26.273491
30
0
11
44.4304
21
-25.106825
31
0
12
47.9304
22
-25.690158
32
0
13
47.9304
23
-25.690158
33
0
39
0
210
0
220
0
230
1
0
MTEXT
5
1B7
100
AcDbEntity
8
0
62
256
6
ByLayer
370
18
48
1
60
0
100
AcDbMText
10
3.9652
20
-18.690158
30
0
210
0
220
0
230
1
1
\A1;87.93
40
3.5
41
0
44
1
50
0
71
5
72
5
7
iso_b_vert
0
POINT
5
1B8
100
AcDbEntity
8
Defpoints
62
0
6
ByLayer
370
-1
48
1
60
0
100
AcDbPoint
10
-40
20
-5
30
0
39
0
210
0
220
0
230
1
50
360
0
POINT
5
1B9
100
AcDbEntity
8
Defpoints
62
0
6
ByLayer
370
-1
48
1
60
0
100
AcDbPoint
10
47.9304
20
-3.625
30
0
39
0
210
0
220
0
230
1
50
360
0
POINT
5
1BA
100
AcDbEntity
8
Defpoints
62
0
6
ByLayer
370
-1
48
1
60
0
100
AcDbPoint
10
47.9304
20
-25.690158
30
0
39
0
210
0
220
0
230
1
50
360
0
ENDBLK
5
1B1
100
AcDbEntity
8
0
100
AcDbBlockEnd
0
BLOCK
5
1C2
100
AcDbEntity
8
0
100
AcDbBlockBegin
2
_U5
70
0
10
0
20
0
30
0
3
_U5
0
MTEXT
5
1BC
100
AcDbEntity
8
SK2
62
256
6
ByLayer
370
13
48
1
60
0
100
AcDbMText
10
-1.172099
20
-24.657524
30
0
210
0
220
0
230
1
1
\W0.7317;87,93
40
3.5
41
0
44
1.084337
50
0
71
7
72
5
7
iso_b_vert
0
LINE
5
1BD
100
AcDbEntity
8
SK2
62
256
6
ByLayer
370
13
48
1
60
0
100
AcDbLine
10
-40
20
-6.5875
30
0
11
-40
21
-27.690158
31
0
39
0
210
0
220
0
230
1
0
LINE
5
1BE
100
AcDbEntity
8
SK2
62
256
6
ByLayer
370
13
48
1
60
0
100
AcDbLine
10
47.9304
20
-5.2125
30
0
11
47.9304
21
-27.690158
31
0
39
0
210
0
220
0
230
1
0
LINE
5
1BF
100
AcDbEntity
8
SK2
62
256
6
ByLayer
370
13
48
1
60
0
100
AcDbLine
10
-40
20
-25.690158
30
0
11
47.9304
21
-25.690158
31
0
39
0
210
0
220
0
230
1
0
SOLID
5
1C0
100
AcDbEntity
8
SK2
62
256
6
ByLayer
370
18
48
1
60
0
100
AcDbTrace
10
-40
20
-25.690158
30
0
11
-36.500002
21
-25.229374
31
0
12
-36.499998
22
-26.150942
32
0
13
-36.499998
23
-26.150942
33
0
39
0
210
0
220
0
230
1
0
SOLID
5
1C1
100
AcDbEntity
8
SK2
62
256
6
ByLayer
370
18
48
1
60
0
100
AcDbTrace
10
47.9304
20
-25.690158
30
0
11
44.430402
21
-26.150942
31
0
12
44.430398
22
-25.229374
32
0
13
44.430398
23
-25.229374
33
0
39
0
210
0
220
0
230
1
0
ENDBLK
5
1C3
100
AcDbEntity
8
0
100
AcDbBlockEnd
0
ENDSEC
0
SECTION
2
ENTITIES
0
ARC
5
C0
100
AcDbEntity
8
SK2
62
256
6
ByLayer
370
13
48
1
60
0
100
AcDbCircle
39
0
10
29.8054
20
0
30
0
40
18.9528055793052
210
0
220
0
230
1
100
AcDbArc
50
183.249422
51
225
0
ARC
5
C1
100
AcDbEntity
8
SK2
62
256
6
ByLayer
370
13
48
1
60
0
100
AcDbCircle
39
0
10
29.8054
20
0
30
0
40
18.9528055793052
210
0
220
0
230
1
100
AcDbArc
50
135
51
163.364958
0
POINT
5
70
100
AcDbEntity
8
80
62
256
6
ByLayer
370
18
48
1
60
0
100
AcDbPoint
10
0
20
0
30
0
39
0
210
0
220
0
230
1
50
360
0
POINT
5
72
100
AcDbEntity
8
81
62
256
6
ByLayer
370
18
48
1
60
0
100
AcDbPoint
10
49
20
0
30
0
39
0
210
0
220
0
230
1
50
360
0
POINT
5
74
100
AcDbEntity
8
1
62
256
6
ByLayer
370
18
48
1
60
1
100
AcDbPoint
10
47.9304
20
-3.625
30
0
39
0
210
0
220
0
230
1
50
360
0
POINT
5
76
100
AcDbEntity
8
1
62
256
6
ByLayer
370
18
48
1
60
1
100
AcDbPoint
10
-40
20
-5
30
0
39
0
210
0
220
0
230
1
50
360
0
POINT
5
77
100
AcDbEntity
8
1
62
256
6
ByLayer
370
18
48
1
60
1
100
AcDbPoint
10
24.91
20
4.895
30
0
39
0
210
0
220
0
230
1
50
360
0
POINT
5
78
100
AcDbEntity
8
1
62
256
6
ByLayer
370
18
48
1
60
1
100
AcDbPoint
10
47.9304
20
-3.625
30
0
39
0
210
0
220
0
230
1
50
360
0
POINT
5
79
100
AcDbEntity
8
1
62
256
6
ByLayer
370
18
48
1
60
1
100
AcDbPoint
10
47.9304
20
3.625
30
0
39
0
210
0
220
0
230
1
50
360
0
POINT
5
7A
100
AcDbEntity
8
1
62
256
6
ByLayer
370
18
48
1
60
1
100
AcDbPoint
10
26.1804
20
3.625
30
0
39
0
210
0
220
0
230
1
50
360
0
POINT
5
7B
100
AcDbEntity
8
1
62
256
6
ByLayer
370
18
48
1
60
1
100
AcDbPoint
10
-40
20
-5
30
0
39
0
210
0
220
0
230
1
50
360
0
POINT
5
7C
100
AcDbEntity
8
1
62
256
6
ByLayer
370
18
48
1
60
1
100
AcDbPoint
10
47.9304
20
-3.625
30
0
39
0
210
0
220
0
230
1
50
360
0
SPLINE
5
C2
100
AcDbEntity
8
SK1
62
256
6
ByLayer
370
18
48
1
60
0
100
AcDbSpline
70
4
71
3
72
8
73
4
40
0
40
0
40
0
40
0
40
1
40
1
40
1
40
1
41
1
10
-39.35
20
-4.00844317174824
30
0
41
1
10
-39.5672421985042
20
-3.78735876718574
30
0
41
1
10
-39.784014693674
20
-3.56583348867247
30
0
41
1
10
-40
20
-3.34356933727892
30
0
0
SPLINE
5
C3
100
AcDbEntity
8
SK1
62
256
6
ByLayer
370
18
48
1
60
0
100
AcDbSpline
70
4
71
3
72
12
73
8
40
0
40
0
40
0
40
0
40
0.499999999999997
40
0.499999999999997
40
0.749999999999998
40
0.749999999999998
40
1
40
1
40
1
40
1
41
1
10
-39.35
20
4.29176833742352
30
0
41
1
10
-39.326410372972
20
4.31577517716849
30
0
41
1
10
-39.303688617819
20
4.33966178681507
30
0
41
1
10
-39.275599229617
20
4.37022783167234
30
0
41
1
10
-39.2670477807071
20
4.37975064673677
30
0
41
1
10
-39.2542670006876
20
4.39463774539476
30
0
41
1
10
-39.25
20
4.40006702508276
30
0
41
1
10
-39.25
20
4.40114409350409
30
0
0
SPLINE
5
C4
100
AcDbEntity
8
SK1
62
256
6
ByLayer
370
18
48
1
60
0
100
AcDbSpline
70
4
71
3
72
12
73
8
40
0
40
0
40
0
40
0
40
0.25
40
0.25
40
0.499999999999999
40
0.499999999999999
40
1
40
1
40
1
40
1
41
1
10
-39.25
20
-4.14615144439637
30
0
41
1
10
-39.25
20
-4.14035200189733
30
0
41
1
10
-39.254235624227
20
-4.13058034415869
30
0
41
1
10
-39.2670201311554
20
-4.1084702865418
30
0
41
1
10
-39.2754786511826
20
-4.09615013270178
30
0
41
1
10
-39.3037388067419
20
-4.05852825154295
30
0
41
1
10
-39.3264172660865
20
-4.03244299646522
30
0
41
1
10
-39.35
20
-4.00844317174827
30
0
0
SPLINE
5
C5
100
AcDbEntity
8
SK1
62
256
6
ByLayer
370
18
48
1
60
0
100
AcDbSpline
70
4
71
3
72
12
73
8
40
0
40
0
40
0
40
0
40
0.499999999999996
40
0.499999999999996
40
0.749999999999998
40
0.749999999999998
40
1
40
1
40
1
40
1
41
1
10
-39.35
20
-4.29176833742352
30
0
41
1
10
-39.326410372972
20
-4.31577517716849
30
0
41
1
10
-39.303688617819
20
-4.33966178681507
30
0
41
1
10
-39.275599229617
20
-4.37022783167234
30
0
41
1
10
-39.2670477807071
20
-4.3797506467368
30
0
41
1
10
-39.2542670006876
20
-4.39463774539476
30
0
41
1
10
-39.25
20
-4.40006702508276
30
0
41
1
10
-39.25
20
-4.40114409350409
30
0
0
SPLINE
5
C6
100
AcDbEntity
8
SK1
62
256
6
ByLayer
370
18
48
1
60
0
100
AcDbSpline
70
4
71
3
72
8
73
4
40
0
40
0
40
0
40
0
40
1
40
1
40
1
40
1
41
1
10
-40
20
3.62689450295417
30
0
41
1
10
-39.784012477913
20
3.84916093452247
30
0
41
1
10
-39.5672333274797
20
4.07069296078086
30
0
41
1
10
-39.35
20
4.29176833742349
30
0
0
SPLINE
5
C7
100
AcDbEntity
8
SK1
62
256
6
ByLayer
370
18
48
1
60
0
100
AcDbSpline
70
4
71
3
72
8
73
4
40
0
40
0
40
0
40
0
40
1
40
1
40
1
40
1
41
1
10
-40
20
-3.62689450295417
30
0
41
1
10
-39.784012477913
20
-3.84916093452247
30
0
41
1
10
-39.5672333274797
20
-4.07069296078086
30
0
41
1
10
-39.35
20
-4.29176833742349
30
0
0
SPLINE
5
C8
100
AcDbEntity
8
1
62
256
6
ByLayer
370
18
48
1
60
0
100
AcDbSpline
70
4
71
3
72
22
73
18
40
0
40
0
40
0
40
0
40
0.125
40
0.125
40
0.187499999999998
40
0.187499999999998
40
0.249999999999996
40
0.249999999999996
40
0.374999999999997
40
0.374999999999997
40
0.499999999999997
40
0.499999999999997
40
0.624999999999998
40
0.624999999999998
40
0.749999999999999
40
0.749999999999999
40
1
40
1
40
1
40
1
41
1
10
44.3957499335577
20
0.561911067788458
30
0
41
1
10
44.4403993431913
20
0.364756500572213
30
0
41
1
10
44.5063796393811
20
0.172592130768436
30
0
41
1
10
44.6320339039846
20
-0.109411948700114
30
0
41
1
10
44.6784875307627
20
-0.202360189261327
30
0
41
1
10
44.77705751876
20
-0.381683278812488
30
0
41
1
10
44.829454164647
20
-0.468725501100778
30
0
41
1
10
44.9947507160189
20
-0.723028192678584
30
0
41
1
10
45.1156884528522
20
-0.883522586213076
30
0
41
1
10
45.3750290470921
20
-1.18980960563556
30
0
41
1
10
45.5104931799285
20
-1.33213474799163
30
0
41
1
10
45.7905444279584
20
-1.59973230339111
30
0
41
1
10
45.9351746660563
20
-1.72492766122636
30
0
41
1
10
46.2322019802858
20
-1.96080654866967
30
0
41
1
10
46.3849910668662
20
-2.07176300099644
30
0
41
1
10
46.8508239492016
20
-2.38374423139842
30
0
41
1
10
47.1682267946748
20
-2.56242119900875
30
0
41
1
10
47.4912030574738
20
-2.7172416357339
30
0
0
SPLINE
5
C9
100
AcDbEntity
8
1
62
256
6
ByLayer
370
18
48
1
60
0
100
AcDbSpline
70
4
71
3
72
8
73
4
40
0
40
0
40
0
40
0
40
1
40
1
40
1
40
1
41
1
10
48.989469941907
20
-0.117791314723377
30
0
41
1
10
48.9901558495774
20
-0.0961011934167288
30
0
41
1
10
48.9941333436049
20
-0.0696446717649053
30
0
41
1
10
48.9999546607411
20
-0.0417770025317168
30
0
0
SPLINE
5
CA
100
AcDbEntity
8
1
62
256
6
ByLayer
370
18
48
1
60
0
100
AcDbSpline
70
4
71
3
72
8
73
4
40
0
40
0
40
0
40
0
40
1
40
1
40
1
40
1
41
1
10
48.989469941907
20
0.117791314723519
30
0
41
1
10
48.990155849577
20
0.0961011934277565
30
0
41
1
10
48.9941333436009
20
0.0696446717914512
30
0
41
1
10
48.9999546607323
20
0.0417770025738662
30
0
0
SPLINE
5
CB
100
AcDbEntity
8
1
62
256
6
ByLayer
370
18
48
1
60
0
100
AcDbSpline
70
4
71
3
72
8
73
4
40
0
40
0
40
0
40
0
40
1
40
1
40
1
40
1
41
1
10
48.9555114106828
20
-0.810424469246783
30
0
41
1
10
48.9708539460805
20
-0.579340850534521
30
0
41
1
10
48.9821753999079
20
-0.34846303289487
30
0
41
1
10
48.989469941907
20
-0.11779131472349
30
0
0
SPLINE
5
CC
100
AcDbEntity
8
1
62
256
6
ByLayer
370
18
48
1
60
0
100
AcDbSpline
70
4
71
3
72
10
73
6
40
0
40
0
40
0
40
0
40
0.5
40
0.5
40
1
40
1
40
1
40
1
41
1
10
26.1941799845999
20
3.29374560481312
30
0
41
1
10
25.9654924675607
20
3.5379822622761
30
0
41
1
10
25.7374150744952
20
3.7813741032555
30
0
41
1
10
25.281319117524
20
4.26592489997219
30
0
41
1
10
25.0534718770263
20
4.50703960002471
30
0
41
1
10
24.8261488815089
20
4.74639736874639
30
0
0
SPLINE
5
CD
100
AcDbEntity
8
1
62
256
6
ByLayer
370
18
48
1
60
0
100
AcDbSpline
70
4
71
3
72
8
73
4
40
0
40
0
40
0
40
0
40
1
40
1
40
1
40
1
41
1
10
47.7257395707105
20
3.61984325637533
30
0
41
1
10
47.5971130024264
20
3.62312610198452
30
0
41
1
10
47.468518237275
20
3.62472552671696
30
0
41
1
10
47.3399234402888
20
3.62464512136378
30
0
0
SPLINE
5
CE
100
AcDbEntity
8
1
62
256
6
ByLayer
370
18
48
1
60
0
100
AcDbSpline
70
4
71
3
72
8
73
4
40
0
40
0
40
0
40
0
40
1
40
1
40
1
40
1
41
1
10
26.6483367937188
20
-3.43362804562401
30
0
41
1
10
26.6208602481319
20
-3.43781626189613
30
0
41
1
10
26.5933786043576
20
-3.44193253567607
30
0
41
1
10
26.5658915261683
20
-3.44597654844841
30
0
0
SPLINE
5
CF
100
AcDbEntity
8
1
62
256
6
ByLayer
370
18
48
1
60
0
100
AcDbSpline
70
4
71
3
72
10
73
6
40
0
40
0
40
0
40
0
40
0.5
40
0.5
40
1
40
1
40
1
40
1
41
1
10
25.5947220200252
20
-1.41499665411604
30
0
41
1
10
25.3432860395768
20
-1.38123190550786
30
0
41
1
10
25.101525130282
20
-1.30976149620176
30
0
41
1
10
24.6290845509171
20
-1.09546703608328
30
0
41
1
10
24.3971543634108
20
-0.951695541905536
30
0
41
1
10
24.1724365738154
20
-0.776699515672902
30
0
0
SPLINE
5
D0
100
AcDbEntity
8
1
62
256
6
ByLayer
370
18
48
1
60
0
100
AcDbSpline
70
4
71
3
72
8
73
4
40
0
40
0
40
0
40
0
40
1
40
1
40
1
40
1
41
1
10
48.9999546607358
20
0.0417770025620428
30
0
41
1
10
49.0000151166946
20
0.0139240054567438
30
0
41
1
10
49.0000151076691
20
-0.0139281636238877
30
0
41
1
10
48.9999546607359
20
-0.0417770025395612
30
0
0
SPLINE
5
D1
100
AcDbEntity
8
1
62
256
6
ByLayer
370
18
48
1
60
0
100
AcDbSpline
70
4
71
3
72
28
73
24
40
0
40
0
40
0
40
0
40
0.0149947568555565
40
0.0149947568555565
40
0.0907643909435903
40
0.0907643909435903
40
0.242303659119658
40
0.242303659119658
40
0.318073293207692
40
0.318073293207692
40
0.393842927295726
40
0.393842927295726
40
0.545382195471794
40
0.545382195471794
40
0.621151829559828
40
0.621151829559828
40
0.696921463647862
40
0.696921463647862
40
0.848460731823931
40
0.848460731823931
40
0.924230365911966
40
0.924230365911966
40
1
40
1
40
1
40
1
41
1
10
26.1586894430359
20
-3.59178223566573
30
0
41
1
10
26.1586894430359
20
-3.5921217634922
30
0
41
1
10
26.1586894430359
20
-3.59229799583565
30
0
41
1
10
26.1586894430359
20
-3.59237163854925
30
0
41
1
10
26.1586894430358
20
-3.5881744079235
30
0
41
1
10
26.1586894430358
20
-3.56306836710405
30
0
41
1
10
26.1586894430359
20
-3.52985011739051
30
0
41
1
10
26.1586894430359
20
-3.45583839596813
30
0
41
1
10
26.1586894430359
20
-3.42712188345271
30
0
41
1
10
26.1586894430359
20
-3.36140731780719
30
0
41
1
10
26.1586894430359
20
-3.32422716418583
30
0
41
1
10
26.1586894430359
20
-3.20211710930411
30
0
41
1
10
26.1586894430359
20
-3.10631650102596
30
0
41
1
10
26.1586894430358
20
-2.94148409124131
30
0
41
1
10
26.1586894430358
20
-2.88299048081282
30
0
41
1
10
26.1586894430358
20
-2.75876972443177
30
0
41
1
10
26.1586894430358
20
-2.69275307337887
30
0
41
1
10
26.1586894430359
20
-2.48713878188201
30
0
41
1
10
26.1586894430359
20
-2.33933735568283
30
0
41
1
10
26.1586894430359
20
-2.10192320841148
30
0
41
1
10
26.1586894430359
20
-2.02015610018765
30
0
41
1
10
26.1586894430359
20
-1.85123321888736
30
0
41
1
10
26.1586894430358
20
-1.76367156140648
30
0
41
1
10
26.1586894430358
20
-1.67484041956712
30
0
0
SPLINE
5
D2
100
AcDbEntity
8
1
62
256
6
ByLayer
370
18
48
1
60
0
100
AcDbSpline
70
4
71
3
72
8
73
4
40
0
40
0
40
0
40
0
40
1
40
1
40
1
40
1
41
1
10
26.1586894430359
20
-3.48040212312819
30
0
41
1
10
26.2945439424046
20
-3.47081019653808
30
0
41
1
10
26.4302638104363
20
-3.45933849951453
30
0
41
1
10
26.5658915261683
20
-3.44597654844841
30
0
0
SPLINE
5
D3
100
AcDbEntity
8
1
62
256
6
ByLayer
370
18
48
1
60
0
100
AcDbSpline
70
4
71
3
72
38
73
34
40
0
40
0
40
0
40
0
40
0.124999999999996
40
0.124999999999996
40
0.249999999999991
40
0.249999999999991
40
0.312499999999989
40
0.312499999999989
40
0.374999999999986
40
0.374999999999986
40
0.499999999999982
40
0.499999999999982
40
0.56249999999998
40
0.56249999999998
40
0.624999999999977
40
0.624999999999977
40
0.74999999999998
40
0.74999999999998
40
0.874999999999982
40
0.874999999999982
40
0.890624999999984
40
0.890624999999984
40
0.898437499999985
40
0.898437499999985
40
0.906249999999986
40
0.906249999999986
40
0.914062499999988
40
0.914062499999988
40
0.921874999999989
40
0.921874999999989
40
0.937499999999991
40
0.937499999999991
40
1
40
1
40
1
40
1
41
1
10
44.3957499335577
20
0.561911067788486
30
0
41
1
10
44.551006924121
20
0.468812719247239
30
0
41
1
10
44.7080732683719
20
0.383204497347947
30
0
41
1
10
45.0264081888095
20
0.229383905770561
30
0
41
1
10
45.1877196510402
20
0.161349070149754
30
0
41
1
10
45.4329835923826
20
0.0729442645152574
30
0
41
1
10
45.5155689554526
20
0.0458351500444678
30
0
41
1
10
45.6801974647215
20
-0.0026737993366908
30
0
41
1
10
45.7623482913378
20
-0.0241453204635036
30
0
41
1
10
46.0082993117099
20
-0.0800207211254644
30
0
41
1
10
46.1716197771256
20
-0.10625548920811
30
0
41
1
10
46.4153699468796
20
-0.124653441732278
30
0
41
1
10
46.4964055157259
20
-0.127133662453303
30
0
41
1
10
46.6580408427061
20
-0.124672849019561
30
0
41
1
10
46.7384954273576
20
-0.119711373508466
30
0
41
1
10
46.9751291984343
20
-0.0929881142579063
30
0
41
1
10
47.1277348636398
20
-0.0590809778142329
30
0
41
1
10
47.4212450775897
20
0.0452931745813316
30
0
41
1
10
47.5627360666893
20
0.116433336009578
30
0
41
1
10
47.708915291442
20
0.218513398487147
30
0
41
1
10
47.7250931319353
20
0.230003437498453
30
0
41
1
10
47.7489618944306
20
0.247882385192213
30
0
41
1
10
47.7572442080802
20
0.253388731898582
30
0
41
1
10
47.7709650982666
20
0.268479481797499
30
0
41
1
10
47.775928701168
20
0.27880909977236
30
0
41
1
10
47.7790780732999
20
0.302207726219223
30
0
41
1
10
47.7769377495047
20
0.315143288778359
30
0
41
1
10
47.7738604274606
20
0.340298100527775
30
0
41
1
10
47.7721297804662
20
0.352887658609632
30
0
41
1
10
47.7672438216743
20
0.390636964987152
30
0
41
1
10
47.7639780736845
20
0.415802959810406
30
0
41
1
10
47.7468348402654
20
0.541656733044704
30
0
41
1
10
47.7313447953637
20
0.642413722651554
30
0
41
1
10
47.7143708011404
20
0.743146835177583
30
0
0
SPLINE
5
D4
100
AcDbEntity
8
1
62
256
6
ByLayer
370
18
48
1
60
0
100
AcDbSpline
70
4
71
3
72
10
73
6
40
0
40
0
40
0
40
0
40
0.713757513799358
40
0.713757513799358
40
1
40
1
40
1
40
1
41
1
10
26.1586894430358
20
3.48040212312819
30
0
41
1
10
26.1586894430358
20
3.52995726657153
30
0
41
1
10
26.1586894430358
20
3.5629723079592
30
0
41
1
10
26.1586894430359
20
3.5863442998789
30
0
41
1
10
26.1586894430359
20
3.59040368884411
30
0
41
1
10
26.1586894430359
20
3.59178112312836
30
0
0
SPLINE
5
D5
100
AcDbEntity
8
1
62
256
6
ByLayer
370
18
48
1
60
0
100
AcDbSpline
70
4
71
3
72
14
73
10
40
0
40
0
40
0
40
0
40
0.206559434620203
40
0.206559434620203
40
0.704443387573856
40
0.704443387573856
40
0.953385364050682
40
0.953385364050682
40
1
40
1
40
1
40
1
41
1
10
35.8575742440025
20
-0.0086883102043771
30
0
41
1
10
36.231648369777
20
-0.189295509434203
30
0
41
1
10
36.6041436662764
20
-0.369084596841361
30
0
41
1
10
37.8716528066141
20
-0.974196159315255
30
0
41
1
10
38.7629455122947
20
-1.38752998574847
30
0
41
1
10
40.1099085823713
20
-1.9518256514568
30
0
41
1
10
40.5605644655059
20
-2.13083096223343
30
0
41
1
10
41.0991115707048
20
-2.32900476932104
30
0
41
1
10
41.1839410691634
20
-2.35975536918375
30
0
41
1
10
41.268670785903
20
-2.38999095013659
30
0
0
SPLINE
5
D6
100
AcDbEntity
8
1
62
256
6
ByLayer
370
13
48
1
60
0
100
AcDbSpline
70
4
71
3
72
16
73
12
40
0
40
0
40
0
40
0
40
0.168874170186381
40
0.168874170186381
40
0.584437085093185
40
0.584437085093185
40
0.79221854254659
40
0.79221854254659
40
0.896109271273295
40
0.896109271273295
40
1
40
1
40
1
40
1
41
1
10
41.2686707857821
20
-2.38999095009348
30
0
41
1
10
41.6364337834831
20
-2.5212262275912
30
0
41
1
10
42.0023169643516
20
-2.64275891402045
30
0
41
1
10
43.2647033719689
20
-3.02694413403063
30
0
41
1
10
44.1559239749273
20
-3.2356361941977
30
0
41
1
10
45.4994301705926
20
-3.43626428661693
30
0
41
1
10
45.9484581559636
20
-3.48437758647694
30
0
41
1
10
46.6257848177928
20
-3.52678114330664
30
0
41
1
10
46.8525052842311
20
-3.53594471619286
30
0
41
1
10
47.305873215706
20
-3.54402392331525
30
0
41
1
10
47.5324252327167
20
-3.54295553644343
30
0
41
1
10
47.7590110238319
20
-3.5367547746026
30
0
0
SPLINE
5
D7
100
AcDbEntity
8
1
62
256
6
ByLayer
370
18
48
1
60
0
100
AcDbSpline
70
4
71
3
72
11
73
7
40
0
40
0
40
0
40
0
40
0.269172513282464
40
0.68879340339121
40
0.927121985102696
40
1
40
1
40
1
40
1
41
1
10
26.0553471937806
20
3.5828286776059
30
0
41
1
10
26.0677319548921
20
3.57794642917202
30
0
41
1
10
26.0994514077212
20
3.55095099074234
30
0
41
1
10
26.1422684686601
20
3.46438484840513
30
0
41
1
10
26.1762425357869
20
3.35889458845358
30
0
41
1
10
26.1907733280424
20
3.30644048269303
30
0
41
1
10
26.1941799845999
20
3.2937456048131
30
0
0
SPLINE
5
D8
100
AcDbEntity
8
1
62
256
6
ByLayer
370
18
48
1
60
0
100
AcDbSpline
70
4
71
3
72
52
73
48
40
0
40
0
40
0
40
0
40
0.0093905233383445
40
0.0093905233383445
40
0.0506659181992473
40
0.0506659181992473
40
0.0919413130601502
40
0.0919413130601502
40
0.174492102781956
40
0.174492102781956
40
0.215767497642859
40
0.215767497642859
40
0.257042892503761
40
0.257042892503761
40
0.298318287364664
40
0.298318287364664
40
0.339593682225567
40
0.339593682225567
40
0.38086907708647
40
0.38086907708647
40
0.422144471947373
40
0.422144471947373
40
0.463419866808276
40
0.463419866808276
40
0.504695261669178
40
0.504695261669178
40
0.545970656530081
40
0.545970656530081
40
0.587246051390984
40
0.587246051390984
40
0.628521446251887
40
0.628521446251887
40
0.66979684111279
40
0.66979684111279
40
0.711072235973693
40
0.711072235973693
40
0.752347630834595
40
0.752347630834595
40
0.834898420556399
40
0.834898420556399
40
0.876173815417299
40
0.876173815417299
40
0.917449210278199
40
0.917449210278199
40
0.9587246051391
40
0.9587246051391
40
1
40
1
40
1
40
1
41
1
10
39.9665233793915
20
-2.39056628382568
30
0
41
1
10
39.9233507817676
20
-2.40517467192089
30
0
41
1
10
39.8801657486766
20
-2.41964964317736
30
0
41
1
10
39.6470810662873
20
-2.49699767228518
30
0
41
1
10
39.4571413389837
20
-2.55767061614674
30
0
41
1
10
39.0764819095461
20
-2.67295033110918
30
0
41
1
10
38.8864923865021
20
-2.72777212342282
30
0
41
1
10
38.3169750260374
20
-2.88447065738637
30
0
41
1
10
37.9374851064704
20
-2.97793836496118
30
0
41
1
10
37.3683701051325
20
-3.09925701908583
30
0
41
1
10
37.1788620838862
20
-3.13704102671036
30
0
41
1
10
36.7990290374386
20
-3.20575541622475
30
0
41
1
10
36.6089392904278
20
-3.236709107894
30
0
41
1
10
36.2282786748792
20
-3.29176997816074
30
0
41
1
10
36.0380508362038
20
-3.31600505992256
30
0
41
1
10
35.6583665671154
20
-3.35856559224948
30
0
41
1
10
35.4685001546081
20
-3.37639845855881
30
0
41
1
10
35.0888988352686
20
-3.40428662314048
30
0
41
1
10
34.8992407763676
20
-3.41501551150014
30
0
41
1
10
34.5196190737974
20
-3.42994432913957
30
0
41
1
10
34.3300804539801
20
-3.43400506217023
30
0
41
1
10
33.9501945443552
20
-3.43480980454029
30
0
41
1
10
33.7599616698422
20
-3.43155798445375
30
0
41
1
10
33.3792902251685
20
-3.41844187305912
30
0
41
1
10
33.1889264591121
20
-3.40881224953765
30
0
41
1
10
32.8092477730083
20
-3.38203883154298
30
0
41
1
10
32.619456584264
20
-3.36456461507771
30
0
41
1
10
32.2397889336101
20
-3.32395771288287
30
0
41
1
10
32.0501259995917
20
-3.30072203042533
30
0
41
1
10
31.6704637356383
20
-3.24749531988888
30
0
41
1
10
31.4808135880758
20
-3.21737894893062
30
0
41
1
10
31.1009786637518
20
-3.1506294156512
30
0
41
1
10
30.9107363782331
20
-3.11413981597866
30
0
41
1
10
30.5299953127489
20
-3.03471436825677
30
0
41
1
10
30.3396637500432
20
-2.99198431858593
30
0
41
1
10
29.9596445315611
20
-2.8991014190637
30
0
41
1
10
29.7698214687104
20
-2.84953418864103
30
0
41
1
10
29.1997436764267
20
-2.69508324180509
30
0
41
1
10
28.8197485873812
20
-2.58150154810841
30
0
41
1
10
28.249054031262
20
-2.39493293251104
30
0
41
1
10
28.0587201593178
20
-2.33067790215989
30
0
41
1
10
27.6785778420661
20
-2.19643662549836
30
0
41
1
10
27.4886610241919
20
-2.1265070360341
30
0
41
1
10
27.1087259373212
20
-1.98342062342402
30
0
41
1
10
26.9190650376995
20
-1.9096778435989
30
0
41
1
10
26.5390539493421
20
-1.75947686820331
30
0
41
1
10
26.3489126177371
20
-1.68269695028391
30
0
41
1
10
26.1586894430358
20
-1.60402156121802
30
0
0
SPLINE
5
D9
100
AcDbEntity
8
1
62
256
6
ByLayer
370
18
48
1
60
0
100
AcDbSpline
70
4
71
3
72
14
73
10
40
0
40
0
40
0
40
0
40
0.285838240800451
40
0.285838240800451
40
0.571676481600901
40
0.571676481600901
40
0.857514722401352
40
0.857514722401352
40
1
40
1
40
1
40
1
41
1
10
15.6276200333834
20
4.13937526056623
30
0
41
1
10
15.2495270313052
20
4.27432366051988
30
0
41
1
10
14.8764889844146
20
4.39518538307095
30
0
41
1
10
14.1332300715486
20
4.60060943810151
30
0
41
1
10
13.7618003701578
20
4.68534917727513
30
0
41
1
10
13.0246944626405
20
4.81265747860556
30
0
41
1
10
12.6584068237387
20
4.8556069902599
30
0
41
1
10
12.1102614236331
20
4.88861782742663
30
0
41
1
10
11.9280365805273
20
4.89442410822039
30
0
41
1
10
11.7458629333723
20
4.89497490897276
30
0
0
SPLINE
5
DA
100
AcDbEntity
8
1
62
256
6
ByLayer
370
18
48
1
60
0
100
AcDbSpline
70
4
71
3
72
30
73
26
40
0
40
0
40
0
40
0
40
0.0452627244358025
40
0.0452627244358025
40
0.0819833888805792
40
0.0819833888805792
40
0.118704053325356
40
0.118704053325356
40
0.265586711104463
40
0.265586711104463
40
0.339028039994017
40
0.339028039994017
40
0.412469368883571
40
0.412469368883571
40
0.485910697773125
40
0.485910697773125
40
0.559352026662678
40
0.559352026662678
40
0.706234684441786
40
0.706234684441786
40
0.77967601333134
40
0.77967601333134
40
0.853117342220893
40
0.853117342220893
40
1
40
1
40
1
40
1
41
1
10
24.7286584901455
20
-4.8950038492969
30
0
41
1
10
24.720320365197
20
-4.89502055430441
30
0
41
1
10
24.7120097175801
20
-4.8917179252721
30
0
41
1
10
24.6968521583272
20
-4.87962707266527
30
0
41
1
10
24.6899927947555
20
-4.87195361896707
30
0
41
1
10
24.6762702923064
20
-4.85224411237027
30
0
41
1
10
24.6694060175612
20
-4.84022380353645
30
0
41
1
10
24.6351202262936
20
-4.76950434286559
30
0
41
1
10
24.608496090519
20
-4.67927082201663
30
0
41
1
10
24.56749455399
20
-4.49334886035106
30
0
41
1
10
24.5534752959582
20
-4.4223953314258
30
0
41
1
10
24.5260184774483
20
-4.26598377553091
30
0
41
1
10
24.5126420755515
20
-4.18047068123533
30
0
41
1
10
24.4858583693862
20
-3.9951896971821
30
0
41
1
10
24.4722448577316
20
-3.89543138908823
30
0
41
1
10
24.4446620881952
20
-3.68155696696007
30
0
41
1
10
24.430897734546
20
-3.56694132361903
30
0
41
1
10
24.3900220052939
20
-3.20393800500705
30
0
41
1
10
24.3628586032576
20
-2.94104386794018
30
0
41
1
10
24.3221591655976
20
-2.51634547954032
30
0
41
1
10
24.30863640063
20
-2.36967629123058
30
0
41
1
10
24.2812544089354
20
-2.06582443242581
30
0
41
1
10
24.267579002901
20
-1.91010401372674
30
0
41
1
10
24.2266045492153
20
-1.43711499100326
30
0
41
1
10
24.1998440475757
20
-1.11188873045808
30
0
41
1
10
24.1724365738021
20
-0.776699515676086
30
0
0
SPLINE
5
DB
100
AcDbEntity
8
1
62
256
6
ByLayer
370
18
48
1
60
0
100
AcDbSpline
70
4
71
3
72
10
73
6
40
0
40
0
40
0
40
0
40
0.5
40
0.5
40
1
40
1
40
1
40
1
41
1
10
47.8372517724658
20
0.847173014973151
30
0
41
1
10
48.0236649655307
20
0.840652328164481
30
0
41
1
10
48.2100412243163
20
0.834531331982276
30
0
41
1
10
48.5827763774533
20
0.822477251814746
30
0
41
1
10
48.7691585035908
20
0.81629276107904
30
0
41
1
10
48.9555114106827
20
0.810424469246556
30
0
0
SPLINE
5
DC
100
AcDbEntity
8
1
62
256
6
ByLayer
370
18
48
1
60
0
100
AcDbSpline
70
4
71
3
72
80
73
76
40
0
40
0
40
0
40
0
40
0.0624999999999962
40
0.0624999999999962
40
0.124999999999992
40
0.124999999999992
40
0.187499999999989
40
0.187499999999989
40
0.249999999999985
40
0.249999999999985
40
0.281249999999983
40
0.281249999999983
40
0.312499999999982
40
0.312499999999982
40
0.374999999999978
40
0.374999999999978
40
0.406249999999976
40
0.406249999999976
40
0.437499999999975
40
0.437499999999975
40
0.468749999999973
40
0.468749999999973
40
0.484374999999973
40
0.484374999999973
40
0.499999999999972
40
0.499999999999972
40
0.515624999999971
40
0.515624999999971
40
0.523437499999971
40
0.523437499999971
40
0.53124999999997
40
0.53124999999997
40
0.53906249999997
40
0.53906249999997
40
0.54687499999997
40
0.54687499999997
40
0.562499999999969
40
0.562499999999969
40
0.570312499999969
40
0.570312499999969
40
0.578124999999968
40
0.578124999999968
40
0.585937499999968
40
0.585937499999968
40
0.593749999999967
40
0.593749999999967
40
0.624999999999965
40
0.624999999999965
40
0.640624999999964
40
0.640624999999964
40
0.656249999999963
40
0.656249999999963
40
0.671874999999962
40
0.671874999999962
40
0.673828124999962
40
0.673828124999962
40
0.675781249999962
40
0.675781249999962
40
0.679687499999962
40
0.679687499999962
40
0.687499999999964
40
0.687499999999964
40
0.718749999999967
40
0.718749999999967
40
0.74999999999997
40
0.74999999999997
40
0.812499999999977
40
0.812499999999977
40
0.874999999999984
40
0.874999999999984
40
0.906249999999988
40
0.906249999999988
40
0.937499999999992
40
0.937499999999992
40
1
40
1
40
1
40
1
41
1
10
15.6276200333834
20
-4.1393752605662
30
0
41
1
10
15.249527031284
20
-4.27432366052747
30
0
41
1
10
14.8764889843725
20
-4.39518538308454
30
0
41
1
10
14.1332300714651
20
-4.6006094381226
30
0
41
1
10
13.7618003700535
20
-4.68534917729767
30
0
41
1
10
13.0246944624958
20
-4.81265747862599
30
0
41
1
10
12.6584068235738
20
-4.8556069902769
30
0
41
1
10
11.9268060118166
20
-4.89966602143105
30
0
41
1
10
11.5614891416733
20
-4.90086912516716
30
0
41
1
10
11.0134040963037
20
-4.87046004787427
30
0
41
1
10
10.8307098103359
20
-4.85494022553075
30
0
41
1
10
10.4654270116613
20
-4.81263243899639
30
0
41
1
10
10.282501376992
20
-4.78577833783967
30
0
41
1
10
9.73803044614289
20
-4.68768190328532
30
0
41
1
10
9.37992368743002
20
-4.5993876175886
30
0
41
1
10
8.85579989619441
20
-4.42366213275614
30
0
41
1
10
8.68395028257862
20
-4.35794057375676
30
0
41
1
10
8.35066585568001
20
-4.21054275204466
30
0
41
1
10
8.18883578919076
20
-4.12880075855554
30
0
41
1
10
7.87893605128539
20
-3.94469499082632
30
0
41
1
10
7.7307330314666
20
-3.84248167564113
30
0
41
1
10
7.52475498279134
20
-3.66690219180404
30
0
41
1
10
7.45885758017243
20
-3.60462018037788
30
0
41
1
10
7.3345347523699
20
-3.47030559979896
30
0
41
1
10
7.27698825634022
20
-3.39913679210707
30
0
41
1
10
7.17503473122881
20
-3.24858322244236
30
0
41
1
10
7.13040156273371
20
-3.16900782027193
30
0
41
1
10
7.07610665874165
20
-3.04141291065903
30
0
41
1
10
7.06010426585863
20
-2.99732521697038
30
0
41
1
10
7.03356370501498
20
-2.90780243165494
30
0
41
1
10
7.02293799825469
20
-2.86220682595581
30
0
41
1
10
7.00741290909798
20
-2.76925892841956
30
0
41
1
10
7.00250568642414
20
-2.7219075693483
30
0
41
1
10
6.99897162665877
20
-2.62533743009345
30
0
41
1
10
7.00040398555871
20
-2.5758141979172
30
0
41
1
10
7.01455964497305
20
-2.42811321674995
30
0
41
1
10
7.03694137807213
20
-2.32997703532132
30
0
41
1
10
7.08923466377217
20
-2.1835390542133
30
0
41
1
10
7.10994312431723
20
-2.13457794020087
30
0
41
1
10
7.15656958368993
20
-2.03883372623602
30
0
41
1
10
7.18248024747649
20
-1.99194833820093
30
0
41
1
10
7.23896288091811
20
-1.89998222291925
30
0
41
1
10
7.26952921066078
20
-1.85489833736594
30
0
41
1
10
7.33490659097106
20
-1.76640650404497
30
0
41
1
10
7.36982540905331
20
-1.72289748904285
30
0
41
1
10
7.55127028712019
20
-1.51250374647648
30
0
41
1
10
7.71944319282335
20
-1.36383504005207
30
0
41
1
10
7.99308636335323
20
-1.15980580737138
30
0
41
1
10
8.08783560691549
20
-1.09524376429286
30
0
41
1
10
8.28111982676131
20
-0.9731528607889
30
0
41
1
10
8.37997030647415
20
-0.915408071411463
30
0
41
1
10
8.58137779868949
20
-0.805521937754349
30
0
41
1
10
8.68402031843868
20
-0.753348342288632
30
0
41
1
10
8.80091138457325
20
-0.697601963573248
30
0
41
1
10
8.81387111709225
20
-0.691348821291257
30
0
41
1
10
8.8398762506838
20
-0.679013401133403
30
0
41
1
10
8.85274706527775
20
-0.672575436108389
30
0
41
1
10
8.89313076979875
20
-0.656865194184832
30
0
41
1
10
8.92211511600618
20
-0.655317936492793
30
0
41
1
10
9.00823492353857
20
-0.660978326690525
30
0
41
1
10
9.06554480133281
20
-0.66604320371826
30
0
41
1
10
9.35215880470565
20
-0.690553911366976
30
0
41
1
10
9.58083213826598
20
-0.715632208276787
30
0
41
1
10
10.0367479847442
20
-0.776510646558535
30
0
41
1
10
10.2642394345649
20
-0.812366043462475
30
0
41
1
10
10.9413770887296
20
-0.934979355200397
30
0
41
1
10
11.3865686554214
20
-1.03702075402742
30
0
41
1
10
12.2652933092999
20
-1.27690495418139
30
0
41
1
10
12.6988201146194
20
-1.41475865316841
30
0
41
1
10
13.3413348630966
20
-1.64322165666709
30
0
41
1
10
13.5542250528232
20
-1.72293993290492
30
0
41
1
10
13.9776620232197
20
-1.88843595596899
30
0
41
1
10
14.1880883054824
20
-1.97417455415686
30
0
41
1
10
14.8132458887797
20
-2.23705244695668
30
0
41
1
10
15.2229106208566
20
-2.4202450924079
30
0
41
1
10
15.6276200333834
20
-2.60529249913569
30
0
0
SPLINE
5
DD
100
AcDbEntity
8
1
62
256
6
ByLayer
370
18
48
1
60
0
100
AcDbSpline
70
4
71
3
72
8
73
4
40
0
40
0
40
0
40
0
40
1
40
1
40
1
40
1
41
1
10
47.9087107116998
20
3.52604983030983
30
0
41
1
10
47.8407973639042
20
3.57671957277611
30
0
41
1
10
47.7799818296391
20
3.60822017715006
30
0
41
1
10
47.7257395707105
20
3.61984325637533
30
0
0
SPLINE
5
DE
100
AcDbEntity
8
1
62
256
6
ByLayer
370
18
48
1
60
0
100
AcDbSpline
70
4
71
3
72
8
73
4
40
0
40
0
40
0
40
0
40
1
40
1
40
1
40
1
41
1
10
26.5658915261683
20
3.44597654844838
30
0
41
1
10
26.5727922068627
20
3.38821453160412
30
0
41
1
10
26.5799151402081
20
3.31632789461315
30
0
41
1
10
26.5864433393897
20
3.23053504262484
30
0
0
SPLINE
5
DF
100
AcDbEntity
8
1
62
256
6
ByLayer
370
18
48
1
60
0
100
AcDbSpline
70
4
71
3
72
8
73
4
40
0
40
0
40
0
40
0
40
1
40
1
40
1
40
1
41
1
10
47.7590110238319
20
-3.5367547746026
30
0
41
1
10
47.7479349388461
20
-3.56447527292846
30
0
41
1
10
47.7368440102654
20
-3.59217190597224
30
0
41
1
10
47.7257395707105
20
-3.61984325637533
30
0
0
SPLINE
5
E0
100
AcDbEntity
8
1
62
256
6
ByLayer
370
18
48
1
60
0
100
AcDbSpline
70
4
71
3
72
14
73
10
40
0
40
0
40
0
40
0
40
0.25
40
0.25
40
0.5
40
0.5
40
0.75
40
0.75
40
1
40
1
40
1
40
1
41
1
10
47.7686728014189
20
-3.44241253754186
30
0
41
1
10
47.771969646693
20
-3.44204175743181
30
0
41
1
10
47.7746063765615
20
-3.44339099389006
30
0
41
1
10
47.7781619182359
20
-3.45053782350854
30
0
41
1
10
47.7790248289762
20
-3.45643147109999
30
0
41
1
10
47.7778817377616
20
-3.47358374650926
30
0
41
1
10
47.7758196593128
20
-3.48479839445216
30
0
41
1
10
47.7689815045246
20
-3.50989283554543
30
0
41
1
10
47.7642480667624
20
-3.52364784738293
30
0
41
1
10
47.7590110238319
20
-3.5367547746026
30
0
0
SPLINE
5
E1
100
AcDbEntity
8
1
62
256
6
ByLayer
370
18
48
1
60
0
100
AcDbSpline
70
4
71
3
72
40
73
36
40
0
40
0
40
0
40
0
40
0.0037084013152365
40
0.0037084013152365
40
0.0590579345755021
40
0.0590579345755021
40
0.114407467835768
40
0.114407467835768
40
0.169757001096033
40
0.169757001096033
40
0.225106534356299
40
0.225106534356299
40
0.280456067616564
40
0.280456067616564
40
0.33580560087683
40
0.33580560087683
40
0.446504667397361
40
0.446504667397361
40
0.501854200657625
40
0.501854200657625
40
0.557203733917889
40
0.557203733917889
40
0.612553267178153
40
0.612553267178153
40
0.667902800438417
40
0.667902800438417
40
0.723252333698681
40
0.723252333698681
40
0.778601866958945
40
0.778601866958945
40
0.833951400219208
40
0.833951400219208
40
0.889300933479472
40
0.889300933479472
40
1
40
1
40
1
40
1
41
1
10
34.0973617348752
20
3.43443651839365
30
0
41
1
10
34.1100907375052
20
3.43444615289533
30
0
41
1
10
34.1228199781872
20
3.43443950090872
30
0
41
1
10
34.3255418564043
20
3.43407236672155
30
0
41
1
10
34.515488327437
20
3.43006455151883
30
0
41
1
10
34.8964105162949
20
3.41516826968106
30
0
41
1
10
35.0865243376489
20
3.40443432933782
30
0
41
1
10
35.4666352611428
20
3.37656191096355
30
0
41
1
10
35.6565193384207
20
3.35874842805481
30
0
41
1
10
36.0358225646132
20
3.31627880653036
30
0
41
1
10
36.2256344968792
20
3.29211326925687
30
0
41
1
10
36.6051948398776
20
3.23728924971351
30
0
41
1
10
36.7950512151712
20
3.20642851391329
30
0
41
1
10
37.1750812530861
20
3.13777058231548
30
0
41
1
10
37.3649987068816
20
3.09995059095331
30
0
41
1
10
37.9361817400219
20
2.97826590041572
30
0
41
1
10
38.3162769544766
20
2.88464457209537
30
0
41
1
10
38.8854328947289
20
2.72807267846017
30
0
41
1
10
39.0750775375776
20
2.67335457192806
30
0
41
1
10
39.4547136806492
20
2.55842666398598
30
0
41
1
10
39.6444788367518
20
2.4978385651454
30
0
41
1
10
40.0245289656064
20
2.371765758045
30
0
41
1
10
40.2145708044748
20
2.30593510739823
30
0
41
1
10
40.5951469759314
20
2.16960579494671
30
0
41
1
10
40.7855212904625
20
2.09977507640332
30
0
41
1
10
41.1655686902182
20
1.95585115834442
30
0
41
1
10
41.355602894213
20
1.88238731162912
30
0
41
1
10
41.7352177853706
20
1.73136792129142
30
0
41
1
10
41.924763581832
20
1.65362302335663
30
0
41
1
10
42.3045108345435
20
1.49550938126347
30
0
41
1
10
42.4943009587329
20
1.41446087873135
30
0
41
1
10
42.8744268754768
20
1.25015121260361
30
0
41
1
10
43.0646133848842
20
1.16656187260884
30
0
41
1
10
43.6354475117228
20
0.91092754128195
30
0
41
1
10
44.0158205500911
20
0.737832387591283
30
0
41
1
10
44.3957499335577
20
0.561911067788458
30
0
0
SPLINE
5
E2
100
AcDbEntity
8
1
62
256
6
ByLayer
370
18
48
1
60
0
100
AcDbSpline
70
4
71
3
72
8
73
4
40
0
40
0
40
0
40
0
40
1
40
1
40
1
40
1
41
1
10
26.1586894430359
20
-1.67484041956706
30
0
41
1
10
26.1586894430359
20
-1.6520989530818
30
0
41
1
10
26.1586894430359
20
-1.62849137864543
30
0
41
1
10
26.1586894430359
20
-1.60402156121805
30
0
0
SPLINE
5
E3
100
AcDbEntity
8
1
62
256
6
ByLayer
370
18
48
1
60
0
100
AcDbSpline
70
4
71
3
72
8
73
4
40
0
40
0
40
0
40
0
40
1
40
1
40
1
40
1
41
1
10
48.9555114106828
20
0.810424469246556
30
0
41
1
10
48.9708578007285
20
0.579282793245625
30
0
41
1
10
48.9821772325478
20
0.348405080222676
30
0
41
1
10
48.9894699419069
20
0.117791314723519
30
0
0
SPLINE
5
E4
100
AcDbEntity
8
1
62
256
6
ByLayer
370
18
48
1
60
0
100
AcDbSpline
70
4
71
3
72
16
73
12
40
0
40
0
40
0
40
0
40
0.273973295670326
40
0.273973295670326
40
0.410959943505489
40
0.410959943505489
40
0.547946591340651
40
0.547946591340651
40
0.82191988701098
40
0.82191988701098
40
1
40
1
40
1
40
1
41
1
10
47.4912030574737
20
-2.71724163573393
30
0
41
1
10
47.4909554896481
20
-2.8398007753068
30
0
41
1
10
47.4963523695269
20
-2.9475147484834
30
0
41
1
10
47.5131752815029
20
-3.08719038230657
30
0
41
1
10
47.5202483719219
20
-3.13007943556949
30
0
41
1
10
47.5375068988258
20
-3.20833057230061
30
0
41
1
10
47.5476258234445
20
-3.2433185623897
30
0
41
1
10
47.5821970353931
20
-3.3352826354525
30
0
41
1
10
47.6109313785307
20
-3.37982682213843
30
0
41
1
10
47.668427133344
20
-3.42629381657045
30
0
41
1
10
47.6937518175848
20
-3.43757337247612
30
0
41
1
10
47.721576367378
20
-3.44177918775381
30
0
0
SPLINE
5
E5
100
AcDbEntity
8
1
62
256
6
ByLayer
370
18
48
1
60
0
100
AcDbSpline
70
4
71
3
72
44
73
40
40
0
40
0
40
0
40
0
40
0.0624999999999992
40
0.0624999999999992
40
0.0937499999999988
40
0.0937499999999988
40
0.124999999999998
40
0.124999999999998
40
0.187499999999999
40
0.187499999999999
40
0.21875
40
0.21875
40
0.25
40
0.25
40
0.312499999999999
40
0.312499999999999
40
0.34375
40
0.34375
40
0.375
40
0.375
40
0.437500000000001
40
0.437500000000001
40
0.500000000000002
40
0.500000000000002
40
0.562500000000002
40
0.562500000000002
40
0.625000000000003
40
0.625000000000003
40
0.687500000000004
40
0.687500000000004
40
0.750000000000005
40
0.750000000000005
40
0.812500000000006
40
0.812500000000006
40
0.843750000000005
40
0.843750000000005
40
0.875000000000005
40
0.875000000000005
40
1
40
1
40
1
40
1
41
1
10
47.7257395707105
20
-3.61984325637533
30
0
41
1
10
47.2848617507689
20
-3.63109547148687
30
0
41
1
10
46.8443575636617
20
-3.62257034823193
30
0
41
1
10
46.1822388248622
20
-3.58033354808771
30
0
41
1
10
45.9612750401658
20
-3.56133057854595
30
0
41
1
10
45.5202836899397
20
-3.51378570106263
30
0
41
1
10
45.3000421645754
20
-3.4852327619071
30
0
41
1
10
44.6395933483569
20
-3.38554318806894
30
0
41
1
10
44.1996068282428
20
-3.30039343424292
30
0
41
1
10
43.53792452415
20
-3.14623866600326
30
0
41
1
10
43.3168795984172
20
-3.09038124415048
30
0
41
1
10
42.8756855418066
20
-2.97060310368264
30
0
41
1
10
42.6553836668663
20
-2.90665566105554
30
0
41
1
10
41.9948297602064
20
-2.70332420629708
30
0
41
1
10
41.5548630818771
20
-2.55252823883146
30
0
41
1
10
40.8934011094222
20
-2.30640243921812
30
0
41
1
10
40.6724274795477
20
-2.22093069842069
30
0
41
1
10
40.2309790217972
20
-2.04439260247685
30
0
41
1
10
40.010560299551
20
-1.95336136603501
30
0
41
1
10
39.3496860204043
20
-1.67294259914138
30
0
41
1
10
38.9096763472594
20
-1.47611468188271
30
0
41
1
10
38.0280137778968
20
-1.06774615043426
30
0
41
1
10
37.5857356046205
20
-0.856176544236149
30
0
41
1
10
36.7044042111807
20
-0.427326245572772
30
0
41
1
10
36.2643442208044
20
-0.209885235891136
30
0
41
1
10
35.3828063390005
20
0.225694770760896
30
0
41
1
10
34.9404714427882
20
0.444052572913535
30
0
41
1
10
34.0588453454689
20
0.872343525147954
30
0
41
1
10
33.618752671379
20
1.08237527874064
30
0
41
1
10
32.7373710268976
20
1.48906448812792
30
0
41
1
10
32.2950499762777
20
1.68599740363595
30
0
41
1
10
31.4131657886802
20
2.05818023240636
30
0
41
1
10
30.9732351659036
20
2.23363928733312
30
0
41
1
10
30.3127620154924
20
2.47750766630705
30
0
41
1
10
30.0924960655016
20
2.55556050054426
30
0
41
1
10
29.6514207578785
20
2.70468416076841
30
0
41
1
10
29.4303517857318
20
2.77584062531392
30
0
41
1
10
28.3265313405549
20
3.11152682409201
30
0
41
1
10
27.4490162841749
20
3.3160475768658
30
0
41
1
10
26.5658915261683
20
3.44597654844841
30
0
0
SPLINE
5
E6
100
AcDbEntity
8
1
62
256
6
ByLayer
370
18
48
1
60
0
100
AcDbSpline
70
4
71
3
72
40
73
36
40
0
40
0
40
0
40
0
40
0.125000000000025
40
0.125000000000025
40
0.25000000000005
40
0.25000000000005
40
0.312500000000059
40
0.312500000000059
40
0.375000000000068
40
0.375000000000068
40
0.406250000000072
40
0.406250000000072
40
0.437500000000077
40
0.437500000000077
40
0.453125000000079
40
0.453125000000079
40
0.468750000000081
40
0.468750000000081
40
0.484375000000083
40
0.484375000000083
40
0.500000000000085
40
0.500000000000085
40
0.531250000000083
40
0.531250000000083
40
0.562500000000081
40
0.562500000000081
40
0.62500000000007
40
0.62500000000007
40
0.687500000000058
40
0.687500000000058
40
0.750000000000047
40
0.750000000000047
40
0.875000000000023
40
0.875000000000023
40
1
40
1
40
1
40
1
41
1
10
47.9130643892543
20
-1.89486118808898
30
0
41
1
10
47.77763606577
20
-1.85620004091388
30
0
41
1
10
47.6420410171954
20
-1.80500673165355
30
0
41
1
10
47.3738117666183
20
-1.67739645225947
30
0
41
1
10
47.242845575941
20
-1.60224899394024
30
0
41
1
10
47.053386423888
20
-1.46434566472658
30
0
41
1
10
46.9915015032299
20
-1.41411269038835
30
0
41
1
10
46.8742936960877
20
-1.30269528314778
30
0
41
1
10
46.8186465470633
20
-1.24169975597053
30
0
41
1
10
46.7480072981897
20
-1.13765282751498
30
0
41
1
10
46.7263933185296
20
-1.10031721418025
30
0
41
1
10
46.6929214168512
20
-1.02167342902385
30
0
41
1
10
46.681099786138
20
-0.980365239759635
30
0
41
1
10
46.6771765192437
20
-0.918404331658451
30
0
41
1
10
46.6782444543508
20
-0.898431895333943
30
0
41
1
10
46.6853087942197
20
-0.860435623565422
30
0
41
1
10
46.6913369389213
20
-0.842557429885346
30
0
41
1
10
46.7072010777152
20
-0.810428361740264
30
0
41
1
10
46.7171765395515
20
-0.795854024411028
30
0
41
1
10
46.739361633316
20
-0.770355319332168
30
0
41
1
10
46.7516570859881
20
-0.759220619312771
30
0
41
1
10
46.7912945278969
20
-0.729509281045296
30
0
41
1
10
46.820587980622
20
-0.715093557556372
30
0
41
1
10
46.8814540003146
20
-0.692919100985108
30
0
41
1
10
46.9134760287221
20
-0.685110413526616
30
0
41
1
10
47.010623598556
20
-0.668751544122841
30
0
41
1
10
47.0770007733063
20
-0.666836040660257
30
0
41
1
10
47.2115414387408
20
-0.672966841829322
30
0
41
1
10
47.2800057776103
20
-0.681312661180414
30
0
41
1
10
47.4159906766446
20
-0.705130566828728
30
0
41
1
10
47.4837793453411
20
-0.720637432521158
30
0
41
1
10
47.6866566493129
20
-0.775786455153849
30
0
41
1
10
47.8212699498757
20
-0.823821025442925
30
0
41
1
10
48.0893187003234
20
-0.940686058884324
30
0
41
1
10
48.2227308052948
20
-1.00943348771352
30
0
41
1
10
48.3522268867189
20
-1.09120118524598
30
0
0
SPLINE
5
E7
100
AcDbEntity
8
1
62
256
6
ByLayer
370
18
48
1
60
0
100
AcDbSpline
70
4
71
3
72
28
73
24
40
0
40
0
40
0
40
0
40
0.0118201707322946
40
0.0118201707322946
40
0.0878340037528872
40
0.0878340037528872
40
0.239861669794071
40
0.239861669794071
40
0.315875502814662
40
0.315875502814662
40
0.391889335835254
40
0.391889335835254
40
0.543917001876439
40
0.543917001876439
40
0.619930834897032
40
0.619930834897032
40
0.695944667917626
40
0.695944667917626
40
0.847972333958813
40
0.847972333958813
40
0.923986166979407
40
0.923986166979407
40
1
40
1
40
1
40
1
41
1
10
17.2625836454546
20
3.45873331469332
30
0
41
1
10
17.2923645732195
20
3.47286335468263
30
0
41
1
10
17.3221523354157
20
3.48690699928378
30
0
41
1
10
17.5435688519037
20
3.59060188663736
30
0
41
1
10
17.7358990630735
20
3.6766054023486
30
0
41
1
10
18.3118880453224
20
3.9224931336858
30
0
41
1
10
18.6936781278613
20
4.07165865062404
30
0
41
1
10
19.2685931896164
20
4.26844832495499
30
0
41
1
10
19.4606038366148
20
4.3296038093153
30
0
41
1
10
19.8446676534775
20
4.4434739474205
30
0
41
1
10
20.0363016845602
20
4.49604725526584
30
0
41
1
10
20.6106685606653
20
4.63927582559276
30
0
41
1
10
20.9941493251206
20
4.71536508294241
30
0
41
1
10
21.5688271524935
20
4.80100772204747
30
0
41
1
10
21.7606826416365
20
4.82470839605816
30
0
41
1
10
22.1443871949562
20
4.86188135885098
30
0
41
1
10
22.3362283662829
20
4.87541201796819
30
0
41
1
10
22.9108091070321
20
4.90112396745431
30
0
41
1
10
23.2923031045617
20
4.8982019104389
30
0
41
1
10
23.8678957339572
20
4.86376794431118
30
0
41
1
10
24.0602804977678
20
4.84727134635764
30
0
41
1
10
24.4436178314363
20
4.8042274335898
30
0
41
1
10
24.6348163659592
20
4.77769934283606
30
0
41
1
10
24.8261488815088
20
4.74639736874639
30
0
0
SPLINE
5
E8
100
AcDbEntity
8
1
62
256
6
ByLayer
370
18
48
1
60
0
100
AcDbSpline
70
4
71
3
72
30
73
26
40
0
40
0
40
0
40
0
40
0.0771036765922403
40
0.0771036765922403
40
0.161003342356582
40
0.161003342356582
40
0.244903008120924
40
0.244903008120924
40
0.328802673885266
40
0.328802673885266
40
0.412702339649607
40
0.412702339649607
40
0.496602005413949
40
0.496602005413949
40
0.580501671178291
40
0.580501671178291
40
0.664401336942633
40
0.664401336942633
40
0.748301002706975
40
0.748301002706975
40
0.832200668471316
40
0.832200668471316
40
0.916100334235658
40
0.916100334235658
40
1
40
1
40
1
40
1
41
1
10
39.969625948243
20
2.38885350008772
30
0
41
1
10
40.1738454150045
20
2.46452622564357
30
0
41
1
10
40.377793748539
20
2.53746457454514
30
0
41
1
10
40.8030996868076
20
2.68398600435774
30
0
41
1
10
41.0245531732634
20
2.75682570727608
30
0
41
1
10
41.4683115420223
20
2.89395673759088
30
0
41
1
10
41.6904681860411
20
2.95848186417936
30
0
41
1
10
42.1345937386348
20
3.08022620083042
30
0
41
1
10
42.356930205101
20
3.13723328457837
30
0
41
1
10
42.8012511733264
20
3.24158563636649
30
0
41
1
10
43.0234625996759
20
3.28900996774806
30
0
41
1
10
43.4670201400695
20
3.37526024699315
30
0
41
1
10
43.6884215581571
20
3.41397925138125
30
0
41
1
10
44.1316695358987
20
3.48168826500787
30
0
41
1
10
44.3537356040242
20
3.51059415492907
30
0
41
1
10
44.7981251354257
20
3.55892800519811
30
0
41
1
10
45.0204626338968
20
3.57840614401203
30
0
41
1
10
45.4647077091995
20
3.60725399141739
30
0
41
1
10
45.6868534272727
20
3.61661514590759
30
0
41
1
10
46.1313301913511
20
3.62540776810499
30
0
41
1
10
46.3533150379491
20
3.6248519598266
30
0
41
1
10
46.7973811623754
20
3.61363732612054
30
0
41
1
10
47.0197749662587
20
3.602968790804
30
0
41
1
10
47.4646061793613
20
3.57191466012128
30
0
41
1
10
47.6868085403332
20
3.55148290476029
30
0
41
1
10
47.9087107116942
20
3.52604983030994
30
0
0
SPLINE
5
E9
100
AcDbEntity
8
1
62
256
6
ByLayer
370
18
48
1
60
0
100
AcDbSpline
70
4
71
3
72
64
73
60
40
0
40
0
40
0
40
0
40
0.0339840700059556
40
0.0339840700059556
40
0.0679681400119112
40
0.0679681400119112
40
0.101952210017867
40
0.101952210017867
40
0.135936280023822
40
0.135936280023822
40
0.169920350029778
40
0.169920350029778
40
0.203904420035734
40
0.203904420035734
40
0.237888490041689
40
0.237888490041689
40
0.271872560047645
40
0.271872560047645
40
0.339840700059554
40
0.339840700059554
40
0.373824770065509
40
0.373824770065509
40
0.407808840071464
40
0.407808840071464
40
0.441792910077418
40
0.441792910077418
40
0.475776980083373
40
0.475776980083373
40
0.509761050089328
40
0.509761050089328
40
0.543745120095283
40
0.543745120095283
40
0.577729190101237
40
0.577729190101237
40
0.611713260107192
40
0.611713260107192
40
0.645697330113147
40
0.645697330113147
40
0.679681400119102
40
0.679681400119102
40
0.713665470125056
40
0.713665470125056
40
0.747649540131011
40
0.747649540131011
40
0.781633610136966
40
0.781633610136966
40
0.81561768014292
40
0.81561768014292
40
0.849601750148875
40
0.849601750148875
40
0.88358582015483
40
0.88358582015483
40
0.917569890160785
40
0.917569890160785
40
0.951553960166739
40
0.951553960166739
40
0.985538030172694
40
0.985538030172694
40
1
40
1
40
1
40
1
41
1
10
26.5864433393893
20
3.23053504262484
30
0
41
1
10
26.8090400612788
20
3.18171340177841
30
0
41
1
10
27.0315726170203
20
3.1285785018473
30
0
41
1
10
27.4760056045843
20
3.01308184678507
30
0
41
1
10
27.6980769627432
20
2.95085435162051
30
0
41
1
10
28.1432643824649
20
2.81902184818199
30
0
41
1
10
28.3660588518397
20
2.74952333950606
30
0
41
1
10
28.8106502879319
20
2.60221280923346
30
0
41
1
10
29.0326432706611
20
2.52450665146978
30
0
41
1
10
29.4773094712205
20
2.36281403415291
30
0
41
1
10
29.7002493237662
20
2.27904992656784
30
0
41
1
10
30.1452308680923
20
2.1049794403275
30
0
41
1
10
30.3672650053286
20
2.01442804096402
30
0
41
1
10
30.8115797079884
20
1.82815873412741
30
0
41
1
10
31.0341522162921
20
1.73284361330195
30
0
41
1
10
31.4795345240102
20
1.53765938674061
30
0
41
1
10
31.7015757369697
20
1.43743119979939
30
0
41
1
10
32.3670160837696
20
1.13116374799967
30
0
41
1
10
32.810878676924
20
0.921803555884878
30
0
41
1
10
33.4762930031225
20
0.598563998605556
30
0
41
1
10
33.6982075276347
20
0.489608185336976
30
0
41
1
10
34.1433838187796
20
0.271589890722026
30
0
41
1
10
34.3659816878756
20
0.162375722907655
30
0
41
1
10
34.8098072336316
20
-0.0573259164371791
30
0
41
1
10
35.0313287328096
20
-0.167519122480059
30
0
41
1
10
35.474922600655
20
-0.385881622591256
30
0
41
1
10
35.6969994045697
20
-0.494048370370081
30
0
41
1
10
36.1407283036487
20
-0.710339018496768
30
0
41
1
10
36.3624829185702
20
-0.818250298665475
30
0
41
1
10
36.8070135292612
20
-1.03110698886104
30
0
41
1
10
37.0298181013907
20
-1.13561228992046
30
0
41
1
10
37.4741556577653
20
-1.34148710621372
30
0
41
1
10
37.6957644209592
20
-1.44323688050107
30
0
41
1
10
38.1389708928007
20
-1.64222128691728
30
0
41
1
10
38.3607889051146
20
-1.73906663903
30
0
41
1
10
38.8047917355269
20
-1.92765498997034
30
0
41
1
10
39.0266516752448
20
-2.01995813248277
30
0
41
1
10
39.4708301678239
20
-2.19919791531512
30
0
41
1
10
39.6933477883485
20
-2.28591340923904
30
0
41
1
10
40.137890917331
20
-2.4516469994181
30
0
41
1
10
40.3598414842605
20
-2.53127987032684
30
0
41
1
10
40.803099686805
20
-2.68398600435688
30
0
41
1
10
41.0245531732608
20
-2.75682570727523
30
0
41
1
10
41.4683115420196
20
-2.89395673759006
30
0
41
1
10
41.6904681860384
20
-2.95848186417857
30
0
41
1
10
42.134593738632
20
-3.08022620082971
30
0
41
1
10
42.3569302050982
20
-3.13723328457766
30
0
41
1
10
42.8012511733235
20
-3.24158563636587
30
0
41
1
10
43.0234625996731
20
-3.28900996774746
30
0
41
1
10
43.4670201400665
20
-3.37526024699258
30
0
41
1
10
43.6884215581542
20
-3.41397925138074
30
0
41
1
10
44.1316695358956
20
-3.48168826500745
30
0
41
1
10
44.3537356040211
20
-3.51059415492867
30
0
41
1
10
44.7981251354226
20
-3.5589280051978
30
0
41
1
10
45.0204626338936
20
-3.57840614401178
30
0
41
1
10
45.4647077091962
20
-3.60725399141722
30
0
41
1
10
45.6868534272694
20
-3.61661514590747
30
0
41
1
10
46.0036656721495
20
-3.62288231351195
30
0
41
1
10
46.0981936212367
20
-3.62385637078461
30
0
41
1
10
46.192698910962
20
-3.62392596941333
30
0
0
SPLINE
5
EA
100
AcDbEntity
8
1
62
256
6
ByLayer
370
18
48
1
60
0
100
AcDbSpline
70
4
71
3
72
8
73
4
40
0
40
0
40
0
40
0
40
1
40
1
40
1
40
1
41
1
10
48.9642559334665
20
-0.0480603919874909
30
0
41
1
10
48.7549496764121
20
-0.39096706954183
30
0
41
1
10
48.5509138013645
20
-0.738656895951607
30
0
41
1
10
48.3522268867195
20
-1.09120118524373
30
0
0
SPLINE
5
EB
100
AcDbEntity
8
1
62
256
6
ByLayer
370
18
48
1
60
0
100
AcDbSpline
70
4
71
3
72
12
73
8
40
0
40
0
40
0
40
0
40
0.419517955906553
40
0.419517955906553
40
0.839035911813106
40
0.839035911813106
40
1
40
1
40
1
40
1
41
1
10
24.8261488815089
20
4.74639736874639
30
0
41
1
10
24.8124528628961
20
4.78811183762207
30
0
41
1
10
24.7988902292178
20
4.82096078723922
30
0
41
1
10
24.7716450920296
20
4.8690759111129
30
0
41
1
10
24.7579220826197
20
4.88442654164155
30
0
41
1
10
24.7390510541065
20
4.89369655033761
30
0
41
1
10
24.7338494565625
20
4.89499344641345
30
0
41
1
10
24.7286585085891
20
4.89500384925989
30
0
0
SPLINE
5
EC
100
AcDbEntity
8
1
62
256
6
ByLayer
370
18
48
1
60
0
100
AcDbSpline
70
4
71
3
72
14
73
10
40
0
40
0
40
0
40
0
40
0.139499083214109
40
0.139499083214109
40
0.278998166428219
40
0.278998166428219
40
0.557996332856437
40
0.557996332856437
40
1
40
1
40
1
40
1
41
1
10
47.768672826236
20
-3.44241253723399
30
0
41
1
10
47.542040923643
20
-3.4452239429834
30
0
41
1
10
47.3154423913614
20
-3.44304977588507
30
0
41
1
10
46.8619937329855
20
-3.42878610581161
30
0
41
1
10
46.6353436765621
20
-3.41668792869322
30
0
41
1
10
45.9580191362713
20
-3.36598779032775
30
0
41
1
10
45.5088391077848
20
-3.31300328894551
30
0
41
1
10
44.3509002443238
20
-3.12937834375245
30
0
41
1
10
43.6436181246958
20
-2.97151762923156
30
0
41
1
10
42.9337641863008
20
-2.77375994916886
30
0
0
SPLINE
5
ED
100
AcDbEntity
8
1
62
256
6
ByLayer
370
13
48
1
60
0
100
AcDbSpline
70
4
71
3
72
22
73
18
40
0
40
0
40
0
40
0
40
0.0535963433964248
40
0.0535963433964248
40
0.182512170020636
40
0.182512170020636
40
0.311427996644847
40
0.311427996644847
40
0.569259649893266
40
0.569259649893266
40
0.698175476517475
40
0.698175476517475
40
0.762633389829578
40
0.762633389829578
40
0.827091303141681
40
0.827091303141681
40
1
40
1
40
1
40
1
41
1
10
42.9337638556295
20
-2.77375985704739
30
0
41
1
10
42.7474807813585
20
-2.72186339091985
30
0
41
1
10
42.5610205945539
20
-2.66721935548512
30
0
41
1
10
41.9251455463972
20
-2.47211510807099
30
0
41
1
10
41.4740669372308
20
-2.31910667949708
30
0
41
1
10
40.5669743167203
20
-1.98636117828588
30
0
41
1
10
40.1163426253604
20
-1.80870767444023
30
0
41
1
10
38.7689305012889
20
-1.2505619042083
30
0
41
1
10
37.8768611185196
20
-0.844326184603432
30
0
41
1
10
36.5320339555062
20
-0.217523834051718
30
0
41
1
10
36.0825507926214
20
-0.0058738335279145
30
0
41
1
10
35.4046797969118
20
0.311729645713598
30
0
41
1
10
35.1775874641821
20
0.417746519550917
30
0
41
1
10
34.724714492663
20
0.627741314319707
30
0
41
1
10
34.4989677207652
20
0.731732275388509
30
0
41
1
10
33.6694283512401
20
1.10937103414773
30
0
41
1
10
33.068617204127
20
1.37395473258726
30
0
41
1
10
32.4681176291318
20
1.62203246251232
30
0
0
SPLINE
5
EE
100
AcDbEntity
8
1
62
256
6
ByLayer
370
18
48
1
60
0
100
AcDbSpline
70
4
71
3
72
10
73
6
40
0
40
0
40
0
40
0
40
0.346572894504111
40
0.346572894504111
40
1
40
1
40
1
40
1
41
1
10
17.259525905362
20
-3.45933429737363
30
0
41
1
10
17.0713432831738
20
-3.54839436334532
30
0
41
1
10
16.8832787345096
20
-3.63406465312374
30
0
41
1
10
16.3403565183709
20
-3.87078747903934
30
0
41
1
10
15.9843834530427
20
-4.0118207953349
30
0
41
1
10
15.6276200333834
20
-4.1393752605662
30
0
0
SPLINE
5
EF
100
AcDbEntity
8
1
62
256
6
ByLayer
370
18
48
1
60
0
100
AcDbSpline
70
4
71
3
72
8
73
4
40
0
40
0
40
0
40
0
40
1
40
1
40
1
40
1
41
1
10
47.9130643892545
20
-1.89486118808915
30
0
41
1
10
47.7693627781676
20
-2.16619168272578
30
0
41
1
10
47.6287326819226
20
-2.44030973862112
30
0
41
1
10
47.4912030574737
20
-2.71724163573396
30
0
0
SPLINE
5
F0
100
AcDbEntity
8
1
62
256
6
ByLayer
370
18
48
1
60
0
100
AcDbSpline
70
4
71
3
72
28
73
24
40
0
40
0
40
0
40
0
40
0.0625000000000005
40
0.0625000000000005
40
0.125000000000001
40
0.125000000000001
40
0.187500000000001
40
0.187500000000001
40
0.250000000000002
40
0.250000000000002
40
0.375000000000003
40
0.375000000000003
40
0.500000000000004
40
0.500000000000004
40
0.625000000000005
40
0.625000000000005
40
0.750000000000006
40
0.750000000000006
40
0.875000000000007
40
0.875000000000007
40
0.937500000000003
40
0.937500000000003
40
1
40
1
40
1
40
1
41
1
10
48.3522268867185
20
-1.09120118524521
30
0
41
1
10
48.3495189714525
20
-1.11385146396273
30
0
41
1
10
48.3456458263834
20
-1.13842928735349
30
0
41
1
10
48.335874465439
20
-1.18913930425208
30
0
41
1
10
48.3299961936983
20
-1.21531251251429
30
0
41
1
10
48.3162926273554
20
-1.26928429336167
30
0
41
1
10
48.3083885254031
20
-1.29729876731844
30
0
41
1
10
48.2912779933568
20
-1.35276932580072
30
0
41
1
10
48.2820229418899
20
-1.38045772141493
30
0
41
1
10
48.25226884175
20
-1.46339902567257
30
0
41
1
10
48.2303385223943
20
-1.51695528283659
30
0
41
1
10
48.1843985717005
20
-1.61733248921109
30
0
41
1
10
48.1609197118503
20
-1.66306097410643
30
0
41
1
10
48.1139080002017
20
-1.74506988826883
30
0
41
1
10
48.0904505740409
20
-1.7810640902679
30
0
41
1
10
48.046432033796
20
-1.8396517977406
30
0
41
1
10
48.025497915927
20
-1.86289445364099
30
0
41
1
10
47.9862714131493
20
-1.89647930684498
30
0
41
1
10
47.9686345492343
20
-1.90630398966059
30
0
41
1
10
47.9450976176183
20
-1.91039544853538
30
0
41
1
10
47.9377035498487
20
-1.9099239946334
30
0
41
1
10
47.9243641648287
20
-1.9052014466364
30
0
41
1
10
47.9183717776658
20
-1.90098337526717
30
0
41
1
10
47.9130643892544
20
-1.89486118808904
30
0
0
SPLINE
5
F1
100
AcDbEntity
8
1
62
256
6
ByLayer
370
18
48
1
60
0
100
AcDbSpline
70
4
71
3
72
8
73
4
40
0
40
0
40
0
40
0
40
1
40
1
40
1
40
1
41
1
10
47.9087107116993
20
-3.5260498303102
30
0
41
1
10
47.840797363904
20
-3.57671957277626
30
0
41
1
10
47.779981829639
20
-3.60822017715006
30
0
41
1
10
47.7257395707105
20
-3.61984325637533
30
0
0
SPLINE
5
F2
100
AcDbEntity
8
1
62
256
6
ByLayer
370
18
48
1
60
0
100
AcDbSpline
70
4
71
3
72
47
73
43
40
0
40
0
40
0
40
0
40
0.0061505300446341
40
0.0061505300446341
40
0.0636076980477282
40
0.0636076980477282
40
0.178522034053917
40
0.178522034053917
40
0.235979202057011
40
0.235979202057011
40
0.293436370060105
40
0.293436370060105
40
0.408350706066294
40
0.408350706066294
40
0.465807874069388
40
0.465807874069388
40
0.494536458070935
40
0.494536458070935
40
0.508900750071709
40
0.508900750071709
40
0.516082896072096
40
0.516082896072096
40
0.523265042072482
40
0.523265042072482
40
0.530447188072869
40
0.530447188072869
40
0.537629334073256
40
0.537629334073256
40
0.55199362607403
40
0.580722210075577
40
0.580722210075577
40
0.638179378078671
40
0.638179378078671
40
0.75309371408486
40
0.75309371408486
40
0.810550882087954
40
0.810550882087954
40
0.868008050091048
40
0.868008050091048
40
0.982922386097237
40
0.982922386097237
40
1
40
1
40
1
40
1
41
1
10
15.6276200333834
20
-2.59150854398922
30
0
41
1
10
15.6276200333834
20
-2.5794424444318
30
0
41
1
10
15.6276200333834
20
-2.5674357560612
30
0
41
1
10
15.6276200333834
20
-2.44388946271164
30
0
41
1
10
15.6276200333834
20
-2.33857393701982
30
0
41
1
10
15.6276200333834
20
-2.04005834384373
30
0
41
1
10
15.6276200333835
20
-1.86417275305792
30
0
41
1
10
15.6276200333835
20
-1.63209500361629
30
0
41
1
10
15.6276200333834
20
-1.56005985721279
30
0
41
1
10
15.6276200333834
20
-1.42648791532923
30
0
41
1
10
15.6276200333834
20
-1.36505694854526
30
0
41
1
10
15.6276200333834
20
-1.19855308846613
30
0
41
1
10
15.6276200333834
20
-1.11019960079909
30
0
41
1
10
15.6276200333834
20
-1.00969395652609
30
0
41
1
10
15.6276200333834
20
-0.981528616220288
30
0
41
1
10
15.6276200333834
20
-0.947393236075158
30
0
41
1
10
15.6276200333834
20
-0.937374770209516
30
0
41
1
10
15.6276200333834
20
-0.924367057953731
30
0
41
1
10
15.6276200333834
20
-0.920367459555649
30
0
41
1
10
15.6276200333834
20
-0.91487323118676
30
0
41
1
10
15.6276200333828
20
-0.912792821023544
30
0
41
1
10
15.6276200333828
20
-0.910162556784712
30
0
41
1
10
15.6276200333834
20
-0.915040501886779
30
0
41
1
10
15.6276200333834
20
-0.936632659665207
30
0
41
1
10
15.6276200333834
20
-0.948206723697524
30
0
41
1
10
15.6276200333834
20
-0.970846752368459
30
0
41
1
10
15.6276200333834
20
-0.982252632546874
30
0
41
1
10
15.6276200333834
20
-1.01671193178672
30
0
41
1
10
15.6276200333834
20
-1.08660339064585
30
0
41
1
10
15.6276200333834
20
-1.15942925160255
30
0
41
1
10
15.6276200333834
20
-1.3090565206891
30
0
41
1
10
15.6276200333834
20
-1.41437630286859
30
0
41
1
10
15.6276200333834
20
-1.74487352508663
30
0
41
1
10
15.6276200333835
20
-1.98366477753748
30
0
41
1
10
15.6276200333835
20
-2.37164896464844
30
0
41
1
10
15.6276200333834
20
-2.50597098677542
30
0
41
1
10
15.6276200333834
20
-2.78538357545901
30
0
41
1
10
15.6276200333834
20
-2.92886192766332
30
0
41
1
10
15.6276200333834
20
-3.36849079921319
30
0
41
1
10
15.6276200333834
20
-3.67468497385949
30
0
41
1
10
15.6276200333834
20
-4.04306903682519
30
0
41
1
10
15.6276200333834
20
-4.0910558270642
30
0
41
1
10
15.6276200333834
20
-4.13937526054772
30
0
0
SPLINE
5
F3
100
AcDbEntity
8
1
62
256
6
ByLayer
370
18
48
1
60
0
100
AcDbSpline
70
4
71
3
72
10
73
6
40
0
40
0
40
0
40
0
40
0.5
40
0.5
40
1
40
1
40
1
40
1
41
1
10
47.9087107116908
20
-3.52604983033558
30
0
41
1
10
48.0784672306631
20
-3.0716307378203
30
0
41
1
10
48.251156340788
20
-2.61831873684426
30
0
41
1
10
48.6006250232366
20
-1.71324493126301
30
0
41
1
10
48.7773880704434
20
-1.26144941195355
30
0
41
1
10
48.955511410684
20
-0.810424469243515
30
0
0
SPLINE
5
F4
100
AcDbEntity
8
1
62
256
6
ByLayer
370
18
48
1
60
0
100
AcDbSpline
70
4
71
3
72
10
73
6
40
0
40
0
40
0
40
0
40
0.5
40
0.5
40
1
40
1
40
1
40
1
41
1
10
47.9087107116944
20
3.52604983032594
30
0
41
1
10
48.0785056011955
20
3.07152802422459
30
0
41
1
10
48.2511985317065
20
2.61820885106786
30
0
41
1
10
48.6006377112286
20
1.71321268862323
30
0
41
1
10
48.7773727249304
20
1.2614882682266
30
0
41
1
10
48.9555114106828
20
0.810424469246584
30
0
0
SPLINE
5
F5
100
AcDbEntity
8
1
62
256
6
ByLayer
370
18
48
1
60
0
100
AcDbSpline
70
4
71
3
72
28
73
24
40
0
40
0
40
0
40
0
40
0.124999999999996
40
0.124999999999996
40
0.187499999999995
40
0.187499999999995
40
0.249999999999995
40
0.249999999999995
40
0.374999999999994
40
0.374999999999994
40
0.499999999999993
40
0.499999999999993
40
0.562499999999993
40
0.562499999999993
40
0.624999999999994
40
0.624999999999994
40
0.687499999999994
40
0.687499999999994
40
0.749999999999995
40
0.749999999999995
40
0.874999999999997
40
0.874999999999997
40
1
40
1
40
1
40
1
41
1
10
24.172436573801
20
-0.776699515661619
30
0
41
1
10
23.8161624355481
20
-0.540905111186817
30
0
41
1
10
23.46004164715
20
-0.303889091244599
30
0
41
1
10
22.9259550610502
20
0.0532518008227498
30
0
41
1
10
22.7479187431549
20
0.172534809854852
30
0
41
1
10
22.3913187877412
20
0.410805848726369
30
0
41
1
10
22.2126691554276
20
0.529402926671139
30
0
41
1
10
21.677955986414
20
0.883251806271659
30
0
41
1
10
21.3226991987495
20
1.11731543486644
30
0
41
1
10
20.6101093534213
20
1.57513154878774
30
0
41
1
10
20.2527148709357
20
1.79965030353122
30
0
41
1
10
19.7186512481768
20
2.12528941569906
30
0
41
1
10
19.5408605593446
20
2.23214194649068
30
0
41
1
10
19.1846805166696
20
2.44106075616472
30
0
41
1
10
19.0065083829011
20
2.54342388151446
30
0
41
1
10
18.6501877242917
20
2.7441619267889
30
0
41
1
10
18.4714871542515
20
2.84219768473622
30
0
41
1
10
18.1154423230507
20
3.03310624566745
30
0
41
1
10
17.9375574566087
20
3.12552890517424
30
0
41
1
10
17.4042899424311
20
3.39384558747392
30
0
41
1
10
17.0498767027727
20
3.5614252571537
30
0
41
1
10
16.3403565183709
20
3.87078747903937
30
0
41
1
10
15.9843834530427
20
4.0118207953349
30
0
41
1
10
15.6276200333834
20
4.1393752605662
30
0
0
SPLINE
5
F6
100
AcDbEntity
8
1
62
256
6
ByLayer
370
18
48
1
60
0
100
AcDbSpline
70
4
71
3
72
19
73
15
40
0
40
0
40
0
40
0
40
0.0534800887108056
40
0.127488334579859
40
0.275516439110478
40
0.377340748600445
40
0.460729091074351
40
0.572072495095429
40
0.683663293873132
40
0.720886801110269
40
0.84184053094455
40
0.944103169819364
40
0.999824964054244
40
1
40
1
40
1
40
1
41
1
10
25.5947220200252
20
-1.41499665411604
30
0
41
1
10
25.6027270323597
20
-1.48397835623797
30
0
41
1
10
25.621813111096
20
-1.64624828492012
30
0
41
1
10
25.6630758110183
20
-1.98414774575804
30
0
41
1
10
25.7115747933392
20
-2.35006511251152
30
0
41
1
10
25.7614540800506
20
-2.68053463937997
30
0
41
1
10
25.805795935002
20
-2.94043513427252
30
0
41
1
10
25.8515434736163
20
-3.16848788766825
30
0
41
1
10
25.8902860758638
20
-3.31988340913438
30
0
41
1
10
25.9304450610686
20
-3.44586104554224
30
0
41
1
10
25.9692193044851
20
-3.53556329523499
30
0
41
1
10
26.0107814952631
20
-3.5812263017614
30
0
41
1
10
26.0343735322915
20
-3.58653711018781
30
0
41
1
10
26.04271589491
20
-3.58584462914678
30
0
41
1
10
26.0427420183193
20
-3.5858424355086
30
0
0
SPLINE
5
F7
100
AcDbEntity
8
1
62
256
6
ByLayer
370
18
48
1
60
0
100
AcDbSpline
70
4
71
3
72
10
73
6
40
0
40
0
40
0
40
0
40
0.5
40
0.5
40
1
40
1
40
1
40
1
41
1
10
48.9999546607415
20
0.04177700258046
30
0
41
1
10
48.9962245005443
20
0.0264345306174505
30
0
41
1
10
48.9911243543468
20
0.0099861238049641
30
0
41
1
10
48.9788243400365
20
-0.0212432971843839
30
0
41
1
10
48.9715872909918
20
-0.0360494206656767
30
0
41
1
10
48.9642559334665
20
-0.0480603919874909
30
0
0
SPLINE
5
F8
100
AcDbEntity
8
1
62
256
6
ByLayer
370
18
48
1
60
0
100
AcDbSpline
70
4
71
3
72
8
73
4
40
0
40
0
40
0
40
0
40
1
40
1
40
1
40
1
41
1
10
26.1586894430359
20
3.48040212312819
30
0
41
1
10
26.2945439424045
20
3.47081019653808
30
0
41
1
10
26.4302638104364
20
3.45933849951453
30
0
41
1
10
26.5658915261683
20
3.44597654844841
30
0
0
SPLINE
5
F9
100
AcDbEntity
8
1
62
256
6
ByLayer
370
18
48
1
60
0
100
AcDbSpline
70
4
71
3
72
14
73
10
40
0
40
0
40
0
40
0
40
0.25
40
0.25
40
0.5
40
0.5
40
0.75
40
0.75
40
1
40
1
40
1
40
1
41
1
10
47.7143708011405
20
0.743146835177583
30
0
41
1
10
47.7117881718424
20
0.758473592349475
30
0
41
1
10
47.7126227274076
20
0.774432195348794
30
0
41
1
10
47.7237505718647
20
0.803383247737543
30
0
41
1
10
47.7342790775444
20
0.816146278698085
30
0
41
1
10
47.7600473366361
20
0.834250751669089
30
0
41
1
10
47.7750641336816
20
0.839987143858821
30
0
41
1
10
47.8057086489487
20
0.846684116026125
30
0
41
1
10
47.8215341790041
20
0.847722812461086
30
0
41
1
10
47.8372517724652
20
0.847173014977955
30
0
0
SPLINE
5
FA
100
AcDbEntity
8
1
62
256
6
ByLayer
370
18
48
1
60
0
100
AcDbSpline
70
4
71
3
72
8
73
4
40
0
40
0
40
0
40
0
40
1
40
1
40
1
40
1
41
1
10
26.5864433393893
20
3.23053504262484
30
0
41
1
10
26.4557200011856
20
3.25321583140217
30
0
41
1
10
26.3249727008386
20
3.27429653873648
30
0
41
1
10
26.1941799846005
20
3.29374560481352
30
0
0
SPLINE
5
FB
100
AcDbEntity
8
1
62
256
6
ByLayer
370
18
48
1
60
0
100
AcDbSpline
70
4
71
3
72
26
73
22
40
0
40
0
40
0
40
0
40
0.155598048130868
40
0.155598048130868
40
0.233397072196302
40
0.233397072196302
40
0.311196096261736
40
0.311196096261736
40
0.466794144392602
40
0.466794144392602
40
0.544593168458035
40
0.544593168458035
40
0.622392192523468
40
0.622392192523468
40
0.777990240654332
40
0.777990240654332
40
0.855789264719763
40
0.855789264719763
40
0.933588288785194
40
0.933588288785194
40
1
40
1
40
1
40
1
41
1
10
15.6276200333834
20
-2.60529249913569
30
0
41
1
10
16.0104879443514
20
-2.82429095449862
30
0
41
1
10
16.3946586875793
20
-3.02847972084561
30
0
41
1
10
16.9690879055035
20
-3.31769995882232
30
0
41
1
10
17.1603296189599
20
-3.41112137759532
30
0
41
1
10
17.5435688519037
20
-3.59060188663736
30
0
41
1
10
17.7358990630735
20
-3.6766054023486
30
0
41
1
10
18.3118880453224
20
-3.9224931336858
30
0
41
1
10
18.6936781278612
20
-4.07165865062404
30
0
41
1
10
19.2685931896163
20
-4.26844832495499
30
0
41
1
10
19.4606038366148
20
-4.3296038093153
30
0
41
1
10
19.8446676534775
20
-4.4434739474205
30
0
41
1
10
20.0363016845602
20
-4.49604725526584
30
0
41
1
10
20.6106685606652
20
-4.63927582559276
30
0
41
1
10
20.9941493251206
20
-4.71536508294241
30
0
41
1
10
21.5688271524934
20
-4.80100772204747
30
0
41
1
10
21.7606826416365
20
-4.82470839605816
30
0
41
1
10
22.1443871949562
20
-4.86188135885098
30
0
41
1
10
22.3362283662829
20
-4.87541201796819
30
0
41
1
10
22.6912487198871
20
-4.89129884596474
30
0
41
1
10
22.8544580029994
20
-4.89496004715448
30
0
41
1
10
23.0176781466605
20
-4.89496856014776
30
0
0
SPLINE
5
FC
100
AcDbEntity
8
1
62
256
6
ByLayer
370
18
48
1
60
0
100
AcDbSpline
70
4
71
3
72
8
73
4
40
0
40
0
40
0
40
0
40
1
40
1
40
1
40
1
41
1
10
26.158689443036
20
-1.67484041956712
30
0
41
1
10
25.9708572393935
20
-1.58916418016574
30
0
41
1
10
25.7827528936624
20
-1.50276325996168
30
0
41
1
10
25.5947220200252
20
-1.41499665411604
30
0
0
SPLINE
5
FD
100
AcDbEntity
8
1
62
256
6
ByLayer
370
18
48
1
60
0
100
AcDbSpline
70
4
71
3
72
26
73
22
40
0
40
0
40
0
40
0
40
0.0607300915136546
40
0.118093628480146
40
0.155856305762514
40
0.184659026071738
40
0.213528534987483
40
0.24247796552284
40
0.275765743786634
40
0.334178685427101
40
0.402610856252391
40
0.460992550766141
40
0.507772834524773
40
0.561270710750318
40
0.613847677291213
40
0.679620417041906
40
0.751354433533969
40
0.801872880586729
40
0.851113761883655
40
0.918789152533988
40
1
40
1
40
1
40
1
41
1
10
26.1586889934857
20
-3.43020568082778
30
0
41
1
10
26.3194992753084
20
-3.43019346786855
30
0
41
1
10
26.6321934711516
20
-3.43022242410669
30
0
41
1
10
27.0448055116157
20
-3.43012385297865
30
0
41
1
10
27.3729286195256
20
-3.43049083170672
30
0
41
1
10
27.6256362760266
20
-3.43108889220375
30
0
41
1
10
27.8550027990011
20
-3.43162435834697
30
0
41
1
10
28.096246006251
20
-3.43177707041605
30
0
41
1
10
28.4157124204375
20
-3.43163107559499
30
0
41
1
10
28.8397303534954
20
-3.43131831997587
30
0
41
1
10
29.3302007199464
20
-3.43101419896448
30
0
41
1
10
29.7898545899313
20
-3.43074238915253
30
0
41
1
10
30.2099847423741
20
-3.4325575789162
30
0
41
1
10
30.614633780338
20
-3.4329071489943
30
0
41
1
10
31.0691419445272
20
-3.43277429524025
30
0
41
1
10
31.572706400321
20
-3.43313082600144
30
0
41
1
10
32.0701759064409
20
-3.43280514452232
30
0
41
1
10
32.5238170594759
20
-3.43283632052135
30
0
41
1
10
32.9667403807321
20
-3.43405701248326
30
0
41
1
10
33.4915787128981
20
-3.43344796073029
30
0
41
1
10
33.8854783536161
20
-3.43405190224448
30
0
41
1
10
34.1002952647433
20
-3.43441577026553
30
0
0
SPLINE
5
FE
100
AcDbEntity
8
1
62
256
6
ByLayer
370
18
48
1
60
0
100
AcDbSpline
70
4
71
1
72
4
73
2
40
0
40
0
40
1
40
1
41
1
10
26.0434604533934
20
-3.58577575579582
30
0
41
1
10
26.1582287941108
20
-3.59180509340968
30
0
0
SPLINE
5
FF
100
AcDbEntity
8
1
62
256
6
ByLayer
370
18
48
1
60
0
100
AcDbSpline
70
4
71
2
72
6
73
3
40
0
40
0
40
0
40
1
40
1
40
1
41
1
10
47.4168355591365
20
-3.44276180109296
30
0
41
1
10
47.5703694136527
20
-3.44249675570057
30
0
41
1
10
47.7234196283755
20
-3.44183381957995
30
0
0
SPLINE
5
100
100
AcDbEntity
8
1
62
256
6
ByLayer
370
18
48
1
60
0
100
AcDbSpline
70
4
71
3
72
24
73
20
40
0
40
0
40
0
40
0
40
0.0880993705577988
40
0.160887017753254
40
0.213988299296046
40
0.26917542548462
40
0.330150936869623
40
0.405507328817256
40
0.464923136028889
40
0.524559531013502
40
0.590106380916552
40
0.676167147293991
40
0.761670223004671
40
0.822713881520686
40
0.856577060860958
40
0.890361649247411
40
0.930087639408798
40
0.993881183797788
40
1
40
1
40
1
40
1
41
1
10
34.1001716893729
20
3.43441666434785
30
0
41
1
10
33.8814959350724
20
3.43405009935276
30
0
41
1
10
33.4820838816258
20
3.43343522194789
30
0
41
1
10
32.9501334212259
20
3.43406495123014
30
0
41
1
10
32.5006963904773
20
3.43276090979202
30
0
41
1
10
32.0805239278831
20
3.43284283467455
30
0
41
1
10
31.6050279141396
20
3.43311207865557
30
0
41
1
10
31.118464296537
20
3.43278438571463
30
0
41
1
10
30.6358795209452
20
3.43292441160622
30
0
41
1
10
30.1773460043985
20
3.4324714192187
30
0
41
1
10
29.6524272931874
20
3.43042531786736
30
0
41
1
10
29.0632830602867
20
3.43126005252157
30
0
41
1
10
28.4853059612958
20
3.43155627075637
30
0
41
1
10
28.0370425668073
20
3.43187663291806
30
0
41
1
10
27.717276498735
20
3.43133158917678
30
0
41
1
10
27.4504794555721
20
3.43064883941801
30
0
41
1
10
27.1093245390274
20
3.43012101233521
30
0
41
1
10
26.836963089496
20
3.43018475974972
30
0
41
1
10
26.6632698778695
20
3.43019312561273
30
0
41
1
10
26.6480679018308
20
3.43019366092378
30
0
0
SPLINE
5
101
100
AcDbEntity
8
1
62
256
6
ByLayer
370
18
48
1
60
0
100
AcDbSpline
70
4
71
1
72
4
73
2
40
0
40
0
40
1
40
1
41
1
10
35.8401308590853
20
-0.0002765776052058
30
0
41
1
10
35.8401195437996
20
-0.0002699786721223
30
0
0
SPLINE
5
102
100
AcDbEntity
8
1
62
256
6
ByLayer
370
18
48
1
60
0
100
AcDbSpline
70
4
71
1
72
4
73
2
40
0
40
0
40
1
40
1
41
1
10
26.1582287941108
20
3.59180509340968
30
0
41
1
10
26.052598458811
20
3.58625581954365
30
0
0
SPLINE
5
103
100
AcDbEntity
8
1
62
256
6
ByLayer
370
18
48
1
60
0
100
AcDbSpline
70
4
71
2
72
6
73
3
40
0
40
0
40
0
40
1
40
1
40
1
41
1
10
26.0565182647481
20
3.58235014701998
30
0
41
1
10
25.4022222219306
20
4.23403183808702
30
0
41
1
10
24.7481867856029
20
4.88574812875524
30
0
0
SPLINE
5
104
100
AcDbEntity
8
1
62
256
6
ByLayer
370
18
48
1
60
0
100
AcDbSpline
70
4
71
2
72
6
73
3
40
0
40
0
40
0
40
1
40
1
40
1
41
1
10
24.7481867856029
20
-4.88574812875535
30
0
41
1
10
25.4022222219306
20
-4.23403183808702
30
0
41
1
10
26.0565182647482
20
-3.58235014701995
30
0
0
LINE
5
7D
100
AcDbEntity
8
SK1
62
256
6
ByLayer
370
18
48
1
60
0
100
AcDbLine
10
-40
20
3.626895
30
0
11
-40
21
-3.343569
31
0
39
0
210
0
220
0
230
1
0
LINE
5
7F
100
AcDbEntity
8
SK1
62
256
6
ByLayer
370
13
48
1
60
0
100
AcDbLine
10
-39.35
20
-4.008394
30
0
11
-39.35
21
-4.291768
31
0
39
0
210
0
220
0
230
1
0
LINE
5
80
100
AcDbEntity
8
SK1
62
256
6
ByLayer
370
18
48
1
60
0
100
AcDbLine
10
-39.25
20
-4.41
30
0
11
-39.25
21
-4.146151
31
0
39
0
210
0
220
0
230
1
0
LINE
5
81
100
AcDbEntity
8
SK1
62
256
6
ByLayer
370
18
48
1
60
0
100
AcDbLine
10
0
20
-5
30
0
11
0
21
5
31
0
39
0
210
0
220
0
230
1
0
LINE
5
82
100
AcDbEntity
8
SK1
62
256
6
ByLayer
370
18
48
1
60
0
100
AcDbLine
10
-40
20
-3.343502
30
0
11
-40
21
-3.626895
31
0
39
0
210
0
220
0
230
1
0
LINE
5
83
100
AcDbEntity
8
SK1
62
256
6
ByLayer
370
18
48
1
60
0
100
AcDbLine
10
-39.25
20
4.41
30
0
11
-39.25
21
4.401144
31
0
39
0
210
0
220
0
230
1
0
LINE
5
84
100
AcDbEntity
8
SK1
62
256
6
ByLayer
370
18
48
1
60
0
100
AcDbLine
10
-38.66
20
5
30
0
11
-38.66
21
-5
31
0
39
0
210
0
220
0
230
1
0
LINE
5
85
100
AcDbEntity
8
1
62
256
6
ByLayer
370
13
48
1
60
0
100
AcDbLine
10
47.714371
20
0.743147
30
0
11
48.964256
21
-0.04806
31
0
39
0
210
0
220
0
230
1
0
LINE
5
86
100
AcDbEntity
8
1
62
256
6
ByLayer
370
18
48
1
60
0
100
AcDbLine
10
1.5
20
4.895
30
0
11
1.5
21
-4.895
31
0
39
0
210
0
220
0
230
1
0
LINE
5
87
100
AcDbEntity
8
1
62
256
6
ByLayer
370
18
48
1
60
0
100
AcDbLine
10
0
20
-5
30
0
11
0
21
5
31
0
39
0
210
0
220
0
230
1
0
LINE
5
88
100
AcDbEntity
8
1
62
256
6
ByLayer
370
13
48
1
60
0
100
AcDbLine
10
47.837252
20
0.847173
30
0
11
48.98947
21
0.117791
31
0
39
0
210
0
220
0
230
1
0
LINE
5
89
100
AcDbEntity
8
80
62
256
6
ByLayer
370
18
48
1
60
0
100
AcDbLine
10
0
20
0
30
0
11
-5
21
0
31
0
39
0
210
0
220
0
230
1
0
LINE
5
8A
100
AcDbEntity
8
SK4
62
256
6
ByLayer
370
18
48
0.05
60
0
100
AcDbLine
10
54
20
0
30
0
11
-45
21
0
31
0
39
0
210
0
220
0
230
1
0
LINE
5
8C
100
AcDbEntity
8
4
62
256
6
ByLayer
370
18
48
0.05
60
0
100
AcDbLine
10
49
20
0
30
0
11
0
21
0
31
0
39
0
210
0
220
0
230
1
0
LINE
5
8E
100
AcDbEntity
8
SK1
62
256
6
ByLayer
370
18
48
1
60
0
100
AcDbLine
10
-39.25
20
-4.41
30
0
11
-38.66
21
-5
31
0
39
0
210
0
220
0
230
1
0
LINE
5
8F
100
AcDbEntity
8
SK1
62
256
6
ByLayer
370
18
48
1
60
0
100
AcDbLine
10
-38.66
20
5
30
0
11
-39.25
21
4.41
31
0
39
0
210
0
220
0
230
1
0
LINE
5
90
100
AcDbEntity
8
SK1
62
256
6
ByLayer
370
18
48
1
60
0
100
AcDbLine
10
-38.66
20
-5
30
0
11
0
21
-5
31
0
39
0
210
0
220
0
230
1
0
LINE
5
91
100
AcDbEntity
8
SK1
62
256
6
ByLayer
370
18
48
1
60
0
100
AcDbLine
10
0
20
5
30
0
11
-38.66
21
5
31
0
39
0
210
0
220
0
230
1
0
LINE
5
92
100
AcDbEntity
8
1
62
256
6
ByLayer
370
18
48
1
60
0
100
AcDbLine
10
47.340107
20
3.624645
30
0
11
46.193632
21
3.623928
31
0
39
0
210
0
220
0
230
1
0
LINE
5
93
100
AcDbEntity
8
1
62
256
6
ByLayer
370
18
48
1
60
0
100
AcDbLine
10
46.193632
20
-3.623928
30
0
11
47.340107
21
-3.624645
31
0
39
0
210
0
220
0
230
1
0
LINE
5
94
100
AcDbEntity
8
1
62
256
6
ByLayer
370
18
48
1
60
0
100
AcDbLine
10
24.728773
20
4.895
30
0
11
23.017366
21
4.895
31
0
39
0
210
0
220
0
230
1
0
LINE
5
95
100
AcDbEntity
8
1
62
256
6
ByLayer
370
18
48
1
60
0
100
AcDbLine
10
11.718317
20
4.895
30
0
11
1.5
21
4.895
31
0
39
0
210
0
220
0
230
1
0
LINE
5
96
100
AcDbEntity
8
1
62
256
6
ByLayer
370
18
48
1
60
0
100
AcDbLine
10
1.5
20
-4.895
30
0
11
11.718317
21
-4.895
31
0
39
0
210
0
220
0
230
1
0
LINE
5
97
100
AcDbEntity
8
1
62
256
6
ByLayer
370
18
48
1
60
0
100
AcDbLine
10
23.017366
20
-4.895
30
0
11
24.728773
21
-4.895
31
0
39
0
210
0
220
0
230
1
0
LINE
5
98
100
AcDbEntity
8
1
62
256
6
ByLayer
370
18
48
1
60
0
100
AcDbLine
10
1.5
20
4.895
30
0
11
0
21
5
31
0
39
0
210
0
220
0
230
1
0
LINE
5
99
100
AcDbEntity
8
1
62
256
6
ByLayer
370
18
48
1
60
0
100
AcDbLine
10
0
20
-5
30
0
11
1.5
21
-4.895
31
0
39
0
210
0
220
0
230
1
0
LINE
5
9A
100
AcDbEntity
8
81
62
256
6
ByLayer
370
18
48
1
60
0
100
AcDbLine
10
49
20
0
30
0
11
54
21
0
31
0
39
0
210
0
220
0
230
1
0
LINE
5
9B
100
AcDbEntity
8
2
62
256
6
ByLayer
370
13
48
1
60
0
100
AcDbLine
10
71.236431
20
-4.895
30
0
11
71.236431
21
31.580881
31
0
39
0
210
0
220
0
230
1
0
LINE
5
9D
100
AcDbEntity
8
2
62
256
6
ByLayer
370
13
48
1
60
0
100
AcDbLine
10
26.4979
20
4.895
30
0
11
73.236431
21
4.895
31
0
39
0
210
0
220
0
230
1
0
LINE
5
9E
100
AcDbEntity
8
2
62
256
6
ByLayer
370
13
48
1
60
0
100
AcDbLine
10
26.4979
20
-4.895
30
0
11
73.236431
21
-4.895
31
0
39
0
210
0
220
0
230
1
0
LINE
5
9F
100
AcDbEntity
8
1
62
256
6
ByLayer
370
18
48
1
60
1
100
AcDbLine
10
71.236431
20
4.895
30
0
11
71.697214
21
1.395002
31
0
39
0
210
0
220
0
230
1
0
LINE
5
A0
100
AcDbEntity
8
1
62
256
6
ByLayer
370
18
48
1
60
1
100
AcDbLine
10
71.697214
20
1.395002
30
0
11
70.775647
21
1.394998
31
0
39
0
210
0
220
0
230
1
0
LINE
5
A1
100
AcDbEntity
8
1
62
256
6
ByLayer
370
18
48
1
60
1
100
AcDbLine
10
70.775647
20
1.394998
30
0
11
71.236431
21
4.895
31
0
39
0
210
0
220
0
230
1
0
LINE
5
A2
100
AcDbEntity
8
1
62
256
6
ByLayer
370
18
48
1
60
1
100
AcDbLine
10
71.236431
20
-4.895
30
0
11
70.775647
21
-1.395002
31
0
39
0
210
0
220
0
230
1
0
LINE
5
A3
100
AcDbEntity
8
1
62
256
6
ByLayer
370
18
48
1
60
1
100
AcDbLine
10
70.775647
20
-1.395002
30
0
11
71.697214
21
-1.394998
31
0
39
0
210
0
220
0
230
1
0
LINE
5
A4
100
AcDbEntity
8
1
62
256
6
ByLayer
370
18
48
1
60
1
100
AcDbLine
10
71.697214
20
-1.394998
30
0
11
71.236431
21
-4.895
31
0
39
0
210
0
220
0
230
1
0
LINE
5
A5
100
AcDbEntity
8
SK2
62
256
6
ByLayer
370
13
48
1
60
0
100
AcDbLine
10
-48.625163
20
-5
30
0
11
-48.625163
21
35.857173
31
0
39
0
210
0
220
0
230
1
0
LINE
5
A7
100
AcDbEntity
8
SK2
62
256
6
ByLayer
370
13
48
1
60
0
100
AcDbLine
10
-41.5875
20
5
30
0
11
-50.625163
21
5
31
0
39
0
210
0
220
0
230
1
0
LINE
5
A8
100
AcDbEntity
8
SK2
62
256
6
ByLayer
370
13
48
1
60
0
100
AcDbLine
10
-41.5875
20
-5
30
0
11
-50.625163
21
-5
31
0
39
0
210
0
220
0
230
1
0
LINE
5
A9
100
AcDbEntity
8
1
62
256
6
ByLayer
370
18
48
1
60
1
100
AcDbLine
10
-48.625163
20
5
30
0
11
-48.164379
21
1.500002
31
0
39
0
210
0
220
0
230
1
0
LINE
5
AA
100
AcDbEntity
8
1
62
256
6
ByLayer
370
18
48
1
60
1
100
AcDbLine
10
-48.164379
20
1.500002
30
0
11
-49.085946
21
1.499998
31
0
39
0
210
0
220
0
230
1
0
LINE
5
AB
100
AcDbEntity
8
1
62
256
6
ByLayer
370
18
48
1
60
1
100
AcDbLine
10
-49.085946
20
1.499998
30
0
11
-48.625163
21
5
31
0
39
0
210
0
220
0
230
1
0
LINE
5
AC
100
AcDbEntity
8
1
62
256
6
ByLayer
370
18
48
1
60
1
100
AcDbLine
10
-48.625163
20
-5
30
0
11
-49.085946
21
-1.500002
31
0
39
0
210
0
220
0
230
1
0
LINE
5
AD
100
AcDbEntity
8
1
62
256
6
ByLayer
370
18
48
1
60
1
100
AcDbLine
10
-49.085946
20
-1.500002
30
0
11
-48.164379
21
-1.499998
31
0
39
0
210
0
220
0
230
1
0
LINE
5
AE
100
AcDbEntity
8
1
62
256
6
ByLayer
370
18
48
1
60
1
100
AcDbLine
10
-48.164379
20
-1.499998
30
0
11
-48.625163
21
-5
31
0
39
0
210
0
220
0
230
1
0
LINE
5
AF
100
AcDbEntity
8
2
62
256
6
ByLayer
370
13
48
1
60
0
100
AcDbLine
10
62.970081
20
-3.625
30
0
11
62.970081
21
32.08983
31
0
39
0
210
0
220
0
230
1
0
LINE
5
B0
100
AcDbEntity
8
2
62
256
6
ByLayer
370
13
48
1
60
0
100
AcDbLine
10
49.5179
20
3.625
30
0
11
64.970081
21
3.625
31
0
39
0
210
0
220
0
230
1
0
LINE
5
B1
100
AcDbEntity
8
2
62
256
6
ByLayer
370
13
48
1
60
0
100
AcDbLine
10
49.5179
20
-3.625
30
0
11
64.970081
21
-3.625
31
0
39
0
210
0
220
0
230
1
0
LINE
5
B2
100
AcDbEntity
8
1
62
256
6
ByLayer
370
18
48
1
60
1
100
AcDbLine
10
62.970081
20
3.625
30
0
11
63.430865
21
0.125002
31
0
39
0
210
0
220
0
230
1
0
LINE
5
B3
100
AcDbEntity
8
1
62
256
6
ByLayer
370
18
48
1
60
1
100
AcDbLine
10
63.430865
20
0.125002
30
0
11
62.509297
21
0.124998
31
0
39
0
210
0
220
0
230
1
0
LINE
5
B4
100
AcDbEntity
8
1
62
256
6
ByLayer
370
18
48
1
60
1
100
AcDbLine
10
62.509297
20
0.124998
30
0
11
62.970081
21
3.625
31
0
39
0
210
0
220
0
230
1
0
LINE
5
B5
100
AcDbEntity
8
1
62
256
6
ByLayer
370
18
48
1
60
1
100
AcDbLine
10
62.970081
20
-3.625
30
0
11
62.509297
21
-0.125002
31
0
39
0
210
0
220
0
230
1
0
LINE
5
B6
100
AcDbEntity
8
1
62
256
6
ByLayer
370
18
48
1
60
1
100
AcDbLine
10
62.509297
20
-0.125002
30
0
11
63.430865
21
-0.124998
31
0
39
0
210
0
220
0
230
1
0
LINE
5
B7
100
AcDbEntity
8
1
62
256
6
ByLayer
370
18
48
1
60
1
100
AcDbLine
10
63.430865
20
-0.124998
30
0
11
62.970081
21
-3.625
31
0
39
0
210
0
220
0
230
1
0
LINE
5
B8
100
AcDbEntity
8
SK2
62
256
6
ByLayer
370
13
48
1
60
0
100
AcDbLine
10
23.787868
20
-6.017532
30
0
11
14.989529
21
-14.815871
31
0
39
0
210
0
220
0
230
1
0
LINE
5
B9
100
AcDbEntity
8
SK2
62
256
6
ByLayer
370
13
48
1
60
0
100
AcDbLine
10
23.787868
20
6.017532
30
0
11
14.989529
21
14.815871
31
0
39
0
210
0
220
0
230
1
0
LINE
5
BA
100
AcDbEntity
8
1
62
256
6
ByLayer
370
18
48
1
60
1
100
AcDbLine
10
16.403743
20
-13.401657
30
0
11
13.704915
21
-11.125996
31
0
39
0
210
0
220
0
230
1
0
LINE
5
BB
100
AcDbEntity
8
1
62
256
6
ByLayer
370
18
48
1
60
1
100
AcDbLine
10
13.704915
20
-11.125996
30
0
11
14.385858
21
-10.505026
31
0
39
0
210
0
220
0
230
1
0
LINE
5
BC
100
AcDbEntity
8
1
62
256
6
ByLayer
370
18
48
1
60
1
100
AcDbLine
10
14.385858
20
-10.505026
30
0
11
16.403743
21
-13.401657
31
0
39
0
210
0
220
0
230
1
0
LINE
5
BD
100
AcDbEntity
8
1
62
256
6
ByLayer
370
18
48
1
60
1
100
AcDbLine
10
16.403743
20
13.401657
30
0
11
14.38586
21
10.505029
31
0
39
0
210
0
220
0
230
1
0
LINE
5
BE
100
AcDbEntity
8
1
62
256
6
ByLayer
370
18
48
1
60
1
100
AcDbLine
10
14.38586
20
10.505029
30
0
11
13.704912
21
11.125993
31
0
39
0
210
0
220
0
230
1
0
LINE
5
BF
100
AcDbEntity
8
1
62
256
6
ByLayer
370
18
48
1
60
1
100
AcDbLine
10
13.704912
20
11.125993
30
0
11
16.403743
21
13.401657
31
0
39
0
210
0
220
0
230
1
0
LINE
5
10B
100
AcDbEntity
8
1
62
256
6
ByLayer
370
18
48
1
60
1
100
AcDbLine
10
71.236431
20
4.895
30
0
11
71.697214
21
1.395002
31
0
39
0
210
0
220
0
230
1
0
LINE
5
10C
100
AcDbEntity
8
1
62
256
6
ByLayer
370
18
48
1
60
1
100
AcDbLine
10
71.697214
20
1.395002
30
0
11
70.775647
21
1.394998
31
0
39
0
210
0
220
0
230
1
0
LINE
5
10D
100
AcDbEntity
8
1
62
256
6
ByLayer
370
18
48
1
60
1
100
AcDbLine
10
70.775647
20
1.394998
30
0
11
71.236431
21
4.895
31
0
39
0
210
0
220
0
230
1
0
LINE
5
10F
100
AcDbEntity
8
1
62
256
6
ByLayer
370
18
48
1
60
1
100
AcDbLine
10
71.236431
20
-4.895
30
0
11
70.775647
21
-1.395002
31
0
39
0
210
0
220
0
230
1
0
LINE
5
110
100
AcDbEntity
8
1
62
256
6
ByLayer
370
18
48
1
60
1
100
AcDbLine
10
70.775647
20
-1.395002
30
0
11
71.697214
21
-1.394998
31
0
39
0
210
0
220
0
230
1
0
LINE
5
111
100
AcDbEntity
8
1
62
256
6
ByLayer
370
18
48
1
60
1
100
AcDbLine
10
71.697214
20
-1.394998
30
0
11
71.236431
21
-4.895
31
0
39
0
210
0
220
0
230
1
0
LINE
5
115
100
AcDbEntity
8
1
62
256
6
ByLayer
370
18
48
1
60
1
100
AcDbLine
10
-48.625163
20
5
30
0
11
-48.164379
21
1.500002
31
0
39
0
210
0
220
0
230
1
0
LINE
5
116
100
AcDbEntity
8
1
62
256
6
ByLayer
370
18
48
1
60
1
100
AcDbLine
10
-48.164379
20
1.500002
30
0
11
-49.085946
21
1.499998
31
0
39
0
210
0
220
0
230
1
0
LINE
5
117
100
AcDbEntity
8
1
62
256
6
ByLayer
370
18
48
1
60
1
100
AcDbLine
10
-49.085946
20
1.499998
30
0
11
-48.625163
21
5
31
0
39
0
210
0
220
0
230
1
0
LINE
5
119
100
AcDbEntity
8
1
62
256
6
ByLayer
370
18
48
1
60
1
100
AcDbLine
10
-48.625163
20
-5
30
0
11
-49.085946
21
-1.500002
31
0
39
0
210
0
220
0
230
1
0
LINE
5
11A
100
AcDbEntity
8
1
62
256
6
ByLayer
370
18
48
1
60
1
100
AcDbLine
10
-49.085946
20
-1.500002
30
0
11
-48.164379
21
-1.499998
31
0
39
0
210
0
220
0
230
1
0
LINE
5
11B
100
AcDbEntity
8
1
62
256
6
ByLayer
370
18
48
1
60
1
100
AcDbLine
10
-48.164379
20
-1.499998
30
0
11
-48.625163
21
-5
31
0
39
0
210
0
220
0
230
1
0
LINE
5
11F
100
AcDbEntity
8
1
62
256
6
ByLayer
370
18
48
1
60
1
100
AcDbLine
10
62.970081
20
3.625
30
0
11
63.430865
21
0.125002
31
0
39
0
210
0
220
0
230
1
0
LINE
5
120
100
AcDbEntity
8
1
62
256
6
ByLayer
370
18
48
1
60
1
100
AcDbLine
10
63.430865
20
0.125002
30
0
11
62.509297
21
0.124998
31
0
39
0
210
0
220
0
230
1
0
LINE
5
121
100
AcDbEntity
8
1
62
256
6
ByLayer
370
18
48
1
60
1
100
AcDbLine
10
62.509297
20
0.124998
30
0
11
62.970081
21
3.625
31
0
39
0
210
0
220
0
230
1
0
LINE
5
123
100
AcDbEntity
8
1
62
256
6
ByLayer
370
18
48
1
60
1
100
AcDbLine
10
62.970081
20
-3.625
30
0
11
62.509297
21
-0.125002
31
0
39
0
210
0
220
0
230
1
0
LINE
5
124
100
AcDbEntity
8
1
62
256
6
ByLayer
370
18
48
1
60
1
100
AcDbLine
10
62.509297
20
-0.125002
30
0
11
63.430865
21
-0.124998
31
0
39
0
210
0
220
0
230
1
0
LINE
5
125
100
AcDbEntity
8
1
62
256
6
ByLayer
370
18
48
1
60
1
100
AcDbLine
10
63.430865
20
-0.124998
30
0
11
62.970081
21
-3.625
31
0
39
0
210
0
220
0
230
1
0
LINE
5
128
100
AcDbEntity
8
1
62
256
6
ByLayer
370
18
48
1
60
1
100
AcDbLine
10
16.403743
20
-13.401657
30
0
11
13.704915
21
-11.125996
31
0
39
0
210
0
220
0
230
1
0
LINE
5
129
100
AcDbEntity
8
1
62
256
6
ByLayer
370
18
48
1
60
1
100
AcDbLine
10
13.704915
20
-11.125996
30
0
11
14.385858
21
-10.505026
31
0
39
0
210
0
220
0
230
1
0
LINE
5
12A
100
AcDbEntity
8
1
62
256
6
ByLayer
370
18
48
1
60
1
100
AcDbLine
10
14.385858
20
-10.505026
30
0
11
16.403743
21
-13.401657
31
0
39
0
210
0
220
0
230
1
0
LINE
5
12C
100
AcDbEntity
8
1
62
256
6
ByLayer
370
18
48
1
60
1
100
AcDbLine
10
16.403743
20
13.401657
30
0
11
14.38586
21
10.505029
31
0
39
0
210
0
220
0
230
1
0
LINE
5
12D
100
AcDbEntity
8
1
62
256
6
ByLayer
370
18
48
1
60
1
100
AcDbLine
10
14.38586
20
10.505029
30
0
11
13.704912
21
11.125993
31
0
39
0
210
0
220
0
230
1
0
LINE
5
12E
100
AcDbEntity
8
1
62
256
6
ByLayer
370
18
48
1
60
1
100
AcDbLine
10
13.704912
20
11.125993
30
0
11
16.403743
21
13.401657
31
0
39
0
210
0
220
0
230
1
0
MTEXT
5
105
100
AcDbEntity
8
SK6
62
256
6
ByLayer
370
13
48
1
60
0
100
AcDbMText
10
-25.082626
20
36.165328
30
0
210
0
220
0
230
1
1
\W0.7776;462.2-0725-023A1-XM X2BM
40
3.5
41
0
44
1.084337
50
0
71
7
72
5
7
iso_b_vert
0
MTEXT
5
109
100
AcDbEntity
8
2
62
256
6
ByLayer
370
18
48
1
60
0
100
AcDbMText
10
69.671797
20
15.872798
30
0
210
0
220
0
230
1
1
%%c
40
3.5
41
0
44
1.084337
50
90
71
7
72
5
7
iso_b_vert
0
MTEXT
5
10A
100
AcDbEntity
8
2
62
256
6
ByLayer
370
18
48
1
60
0
100
AcDbMText
10
69.671797
20
21.095454
30
0
210
0
220
0
230
1
1
\W0.7317;9,790
40
3.5
41
0
44
1.084337
50
90
71
7
72
5
7
iso_b_vert
0
MTEXT
5
113
100
AcDbEntity
8
SK2
62
256
6
ByLayer
370
18
48
1
60
0
100
AcDbMText
10
-50.189796
20
18.409024
30
0
210
0
220
0
230
1
1
%%c
40
3.5
41
0
44
1.084337
50
90
71
7
72
5
7
iso_b_vert
0
MTEXT
5
114
100
AcDbEntity
8
SK2
62
256
6
ByLayer
370
18
48
1
60
0
100
AcDbMText
10
-50.189796
20
23.63168
30
0
210
0
220
0
230
1
1
\W0.6930;10,000
40
3.5
41
0
44
1.084337
50
90
71
7
72
5
7
iso_b_vert
0
MTEXT
5
11D
100
AcDbEntity
8
2
62
256
6
ByLayer
370
18
48
1
60
0
100
AcDbMText
10
61.405448
20
16.381747
30
0
210
0
220
0
230
1
1
%%c
40
3.5
41
0
44
1.084337
50
90
71
7
72
5
7
iso_b_vert
0
MTEXT
5
11E
100
AcDbEntity
8
2
62
256
6
ByLayer
370
18
48
1
60
0
100
AcDbMText
10
61.405448
20
21.604403
30
0
210
0
220
0
230
1
1
\W0.7317;7,250
40
3.5
41
0
44
1.084337
50
90
71
7
72
5
7
iso_b_vert
0
MTEXT
5
127
100
AcDbEntity
8
SK2
62
256
6
ByLayer
370
13
48
1
60
0
100
AcDbMText
10
6.037275
20
-0.291663
30
0
210
0
220
0
230
1
1
\W0.8181;90,0%%d
40
3.5
41
0
44
1.084337
50
0
71
7
72
5
7
iso_b_vert
0
HATCH
5
10E
100
AcDbEntity
8
2
62
256
6
ByLayer
370
13
48
1
60
0
100
AcDbHatch
10
0
20
0
30
0
210
0
220
0
230
1
2
ANSI31
70
0
71
0
91
1
92
5
93
3
72
1
10
71.2364306046164
20
4.89500000000001
11
71.6972143461692
21
1.39500169255319
72
1
10
71.6972143461692
20
1.39500169255319
11
70.7756468630637
21
1.39499830744683
72
1
10
70.7756468630637
20
1.39499830744683
11
71.2364306046164
21
4.89500000000001
97
0
75
0
76
1
52
0
41
0.0062
77
0
78
1
53
45
43
0
44
0
45
-0.0139193969876572
46
0.0139193969876572
79
0
47
0
98
1
10
0
20
0
0
HATCH
5
112
100
AcDbEntity
8
2
62
256
6
ByLayer
370
13
48
1
60
0
100
AcDbHatch
10
0
20
0
30
0
210
0
220
0
230
1
2
ANSI31
70
0
71
0
91
1
92
5
93
3
72
1
10
71.2364306046164
20
-4.89499999999998
11
70.7756468630637
21
-1.39500169255317
72
1
10
70.7756468630637
20
-1.39500169255317
11
71.6972143461692
21
-1.3949983074468
72
1
10
71.6972143461692
20
-1.3949983074468
11
71.2364306046164
21
-4.89499999999998
97
0
75
0
76
1
52
0
41
0.0062
77
0
78
1
53
45
43
0
44
0
45
-0.0139193969876572
46
0.0139193969876572
79
0
47
0
98
1
10
0
20
0
0
HATCH
5
118
100
AcDbEntity
8
SK2
62
256
6
ByLayer
370
13
48
1
60
0
100
AcDbHatch
10
0
20
0
30
0
210
0
220
0
230
1
2
ANSI31
70
0
71
0
91
1
92
5
93
3
72
1
10
-48.6251625675374
20
5
11
-48.1643788259847
21
1.50000169255318
72
1
10
-48.1643788259847
20
1.50000169255318
11
-49.0859463090902
21
1.49999830744682
72
1
10
-49.0859463090902
20
1.49999830744682
11
-48.6251625675374
21
5
97
0
75
0
76
1
52
0
41
0.0062
77
0
78
1
53
45
43
0
44
0
45
-0.0139193969876572
46
0.0139193969876572
79
0
47
0
98
1
10
0
20
0
0
HATCH
5
11C
100
AcDbEntity
8
SK2
62
256
6
ByLayer
370
13
48
1
60
0
100
AcDbHatch
10
0
20
0
30
0
210
0
220
0
230
1
2
ANSI31
70
0
71
0
91
1
92
5
93
3
72
1
10
-48.6251625675374
20
-5
11
-49.0859463090902
21
-1.50000169255318
72
1
10
-49.0859463090902
20
-1.50000169255318
11
-48.1643788259847
21
-1.49999830744682
72
1
10
-48.1643788259847
20
-1.49999830744682
11
-48.6251625675374
21
-5
97
0
75
0
76
1
52
0
41
0.0062
77
0
78
1
53
45
43
0
44
0
45
-0.0139193969876572
46
0.0139193969876572
79
0
47
0
98
1
10
0
20
0
0
HATCH
5
122
100
AcDbEntity
8
2
62
256
6
ByLayer
370
13
48
1
60
0
100
AcDbHatch
10
0
20
0
30
0
210
0
220
0
230
1
2
ANSI31
70
0
71
0
91
1
92
5
93
3
72
1
10
62.9700811011615
20
3.625
11
63.4308648427142
21
0.125001692553184
72
1
10
63.4308648427142
20
0.125001692553184
11
62.5092973596088
21
0.124998307446816
72
1
10
62.5092973596088
20
0.124998307446816
11
62.9700811011615
21
3.625
97
0
75
0
76
1
52
0
41
0.0062
77
0
78
1
53
45
43
0
44
0
45
-0.0139193969876572
46
0.0139193969876572
79
0
47
0
98
1
10
0
20
0
0
HATCH
5
126
100
AcDbEntity
8
2
62
256
6
ByLayer
370
13
48
1
60
0
100
AcDbHatch
10
0
20
0
30
0
210
0
220
0
230
1
2
ANSI31
70
0
71
0
91
1
92
5
93
3
72
1
10
62.9700811011615
20
-3.625
11
62.5092973596088
21
-0.125001692553184
72
1
10
62.5092973596088
20
-0.125001692553184
11
63.4308648427142
21
-0.124998307446816
72
1
10
63.4308648427142
20
-0.124998307446816
11
62.9700811011615
21
-3.625
97
0
75
0
76
1
52
0
41
0.0062
77
0
78
1
53
45
43
0
44
0
45
-0.0139193969876572
46
0.0139193969876572
79
0
47
0
98
1
10
0
20
0
0
HATCH
5
12B
100
AcDbEntity
8
SK2
62
256
6
ByLayer
370
13
48
1
60
0
100
AcDbHatch
10
0
20
0
30
0
210
0
220
0
230
1
2
ANSI31
70
0
71
0
91
1
92
5
93
3
72
1
10
16.403742652363
20
-13.4016573476368
11
13.7049145038333
21
-11.125995590408
72
1
10
13.7049145038333
20
-11.125995590408
11
14.3858575275663
21
-10.5050260063234
72
1
10
14.3858575275663
20
-10.5050260063234
11
16.403742652363
21
-13.4016573476368
97
0
75
0
76
1
52
0
41
0.0062
77
0
78
1
53
45
43
0
44
0
45
-0.0139193969876572
46
0.0139193969876572
79
0
47
0
98
1
10
0
20
0
0
HATCH
5
12F
100
AcDbEntity
8
SK2
62
256
6
ByLayer
370
13
48
1
60
0
100
AcDbHatch
10
0
20
0
30
0
210
0
220
0
230
1
2
ANSI31
70
0
71
0
91
1
92
5
93
3
72
1
10
16.4037426523631
20
13.4016573476369
11
14.3858598085059
21
10.5050285075753
72
1
10
14.3858598085059
20
10.5050285075753
11
13.704912222894
21
11.1259930891563
72
1
10
13.704912222894
20
11.1259930891563
11
16.4037426523631
21
13.4016573476369
97
0
75
0
76
1
52
0
41
0.0062
77
0
78
1
53
45
43
0
44
0
45
-0.0139193969876572
46
0.0139193969876572
79
0
47
0
98
1
10
0
20
0
0
DIMENSION
5
131
100
AcDbEntity
8
SK2
62
256
6
ByLayer
370
13
48
1
60
0
100
AcDbDimension
2
_U0
10
47.9304
20
-16.427503
30
0
11
23.9652
21
-16.427503
31
0
70
32
71
1
72
1
41
1
210
0
220
0
230
1
3
Standard
100
AcDbAlignedDimension
13
0
23
0
33
0
14
47.9304
24
-3.625
34
0
50
0
100
AcDbRotatedDimension
1001
ACAD
1000
DSTYLE
1002
{
1070
   371
1070
    13
1070
   372
1070
    13
1070
   170
1070
     0
1070
   144
1040
1.0
1070
   277
1070
     2
1070
   278
1070
    44
1070
   146
1040
1.0
1070
   345
1005
16
1070
   347
1005
16
1070
   346
1005
16
1070
   344
1005
0
1070
   343
1005
0
1070
   172
1070
     1
1070
    76
1070
     0
1070
    75
1070
     0
1070
   282
1070
     0
1070
   281
1070
     0
1070
    71
1070
     0
1070
    74
1070
     0
1070
   279
1070
     0
1070
   173
1070
     1
1070
   340
1005
106
1070
   271
1070
     2
1070
   272
1070
     2
1070
    77
1070
     1
1070
    73
1070
     1
1070
   171
1070
     3
1070
   274
1070
     4
1070
   177
1070
    35
1070
   176
1070
    35
1070
   178
1070
    35
1070
    48
1040
-0.1
1070
    41
1040
3.5
1070
   147
1040
1.75
1070
    42
1040
1.5875
1070
    44
1040
2.0
1070
   140
1040
3.5
1002
}
1001
ACAD_DSTYLE_DIM_LINETYPE
1070
   380
1005
16
1001
ACAD_DSTYLE_DIM_EXT1_LINETYPE
1070
   381
1005
16
1001
ACAD_DSTYLE_DIM_EXT2_LINETYPE
1070
   382
1005
16
0
DIMENSION
5
14A
100
AcDbEntity
8
SK2
62
256
6
ByLayer
370
13
48
1
60
0
100
AcDbDimension
2
_U1
10
49
20
-36.192985
30
0
11
4.5
21
-36.192985
31
0
70
32
71
1
72
1
41
1
210
0
220
0
230
1
3
Standard
100
AcDbAlignedDimension
13
-40
23
-5
33
0
14
49
24
0
34
0
50
0
100
AcDbRotatedDimension
1001
ACAD
1000
DSTYLE
1002
{
1070
   371
1070
    13
1070
   372
1070
    13
1070
   170
1070
     0
1070
   144
1040
1.0
1070
   277
1070
     2
1070
   278
1070
    44
1070
   146
1040
1.0
1070
   345
1005
16
1070
   347
1005
16
1070
   346
1005
16
1070
   344
1005
0
1070
   343
1005
0
1070
   172
1070
     1
1070
    76
1070
     0
1070
    75
1070
     0
1070
   282
1070
     0
1070
   281
1070
     0
1070
    71
1070
     0
1070
    74
1070
     0
1070
   279
1070
     0
1070
   173
1070
     1
1070
   340
1005
106
1070
   271
1070
     2
1070
   272
1070
     2
1070
    77
1070
     1
1070
    73
1070
     1
1070
   171
1070
     3
1070
   274
1070
     4
1070
   177
1070
    35
1070
   176
1070
    35
1070
   178
1070
    35
1070
    48
1040
-0.1
1070
    41
1040
3.5
1070
   147
1040
1.75
1070
    42
1040
1.5875
1070
    44
1040
2.0
1070
   140
1040
3.5
1002
}
1001
ACAD_DSTYLE_DIM_LINETYPE
1070
   380
1005
16
1001
ACAD_DSTYLE_DIM_EXT1_LINETYPE
1070
   381
1005
16
1001
ACAD_DSTYLE_DIM_EXT2_LINETYPE
1070
   382
1005
16
0
DIMENSION
5
162
100
AcDbEntity
8
SK2
62
256
6
ByLayer
370
13
48
1
60
0
100
AcDbDimension
2
_U2
10
49
20
15.234119
30
0
11
36.955
21
15.234119
31
0
70
32
71
1
72
1
41
1
210
0
220
0
230
1
3
Standard
100
AcDbAlignedDimension
13
24.91
23
4.895
33
0
14
49
24
0
34
0
50
0
100
AcDbRotatedDimension
1001
ACAD
1000
DSTYLE
1002
{
1070
   371
1070
    13
1070
   372
1070
    13
1070
   170
1070
     0
1070
   144
1040
1.0
1070
   277
1070
     2
1070
   278
1070
    44
1070
   146
1040
1.0
1070
   345
1005
16
1070
   347
1005
16
1070
   346
1005
16
1070
   344
1005
0
1070
   343
1005
0
1070
   172
1070
     1
1070
    76
1070
     0
1070
    75
1070
     0
1070
   282
1070
     0
1070
   281
1070
     0
1070
    71
1070
     0
1070
    74
1070
     0
1070
   279
1070
     0
1070
   173
1070
     1
1070
   340
1005
106
1070
   271
1070
     2
1070
   272
1070
     2
1070
    77
1070
     1
1070
    73
1070
     1
1070
   171
1070
     3
1070
   274
1070
     4
1070
   177
1070
    35
1070
   176
1070
    35
1070
   178
1070
    35
1070
    48
1040
-0.1
1070
    41
1040
3.5
1070
   147
1040
1.75
1070
    42
1040
1.5875
1070
    44
1040
2.0
1070
   140
1040
3.5
1002
}
1001
ACAD_DSTYLE_DIM_LINETYPE
1070
   380
1005
16
1001
ACAD_DSTYLE_DIM_EXT1_LINETYPE
1070
   381
1005
16
1001
ACAD_DSTYLE_DIM_EXT2_LINETYPE
1070
   382
1005
16
0
DIMENSION
5
17A
100
AcDbEntity
8
SK2
62
256
6
ByLayer
370
13
48
1
60
0
100
AcDbDimension
2
_U3
10
47.9304
20
-16.427503
30
0
11
66.333333
21
-16.427503
31
0
70
32
71
1
72
1
41
1
210
0
220
0
230
1
3
Standard
100
AcDbAlignedDimension
13
49
23
0
33
0
14
47.9304
24
-3.625
34
0
50
0
100
AcDbRotatedDimension
1001
ACAD
1000
DSTYLE
1002
{
1070
   371
1070
    13
1070
   372
1070
    13
1070
   170
1070
     0
1070
   144
1040
1.0
1070
   277
1070
     2
1070
   278
1070
    44
1070
   146
1040
1.0
1070
   345
1005
16
1070
   347
1005
16
1070
   346
1005
16
1070
   344
1005
0
1070
   343
1005
0
1070
   172
1070
     1
1070
    76
1070
     0
1070
    75
1070
     0
1070
   282
1070
     0
1070
   281
1070
     0
1070
    71
1070
     0
1070
    74
1070
     0
1070
   279
1070
     0
1070
   173
1070
     1
1070
   340
1005
106
1070
   271
1070
     2
1070
   272
1070
     2
1070
    77
1070
     1
1070
    73
1070
     1
1070
   171
1070
     3
1070
   274
1070
     4
1070
   177
1070
    35
1070
   176
1070
    35
1070
   178
1070
    35
1070
    48
1040
-0.1
1070
    41
1040
3.5
1070
   147
1040
1.75
1070
    42
1040
1.5875
1070
    44
1040
2.0
1070
   140
1040
3.5
1002
}
1001
ACAD_DSTYLE_DIM_LINETYPE
1070
   380
1005
16
1001
ACAD_DSTYLE_DIM_EXT1_LINETYPE
1070
   381
1005
16
1001
ACAD_DSTYLE_DIM_EXT2_LINETYPE
1070
   382
1005
16
0
DIMENSION
5
194
100
AcDbEntity
8
SK2
62
256
6
ByLayer
370
13
48
1
60
0
100
AcDbDimension
2
_U4
10
26.1804
20
7.760371
30
0
11
37.0554
21
7.760371
31
0
70
32
71
1
72
1
41
1
210
0
220
0
230
1
3
Standard
100
AcDbAlignedDimension
13
47.9304
23
3.625
33
0
14
26.1804
24
3.625
34
0
50
0
100
AcDbRotatedDimension
1001
ACAD
1000
DSTYLE
1002
{
1070
   371
1070
    13
1070
   372
1070
    13
1070
   170
1070
     0
1070
   144
1040
1.0
1070
   277
1070
     2
1070
   278
1070
    44
1070
   146
1040
1.0
1070
   345
1005
16
1070
   347
1005
16
1070
   346
1005
16
1070
   344
1005
0
1070
   343
1005
0
1070
   172
1070
     1
1070
    76
1070
     0
1070
    75
1070
     0
1070
   282
1070
     0
1070
   281
1070
     0
1070
    71
1070
     0
1070
    74
1070
     0
1070
   279
1070
     0
1070
   173
1070
     1
1070
   340
1005
106
1070
   271
1070
     2
1070
   272
1070
     2
1070
    77
1070
     1
1070
    73
1070
     1
1070
   171
1070
     3
1070
   274
1070
     4
1070
   177
1070
    35
1070
   176
1070
    35
1070
   178
1070
    35
1070
    48
1040
-0.1
1070
    41
1040
3.5
1070
   147
1040
1.75
1070
    42
1040
1.5875
1070
    44
1040
2.0
1070
   140
1040
3.5
1002
}
1001
ACAD_DSTYLE_DIM_LINETYPE
1070
   380
1005
16
1001
ACAD_DSTYLE_DIM_EXT1_LINETYPE
1070
   381
1005
16
1001
ACAD_DSTYLE_DIM_EXT2_LINETYPE
1070
   382
1005
16
0
DIMENSION
5
1AC
100
AcDbEntity
8
SK2
62
256
6
ByLayer
370
13
48
1
60
0
100
AcDbDimension
2
_U5
10
47.9304
20
-25.690158
30
0
11
3.9652
21
-25.690158
31
0
70
32
71
1
72
1
41
1
210
0
220
0
230
1
3
Standard
100
AcDbAlignedDimension
13
-40
23
-5
33
0
14
47.9304
24
-3.625
34
0
50
0
100
AcDbRotatedDimension
1001
ACAD
1000
DSTYLE
1002
{
1070
   371
1070
    13
1070
   372
1070
    13
1070
   170
1070
     0
1070
   144
1040
1.0
1070
   277
1070
     2
1070
   278
1070
    44
1070
   146
1040
1.0
1070
   345
1005
16
1070
   347
1005
16
1070
   346
1005
16
1070
   344
1005
0
1070
   343
1005
0
1070
   172
1070
     1
1070
    76
1070
     0
1070
    75
1070
     0
1070
   282
1070
     0
1070
   281
1070
     0
1070
    71
1070
     0
1070
    74
1070
     0
1070
   279
1070
     0
1070
   173
1070
     1
1070
   340
1005
106
1070
   271
1070
     2
1070
   272
1070
     2
1070
    77
1070
     1
1070
    73
1070
     1
1070
   171
1070
     3
1070
   274
1070
     4
1070
   177
1070
    35
1070
   176
1070
    35
1070
   178
1070
    35
1070
    48
1040
-0.1
1070
    41
1040
3.5
1070
   147
1040
1.75
1070
    42
1040
1.5875
1070
    44
1040
2.0
1070
   140
1040
3.5
1002
}
1001
ACAD_DSTYLE_DIM_LINETYPE
1070
   380
1005
16
1001
ACAD_DSTYLE_DIM_EXT1_LINETYPE
1070
   381
1005
16
1001
ACAD_DSTYLE_DIM_EXT2_LINETYPE
1070
   382
1005
16
0
ENDSEC
0
SECTION
2
OBJECTS
0
DICTIONARY
5
234
330
0
100
AcDbDictionary
280
0
281
1
3
ACAD_GROUP
350
235
3
ACAD_MLINESTYLE
350
236
0
DICTIONARY
5
235
330
0
100
AcDbDictionary
280
0
281
1
0
DICTIONARY
5
236
330
0
100
AcDbDictionary
280
0
281
1
3
Standard
350
18
0
MLINESTYLE
5
18
330
236
100
AcDbMlineStyle
2
Standard
70
0
3

62
256
51
90
52
90
71
2
49
-0.5
62
256
6
ByLayer
49
0.5
62
256
6
ByLayer
0
RASTERVARIABLES
5
222
330

100
AcDbRasterVariables
90
0
70
1
71
1
72
1
0
ENDSEC
0
EOF
