0
SECTION
2
HEADER
9
$ACADVER
1
AC1015
9
$DWGCODEPAGE
3
ANSI_1252
9
$HANDSEED
5
240
9
$ANGBASE
50
0
9
$ANGDIR
70
0
9
$ATTMODE
70
1
9
$AUNITS
70
0
9
$AUPREC
70
0
9
$CECOLOR
62
256
9
$CELTSCALE
40
1
9
$CELTYPE
6
ByLayer
9
$CELWEIGHT
370
18
9
$CLAYER
8
0
9
$CMLJUST
70
0
9
$CMLSCALE
40
1
9
$CMLSTYLE
2
Standard
9
$DIMSTYLE
2
Standard
9
$TEXTSIZE
40
0.2
9
$TEXTSTYLE
7
Standard
9
$LUNITS
70
2
9
$LUPREC
70
4
9
$EXTNAMES
290
1
9
$INSUNITS
70
4
9
$LTSCALE
40
1
9
$LWDISPLAY
290
1
9
$PDMODE
70
0
9
$PDSIZE
40
0
9
$PLINEGEN
70
0
0
ENDSEC
0
SECTION
2
CLASSES
0
CLASS
1
RASTERVARIABLES
2
AcDbRasterVariables
3
ISM
90
0
280
0
281
0
0
ENDSEC
0
SECTION
2
TABLES
0
TABLE
2
VPORT
5
236
100
AcDbSymbolTable
0
VPORT
5
1
100
AcDbSymbolTableRecord
100
AcDbViewportTableRecord
2
*Active
70
0
10
0
20
0
11
1
21
1
12
-1
22
1
13
0
23
0
14
0.5
24
0.5
15
10
25
10
16
0
26
0
36
1
17
0
27
0
37
0
0
ENDTAB
0
TABLE
2
LTYPE
5
237
100
AcDbSymbolTable
0
LTYPE
5
14
100
AcDbSymbolTableRecord
100
AcDbLinetypeTableRecord
70
0
2
ByBlock
3

72
65
73
0
40
0
0
LTYPE
5
15
100
AcDbSymbolTableRecord
100
AcDbLinetypeTableRecord
70
0
2
ByLayer
3

72
65
73
0
40
0
0
LTYPE
5
16
100
AcDbSymbolTableRecord
100
AcDbLinetypeTableRecord
70
0
2
Continuous
3
Solid line
72
65
73
0
40
0
0
LTYPE
5
6E
100
AcDbSymbolTableRecord
100
AcDbLinetypeTableRecord
70
0
2
CENTER
3
____ _ ____ _ ____ _ ____
72
65
73
4
40
47.5
49
22
74
0
49
-8.5
74
0
49
8.5
74
0
49
-8.5
74
0
0
LTYPE
5
6F
100
AcDbSymbolTableRecord
100
AcDbLinetypeTableRecord
70
0
2
DASHED
3
__ __ __ __ __ __ __ __ __
72
65
73
2
40
25.72
49
12.86
74
0
49
-12.86
74
0
0
ENDTAB
0
TABLE
2
LAYER
5
238
100
AcDbSymbolTable
0
LAYER
5
10
100
AcDbSymbolTableRecord
100
AcDbLayerTableRecord
2
0
70
0
62
7
6
Continuous
290
1
370
-3
390
0
0
LAYER
5
71
100
AcDbSymbolTableRecord
100
AcDbLayerTableRecord
2
80
70
0
62
-6
6
Continuous
290
1
370
-3
390
0
0
LAYER
5
73
100
AcDbSymbolTableRecord
100
AcDbLayerTableRecord
2
81
70
0
62
-3
6
Continuous
290
1
370
-3
390
0
0
LAYER
5
75
100
AcDbSymbolTableRecord
100
AcDbLayerTableRecord
2
1
70
0
62
4
6
Continuous
290
1
370
-3
390
0
0
LAYER
5
8E
100
AcDbSymbolTableRecord
100
AcDbLayerTableRecord
2
4
70
0
62
-2
6
CENTER
290
1
370
-3
390
0
0
LAYER
5
9B
100
AcDbSymbolTableRecord
100
AcDbLayerTableRecord
2
2
70
0
62
7
6
Continuous
290
1
370
-3
390
0
0
LAYER
5
131
100
AcDbSymbolTableRecord
100
AcDbLayerTableRecord
2
Defpoints
70
0
62
7
6
Continuous
290
0
370
-3
390
0
0
LAYER
5
222
100
AcDbSymbolTableRecord
100
AcDbLayerTableRecord
2
SK1
70
0
62
4
6
Continuous
290
1
370
-3
390
0
0
LAYER
5
223
100
AcDbSymbolTableRecord
100
AcDbLayerTableRecord
2
SK4
70
0
62
2
6
CENTER
290
1
370
-3
390
0
0
LAYER
5
224
100
AcDbSymbolTableRecord
100
AcDbLayerTableRecord
2
SK2
70
0
62
7
6
Continuous
290
1
370
-3
390
0
0
LAYER
5
225
100
AcDbSymbolTableRecord
100
AcDbLayerTableRecord
2
SK6
70
0
62
5
6
Continuous
290
1
370
-3
390
0
0
ENDTAB
0
TABLE
2
STYLE
5
239
100
AcDbSymbolTable
0
STYLE
5
11
100
AcDbSymbolTableRecord
100
AcDbTextStyleTableRecord
2
Standard
3
txt
70
0
71
0
40
0
41
1
42
0
50
0
0
STYLE
5
103
100
AcDbSymbolTableRecord
100
AcDbTextStyleTableRecord
2
iso_b_vert
3
simplex.shx
70
0
71
0
40
0
41
1
42
0
50
0
0
STYLE
5
104
100
AcDbSymbolTableRecord
100
AcDbTextStyleTableRecord
2
DWGDirectTextStyle
3
simplex
70
0
71
0
40
0
41
1
42
0
50
0
0
ENDTAB
0
TABLE
2
DIMSTYLE
5
23a
100
AcDbSymbolTable
100
AcDbDimStyleTable
0
DIMSTYLE
105
27
100
AcDbSymbolTableRecord
100
AcDbDimStyleTableRecord
2
Standard
70
0
3
<>
41
0.18
42
0.0625
44
0.18
140
0.18
147
0.09
73
0
74
0
77
1
271
2
275
0
278
52
280
0
340
11
0
ENDTAB
0
TABLE
2
VIEW
5
23b
100
AcDbSymbolTable
0
ENDTAB
0
TABLE
2
UCS
5
23c
100
AcDbSymbolTable
0
ENDTAB
0
TABLE
2
APPID
5
23d
100
AcDbSymbolTable
0
APPID
5
12
100
AcDbSymbolTableRecord
100
AcDbRegAppTableRecord
2
ACAD
70
0
0
APPID
5
12D
100
AcDbSymbolTableRecord
100
AcDbRegAppTableRecord
2
ACAD_DSTYLE_DIMBREAK
70
0
0
APPID
5
1E1
100
AcDbSymbolTableRecord
100
AcDbRegAppTableRecord
2
ACAD_DSTYLE_DIM_LINETYPE
70
0
0
APPID
5
1E2
100
AcDbSymbolTableRecord
100
AcDbRegAppTableRecord
2
ACAD_DSTYLE_DIM_EXT1_LINETYPE
70
0
0
APPID
5
1E3
100
AcDbSymbolTableRecord
100
AcDbRegAppTableRecord
2
ACAD_DSTYLE_DIM_EXT2_LINETYPE
70
0
0
APPID
5
21E
100
AcDbSymbolTableRecord
100
AcDbRegAppTableRecord
2
ACAD_MLEADERVER
70
0
0
ENDTAB
0
TABLE
2
BLOCK_RECORD
5
23e
100
AcDbSymbolTable
0
BLOCK_RECORD
5
1F
100
AcDbSymbolTableRecord
100
AcDbBlockTableRecord
2
*Model_Space
340
0
70
0
0
BLOCK_RECORD
5
1B
100
AcDbSymbolTableRecord
100
AcDbBlockTableRecord
2
*Paper_Space
340
0
70
0
0
BLOCK_RECORD
5
23
100
AcDbSymbolTableRecord
100
AcDbBlockTableRecord
2
*Paper_Space0
340
0
70
0
0
BLOCK_RECORD
5
132
100
AcDbSymbolTableRecord
100
AcDbBlockTableRecord
2
*D1
340
0
70
0
0
BLOCK_RECORD
5
13E
100
AcDbSymbolTableRecord
100
AcDbBlockTableRecord
2
_U0
340
0
70
0
0
BLOCK_RECORD
5
14A
100
AcDbSymbolTableRecord
100
AcDbBlockTableRecord
2
*D3
340
0
70
0
0
BLOCK_RECORD
5
156
100
AcDbSymbolTableRecord
100
AcDbBlockTableRecord
2
_U1
340
0
70
0
0
BLOCK_RECORD
5
162
100
AcDbSymbolTableRecord
100
AcDbBlockTableRecord
2
*D5
340
0
70
0
0
BLOCK_RECORD
5
16F
100
AcDbSymbolTableRecord
100
AcDbBlockTableRecord
2
_U2
340
0
70
0
0
BLOCK_RECORD
5
17B
100
AcDbSymbolTableRecord
100
AcDbBlockTableRecord
2
*D7
340
0
70
0
0
BLOCK_RECORD
5
189
100
AcDbSymbolTableRecord
100
AcDbBlockTableRecord
2
_U3
340
0
70
0
0
BLOCK_RECORD
5
195
100
AcDbSymbolTableRecord
100
AcDbBlockTableRecord
2
*D9
340
0
70
0
0
BLOCK_RECORD
5
1A2
100
AcDbSymbolTableRecord
100
AcDbBlockTableRecord
2
_U4
340
0
70
0
0
BLOCK_RECORD
5
1AE
100
AcDbSymbolTableRecord
100
AcDbBlockTableRecord
2
*D11
340
0
70
0
0
BLOCK_RECORD
5
1BA
100
AcDbSymbolTableRecord
100
AcDbBlockTableRecord
2
_U5
340
0
70
0
0
ENDTAB
0
ENDSEC
0
SECTION
2
BLOCKS
0
BLOCK
5
20
100
AcDbEntity
8
0
100
AcDbBlockBegin
2
*Model_Space
70
0
10
0
20
0
30
0
3
*Model_Space
0
ENDBLK
5
21
100
AcDbEntity
8
0
100
AcDbBlockEnd
0
BLOCK
5
1C
100
AcDbEntity
8
0
100
AcDbBlockBegin
2
*Paper_Space
70
0
10
0
20
0
30
0
3
*Paper_Space
0
ENDBLK
5
1D
100
AcDbEntity
8
0
100
AcDbBlockEnd
0
BLOCK
5
24
100
AcDbEntity
8
0
100
AcDbBlockBegin
2
*Paper_Space0
70
0
10
0
20
0
30
0
3
*Paper_Space0
0
ENDBLK
5
25
100
AcDbEntity
8
0
100
AcDbBlockEnd
0
BLOCK
5
133
100
AcDbEntity
8
0
100
AcDbBlockBegin
2
*D1
70
1
10
0
20
0
30
0
3
*D1
0
LINE
5
135
100
AcDbEntity
8
0
62
256
6
ByLayer
370
-2
48
1
60
0
100
AcDbLine
10
0
20
-1.5875
30
0
11
0
21
-17.352503
31
0
39
0
210
0
220
0
230
1
0
LINE
5
136
100
AcDbEntity
8
0
62
256
6
ByLayer
370
-2
48
1
60
0
100
AcDbLine
10
42.2544
20
-4.1375
30
0
11
42.2544
21
-17.352503
31
0
39
0
210
0
220
0
230
1
0
LINE
5
137
100
AcDbEntity
8
0
62
256
6
ByLayer
370
-2
48
1
60
0
100
AcDbLine
10
3.5
20
-15.352503
30
0
11
38.7544
21
-15.352503
31
0
39
0
210
0
220
0
230
1
0
SOLID
5
138
100
AcDbEntity
8
0
62
256
6
ByLayer
370
-1
48
1
60
0
100
AcDbTrace
10
3.5
20
-14.76917
30
0
11
3.5
21
-15.935837
31
0
12
0
22
-15.352503
32
0
13
0
23
-15.352503
33
0
39
0
210
0
220
0
230
1
0
SOLID
5
139
100
AcDbEntity
8
0
62
256
6
ByLayer
370
-1
48
1
60
0
100
AcDbTrace
10
38.7544
20
-15.935837
30
0
11
38.7544
21
-14.76917
31
0
12
42.2544
22
-15.352503
32
0
13
42.2544
23
-15.352503
33
0
39
0
210
0
220
0
230
1
0
MTEXT
5
13A
100
AcDbEntity
8
0
62
256
6
ByLayer
370
18
48
1
60
0
100
AcDbMText
10
21.1272
20
-8.352503
30
0
210
0
220
0
230
1
1
\A1;42.25
40
3.5
41
0
44
1
50
0
71
5
72
5
7
iso_b_vert
0
POINT
5
13B
100
AcDbEntity
8
Defpoints
62
0
6
ByLayer
370
-1
48
1
60
0
100
AcDbPoint
10
0
20
0
30
0
39
0
210
0
220
0
230
1
50
360
0
POINT
5
13C
100
AcDbEntity
8
Defpoints
62
0
6
ByLayer
370
-1
48
1
60
0
100
AcDbPoint
10
42.2544
20
-2.55
30
0
39
0
210
0
220
0
230
1
50
360
0
POINT
5
13D
100
AcDbEntity
8
Defpoints
62
0
6
ByLayer
370
-1
48
1
60
0
100
AcDbPoint
10
42.2544
20
-15.352503
30
0
39
0
210
0
220
0
230
1
50
360
0
ENDBLK
5
134
100
AcDbEntity
8
0
100
AcDbBlockEnd
0
BLOCK
5
145
100
AcDbEntity
8
0
100
AcDbBlockBegin
2
_U0
70
0
10
0
20
0
30
0
3
_U0
0
MTEXT
5
13F
100
AcDbEntity
8
SK2
62
256
6
ByLayer
370
13
48
1
60
0
100
AcDbMText
10
15.805635
20
-14.31987
30
0
210
0
220
0
230
1
1
\W0.7581;42,25
40
3.5
41
0
44
1.084337
50
0
71
7
72
5
7
iso_b_vert
0
LINE
5
140
100
AcDbEntity
8
SK2
62
256
6
ByLayer
370
13
48
1
60
0
100
AcDbLine
10
0
20
-1.5875
30
0
11
0
21
-17.352503
31
0
39
0
210
0
220
0
230
1
0
LINE
5
141
100
AcDbEntity
8
SK2
62
256
6
ByLayer
370
13
48
1
60
0
100
AcDbLine
10
42.2544
20
-4.1375
30
0
11
42.2544
21
-17.352503
31
0
39
0
210
0
220
0
230
1
0
LINE
5
142
100
AcDbEntity
8
SK2
62
256
6
ByLayer
370
13
48
1
60
0
100
AcDbLine
10
0
20
-15.352503
30
0
11
42.2544
21
-15.352503
31
0
39
0
210
0
220
0
230
1
0
SOLID
5
143
100
AcDbEntity
8
SK2
62
256
6
ByLayer
370
18
48
1
60
0
100
AcDbTrace
10
0
20
-15.352503
30
0
11
3.499998
21
-14.891719
31
0
12
3.500002
22
-15.813287
32
0
13
3.500002
23
-15.813287
33
0
39
0
210
0
220
0
230
1
0
SOLID
5
144
100
AcDbEntity
8
SK2
62
256
6
ByLayer
370
18
48
1
60
0
100
AcDbTrace
10
42.2544
20
-15.352503
30
0
11
38.754402
21
-15.813287
31
0
12
38.754398
22
-14.891719
32
0
13
38.754398
23
-14.891719
33
0
39
0
210
0
220
0
230
1
0
ENDBLK
5
146
100
AcDbEntity
8
0
100
AcDbBlockEnd
0
BLOCK
5
14B
100
AcDbEntity
8
0
100
AcDbBlockBegin
2
*D3
70
1
10
0
20
0
30
0
3
*D3
0
LINE
5
14D
100
AcDbEntity
8
0
62
256
6
ByLayer
370
-2
48
1
60
0
100
AcDbLine
10
-36
20
-5.5875
30
0
11
-36
21
-37.192985
31
0
39
0
210
0
220
0
230
1
0
LINE
5
14E
100
AcDbEntity
8
0
62
256
6
ByLayer
370
-2
48
1
60
0
100
AcDbLine
10
43
20
-1.5875
30
0
11
43
21
-37.192985
31
0
39
0
210
0
220
0
230
1
0
LINE
5
14F
100
AcDbEntity
8
0
62
256
6
ByLayer
370
-2
48
1
60
0
100
AcDbLine
10
-32.5
20
-35.192985
30
0
11
39.5
21
-35.192985
31
0
39
0
210
0
220
0
230
1
0
SOLID
5
150
100
AcDbEntity
8
0
62
256
6
ByLayer
370
-1
48
1
60
0
100
AcDbTrace
10
-32.5
20
-34.609652
30
0
11
-32.5
21
-35.776319
31
0
12
-36
22
-35.192985
32
0
13
-36
23
-35.192985
33
0
39
0
210
0
220
0
230
1
0
SOLID
5
151
100
AcDbEntity
8
0
62
256
6
ByLayer
370
-1
48
1
60
0
100
AcDbTrace
10
39.5
20
-35.776319
30
0
11
39.5
21
-34.609652
31
0
12
43
22
-35.192985
32
0
13
43
23
-35.192985
33
0
39
0
210
0
220
0
230
1
0
MTEXT
5
152
100
AcDbEntity
8
0
62
256
6
ByLayer
370
18
48
1
60
0
100
AcDbMText
10
3.5
20
-28.192985
30
0
210
0
220
0
230
1
1
\A1;79.00
40
3.5
41
0
44
1
50
0
71
5
72
5
7
iso_b_vert
0
POINT
5
153
100
AcDbEntity
8
Defpoints
62
0
6
ByLayer
370
-1
48
1
60
0
100
AcDbPoint
10
-36
20
-4
30
0
39
0
210
0
220
0
230
1
50
360
0
POINT
5
154
100
AcDbEntity
8
Defpoints
62
0
6
ByLayer
370
-1
48
1
60
0
100
AcDbPoint
10
43
20
0
30
0
39
0
210
0
220
0
230
1
50
360
0
POINT
5
155
100
AcDbEntity
8
Defpoints
62
0
6
ByLayer
370
-1
48
1
60
0
100
AcDbPoint
10
43
20
-35.192985
30
0
39
0
210
0
220
0
230
1
50
360
0
ENDBLK
5
14C
100
AcDbEntity
8
0
100
AcDbBlockEnd
0
BLOCK
5
15D
100
AcDbEntity
8
0
100
AcDbBlockBegin
2
_U1
70
0
10
0
20
0
30
0
3
_U1
0
MTEXT
5
157
100
AcDbEntity
8
SK2
62
256
6
ByLayer
370
13
48
1
60
0
100
AcDbMText
10
-1.637299
20
-34.160352
30
0
210
0
220
0
230
1
1
\W0.7317;79,00
40
3.5
41
0
44
1.084337
50
0
71
7
72
5
7
iso_b_vert
0
LINE
5
158
100
AcDbEntity
8
SK2
62
256
6
ByLayer
370
13
48
1
60
0
100
AcDbLine
10
-36
20
-5.5875
30
0
11
-36
21
-37.192985
31
0
39
0
210
0
220
0
230
1
0
LINE
5
159
100
AcDbEntity
8
SK2
62
256
6
ByLayer
370
13
48
1
60
0
100
AcDbLine
10
43
20
-1.5875
30
0
11
43
21
-37.192985
31
0
39
0
210
0
220
0
230
1
0
LINE
5
15A
100
AcDbEntity
8
SK2
62
256
6
ByLayer
370
13
48
1
60
0
100
AcDbLine
10
-36
20
-35.192985
30
0
11
43
21
-35.192985
31
0
39
0
210
0
220
0
230
1
0
SOLID
5
15B
100
AcDbEntity
8
SK2
62
256
6
ByLayer
370
18
48
1
60
0
100
AcDbTrace
10
-36
20
-35.192985
30
0
11
-32.500002
21
-34.732202
31
0
12
-32.499998
22
-35.653769
32
0
13
-32.499998
23
-35.653769
33
0
39
0
210
0
220
0
230
1
0
SOLID
5
15C
100
AcDbEntity
8
SK2
62
256
6
ByLayer
370
18
48
1
60
0
100
AcDbTrace
10
43
20
-35.192985
30
0
11
39.500002
21
-35.653769
31
0
12
39.499998
22
-34.732202
32
0
13
39.499998
23
-34.732202
33
0
39
0
210
0
220
0
230
1
0
ENDBLK
5
15E
100
AcDbEntity
8
0
100
AcDbBlockEnd
0
BLOCK
5
163
100
AcDbEntity
8
0
100
AcDbBlockBegin
2
*D5
70
1
10
0
20
0
30
0
3
*D5
0
LINE
5
165
100
AcDbEntity
8
0
62
256
6
ByLayer
370
-2
48
1
60
0
100
AcDbLine
10
26.06
20
5.0325
30
0
11
26.06
21
16.159119
31
0
39
0
210
0
220
0
230
1
0
LINE
5
166
100
AcDbEntity
8
0
62
256
6
ByLayer
370
-2
48
1
60
0
100
AcDbLine
10
43
20
1.5875
30
0
11
43
21
16.159119
31
0
39
0
210
0
220
0
230
1
0
LINE
5
167
100
AcDbEntity
8
0
62
256
6
ByLayer
370
-2
48
1
60
0
100
AcDbLine
10
22.56
20
14.159119
30
0
11
19.06
21
14.159119
31
0
39
0
210
0
220
0
230
1
0
LINE
5
168
100
AcDbEntity
8
0
62
256
6
ByLayer
370
-2
48
1
60
0
100
AcDbLine
10
46.5
20
14.159119
30
0
11
50
21
14.159119
31
0
39
0
210
0
220
0
230
1
0
SOLID
5
169
100
AcDbEntity
8
0
62
256
6
ByLayer
370
-1
48
1
60
0
100
AcDbTrace
10
22.56
20
13.575786
30
0
11
22.56
21
14.742453
31
0
12
26.06
22
14.159119
32
0
13
26.06
23
14.159119
33
0
39
0
210
0
220
0
230
1
0
SOLID
5
16A
100
AcDbEntity
8
0
62
256
6
ByLayer
370
-1
48
1
60
0
100
AcDbTrace
10
46.5
20
14.742453
30
0
11
46.5
21
13.575786
31
0
12
43
22
14.159119
32
0
13
43
23
14.159119
33
0
39
0
210
0
220
0
230
1
0
MTEXT
5
16B
100
AcDbEntity
8
0
62
256
6
ByLayer
370
18
48
1
60
0
100
AcDbMText
10
34.53
20
21.159119
30
0
210
0
220
0
230
1
1
\A1;16.94
40
3.5
41
0
44
1
50
0
71
5
72
5
7
iso_b_vert
0
POINT
5
16C
100
AcDbEntity
8
Defpoints
62
0
6
ByLayer
370
-1
48
1
60
0
100
AcDbPoint
10
26.06
20
3.445
30
0
39
0
210
0
220
0
230
1
50
360
0
POINT
5
16D
100
AcDbEntity
8
Defpoints
62
0
6
ByLayer
370
-1
48
1
60
0
100
AcDbPoint
10
43
20
0
30
0
39
0
210
0
220
0
230
1
50
360
0
POINT
5
16E
100
AcDbEntity
8
Defpoints
62
0
6
ByLayer
370
-1
48
1
60
0
100
AcDbPoint
10
43
20
14.159119
30
0
39
0
210
0
220
0
230
1
50
360
0
ENDBLK
5
164
100
AcDbEntity
8
0
100
AcDbBlockEnd
0
BLOCK
5
176
100
AcDbEntity
8
0
100
AcDbBlockBegin
2
_U2
70
0
10
0
20
0
30
0
3
_U2
0
MTEXT
5
170
100
AcDbEntity
8
SK2
62
256
6
ByLayer
370
13
48
1
60
0
100
AcDbMText
10
29.645868
20
15.191753
30
0
210
0
220
0
230
1
1
\W0.6898;16,94
40
3.5
41
0
44
1.084337
50
0
71
7
72
5
7
iso_b_vert
0
LINE
5
171
100
AcDbEntity
8
SK2
62
256
6
ByLayer
370
13
48
1
60
0
100
AcDbLine
10
26.06
20
5.0325
30
0
11
26.06
21
16.159119
31
0
39
0
210
0
220
0
230
1
0
LINE
5
172
100
AcDbEntity
8
SK2
62
256
6
ByLayer
370
13
48
1
60
0
100
AcDbLine
10
43
20
1.5875
30
0
11
43
21
16.159119
31
0
39
0
210
0
220
0
230
1
0
LINE
5
173
100
AcDbEntity
8
SK2
62
256
6
ByLayer
370
13
48
1
60
0
100
AcDbLine
10
26.06
20
14.159119
30
0
11
43
21
14.159119
31
0
39
0
210
0
220
0
230
1
0
SOLID
5
174
100
AcDbEntity
8
SK2
62
256
6
ByLayer
370
18
48
1
60
0
100
AcDbTrace
10
26.06
20
14.159119
30
0
11
29.559998
21
14.619903
31
0
12
29.560002
22
13.698335
32
0
13
29.560002
23
13.698335
33
0
39
0
210
0
220
0
230
1
0
SOLID
5
175
100
AcDbEntity
8
SK2
62
256
6
ByLayer
370
18
48
1
60
0
100
AcDbTrace
10
43
20
14.159119
30
0
11
39.500002
21
13.698335
31
0
12
39.499998
22
14.619903
32
0
13
39.499998
23
14.619903
33
0
39
0
210
0
220
0
230
1
0
ENDBLK
5
177
100
AcDbEntity
8
0
100
AcDbBlockEnd
0
BLOCK
5
17C
100
AcDbEntity
8
0
100
AcDbBlockBegin
2
*D7
70
1
10
0
20
0
30
0
3
*D7
0
LINE
5
17E
100
AcDbEntity
8
0
62
256
6
ByLayer
370
-2
48
1
60
0
100
AcDbLine
10
43
20
-1.5875
30
0
11
43
21
-17.352503
31
0
39
0
210
0
220
0
230
1
0
LINE
5
17F
100
AcDbEntity
8
0
62
256
6
ByLayer
370
-2
48
1
60
0
100
AcDbLine
10
42.2544
20
-4.1375
30
0
11
42.2544
21
-17.352503
31
0
39
0
210
0
220
0
230
1
0
LINE
5
180
100
AcDbEntity
8
0
62
256
6
ByLayer
370
-2
48
1
60
0
100
AcDbLine
10
43
20
-15.352503
30
0
11
71.166667
21
-15.352503
31
0
39
0
210
0
220
0
230
1
0
LINE
5
181
100
AcDbEntity
8
0
62
256
6
ByLayer
370
-2
48
1
60
0
100
AcDbLine
10
46.5
20
-15.352503
30
0
11
50
21
-15.352503
31
0
39
0
210
0
220
0
230
1
0
LINE
5
182
100
AcDbEntity
8
0
62
256
6
ByLayer
370
-2
48
1
60
0
100
AcDbLine
10
38.7544
20
-15.352503
30
0
11
35.2544
21
-15.352503
31
0
39
0
210
0
220
0
230
1
0
SOLID
5
183
100
AcDbEntity
8
0
62
256
6
ByLayer
370
-1
48
1
60
0
100
AcDbTrace
10
46.5
20
-14.76917
30
0
11
46.5
21
-15.935837
31
0
12
43
22
-15.352503
32
0
13
43
23
-15.352503
33
0
39
0
210
0
220
0
230
1
0
SOLID
5
184
100
AcDbEntity
8
0
62
256
6
ByLayer
370
-1
48
1
60
0
100
AcDbTrace
10
38.7544
20
-15.935837
30
0
11
38.7544
21
-14.76917
31
0
12
42.2544
22
-15.352503
32
0
13
42.2544
23
-15.352503
33
0
39
0
210
0
220
0
230
1
0
MTEXT
5
185
100
AcDbEntity
8
0
62
256
6
ByLayer
370
18
48
1
60
0
100
AcDbMText
10
60.583333
20
-8.352503
30
0
210
0
220
0
230
1
1
\A1;0.75
40
3.5
41
0
44
1
50
0
71
5
72
5
7
iso_b_vert
0
POINT
5
186
100
AcDbEntity
8
Defpoints
62
0
6
ByLayer
370
-1
48
1
60
0
100
AcDbPoint
10
43
20
0
30
0
39
0
210
0
220
0
230
1
50
360
0
POINT
5
187
100
AcDbEntity
8
Defpoints
62
0
6
ByLayer
370
-1
48
1
60
0
100
AcDbPoint
10
42.2544
20
-2.55
30
0
39
0
210
0
220
0
230
1
50
360
0
POINT
5
188
100
AcDbEntity
8
Defpoints
62
0
6
ByLayer
370
-1
48
1
60
0
100
AcDbPoint
10
42.2544
20
-15.352503
30
0
39
0
210
0
220
0
230
1
50
360
0
ENDBLK
5
17D
100
AcDbEntity
8
0
100
AcDbBlockEnd
0
BLOCK
5
190
100
AcDbEntity
8
0
100
AcDbBlockBegin
2
_U3
70
0
10
0
20
0
30
0
3
_U3
0
MTEXT
5
18A
100
AcDbEntity
8
SK2
62
256
6
ByLayer
370
13
48
1
60
0
100
AcDbMText
10
49.15186
20
-14.31987
30
0
210
0
220
0
230
1
1
\W0.7150;0,75
40
3.5
41
0
44
1.084337
50
0
71
7
72
5
7
iso_b_vert
0
LINE
5
18B
100
AcDbEntity
8
SK2
62
256
6
ByLayer
370
13
48
1
60
0
100
AcDbLine
10
43
20
-1.5875
30
0
11
43
21
-17.352503
31
0
39
0
210
0
220
0
230
1
0
LINE
5
18C
100
AcDbEntity
8
SK2
62
256
6
ByLayer
370
13
48
1
60
0
100
AcDbLine
10
42.2544
20
-4.1375
30
0
11
42.2544
21
-17.352503
31
0
39
0
210
0
220
0
230
1
0
LINE
5
18D
100
AcDbEntity
8
SK2
62
256
6
ByLayer
370
13
48
1
60
0
100
AcDbLine
10
33.5044
20
-15.352503
30
0
11
56.996491
21
-15.352503
31
0
39
0
210
0
220
0
230
1
0
SOLID
5
18E
100
AcDbEntity
8
SK2
62
256
6
ByLayer
370
18
48
1
60
0
100
AcDbTrace
10
43
20
-15.352503
30
0
11
46.499998
21
-14.891719
31
0
12
46.500002
22
-15.813287
32
0
13
46.500002
23
-15.813287
33
0
39
0
210
0
220
0
230
1
0
SOLID
5
18F
100
AcDbEntity
8
SK2
62
256
6
ByLayer
370
18
48
1
60
0
100
AcDbTrace
10
42.2544
20
-15.352503
30
0
11
38.754402
21
-15.813287
31
0
12
38.754398
22
-14.891719
32
0
13
38.754398
23
-14.891719
33
0
39
0
210
0
220
0
230
1
0
ENDBLK
5
191
100
AcDbEntity
8
0
100
AcDbBlockEnd
0
BLOCK
5
196
100
AcDbEntity
8
0
100
AcDbBlockBegin
2
*D9
70
1
10
0
20
0
30
0
3
*D9
0
LINE
5
198
100
AcDbEntity
8
0
62
256
6
ByLayer
370
-2
48
1
60
0
100
AcDbLine
10
42.2544
20
4.1375
30
0
11
42.2544
21
8.685371
31
0
39
0
210
0
220
0
230
1
0
LINE
5
199
100
AcDbEntity
8
0
62
256
6
ByLayer
370
-2
48
1
60
0
100
AcDbLine
10
26.9544
20
4.1375
30
0
11
26.9544
21
8.685371
31
0
39
0
210
0
220
0
230
1
0
LINE
5
19A
100
AcDbEntity
8
0
62
256
6
ByLayer
370
-2
48
1
60
0
100
AcDbLine
10
45.7544
20
6.685371
30
0
11
49.2544
21
6.685371
31
0
39
0
210
0
220
0
230
1
0
LINE
5
19B
100
AcDbEntity
8
0
62
256
6
ByLayer
370
-2
48
1
60
0
100
AcDbLine
10
23.4544
20
6.685371
30
0
11
19.9544
21
6.685371
31
0
39
0
210
0
220
0
230
1
0
SOLID
5
19C
100
AcDbEntity
8
0
62
256
6
ByLayer
370
-1
48
1
60
0
100
AcDbTrace
10
45.7544
20
7.268705
30
0
11
45.7544
21
6.102038
31
0
12
42.2544
22
6.685371
32
0
13
42.2544
23
6.685371
33
0
39
0
210
0
220
0
230
1
0
SOLID
5
19D
100
AcDbEntity
8
0
62
256
6
ByLayer
370
-1
48
1
60
0
100
AcDbTrace
10
23.4544
20
6.102038
30
0
11
23.4544
21
7.268705
31
0
12
26.9544
22
6.685371
32
0
13
26.9544
23
6.685371
33
0
39
0
210
0
220
0
230
1
0
MTEXT
5
19E
100
AcDbEntity
8
0
62
256
6
ByLayer
370
18
48
1
60
0
100
AcDbMText
10
34.6044
20
13.685371
30
0
210
0
220
0
230
1
1
\A1;15.30
40
3.5
41
0
44
1
50
0
71
5
72
5
7
iso_b_vert
0
POINT
5
19F
100
AcDbEntity
8
Defpoints
62
0
6
ByLayer
370
-1
48
1
60
0
100
AcDbPoint
10
42.2544
20
2.55
30
0
39
0
210
0
220
0
230
1
50
360
0
POINT
5
1A0
100
AcDbEntity
8
Defpoints
62
0
6
ByLayer
370
-1
48
1
60
0
100
AcDbPoint
10
26.9544
20
2.55
30
0
39
0
210
0
220
0
230
1
50
360
0
POINT
5
1A1
100
AcDbEntity
8
Defpoints
62
0
6
ByLayer
370
-1
48
1
60
0
100
AcDbPoint
10
26.9544
20
6.685371
30
0
39
0
210
0
220
0
230
1
50
360
0
ENDBLK
5
197
100
AcDbEntity
8
0
100
AcDbBlockEnd
0
BLOCK
5
1A9
100
AcDbEntity
8
0
100
AcDbBlockBegin
2
_U4
70
0
10
0
20
0
30
0
3
_U4
0
MTEXT
5
1A3
100
AcDbEntity
8
SK2
62
256
6
ByLayer
370
13
48
1
60
0
100
AcDbMText
10
29.904535
20
7.718005
30
0
210
0
220
0
230
1
1
\W0.6713;15,30
40
3.5
41
0
44
1.084337
50
0
71
7
72
5
7
iso_b_vert
0
LINE
5
1A4
100
AcDbEntity
8
SK2
62
256
6
ByLayer
370
13
48
1
60
0
100
AcDbLine
10
42.2544
20
4.1375
30
0
11
42.2544
21
8.685371
31
0
39
0
210
0
220
0
230
1
0
LINE
5
1A5
100
AcDbEntity
8
SK2
62
256
6
ByLayer
370
13
48
1
60
0
100
AcDbLine
10
26.9544
20
4.1375
30
0
11
26.9544
21
8.685371
31
0
39
0
210
0
220
0
230
1
0
LINE
5
1A6
100
AcDbEntity
8
SK2
62
256
6
ByLayer
370
13
48
1
60
0
100
AcDbLine
10
42.2544
20
6.685371
30
0
11
26.9544
21
6.685371
31
0
39
0
210
0
220
0
230
1
0
SOLID
5
1A7
100
AcDbEntity
8
SK2
62
256
6
ByLayer
370
18
48
1
60
0
100
AcDbTrace
10
42.2544
20
6.685371
30
0
11
38.754402
21
6.224588
31
0
12
38.754398
22
7.146155
32
0
13
38.754398
23
7.146155
33
0
39
0
210
0
220
0
230
1
0
SOLID
5
1A8
100
AcDbEntity
8
SK2
62
256
6
ByLayer
370
18
48
1
60
0
100
AcDbTrace
10
26.9544
20
6.685371
30
0
11
30.454398
21
7.146155
31
0
12
30.454402
22
6.224588
32
0
13
30.454402
23
6.224588
33
0
39
0
210
0
220
0
230
1
0
ENDBLK
5
1AA
100
AcDbEntity
8
0
100
AcDbBlockEnd
0
BLOCK
5
1AF
100
AcDbEntity
8
0
100
AcDbBlockBegin
2
*D11
70
1
10
0
20
0
30
0
3
*D11
0
LINE
5
1B1
100
AcDbEntity
8
0
62
256
6
ByLayer
370
-2
48
1
60
0
100
AcDbLine
10
-36
20
-5.5875
30
0
11
-36
21
-26.690158
31
0
39
0
210
0
220
0
230
1
0
LINE
5
1B2
100
AcDbEntity
8
0
62
256
6
ByLayer
370
-2
48
1
60
0
100
AcDbLine
10
42.2544
20
-4.1375
30
0
11
42.2544
21
-26.690158
31
0
39
0
210
0
220
0
230
1
0
LINE
5
1B3
100
AcDbEntity
8
0
62
256
6
ByLayer
370
-2
48
1
60
0
100
AcDbLine
10
-32.5
20
-24.690158
30
0
11
38.7544
21
-24.690158
31
0
39
0
210
0
220
0
230
1
0
SOLID
5
1B4
100
AcDbEntity
8
0
62
256
6
ByLayer
370
-1
48
1
60
0
100
AcDbTrace
10
-32.5
20
-24.106825
30
0
11
-32.5
21
-25.273491
31
0
12
-36
22
-24.690158
32
0
13
-36
23
-24.690158
33
0
39
0
210
0
220
0
230
1
0
SOLID
5
1B5
100
AcDbEntity
8
0
62
256
6
ByLayer
370
-1
48
1
60
0
100
AcDbTrace
10
38.7544
20
-25.273491
30
0
11
38.7544
21
-24.106825
31
0
12
42.2544
22
-24.690158
32
0
13
42.2544
23
-24.690158
33
0
39
0
210
0
220
0
230
1
0
MTEXT
5
1B6
100
AcDbEntity
8
0
62
256
6
ByLayer
370
18
48
1
60
0
100
AcDbMText
10
3.1272
20
-17.690158
30
0
210
0
220
0
230
1
1
\A1;78.25
40
3.5
41
0
44
1
50
0
71
5
72
5
7
iso_b_vert
0
POINT
5
1B7
100
AcDbEntity
8
Defpoints
62
0
6
ByLayer
370
-1
48
1
60
0
100
AcDbPoint
10
-36
20
-4
30
0
39
0
210
0
220
0
230
1
50
360
0
POINT
5
1B8
100
AcDbEntity
8
Defpoints
62
0
6
ByLayer
370
-1
48
1
60
0
100
AcDbPoint
10
42.2544
20
-2.55
30
0
39
0
210
0
220
0
230
1
50
360
0
POINT
5
1B9
100
AcDbEntity
8
Defpoints
62
0
6
ByLayer
370
-1
48
1
60
0
100
AcDbPoint
10
42.2544
20
-24.690158
30
0
39
0
210
0
220
0
230
1
50
360
0
ENDBLK
5
1B0
100
AcDbEntity
8
0
100
AcDbBlockEnd
0
BLOCK
5
1C1
100
AcDbEntity
8
0
100
AcDbBlockBegin
2
_U5
70
0
10
0
20
0
30
0
3
_U5
0
MTEXT
5
1BB
100
AcDbEntity
8
SK2
62
256
6
ByLayer
370
13
48
1
60
0
100
AcDbMText
10
-2.010099
20
-23.657524
30
0
210
0
220
0
230
1
1
\W0.7317;78,25
40
3.5
41
0
44
1.084337
50
0
71
7
72
5
7
iso_b_vert
0
LINE
5
1BC
100
AcDbEntity
8
SK2
62
256
6
ByLayer
370
13
48
1
60
0
100
AcDbLine
10
-36
20
-5.5875
30
0
11
-36
21
-26.690158
31
0
39
0
210
0
220
0
230
1
0
LINE
5
1BD
100
AcDbEntity
8
SK2
62
256
6
ByLayer
370
13
48
1
60
0
100
AcDbLine
10
42.2544
20
-4.1375
30
0
11
42.2544
21
-26.690158
31
0
39
0
210
0
220
0
230
1
0
LINE
5
1BE
100
AcDbEntity
8
SK2
62
256
6
ByLayer
370
13
48
1
60
0
100
AcDbLine
10
-36
20
-24.690158
30
0
11
42.2544
21
-24.690158
31
0
39
0
210
0
220
0
230
1
0
SOLID
5
1BF
100
AcDbEntity
8
SK2
62
256
6
ByLayer
370
18
48
1
60
0
100
AcDbTrace
10
-36
20
-24.690158
30
0
11
-32.500002
21
-24.229374
31
0
12
-32.499998
22
-25.150942
32
0
13
-32.499998
23
-25.150942
33
0
39
0
210
0
220
0
230
1
0
SOLID
5
1C0
100
AcDbEntity
8
SK2
62
256
6
ByLayer
370
18
48
1
60
0
100
AcDbTrace
10
42.2544
20
-24.690158
30
0
11
38.754402
21
-25.150942
31
0
12
38.754398
22
-24.229374
32
0
13
38.754398
23
-24.229374
33
0
39
0
210
0
220
0
230
1
0
ENDBLK
5
1C2
100
AcDbEntity
8
0
100
AcDbBlockEnd
0
ENDSEC
0
SECTION
2
ENTITIES
0
ARC
5
BF
100
AcDbEntity
8
1
62
256
6
ByLayer
370
18
48
1
60
0
100
AcDbCircle
39
0
10
1.2116
20
-4.245
30
0
40
0.799999999999997
210
0
220
0
230
1
100
AcDbArc
50
90
51
139.22237
0
ARC
5
C0
100
AcDbEntity
8
1
62
256
6
ByLayer
370
18
48
1
60
0
100
AcDbCircle
39
0
10
1.2116
20
4.245
30
0
40
0.799999999999997
210
0
220
0
230
1
100
AcDbArc
50
220.77763
51
270
0
ARC
5
C1
100
AcDbEntity
8
1
62
256
6
ByLayer
370
18
48
1
60
0
100
AcDbCircle
39
0
10
0
20
-3.2
30
0
40
0.800000000000003
210
0
220
0
230
1
100
AcDbArc
50
270
51
319.22237
0
ARC
5
C2
100
AcDbEntity
8
1
62
256
6
ByLayer
370
18
48
1
60
0
100
AcDbCircle
39
0
10
0
20
3.2
30
0
40
0.800000000000003
210
0
220
0
230
1
100
AcDbArc
50
40.77763
51
90
0
ARC
5
C3
100
AcDbEntity
8
SK2
62
256
6
ByLayer
370
13
48
1
60
0
100
AcDbCircle
39
0
10
29.5044
20
0
30
0
40
17.885338035404
210
0
220
0
230
1
100
AcDbArc
50
183.443588
51
225
0
ARC
5
C4
100
AcDbEntity
8
SK2
62
256
6
ByLayer
370
13
48
1
60
0
100
AcDbCircle
39
0
10
29.5044
20
0
30
0
40
17.885338035404
210
0
220
0
230
1
100
AcDbArc
50
135
51
162.34045
0
POINT
5
70
100
AcDbEntity
8
80
62
256
6
ByLayer
370
18
48
1
60
0
100
AcDbPoint
10
0
20
0
30
0
39
0
210
0
220
0
230
1
50
360
0
POINT
5
72
100
AcDbEntity
8
81
62
256
6
ByLayer
370
18
48
1
60
0
100
AcDbPoint
10
43
20
0
30
0
39
0
210
0
220
0
230
1
50
360
0
POINT
5
74
100
AcDbEntity
8
1
62
256
6
ByLayer
370
18
48
1
60
1
100
AcDbPoint
10
42.2544
20
-2.55
30
0
39
0
210
0
220
0
230
1
50
360
0
POINT
5
76
100
AcDbEntity
8
1
62
256
6
ByLayer
370
18
48
1
60
1
100
AcDbPoint
10
-36
20
-4
30
0
39
0
210
0
220
0
230
1
50
360
0
POINT
5
77
100
AcDbEntity
8
1
62
256
6
ByLayer
370
18
48
1
60
1
100
AcDbPoint
10
26.06
20
3.445
30
0
39
0
210
0
220
0
230
1
50
360
0
POINT
5
78
100
AcDbEntity
8
1
62
256
6
ByLayer
370
18
48
1
60
1
100
AcDbPoint
10
42.2544
20
-2.55
30
0
39
0
210
0
220
0
230
1
50
360
0
POINT
5
79
100
AcDbEntity
8
1
62
256
6
ByLayer
370
18
48
1
60
1
100
AcDbPoint
10
42.2544
20
2.55
30
0
39
0
210
0
220
0
230
1
50
360
0
POINT
5
7A
100
AcDbEntity
8
1
62
256
6
ByLayer
370
18
48
1
60
1
100
AcDbPoint
10
26.9544
20
2.55
30
0
39
0
210
0
220
0
230
1
50
360
0
POINT
5
7B
100
AcDbEntity
8
1
62
256
6
ByLayer
370
18
48
1
60
1
100
AcDbPoint
10
-36
20
-4
30
0
39
0
210
0
220
0
230
1
50
360
0
POINT
5
7C
100
AcDbEntity
8
1
62
256
6
ByLayer
370
18
48
1
60
1
100
AcDbPoint
10
42.2544
20
-2.55
30
0
39
0
210
0
220
0
230
1
50
360
0
SPLINE
5
C5
100
AcDbEntity
8
SK1
62
256
6
ByLayer
370
18
48
1
60
0
100
AcDbSpline
70
4
71
3
72
8
73
4
40
0
40
0
40
0
40
0
40
1
40
1
40
1
40
1
41
1
10
-35.5
20
2.41944921011384
30
0
41
1
10
-35.6671088782559
20
2.32190432267859
30
0
41
1
10
-35.8338584626699
20
2.22416473293347
30
0
41
1
10
-36
20
2.12609564082024
30
0
0
SPLINE
5
C6
100
AcDbEntity
8
SK1
62
256
6
ByLayer
370
18
48
1
60
0
100
AcDbSpline
70
4
71
3
72
12
73
8
40
0
40
0
40
0
40
0
40
0.500000000000001
40
0.500000000000001
40
0.750000000000001
40
0.750000000000001
40
1
40
1
40
1
40
1
41
1
10
-35.5
20
1.18497151053154
30
0
41
1
10
-35.4764535706457
20
1.19871604538116
30
0
41
1
10
-35.453758325367
20
1.21960099310723
30
0
41
1
10
-35.4256589034923
20
1.25877741033037
30
0
41
1
10
-35.4170915256394
20
1.27353302437473
30
0
41
1
10
-35.4042768359918
20
1.30498522964689
30
0
41
1
10
-35.4
20
1.32212830755836
30
0
41
1
10
-35.4
20
1.33769522614068
30
0
0
SPLINE
5
C7
100
AcDbEntity
8
SK1
62
256
6
ByLayer
370
18
48
1
60
0
100
AcDbSpline
70
4
71
3
72
12
73
8
40
0
40
0
40
0
40
0
40
0.250000000000001
40
0.250000000000001
40
0.500000000000003
40
0.500000000000003
40
1
40
1
40
1
40
1
41
1
10
-35.4
20
2.40757589911195
30
0
41
1
10
-35.4
20
2.41942882707076
30
0
41
1
10
-35.4042405317345
20
2.42790208833219
30
0
41
1
10
-35.4170629445097
20
2.43837719014422
30
0
41
1
10
-35.4255309618335
20
2.44058702175127
30
0
41
1
10
-35.4538111153162
20
2.44097697974715
30
0
41
1
10
-35.4764597265186
20
2.43319015165397
30
0
41
1
10
-35.5
20
2.41944921011395
30
0
0
SPLINE
5
C8
100
AcDbEntity
8
SK1
62
256
6
ByLayer
370
18
48
1
60
0
100
AcDbSpline
70
4
71
3
72
8
73
4
40
0
40
0
40
0
40
0
40
1
40
1
40
1
40
1
41
1
10
-36
20
0.891617941237996
30
0
41
1
10
-35.8338633304863
20
0.989684160003975
30
0
41
1
10
-35.6671130015353
20
1.08742421625342
30
0
41
1
10
-35.5
20
1.18497151053162
30
0
0
SPLINE
5
C9
100
AcDbEntity
8
1
62
256
6
ByLayer
370
18
48
1
60
0
100
AcDbSpline
70
4
71
3
72
8
73
4
40
0
40
0
40
0
40
0
40
1
40
1
40
1
40
1
41
1
10
26.9762398436224
20
2.00343846203248
30
0
41
1
10
26.65016509965
20
2.35622110953793
30
0
41
1
10
26.3254765723221
20
2.71332164261489
30
0
41
1
10
26.0013878750131
20
3.06964920916204
30
0
0
SPLINE
5
CA
100
AcDbEntity
8
1
62
256
6
ByLayer
370
18
48
1
60
0
100
AcDbSpline
70
4
71
3
72
8
73
4
40
0
40
0
40
0
40
0
40
1
40
1
40
1
40
1
41
1
10
26.9447523789551
20
2.22249636705666
30
0
41
1
10
27.081113251944
20
2.19965503016962
30
0
41
1
10
27.2173315746619
20
2.17463538721662
30
0
41
1
10
27.353436040317
20
2.14741714469653
30
0
0
SPLINE
5
CB
100
AcDbEntity
8
1
62
256
6
ByLayer
370
18
48
1
60
0
100
AcDbSpline
70
4
71
3
72
32
73
28
40
0
40
0
40
0
40
0
40
0.249999999999994
40
0.249999999999994
40
0.374999999999996
40
0.374999999999996
40
0.499999999999998
40
0.499999999999998
40
0.625000000000001
40
0.625000000000001
40
0.750000000000003
40
0.750000000000003
40
0.812500000000004
40
0.812500000000004
40
0.875000000000005
40
0.875000000000005
40
0.882812500000004
40
0.882812500000004
40
0.890625000000003
40
0.890625000000003
40
0.898437500000002
40
0.898437500000002
40
0.906250000000001
40
0.906250000000001
40
0.937500000000001
40
0.937500000000001
40
1
40
1
40
1
40
1
41
1
10
39.7676555450792
20
0.457328290337131
30
0
41
1
10
39.9772742513138
20
0.346496286962179
30
0
41
1
10
40.1898639764212
20
0.256215904613981
30
0
41
1
10
40.5137660492504
20
0.15550310579377
30
0
41
1
10
40.6231865543064
20
0.127625575676746
30
0
41
1
10
40.8404521880915
20
0.085911904726629
30
0
41
1
10
40.94815382481
20
0.072259355838753
30
0
41
1
10
41.1613770024809
20
0.0618210633559784
30
0
41
1
10
41.2669773772762
20
0.0644254038573422
30
0
41
1
10
41.4758342544296
20
0.0877679855077247
30
0
41
1
10
41.5785899759518
20
0.108524904777255
30
0
41
1
10
41.7266206662834
20
0.154856005691016
30
0
41
1
10
41.7751203100195
20
0.172884844449101
30
0
41
1
10
41.8700369515024
20
0.214434856191559
30
0
41
1
10
41.9164830125952
20
0.237529891254638
30
0
41
1
10
41.966881072695
20
0.2671140241969
30
0
41
1
10
41.9724140634819
20
0.270736859330952
30
0
41
1
10
41.9815393614996
20
0.280589143681738
30
0
41
1
10
41.9846917656891
20
0.287251264882457
30
0
41
1
10
41.9866998666519
20
0.302808103883564
30
0
41
1
10
41.9860246647571
20
0.310896427669093
30
0
41
1
10
41.9843630372204
20
0.327059310771659
30
0
41
1
10
41.983569398982
20
0.335135237892331
30
0
41
1
10
41.9799477402171
20
0.375463470623572
30
0
41
1
10
41.9767834720522
20
0.407751974380517
30
0
41
1
10
41.9665498947688
20
0.504676736229953
30
0
41
1
10
41.9587373885032
20
0.569403782397643
30
0
41
1
10
41.9500822860095
20
0.63410801913912
30
0
0
SPLINE
5
CC
100
AcDbEntity
8
1
62
256
6
ByLayer
370
18
48
1
60
0
100
AcDbSpline
70
4
71
3
72
14
73
10
40
0
40
0
40
0
40
0
40
0.359951349299121
40
0.359951349299121
40
0.539927023948681
40
0.539927023948681
40
0.719902698598241
40
0.719902698598241
40
1
40
1
40
1
40
1
41
1
10
26.9447523789551
20
2.22249636705666
30
0
41
1
10
26.9447523789551
20
2.29279300944833
30
0
41
1
10
26.9447523789551
20
2.35080686526081
30
0
41
1
10
26.9447523789551
20
2.41973226168864
30
0
41
1
10
26.9447523789551
20
2.43968165381759
30
0
41
1
10
26.9447523789551
20
2.47338165094041
30
0
41
1
10
26.9447523789551
20
2.48708952476108
30
0
41
1
10
26.9447523789551
20
2.51349051357559
30
0
41
1
10
26.9447523789551
20
2.52161511336382
30
0
41
1
10
26.9447523789551
20
2.52189336705601
30
0
0
SPLINE
5
CD
100
AcDbEntity
8
1
62
256
6
ByLayer
370
18
48
1
60
0
100
AcDbSpline
70
4
71
3
72
20
73
16
40
0
40
0
40
0
40
0
40
0.0425518789962819
40
0.0425518789962819
40
0.234041503197025
40
0.234041503197025
40
0.425531127397769
40
0.425531127397769
40
0.617020751598513
40
0.617020751598513
40
0.808510375799256
40
0.808510375799256
40
0.904255187899628
40
0.904255187899628
40
1
40
1
40
1
40
1
41
1
10
26.9447523789551
20
-2.52189414038798
30
0
41
1
10
26.9447523789551
20
-2.5219696735858
30
0
41
1
10
26.9447523789551
20
-2.52140485784483
30
0
41
1
10
26.9447523789551
20
-2.51478934856038
30
0
41
1
10
26.9447523789551
20
-2.4960455109499
30
0
41
1
10
26.9447523789551
20
-2.4332106455351
30
0
41
1
10
26.9447523789551
20
-2.38941897122436
30
0
41
1
10
26.9447523789551
20
-2.27702997591555
30
0
41
1
10
26.9447523789551
20
-2.20769294908672
30
0
41
1
10
26.9447523789551
20
-2.04891547158587
30
0
41
1
10
26.9447523789551
20
-1.95915982801995
30
0
41
1
10
26.9447523789552
20
-1.80888864847932
30
0
41
1
10
26.9447523789551
20
-1.75592404633798
30
0
41
1
10
26.9447523789551
20
-1.64573791691177
30
0
41
1
10
26.9447523789551
20
-1.58879902685197
30
0
41
1
10
26.9447523789551
20
-1.53004550578928
30
0
0
SPLINE
5
CE
100
AcDbEntity
8
1
62
256
6
ByLayer
370
18
48
1
60
0
100
AcDbSpline
70
4
71
3
72
30
73
26
40
0
40
0
40
0
40
0
40
0.0039132574774227
40
0.0039132574774227
40
0.146211363552082
40
0.146211363552082
40
0.288509469626741
40
0.288509469626741
40
0.4308075757014
40
0.4308075757014
40
0.501956628738728
40
0.501956628738728
40
0.537531155257391
40
0.537531155257391
40
0.573105681776054
40
0.573105681776054
40
0.715403787850703
40
0.715403787850703
40
0.857701893925351
40
0.857701893925351
40
0.893276420444014
40
0.893276420444014
40
0.928850946962677
40
0.928850946962677
40
1
40
1
40
1
40
1
41
1
10
28.8004195406232
20
1.70747040437263
30
0
41
1
10
28.8179262678312
20
1.70168632415107
30
0
41
1
10
28.8354314474533
20
1.69587754155253
30
0
41
1
10
29.4894113301929
20
1.4779331604029
30
0
41
1
10
30.123336570317
20
1.23346364637547
30
0
41
1
10
31.3981415779886
20
0.702775113170219
30
0
41
1
10
32.0280086235647
20
0.421577143747157
30
0
41
1
10
33.2841343519159
20
-0.144636754122956
30
0
41
1
10
33.91040864885
20
-0.429882650593214
30
0
41
1
10
34.8562595423641
20
-0.840140082973562
30
0
41
1
10
35.1725487018929
20
-0.974113460890067
30
0
41
1
10
35.6497531086683
20
-1.16803560348256
30
0
41
1
10
35.8091737333869
20
-1.23143884757823
30
0
41
1
10
36.1265626156516
20
-1.3545119878319
30
0
41
1
10
36.2848427200764
20
-1.41432142458106
30
0
41
1
10
37.0746184103996
20
-1.70402583105098
30
0
41
1
10
37.7012315978466
20
-1.90557975416181
30
0
41
1
10
38.9563944138946
20
-2.2300797863719
30
0
41
1
10
39.5846293619401
20
-2.35328442550528
30
0
41
1
10
40.378762316337
20
-2.44879320745071
30
0
41
1
10
40.5382144000963
20
-2.4650114723068
30
0
41
1
10
40.8565112367777
20
-2.49133400786269
30
0
41
1
10
41.0154952659528
20
-2.5014625647309
30
0
41
1
10
41.492220781668
20
-2.52265113710899
30
0
41
1
10
41.8097361721791
20
-2.52451796567175
30
0
41
1
10
42.1276971698434
20
-2.51385159345989
30
0
0
SPLINE
5
CF
100
AcDbEntity
8
1
62
256
6
ByLayer
370
18
48
1
60
0
100
AcDbSpline
70
4
71
3
72
14
73
10
40
0
40
0
40
0
40
0
40
0.27556914805339
40
0.27556914805339
40
0.55113829610678
40
0.55113829610678
40
0.82670744416017
40
0.82670744416017
40
1
40
1
40
1
40
1
41
1
10
41.9389059581755
20
-1.90182205123014
30
0
41
1
10
41.9384247953909
20
-1.9901834710827
30
0
41
1
10
41.942041046618
20
-2.06781520741666
30
0
41
1
10
41.9577332080322
20
-2.20194432624879
30
0
41
1
10
41.9700135939891
20
-2.25868021315236
30
0
41
1
10
42.0028855693719
20
-2.3465125626725
30
0
41
1
10
42.0234619443654
20
-2.37828019922364
30
0
41
1
10
42.064268025511
20
-2.41060318047877
30
0
41
1
10
42.0818351204286
20
-2.4182807995719
30
0
41
1
10
42.1011028547495
20
-2.42114114530298
30
0
0
SPLINE
5
D0
100
AcDbEntity
8
1
62
256
6
ByLayer
370
18
48
1
60
0
100
AcDbSpline
70
4
71
3
72
22
73
18
40
0
40
0
40
0
40
0
40
0.124999999999992
40
0.124999999999992
40
0.249999999999984
40
0.249999999999984
40
0.312499999999983
40
0.312499999999983
40
0.374999999999982
40
0.374999999999982
40
0.499999999999988
40
0.499999999999988
40
0.624999999999993
40
0.624999999999993
40
0.749999999999998
40
0.749999999999998
40
1
40
1
40
1
40
1
41
1
10
39.7676555450792
20
0.457328290337813
30
0
41
1
10
39.7946078343031
20
0.317128420138118
30
0
41
1
10
39.8377924638155
20
0.178547494431626
30
0
41
1
10
39.9515060661549
20
-0.0933696655260405
30
0
41
1
10
40.0198735637267
20
-0.221955677340588
30
0
41
1
10
40.1355892435522
20
-0.40640291303157
30
0
41
1
10
40.1765737051769
20
-0.466705708891055
30
0
41
1
10
40.2615729146961
20
-0.583349682659957
30
0
41
1
10
40.3055213583983
20
-0.639648492325136
30
0
41
1
10
40.441124455798
20
-0.803297528436275
30
0
41
1
10
40.5365054006953
20
-0.905444314219409
30
0
41
1
10
40.7352653414212
20
-1.09856930523102
30
0
41
1
10
40.8392255947984
20
-1.18995571173255
30
0
41
1
10
41.0510009343294
20
-1.36064340432566
30
0
41
1
10
41.1586409787085
20
-1.43990722347809
30
0
41
1
10
41.4859650739499
20
-1.66241872371364
30
0
41
1
10
41.7100062884809
20
-1.79054881911068
30
0
41
1
10
41.9389059581755
20
-1.90182205123011
30
0
0
SPLINE
5
D1
100
AcDbEntity
8
1
62
256
6
ByLayer
370
18
48
1
60
0
100
AcDbSpline
70
4
71
3
72
8
73
4
40
0
40
0
40
0
40
0
40
1
40
1
40
1
40
1
41
1
10
42.9900911515589
20
0.0953703725072899
30
0
41
1
10
42.9906613674252
20
0.0777132563837597
30
0
41
1
10
42.9944712259362
20
0.0554297559694419
30
0
41
1
10
42.9999618561816
20
0.0321386928385721
30
0
0
SPLINE
5
D2
100
AcDbEntity
8
1
62
256
6
ByLayer
370
18
48
1
60
0
100
AcDbSpline
70
4
71
3
72
38
73
34
40
0
40
0
40
0
40
0
40
0.0094905283445625
40
0.0094905283445625
40
0.061622605800112
40
0.061622605800112
40
0.165886760711211
40
0.165886760711211
40
0.218018838166761
40
0.218018838166761
40
0.27015091562231
40
0.27015091562231
40
0.32228299307786
40
0.32228299307786
40
0.37441507053341
40
0.37441507053341
40
0.478679225444509
40
0.478679225444509
40
0.530811302900056
40
0.530811302900056
40
0.582943380355603
40
0.582943380355603
40
0.687207535266702
40
0.687207535266702
40
0.791471690177802
40
0.791471690177802
40
0.843603767633351
40
0.843603767633351
40
0.895735845088901
40
0.895735845088901
40
0.94786792254445
40
0.94786792254445
40
1
40
1
40
1
40
1
41
1
10
32.0841067840472
20
2.41547268007946
30
0
41
1
10
32.1084113309493
20
2.41543513005701
30
0
41
1
10
32.1327198679215
20
2.41532156478794
30
0
41
1
10
32.2905961436375
20
2.41410954657212
30
0
41
1
10
32.4241265605593
20
2.41092920386896
30
0
41
1
10
32.8246444821126
20
2.39522623751736
30
0
41
1
10
33.0916047470052
20
2.3764286811197
30
0
41
1
10
33.4930235121577
20
2.33778893419191
30
0
41
1
10
33.6269666224678
20
2.32337801461739
30
0
41
1
10
33.8942645244754
20
2.2895686736544
30
0
41
1
10
34.0277012096007
20
2.27024624801581
30
0
41
1
10
34.2943602601067
20
2.22757995364171
30
0
41
1
10
34.427940602779
20
2.20460239949185
30
0
41
1
10
34.6948623230894
20
2.15466881733985
30
0
41
1
10
34.8282845475443
20
2.12772128100235
30
0
41
1
10
35.2285641111122
20
2.04148477440631
30
0
41
1
10
35.4957041058441
20
1.97771724622478
30
0
41
1
10
35.8970763544185
20
1.87126166573554
30
0
41
1
10
36.0307001365177
20
1.83397877490017
30
0
41
1
10
36.2976149664011
20
1.7560610635712
30
0
41
1
10
36.4308394255206
20
1.71530809334197
30
0
41
1
10
36.8312693973584
20
1.59027158023852
30
0
41
1
10
37.0980062685933
20
1.50132447370004
30
0
41
1
10
37.6316845327251
20
1.31366671290795
30
0
41
1
10
37.8994123221809
20
1.21458743480304
30
0
41
1
10
38.3003267560433
20
1.05991946790374
30
0
41
1
10
38.4337976193015
20
1.00734751334321
30
0
41
1
10
38.7004353048221
20
0.900319022641071
30
0
41
1
10
38.8339108493042
20
0.84652692241005
30
0
41
1
10
39.1007705039608
20
0.737656808541004
30
0
41
1
10
39.234139586418
20
0.682614501181519
30
0
41
1
10
39.5008133324732
20
0.570987276717261
30
0
41
1
10
39.6341637539304
20
0.514333858442285
30
0
41
1
10
39.767655545079
20
0.457328290337188
30
0
0
SPLINE
5
D3
100
AcDbEntity
8
1
62
256
6
ByLayer
370
18
48
1
60
0
100
AcDbSpline
70
4
71
3
72
14
73
10
40
0
40
0
40
0
40
0
40
0.442473239913529
40
0.442473239913529
40
0.663709859870293
40
0.663709859870293
40
0.884946479827058
40
0.884946479827058
40
1
40
1
40
1
40
1
41
1
10
26.0013878750238
20
3.06964920915218
30
0
41
1
10
25.9820088907068
20
3.17922496151931
30
0
41
1
10
25.9632127730145
20
3.26462362630315
30
0
41
1
10
25.9345018541034
20
3.35764735619176
30
0
41
1
10
25.9247756448289
20
3.38276152654927
30
0
41
1
10
25.9051083732593
20
3.42083067273583
30
0
41
1
10
25.8952530820989
20
3.43357336735139
30
0
41
1
10
25.8805435020979
20
3.4433537080815
30
0
41
1
10
25.8755557673603
20
3.44502958892809
30
0
41
1
10
25.8705879499663
20
3.44502899511903
30
0
0
SPLINE
5
D4
100
AcDbEntity
8
1
62
256
6
ByLayer
370
18
48
1
60
0
100
AcDbSpline
70
4
71
3
72
10
73
6
40
0
40
0
40
0
40
0
40
0.5
40
0.5
40
1
40
1
40
1
40
1
41
1
10
42.2451776664303
20
2.47057323476861
30
0
41
1
10
42.2216604277972
20
2.48896268040841
30
0
41
1
10
42.1991434784495
20
2.5043246096854
30
0
41
1
10
42.1560919775345
20
2.52868507131242
30
0
41
1
10
42.1354486103105
20
2.53770545480214
30
0
41
1
10
42.1161214122433
20
2.54323278799796
30
0
0
SPLINE
5
D5
100
AcDbEntity
8
1
62
256
6
ByLayer
370
18
48
1
60
0
100
AcDbSpline
70
4
71
3
72
8
73
4
40
0
40
0
40
0
40
0
40
1
40
1
40
1
40
1
41
1
10
42.1276971698435
20
-2.51385159345992
30
0
41
1
10
42.1238413507833
20
-2.52364873102385
30
0
41
1
10
42.119982729913
20
-2.53344249871293
30
0
41
1
10
42.1161214122433
20
-2.54323278799796
30
0
0
SPLINE
5
D6
100
AcDbEntity
8
1
62
256
6
ByLayer
370
18
48
1
60
0
100
AcDbSpline
70
4
71
3
72
8
73
4
40
0
40
0
40
0
40
0
40
1
40
1
40
1
40
1
41
1
10
42.9790560292128
20
-0.0172570072376459
30
0
41
1
10
42.8282795299517
20
-0.264150272329403
30
0
41
1
10
42.6813858623966
20
-0.514576621551811
30
0
41
1
10
42.5384348641046
20
-0.768590502570788
30
0
0
SPLINE
5
D7
100
AcDbEntity
8
1
62
256
6
ByLayer
370
18
48
1
60
0
100
AcDbSpline
70
4
71
3
72
67
73
63
40
0
40
0
40
0
40
0
40
0.0624999999999907
40
0.0624999999999907
40
0.124999999999982
40
0.124999999999982
40
0.187499999999972
40
0.187499999999972
40
0.249999999999963
40
0.249999999999963
40
0.281249999999958
40
0.281249999999958
40
0.312499999999952
40
0.312499999999952
40
0.374999999999942
40
0.374999999999942
40
0.406249999999937
40
0.406249999999937
40
0.437499999999932
40
0.437499999999932
40
0.468749999999927
40
0.468749999999927
40
0.499999999999922
40
0.499999999999922
40
0.515624999999919
40
0.515624999999919
40
0.531249999999917
40
0.531249999999917
40
0.546874999999915
40
0.546874999999915
40
0.562499999999912
40
0.562499999999912
40
0.57812499999991
40
0.57812499999991
40
0.593749999999908
40
0.593749999999908
40
0.609374999999905
40
0.609374999999905
40
0.624999999999903
40
0.624999999999903
40
0.656249999999898
40
0.656249999999898
40
0.664062499999898
40
0.664062499999898
40
0.666015624999898
40
0.666015624999898
40
0.667968749999898
40
0.667968749999898
40
0.669921874999899
40
0.669921874999899
40
0.671874999999899
40
0.671874999999899
40
0.675781249999901
40
0.675781249999901
40
0.679687499999903
40
0.687499999999906
40
0.687499999999906
40
0.749999999999925
40
0.749999999999925
40
0.874999999999962
40
0.874999999999962
40
1
40
1
40
1
40
1
41
1
10
17.5033586811387
20
-3.01991024121676
30
0
41
1
10
17.2122069660353
20
-3.10079310472037
30
0
41
1
10
16.9241955159809
20
-3.17265433073808
30
0
41
1
10
16.3509216823175
20
-3.2932212660763
30
0
41
1
10
16.0649277459408
20
-3.34199805696295
30
0
41
1
10
15.4982246969775
20
-3.41240332782149
30
0
41
1
10
15.2171077108916
20
-3.43421899078174
30
0
41
1
10
14.6573805374534
20
-3.44956732846009
30
0
41
1
10
14.3787648039659
20
-3.44316059635992
30
0
41
1
10
13.9621575072442
20
-3.41074943968059
30
0
41
1
10
13.8235175143913
20
-3.39613516039333
30
0
41
1
10
13.546741292377
20
-3.3587583062407
30
0
41
1
10
13.4083750968771
20
-3.33594090374598
30
0
41
1
10
12.9977274506706
20
-3.25477948357778
30
0
41
1
10
12.7288008946164
20
-3.18400992656737
30
0
41
1
10
12.336825468879
20
-3.04557650366331
30
0
41
1
10
12.208102729795
20
-2.99399440570082
30
0
41
1
10
11.9561373517677
20
-2.8771118117902
30
0
41
1
10
11.8330076572257
20
-2.81185100757742
30
0
41
1
10
11.5989098196544
20
-2.66495575270008
30
0
41
1
10
11.4867780594842
20
-2.58262260304142
30
0
41
1
10
11.2853052329011
20
-2.39687420081663
30
0
41
1
10
11.1954251214801
20
-2.29384882299496
30
0
41
1
10
11.09030255073
20
-2.11364537400488
30
0
41
1
10
11.0612038464422
20
-2.05059401121227
30
0
41
1
10
11.018331873172
20
-1.91734310780322
30
0
41
1
10
11.0046019093817
20
-1.84621357494427
30
0
41
1
10
10.9973754012784
20
-1.70238255280952
30
0
41
1
10
11.0035540150394
20
-1.62920917802771
30
0
41
1
10
11.0372117103373
20
-1.48045284532017
30
0
41
1
10
11.0642557607201
20
-1.4073478301683
30
0
41
1
10
11.1350895898797
20
-1.26622241577272
30
0
41
1
10
11.1793780446795
20
-1.1974864769353
30
0
41
1
10
11.2782505637801
20
-1.06896709357989
30
0
41
1
10
11.333177368553
20
-1.00835726194012
30
0
41
1
10
11.451552808679
20
-0.892922451822841
30
0
41
1
10
11.515143219427
20
-0.83806937272584
30
0
41
1
10
11.6461364204632
20
-0.735464093261896
30
0
41
1
10
11.7139265436614
20
-0.68731051456507
30
0
41
1
10
11.9227099453033
20
-0.550356129480804
30
0
41
1
10
12.0691274560997
20
-0.468903000536443
30
0
41
1
10
12.2581494885673
20
-0.376047062846283
30
0
41
1
10
12.2961950678106
20
-0.35796530331254
30
0
41
1
10
12.3440305880446
20
-0.335929869891203
30
0
41
1
10
12.3536448303253
20
-0.331620855631428
30
0
41
1
10
12.3727126022417
20
-0.322663630784348
30
0
41
1
10
12.3822839854853
20
-0.318103212374751
30
0
41
1
10
12.4020351689284
20
-0.311036655224143
30
0
41
1
10
12.4121278979383
20
-0.308606169540667
30
0
41
1
10
12.4328834257349
20
-0.30664221751411
30
0
41
1
10
12.4435324798768
20
-0.306915158772426
30
0
41
1
10
12.4750067842434
20
-0.309198746999868
30
0
41
1
10
12.4958446600038
20
-0.312089242501344
30
0
41
1
10
12.5376510197482
20
-0.316637258078657
30
0
41
1
10
12.6003441072508
20
-0.323604479617956
30
0
41
1
10
12.6629947834659
20
-0.331007344250111
30
0
41
1
10
13.0386194122594
20
-0.377145460558097
30
0
41
1
10
13.3711951097126
20
-0.430546467932629
30
0
41
1
10
14.3593571359133
20
-0.624748673271398
30
0
41
1
10
15.0040930053349
20
-0.799771033572085
30
0
41
1
10
16.270451248699
20
-1.21420127081322
30
0
41
1
10
16.8933368117141
20
-1.45409987456583
30
0
41
1
10
17.5033586811387
20
-1.70053002307856
30
0
0
SPLINE
5
D8
100
AcDbEntity
8
1
62
256
6
ByLayer
370
18
48
1
60
0
100
AcDbSpline
70
4
71
3
72
12
73
8
40
0
40
0
40
0
40
0
40
0.239451300671062
40
0.489586791778206
40
0.780272236649742
40
0.904182208192449
40
1
40
1
40
1
40
1
41
1
10
26.8355503637389
20
2.49528497574423
30
0
41
1
10
26.8467135491498
20
2.48238001301254
30
0
41
1
10
26.869551570938
20
2.44268339234412
30
0
41
1
10
26.906025988761
20
2.33678729643378
30
0
41
1
10
26.9371994414729
20
2.20757561016782
30
0
41
1
10
26.9612809029427
20
2.08639981220065
30
0
41
1
10
26.9716906375377
20
2.02927499744325
30
0
41
1
10
26.9762398436224
20
2.00343846203242
30
0
0
SPLINE
5
D9
100
AcDbEntity
8
1
62
256
6
ByLayer
370
18
48
1
60
0
100
AcDbSpline
70
4
71
3
72
8
73
4
40
0
40
0
40
0
40
0
40
1
40
1
40
1
40
1
41
1
10
42.9592848309919
20
0.676263173636642
30
0
41
1
10
42.9735794015791
20
0.482348126734706
30
0
41
1
10
42.9838472405144
20
0.288717258981677
30
0
41
1
10
42.9900911515589
20
0.0953703725073183
30
0
0
SPLINE
5
DA
100
AcDbEntity
8
1
62
256
6
ByLayer
370
18
48
1
60
0
100
AcDbSpline
70
4
71
3
72
30
73
26
40
0
40
0
40
0
40
0
40
0.0625000000000007
40
0.0625000000000007
40
0.125000000000001
40
0.125000000000001
40
0.250000000000003
40
0.250000000000003
40
0.312500000000003
40
0.312500000000003
40
0.375000000000002
40
0.375000000000002
40
0.500000000000002
40
0.500000000000002
40
0.562500000000002
40
0.562500000000002
40
0.625000000000001
40
0.625000000000001
40
0.687500000000001
40
0.687500000000001
40
0.750000000000001
40
0.750000000000001
40
0.875
40
0.875
40
1
40
1
40
1
40
1
41
1
10
25.5388778515294
20
-1.25778514146918
30
0
41
1
10
25.3711677264682
20
-1.16134770647773
30
0
41
1
10
25.2039744754045
20
-1.06288293485096
30
0
41
1
10
24.8692666130566
20
-0.86398297051457
30
0
41
1
10
24.7017650547081
20
-0.763537320151869
30
0
41
1
10
24.1990912304554
20
-0.458789518298573
30
0
41
1
10
23.8638139203981
20
-0.250993127079937
30
0
41
1
10
23.3613997597894
20
0.0591287401693137
30
0
41
1
10
23.1938756951681
20
0.162428106525368
30
0
41
1
10
22.8591953439187
20
0.369645068919596
30
0
41
1
10
22.6913208431338
20
0.472778285786262
30
0
41
1
10
22.1883112983228
20
0.778959612619815
30
0
41
1
10
21.8542011513003
20
0.980190668511113
30
0
41
1
10
21.3514043524796
20
1.27224045391824
30
0
41
1
10
21.1833966754152
20
1.36804426246718
30
0
41
1
10
20.8482017955147
20
1.55560261004132
30
0
41
1
10
20.6811031641296
20
1.64775159066562
30
0
41
1
10
20.3463255122636
20
1.8265285460171
30
0
41
1
10
20.1787814660944
20
1.91336705827143
30
0
41
1
10
19.8435643488041
20
2.0821788369247
30
0
41
1
10
19.6757880485013
20
2.16420001129734
30
0
41
1
10
19.1738668210641
20
2.40007608926422
30
0
41
1
10
18.8398772781028
20
2.54386228970162
30
0
41
1
10
18.1733284383789
20
2.80479469924319
30
0
41
1
10
17.8388539357251
20
2.91998171501086
30
0
41
1
10
17.5033586811387
20
3.01991024121676
30
0
0
SPLINE
5
DB
100
AcDbEntity
8
1
62
256
6
ByLayer
370
18
48
1
60
0
100
AcDbSpline
70
4
71
3
72
8
73
4
40
0
40
0
40
0
40
0
40
1
40
1
40
1
40
1
41
1
10
42.1161214122433
20
2.54323278799796
30
0
41
1
10
41.9812086470825
20
2.54763042229405
30
0
41
1
10
41.8463615132109
20
2.5497714542397
30
0
41
1
10
41.7115233328098
20
2.54966638091969
30
0
0
SPLINE
5
DC
100
AcDbEntity
8
1
62
256
6
ByLayer
370
18
48
1
60
0
100
AcDbSpline
70
4
71
3
72
30
73
26
40
0
40
0
40
0
40
0
40
0.0904403884602532
40
0.0904403884602532
40
0.180880776920506
40
0.180880776920506
40
0.27132116538076
40
0.27132116538076
40
0.361761553841013
40
0.361761553841013
40
0.452201942301266
40
0.452201942301266
40
0.542642330761519
40
0.542642330761519
40
0.633082719221773
40
0.633082719221773
40
0.723523107682026
40
0.723523107682026
40
0.813963496142279
40
0.813963496142279
40
0.904403884602532
40
0.904403884602532
40
0.994844273062786
40
0.994844273062786
40
1
40
1
40
1
40
1
41
1
10
17.5033586811387
20
-1.70053002307856
30
0
41
1
10
17.680168408054
20
-1.79675384002547
30
0
41
1
10
17.8571073210202
20
-1.88955256978761
30
0
41
1
10
18.2114073831621
20
-2.06832545521152
30
0
41
1
10
18.3887947499259
20
-2.15428802825266
30
0
41
1
10
18.742677012079
20
-2.32103735807723
30
0
41
1
10
18.9196079584746
20
-2.4015394470984
30
0
41
1
10
19.2743531879186
20
-2.55360490031288
30
0
41
1
10
19.4516637597778
20
-2.62558511323576
30
0
41
1
10
19.8053861124503
20
-2.76222969015683
30
0
41
1
10
19.9820496290618
20
-2.82659529728423
30
0
41
1
10
20.336370740891
20
-2.9461238893816
30
0
41
1
10
20.5141938446135
20
-3.00137906500305
30
0
41
1
10
20.8685993259594
20
-3.10290754308338
30
0
41
1
10
21.0449896288682
20
-3.14939491176915
30
0
41
1
10
21.3989517398583
20
-3.23191287935262
30
0
41
1
10
21.5763224132611
20
-3.26815932678161
30
0
41
1
10
21.9307496194896
20
-3.33116410713461
30
0
41
1
10
22.1078561766516
20
-3.35778997474972
30
0
41
1
10
22.4618883303601
20
-3.40044508631044
30
0
41
1
10
22.6390651020224
20
-3.41654967937808
30
0
41
1
10
22.9933355344874
20
-3.43851562449495
30
0
41
1
10
23.169943602
20
-3.44438643217086
30
0
41
1
10
23.3572951061767
20
-3.44498636335993
30
0
41
1
10
23.3674002333446
20
-3.44500172570466
30
0
41
1
10
23.3775060587355
20
-3.44500010582146
30
0
0
SPLINE
5
DD
100
AcDbEntity
8
1
62
256
6
ByLayer
370
18
48
1
60
0
100
AcDbSpline
70
4
71
3
72
24
73
20
40
0
40
0
40
0
40
0
40
0.125000000000007
40
0.125000000000007
40
0.187500000000006
40
0.187500000000006
40
0.250000000000006
40
0.250000000000006
40
0.375000000000005
40
0.375000000000005
40
0.500000000000004
40
0.500000000000004
40
0.625000000000003
40
0.625000000000003
40
0.750000000000002
40
0.750000000000002
40
0.875000000000001
40
0.875000000000001
40
1
40
1
40
1
40
1
41
1
10
42.538434864103
20
-0.768590502573318
30
0
41
1
10
42.5345747380172
20
-0.805545653029952
30
0
41
1
10
42.5267855746099
20
-0.848472174546771
30
0
41
1
10
42.5102501326391
20
-0.915691462761458
30
0
41
1
10
42.5038272083949
20
-0.939036979315603
30
0
41
1
10
42.4897756591576
20
-0.985517416034952
30
0
41
1
10
42.482147448208
20
-1.00871449790631
30
0
41
1
10
42.4575740680843
20
-1.0781941519576
30
0
41
1
10
42.4392602599983
20
-1.12340052071767
30
0
41
1
10
42.4009934391539
20
-1.20777106626193
30
0
41
1
10
42.3813394084335
20
-1.24634761328636
30
0
41
1
10
42.3421297259855
20
-1.31519843716066
30
0
41
1
10
42.3225631456653
20
-1.34537349281888
30
0
41
1
10
42.2859684554907
20
-1.39416274313393
30
0
41
1
10
42.2685996245919
20
-1.41335606421222
30
0
41
1
10
42.2363079036546
20
-1.44044724672241
30
0
41
1
10
42.2218779460437
20
-1.44798708060722
30
0
41
1
10
42.1964130704151
20
-1.45068505241855
30
0
41
1
10
42.1856127872938
20
-1.44562290281584
30
0
41
1
10
42.1773353256424
20
-1.43398144700831
30
0
0
SPLINE
5
DE
100
AcDbEntity
8
1
62
256
6
ByLayer
370
18
48
1
60
0
100
AcDbSpline
70
4
71
3
72
32
73
28
40
0
40
0
40
0
40
0
40
0.0624999999999993
40
0.0624999999999993
40
0.124999999999999
40
0.124999999999999
40
0.249999999999999
40
0.249999999999999
40
0.375
40
0.375
40
0.40625
40
0.40625
40
0.4375
40
0.4375
40
0.500000000000001
40
0.500000000000001
40
0.625000000000004
40
0.625000000000004
40
0.687500000000006
40
0.687500000000006
40
0.718750000000007
40
0.718750000000007
40
0.750000000000008
40
0.750000000000008
40
0.875000000000004
40
0.875000000000004
40
1
40
1
40
1
40
1
41
1
10
42.1161214122433
20
-2.54323278799796
30
0
41
1
10
41.8068670573629
20
-2.55331328375846
30
0
41
1
10
41.4979575574573
20
-2.55153662179413
30
0
41
1
10
40.8794629569885
20
-2.52452184643781
30
0
41
1
10
40.569091351268
20
-2.49917628253814
30
0
41
1
10
39.6412287071585
20
-2.38921026738248
30
0
41
1
10
39.028573163262
20
-2.2708129616903
30
0
41
1
10
37.8028546408072
20
-1.95748531877632
30
0
41
1
10
37.1900828313346
20
-1.76223733417152
30
0
41
1
10
36.4168511097554
20
-1.48014205238709
30
0
41
1
10
36.2615954519117
20
-1.42173428571223
30
0
41
1
10
35.9522178983903
20
-1.30221855312288
30
0
41
1
10
35.7979265006311
20
-1.24105121838315
30
0
41
1
10
35.3360116142694
20
-1.05382438825765
30
0
41
1
10
35.0293404871519
20
-0.924050854169423
30
0
41
1
10
34.110789698296
20
-0.52497464964344
30
0
41
1
10
33.5005285170927
20
-0.245568626280857
30
0
41
1
10
32.5799023181201
20
0.174956490448039
30
0
41
1
10
32.272104043656
20
0.315245907367654
30
0
41
1
10
31.8080156497936
20
0.523572399974029
30
0
41
1
10
31.6527254736239
20
0.592773818375434
30
0
41
1
10
31.3434436378466
20
0.72915346124293
30
0
41
1
10
31.1892099605142
20
0.796424565786822
30
0
41
1
10
30.4194935338365
20
1.12698667941069
30
0
41
1
10
29.8084078870222
20
1.37297273864104
30
0
41
1
10
28.584875413607
20
1.80798143300521
30
0
41
1
10
27.9724559726674
20
1.99696976536066
30
0
41
1
10
27.3534360403171
20
2.14741714469653
30
0
0
SPLINE
5
DF
100
AcDbEntity
8
1
62
256
6
ByLayer
370
18
48
1
60
0
100
AcDbSpline
70
4
71
3
72
10
73
6
40
0
40
0
40
0
40
0
40
0.5
40
0.5
40
1
40
1
40
1
40
1
41
1
10
26.5351367407636
20
-1.36660102703669
30
0
41
1
10
26.3599074328325
20
-1.39449304148357
30
0
41
1
10
26.1910983263937
20
-1.39775082156311
30
0
41
1
10
25.8605666284329
20
-1.36072200697257
30
0
41
1
10
25.6989091448793
20
-1.32035983406021
30
0
41
1
10
25.5388778515396
20
-1.25778514147314
30
0
0
SPLINE
5
E0
100
AcDbEntity
8
1
62
256
6
ByLayer
370
18
48
1
60
0
100
AcDbSpline
70
4
71
3
72
10
73
6
40
0
40
0
40
0
40
0
40
0.34340895488981
40
0.34340895488981
40
1
40
1
40
1
40
1
41
1
10
19.0301023609951
20
-2.45866831647163
30
0
41
1
10
18.8554155396453
20
-2.53421248338145
30
0
41
1
10
18.6809113887464
20
-2.60609231707946
30
0
41
1
10
18.1733284383789
20
-2.80479469924319
30
0
41
1
10
17.8388539357251
20
-2.91998171501086
30
0
41
1
10
17.5033586811387
20
-3.01991024121676
30
0
0
SPLINE
5
E1
100
AcDbEntity
8
1
62
256
6
ByLayer
370
18
48
1
60
0
100
AcDbSpline
70
4
71
3
72
12
73
8
40
0
40
0
40
0
40
0
40
0.268348581754556
40
0.268348581754556
40
0.536697163509111
40
0.536697163509111
40
1
40
1
40
1
40
1
41
1
10
42.1369721436272
20
-2.42116834349719
30
0
41
1
10
41.8188760069156
20
-2.42556168177424
30
0
41
1
10
41.5012009266439
20
-2.41795035176079
30
0
41
1
10
40.8653038546765
20
-2.37929294408465
30
0
41
1
10
40.5462414893579
20
-2.34811652855339
30
0
41
1
10
39.6802215411819
20
-2.2328958427473
30
0
41
1
10
39.1366432344647
20
-2.12683445740643
30
0
41
1
10
38.5940928717809
20
-1.99279964836359
30
0
0
SPLINE
5
E2
100
AcDbEntity
8
1
62
256
6
ByLayer
370
13
48
1
60
0
100
AcDbSpline
70
4
71
3
72
24
73
20
40
0
40
0
40
0
40
0
40
0.0276189543710225
40
0.0276189543710225
40
0.229582855651652
40
0.229582855651652
40
0.28007383097181
40
0.28007383097181
40
0.330564806291968
40
0.330564806291968
40
0.431546756932281
40
0.431546756932281
40
0.633510658212906
40
0.633510658212906
40
0.734492608853219
40
0.734492608853219
40
0.835474559493532
40
0.835474559493532
40
1
40
1
40
1
40
1
41
1
10
38.5940930431827
20
-1.99279969070767
30
0
41
1
10
38.5081446265261
20
-1.97156649302599
30
0
41
1
10
38.4222220066367
20
-1.94963128861332
30
0
41
1
10
37.7080787367973
20
-1.76162865308999
30
0
41
1
10
37.0806069147311
20
-1.55949267699441
30
0
41
1
10
36.2900914972982
20
-1.27253999377879
30
0
41
1
10
36.1316781922807
20
-1.21345186875124
30
0
41
1
10
35.8140590502004
20
-1.09217146076565
30
0
41
1
10
35.6545535911401
20
-1.02984809155859
30
0
41
1
10
35.1774228003394
20
-0.839843589389034
30
0
41
1
10
34.8610377829582
20
-0.709075290594853
30
0
41
1
10
33.9146386489151
20
-0.310062705214278
30
0
41
1
10
33.2875850006924
20
-0.0346228781102411
30
0
41
1
10
32.3443907455112
20
0.372622161610309
30
0
41
1
10
32.0295270568137
20
0.507313235553028
30
0
41
1
10
31.3975505992628
20
0.771445971308992
30
0
41
1
10
31.0802361212501
20
0.901097202508538
30
0
41
1
10
30.2423886770436
20
1.22989687741528
30
0
41
1
10
29.7252954058261
20
1.41915596555037
30
0
41
1
10
29.2072098351896
20
1.58803133452494
30
0
0
SPLINE
5
E3
100
AcDbEntity
8
1
62
256
6
ByLayer
370
18
48
1
60
0
100
AcDbSpline
70
4
71
3
72
36
73
32
40
0
40
0
40
0
40
0
40
0.0625000000000109
40
0.0625000000000109
40
0.125000000000022
40
0.125000000000022
40
0.250000000000033
40
0.250000000000033
40
0.312500000000039
40
0.312500000000039
40
0.375000000000045
40
0.375000000000045
40
0.406250000000044
40
0.406250000000044
40
0.437500000000043
40
0.437500000000043
40
0.468750000000043
40
0.468750000000043
40
0.500000000000042
40
0.500000000000042
40
0.531250000000041
40
0.531250000000041
40
0.562500000000041
40
0.562500000000041
40
0.625000000000039
40
0.625000000000039
40
0.750000000000026
40
0.750000000000026
40
0.875000000000013
40
0.875000000000013
40
1
40
1
40
1
40
1
41
1
10
42.1773353256423
20
-1.43398144700825
30
0
41
1
10
42.1238612372963
20
-1.41792893284793
30
0
41
1
10
42.0704420242579
20
-1.39942621601338
30
0
41
1
10
41.9637136938292
20
-1.35750497115754
30
0
41
1
10
41.9102234896072
20
-1.33399008390848
30
0
41
1
10
41.7520161331724
20
-1.25641255742357
30
0
41
1
10
41.6490271749151
20
-1.19573836778269
30
0
41
1
10
41.5001704018904
20
-1.08442931469233
30
0
41
1
10
41.4516659656538
20
-1.04396477903762
30
0
41
1
10
41.3599202415786
20
-0.954165955322424
30
0
41
1
10
41.3169034851885
20
-0.905459105170792
30
0
41
1
10
41.2625412400032
20
-0.822585721099557
30
0
41
1
10
41.2458546489856
20
-0.792680487535449
30
0
41
1
10
41.2202727801934
20
-0.729935318005062
30
0
41
1
10
41.2113699964086
20
-0.696716749206701
30
0
41
1
10
41.2077566042691
20
-0.631951912072253
30
0
41
1
10
41.2135083359864
20
-0.600809553206176
30
0
41
1
10
41.2381176340183
20
-0.548989987653698
30
0
41
1
10
41.2563217638078
20
-0.528352310259919
30
0
41
1
10
41.297251654223
20
-0.49600821716561
30
0
41
1
10
41.3204599393416
20
-0.483796899579602
30
0
41
1
10
41.3684220921064
20
-0.465054914044714
30
0
41
1
10
41.3933272861049
20
-0.458419773127161
30
0
41
1
10
41.4698755930994
20
-0.443940135999725
30
0
41
1
10
41.5231918933148
20
-0.441532849317781
30
0
41
1
10
41.6827818734751
20
-0.446597751289744
30
0
41
1
10
41.7912570860395
20
-0.466045335906443
30
0
41
1
10
42.0080800506505
20
-0.522849854567482
30
0
41
1
10
42.1158459873917
20
-0.56041385332361
30
0
41
1
10
42.3302218209102
20
-0.651948650763075
30
0
41
1
10
42.4355946341513
20
-0.705295318282964
30
0
41
1
10
42.5384348641037
20
-0.768590502574398
30
0
0
SPLINE
5
E4
100
AcDbEntity
8
1
62
256
6
ByLayer
370
18
48
1
60
0
100
AcDbSpline
70
4
71
3
72
14
73
10
40
0
40
0
40
0
40
0
40
0.306702158171574
40
0.306702158171574
40
0.613404316343148
40
0.613404316343148
40
0.920106474514722
40
0.920106474514722
40
1
40
1
40
1
40
1
41
1
10
17.5033586811387
20
3.01991024121676
30
0
41
1
10
17.2122069660353
20
3.10079310472037
30
0
41
1
10
16.9241955159809
20
3.17265433073808
30
0
41
1
10
16.3509216823176
20
3.2932212660763
30
0
41
1
10
16.0649277459409
20
3.34199805696295
30
0
41
1
10
15.4982246969775
20
3.41240332782146
30
0
41
1
10
15.2171077108917
20
3.43421899078172
30
0
41
1
10
14.8643418376962
20
3.44389222088407
30
0
41
1
10
14.7915242257929
20
3.44493580577742
30
0
41
1
10
14.7187847427255
20
3.44500412062004
30
0
0
SPLINE
5
E5
100
AcDbEntity
8
1
62
256
6
ByLayer
370
18
48
1
60
0
100
AcDbSpline
70
4
71
3
72
24
73
20
40
0
40
0
40
0
40
0
40
0.128917516225685
40
0.128917516225685
40
0.216025764603116
40
0.216025764603116
40
0.303134012980548
40
0.303134012980548
40
0.39024226135798
40
0.39024226135798
40
0.477350509735411
40
0.477350509735411
40
0.651567006490274
40
0.651567006490274
40
0.738675254867706
40
0.738675254867706
40
0.825783503245137
40
0.825783503245137
40
1
40
1
40
1
40
1
41
1
10
25.8705884217687
20
-3.44502899517033
30
0
41
1
10
25.8564508283819
20
-3.44502760735912
30
0
41
1
10
25.8424745475203
20
-3.43144882474854
30
0
41
1
10
25.8183642821946
20
-3.38570215404991
30
0
41
1
10
25.8084651788548
20
-3.36079734313927
30
0
41
1
10
25.7891835389197
20
-3.29940902186195
30
0
41
1
10
25.7797574671538
20
-3.26285103318051
30
0
41
1
10
25.7607186141585
20
-3.17821707977137
30
0
41
1
10
25.7509735504443
20
-3.13014626841337
30
0
41
1
10
25.7314877141637
20
-3.02230730719427
30
0
41
1
10
25.7218027670747
20
-2.96212229644493
30
0
41
1
10
25.6929701348006
20
-2.7669628298365
30
0
41
1
10
25.6736452704924
20
-2.61771210384572
30
0
41
1
10
25.6449408917912
20
-2.36559455614943
30
0
41
1
10
25.6352539664197
20
-2.27651287218342
30
0
41
1
10
25.6158762213862
20
-2.08982494906115
30
0
41
1
10
25.6063309828668
20
-1.99324357971807
30
0
41
1
10
25.5775180659131
20
-1.69414202789568
30
0
41
1
10
25.55827875756
20
-1.48235225821236
30
0
41
1
10
25.5388778515301
20
-1.25778514147731
30
0
0
SPLINE
5
E6
100
AcDbEntity
8
1
62
256
6
ByLayer
370
18
48
1
60
0
100
AcDbSpline
70
4
71
3
72
8
73
4
40
0
40
0
40
0
40
0
40
1
40
1
40
1
40
1
41
1
10
42.9999618561817
20
0.0321386928385721
30
0
41
1
10
42.9949146719417
20
0.0145547352142046
30
0
41
1
10
42.9871840533951
20
-0.0039475429713889
30
0
41
1
10
42.9790560292128
20
-0.0172570072376743
30
0
0
SPLINE
5
E7
100
AcDbEntity
8
1
62
256
6
ByLayer
370
18
48
1
60
0
100
AcDbSpline
70
4
71
3
72
8
73
4
40
0
40
0
40
0
40
0
40
1
40
1
40
1
40
1
41
1
10
42.9592848309919
20
-0.676263173636954
30
0
41
1
10
42.9735731450908
20
-0.482433000025452
30
0
41
1
10
42.9838445059025
20
-0.288801938069241
30
0
41
1
10
42.9900911515589
20
-0.0953703725072899
30
0
0
SPLINE
5
E8
100
AcDbEntity
8
1
62
256
6
ByLayer
370
18
48
1
60
0
100
AcDbSpline
70
4
71
3
72
10
73
6
40
0
40
0
40
0
40
0
40
0.5
40
0.5
40
1
40
1
40
1
40
1
41
1
10
42.2451776664302
20
2.47057323476864
30
0
41
1
10
42.3623409728074
20
2.17047135082933
30
0
41
1
10
42.480650666563
20
1.87107711507892
30
0
41
1
10
42.7188803600391
20
1.27312462104953
30
0
41
1
10
42.8388110280939
20
0.974576015367347
30
0
41
1
10
42.959284830992
20
0.676263173636698
30
0
0
SPLINE
5
E9
100
AcDbEntity
8
1
62
256
6
ByLayer
370
18
48
1
60
0
100
AcDbSpline
70
4
71
3
72
10
73
6
40
0
40
0
40
0
40
0
40
0.5
40
0.5
40
1
40
1
40
1
40
1
41
1
10
42.2451776664243
20
-2.47057323478384
30
0
41
1
10
42.3623332348861
20
-2.17049117072702
30
0
41
1
10
42.4806415014453
20
-1.87110022696629
30
0
41
1
10
42.7188739686983
20
-1.27314055561641
30
0
41
1
10
42.8388102876684
20
-0.974577848781848
30
0
41
1
10
42.9592848309934
20
-0.676263173633004
30
0
0
SPLINE
5
EA
100
AcDbEntity
8
1
62
256
6
ByLayer
370
18
48
1
60
0
100
AcDbSpline
70
4
71
3
72
8
73
4
40
0
40
0
40
0
40
0
40
1
40
1
40
1
40
1
41
1
10
26.9447523789551
20
-1.53004550578928
30
0
41
1
10
26.9447523789551
20
-1.5066891747563
30
0
41
1
10
26.9447523789551
20
-1.48291692013058
30
0
41
1
10
26.9447523789551
20
-1.45872979537975
30
0
0
SPLINE
5
EB
100
AcDbEntity
8
1
62
256
6
ByLayer
370
18
48
1
60
0
100
AcDbSpline
70
4
71
3
72
58
73
54
40
0
40
0
40
0
40
0
40
0.034481569004851
40
0.034481569004851
40
0.0689631380097021
40
0.0689631380097021
40
0.137926276019402
40
0.137926276019402
40
0.172407845024253
40
0.172407845024253
40
0.206889414029104
40
0.206889414029104
40
0.241370983033955
40
0.241370983033955
40
0.275852552038806
40
0.275852552038806
40
0.310334121043657
40
0.310334121043657
40
0.344815690048508
40
0.344815690048508
40
0.379297259053359
40
0.379297259053359
40
0.41377882805821
40
0.41377882805821
40
0.482741966067915
40
0.482741966067915
40
0.517223535072767
40
0.517223535072767
40
0.551705104077619
40
0.551705104077619
40
0.586186673082472
40
0.586186673082472
40
0.620668242087324
40
0.620668242087324
40
0.655149811092176
40
0.655149811092176
40
0.689631380097028
40
0.689631380097028
40
0.758594518106733
40
0.758594518106733
40
0.793076087111586
40
0.793076087111586
40
0.827557656116438
40
0.827557656116438
40
0.86203922512129
40
0.86203922512129
40
0.896520794126143
40
0.896520794126143
40
0.965483932135847
40
0.965483932135847
40
0.999965501140698
40
0.999965501140698
40
1
40
1
40
1
40
1
41
1
10
27.3676255154661
20
1.90829275774451
30
0
41
1
10
27.5229302225217
20
1.86177763435668
30
0
41
1
10
27.6775684770432
20
1.81235256225742
30
0
41
1
10
27.9872835862161
20
1.71035976609693
30
0
41
1
10
28.1423183416857
20
1.65776877083823
30
0
41
1
10
28.6072815692328
20
1.49421870429012
30
0
41
1
10
28.9163652360864
20
1.37608700706244
30
0
41
1
10
29.3823773439881
20
1.19193013992765
30
0
41
1
10
29.5380785069208
20
1.12931739681363
30
0
41
1
10
29.8483700975063
20
1.00088559270247
30
0
41
1
10
30.0028947337972
20
0.934553712492971
30
0
41
1
10
30.3126889318558
20
0.801740429065575
30
0
41
1
10
30.4677797196686
20
0.734911556956007
30
0
41
1
10
30.7775799526137
20
0.598801994124813
30
0
41
1
10
30.932280502977
20
0.529489322111061
30
0
41
1
10
31.2420283379816
20
0.389926291647214
30
0
41
1
10
31.3971196044544
20
0.319776104464239
30
0
41
1
10
31.7079881985317
20
0.17932129692116
30
0
41
1
10
31.8636283866063
20
0.109140412237991
30
0
41
1
10
32.1733204049603
20
-0.0334211382013052
30
0
41
1
10
32.3280323617005
20
-0.104644418655965
30
0
41
1
10
32.6378989667231
20
-0.245424822613728
30
0
41
1
10
32.792959668709
20
-0.315193997960932
30
0
41
1
10
33.2574110312104
20
-0.525068239915925
30
0
41
1
10
33.566881984607
20
-0.663943354382667
30
0
41
1
10
34.0333994853905
20
-0.865188860964707
30
0
41
1
10
34.1886137023697
20
-0.93146665816181
30
0
41
1
10
34.498117019256
20
-1.06286488644872
30
0
41
1
10
34.6529764204057
20
-1.12684476712477
30
0
41
1
10
34.9629070247502
20
-1.25148954957984
30
0
41
1
10
35.1178462931396
20
-1.31241593901061
30
0
41
1
10
35.4273716535076
20
-1.43198994179491
30
0
41
1
10
35.5820891267105
20
-1.49037819957496
30
0
41
1
10
35.8921288201829
20
-1.60310212577909
30
0
41
1
10
36.0476001755637
20
-1.65741832098735
30
0
41
1
10
36.3584182036718
20
-1.76226324154931
30
0
41
1
10
36.5132529374778
20
-1.81323032781037
30
0
41
1
10
36.977615377517
20
-1.95910492561012
30
0
41
1
10
37.2877197111941
20
-2.04617002801334
30
0
41
1
10
37.751930936551
20
-2.16394268920323
30
0
41
1
10
37.9067113028081
20
-2.20076331668753
30
0
41
1
10
38.2169428156826
20
-2.2689070396699
30
0
41
1
10
38.3725649522985
20
-2.30026088077304
30
0
41
1
10
38.68310874596
20
-2.35780537174773
30
0
41
1
10
38.8376898850469
20
-2.38424490482797
30
0
41
1
10
39.1473125182898
20
-2.43090535321102
30
0
41
1
10
39.3022862947933
20
-2.45124568463632
30
0
41
1
10
39.7669588211824
20
-2.50393680885537
30
0
41
1
10
40.0757946038162
20
-2.52799732540206
30
0
41
1
10
40.5413683425642
20
-2.54596504176416
30
0
41
1
10
40.6970248899004
20
-2.54902209472689
30
0
41
1
10
40.852296573804
20
-2.54912969754685
30
0
41
1
10
40.8524517674539
20
-2.54912980207214
30
0
41
1
10
40.8526069604841
20
-2.54912990357363
30
0
0
SPLINE
5
EC
100
AcDbEntity
8
1
62
256
6
ByLayer
370
18
48
1
60
0
100
AcDbSpline
70
4
71
3
72
34
73
30
40
0
40
0
40
0
40
0
40
0.0091102662397299
40
0.0091102662397299
40
0.0853325534520583
40
0.0853325534520583
40
0.161554840664387
40
0.161554840664387
40
0.237777127876715
40
0.237777127876715
40
0.313999415089044
40
0.313999415089044
40
0.390221702301372
40
0.390221702301372
40
0.466443989513701
40
0.466443989513701
40
0.542666276726029
40
0.542666276726029
40
0.618888563938358
40
0.618888563938358
40
0.695110851150686
40
0.695110851150686
40
0.771333138363015
40
0.771333138363015
40
0.847555425575343
40
0.847555425575343
40
0.923777712787672
40
0.923777712787672
40
1
40
1
40
1
40
1
41
1
10
19.0333987594854
20
2.45012052915786
30
0
41
1
10
19.0545869022392
20
2.45933310720056
30
0
41
1
10
19.0757805829705
20
2.46848456419241
30
0
41
1
10
19.2743531879163
20
2.55360490031194
30
0
41
1
10
19.4516637597753
20
2.62558511323476
30
0
41
1
10
19.8053861124474
20
2.76222969015572
30
0
41
1
10
19.9820496290586
20
2.82659529728312
30
0
41
1
10
20.3363707408875
20
2.94612388938043
30
0
41
1
10
20.5141938446096
20
3.00137906500186
30
0
41
1
10
20.8685993259551
20
3.10290754308221
30
0
41
1
10
21.0449896288637
20
3.14939491176801
30
0
41
1
10
21.3989517398534
20
3.23191287935157
30
0
41
1
10
21.5763224132559
20
3.26815932678059
30
0
41
1
10
21.9307496194839
20
3.3311641071337
30
0
41
1
10
22.1078561766457
20
3.3577899747489
30
0
41
1
10
22.4618883303538
20
3.40044508630982
30
0
41
1
10
22.6390651020159
20
3.41654967937754
30
0
41
1
10
22.9933355344804
20
3.43851562449464
30
0
41
1
10
23.1699436019927
20
3.44438643217069
30
0
41
1
10
23.5244379817253
20
3.44552158310393
30
0
41
1
10
23.7019352979976
20
3.44086008517829
30
0
41
1
10
24.0561926308144
20
3.42119931327247
30
0
41
1
10
24.2328233623418
20
3.40611135260625
30
0
41
1
10
24.5866230050201
20
3.36564218090732
30
0
41
1
10
24.7641151525826
20
3.34030249388405
30
0
41
1
10
25.1189708563522
20
3.27971797797278
30
0
41
1
10
25.2956216705791
20
3.24433756199855
30
0
41
1
10
25.6482942745253
20
3.16381306686017
30
0
41
1
10
25.8248281818155
20
3.11900669532059
30
0
41
1
10
26.0013878750135
20
3.0696492091528
30
0
0
SPLINE
5
ED
100
AcDbEntity
8
1
62
256
6
ByLayer
370
18
48
1
60
0
100
AcDbSpline
70
4
71
3
72
10
73
6
40
0
40
0
40
0
40
0
40
0.5
40
0.5
40
1
40
1
40
1
40
1
41
1
10
42.2451776664283
20
-2.47057323477011
30
0
41
1
10
42.2216604277956
20
-2.48896268040949
30
0
41
1
10
42.1991434784483
20
-2.50432460968617
30
0
41
1
10
42.1560919775339
20
-2.52868507131268
30
0
41
1
10
42.1354486103103
20
-2.53770545480222
30
0
41
1
10
42.1161214122433
20
-2.54323278799796
30
0
0
SPLINE
5
EE
100
AcDbEntity
8
1
62
256
6
ByLayer
370
18
48
1
60
0
100
AcDbSpline
70
4
71
3
72
28
73
24
40
0
40
0
40
0
40
0
40
0.0595585792713096
40
0.0595585792713096
40
0.216298816059415
40
0.216298816059415
40
0.294668934453471
40
0.294668934453471
40
0.373039052847526
40
0.373039052847526
40
0.451409171241582
40
0.451409171241582
40
0.529779289635637
40
0.529779289635637
40
0.686519526423754
40
0.686519526423754
40
0.764889644817816
40
0.764889644817816
40
0.843259763211877
40
0.843259763211877
40
0.921629881605939
40
0.921629881605939
40
1
40
1
40
1
40
1
41
1
10
36.3148278303921
20
1.74732656613429
30
0
41
1
10
36.4327468643208
20
1.78659601793188
30
0
41
1
10
36.5504072865639
20
1.82490197750073
30
0
41
1
10
36.9776153775264
20
1.95910492561288
30
0
41
1
10
37.2877197112034
20
2.04617002801584
30
0
41
1
10
37.7519309365599
20
2.16394268920541
30
0
41
1
10
37.906711302817
20
2.20076331668957
30
0
41
1
10
38.2169428156912
20
2.26890703967169
30
0
41
1
10
38.3725649523071
20
2.30026088077472
30
0
41
1
10
38.6831087459684
20
2.35780537174921
30
0
41
1
10
38.8376898850551
20
2.38424490482933
30
0
41
1
10
39.1473125182978
20
2.43090535321213
30
0
41
1
10
39.3022862948013
20
2.45124568463731
30
0
41
1
10
39.76695882119
20
2.50393680885608
30
0
41
1
10
40.0757946038237
20
2.52799732540254
30
0
41
1
10
40.5413683425715
20
2.54596504176436
30
0
41
1
10
40.6970248899075
20
2.54902209472698
30
0
41
1
10
41.0072578691734
20
2.5492370852684
30
0
41
1
10
41.1617542693658
20
2.54632371181219
30
0
41
1
10
41.4714278627313
20
2.53467702366643
30
0
41
1
10
41.6264242301045
20
2.52599264211736
30
0
41
1
10
41.9359482571539
20
2.50271467862126
30
0
41
1
10
42.090487603023
20
2.48807928077568
30
0
41
1
10
42.2451776664302
20
2.47057323476861
30
0
0
SPLINE
5
EF
100
AcDbEntity
8
1
62
256
6
ByLayer
370
18
48
1
60
0
100
AcDbSpline
70
4
71
3
72
12
73
8
40
0
40
0
40
0
40
0
40
0.24999999999993
40
0.24999999999993
40
0.499999999999861
40
0.499999999999861
40
1
40
1
40
1
40
1
41
1
10
41.9500822860096
20
0.63410801913912
30
0
41
1
10
41.9487359982777
20
0.644172662531588
30
0
41
1
10
41.9497619304465
20
0.654575500472305
30
0
41
1
10
41.9578933550537
20
0.673210608561334
30
0
41
1
10
41.9651111916595
20
0.681316610339707
30
0
41
1
10
41.9907587746938
20
0.698572581953812
30
0
41
1
10
42.0122277803488
20
0.70193802907022
30
0
41
1
10
42.0328479243615
20
0.701328264096986
30
0
0
SPLINE
5
F0
100
AcDbEntity
8
1
62
256
6
ByLayer
370
18
48
1
60
0
100
AcDbSpline
70
4
71
3
72
14
73
10
40
0
40
0
40
0
40
0
40
0.25
40
0.25
40
0.5
40
0.5
40
0.75
40
0.75
40
1
40
1
40
1
40
1
41
1
10
42.1369721278072
20
-2.42116834371569
30
0
41
1
10
42.140247339005
20
-2.42073164810606
30
0
41
1
10
42.1428545828544
20
-2.42203286002885
30
0
41
1
10
42.146352906023
20
-2.42906138283047
30
0
41
1
10
42.1471888927534
20
-2.43487877247574
30
0
41
1
10
42.1460446909168
20
-2.45181358298737
30
0
41
1
10
42.1440234756384
20
-2.46280641072252
30
0
41
1
10
42.1373733172298
20
-2.48742687350261
30
0
41
1
10
42.1328069725017
20
-2.50086824574902
30
0
41
1
10
42.1276971698434
20
-2.51385159345989
30
0
0
SPLINE
5
F1
100
AcDbEntity
8
1
62
256
6
ByLayer
370
18
48
1
60
0
100
AcDbSpline
70
4
71
3
72
8
73
4
40
0
40
0
40
0
40
0
40
1
40
1
40
1
40
1
41
1
10
27.367625515466
20
1.90829275774388
30
0
41
1
10
27.2373196078123
20
1.94187531480762
30
0
41
1
10
27.1068007640098
20
1.97349555024996
30
0
41
1
10
26.9762398436226
20
2.00343846203256
30
0
0
SPLINE
5
F2
100
AcDbEntity
8
1
62
256
6
ByLayer
370
18
48
1
60
0
100
AcDbSpline
70
4
71
3
72
44
73
40
40
0
40
0
40
0
40
0
40
0.104324539626808
40
0.104324539626808
40
0.173883848279659
40
0.173883848279659
40
0.24344315693251
40
0.24344315693251
40
0.382561774238212
40
0.382561774238212
40
0.452121082891063
40
0.452121082891063
40
0.486900737217488
40
0.486900737217488
40
0.504290564380701
40
0.504290564380701
40
0.512985477962307
40
0.512985477962307
40
0.521680391543914
40
0.521680391543914
40
0.53037530512552
40
0.53037530512552
40
0.539070218707126
40
0.539070218707126
40
0.556460045870339
40
0.556460045870339
40
0.591239700196765
40
0.591239700196765
40
0.660799008849616
40
0.660799008849616
40
0.730358317502467
40
0.730358317502467
40
0.799917626155318
40
0.799917626155318
40
0.869476934808169
40
0.869476934808169
40
0.93903624346102
40
0.93903624346102
40
1
40
1
40
1
40
1
41
1
10
17.5033586811387
20
-1.6901524222003
30
0
41
1
10
17.5033586811387
20
-1.57611924710383
30
0
41
1
10
17.5033586811387
20
-1.47228157411669
30
0
41
1
10
17.5033586811387
20
-1.3156874516703
30
0
41
1
10
17.5033586811387
20
-1.25770415809328
30
0
41
1
10
17.5033586811387
20
-1.15216998015904
30
0
41
1
10
17.5033586811387
20
-1.10436176450833
30
0
41
1
10
17.5033586811387
20
-0.975114348759632
30
0
41
1
10
17.5033586811387
20
-0.907772519079799
30
0
41
1
10
17.5033586811387
20
-0.833879657871933
30
0
41
1
10
17.5033586811387
20
-0.813765648606818
30
0
41
1
10
17.5033586811387
20
-0.790583060809553
30
0
41
1
10
17.5033586811387
20
-0.784012525587798
30
0
41
1
10
17.5033586811387
20
-0.775875513361711
30
0
41
1
10
17.5033586811387
20
-0.773449466587408
30
0
41
1
10
17.5033586811387
20
-0.770239770968431
30
0
41
1
10
17.5033586811387
20
-0.769241483308349
30
0
41
1
10
17.5033586811387
20
-0.767387772164511
30
0
41
1
10
17.5033586811387
20
-0.764910966157686
30
0
41
1
10
17.5033586811387
20
-0.774590533505517
30
0
41
1
10
17.5033586811387
20
-0.78660241921321
30
0
41
1
10
17.5033586811387
20
-0.807501409675069
30
0
41
1
10
17.5033586811387
20
-0.818020749604017
30
0
41
1
10
17.5033586811387
20
-0.849779935871169
30
0
41
1
10
17.5033586811387
20
-0.871221620947182
30
0
41
1
10
17.5033586811387
20
-0.9363596022053
30
0
41
1
10
17.5033586811387
20
-0.980893943790562
30
0
41
1
10
17.5033586811387
20
-1.11760172059013
30
0
41
1
10
17.5033586811387
20
-1.21283668898423
30
0
41
1
10
17.5033586811387
20
-1.41181124524647
30
0
41
1
10
17.5033586811387
20
-1.51546278667357
30
0
41
1
10
17.5033586811387
20
-1.72916586747459
30
0
41
1
10
17.5033586811389
20
-1.83948746168633
30
0
41
1
10
17.5033586811389
20
-2.06732039744782
30
0
41
1
10
17.5033586811387
20
-2.18483010412331
30
0
41
1
10
17.5033586811387
20
-2.42749772226347
30
0
41
1
10
17.5033586811387
20
-2.55321469093371
30
0
41
1
10
17.5033586811387
20
-2.79209143673521
30
0
41
1
10
17.5033586811387
20
-2.90520339215783
30
0
41
1
10
17.5033586811387
20
-3.01991024121676
30
0
0
SPLINE
5
F3
100
AcDbEntity
8
1
62
256
6
ByLayer
370
18
48
1
60
0
100
AcDbSpline
70
4
71
3
72
17
73
13
40
0
40
0
40
0
40
0
40
0.046376385810271
40
0.178261726754079
40
0.222210156804625
40
0.398023928234027
40
0.518963985762644
40
0.618004964354429
40
0.750247706069493
40
0.882775571940984
40
0.926983719416881
40
1
40
1
40
1
40
1
41
1
10
26.5351367407636
20
-1.36660102703669
30
0
41
1
10
26.5392476529866
20
-1.39888593277811
30
0
41
1
10
26.555045382901
20
-1.52111788689967
30
0
41
1
10
26.5747511894216
20
-1.66411714687814
30
0
41
1
10
26.6059422420807
20
-1.87325171426824
30
0
41
1
10
26.6361614796136
20
-2.05387360788291
30
0
41
1
10
26.6712476990566
20
-2.22370497328021
30
0
41
1
10
26.7024405602519
20
-2.34658333651296
30
0
41
1
10
26.7346198872681
20
-2.44116595908275
30
0
41
1
10
26.7618750830173
20
-2.48906567721852
30
0
41
1
10
26.7838965749302
20
-2.50975595542494
30
0
41
1
10
26.7942329826327
20
-2.51391153161436
30
0
41
1
10
26.8006720714337
20
-2.51432817848041
30
0
0
SPLINE
5
F4
100
AcDbEntity
8
1
62
256
6
ByLayer
370
18
48
1
60
0
100
AcDbSpline
70
4
71
3
72
42
73
38
40
0
40
0
40
0
40
0
40
0.016463734381898
40
0.016463734381898
40
0.0592261807131218
40
0.0592261807131218
40
0.144751073375569
40
0.144751073375569
40
0.187513519706793
40
0.187513519706793
40
0.230275966038017
40
0.230275966038017
40
0.273038412369241
40
0.273038412369241
40
0.315800858700464
40
0.315800858700464
40
0.401325751362908
40
0.401325751362908
40
0.44408819769413
40
0.44408819769413
40
0.486850644025352
40
0.486850644025352
40
0.529613090356574
40
0.529613090356574
40
0.572375536687796
40
0.572375536687796
40
0.65790042935024
40
0.65790042935024
40
0.70066287568146
40
0.70066287568146
40
0.74342532201268
40
0.74342532201268
40
0.82895021467512
40
0.82895021467512
40
0.91447510733756
40
0.91447510733756
40
1
40
1
40
1
40
1
41
1
10
36.3185073311543
20
-1.74918941283221
30
0
41
1
10
36.267142271698
20
-1.76467919990643
30
0
41
1
10
36.2157654212793
20
-1.77995392891816
30
0
41
1
10
36.0308018549154
20
-1.83395072296537
30
0
41
1
10
35.8969596945877
20
-1.87129239970977
30
0
41
1
10
35.4960057704643
20
-1.97763765115479
30
0
41
1
10
35.2293716173564
20
-2.04129286715411
30
0
41
1
10
34.8294160368815
20
-2.12748642938257
30
0
41
1
10
34.6960697215665
20
-2.15443085123411
30
0
41
1
10
34.4292299039057
20
-2.20437319034537
30
0
41
1
10
34.2956556839138
20
-2.22736089101363
30
0
41
1
10
34.0289414866718
20
-2.27005947880943
30
0
41
1
10
33.89544559879
20
-2.28940615930972
30
0
41
1
10
33.6279473270334
20
-2.3232669893672
30
0
41
1
10
33.4942278751739
20
-2.3376608815293
30
0
41
1
10
33.0934690123522
20
-2.37627328418057
30
0
41
1
10
32.8268351049783
20
-2.39509101363521
30
0
41
1
10
32.4266140912683
20
-2.41085601477525
30
0
41
1
10
32.2931502121918
20
-2.41406135591561
30
0
41
1
10
32.0260918526384
20
-2.41616818399433
30
0
41
1
10
31.8927065826007
20
-2.4150211971166
30
0
41
1
10
31.6255405060475
20
-2.40734811270778
30
0
41
1
10
31.4916300437479
20
-2.40077590483276
30
0
41
1
10
31.2239987135181
20
-2.38513635417797
30
0
41
1
10
31.0902795815684
20
-2.3755864755276
30
0
41
1
10
30.6895063148142
20
-2.34094769612935
30
0
41
1
10
30.4227851068887
20
-2.31002738873951
30
0
41
1
10
30.022183213449
20
-2.25225407866574
30
0
41
1
10
29.888499390903
20
-2.23114707491291
30
0
41
1
10
29.6214413522763
20
-2.18403540175615
30
0
41
1
10
29.4879149200627
20
-2.15809478398717
30
0
41
1
10
29.0864502521898
20
-2.07550274722732
30
0
41
1
10
28.8184626874901
20
-2.01379167167548
30
0
41
1
10
28.2833188991511
20
-1.87524209496115
30
0
41
1
10
28.0154518503894
20
-1.79995322972692
30
0
41
1
10
27.4797622356938
20
-1.63852277280324
30
0
41
1
10
27.2126178218433
20
-1.55144416921365
30
0
41
1
10
26.9447523789551
20
-1.45872979538066
30
0
0
SPLINE
5
F5
100
AcDbEntity
8
1
62
256
6
ByLayer
370
18
48
1
60
0
100
AcDbSpline
70
4
71
3
72
8
73
4
40
0
40
0
40
0
40
0
40
1
40
1
40
1
40
1
41
1
10
26.9447523789552
20
-1.53004550578928
30
0
41
1
10
26.808298351163
20
-1.47654267480007
30
0
41
1
10
26.6717576139913
20
-1.42205615588071
30
0
41
1
10
26.5351367407636
20
-1.36660102703675
30
0
0
SPLINE
5
F6
100
AcDbEntity
8
1
62
256
6
ByLayer
370
18
48
1
60
0
100
AcDbSpline
70
4
71
3
72
8
73
4
40
0
40
0
40
0
40
0
40
1
40
1
40
1
40
1
41
1
10
27.353436040317
20
2.14741714469653
30
0
41
1
10
27.3583599806195
20
2.07598152152684
30
0
41
1
10
27.3631491520205
20
1.99624723943526
30
0
41
1
10
27.3676255154815
20
1.90829275774487
30
0
0
SPLINE
5
F7
100
AcDbEntity
8
1
62
256
6
ByLayer
370
18
48
1
60
0
100
AcDbSpline
70
4
71
3
72
8
73
4
40
0
40
0
40
0
40
0
40
1
40
1
40
1
40
1
41
1
10
42.9999618561817
20
0.0321386928385152
30
0
41
1
10
43.0000127198441
20
0.0107106904400496
30
0
41
1
10
43.0000127090885
20
-0.0107152215485371
30
0
41
1
10
42.9999618561818
20
-0.0321386928036702
30
0
0
SPLINE
5
F8
100
AcDbEntity
8
1
62
256
6
ByLayer
370
18
48
1
60
0
100
AcDbSpline
70
4
71
3
72
8
73
4
40
0
40
0
40
0
40
0
40
1
40
1
40
1
40
1
41
1
10
42.9900911515589
20
-0.095370372507233
30
0
41
1
10
42.9906613674255
20
-0.0777132563786154
30
0
41
1
10
42.9944712259382
20
-0.0554297559569079
30
0
41
1
10
42.9999618561864
20
-0.0321386928184779
30
0
0
SPLINE
5
F9
100
AcDbEntity
8
1
62
256
6
ByLayer
370
18
48
1
60
0
100
AcDbSpline
70
4
71
3
72
8
73
4
40
0
40
0
40
0
40
0
40
1
40
1
40
1
40
1
41
1
10
42.1773353256424
20
-1.43398144700836
30
0
41
1
10
42.0964460535551
20
-1.58864275879159
30
0
41
1
10
42.0169660163387
20
-1.7445863680669
30
0
41
1
10
41.9389059581755
20
-1.90182205123017
30
0
0
SPLINE
5
FA
100
AcDbEntity
8
1
62
256
6
ByLayer
370
18
48
1
60
0
100
AcDbSpline
70
4
71
3
72
10
73
6
40
0
40
0
40
0
40
0
40
0.5
40
0.5
40
1
40
1
40
1
40
1
41
1
10
42.0328479243615
20
0.701328264096844
30
0
41
1
10
42.1872905030069
20
0.696761192461622
30
0
41
1
10
42.3416993054443
20
0.69256854562866
30
0
41
1
10
42.6505060545838
20
0.68430359278122
30
0
41
1
10
42.804929496366
20
0.680006040025319
30
0
41
1
10
42.9592848309919
20
0.676263173636642
30
0
0
SPLINE
5
FB
100
AcDbEntity
8
1
62
256
6
ByLayer
370
18
48
1
60
0
100
AcDbSpline
70
4
71
1
72
4
73
2
40
0
40
0
40
1
40
1
41
1
10
26.8011161944426
20
-2.51435347170269
30
0
41
1
10
26.9444578558827
20
-2.52188034167204
30
0
0
SPLINE
5
FC
100
AcDbEntity
8
1
62
256
6
ByLayer
370
18
48
1
60
0
100
AcDbSpline
70
4
71
2
72
6
73
3
40
0
40
0
40
0
40
1
40
1
40
1
41
1
10
41.8427284072761
20
-2.42210867935913
30
0
41
1
10
41.9730171806064
20
-2.4219064753749
30
0
41
1
10
42.1027360652896
20
-2.42116692584526
30
0
0
SPLINE
5
FD
100
AcDbEntity
8
1
62
256
6
ByLayer
370
18
48
1
60
0
100
AcDbSpline
70
4
71
3
72
20
73
16
40
0
40
0
40
0
40
0
40
0.119173585326372
40
0.212766552460312
40
0.287419766343077
40
0.357946239848367
40
0.422015932392963
40
0.479287178225505
40
0.553999251801007
40
0.64444038744884
40
0.71142600626486
40
0.749060407791482
40
0.809879441537649
40
0.899408925492256
40
1
40
1
40
1
40
1
41
1
10
32.0817402687876
20
2.41527751390649
30
0
41
1
10
31.8779048051771
20
2.41445643819944
30
0
41
1
10
31.5139137712506
20
2.41339601230826
30
0
41
1
10
31.0213833492612
20
2.41250129641605
30
0
41
1
10
30.6130690769833
20
2.41305774257214
30
0
41
1
10
30.2546071163439
20
2.41355891132341
30
0
41
1
10
29.9260273811494
20
2.41433758861297
30
0
41
1
10
29.5902509874771
20
2.41427188365412
30
0
41
1
10
29.2093203861514
20
2.41324923991232
30
0
41
1
10
28.8117468742356
20
2.41332767761267
30
0
41
1
10
28.4776768111888
20
2.41235049869996
30
0
41
1
10
28.1943361082781
20
2.41219203387246
30
0
41
1
10
27.8723955436855
20
2.41235639807192
30
0
41
1
10
27.4426188914609
20
2.4130111464417
30
0
41
1
10
27.1170188828805
20
2.4128473380419
30
0
41
1
10
26.9447480771938
20
2.41267246408191
30
0
0
SPLINE
5
FE
100
AcDbEntity
8
1
62
256
6
ByLayer
370
18
48
1
60
0
100
AcDbSpline
70
4
71
1
72
4
73
2
40
0
40
0
40
1
40
1
41
1
10
26.9444578558827
20
2.52188034167204
30
0
41
1
10
26.8154635714082
20
2.51510685239981
30
0
0
SPLINE
5
FF
100
AcDbEntity
8
1
62
256
6
ByLayer
370
18
48
1
60
0
100
AcDbSpline
70
4
71
3
72
18
73
14
40
0
40
0
40
0
40
0
40
0.143725361474166
40
0.271269821705977
40
0.362481419024732
40
0.445995368252819
40
0.5146302115898
40
0.599428525042735
40
0.679438438639048
40
0.721365346921279
40
0.77880926935442
40
0.875197838321991
40
1
40
1
40
1
40
1
41
1
10
26.944751783899
20
-2.41264028793171
30
0
41
1
10
27.1905374785692
20
-2.41269116810503
30
0
41
1
10
27.6544382305785
20
-2.41288495646623
30
0
41
1
10
28.2743100294746
20
-2.41179245287918
30
0
41
1
10
28.7912330837019
20
-2.41333272893039
30
0
41
1
10
29.2074099057992
20
-2.41326914051194
30
0
41
1
10
29.6126260298984
20
-2.41434279447222
30
0
41
1
10
30.0118212770048
20
-2.4142213834599
30
0
41
1
10
30.3654407781544
20
-2.41337344899654
30
0
41
1
10
30.6719771429977
20
-2.4129606322069
30
0
41
1
10
31.0067370145379
20
-2.41260151041223
30
0
41
1
10
31.4832619092491
20
-2.41332385440748
30
0
41
1
10
31.8614504227393
20
-2.41440421220815
30
0
41
1
10
32.0748189858426
20
-2.41526222596426
30
0
0
SPLINE
5
100
100
AcDbEntity
8
1
62
256
6
ByLayer
370
18
48
1
60
0
100
AcDbSpline
70
4
71
2
72
6
73
3
40
0
40
0
40
0
40
1
40
1
40
1
41
1
10
26.8363684503276
20
2.49432760539256
30
0
41
1
10
26.3590117551524
20
2.96837406790968
30
0
41
1
10
25.8820999011805
20
3.44376076478241
30
0
0
SPLINE
5
101
100
AcDbEntity
8
1
62
256
6
ByLayer
370
18
48
1
60
0
100
AcDbSpline
70
4
71
2
72
6
73
3
40
0
40
0
40
0
40
1
40
1
40
1
41
1
10
25.8820999011805
20
-3.4437607647823
30
0
41
1
10
26.3485644518747
20
-2.97878796086493
30
0
41
1
10
26.8154545677249
20
-2.51509731570073
30
0
0
LINE
5
7D
100
AcDbEntity
8
SK1
62
256
6
ByLayer
370
18
48
1
60
0
100
AcDbLine
10
-36
20
2.76
30
0
11
-36
21
2.126096
31
0
39
0
210
0
220
0
230
1
0
LINE
5
7F
100
AcDbEntity
8
SK1
62
256
6
ByLayer
370
13
48
1
60
0
100
AcDbLine
10
-35.5
20
2.419449
30
0
11
-35.5
21
1.184935
31
0
39
0
210
0
220
0
230
1
0
LINE
5
80
100
AcDbEntity
8
SK1
62
256
6
ByLayer
370
18
48
1
60
0
100
AcDbLine
10
-34.76
20
4
30
0
11
-34.76
21
-4
31
0
39
0
210
0
220
0
230
1
0
LINE
5
81
100
AcDbEntity
8
SK1
62
256
6
ByLayer
370
18
48
1
60
0
100
AcDbLine
10
-36
20
2.126096
30
0
11
-36
21
0.891615
31
0
39
0
210
0
220
0
230
1
0
LINE
5
82
100
AcDbEntity
8
SK1
62
256
6
ByLayer
370
18
48
1
60
0
100
AcDbLine
10
0
20
-4
30
0
11
0
21
4
31
0
39
0
210
0
220
0
230
1
0
LINE
5
83
100
AcDbEntity
8
SK1
62
256
6
ByLayer
370
18
48
1
60
0
100
AcDbLine
10
-36
20
0.891618
30
0
11
-36
21
-2.76
31
0
39
0
210
0
220
0
230
1
0
LINE
5
84
100
AcDbEntity
8
SK1
62
256
6
ByLayer
370
18
48
1
60
0
100
AcDbLine
10
-35.4
20
1.337695
30
0
11
-35.4
21
2.407576
31
0
39
0
210
0
220
0
230
1
0
LINE
5
85
100
AcDbEntity
8
1
62
256
6
ByLayer
370
13
48
1
60
0
100
AcDbLine
10
1.2116
20
3.445
30
0
11
1.2116
21
-3.445
31
0
39
0
210
0
220
0
230
1
0
LINE
5
86
100
AcDbEntity
8
1
62
256
6
ByLayer
370
18
48
1
60
0
100
AcDbLine
10
0
20
-4
30
0
11
0
21
4
31
0
39
0
210
0
220
0
230
1
0
LINE
5
87
100
AcDbEntity
8
1
62
256
6
ByLayer
370
13
48
1
60
0
100
AcDbLine
10
0.6058
20
3.7225
30
0
11
0.6058
21
-3.7225
31
0
39
0
210
0
220
0
230
1
0
LINE
5
88
100
AcDbEntity
8
1
62
256
6
ByLayer
370
13
48
1
60
0
100
AcDbLine
10
42.032848
20
0.701328
30
0
11
42.990091
21
0.09537
31
0
39
0
210
0
220
0
230
1
0
LINE
5
89
100
AcDbEntity
8
1
62
256
6
ByLayer
370
13
48
1
60
0
100
AcDbLine
10
41.950082
20
0.634108
30
0
11
42.979056
21
-0.017257
31
0
39
0
210
0
220
0
230
1
0
LINE
5
8A
100
AcDbEntity
8
80
62
256
6
ByLayer
370
18
48
1
60
0
100
AcDbLine
10
0
20
0
30
0
11
-5
21
0
31
0
39
0
210
0
220
0
230
1
0
LINE
5
8B
100
AcDbEntity
8
SK4
62
256
6
ByLayer
370
18
48
0.05
60
0
100
AcDbLine
10
48
20
0
30
0
11
-41
21
0
31
0
39
0
210
0
220
0
230
1
0
LINE
5
8D
100
AcDbEntity
8
4
62
256
6
ByLayer
370
18
48
0.05
60
0
100
AcDbLine
10
43
20
0
30
0
11
0
21
0
31
0
39
0
210
0
220
0
230
1
0
LINE
5
8F
100
AcDbEntity
8
SK1
62
256
6
ByLayer
370
18
48
1
60
0
100
AcDbLine
10
-34.76
20
-4
30
0
11
0
21
-4
31
0
39
0
210
0
220
0
230
1
0
LINE
5
90
100
AcDbEntity
8
SK1
62
256
6
ByLayer
370
18
48
1
60
0
100
AcDbLine
10
0
20
4
30
0
11
-34.76
21
4
31
0
39
0
210
0
220
0
230
1
0
LINE
5
91
100
AcDbEntity
8
SK1
62
256
6
ByLayer
370
18
48
1
60
0
100
AcDbLine
10
-36
20
-2.76
30
0
11
-34.76
21
-4
31
0
39
0
210
0
220
0
230
1
0
LINE
5
92
100
AcDbEntity
8
SK1
62
256
6
ByLayer
370
18
48
1
60
0
100
AcDbLine
10
-34.76
20
4
30
0
11
-36
21
2.76
31
0
39
0
210
0
220
0
230
1
0
LINE
5
93
100
AcDbEntity
8
1
62
256
6
ByLayer
370
18
48
1
60
0
100
AcDbLine
10
41.713683
20
2.549668
30
0
11
40.851175
21
2.549129
31
0
39
0
210
0
220
0
230
1
0
LINE
5
94
100
AcDbEntity
8
1
62
256
6
ByLayer
370
18
48
1
60
0
100
AcDbLine
10
40.851175
20
-2.549129
30
0
11
41.713683
21
-2.549668
31
0
39
0
210
0
220
0
230
1
0
LINE
5
95
100
AcDbEntity
8
1
62
256
6
ByLayer
370
18
48
1
60
0
100
AcDbLine
10
25.870692
20
3.445
30
0
11
23.375957
21
3.445
31
0
39
0
210
0
220
0
230
1
0
LINE
5
96
100
AcDbEntity
8
1
62
256
6
ByLayer
370
18
48
1
60
0
100
AcDbLine
10
14.714955
20
3.445
30
0
11
1.2116
21
3.445
31
0
39
0
210
0
220
0
230
1
0
LINE
5
97
100
AcDbEntity
8
1
62
256
6
ByLayer
370
18
48
1
60
0
100
AcDbLine
10
1.2116
20
-3.445
30
0
11
14.714955
21
-3.445
31
0
39
0
210
0
220
0
230
1
0
LINE
5
98
100
AcDbEntity
8
1
62
256
6
ByLayer
370
18
48
1
60
0
100
AcDbLine
10
23.375957
20
-3.445
30
0
11
25.870692
21
-3.445
31
0
39
0
210
0
220
0
230
1
0
LINE
5
99
100
AcDbEntity
8
81
62
256
6
ByLayer
370
18
48
1
60
0
100
AcDbLine
10
43
20
0
30
0
11
48
21
0
31
0
39
0
210
0
220
0
230
1
0
LINE
5
9A
100
AcDbEntity
8
2
62
256
6
ByLayer
370
13
48
1
60
0
100
AcDbLine
10
65.236431
20
30.505881
30
0
11
65.236431
21
-12.195
31
0
39
0
210
0
220
0
230
1
0
LINE
5
9C
100
AcDbEntity
8
2
62
256
6
ByLayer
370
13
48
1
60
0
100
AcDbLine
10
27.6469
20
3.445
30
0
11
67.236431
21
3.445
31
0
39
0
210
0
220
0
230
1
0
LINE
5
9D
100
AcDbEntity
8
2
62
256
6
ByLayer
370
13
48
1
60
0
100
AcDbLine
10
27.6469
20
-3.445
30
0
11
67.236431
21
-3.445
31
0
39
0
210
0
220
0
230
1
0
LINE
5
9E
100
AcDbEntity
8
1
62
256
6
ByLayer
370
18
48
1
60
1
100
AcDbLine
10
65.236431
20
3.445
30
0
11
64.775647
21
6.944998
31
0
39
0
210
0
220
0
230
1
0
LINE
5
9F
100
AcDbEntity
8
1
62
256
6
ByLayer
370
18
48
1
60
1
100
AcDbLine
10
64.775647
20
6.944998
30
0
11
65.697214
21
6.945002
31
0
39
0
210
0
220
0
230
1
0
LINE
5
A0
100
AcDbEntity
8
1
62
256
6
ByLayer
370
18
48
1
60
1
100
AcDbLine
10
65.697214
20
6.945002
30
0
11
65.236431
21
3.445
31
0
39
0
210
0
220
0
230
1
0
LINE
5
A1
100
AcDbEntity
8
1
62
256
6
ByLayer
370
18
48
1
60
1
100
AcDbLine
10
65.236431
20
-3.445
30
0
11
65.697214
21
-6.944998
31
0
39
0
210
0
220
0
230
1
0
LINE
5
A2
100
AcDbEntity
8
1
62
256
6
ByLayer
370
18
48
1
60
1
100
AcDbLine
10
65.697214
20
-6.944998
30
0
11
64.775647
21
-6.945002
31
0
39
0
210
0
220
0
230
1
0
LINE
5
A3
100
AcDbEntity
8
1
62
256
6
ByLayer
370
18
48
1
60
1
100
AcDbLine
10
64.775647
20
-6.945002
30
0
11
65.236431
21
-3.445
31
0
39
0
210
0
220
0
230
1
0
LINE
5
A4
100
AcDbEntity
8
SK2
62
256
6
ByLayer
370
13
48
1
60
0
100
AcDbLine
10
-44.625163
20
-4
30
0
11
-44.625163
21
33.117107
31
0
39
0
210
0
220
0
230
1
0
LINE
5
A6
100
AcDbEntity
8
SK2
62
256
6
ByLayer
370
13
48
1
60
0
100
AcDbLine
10
-37.5875
20
4
30
0
11
-46.625163
21
4
31
0
39
0
210
0
220
0
230
1
0
LINE
5
A7
100
AcDbEntity
8
SK2
62
256
6
ByLayer
370
13
48
1
60
0
100
AcDbLine
10
-37.5875
20
-4
30
0
11
-46.625163
21
-4
31
0
39
0
210
0
220
0
230
1
0
LINE
5
A8
100
AcDbEntity
8
1
62
256
6
ByLayer
370
18
48
1
60
1
100
AcDbLine
10
-44.625163
20
4
30
0
11
-44.164379
21
0.500002
31
0
39
0
210
0
220
0
230
1
0
LINE
5
A9
100
AcDbEntity
8
1
62
256
6
ByLayer
370
18
48
1
60
1
100
AcDbLine
10
-44.164379
20
0.500002
30
0
11
-45.085946
21
0.499998
31
0
39
0
210
0
220
0
230
1
0
LINE
5
AA
100
AcDbEntity
8
1
62
256
6
ByLayer
370
18
48
1
60
1
100
AcDbLine
10
-45.085946
20
0.499998
30
0
11
-44.625163
21
4
31
0
39
0
210
0
220
0
230
1
0
LINE
5
AB
100
AcDbEntity
8
1
62
256
6
ByLayer
370
18
48
1
60
1
100
AcDbLine
10
-44.625163
20
-4
30
0
11
-45.085946
21
-0.500002
31
0
39
0
210
0
220
0
230
1
0
LINE
5
AC
100
AcDbEntity
8
1
62
256
6
ByLayer
370
18
48
1
60
1
100
AcDbLine
10
-45.085946
20
-0.500002
30
0
11
-44.164379
21
-0.499998
31
0
39
0
210
0
220
0
230
1
0
LINE
5
AD
100
AcDbEntity
8
1
62
256
6
ByLayer
370
18
48
1
60
1
100
AcDbLine
10
-44.164379
20
-0.499998
30
0
11
-44.625163
21
-4
31
0
39
0
210
0
220
0
230
1
0
LINE
5
AE
100
AcDbEntity
8
2
62
256
6
ByLayer
370
13
48
1
60
0
100
AcDbLine
10
56.970081
20
30.139964
30
0
11
56.970081
21
-11.3
31
0
39
0
210
0
220
0
230
1
0
LINE
5
AF
100
AcDbEntity
8
2
62
256
6
ByLayer
370
13
48
1
60
0
100
AcDbLine
10
43.8419
20
2.55
30
0
11
58.970081
21
2.55
31
0
39
0
210
0
220
0
230
1
0
LINE
5
B0
100
AcDbEntity
8
2
62
256
6
ByLayer
370
13
48
1
60
0
100
AcDbLine
10
43.8419
20
-2.55
30
0
11
58.970081
21
-2.55
31
0
39
0
210
0
220
0
230
1
0
LINE
5
B1
100
AcDbEntity
8
1
62
256
6
ByLayer
370
18
48
1
60
1
100
AcDbLine
10
56.970081
20
2.55
30
0
11
56.509297
21
6.049998
31
0
39
0
210
0
220
0
230
1
0
LINE
5
B2
100
AcDbEntity
8
1
62
256
6
ByLayer
370
18
48
1
60
1
100
AcDbLine
10
56.509297
20
6.049998
30
0
11
57.430865
21
6.050002
31
0
39
0
210
0
220
0
230
1
0
LINE
5
B3
100
AcDbEntity
8
1
62
256
6
ByLayer
370
18
48
1
60
1
100
AcDbLine
10
57.430865
20
6.050002
30
0
11
56.970081
21
2.55
31
0
39
0
210
0
220
0
230
1
0
LINE
5
B4
100
AcDbEntity
8
1
62
256
6
ByLayer
370
18
48
1
60
1
100
AcDbLine
10
56.970081
20
-2.55
30
0
11
57.430865
21
-6.049998
31
0
39
0
210
0
220
0
230
1
0
LINE
5
B5
100
AcDbEntity
8
1
62
256
6
ByLayer
370
18
48
1
60
1
100
AcDbLine
10
57.430865
20
-6.049998
30
0
11
56.509297
21
-6.050002
31
0
39
0
210
0
220
0
230
1
0
LINE
5
B6
100
AcDbEntity
8
1
62
256
6
ByLayer
370
18
48
1
60
1
100
AcDbLine
10
56.509297
20
-6.050002
30
0
11
56.970081
21
-2.55
31
0
39
0
210
0
220
0
230
1
0
LINE
5
B7
100
AcDbEntity
8
SK2
62
256
6
ByLayer
370
13
48
1
60
0
100
AcDbLine
10
24.936868
20
-4.567532
30
0
11
15.443343
21
-14.061057
31
0
39
0
210
0
220
0
230
1
0
LINE
5
B8
100
AcDbEntity
8
SK2
62
256
6
ByLayer
370
13
48
1
60
0
100
AcDbLine
10
24.936868
20
4.567532
30
0
11
15.443343
21
14.061057
31
0
39
0
210
0
220
0
230
1
0
LINE
5
B9
100
AcDbEntity
8
1
62
256
6
ByLayer
370
18
48
1
60
1
100
AcDbLine
10
16.857556
20
-12.646844
30
0
11
14.164952
21
-10.363821
31
0
39
0
210
0
220
0
230
1
0
LINE
5
BA
100
AcDbEntity
8
1
62
256
6
ByLayer
370
18
48
1
60
1
100
AcDbLine
10
14.164952
20
-10.363821
30
0
11
14.847589
21
-9.744713
31
0
39
0
210
0
220
0
230
1
0
LINE
5
BB
100
AcDbEntity
8
1
62
256
6
ByLayer
370
18
48
1
60
1
100
AcDbLine
10
14.847589
20
-9.744713
30
0
11
16.857556
21
-12.646844
31
0
39
0
210
0
220
0
230
1
0
LINE
5
BC
100
AcDbEntity
8
1
62
256
6
ByLayer
370
18
48
1
60
1
100
AcDbLine
10
16.857556
20
12.646844
30
0
11
14.847591
21
9.744715
31
0
39
0
210
0
220
0
230
1
0
LINE
5
BD
100
AcDbEntity
8
1
62
256
6
ByLayer
370
18
48
1
60
1
100
AcDbLine
10
14.847591
20
9.744715
30
0
11
14.16495
21
10.363818
31
0
39
0
210
0
220
0
230
1
0
LINE
5
BE
100
AcDbEntity
8
1
62
256
6
ByLayer
370
18
48
1
60
1
100
AcDbLine
10
14.16495
20
10.363818
30
0
11
16.857556
21
12.646844
31
0
39
0
210
0
220
0
230
1
0
LINE
5
108
100
AcDbEntity
8
1
62
256
6
ByLayer
370
18
48
1
60
1
100
AcDbLine
10
65.236431
20
3.445
30
0
11
64.775647
21
6.944998
31
0
39
0
210
0
220
0
230
1
0
LINE
5
109
100
AcDbEntity
8
1
62
256
6
ByLayer
370
18
48
1
60
1
100
AcDbLine
10
64.775647
20
6.944998
30
0
11
65.697214
21
6.945002
31
0
39
0
210
0
220
0
230
1
0
LINE
5
10A
100
AcDbEntity
8
1
62
256
6
ByLayer
370
18
48
1
60
1
100
AcDbLine
10
65.697214
20
6.945002
30
0
11
65.236431
21
3.445
31
0
39
0
210
0
220
0
230
1
0
LINE
5
10C
100
AcDbEntity
8
1
62
256
6
ByLayer
370
18
48
1
60
1
100
AcDbLine
10
65.236431
20
-3.445
30
0
11
65.697214
21
-6.944998
31
0
39
0
210
0
220
0
230
1
0
LINE
5
10D
100
AcDbEntity
8
1
62
256
6
ByLayer
370
18
48
1
60
1
100
AcDbLine
10
65.697214
20
-6.944998
30
0
11
64.775647
21
-6.945002
31
0
39
0
210
0
220
0
230
1
0
LINE
5
10E
100
AcDbEntity
8
1
62
256
6
ByLayer
370
18
48
1
60
1
100
AcDbLine
10
64.775647
20
-6.945002
30
0
11
65.236431
21
-3.445
31
0
39
0
210
0
220
0
230
1
0
LINE
5
112
100
AcDbEntity
8
1
62
256
6
ByLayer
370
18
48
1
60
1
100
AcDbLine
10
-44.625163
20
4
30
0
11
-44.164379
21
0.500002
31
0
39
0
210
0
220
0
230
1
0
LINE
5
113
100
AcDbEntity
8
1
62
256
6
ByLayer
370
18
48
1
60
1
100
AcDbLine
10
-44.164379
20
0.500002
30
0
11
-45.085946
21
0.499998
31
0
39
0
210
0
220
0
230
1
0
LINE
5
114
100
AcDbEntity
8
1
62
256
6
ByLayer
370
18
48
1
60
1
100
AcDbLine
10
-45.085946
20
0.499998
30
0
11
-44.625163
21
4
31
0
39
0
210
0
220
0
230
1
0
LINE
5
116
100
AcDbEntity
8
1
62
256
6
ByLayer
370
18
48
1
60
1
100
AcDbLine
10
-44.625163
20
-4
30
0
11
-45.085946
21
-0.500002
31
0
39
0
210
0
220
0
230
1
0
LINE
5
117
100
AcDbEntity
8
1
62
256
6
ByLayer
370
18
48
1
60
1
100
AcDbLine
10
-45.085946
20
-0.500002
30
0
11
-44.164379
21
-0.499998
31
0
39
0
210
0
220
0
230
1
0
LINE
5
118
100
AcDbEntity
8
1
62
256
6
ByLayer
370
18
48
1
60
1
100
AcDbLine
10
-44.164379
20
-0.499998
30
0
11
-44.625163
21
-4
31
0
39
0
210
0
220
0
230
1
0
LINE
5
11C
100
AcDbEntity
8
1
62
256
6
ByLayer
370
18
48
1
60
1
100
AcDbLine
10
56.970081
20
2.55
30
0
11
56.509297
21
6.049998
31
0
39
0
210
0
220
0
230
1
0
LINE
5
11D
100
AcDbEntity
8
1
62
256
6
ByLayer
370
18
48
1
60
1
100
AcDbLine
10
56.509297
20
6.049998
30
0
11
57.430865
21
6.050002
31
0
39
0
210
0
220
0
230
1
0
LINE
5
11E
100
AcDbEntity
8
1
62
256
6
ByLayer
370
18
48
1
60
1
100
AcDbLine
10
57.430865
20
6.050002
30
0
11
56.970081
21
2.55
31
0
39
0
210
0
220
0
230
1
0
LINE
5
120
100
AcDbEntity
8
1
62
256
6
ByLayer
370
18
48
1
60
1
100
AcDbLine
10
56.970081
20
-2.55
30
0
11
57.430865
21
-6.049998
31
0
39
0
210
0
220
0
230
1
0
LINE
5
121
100
AcDbEntity
8
1
62
256
6
ByLayer
370
18
48
1
60
1
100
AcDbLine
10
57.430865
20
-6.049998
30
0
11
56.509297
21
-6.050002
31
0
39
0
210
0
220
0
230
1
0
LINE
5
122
100
AcDbEntity
8
1
62
256
6
ByLayer
370
18
48
1
60
1
100
AcDbLine
10
56.509297
20
-6.050002
30
0
11
56.970081
21
-2.55
31
0
39
0
210
0
220
0
230
1
0
LINE
5
125
100
AcDbEntity
8
1
62
256
6
ByLayer
370
18
48
1
60
1
100
AcDbLine
10
16.857556
20
-12.646844
30
0
11
14.164952
21
-10.363821
31
0
39
0
210
0
220
0
230
1
0
LINE
5
126
100
AcDbEntity
8
1
62
256
6
ByLayer
370
18
48
1
60
1
100
AcDbLine
10
14.164952
20
-10.363821
30
0
11
14.847589
21
-9.744713
31
0
39
0
210
0
220
0
230
1
0
LINE
5
127
100
AcDbEntity
8
1
62
256
6
ByLayer
370
18
48
1
60
1
100
AcDbLine
10
14.847589
20
-9.744713
30
0
11
16.857556
21
-12.646844
31
0
39
0
210
0
220
0
230
1
0
LINE
5
129
100
AcDbEntity
8
1
62
256
6
ByLayer
370
18
48
1
60
1
100
AcDbLine
10
16.857556
20
12.646844
30
0
11
14.847591
21
9.744715
31
0
39
0
210
0
220
0
230
1
0
LINE
5
12A
100
AcDbEntity
8
1
62
256
6
ByLayer
370
18
48
1
60
1
100
AcDbLine
10
14.847591
20
9.744715
30
0
11
14.16495
21
10.363818
31
0
39
0
210
0
220
0
230
1
0
LINE
5
12B
100
AcDbEntity
8
1
62
256
6
ByLayer
370
18
48
1
60
1
100
AcDbLine
10
14.16495
20
10.363818
30
0
11
16.857556
21
12.646844
31
0
39
0
210
0
220
0
230
1
0
MTEXT
5
102
100
AcDbEntity
8
SK6
62
256
6
ByLayer
370
13
48
1
60
0
100
AcDbMText
10
-25.20776
20
35.090328
30
0
210
0
220
0
230
1
1
\W0.7563;462.2-0510-016A1-XM X2BM
40
3.5
41
0
44
1.084337
50
0
71
7
72
5
7
iso_b_vert
0
MTEXT
5
106
100
AcDbEntity
8
2
62
256
6
ByLayer
370
18
48
1
60
0
100
AcDbMText
10
63.671797
20
14.797798
30
0
210
0
220
0
230
1
1
%%c
40
3.5
41
0
44
1.084337
50
90
71
7
72
5
7
iso_b_vert
0
MTEXT
5
107
100
AcDbEntity
8
2
62
256
6
ByLayer
370
18
48
1
60
0
100
AcDbMText
10
63.671797
20
20.020454
30
0
210
0
220
0
230
1
1
\W0.7317;6,890
40
3.5
41
0
44
1.084337
50
90
71
7
72
5
7
iso_b_vert
0
MTEXT
5
110
100
AcDbEntity
8
SK2
62
256
6
ByLayer
370
18
48
1
60
0
100
AcDbMText
10
-46.189796
20
17.409024
30
0
210
0
220
0
230
1
1
%%c
40
3.5
41
0
44
1.084337
50
90
71
7
72
5
7
iso_b_vert
0
MTEXT
5
111
100
AcDbEntity
8
SK2
62
256
6
ByLayer
370
18
48
1
60
0
100
AcDbMText
10
-46.189796
20
22.63168
30
0
210
0
220
0
230
1
1
\W0.7317;8,000
40
3.5
41
0
44
1.084337
50
90
71
7
72
5
7
iso_b_vert
0
MTEXT
5
11A
100
AcDbEntity
8
2
62
256
6
ByLayer
370
18
48
1
60
0
100
AcDbMText
10
55.405448
20
15.306747
30
0
210
0
220
0
230
1
1
%%c
40
3.5
41
0
44
1.084337
50
90
71
7
72
5
7
iso_b_vert
0
MTEXT
5
11B
100
AcDbEntity
8
2
62
256
6
ByLayer
370
18
48
1
60
0
100
AcDbMText
10
55.405448
20
20.529403
30
0
210
0
220
0
230
1
1
\W0.6713;5,100
40
3.5
41
0
44
1.084337
50
90
71
7
72
5
7
iso_b_vert
0
MTEXT
5
124
100
AcDbEntity
8
SK2
62
256
6
ByLayer
370
13
48
1
60
0
100
AcDbMText
10
6.811275
20
-0.291663
30
0
210
0
220
0
230
1
1
\W0.8181;90,0%%d
40
3.5
41
0
44
1.084337
50
0
71
7
72
5
7
iso_b_vert
0
HATCH
5
10B
100
AcDbEntity
8
2
62
256
6
ByLayer
370
13
48
1
60
0
100
AcDbHatch
10
0
20
0
30
0
210
0
220
0
230
1
2
ANSI31
70
0
71
0
91
1
92
5
93
3
72
1
10
65.2364306046164
20
3.44499999999999
11
64.7756468630637
21
6.94499830744681
72
1
10
64.7756468630637
20
6.94499830744681
11
65.6972143461692
21
6.94500169255318
72
1
10
65.6972143461692
20
6.94500169255318
11
65.2364306046164
21
3.44499999999999
97
0
75
0
76
1
52
0
41
0.0062
77
0
78
1
53
45
43
0
44
0
45
-0.0139193969876572
46
0.0139193969876572
79
0
47
0
98
1
10
0
20
0
0
HATCH
5
10F
100
AcDbEntity
8
2
62
256
6
ByLayer
370
13
48
1
60
0
100
AcDbHatch
10
0
20
0
30
0
210
0
220
0
230
1
2
ANSI31
70
0
71
0
91
1
92
5
93
3
72
1
10
65.2364306046164
20
-3.44499999999999
11
65.6972143461692
21
-6.94499830744681
72
1
10
65.6972143461692
20
-6.94499830744681
11
64.7756468630637
21
-6.94500169255318
72
1
10
64.7756468630637
20
-6.94500169255318
11
65.2364306046164
21
-3.44499999999999
97
0
75
0
76
1
52
0
41
0.0062
77
0
78
1
53
45
43
0
44
0
45
-0.0139193969876572
46
0.0139193969876572
79
0
47
0
98
1
10
0
20
0
0
HATCH
5
115
100
AcDbEntity
8
SK2
62
256
6
ByLayer
370
13
48
1
60
0
100
AcDbHatch
10
0
20
0
30
0
210
0
220
0
230
1
2
ANSI31
70
0
71
0
91
1
92
5
93
3
72
1
10
-44.6251625675374
20
4
11
-44.1643788259847
21
0.500001692553184
72
1
10
-44.1643788259847
20
0.500001692553184
11
-45.0859463090902
21
0.499998307446816
72
1
10
-45.0859463090902
20
0.499998307446816
11
-44.6251625675374
21
4
97
0
75
0
76
1
52
0
41
0.0062
77
0
78
1
53
45
43
0
44
0
45
-0.0139193969876572
46
0.0139193969876572
79
0
47
0
98
1
10
0
20
0
0
HATCH
5
119
100
AcDbEntity
8
SK2
62
256
6
ByLayer
370
13
48
1
60
0
100
AcDbHatch
10
0
20
0
30
0
210
0
220
0
230
1
2
ANSI31
70
0
71
0
91
1
92
5
93
3
72
1
10
-44.6251625675374
20
-4
11
-45.0859463090902
21
-0.500001692553184
72
1
10
-45.0859463090902
20
-0.500001692553184
11
-44.1643788259847
21
-0.499998307446816
72
1
10
-44.1643788259847
20
-0.499998307446816
11
-44.6251625675374
21
-4
97
0
75
0
76
1
52
0
41
0.0062
77
0
78
1
53
45
43
0
44
0
45
-0.0139193969876572
46
0.0139193969876572
79
0
47
0
98
1
10
0
20
0
0
HATCH
5
11F
100
AcDbEntity
8
2
62
256
6
ByLayer
370
13
48
1
60
0
100
AcDbHatch
10
0
20
0
30
0
210
0
220
0
230
1
2
ANSI31
70
0
71
0
91
1
92
5
93
3
72
1
10
56.9700811011615
20
2.55000000000001
11
56.5092973596088
21
6.04999830744683
72
1
10
56.5092973596088
20
6.04999830744683
11
57.4308648427142
21
6.0500016925532
72
1
10
57.4308648427142
20
6.0500016925532
11
56.9700811011615
21
2.55000000000001
97
0
75
0
76
1
52
0
41
0.0062
77
0
78
1
53
45
43
0
44
0
45
-0.0139193969876572
46
0.0139193969876572
79
0
47
0
98
1
10
0
20
0
0
HATCH
5
123
100
AcDbEntity
8
2
62
256
6
ByLayer
370
13
48
1
60
0
100
AcDbHatch
10
0
20
0
30
0
210
0
220
0
230
1
2
ANSI31
70
0
71
0
91
1
92
5
93
3
72
1
10
56.9700811011615
20
-2.54999999999998
11
57.4308648427142
21
-6.0499983074468
72
1
10
57.4308648427142
20
-6.0499983074468
11
56.5092973596088
21
-6.05000169255317
72
1
10
56.5092973596088
20
-6.05000169255317
11
56.9700811011615
21
-2.54999999999998
97
0
75
0
76
1
52
0
41
0.0062
77
0
78
1
53
45
43
0
44
0
45
-0.0139193969876572
46
0.0139193969876572
79
0
47
0
98
1
10
0
20
0
0
HATCH
5
128
100
AcDbEntity
8
SK2
62
256
6
ByLayer
370
13
48
1
60
0
100
AcDbHatch
10
0
20
0
30
0
210
0
220
0
230
1
2
ANSI31
70
0
71
0
91
1
92
5
93
3
72
1
10
16.8575561913522
20
-12.6468438086478
11
14.1649523579145
21
-10.3638207240587
72
1
10
14.1649523579145
20
-10.3638207240587
11
14.847588552499
21
-9.74471293718152
72
1
10
14.847588552499
20
-9.74471293718152
11
16.8575561913522
21
-12.6468438086478
97
0
75
0
76
1
52
0
41
0.0062
77
0
78
1
53
45
43
0
44
0
45
-0.0139193969876572
46
0.0139193969876572
79
0
47
0
98
1
10
0
20
0
0
HATCH
5
12C
100
AcDbEntity
8
SK2
62
256
6
ByLayer
370
13
48
1
60
0
100
AcDbHatch
10
0
20
0
30
0
210
0
220
0
230
1
2
ANSI31
70
0
71
0
91
1
92
5
93
3
72
1
10
16.857556191352
20
12.6468438086477
11
14.8475908265996
21
9.74471544465248
72
1
10
14.8475908265996
20
9.74471544465248
11
14.1649500838137
21
10.3638182165875
72
1
10
14.1649500838137
20
10.3638182165875
11
16.857556191352
21
12.6468438086477
97
0
75
0
76
1
52
0
41
0.0062
77
0
78
1
53
45
43
0
44
0
45
-0.0139193969876572
46
0.0139193969876572
79
0
47
0
98
1
10
0
20
0
0
DIMENSION
5
12E
100
AcDbEntity
8
SK2
62
256
6
ByLayer
370
13
48
1
60
0
100
AcDbDimension
2
_U0
10
42.2544
20
-15.352503
30
0
11
21.1272
21
-15.352503
31
0
70
32
71
1
72
1
41
1
210
0
220
0
230
1
3
Standard
100
AcDbAlignedDimension
13
0
23
0
33
0
14
42.2544
24
-2.55
34
0
50
0
100
AcDbRotatedDimension
1001
ACAD
1000
DSTYLE
1002
{
1070
   371
1070
    13
1070
   372
1070
    13
1070
   170
1070
     0
1070
   144
1040
1.0
1070
   277
1070
     2
1070
   278
1070
    44
1070
   146
1040
1.0
1070
   345
1005
16
1070
   347
1005
16
1070
   346
1005
16
1070
   344
1005
0
1070
   343
1005
0
1070
   172
1070
     1
1070
    76
1070
     0
1070
    75
1070
     0
1070
   282
1070
     0
1070
   281
1070
     0
1070
    71
1070
     0
1070
    74
1070
     0
1070
   279
1070
     0
1070
   173
1070
     1
1070
   340
1005
103
1070
   271
1070
     2
1070
   272
1070
     2
1070
    77
1070
     1
1070
    73
1070
     1
1070
   171
1070
     3
1070
   274
1070
     4
1070
   177
1070
    35
1070
   176
1070
    35
1070
   178
1070
    35
1070
    48
1040
-0.1
1070
    41
1040
3.5
1070
   147
1040
1.75
1070
    42
1040
1.5875
1070
    44
1040
2.0
1070
   140
1040
3.5
1002
}
1001
ACAD_DSTYLE_DIM_LINETYPE
1070
   380
1005
16
1001
ACAD_DSTYLE_DIM_EXT1_LINETYPE
1070
   381
1005
16
1001
ACAD_DSTYLE_DIM_EXT2_LINETYPE
1070
   382
1005
16
0
DIMENSION
5
147
100
AcDbEntity
8
SK2
62
256
6
ByLayer
370
13
48
1
60
0
100
AcDbDimension
2
_U1
10
43
20
-35.192985
30
0
11
3.5
21
-35.192985
31
0
70
32
71
1
72
1
41
1
210
0
220
0
230
1
3
Standard
100
AcDbAlignedDimension
13
-36
23
-4
33
0
14
43
24
0
34
0
50
0
100
AcDbRotatedDimension
1001
ACAD
1000
DSTYLE
1002
{
1070
   371
1070
    13
1070
   372
1070
    13
1070
   170
1070
     0
1070
   144
1040
1.0
1070
   277
1070
     2
1070
   278
1070
    44
1070
   146
1040
1.0
1070
   345
1005
16
1070
   347
1005
16
1070
   346
1005
16
1070
   344
1005
0
1070
   343
1005
0
1070
   172
1070
     1
1070
    76
1070
     0
1070
    75
1070
     0
1070
   282
1070
     0
1070
   281
1070
     0
1070
    71
1070
     0
1070
    74
1070
     0
1070
   279
1070
     0
1070
   173
1070
     1
1070
   340
1005
103
1070
   271
1070
     2
1070
   272
1070
     2
1070
    77
1070
     1
1070
    73
1070
     1
1070
   171
1070
     3
1070
   274
1070
     4
1070
   177
1070
    35
1070
   176
1070
    35
1070
   178
1070
    35
1070
    48
1040
-0.1
1070
    41
1040
3.5
1070
   147
1040
1.75
1070
    42
1040
1.5875
1070
    44
1040
2.0
1070
   140
1040
3.5
1002
}
1001
ACAD_DSTYLE_DIM_LINETYPE
1070
   380
1005
16
1001
ACAD_DSTYLE_DIM_EXT1_LINETYPE
1070
   381
1005
16
1001
ACAD_DSTYLE_DIM_EXT2_LINETYPE
1070
   382
1005
16
0
DIMENSION
5
15F
100
AcDbEntity
8
SK2
62
256
6
ByLayer
370
13
48
1
60
0
100
AcDbDimension
2
_U2
10
43
20
14.159119
30
0
11
34.53
21
14.159119
31
0
70
32
71
1
72
1
41
1
210
0
220
0
230
1
3
Standard
100
AcDbAlignedDimension
13
26.06
23
3.445
33
0
14
43
24
0
34
0
50
0
100
AcDbRotatedDimension
1001
ACAD
1000
DSTYLE
1002
{
1070
   371
1070
    13
1070
   372
1070
    13
1070
   170
1070
     0
1070
   144
1040
1.0
1070
   277
1070
     2
1070
   278
1070
    44
1070
   146
1040
1.0
1070
   345
1005
16
1070
   347
1005
16
1070
   346
1005
16
1070
   344
1005
0
1070
   343
1005
0
1070
   172
1070
     1
1070
    76
1070
     0
1070
    75
1070
     0
1070
   282
1070
     0
1070
   281
1070
     0
1070
    71
1070
     0
1070
    74
1070
     0
1070
   279
1070
     0
1070
   173
1070
     1
1070
   340
1005
103
1070
   271
1070
     2
1070
   272
1070
     2
1070
    77
1070
     1
1070
    73
1070
     1
1070
   171
1070
     3
1070
   274
1070
     4
1070
   177
1070
    35
1070
   176
1070
    35
1070
   178
1070
    35
1070
    48
1040
-0.1
1070
    41
1040
3.5
1070
   147
1040
1.75
1070
    42
1040
1.5875
1070
    44
1040
2.0
1070
   140
1040
3.5
1002
}
1001
ACAD_DSTYLE_DIM_LINETYPE
1070
   380
1005
16
1001
ACAD_DSTYLE_DIM_EXT1_LINETYPE
1070
   381
1005
16
1001
ACAD_DSTYLE_DIM_EXT2_LINETYPE
1070
   382
1005
16
0
DIMENSION
5
178
100
AcDbEntity
8
SK2
62
256
6
ByLayer
370
13
48
1
60
0
100
AcDbDimension
2
_U3
10
42.2544
20
-15.352503
30
0
11
60.583333
21
-15.352503
31
0
70
32
71
1
72
1
41
1
210
0
220
0
230
1
3
Standard
100
AcDbAlignedDimension
13
43
23
0
33
0
14
42.2544
24
-2.55
34
0
50
0
100
AcDbRotatedDimension
1001
ACAD
1000
DSTYLE
1002
{
1070
   371
1070
    13
1070
   372
1070
    13
1070
   170
1070
     0
1070
   144
1040
1.0
1070
   277
1070
     2
1070
   278
1070
    44
1070
   146
1040
1.0
1070
   345
1005
16
1070
   347
1005
16
1070
   346
1005
16
1070
   344
1005
0
1070
   343
1005
0
1070
   172
1070
     1
1070
    76
1070
     0
1070
    75
1070
     0
1070
   282
1070
     0
1070
   281
1070
     0
1070
    71
1070
     0
1070
    74
1070
     0
1070
   279
1070
     0
1070
   173
1070
     1
1070
   340
1005
103
1070
   271
1070
     2
1070
   272
1070
     2
1070
    77
1070
     1
1070
    73
1070
     1
1070
   171
1070
     3
1070
   274
1070
     4
1070
   177
1070
    35
1070
   176
1070
    35
1070
   178
1070
    35
1070
    48
1040
-0.1
1070
    41
1040
3.5
1070
   147
1040
1.75
1070
    42
1040
1.5875
1070
    44
1040
2.0
1070
   140
1040
3.5
1002
}
1001
ACAD_DSTYLE_DIM_LINETYPE
1070
   380
1005
16
1001
ACAD_DSTYLE_DIM_EXT1_LINETYPE
1070
   381
1005
16
1001
ACAD_DSTYLE_DIM_EXT2_LINETYPE
1070
   382
1005
16
0
DIMENSION
5
192
100
AcDbEntity
8
SK2
62
256
6
ByLayer
370
13
48
1
60
0
100
AcDbDimension
2
_U4
10
26.9544
20
6.685371
30
0
11
34.6044
21
6.685371
31
0
70
32
71
1
72
1
41
1
210
0
220
0
230
1
3
Standard
100
AcDbAlignedDimension
13
42.2544
23
2.55
33
0
14
26.9544
24
2.55
34
0
50
0
100
AcDbRotatedDimension
1001
ACAD
1000
DSTYLE
1002
{
1070
   371
1070
    13
1070
   372
1070
    13
1070
   170
1070
     0
1070
   144
1040
1.0
1070
   277
1070
     2
1070
   278
1070
    44
1070
   146
1040
1.0
1070
   345
1005
16
1070
   347
1005
16
1070
   346
1005
16
1070
   344
1005
0
1070
   343
1005
0
1070
   172
1070
     1
1070
    76
1070
     0
1070
    75
1070
     0
1070
   282
1070
     0
1070
   281
1070
     0
1070
    71
1070
     0
1070
    74
1070
     0
1070
   279
1070
     0
1070
   173
1070
     1
1070
   340
1005
103
1070
   271
1070
     2
1070
   272
1070
     2
1070
    77
1070
     1
1070
    73
1070
     1
1070
   171
1070
     3
1070
   274
1070
     4
1070
   177
1070
    35
1070
   176
1070
    35
1070
   178
1070
    35
1070
    48
1040
-0.1
1070
    41
1040
3.5
1070
   147
1040
1.75
1070
    42
1040
1.5875
1070
    44
1040
2.0
1070
   140
1040
3.5
1002
}
1001
ACAD_DSTYLE_DIM_LINETYPE
1070
   380
1005
16
1001
ACAD_DSTYLE_DIM_EXT1_LINETYPE
1070
   381
1005
16
1001
ACAD_DSTYLE_DIM_EXT2_LINETYPE
1070
   382
1005
16
0
DIMENSION
5
1AB
100
AcDbEntity
8
SK2
62
256
6
ByLayer
370
13
48
1
60
0
100
AcDbDimension
2
_U5
10
42.2544
20
-24.690158
30
0
11
3.1272
21
-24.690158
31
0
70
32
71
1
72
1
41
1
210
0
220
0
230
1
3
Standard
100
AcDbAlignedDimension
13
-36
23
-4
33
0
14
42.2544
24
-2.55
34
0
50
0
100
AcDbRotatedDimension
1001
ACAD
1000
DSTYLE
1002
{
1070
   371
1070
    13
1070
   372
1070
    13
1070
   170
1070
     0
1070
   144
1040
1.0
1070
   277
1070
     2
1070
   278
1070
    44
1070
   146
1040
1.0
1070
   345
1005
16
1070
   347
1005
16
1070
   346
1005
16
1070
   344
1005
0
1070
   343
1005
0
1070
   172
1070
     1
1070
    76
1070
     0
1070
    75
1070
     0
1070
   282
1070
     0
1070
   281
1070
     0
1070
    71
1070
     0
1070
    74
1070
     0
1070
   279
1070
     0
1070
   173
1070
     1
1070
   340
1005
103
1070
   271
1070
     2
1070
   272
1070
     2
1070
    77
1070
     1
1070
    73
1070
     1
1070
   171
1070
     3
1070
   274
1070
     4
1070
   177
1070
    35
1070
   176
1070
    35
1070
   178
1070
    35
1070
    48
1040
-0.1
1070
    41
1040
3.5
1070
   147
1040
1.75
1070
    42
1040
1.5875
1070
    44
1040
2.0
1070
   140
1040
3.5
1002
}
1001
ACAD_DSTYLE_DIM_LINETYPE
1070
   380
1005
16
1001
ACAD_DSTYLE_DIM_EXT1_LINETYPE
1070
   381
1005
16
1001
ACAD_DSTYLE_DIM_EXT2_LINETYPE
1070
   382
1005
16
0
ENDSEC
0
SECTION
2
OBJECTS
0
DICTIONARY
5
233
330
0
100
AcDbDictionary
280
0
281
1
3
ACAD_GROUP
350
234
3
ACAD_MLINESTYLE
350
235
0
DICTIONARY
5
234
330
0
100
AcDbDictionary
280
0
281
1
0
DICTIONARY
5
235
330
0
100
AcDbDictionary
280
0
281
1
3
Standard
350
18
0
MLINESTYLE
5
18
330
235
100
AcDbMlineStyle
2
Standard
70
0
3

62
256
51
90
52
90
71
2
49
-0.5
62
256
6
ByLayer
49
0.5
62
256
6
ByLayer
0
RASTERVARIABLES
5
221
330

100
AcDbRasterVariables
90
0
70
1
71
1
72
1
0
ENDSEC
0
EOF
