0
SECTION
2
HEADER
9
$ACADVER
1
AC1015
9
$DWGCODEPAGE
3
ANSI_1252
9
$HANDSEED
5
243
9
$ANGBASE
50
0
9
$ANGDIR
70
0
9
$ATTMODE
70
1
9
$AUNITS
70
0
9
$AUPREC
70
0
9
$CECOLOR
62
256
9
$CELTSCALE
40
1
9
$CELTYPE
6
ByLayer
9
$CELWEIGHT
370
18
9
$CLAYER
8
0
9
$CMLJUST
70
0
9
$CMLSCALE
40
1
9
$CMLSTYLE
2
Standard
9
$DIMSTYLE
2
Standard
9
$TEXTSIZE
40
0.2
9
$TEXTSTYLE
7
Standard
9
$LUNITS
70
2
9
$LUPREC
70
4
9
$EXTNAMES
290
1
9
$INSUNITS
70
4
9
$LTSCALE
40
1
9
$LWDISPLAY
290
1
9
$PDMODE
70
0
9
$PDSIZE
40
0
9
$PLINEGEN
70
0
0
ENDSEC
0
SECTION
2
CLASSES
0
CLASS
1
RASTERVARIABLES
2
AcDbRasterVariables
3
ISM
90
0
280
0
281
0
0
ENDSEC
0
SECTION
2
TABLES
0
TABLE
2
VPORT
5
239
100
AcDbSymbolTable
0
VPORT
5
1
100
AcDbSymbolTableRecord
100
AcDbViewportTableRecord
2
*Active
70
0
10
0
20
0
11
1
21
1
12
-1
22
1
13
0
23
0
14
0.5
24
0.5
15
10
25
10
16
0
26
0
36
1
17
0
27
0
37
0
0
ENDTAB
0
TABLE
2
LTYPE
5
23a
100
AcDbSymbolTable
0
LTYPE
5
14
100
AcDbSymbolTableRecord
100
AcDbLinetypeTableRecord
70
0
2
ByBlock
3

72
65
73
0
40
0
0
LTYPE
5
15
100
AcDbSymbolTableRecord
100
AcDbLinetypeTableRecord
70
0
2
ByLayer
3

72
65
73
0
40
0
0
LTYPE
5
16
100
AcDbSymbolTableRecord
100
AcDbLinetypeTableRecord
70
0
2
Continuous
3
Solid line
72
65
73
0
40
0
0
LTYPE
5
6E
100
AcDbSymbolTableRecord
100
AcDbLinetypeTableRecord
70
0
2
CENTER
3
____ _ ____ _ ____ _ ____
72
65
73
4
40
47.5
49
22
74
0
49
-8.5
74
0
49
8.5
74
0
49
-8.5
74
0
0
LTYPE
5
6F
100
AcDbSymbolTableRecord
100
AcDbLinetypeTableRecord
70
0
2
DASHED
3
__ __ __ __ __ __ __ __ __
72
65
73
2
40
25.72
49
12.86
74
0
49
-12.86
74
0
0
ENDTAB
0
TABLE
2
LAYER
5
23b
100
AcDbSymbolTable
0
LAYER
5
10
100
AcDbSymbolTableRecord
100
AcDbLayerTableRecord
2
0
70
0
62
7
6
Continuous
290
1
370
-3
390
0
0
LAYER
5
71
100
AcDbSymbolTableRecord
100
AcDbLayerTableRecord
2
80
70
0
62
-6
6
Continuous
290
1
370
-3
390
0
0
LAYER
5
73
100
AcDbSymbolTableRecord
100
AcDbLayerTableRecord
2
81
70
0
62
-3
6
Continuous
290
1
370
-3
390
0
0
LAYER
5
75
100
AcDbSymbolTableRecord
100
AcDbLayerTableRecord
2
1
70
0
62
4
6
Continuous
290
1
370
-3
390
0
0
LAYER
5
8F
100
AcDbSymbolTableRecord
100
AcDbLayerTableRecord
2
4
70
0
62
-2
6
CENTER
290
1
370
-3
390
0
0
LAYER
5
9C
100
AcDbSymbolTableRecord
100
AcDbLayerTableRecord
2
2
70
0
62
7
6
Continuous
290
1
370
-3
390
0
0
LAYER
5
136
100
AcDbSymbolTableRecord
100
AcDbLayerTableRecord
2
Defpoints
70
0
62
7
6
Continuous
290
0
370
-3
390
0
0
LAYER
5
225
100
AcDbSymbolTableRecord
100
AcDbLayerTableRecord
2
SK1
70
0
62
4
6
Continuous
290
1
370
-3
390
0
0
LAYER
5
226
100
AcDbSymbolTableRecord
100
AcDbLayerTableRecord
2
SK4
70
0
62
2
6
CENTER
290
1
370
-3
390
0
0
LAYER
5
227
100
AcDbSymbolTableRecord
100
AcDbLayerTableRecord
2
SK2
70
0
62
7
6
Continuous
290
1
370
-3
390
0
0
LAYER
5
228
100
AcDbSymbolTableRecord
100
AcDbLayerTableRecord
2
SK6
70
0
62
5
6
Continuous
290
1
370
-3
390
0
0
ENDTAB
0
TABLE
2
STYLE
5
23c
100
AcDbSymbolTable
0
STYLE
5
11
100
AcDbSymbolTableRecord
100
AcDbTextStyleTableRecord
2
Standard
3
txt
70
0
71
0
40
0
41
1
42
0
50
0
0
STYLE
5
108
100
AcDbSymbolTableRecord
100
AcDbTextStyleTableRecord
2
iso_b_vert
3
simplex.shx
70
0
71
0
40
0
41
1
42
0
50
0
0
STYLE
5
109
100
AcDbSymbolTableRecord
100
AcDbTextStyleTableRecord
2
DWGDirectTextStyle
3
simplex
70
0
71
0
40
0
41
1
42
0
50
0
0
ENDTAB
0
TABLE
2
DIMSTYLE
5
23d
100
AcDbSymbolTable
100
AcDbDimStyleTable
0
DIMSTYLE
105
27
100
AcDbSymbolTableRecord
100
AcDbDimStyleTableRecord
2
Standard
70
0
3
<>
41
0.18
42
0.0625
44
0.18
140
0.18
147
0.09
73
0
74
0
77
1
271
2
275
0
278
52
280
0
340
11
0
ENDTAB
0
TABLE
2
VIEW
5
23e
100
AcDbSymbolTable
0
ENDTAB
0
TABLE
2
UCS
5
23f
100
AcDbSymbolTable
0
ENDTAB
0
TABLE
2
APPID
5
240
100
AcDbSymbolTable
0
APPID
5
12
100
AcDbSymbolTableRecord
100
AcDbRegAppTableRecord
2
ACAD
70
0
0
APPID
5
132
100
AcDbSymbolTableRecord
100
AcDbRegAppTableRecord
2
ACAD_DSTYLE_DIMBREAK
70
0
0
APPID
5
1E4
100
AcDbSymbolTableRecord
100
AcDbRegAppTableRecord
2
ACAD_DSTYLE_DIM_LINETYPE
70
0
0
APPID
5
1E5
100
AcDbSymbolTableRecord
100
AcDbRegAppTableRecord
2
ACAD_DSTYLE_DIM_EXT1_LINETYPE
70
0
0
APPID
5
1E6
100
AcDbSymbolTableRecord
100
AcDbRegAppTableRecord
2
ACAD_DSTYLE_DIM_EXT2_LINETYPE
70
0
0
APPID
5
221
100
AcDbSymbolTableRecord
100
AcDbRegAppTableRecord
2
ACAD_MLEADERVER
70
0
0
ENDTAB
0
TABLE
2
BLOCK_RECORD
5
241
100
AcDbSymbolTable
0
BLOCK_RECORD
5
1F
100
AcDbSymbolTableRecord
100
AcDbBlockTableRecord
2
*Model_Space
340
0
70
0
0
BLOCK_RECORD
5
1B
100
AcDbSymbolTableRecord
100
AcDbBlockTableRecord
2
*Paper_Space
340
0
70
0
0
BLOCK_RECORD
5
23
100
AcDbSymbolTableRecord
100
AcDbBlockTableRecord
2
*Paper_Space0
340
0
70
0
0
BLOCK_RECORD
5
137
100
AcDbSymbolTableRecord
100
AcDbBlockTableRecord
2
*D1
340
0
70
0
0
BLOCK_RECORD
5
143
100
AcDbSymbolTableRecord
100
AcDbBlockTableRecord
2
_U0
340
0
70
0
0
BLOCK_RECORD
5
14F
100
AcDbSymbolTableRecord
100
AcDbBlockTableRecord
2
*D3
340
0
70
0
0
BLOCK_RECORD
5
15B
100
AcDbSymbolTableRecord
100
AcDbBlockTableRecord
2
_U1
340
0
70
0
0
BLOCK_RECORD
5
167
100
AcDbSymbolTableRecord
100
AcDbBlockTableRecord
2
*D5
340
0
70
0
0
BLOCK_RECORD
5
173
100
AcDbSymbolTableRecord
100
AcDbBlockTableRecord
2
_U2
340
0
70
0
0
BLOCK_RECORD
5
17F
100
AcDbSymbolTableRecord
100
AcDbBlockTableRecord
2
*D7
340
0
70
0
0
BLOCK_RECORD
5
18D
100
AcDbSymbolTableRecord
100
AcDbBlockTableRecord
2
_U3
340
0
70
0
0
BLOCK_RECORD
5
199
100
AcDbSymbolTableRecord
100
AcDbBlockTableRecord
2
*D9
340
0
70
0
0
BLOCK_RECORD
5
1A5
100
AcDbSymbolTableRecord
100
AcDbBlockTableRecord
2
_U4
340
0
70
0
0
BLOCK_RECORD
5
1B1
100
AcDbSymbolTableRecord
100
AcDbBlockTableRecord
2
*D11
340
0
70
0
0
BLOCK_RECORD
5
1BD
100
AcDbSymbolTableRecord
100
AcDbBlockTableRecord
2
_U5
340
0
70
0
0
ENDTAB
0
ENDSEC
0
SECTION
2
BLOCKS
0
BLOCK
5
20
100
AcDbEntity
8
0
100
AcDbBlockBegin
2
*Model_Space
70
0
10
0
20
0
30
0
3
*Model_Space
0
ENDBLK
5
21
100
AcDbEntity
8
0
100
AcDbBlockEnd
0
BLOCK
5
1C
100
AcDbEntity
8
0
100
AcDbBlockBegin
2
*Paper_Space
70
0
10
0
20
0
30
0
3
*Paper_Space
0
ENDBLK
5
1D
100
AcDbEntity
8
0
100
AcDbBlockEnd
0
BLOCK
5
24
100
AcDbEntity
8
0
100
AcDbBlockBegin
2
*Paper_Space0
70
0
10
0
20
0
30
0
3
*Paper_Space0
0
ENDBLK
5
25
100
AcDbEntity
8
0
100
AcDbBlockEnd
0
BLOCK
5
138
100
AcDbEntity
8
0
100
AcDbBlockBegin
2
*D1
70
1
10
0
20
0
30
0
3
*D1
0
LINE
5
13A
100
AcDbEntity
8
0
62
256
6
ByLayer
370
-2
48
1
60
0
100
AcDbLine
10
0
20
-1.5875
30
0
11
0
21
-18.227503
31
0
39
0
210
0
220
0
230
1
0
LINE
5
13B
100
AcDbEntity
8
0
62
256
6
ByLayer
370
-2
48
1
60
0
100
AcDbLine
10
47.9907
20
-5.0125
30
0
11
47.9907
21
-18.227503
31
0
39
0
210
0
220
0
230
1
0
LINE
5
13C
100
AcDbEntity
8
0
62
256
6
ByLayer
370
-2
48
1
60
0
100
AcDbLine
10
3.5
20
-16.227503
30
0
11
44.4907
21
-16.227503
31
0
39
0
210
0
220
0
230
1
0
SOLID
5
13D
100
AcDbEntity
8
0
62
256
6
ByLayer
370
-1
48
1
60
0
100
AcDbTrace
10
3.5
20
-15.64417
30
0
11
3.5
21
-16.810837
31
0
12
0
22
-16.227503
32
0
13
0
23
-16.227503
33
0
39
0
210
0
220
0
230
1
0
SOLID
5
13E
100
AcDbEntity
8
0
62
256
6
ByLayer
370
-1
48
1
60
0
100
AcDbTrace
10
44.4907
20
-16.810837
30
0
11
44.4907
21
-15.64417
31
0
12
47.9907
22
-16.227503
32
0
13
47.9907
23
-16.227503
33
0
39
0
210
0
220
0
230
1
0
MTEXT
5
13F
100
AcDbEntity
8
0
62
256
6
ByLayer
370
18
48
1
60
0
100
AcDbMText
10
23.99535
20
-9.227503
30
0
210
0
220
0
230
1
1
\A1;47.99
40
3.5
41
0
44
1
50
0
71
5
72
5
7
iso_b_vert
0
POINT
5
140
100
AcDbEntity
8
Defpoints
62
0
6
ByLayer
370
-1
48
1
60
0
100
AcDbPoint
10
0
20
0
30
0
39
0
210
0
220
0
230
1
50
360
0
POINT
5
141
100
AcDbEntity
8
Defpoints
62
0
6
ByLayer
370
-1
48
1
60
0
100
AcDbPoint
10
47.9907
20
-3.425
30
0
39
0
210
0
220
0
230
1
50
360
0
POINT
5
142
100
AcDbEntity
8
Defpoints
62
0
6
ByLayer
370
-1
48
1
60
0
100
AcDbPoint
10
47.9907
20
-16.227503
30
0
39
0
210
0
220
0
230
1
50
360
0
ENDBLK
5
139
100
AcDbEntity
8
0
100
AcDbBlockEnd
0
BLOCK
5
14A
100
AcDbEntity
8
0
100
AcDbBlockBegin
2
_U0
70
0
10
0
20
0
30
0
3
_U0
0
MTEXT
5
144
100
AcDbEntity
8
SK2
62
256
6
ByLayer
370
13
48
1
60
0
100
AcDbMText
10
18.673785
20
-15.19487
30
0
210
0
220
0
230
1
1
\W0.7669;47,99
40
3.5
41
0
44
1.084337
50
0
71
7
72
5
7
iso_b_vert
0
LINE
5
145
100
AcDbEntity
8
SK2
62
256
6
ByLayer
370
13
48
1
60
0
100
AcDbLine
10
0
20
-1.5875
30
0
11
0
21
-18.227503
31
0
39
0
210
0
220
0
230
1
0
LINE
5
146
100
AcDbEntity
8
SK2
62
256
6
ByLayer
370
13
48
1
60
0
100
AcDbLine
10
47.9907
20
-5.0125
30
0
11
47.9907
21
-18.227503
31
0
39
0
210
0
220
0
230
1
0
LINE
5
147
100
AcDbEntity
8
SK2
62
256
6
ByLayer
370
13
48
1
60
0
100
AcDbLine
10
0
20
-16.227503
30
0
11
47.9907
21
-16.227503
31
0
39
0
210
0
220
0
230
1
0
SOLID
5
148
100
AcDbEntity
8
SK2
62
256
6
ByLayer
370
18
48
1
60
0
100
AcDbTrace
10
0
20
-16.227503
30
0
11
3.499998
21
-15.766719
31
0
12
3.500002
22
-16.688287
32
0
13
3.500002
23
-16.688287
33
0
39
0
210
0
220
0
230
1
0
SOLID
5
149
100
AcDbEntity
8
SK2
62
256
6
ByLayer
370
18
48
1
60
0
100
AcDbTrace
10
47.9907
20
-16.227503
30
0
11
44.490702
21
-16.688287
31
0
12
44.490698
22
-15.766719
32
0
13
44.490698
23
-15.766719
33
0
39
0
210
0
220
0
230
1
0
ENDBLK
5
14B
100
AcDbEntity
8
0
100
AcDbBlockEnd
0
BLOCK
5
150
100
AcDbEntity
8
0
100
AcDbBlockBegin
2
*D3
70
1
10
0
20
0
30
0
3
*D3
0
LINE
5
152
100
AcDbEntity
8
0
62
256
6
ByLayer
370
-2
48
1
60
0
100
AcDbLine
10
-40
20
-6.5875
30
0
11
-40
21
-38.192985
31
0
39
0
210
0
220
0
230
1
0
LINE
5
153
100
AcDbEntity
8
0
62
256
6
ByLayer
370
-2
48
1
60
0
100
AcDbLine
10
49
20
-1.5875
30
0
11
49
21
-38.192985
31
0
39
0
210
0
220
0
230
1
0
LINE
5
154
100
AcDbEntity
8
0
62
256
6
ByLayer
370
-2
48
1
60
0
100
AcDbLine
10
-36.5
20
-36.192985
30
0
11
45.5
21
-36.192985
31
0
39
0
210
0
220
0
230
1
0
SOLID
5
155
100
AcDbEntity
8
0
62
256
6
ByLayer
370
-1
48
1
60
0
100
AcDbTrace
10
-36.5
20
-35.609652
30
0
11
-36.5
21
-36.776319
31
0
12
-40
22
-36.192985
32
0
13
-40
23
-36.192985
33
0
39
0
210
0
220
0
230
1
0
SOLID
5
156
100
AcDbEntity
8
0
62
256
6
ByLayer
370
-1
48
1
60
0
100
AcDbTrace
10
45.5
20
-36.776319
30
0
11
45.5
21
-35.609652
31
0
12
49
22
-36.192985
32
0
13
49
23
-36.192985
33
0
39
0
210
0
220
0
230
1
0
MTEXT
5
157
100
AcDbEntity
8
0
62
256
6
ByLayer
370
18
48
1
60
0
100
AcDbMText
10
4.5
20
-29.192985
30
0
210
0
220
0
230
1
1
\A1;89.00
40
3.5
41
0
44
1
50
0
71
5
72
5
7
iso_b_vert
0
POINT
5
158
100
AcDbEntity
8
Defpoints
62
0
6
ByLayer
370
-1
48
1
60
0
100
AcDbPoint
10
-40
20
-5
30
0
39
0
210
0
220
0
230
1
50
360
0
POINT
5
159
100
AcDbEntity
8
Defpoints
62
0
6
ByLayer
370
-1
48
1
60
0
100
AcDbPoint
10
49
20
0
30
0
39
0
210
0
220
0
230
1
50
360
0
POINT
5
15A
100
AcDbEntity
8
Defpoints
62
0
6
ByLayer
370
-1
48
1
60
0
100
AcDbPoint
10
49
20
-36.192985
30
0
39
0
210
0
220
0
230
1
50
360
0
ENDBLK
5
151
100
AcDbEntity
8
0
100
AcDbBlockEnd
0
BLOCK
5
162
100
AcDbEntity
8
0
100
AcDbBlockBegin
2
_U1
70
0
10
0
20
0
30
0
3
_U1
0
MTEXT
5
15C
100
AcDbEntity
8
SK2
62
256
6
ByLayer
370
13
48
1
60
0
100
AcDbMText
10
-0.637299
20
-35.160352
30
0
210
0
220
0
230
1
1
\W0.7317;89,00
40
3.5
41
0
44
1.084337
50
0
71
7
72
5
7
iso_b_vert
0
LINE
5
15D
100
AcDbEntity
8
SK2
62
256
6
ByLayer
370
13
48
1
60
0
100
AcDbLine
10
-40
20
-6.5875
30
0
11
-40
21
-38.192985
31
0
39
0
210
0
220
0
230
1
0
LINE
5
15E
100
AcDbEntity
8
SK2
62
256
6
ByLayer
370
13
48
1
60
0
100
AcDbLine
10
49
20
-1.5875
30
0
11
49
21
-38.192985
31
0
39
0
210
0
220
0
230
1
0
LINE
5
15F
100
AcDbEntity
8
SK2
62
256
6
ByLayer
370
13
48
1
60
0
100
AcDbLine
10
-40
20
-36.192985
30
0
11
49
21
-36.192985
31
0
39
0
210
0
220
0
230
1
0
SOLID
5
160
100
AcDbEntity
8
SK2
62
256
6
ByLayer
370
18
48
1
60
0
100
AcDbTrace
10
-40
20
-36.192985
30
0
11
-36.500002
21
-35.732202
31
0
12
-36.499998
22
-36.653769
32
0
13
-36.499998
23
-36.653769
33
0
39
0
210
0
220
0
230
1
0
SOLID
5
161
100
AcDbEntity
8
SK2
62
256
6
ByLayer
370
18
48
1
60
0
100
AcDbTrace
10
49
20
-36.192985
30
0
11
45.500002
21
-36.653769
31
0
12
45.499998
22
-35.732202
32
0
13
45.499998
23
-35.732202
33
0
39
0
210
0
220
0
230
1
0
ENDBLK
5
163
100
AcDbEntity
8
0
100
AcDbBlockEnd
0
BLOCK
5
168
100
AcDbEntity
8
0
100
AcDbBlockBegin
2
*D5
70
1
10
0
20
0
30
0
3
*D5
0
LINE
5
16A
100
AcDbEntity
8
0
62
256
6
ByLayer
370
-2
48
1
60
0
100
AcDbLine
10
26.24
20
6.2125
30
0
11
26.24
21
17.034119
31
0
39
0
210
0
220
0
230
1
0
LINE
5
16B
100
AcDbEntity
8
0
62
256
6
ByLayer
370
-2
48
1
60
0
100
AcDbLine
10
49
20
1.5875
30
0
11
49
21
17.034119
31
0
39
0
210
0
220
0
230
1
0
LINE
5
16C
100
AcDbEntity
8
0
62
256
6
ByLayer
370
-2
48
1
60
0
100
AcDbLine
10
29.74
20
15.034119
30
0
11
45.5
21
15.034119
31
0
39
0
210
0
220
0
230
1
0
SOLID
5
16D
100
AcDbEntity
8
0
62
256
6
ByLayer
370
-1
48
1
60
0
100
AcDbTrace
10
29.74
20
15.617453
30
0
11
29.74
21
14.450786
31
0
12
26.24
22
15.034119
32
0
13
26.24
23
15.034119
33
0
39
0
210
0
220
0
230
1
0
SOLID
5
16E
100
AcDbEntity
8
0
62
256
6
ByLayer
370
-1
48
1
60
0
100
AcDbTrace
10
45.5
20
14.450786
30
0
11
45.5
21
15.617453
31
0
12
49
22
15.034119
32
0
13
49
23
15.034119
33
0
39
0
210
0
220
0
230
1
0
MTEXT
5
16F
100
AcDbEntity
8
0
62
256
6
ByLayer
370
18
48
1
60
0
100
AcDbMText
10
37.62
20
22.034119
30
0
210
0
220
0
230
1
1
\A1;22.76
40
3.5
41
0
44
1
50
0
71
5
72
5
7
iso_b_vert
0
POINT
5
170
100
AcDbEntity
8
Defpoints
62
0
6
ByLayer
370
-1
48
1
60
0
100
AcDbPoint
10
26.24
20
4.625
30
0
39
0
210
0
220
0
230
1
50
360
0
POINT
5
171
100
AcDbEntity
8
Defpoints
62
0
6
ByLayer
370
-1
48
1
60
0
100
AcDbPoint
10
49
20
0
30
0
39
0
210
0
220
0
230
1
50
360
0
POINT
5
172
100
AcDbEntity
8
Defpoints
62
0
6
ByLayer
370
-1
48
1
60
0
100
AcDbPoint
10
49
20
15.034119
30
0
39
0
210
0
220
0
230
1
50
360
0
ENDBLK
5
169
100
AcDbEntity
8
0
100
AcDbBlockEnd
0
BLOCK
5
17A
100
AcDbEntity
8
0
100
AcDbBlockBegin
2
_U2
70
0
10
0
20
0
30
0
3
_U2
0
MTEXT
5
174
100
AcDbEntity
8
SK2
62
256
6
ByLayer
370
13
48
1
60
0
100
AcDbMText
10
32.482701
20
16.066753
30
0
210
0
220
0
230
1
1
\W0.7317;22,76
40
3.5
41
0
44
1.084337
50
0
71
7
72
5
7
iso_b_vert
0
LINE
5
175
100
AcDbEntity
8
SK2
62
256
6
ByLayer
370
13
48
1
60
0
100
AcDbLine
10
26.24
20
6.2125
30
0
11
26.24
21
17.034119
31
0
39
0
210
0
220
0
230
1
0
LINE
5
176
100
AcDbEntity
8
SK2
62
256
6
ByLayer
370
13
48
1
60
0
100
AcDbLine
10
49
20
1.5875
30
0
11
49
21
17.034119
31
0
39
0
210
0
220
0
230
1
0
LINE
5
177
100
AcDbEntity
8
SK2
62
256
6
ByLayer
370
13
48
1
60
0
100
AcDbLine
10
26.24
20
15.034119
30
0
11
49
21
15.034119
31
0
39
0
210
0
220
0
230
1
0
SOLID
5
178
100
AcDbEntity
8
SK2
62
256
6
ByLayer
370
18
48
1
60
0
100
AcDbTrace
10
26.24
20
15.034119
30
0
11
29.739998
21
15.494903
31
0
12
29.740002
22
14.573335
32
0
13
29.740002
23
14.573335
33
0
39
0
210
0
220
0
230
1
0
SOLID
5
179
100
AcDbEntity
8
SK2
62
256
6
ByLayer
370
18
48
1
60
0
100
AcDbTrace
10
49
20
15.034119
30
0
11
45.500002
21
14.573335
31
0
12
45.499998
22
15.494903
32
0
13
45.499998
23
15.494903
33
0
39
0
210
0
220
0
230
1
0
ENDBLK
5
17B
100
AcDbEntity
8
0
100
AcDbBlockEnd
0
BLOCK
5
180
100
AcDbEntity
8
0
100
AcDbBlockBegin
2
*D7
70
1
10
0
20
0
30
0
3
*D7
0
LINE
5
182
100
AcDbEntity
8
0
62
256
6
ByLayer
370
-2
48
1
60
0
100
AcDbLine
10
49
20
-1.5875
30
0
11
49
21
-18.227503
31
0
39
0
210
0
220
0
230
1
0
LINE
5
183
100
AcDbEntity
8
0
62
256
6
ByLayer
370
-2
48
1
60
0
100
AcDbLine
10
47.9907
20
-5.0125
30
0
11
47.9907
21
-18.227503
31
0
39
0
210
0
220
0
230
1
0
LINE
5
184
100
AcDbEntity
8
0
62
256
6
ByLayer
370
-2
48
1
60
0
100
AcDbLine
10
49
20
-16.227503
30
0
11
75.666667
21
-16.227503
31
0
39
0
210
0
220
0
230
1
0
LINE
5
185
100
AcDbEntity
8
0
62
256
6
ByLayer
370
-2
48
1
60
0
100
AcDbLine
10
52.5
20
-16.227503
30
0
11
56
21
-16.227503
31
0
39
0
210
0
220
0
230
1
0
LINE
5
186
100
AcDbEntity
8
0
62
256
6
ByLayer
370
-2
48
1
60
0
100
AcDbLine
10
44.4907
20
-16.227503
30
0
11
40.9907
21
-16.227503
31
0
39
0
210
0
220
0
230
1
0
SOLID
5
187
100
AcDbEntity
8
0
62
256
6
ByLayer
370
-1
48
1
60
0
100
AcDbTrace
10
52.5
20
-15.64417
30
0
11
52.5
21
-16.810837
31
0
12
49
22
-16.227503
32
0
13
49
23
-16.227503
33
0
39
0
210
0
220
0
230
1
0
SOLID
5
188
100
AcDbEntity
8
0
62
256
6
ByLayer
370
-1
48
1
60
0
100
AcDbTrace
10
44.4907
20
-16.810837
30
0
11
44.4907
21
-15.64417
31
0
12
47.9907
22
-16.227503
32
0
13
47.9907
23
-16.227503
33
0
39
0
210
0
220
0
230
1
0
MTEXT
5
189
100
AcDbEntity
8
0
62
256
6
ByLayer
370
18
48
1
60
0
100
AcDbMText
10
65.833333
20
-9.227503
30
0
210
0
220
0
230
1
1
\A1;1.01
40
3.5
41
0
44
1
50
0
71
5
72
5
7
iso_b_vert
0
POINT
5
18A
100
AcDbEntity
8
Defpoints
62
0
6
ByLayer
370
-1
48
1
60
0
100
AcDbPoint
10
49
20
0
30
0
39
0
210
0
220
0
230
1
50
360
0
POINT
5
18B
100
AcDbEntity
8
Defpoints
62
0
6
ByLayer
370
-1
48
1
60
0
100
AcDbPoint
10
47.9907
20
-3.425
30
0
39
0
210
0
220
0
230
1
50
360
0
POINT
5
18C
100
AcDbEntity
8
Defpoints
62
0
6
ByLayer
370
-1
48
1
60
0
100
AcDbPoint
10
47.9907
20
-16.227503
30
0
39
0
210
0
220
0
230
1
50
360
0
ENDBLK
5
181
100
AcDbEntity
8
0
100
AcDbBlockEnd
0
BLOCK
5
194
100
AcDbEntity
8
0
100
AcDbBlockBegin
2
_U3
70
0
10
0
20
0
30
0
3
_U3
0
MTEXT
5
18E
100
AcDbEntity
8
SK2
62
256
6
ByLayer
370
13
48
1
60
0
100
AcDbMText
10
56.026726
20
-15.19487
30
0
210
0
220
0
230
1
1
\W0.6132;1,01
40
3.5
41
0
44
1.084337
50
0
71
7
72
5
7
iso_b_vert
0
LINE
5
18F
100
AcDbEntity
8
SK2
62
256
6
ByLayer
370
13
48
1
60
0
100
AcDbLine
10
49
20
-1.5875
30
0
11
49
21
-18.227503
31
0
39
0
210
0
220
0
230
1
0
LINE
5
190
100
AcDbEntity
8
SK2
62
256
6
ByLayer
370
13
48
1
60
0
100
AcDbLine
10
47.9907
20
-5.0125
30
0
11
47.9907
21
-18.227503
31
0
39
0
210
0
220
0
230
1
0
LINE
5
191
100
AcDbEntity
8
SK2
62
256
6
ByLayer
370
13
48
1
60
0
100
AcDbLine
10
39.2407
20
-16.227503
30
0
11
62.121624
21
-16.227503
31
0
39
0
210
0
220
0
230
1
0
SOLID
5
192
100
AcDbEntity
8
SK2
62
256
6
ByLayer
370
18
48
1
60
0
100
AcDbTrace
10
49
20
-16.227503
30
0
11
52.499998
21
-15.766719
31
0
12
52.500002
22
-16.688287
32
0
13
52.500002
23
-16.688287
33
0
39
0
210
0
220
0
230
1
0
SOLID
5
193
100
AcDbEntity
8
SK2
62
256
6
ByLayer
370
18
48
1
60
0
100
AcDbTrace
10
47.9907
20
-16.227503
30
0
11
44.490702
21
-16.688287
31
0
12
44.490698
22
-15.766719
32
0
13
44.490698
23
-15.766719
33
0
39
0
210
0
220
0
230
1
0
ENDBLK
5
195
100
AcDbEntity
8
0
100
AcDbBlockEnd
0
BLOCK
5
19A
100
AcDbEntity
8
0
100
AcDbBlockBegin
2
*D9
70
1
10
0
20
0
30
0
3
*D9
0
LINE
5
19C
100
AcDbEntity
8
0
62
256
6
ByLayer
370
-2
48
1
60
0
100
AcDbLine
10
47.9907
20
5.0125
30
0
11
47.9907
21
9.560371
31
0
39
0
210
0
220
0
230
1
0
LINE
5
19D
100
AcDbEntity
8
0
62
256
6
ByLayer
370
-2
48
1
60
0
100
AcDbLine
10
27.4407
20
5.0125
30
0
11
27.4407
21
9.560371
31
0
39
0
210
0
220
0
230
1
0
LINE
5
19E
100
AcDbEntity
8
0
62
256
6
ByLayer
370
-2
48
1
60
0
100
AcDbLine
10
44.4907
20
7.560371
30
0
11
30.9407
21
7.560371
31
0
39
0
210
0
220
0
230
1
0
SOLID
5
19F
100
AcDbEntity
8
0
62
256
6
ByLayer
370
-1
48
1
60
0
100
AcDbTrace
10
44.4907
20
6.977038
30
0
11
44.4907
21
8.143705
31
0
12
47.9907
22
7.560371
32
0
13
47.9907
23
7.560371
33
0
39
0
210
0
220
0
230
1
0
SOLID
5
1A0
100
AcDbEntity
8
0
62
256
6
ByLayer
370
-1
48
1
60
0
100
AcDbTrace
10
30.9407
20
8.143705
30
0
11
30.9407
21
6.977038
31
0
12
27.4407
22
7.560371
32
0
13
27.4407
23
7.560371
33
0
39
0
210
0
220
0
230
1
0
MTEXT
5
1A1
100
AcDbEntity
8
0
62
256
6
ByLayer
370
18
48
1
60
0
100
AcDbMText
10
37.7157
20
14.560371
30
0
210
0
220
0
230
1
1
\A1;20.55
40
3.5
41
0
44
1
50
0
71
5
72
5
7
iso_b_vert
0
POINT
5
1A2
100
AcDbEntity
8
Defpoints
62
0
6
ByLayer
370
-1
48
1
60
0
100
AcDbPoint
10
47.9907
20
3.425
30
0
39
0
210
0
220
0
230
1
50
360
0
POINT
5
1A3
100
AcDbEntity
8
Defpoints
62
0
6
ByLayer
370
-1
48
1
60
0
100
AcDbPoint
10
27.4407
20
3.425
30
0
39
0
210
0
220
0
230
1
50
360
0
POINT
5
1A4
100
AcDbEntity
8
Defpoints
62
0
6
ByLayer
370
-1
48
1
60
0
100
AcDbPoint
10
27.4407
20
7.560371
30
0
39
0
210
0
220
0
230
1
50
360
0
ENDBLK
5
19B
100
AcDbEntity
8
0
100
AcDbBlockEnd
0
BLOCK
5
1AC
100
AcDbEntity
8
0
100
AcDbBlockBegin
2
_U4
70
0
10
0
20
0
30
0
3
_U4
0
MTEXT
5
1A6
100
AcDbEntity
8
SK2
62
256
6
ByLayer
370
13
48
1
60
0
100
AcDbMText
10
32.578401
20
8.593005
30
0
210
0
220
0
230
1
1
\W0.7317;20,55
40
3.5
41
0
44
1.084337
50
0
71
7
72
5
7
iso_b_vert
0
LINE
5
1A7
100
AcDbEntity
8
SK2
62
256
6
ByLayer
370
13
48
1
60
0
100
AcDbLine
10
47.9907
20
5.0125
30
0
11
47.9907
21
9.560371
31
0
39
0
210
0
220
0
230
1
0
LINE
5
1A8
100
AcDbEntity
8
SK2
62
256
6
ByLayer
370
13
48
1
60
0
100
AcDbLine
10
27.4407
20
5.0125
30
0
11
27.4407
21
9.560371
31
0
39
0
210
0
220
0
230
1
0
LINE
5
1A9
100
AcDbEntity
8
SK2
62
256
6
ByLayer
370
13
48
1
60
0
100
AcDbLine
10
47.9907
20
7.560371
30
0
11
27.4407
21
7.560371
31
0
39
0
210
0
220
0
230
1
0
SOLID
5
1AA
100
AcDbEntity
8
SK2
62
256
6
ByLayer
370
18
48
1
60
0
100
AcDbTrace
10
47.9907
20
7.560371
30
0
11
44.490702
21
7.099588
31
0
12
44.490698
22
8.021155
32
0
13
44.490698
23
8.021155
33
0
39
0
210
0
220
0
230
1
0
SOLID
5
1AB
100
AcDbEntity
8
SK2
62
256
6
ByLayer
370
18
48
1
60
0
100
AcDbTrace
10
27.4407
20
7.560371
30
0
11
30.940698
21
8.021155
31
0
12
30.940702
22
7.099588
32
0
13
30.940702
23
7.099588
33
0
39
0
210
0
220
0
230
1
0
ENDBLK
5
1AD
100
AcDbEntity
8
0
100
AcDbBlockEnd
0
BLOCK
5
1B2
100
AcDbEntity
8
0
100
AcDbBlockBegin
2
*D11
70
1
10
0
20
0
30
0
3
*D11
0
LINE
5
1B4
100
AcDbEntity
8
0
62
256
6
ByLayer
370
-2
48
1
60
0
100
AcDbLine
10
-40
20
-6.5875
30
0
11
-40
21
-27.690158
31
0
39
0
210
0
220
0
230
1
0
LINE
5
1B5
100
AcDbEntity
8
0
62
256
6
ByLayer
370
-2
48
1
60
0
100
AcDbLine
10
47.9907
20
-5.0125
30
0
11
47.9907
21
-27.690158
31
0
39
0
210
0
220
0
230
1
0
LINE
5
1B6
100
AcDbEntity
8
0
62
256
6
ByLayer
370
-2
48
1
60
0
100
AcDbLine
10
-36.5
20
-25.690158
30
0
11
44.4907
21
-25.690158
31
0
39
0
210
0
220
0
230
1
0
SOLID
5
1B7
100
AcDbEntity
8
0
62
256
6
ByLayer
370
-1
48
1
60
0
100
AcDbTrace
10
-36.5
20
-25.106825
30
0
11
-36.5
21
-26.273491
31
0
12
-40
22
-25.690158
32
0
13
-40
23
-25.690158
33
0
39
0
210
0
220
0
230
1
0
SOLID
5
1B8
100
AcDbEntity
8
0
62
256
6
ByLayer
370
-1
48
1
60
0
100
AcDbTrace
10
44.4907
20
-26.273491
30
0
11
44.4907
21
-25.106825
31
0
12
47.9907
22
-25.690158
32
0
13
47.9907
23
-25.690158
33
0
39
0
210
0
220
0
230
1
0
MTEXT
5
1B9
100
AcDbEntity
8
0
62
256
6
ByLayer
370
18
48
1
60
0
100
AcDbMText
10
3.99535
20
-18.690158
30
0
210
0
220
0
230
1
1
\A1;87.99
40
3.5
41
0
44
1
50
0
71
5
72
5
7
iso_b_vert
0
POINT
5
1BA
100
AcDbEntity
8
Defpoints
62
0
6
ByLayer
370
-1
48
1
60
0
100
AcDbPoint
10
-40
20
-5
30
0
39
0
210
0
220
0
230
1
50
360
0
POINT
5
1BB
100
AcDbEntity
8
Defpoints
62
0
6
ByLayer
370
-1
48
1
60
0
100
AcDbPoint
10
47.9907
20
-3.425
30
0
39
0
210
0
220
0
230
1
50
360
0
POINT
5
1BC
100
AcDbEntity
8
Defpoints
62
0
6
ByLayer
370
-1
48
1
60
0
100
AcDbPoint
10
47.9907
20
-25.690158
30
0
39
0
210
0
220
0
230
1
50
360
0
ENDBLK
5
1B3
100
AcDbEntity
8
0
100
AcDbBlockEnd
0
BLOCK
5
1C4
100
AcDbEntity
8
0
100
AcDbBlockBegin
2
_U5
70
0
10
0
20
0
30
0
3
_U5
0
MTEXT
5
1BE
100
AcDbEntity
8
SK2
62
256
6
ByLayer
370
13
48
1
60
0
100
AcDbMText
10
-1.141949
20
-24.657524
30
0
210
0
220
0
230
1
1
\W0.7402;87,99
40
3.5
41
0
44
1.084337
50
0
71
7
72
5
7
iso_b_vert
0
LINE
5
1BF
100
AcDbEntity
8
SK2
62
256
6
ByLayer
370
13
48
1
60
0
100
AcDbLine
10
-40
20
-6.5875
30
0
11
-40
21
-27.690158
31
0
39
0
210
0
220
0
230
1
0
LINE
5
1C0
100
AcDbEntity
8
SK2
62
256
6
ByLayer
370
13
48
1
60
0
100
AcDbLine
10
47.9907
20
-5.0125
30
0
11
47.9907
21
-27.690158
31
0
39
0
210
0
220
0
230
1
0
LINE
5
1C1
100
AcDbEntity
8
SK2
62
256
6
ByLayer
370
13
48
1
60
0
100
AcDbLine
10
-40
20
-25.690158
30
0
11
47.9907
21
-25.690158
31
0
39
0
210
0
220
0
230
1
0
SOLID
5
1C2
100
AcDbEntity
8
SK2
62
256
6
ByLayer
370
18
48
1
60
0
100
AcDbTrace
10
-40
20
-25.690158
30
0
11
-36.500002
21
-25.229374
31
0
12
-36.499998
22
-26.150942
32
0
13
-36.499998
23
-26.150942
33
0
39
0
210
0
220
0
230
1
0
SOLID
5
1C3
100
AcDbEntity
8
SK2
62
256
6
ByLayer
370
18
48
1
60
0
100
AcDbTrace
10
47.9907
20
-25.690158
30
0
11
44.490702
21
-26.150942
31
0
12
44.490698
22
-25.229374
32
0
13
44.490698
23
-25.229374
33
0
39
0
210
0
220
0
230
1
0
ENDBLK
5
1C5
100
AcDbEntity
8
0
100
AcDbBlockEnd
0
ENDSEC
0
SECTION
2
ENTITIES
0
ARC
5
C0
100
AcDbEntity
8
1
62
256
6
ByLayer
370
18
48
1
60
0
100
AcDbCircle
39
0
10
1.029259
20
-5.425
30
0
40
0.799999999999999
210
0
220
0
230
1
100
AcDbArc
50
90
51
130.037373
0
ARC
5
C1
100
AcDbEntity
8
1
62
256
6
ByLayer
370
18
48
1
60
0
100
AcDbCircle
39
0
10
1.029259
20
5.425
30
0
40
0.799999999999999
210
0
220
0
230
1
100
AcDbArc
50
229.962627
51
270
0
ARC
5
C2
100
AcDbEntity
8
1
62
256
6
ByLayer
370
18
48
1
60
0
100
AcDbCircle
39
0
10
0
20
-4.2
30
0
40
0.8
210
0
220
0
230
1
100
AcDbArc
50
270
51
310.037373
0
ARC
5
C3
100
AcDbEntity
8
1
62
256
6
ByLayer
370
18
48
1
60
0
100
AcDbCircle
39
0
10
0
20
4.2
30
0
40
0.8
210
0
220
0
230
1
100
AcDbArc
50
49.962627
51
90
0
ARC
5
C4
100
AcDbEntity
8
SK2
62
256
6
ByLayer
370
13
48
1
60
0
100
AcDbCircle
39
0
10
30.8657
20
0
30
0
40
18.7541418120436
210
0
220
0
230
1
100
AcDbArc
50
183.283881
51
225
0
ARC
5
C5
100
AcDbEntity
8
SK2
62
256
6
ByLayer
370
13
48
1
60
0
100
AcDbCircle
39
0
10
30.8657
20
0
30
0
40
18.7541418120436
210
0
220
0
230
1
100
AcDbArc
50
135
51
163.183532
0
POINT
5
70
100
AcDbEntity
8
80
62
256
6
ByLayer
370
18
48
1
60
0
100
AcDbPoint
10
0
20
0
30
0
39
0
210
0
220
0
230
1
50
360
0
POINT
5
72
100
AcDbEntity
8
81
62
256
6
ByLayer
370
18
48
1
60
0
100
AcDbPoint
10
49
20
0
30
0
39
0
210
0
220
0
230
1
50
360
0
POINT
5
74
100
AcDbEntity
8
1
62
256
6
ByLayer
370
18
48
1
60
1
100
AcDbPoint
10
47.9907
20
-3.425
30
0
39
0
210
0
220
0
230
1
50
360
0
POINT
5
76
100
AcDbEntity
8
1
62
256
6
ByLayer
370
18
48
1
60
1
100
AcDbPoint
10
-40
20
-5
30
0
39
0
210
0
220
0
230
1
50
360
0
POINT
5
77
100
AcDbEntity
8
1
62
256
6
ByLayer
370
18
48
1
60
1
100
AcDbPoint
10
26.24
20
4.625
30
0
39
0
210
0
220
0
230
1
50
360
0
POINT
5
78
100
AcDbEntity
8
1
62
256
6
ByLayer
370
18
48
1
60
1
100
AcDbPoint
10
47.9907
20
-3.425
30
0
39
0
210
0
220
0
230
1
50
360
0
POINT
5
79
100
AcDbEntity
8
1
62
256
6
ByLayer
370
18
48
1
60
1
100
AcDbPoint
10
47.9907
20
3.425
30
0
39
0
210
0
220
0
230
1
50
360
0
POINT
5
7A
100
AcDbEntity
8
1
62
256
6
ByLayer
370
18
48
1
60
1
100
AcDbPoint
10
27.4407
20
3.425
30
0
39
0
210
0
220
0
230
1
50
360
0
POINT
5
7B
100
AcDbEntity
8
1
62
256
6
ByLayer
370
18
48
1
60
1
100
AcDbPoint
10
-40
20
-5
30
0
39
0
210
0
220
0
230
1
50
360
0
POINT
5
7C
100
AcDbEntity
8
1
62
256
6
ByLayer
370
18
48
1
60
1
100
AcDbPoint
10
47.9907
20
-3.425
30
0
39
0
210
0
220
0
230
1
50
360
0
SPLINE
5
C6
100
AcDbEntity
8
SK1
62
256
6
ByLayer
370
18
48
1
60
0
100
AcDbSpline
70
4
71
3
72
12
73
8
40
0
40
0
40
0
40
0
40
0.5
40
0.5
40
0.75
40
0.75
40
1
40
1
40
1
40
1
41
1
10
-39.35
20
-4.29189886611087
30
0
41
1
10
-39.326410372972
20
-4.31590457013991
30
0
41
1
10
-39.303688617819
20
-4.3397873794294
30
0
41
1
10
-39.2755992296169
20
-4.37034395605795
30
0
41
1
10
-39.2670477807071
20
-4.37986288031152
30
0
41
1
10
-39.2542670006876
20
-4.39474079567955
30
0
41
1
10
-39.25
20
-4.40016462652284
30
0
41
1
10
-39.25
20
-4.40123609146841
30
0
0
SPLINE
5
C7
100
AcDbEntity
8
SK1
62
256
6
ByLayer
370
18
48
1
60
0
100
AcDbSpline
70
4
71
3
72
8
73
4
40
0
40
0
40
0
40
0
40
1
40
1
40
1
40
1
41
1
10
-40
20
3.6270564855032
30
0
41
1
10
-39.7840123959403
20
3.8493124864394
30
0
41
1
10
-39.5672333142647
20
4.07083396155363
30
0
41
1
10
-39.35
20
4.29189886611084
30
0
0
SPLINE
5
C8
100
AcDbEntity
8
SK1
62
256
6
ByLayer
370
18
48
1
60
0
100
AcDbSpline
70
4
71
3
72
8
73
4
40
0
40
0
40
0
40
0
40
1
40
1
40
1
40
1
41
1
10
-40
20
-3.62705648550323
30
0
41
1
10
-39.7840123959403
20
-3.8493124864394
30
0
41
1
10
-39.5672333142647
20
-4.07083396155366
30
0
41
1
10
-39.35
20
-4.29189886611087
30
0
0
SPLINE
5
C9
100
AcDbEntity
8
SK1
62
256
6
ByLayer
370
18
48
1
60
0
100
AcDbSpline
70
4
71
3
72
8
73
4
40
0
40
0
40
0
40
0
40
1
40
1
40
1
40
1
41
1
10
-39.35
20
-4.0079199765257
30
0
41
1
10
-39.5672421970815
20
-3.78684603247538
30
0
41
1
10
-39.7840146919995
20
-3.5653312341588
30
0
41
1
10
-40
20
-3.34307759591809
30
0
0
SPLINE
5
CA
100
AcDbEntity
8
SK1
62
256
6
ByLayer
370
18
48
1
60
0
100
AcDbSpline
70
4
71
3
72
12
73
8
40
0
40
0
40
0
40
0
40
0.250000000000002
40
0.250000000000002
40
0.500000000000005
40
0.500000000000005
40
1
40
1
40
1
40
1
41
1
10
-39.25
20
-4.14565509084179
30
0
41
1
10
-39.25
20
-4.13985036430927
30
0
41
1
10
-39.254235624227
20
-4.13007401051152
30
0
41
1
10
-39.2670201311554
20
-4.10795650348254
30
0
41
1
10
-39.2754786511825
20
-4.09563351979625
30
0
41
1
10
-39.3037388067419
20
-4.05800533376853
30
0
41
1
10
-39.3264172660865
20
-4.0319186658586
30
0
41
1
10
-39.35
20
-4.00791997652573
30
0
0
SPLINE
5
CB
100
AcDbEntity
8
SK1
62
256
6
ByLayer
370
18
48
1
60
0
100
AcDbSpline
70
4
71
3
72
12
73
8
40
0
40
0
40
0
40
0
40
0.5
40
0.5
40
0.75
40
0.75
40
1
40
1
40
1
40
1
41
1
10
-39.35
20
4.29189886611087
30
0
41
1
10
-39.326410372972
20
4.31590457013991
30
0
41
1
10
-39.303688617819
20
4.3397873794294
30
0
41
1
10
-39.2755992296169
20
4.37034395605795
30
0
41
1
10
-39.2670477807071
20
4.37986288031152
30
0
41
1
10
-39.2542670006876
20
4.39474079567955
30
0
41
1
10
-39.25
20
4.40016462652284
30
0
41
1
10
-39.25
20
4.40123609146841
30
0
0
SPLINE
5
CC
100
AcDbEntity
8
1
62
256
6
ByLayer
370
18
48
1
60
0
100
AcDbSpline
70
4
71
3
72
10
73
6
40
0
40
0
40
0
40
0
40
0.5
40
0.5
40
1
40
1
40
1
40
1
41
1
10
47.9019460342872
20
0.80621999762343
30
0
41
1
10
48.0778800557595
20
0.799578028363555
30
0
41
1
10
48.253805995283
20
0.793032784392409
30
0
41
1
10
48.6056956436412
20
0.779490270876465
30
0
41
1
10
48.7816534983041
20
0.77256306443968
30
0
41
1
10
48.9575563359643
20
0.766294305071028
30
0
0
SPLINE
5
CD
100
AcDbEntity
8
1
62
256
6
ByLayer
370
18
48
1
60
0
100
AcDbSpline
70
4
71
3
72
28
73
24
40
0
40
0
40
0
40
0
40
0.125
40
0.125
40
0.250000000000001
40
0.250000000000001
40
0.375000000000001
40
0.375000000000001
40
0.437500000000001
40
0.437500000000001
40
0.5
40
0.5
40
0.562499999999999
40
0.562499999999999
40
0.625000000000001
40
0.625000000000001
40
0.750000000000003
40
0.750000000000003
40
0.812500000000002
40
0.812500000000002
40
0.875000000000001
40
0.875000000000001
40
1
40
1
40
1
40
1
41
1
10
17.6171809864689
20
3.38356082193007
30
0
41
1
10
17.9751842625118
20
3.53933085228974
30
0
41
1
10
18.333183808985
20
3.67973861107168
30
0
41
1
10
19.045576836342
20
3.93498055884587
30
0
41
1
10
19.4001055240548
20
4.04936044980917
30
0
41
1
10
20.1114047028299
20
4.24742050424965
30
0
41
1
10
20.4665597577212
20
4.33230442214793
30
0
41
1
10
21.0014719931822
20
4.43618865551016
30
0
41
1
10
21.1803382235069
20
4.46683570842248
30
0
41
1
10
21.5388638151031
20
4.52028806846431
30
0
41
1
10
21.7185204489482
20
4.54313880893721
30
0
41
1
10
22.0759959872371
20
4.58044443827225
30
0
41
1
10
22.254182070119
20
4.59494531105054
30
0
41
1
10
22.610315832749
20
4.61565750649584
30
0
41
1
10
22.7882055638648
20
4.62190546273311
30
0
41
1
10
23.3205402084094
20
4.62850884933818
30
0
41
1
10
23.6737377047058
20
4.61652580935197
30
0
41
1
10
24.2051611649831
20
4.57459455498221
30
0
41
1
10
24.382384354102
20
4.55663171787538
30
0
41
1
10
24.7366143407621
20
4.51253246956895
30
0
41
1
10
24.913765561264
20
4.48641966386873
30
0
41
1
10
25.4464734042343
20
4.39622499096106
30
0
41
1
10
25.8036171236203
20
4.32061607454955
30
0
41
1
10
26.1621335166272
20
4.22865181268836
30
0
0
SPLINE
5
CE
100
AcDbEntity
8
1
62
256
6
ByLayer
370
18
48
1
60
0
100
AcDbSpline
70
4
71
3
72
10
73
6
40
0
40
0
40
0
40
0
40
0.56842597783329
40
0.56842597783329
40
1
40
1
40
1
40
1
41
1
10
47.837820956055
20
-3.25235464010962
30
0
41
1
10
46.9831907072044
20
-3.26299997371032
30
0
41
1
10
46.136794383038
20
-3.20623083669312
30
0
41
1
10
44.6481441439754
20
-2.99805082220533
30
0
41
1
10
44.0058489476411
20
-2.87238501836325
30
0
41
1
10
43.3600975908205
20
-2.71420433910418
30
0
0
SPLINE
5
CF
100
AcDbEntity
8
1
62
256
6
ByLayer
370
13
48
1
60
0
100
AcDbSpline
70
4
71
3
72
26
73
22
40
0
40
0
40
0
40
0
40
0.0540887566761412
40
0.0540887566761412
40
0.110254245634288
40
0.110254245634288
40
0.166419734592435
40
0.166419734592435
40
0.278750712508729
40
0.278750712508729
40
0.503412668341316
40
0.503412668341316
40
0.615743646257611
40
0.615743646257611
40
0.671909135215759
40
0.671909135215759
40
0.728074624173906
40
0.728074624173906
40
0.952736580006502
40
0.952736580006502
40
1
40
1
40
1
40
1
41
1
10
43.3600981179775
20
-2.71420446823444
30
0
41
1
10
43.1553304371288
20
-2.6640453985311
30
0
41
1
10
42.9502152313636
20
-2.61061688201002
30
0
41
1
10
42.5311655266067
20
-2.49525890437735
30
0
41
1
10
42.3168556576889
20
-2.43301244446704
30
0
41
1
10
41.8885154286351
20
-2.30261351595979
30
0
41
1
10
41.6749231440846
20
-2.23457548083223
30
0
41
1
10
41.0355567219179
20
-2.02258441458676
30
0
41
1
10
40.6111524923658
20
-1.87084927237532
30
0
41
1
10
39.3401603233989
20
-1.39110534765416
30
0
41
1
10
38.4960347719194
20
-1.03792972648358
30
0
41
1
10
37.2221825966234
20
-0.484941151878502
30
0
41
1
10
36.7963153023846
20
-0.296626336390744
30
0
41
1
10
36.1540690932424
20
-0.0118454065084279
30
0
41
1
10
35.939549741991
20
0.0833842259100948
30
0
41
1
10
35.5123063508225
20
0.27252348150742
30
0
41
1
10
35.2991849475146
20
0.366601195927728
30
0
41
1
10
34.2354952769104
20
0.833170484653834
30
0
41
1
10
33.3907763539708
20
1.19442204070503
30
0
41
1
10
32.3656203827005
20
1.59499102730581
30
0
41
1
10
32.187346681411
20
1.66329348508518
30
0
41
1
10
32.0089041630179
20
1.73011247843201
30
0
0
SPLINE
5
D0
100
AcDbEntity
8
1
62
256
6
ByLayer
370
18
48
1
60
0
100
AcDbSpline
70
4
71
3
72
12
73
8
40
0
40
0
40
0
40
0
40
0.500000000000007
40
0.500000000000007
40
0.750000000000004
40
0.750000000000004
40
1
40
1
40
1
40
1
41
1
10
26.8910676859856
20
-1.85337082928683
30
0
41
1
10
26.6556032805392
20
-1.87502964039973
30
0
41
1
10
26.4287169871851
20
-1.86235126675749
30
0
41
1
10
26.0952556328139
20
-1.79622035523698
30
0
41
1
10
25.9853666678096
20
-1.7660074304998
30
0
41
1
10
25.7670844387357
20
-1.68953479886414
30
0
41
1
10
25.6591561343697
20
-1.64359580362253
30
0
41
1
10
25.5527010713287
20
-1.59032290229123
30
0
0
SPLINE
5
D1
100
AcDbEntity
8
1
62
256
6
ByLayer
370
18
48
1
60
0
100
AcDbSpline
70
4
71
3
72
20
73
16
40
0
40
0
40
0
40
0
40
0.0878347442103199
40
0.0878347442103199
40
0.179051269789288
40
0.179051269789288
40
0.270267795368256
40
0.270267795368256
40
0.452700846526192
40
0.452700846526192
40
0.635133897684128
40
0.635133897684128
40
0.817566948842064
40
0.817566948842064
40
1
40
1
40
1
40
1
41
1
10
27.4190523589852
20
-3.39401801391074
30
0
41
1
10
27.4190523589852
20
-3.39375155022339
30
0
41
1
10
27.4190523589852
20
-3.38984681687916
30
0
41
1
10
27.4190523589852
20
-3.37459785542407
30
0
41
1
10
27.4190523589852
20
-3.36296169943785
30
0
41
1
10
27.4190523589853
20
-3.33184789654763
30
0
41
1
10
27.4190523589852
20
-3.31226638538749
30
0
41
1
10
27.4190523589852
20
-3.24188992428796
30
0
41
1
10
27.4190523589853
20
-3.18026156287016
30
0
41
1
10
27.4190523589853
20
-3.02863869586704
30
0
41
1
10
27.4190523589852
20
-2.93828400536449
30
0
41
1
10
27.4190523589852
20
-2.72918400215664
30
0
41
1
10
27.4190523589852
20
-2.61281106822608
30
0
41
1
10
27.4190523589852
20
-2.35730526146611
30
0
41
1
10
27.4190523589852
20
-2.21788987621986
30
0
41
1
10
27.4190523589852
20
-2.06712401391772
30
0
0
SPLINE
5
D2
100
AcDbEntity
8
1
62
256
6
ByLayer
370
18
48
1
60
0
100
AcDbSpline
70
4
71
3
72
14
73
10
40
0
40
0
40
0
40
0
40
0.25
40
0.25
40
0.5
40
0.5
40
0.75
40
0.75
40
1
40
1
40
1
40
1
41
1
10
47.7793837758437
20
0.701992064939475
30
0
41
1
10
47.776688419483
20
0.71734117838318
30
0
41
1
10
47.7773806814732
20
0.733346279132775
30
0
41
1
10
47.7883043500096
20
0.762443119156899
30
0
41
1
10
47.7987912819771
20
0.775292797095148
30
0
41
1
10
47.8245752148959
20
0.793463007577429
30
0
41
1
10
47.8396241231639
20
0.799185079145644
30
0
41
1
10
47.8703544620025
20
0.805824439933645
30
0
41
1
10
47.8862004008289
20
0.806814436457046
30
0
41
1
10
47.9019460342864
20
0.806219997629597
30
0
0
SPLINE
5
D3
100
AcDbEntity
8
1
62
256
6
ByLayer
370
18
48
1
60
0
100
AcDbSpline
70
4
71
3
72
10
73
6
40
0
40
0
40
0
40
0
40
0.5
40
0.5
40
1
40
1
40
1
40
1
41
1
10
47.9691352844754
20
3.33134824055938
30
0
41
1
10
47.9380279129228
20
3.35457160733392
30
0
41
1
10
47.9083097977041
20
3.37366020307246
30
0
41
1
10
47.851613079016
20
3.40319494485823
30
0
41
1
10
47.8245516040499
20
3.4136598865627
30
0
41
1
10
47.7990452778174
20
3.41946447067221
30
0
0
SPLINE
5
D4
100
AcDbEntity
8
1
62
256
6
ByLayer
370
18
48
1
60
0
100
AcDbSpline
70
4
71
3
72
8
73
4
40
0
40
0
40
0
40
0
40
1
40
1
40
1
40
1
41
1
10
48.9642593958175
20
-0.0480625837387834
30
0
41
1
10
48.7550156882578
20
-0.390959485441613
30
0
41
1
10
48.5513491731729
20
-0.738918019005411
30
0
41
1
10
48.3533476127558
20
-1.09201783380829
30
0
0
SPLINE
5
D5
100
AcDbEntity
8
1
62
256
6
ByLayer
370
18
48
1
60
0
100
AcDbSpline
70
4
71
3
72
8
73
4
40
0
40
0
40
0
40
0
40
1
40
1
40
1
40
1
41
1
10
47.9171864966247
20
-1.8956768636105
30
0
41
1
10
47.8008625046561
20
-2.1172418637976
30
0
41
1
10
47.6866969069933
20
-2.34076573440848
30
0
41
1
10
47.5747071220742
20
-2.56626428370521
30
0
0
SPLINE
5
D6
100
AcDbEntity
8
1
62
256
6
ByLayer
370
18
48
1
60
0
100
AcDbSpline
70
4
71
3
72
8
73
4
40
0
40
0
40
0
40
0
40
1
40
1
40
1
40
1
41
1
10
48.9894528554725
20
0.117802130845661
30
0
41
1
10
48.9901457256542
20
0.0961085302142237
30
0
41
1
10
48.9941276076368
20
0.0696490829610639
30
0
41
1
10
48.9999520109512
20
0.0417779744978475
30
0
0
SPLINE
5
D7
100
AcDbEntity
8
1
62
256
6
ByLayer
370
18
48
1
60
0
100
AcDbSpline
70
4
71
3
72
38
73
34
40
0
40
0
40
0
40
0
40
0.0624999999999996
40
0.0624999999999996
40
0.124999999999999
40
0.124999999999999
40
0.187499999999999
40
0.187499999999999
40
0.249999999999998
40
0.249999999999998
40
0.312499999999998
40
0.312499999999998
40
0.374999999999998
40
0.374999999999998
40
0.499999999999998
40
0.499999999999998
40
0.531249999999999
40
0.531249999999999
40
0.562499999999999
40
0.562499999999999
40
0.624999999999999
40
0.624999999999999
40
0.6875
40
0.6875
40
0.75
40
0.75
40
0.781249999999999
40
0.781249999999999
40
0.812499999999999
40
0.812499999999999
40
0.874999999999999
40
0.874999999999999
40
1
40
1
40
1
40
1
41
1
10
47.7990452778173
20
-3.41946447067221
30
0
41
1
10
47.3827024780186
20
-3.43019050184634
30
0
41
1
10
46.9666487339287
20
-3.4242298722159
30
0
41
1
10
46.1332077327447
20
-3.37922104409856
30
0
41
1
10
45.7161185894358
20
-3.3401084900681
30
0
41
1
10
44.8842442492677
20
-3.23029675580031
30
0
41
1
10
44.4688220757268
20
-3.15952680436456
30
0
41
1
10
43.6367929551345
20
-2.9878767302433
30
0
41
1
10
43.2192727586848
20
-2.88688762484878
30
0
41
1
10
42.3866386315958
20
-2.65833739129363
30
0
41
1
10
41.9711059610512
20
-2.53085800521833
30
0
41
1
10
41.1394379515803
20
-2.25267818224253
30
0
41
1
10
40.7229258211401
20
-2.10175442476944
30
0
41
1
10
39.471898057924
20
-1.62032913903084
30
0
41
1
10
38.6425149950685
20
-1.26322946088038
30
0
41
1
10
37.600553034121
20
-0.7933314149995
30
0
41
1
10
37.3918073909458
20
-0.698113014969096
30
0
41
1
10
36.9751895636508
20
-0.506561259946722
30
0
41
1
10
36.7671394903155
20
-0.410113988108378
30
0
41
1
10
36.1432324807835
20
-0.119905544674651
30
0
41
1
10
35.7276298444492
20
0.0747459459599611
30
0
41
1
10
34.8950127410189
20
0.461915266271461
30
0
41
1
10
34.4774125014386
20
0.654941317097723
30
0
41
1
10
33.6447529877394
20
1.03147744438266
30
0
41
1
10
33.2290949404418
20
1.21517029659191
30
0
41
1
10
32.6050739303054
20
1.48075010893143
30
0
41
1
10
32.3969820440543
20
1.56762535789042
30
0
41
1
10
31.9803761934954
20
1.73756853821135
30
0
41
1
10
31.7716011197751
20
1.82071435043343
30
0
41
1
10
31.1464504178084
20
2.06273241388357
30
0
41
1
10
30.7312914526775
20
2.21419971651042
30
0
41
1
10
29.4872148798005
20
2.63370943814309
30
0
41
1
10
28.6599641655266
20
2.86720279311433
30
0
41
1
10
27.8263693286296
20
3.04269638659611
30
0
0
SPLINE
5
D8
100
AcDbEntity
8
1
62
256
6
ByLayer
370
18
48
1
60
0
100
AcDbSpline
70
4
71
3
72
24
73
20
40
0
40
0
40
0
40
0
40
0.161351132326383
40
0.161351132326383
40
0.245216019093744
40
0.245216019093744
40
0.329080905861106
40
0.329080905861106
40
0.496810679395829
40
0.496810679395829
40
0.580675566163191
40
0.580675566163191
40
0.664540452930552
40
0.664540452930552
40
0.748405339697914
40
0.748405339697914
40
0.832270226465276
40
0.832270226465276
40
1
40
1
40
1
40
1
41
1
10
26.0065785684189
20
-4.62500080486609
30
0
41
1
10
25.9818564049571
20
-4.62488018737025
30
0
41
1
10
25.9581664351649
20
-4.59504505276794
30
0
41
1
10
25.9210762746288
20
-4.50502227826837
30
0
41
1
10
25.9081026163627
20
-4.46601674678598
30
0
41
1
10
25.8823509515011
20
-4.3723386877258
30
0
41
1
10
25.8697614269667
20
-4.31806849821953
30
0
41
1
10
25.8322701281444
20
-4.13364659129056
30
0
41
1
10
25.8064808895672
20
-3.98215290276104
30
0
41
1
10
25.7682532599293
20
-3.71062382187182
30
0
41
1
10
25.755607213435
20
-3.61342966920174
30
0
41
1
10
25.7302228024665
20
-3.40839848117272
30
0
41
1
10
25.7175233669611
20
-3.30021495427403
30
0
41
1
10
25.6922059756575
20
-3.07260849674094
30
0
41
1
10
25.6796096304068
20
-2.95318428555632
30
0
41
1
10
25.6542222159603
20
-2.7028615381397
30
0
41
1
10
25.6413906887857
20
-2.57146971732038
30
0
41
1
10
25.6031777562691
20
-2.16871962197021
30
0
41
1
10
25.5781856000914
20
-1.88636844636841
30
0
41
1
10
25.5527010713108
20
-1.59032290229879
30
0
0
SPLINE
5
D9
100
AcDbEntity
8
1
62
256
6
ByLayer
370
18
48
1
60
0
100
AcDbSpline
70
4
71
3
72
12
73
8
40
0
40
0
40
0
40
0
40
0.138674618727325
40
0.4235928540836
40
0.754714035971546
40
0.895860040893073
40
1
40
1
40
1
40
1
41
1
10
27.2876353854254
20
3.36492937669436
30
0
41
1
10
27.2952640535193
20
3.35711851906242
30
0
41
1
10
27.3185756180348
20
3.32630375028049
30
0
41
1
10
27.360177321828
20
3.2339782660531
30
0
41
1
10
27.4020455766384
20
3.08746588069792
30
0
41
1
10
27.4341120611747
20
2.94562420585956
30
0
41
1
10
27.4478132079928
20
2.87858308880081
30
0
41
1
10
27.4536421179347
20
2.84893388125417
30
0
0
SPLINE
5
DA
100
AcDbEntity
8
1
62
256
6
ByLayer
370
18
48
1
60
0
100
AcDbSpline
70
4
71
3
72
8
73
4
40
0
40
0
40
0
40
0
40
1
40
1
40
1
40
1
41
1
10
27.4190523589852
20
3.10464601235259
30
0
41
1
10
27.5549400050824
20
3.08574122528191
30
0
41
1
10
27.6906996117447
20
3.06508985667526
30
0
41
1
10
27.8263693286296
20
3.04269638659611
30
0
0
SPLINE
5
DB
100
AcDbEntity
8
1
62
256
6
ByLayer
370
18
48
1
60
0
100
AcDbSpline
70
4
71
3
72
10
73
6
40
0
40
0
40
0
40
0
40
0.5
40
0.5
40
1
40
1
40
1
40
1
41
1
10
47.969135284475
20
-3.33134824055964
30
0
41
1
10
47.9380279129226
20
-3.35457160733412
30
0
41
1
10
47.9083097977039
20
-3.3736602030726
30
0
41
1
10
47.8516130790159
20
-3.40319494485829
30
0
41
1
10
47.8245516040499
20
-3.4136598865627
30
0
41
1
10
47.7990452778174
20
-3.41946447067221
30
0
0
SPLINE
5
DC
100
AcDbEntity
8
1
62
256
6
ByLayer
370
18
48
1
60
0
100
AcDbSpline
70
4
71
3
72
24
73
20
40
0
40
0
40
0
40
0
40
0.124999999999993
40
0.124999999999993
40
0.187499999999991
40
0.187499999999991
40
0.249999999999989
40
0.249999999999989
40
0.37499999999999
40
0.37499999999999
40
0.499999999999992
40
0.499999999999992
40
0.624999999999994
40
0.624999999999994
40
0.749999999999996
40
0.749999999999996
40
0.874999999999998
40
0.874999999999998
40
1
40
1
40
1
40
1
41
1
10
25.5527010713093
20
-1.59032290228151
30
0
41
1
10
25.22290095128
20
-1.39500271021166
30
0
41
1
10
24.8930456029181
20
-1.19479819761554
30
0
41
1
10
24.3973954212431
20
-0.888243532183452
30
0
41
1
10
24.2318695679145
20
-0.785274801034774
30
0
41
1
10
23.8999043357527
20
-0.578239092844825
30
0
41
1
10
23.7333756174209
20
-0.473769945154345
30
0
41
1
10
23.2344336234239
20
-0.159250463988059
30
0
41
1
10
22.9038009104936
20
0.0504119060617825
30
0
41
1
10
22.2440118380344
20
0.46575811446553
30
0
41
1
10
21.9153833039815
20
0.672308478415601
30
0
41
1
10
21.2589437293534
20
1.08042585392391
30
0
41
1
10
20.9304163146573
20
1.28087378763237
30
0
41
1
10
20.272761956203
20
1.67457999908279
30
0
41
1
10
19.9434625917573
20
1.86755260340726
30
0
41
1
10
19.2812873969316
20
2.24167039183288
30
0
41
1
10
18.9482116217545
20
2.42422543015695
30
0
41
1
10
18.2830367675053
20
2.77236588331454
30
0
41
1
10
17.9500936104053
20
2.93746418645623
30
0
41
1
10
17.6171809864689
20
3.09404278252512
30
0
0
SPLINE
5
DD
100
AcDbEntity
8
1
62
256
6
ByLayer
370
18
48
1
60
0
100
AcDbSpline
70
4
71
3
72
22
73
18
40
0
40
0
40
0
40
0
40
0.194510454540365
40
0.194510454540365
40
0.38902090908073
40
0.38902090908073
40
0.583531363621095
40
0.583531363621095
40
0.680786590891278
40
0.680786590891278
40
0.778041818161461
40
0.778041818161461
40
0.875297045431643
40
0.875297045431643
40
0.972552272701826
40
0.972552272701826
40
1
40
1
40
1
40
1
41
1
10
17.6171809864689
20
-3.38356082193007
30
0
41
1
10
17.9751842625112
20
-3.53933085228945
30
0
41
1
10
18.3331838089837
20
-3.6797386110712
30
0
41
1
10
19.0455768363394
20
-3.93498055884501
30
0
41
1
10
19.4001055240516
20
-4.04936044980821
30
0
41
1
10
20.1114047028254
20
-4.24742050424851
30
0
41
1
10
20.4665597577161
20
-4.33230442214676
30
0
41
1
10
21.001471993176
20
-4.43618865550908
30
0
41
1
10
21.1803382235004
20
-4.46683570842143
30
0
41
1
10
21.538863815096
20
-4.52028806846334
30
0
41
1
10
21.7185204489408
20
-4.54313880893633
30
0
41
1
10
22.075995987229
20
-4.58044443827151
30
0
41
1
10
22.2541820701107
20
-4.59494531104991
30
0
41
1
10
22.6103158327401
20
-4.61565750649544
30
0
41
1
10
22.7882055638555
20
-4.62190546273285
30
0
41
1
10
23.0157295912934
20
-4.62472780227174
30
0
41
1
10
23.0657750398705
20
-4.62502273987923
30
0
41
1
10
23.1157945944011
20
-4.62499256819336
30
0
0
SPLINE
5
DE
100
AcDbEntity
8
1
62
256
6
ByLayer
370
18
48
1
60
0
100
AcDbSpline
70
4
71
3
72
16
73
12
40
0
40
0
40
0
40
0
40
0.2740515447098
40
0.2740515447098
40
0.4110773170647
40
0.4110773170647
40
0.5481030894196
40
0.5481030894196
40
0.8221546341294
40
0.8221546341294
40
1
40
1
40
1
40
1
41
1
10
47.5747071220741
20
-2.56626428370515
30
0
41
1
10
47.5744356876737
20
-2.68244057308058
30
0
41
1
10
47.5795212716002
20
-2.78453393972683
30
0
41
1
10
47.5954393255313
20
-2.91688944162766
30
0
41
1
10
47.6021373116624
20
-2.95752453556383
30
0
41
1
10
47.6184914207943
20
-3.03164583555835
30
0
41
1
10
47.6280793152177
20
-3.06475875431445
30
0
41
1
10
47.6608530768865
20
-3.1517774915763
30
0
41
1
10
47.6881064611125
20
-3.19387063898193
30
0
41
1
10
47.7426355417318
20
-3.23760282639907
30
0
41
1
10
47.7666289678266
20
-3.24815346524343
30
0
41
1
10
47.7929895505892
20
-3.25200127681876
30
0
0
SPLINE
5
DF
100
AcDbEntity
8
1
62
256
6
ByLayer
370
18
48
1
60
0
100
AcDbSpline
70
4
71
3
72
17
73
13
40
0
40
0
40
0
40
0
40
0.0532785392344886
40
0.141669882542007
40
0.318466951175838
40
0.440079321835799
40
0.539673409009517
40
0.672656720661733
40
0.805932808051872
40
0.850390326690206
40
0.994852084251075
40
1
40
1
40
1
40
1
41
1
10
26.8910676859856
20
-1.85337082928686
30
0
41
1
10
26.8973768236937
20
-1.90286928279846
30
0
41
1
10
26.9141555232931
20
-2.03225876068481
30
0
41
1
10
26.9518864998298
20
-2.30878824865394
30
0
41
1
10
26.9977091943771
20
-2.60767843471925
30
0
41
1
10
27.04483697506
20
-2.86436019186652
30
0
41
1
10
27.086732600654
20
-3.05634361272851
30
0
41
1
10
27.1299551485939
20
-3.21256649675556
30
0
41
1
10
27.1665611029416
20
-3.30249703128979
30
0
41
1
10
27.2045044607921
20
-3.36504057056922
30
0
41
1
10
27.2273607111058
20
-3.38312374061371
30
0
41
1
10
27.2449890751916
20
-3.38485781849897
30
0
41
1
10
27.2455956591338
20
-3.38490303484136
30
0
0
SPLINE
5
E0
100
AcDbEntity
8
1
62
256
6
ByLayer
370
18
48
1
60
0
100
AcDbSpline
70
4
71
3
72
8
73
4
40
0
40
0
40
0
40
0
40
1
40
1
40
1
40
1
41
1
10
27.8263693286296
20
3.04269638659611
30
0
41
1
10
27.8328840133323
20
2.96118503150444
30
0
41
1
10
27.8395250872217
20
2.8677818618323
30
0
41
1
10
27.8455622315699
20
2.76266603745887
30
0
0
SPLINE
5
E1
100
AcDbEntity
8
1
62
256
6
ByLayer
370
18
48
1
60
0
100
AcDbSpline
70
4
71
3
72
14
73
10
40
0
40
0
40
0
40
0
40
0.39698667292355
40
0.39698667292355
40
0.595480009385326
40
0.595480009385326
40
0.7939733458471
40
0.7939733458471
40
1
40
1
40
1
40
1
41
1
10
27.4190523589852
20
3.10464601235259
30
0
41
1
10
27.4190523589852
20
3.18081177565657
30
0
41
1
10
27.4190523589852
20
3.24191300497972
30
0
41
1
10
27.4190523589852
20
3.31138086333442
30
0
41
1
10
27.4190523589852
20
3.33083756238895
30
0
41
1
10
27.4190523589853
20
3.36223741272434
30
0
41
1
10
27.4190523589853
20
3.37420298825526
30
0
41
1
10
27.4190523589853
20
3.3903786759623
30
0
41
1
10
27.4190523589853
20
3.39431159513424
30
0
41
1
10
27.4190523589853
20
3.39401728257212
30
0
0
SPLINE
5
E2
100
AcDbEntity
8
1
62
256
6
ByLayer
370
18
48
1
60
0
100
AcDbSpline
70
4
71
3
72
20
73
16
40
0
40
0
40
0
40
0
40
0.125000000000001
40
0.125000000000001
40
0.250000000000002
40
0.250000000000002
40
0.375000000000003
40
0.375000000000003
40
0.500000000000003
40
0.500000000000003
40
0.625000000000004
40
0.625000000000004
40
0.750000000000005
40
0.750000000000005
40
1
40
1
40
1
40
1
41
1
10
44.6797015046543
20
0.415844610786593
30
0
41
1
10
44.7287970769079
20
0.236516483780889
30
0
41
1
10
44.7962492927064
20
0.0613551419846772
30
0
41
1
10
44.9621611185218
20
-0.28120082736973
30
0
41
1
10
45.0576484901295
20
-0.44266668846555
30
0
41
1
10
45.2677624033
20
-0.750612453687438
30
0
41
1
10
45.383197998742
20
-0.897713985190563
30
0
41
1
10
45.6235855482971
20
-1.17224314458576
30
0
41
1
10
45.7491280880678
20
-1.30066978798416
30
0
41
1
10
46.0088086508462
20
-1.54332048158406
30
0
41
1
10
46.1429652147185
20
-1.6575138961185
30
0
41
1
10
46.418694552072
20
-1.87364668370609
30
0
41
1
10
46.559928875828
20
-1.97523713118676
30
0
41
1
10
46.9869140562712
20
-2.25944757700432
30
0
41
1
10
47.2780881862184
20
-2.42348222006299
30
0
41
1
10
47.5747071220741
20
-2.56626428370518
30
0
0
SPLINE
5
E3
100
AcDbEntity
8
1
62
256
6
ByLayer
370
18
48
1
60
0
100
AcDbSpline
70
4
71
3
72
8
73
4
40
0
40
0
40
0
40
0
40
1
40
1
40
1
40
1
41
1
10
48.9999520109552
20
0.0417779744851998
30
0
41
1
10
49.0000160002604
20
0.0139242884264661
30
0
41
1
10
49.0000159902216
20
-0.0139286581496378
30
0
41
1
10
48.9999520109553
20
-0.0417779744690563
30
0
0
SPLINE
5
E4
100
AcDbEntity
8
1
62
256
6
ByLayer
370
18
48
1
60
0
100
AcDbSpline
70
4
71
3
72
14
73
10
40
0
40
0
40
0
40
0
40
0.25
40
0.25
40
0.5
40
0.5
40
0.75
40
0.75
40
1
40
1
40
1
40
1
41
1
10
47.8378209502003
20
-3.25235464018272
30
0
41
1
10
47.8411001350234
20
-3.25196662137887
30
0
41
1
10
47.843704195859
20
-3.25333215883043
30
0
41
1
10
47.8471753651216
20
-3.26054533666257
30
0
41
1
10
47.8479846494124
20
-3.2664917112696
30
0
41
1
10
47.8467555208434
20
-3.28369706783718
30
0
41
1
10
47.8446733465543
20
-3.29486249740944
30
0
41
1
10
47.8378909075331
20
-3.31976254418257
30
0
41
1
10
47.8332341119765
20
-3.33337215971807
30
0
41
1
10
47.8280642500268
20
-3.34641214671214
30
0
0
SPLINE
5
E5
100
AcDbEntity
8
1
62
256
6
ByLayer
370
18
48
1
60
0
100
AcDbSpline
70
4
71
3
72
10
73
6
40
0
40
0
40
0
40
0
40
0.5
40
0.5
40
1
40
1
40
1
40
1
41
1
10
47.96913528447
20
-3.33134824057626
30
0
41
1
10
48.129440907101
20
-2.90215714170046
30
0
41
1
10
48.2923107660187
20
-2.47390623677299
30
0
41
1
10
48.6220879770709
20
-1.61890355155103
30
0
41
1
10
48.7890326146936
20
-1.19214144832714
30
0
41
1
10
48.9575563359643
20
-0.766294305071028
30
0
0
SPLINE
5
E6
100
AcDbEntity
8
1
62
256
6
ByLayer
370
18
48
1
60
0
100
AcDbSpline
70
4
71
3
72
8
73
4
40
0
40
0
40
0
40
0
40
1
40
1
40
1
40
1
41
1
10
47.8280642500261
20
-3.34641214671407
30
0
41
1
10
47.818403137445
20
-3.37078045357305
30
0
41
1
10
47.8087298363806
20
-3.39513154747823
30
0
41
1
10
47.7990452778174
20
-3.41946447067221
30
0
0
SPLINE
5
E7
100
AcDbEntity
8
1
62
256
6
ByLayer
370
18
48
1
60
0
100
AcDbSpline
70
4
71
3
72
18
73
14
40
0
40
0
40
0
40
0
40
0.122668037837715
40
0.122668037837715
40
0.245336075675429
40
0.245336075675429
40
0.49067215135086
40
0.49067215135086
40
0.736008227026291
40
0.736008227026291
40
0.981344302701722
40
0.981344302701722
40
1
40
1
40
1
40
1
41
1
10
26.162133516627
20
4.22865181268841
30
0
41
1
10
26.1557308259074
20
4.26078478853267
30
0
41
1
10
26.1493137896288
20
4.29120744973474
30
0
41
1
10
26.1366047416326
20
4.34785887538987
30
0
41
1
10
26.1302950063131
20
4.37418237390801
30
0
41
1
10
26.1114894208922
20
4.4472491443226
30
0
41
1
10
26.0991376769701
20
4.48810336940795
30
0
41
1
10
26.0740992604556
20
4.5542610452699
30
0
41
1
10
26.0613178504092
20
4.57956451677836
30
0
41
1
10
26.0355040095764
20
4.61432176626928
30
0
41
1
10
26.022409101516
20
4.62371707797988
30
0
41
1
10
26.0085350689903
20
4.62496388285794
30
0
41
1
10
26.0075563430413
20
4.62500555440351
30
0
41
1
10
26.0065792295347
20
4.62500080808451
30
0
0
SPLINE
5
E8
100
AcDbEntity
8
1
62
256
6
ByLayer
370
18
48
1
60
0
100
AcDbSpline
70
4
71
3
72
18
73
14
40
0
40
0
40
0
40
0
40
0.0731631710920107
40
0.0731631710920107
40
0.275804232405034
40
0.275804232405034
40
0.681086355031076
40
0.681086355031076
40
0.883727416344096
40
0.883727416344096
40
0.985047947000603
40
0.985047947000603
40
1
40
1
40
1
40
1
41
1
10
35.901393203053
20
-0.006573564893074
30
0
41
1
10
36.0559659502334
20
-0.0771962225424545
30
0
41
1
10
36.2108110884225
20
-0.147958478212274
30
0
41
1
10
36.7933111697653
20
-0.41367875886786
30
0
41
1
10
37.2188718367395
20
-0.606779603136658
30
0
41
1
10
38.4918215695229
20
-1.17197189442291
30
0
41
1
10
39.335200221462
20
-1.53071245262745
30
0
41
1
10
40.6055332952466
20
-2.01466995138563
30
0
41
1
10
41.0297862768429
20
-2.16714825983968
30
0
41
1
10
41.6690965386433
20
-2.37922620408386
30
0
41
1
10
41.8826967355354
20
-2.44712373408666
30
0
41
1
10
42.1285258278719
20
-2.52158075816075
30
0
41
1
10
42.1601369166191
20
-2.53108573624431
30
0
41
1
10
42.1917443638009
20
-2.54051947764427
30
0
0
SPLINE
5
E9
100
AcDbEntity
8
1
62
256
6
ByLayer
370
13
48
1
60
0
100
AcDbSpline
70
4
71
3
72
12
73
8
40
0
40
0
40
0
40
0
40
0.0962931504829411
40
0.0962931504829411
40
0.548146575241471
40
0.548146575241471
40
1
40
1
40
1
40
1
41
1
10
42.1917443637794
20
-2.54051947763787
30
0
41
1
10
42.3743204351684
20
-2.59501218732763
30
0
41
1
10
42.5567750007658
20
-2.64712798795429
30
0
41
1
10
43.592090327502
20
-2.92870042400367
30
0
41
1
10
44.4371242926467
20
-3.10332807555417
30
0
41
1
10
46.1280395360346
20
-3.32354789771995
30
0
41
1
10
46.9737529708189
20
-3.36982786530356
30
0
41
1
10
47.8280642500222
20
-3.34641214671225
30
0
0
SPLINE
5
EA
100
AcDbEntity
8
1
62
256
6
ByLayer
370
18
48
1
60
0
100
AcDbSpline
70
4
71
3
72
8
73
4
40
0
40
0
40
0
40
0
40
1
40
1
40
1
40
1
41
1
10
48.9575563359643
20
-0.766294305071028
30
0
41
1
10
48.9719209611027
20
-0.549939097526931
30
0
41
1
10
48.9825549168716
20
-0.333774948159828
30
0
41
1
10
48.9894528554725
20
-0.117802130845661
30
0
0
SPLINE
5
EB
100
AcDbEntity
8
1
62
256
6
ByLayer
370
18
48
1
60
0
100
AcDbSpline
70
4
71
3
72
44
73
40
40
0
40
0
40
0
40
0
40
0.0147157092292775
40
0.0147157092292775
40
0.0575541566540913
40
0.0575541566540913
40
0.143231051503719
40
0.143231051503719
40
0.186069498928533
40
0.186069498928533
40
0.228907946353346
40
0.228907946353346
40
0.314584841202974
40
0.314584841202974
40
0.400261736052602
40
0.400261736052602
40
0.443100183477415
40
0.443100183477415
40
0.485938630902229
40
0.485938630902229
40
0.528777078327043
40
0.528777078327043
40
0.571615525751857
40
0.571615525751857
40
0.614453973176671
40
0.614453973176671
40
0.657292420601484
40
0.657292420601484
40
0.742969315451112
40
0.742969315451112
40
0.828646210300739
40
0.828646210300739
40
0.871484657725555
40
0.871484657725555
40
0.91432310515037
40
0.91432310515037
40
0.957161552575185
40
0.957161552575185
40
1
40
1
40
1
40
1
41
1
10
40.012198981894
20
-2.25066927030673
30
0
41
1
10
39.9504414979677
20
-2.2704325709241
30
0
41
1
10
39.8886558005829
20
-2.28992324092957
30
0
41
1
10
39.6468487435363
20
-2.36498111389369
30
0
41
1
10
39.4665861271167
20
-2.41864071287273
30
0
41
1
10
38.9262059798422
20
-2.57306991910045
30
0
41
1
10
38.5668645718436
20
-2.66823309178861
30
0
41
1
10
38.0277622897831
20
-2.79488228154659
30
0
41
1
10
37.8481905015737
20
-2.83476789325616
30
0
41
1
10
37.4887244117119
20
-2.90887216599094
30
0
41
1
10
37.3092122796123
20
-2.94326297420122
30
0
41
1
10
36.7695854578573
20
-3.03674181714735
30
0
41
1
10
36.4084943713411
20
-3.08956316842563
30
0
41
1
10
35.6890346827983
20
-3.17390095101803
30
0
41
1
10
35.3297749441346
20
-3.20531187078609
30
0
41
1
10
34.7907610305341
20
-3.23196350302752
30
0
41
1
10
34.6110671359906
20
-3.23681152979344
30
0
41
1
10
34.251697061526
20
-3.24240512246442
30
0
41
1
10
34.0717790751401
20
-3.24283230859288
30
0
41
1
10
33.7116941317339
20
-3.23792545364003
30
0
41
1
10
33.5314331931764
20
-3.23267089256569
30
0
41
1
10
33.1711238291284
20
-3.21652201454657
30
0
41
1
10
32.9914487447913
20
-3.20555039539769
30
0
41
1
10
32.6319456615549
20
-3.17790916059386
30
0
41
1
10
32.4522207176958
20
-3.16113372233937
30
0
41
1
10
32.0931036148906
20
-3.12051044688784
30
0
41
1
10
31.9133790924238
20
-3.09748839374674
30
0
41
1
10
31.3748895198839
20
-3.02062731880832
30
0
41
1
10
31.0154738487276
20
-2.95776685968022
30
0
41
1
10
30.2949443560574
20
-2.81161607648352
30
0
41
1
10
29.9348416396165
20
-2.72920759575337
30
0
41
1
10
29.395703433518
20
-2.59118587622015
30
0
41
1
10
29.2161720655737
20
-2.54272909473946
30
0
41
1
10
28.8569751526843
20
-2.44114274121341
30
0
41
1
10
28.6776697121123
20
-2.38710421231394
30
0
41
1
10
28.3184529904436
20
-2.27552133193132
30
0
41
1
10
28.1386726944134
20
-2.21808206682414
30
0
41
1
10
27.7791418916757
20
-2.09932081826648
30
0
41
1
10
27.5990617031097
20
-2.03846028233423
30
0
41
1
10
27.4190523589852
20
-1.9752570903664
30
0
0
SPLINE
5
EC
100
AcDbEntity
8
1
62
256
6
ByLayer
370
18
48
1
60
0
100
AcDbSpline
70
4
71
3
72
8
73
4
40
0
40
0
40
0
40
0
40
1
40
1
40
1
40
1
41
1
10
48.9575563359643
20
0.766294305071028
30
0
41
1
10
48.9719247515775
20
0.549882006656759
30
0
41
1
10
48.9825567369781
20
0.333717961057204
30
0
41
1
10
48.9894528554725
20
0.117802130845689
30
0
0
SPLINE
5
ED
100
AcDbEntity
8
1
62
256
6
ByLayer
370
18
48
1
60
0
100
AcDbSpline
70
4
71
3
72
38
73
34
40
0
40
0
40
0
40
0
40
0.124999999999985
40
0.124999999999985
40
0.24999999999997
40
0.24999999999997
40
0.312499999999959
40
0.312499999999959
40
0.374999999999948
40
0.374999999999948
40
0.406249999999945
40
0.406249999999945
40
0.437499999999942
40
0.437499999999942
40
0.468749999999939
40
0.468749999999939
40
0.48437499999994
40
0.48437499999994
40
0.49999999999994
40
0.49999999999994
40
0.531249999999947
40
0.531249999999947
40
0.562499999999955
40
0.562499999999955
40
0.624999999999961
40
0.624999999999961
40
0.687499999999967
40
0.687499999999967
40
0.749999999999974
40
0.749999999999974
40
0.874999999999987
40
0.874999999999987
40
1
40
1
40
1
40
1
41
1
10
47.9171864966247
20
-1.8956768636105
30
0
41
1
10
47.7814443892446
20
-1.85724610115616
30
0
41
1
10
47.6456098436128
20
-1.80624065731877
30
0
41
1
10
47.3766097791892
20
-1.67881508044931
30
0
41
1
10
47.2452750431876
20
-1.60371715957058
30
0
41
1
10
47.0552669845557
20
-1.46591366491495
30
0
41
1
10
46.9931720926417
20
-1.41569585388734
30
0
41
1
10
46.8755440839576
20
-1.30435687536621
30
0
41
1
10
46.8196148449503
20
-1.24332969124865
30
0
41
1
10
46.7485635863773
20
-1.13946036536149
30
0
41
1
10
46.7267420592929
20
-1.1021261462339
30
0
41
1
10
46.6927809204117
20
-1.02350451434413
30
0
41
1
10
46.680623116956
20
-0.98199086932388
30
0
41
1
10
46.6746831351331
20
-0.899397097927732
30
0
41
1
10
46.6818576616564
20
-0.859737751418379
30
0
41
1
10
46.7053230848096
20
-0.811120732614683
30
0
41
1
10
46.7152240580584
20
-0.796393872642142
30
0
41
1
10
46.7373358925173
20
-0.770611698452967
30
0
41
1
10
46.7496011472736
20
-0.759374909959519
30
0
41
1
10
46.7891383918189
20
-0.729414719170848
30
0
41
1
10
46.8185627167385
20
-0.714802917673978
30
0
41
1
10
46.8795082620751
20
-0.692432787960513
30
0
41
1
10
46.9115459754522
20
-0.684562784437418
30
0
41
1
10
47.0090374070683
20
-0.668028861554376
30
0
41
1
10
47.0755878044112
20
-0.66609817634469
30
0
41
1
10
47.2103981739263
20
-0.672225392054997
30
0
41
1
10
47.2790078690527
20
-0.680591154592776
30
0
41
1
10
47.4154935235698
20
-0.704531629148278
30
0
41
1
10
47.4834975141274
20
-0.720118956528637
30
0
41
1
10
47.6869384173627
20
-0.775529550812848
30
0
41
1
10
47.8218198590373
20
-0.823765212713852
30
0
41
1
10
48.0902104871663
20
-0.941018814755864
30
0
41
1
10
48.2241021865631
20
-1.01019589071598
30
0
41
1
10
48.3533476127557
20
-1.09201783380993
30
0
0
SPLINE
5
EE
100
AcDbEntity
8
1
62
256
6
ByLayer
370
18
48
1
60
0
100
AcDbSpline
70
4
71
3
72
58
73
54
40
0
40
0
40
0
40
0
40
0.0683269893860037
40
0.0683269893860037
40
0.102490484079007
40
0.102490484079007
40
0.136653978772009
40
0.136653978772009
40
0.170817473465012
40
0.170817473465012
40
0.204980968158015
40
0.204980968158015
40
0.239144462851018
40
0.239144462851018
40
0.27330795754402
40
0.27330795754402
40
0.341634946930026
40
0.341634946930026
40
0.37579844162303
40
0.37579844162303
40
0.409961936316033
40
0.409961936316033
40
0.444125431009037
40
0.444125431009037
40
0.478288925702041
40
0.478288925702041
40
0.512452420395044
40
0.512452420395044
40
0.546615915088048
40
0.546615915088048
40
0.580779409781052
40
0.580779409781052
40
0.614942904474055
40
0.614942904474055
40
0.649106399167059
40
0.649106399167059
40
0.683269893860063
40
0.683269893860063
40
0.717433388553066
40
0.717433388553066
40
0.75159688324607
40
0.75159688324607
40
0.785760377939074
40
0.785760377939074
40
0.819923872632077
40
0.819923872632077
40
0.888250862018085
40
0.888250862018085
40
0.956577851404092
40
0.956577851404092
40
0.990741346097097
40
0.990741346097097
40
1
40
1
40
1
40
1
41
1
10
27.8455622315559
20
2.76266603745853
30
0
41
1
10
28.2669861880073
20
2.64718183309503
30
0
41
1
10
28.688168362981
20
2.51936666887548
30
0
41
1
10
29.3187775166146
20
2.30815102801162
30
0
41
1
10
29.5289556102451
20
2.23471175874661
30
0
41
1
10
29.9501188253161
20
2.08322131866586
30
0
41
1
10
30.1609282068601
20
2.00490311703157
30
0
41
1
10
30.5825852522875
20
1.84227887674726
30
0
41
1
10
30.793374632964
20
1.75823826550564
30
0
41
1
10
31.2146385750621
20
1.58718129107345
30
0
41
1
10
31.4253246417286
20
1.50016633492115
30
0
41
1
10
31.8460155844747
20
1.32164871508397
30
0
41
1
10
32.0560868775028
20
1.23025748722071
30
0
41
1
10
32.4765412331844
20
1.04490695043324
30
0
41
1
10
32.6871247079061
20
0.951370618621468
30
0
41
1
10
33.3193274171299
20
0.6669542046603
30
0
41
1
10
33.7409542118372
20
0.470541719877019
30
0
41
1
10
34.3727181464423
20
0.177907540984847
30
0
41
1
10
34.5830613328716
20
0.0798746373136225
30
0
41
1
10
35.0034094015969
20
-0.11683994798085
30
0
41
1
10
35.2134925126439
20
-0.215352676963818
30
0
41
1
10
35.6344532758154
20
-0.410585025148208
30
0
41
1
10
35.8452185228822
20
-0.507547339798293
30
0
41
1
10
36.2666832878612
20
-0.701531740573245
30
0
41
1
10
36.4775533025476
20
-0.798251569787396
30
0
41
1
10
36.8979530620766
20
-0.987861099444331
30
0
41
1
10
37.1078798616954
20
-1.08074239036895
30
0
41
1
10
37.526547379826
20
-1.26415320811145
30
0
41
1
10
37.7352522383373
20
-1.35473111644694
30
0
41
1
10
38.1522152272088
20
-1.53193208962884
30
0
41
1
10
38.3606556301197
20
-1.61820390844278
30
0
41
1
10
38.7773434426404
20
-1.78642108240155
30
0
41
1
10
38.9853526340784
20
-1.86881036384963
30
0
41
1
10
39.4012412909993
20
-2.02907064051522
30
0
41
1
10
39.6091891313146
20
-2.10681504991518
30
0
41
1
10
40.025803931243
20
-2.25634992940002
30
0
41
1
10
40.2342701583958
20
-2.32849910672272
30
0
41
1
10
40.6512605562713
20
-2.46789345215052
30
0
41
1
10
40.8598919311483
20
-2.53494458860715
30
0
41
1
10
41.2784312386597
20
-2.66220334605899
30
0
41
1
10
41.4883338774598
20
-2.72245240285741
30
0
41
1
10
41.9086667777302
20
-2.83715865700737
30
0
41
1
10
42.1196131051641
20
-2.89155559786047
30
0
41
1
10
42.540521404328
20
-2.99244414707971
30
0
41
1
10
42.7506580599398
20
-3.03877844142156
30
0
41
1
10
43.3794794657861
20
-3.16652835813491
30
0
41
1
10
43.7959969272857
20
-3.23692118961264
30
0
41
1
10
44.629431316514
20
-3.34418957016447
30
0
41
1
10
45.0445556639061
20
-3.38219153628799
30
0
41
1
10
45.6687971911621
20
-3.41402826365047
30
0
41
1
10
45.8771182424275
20
-3.42052950955574
30
0
41
1
10
46.1417917625494
20
-3.4235558657335
30
0
41
1
10
46.1982307108635
20
-3.42389437750157
30
0
41
1
10
46.2546830905378
20
-3.42392593226569
30
0
0
SPLINE
5
EF
100
AcDbEntity
8
1
62
256
6
ByLayer
370
18
48
1
60
0
100
AcDbSpline
70
4
71
3
72
43
73
39
40
0
40
0
40
0
40
0
40
0.0485019426067649
40
0.0485019426067649
40
0.108812667641711
40
0.108812667641711
40
0.169123392676656
40
0.169123392676656
40
0.289744842746547
40
0.289744842746547
40
0.410366292816438
40
0.410366292816438
40
0.470677017851383
40
0.470677017851383
40
0.500832380368856
40
0.500832380368856
40
0.508371220998224
40
0.512140641312908
40
0.512140641312908
40
0.515910061627592
40
0.515910061627592
40
0.519679481942277
40
0.519679481942277
40
0.523448902256961
40
0.523448902256961
40
0.530987742886329
40
0.530987742886329
40
0.591298467921274
40
0.591298467921274
40
0.65160919295622
40
0.65160919295622
40
0.772230643026111
40
0.772230643026111
40
0.832541368061056
40
0.832541368061056
40
0.892852093096002
40
0.892852093096002
40
1
40
1
40
1
40
1
41
1
10
17.6171809864689
20
3.38356082191851
30
0
41
1
10
17.6171809864689
20
3.2723880499058
30
0
41
1
10
17.6171809864689
20
3.16391141395164
30
0
41
1
10
17.6171809864689
20
2.92632526590026
30
0
41
1
10
17.6171809864689
20
2.79865123339491
30
0
41
1
10
17.6171809864689
20
2.55115414286897
30
0
41
1
10
17.6171809864689
20
2.43095478997435
30
0
41
1
10
17.6171809864689
20
2.08756490495904
30
0
41
1
10
17.6171809864689
20
1.87976851641187
30
0
41
1
10
17.6171809864689
20
1.50255807259458
30
0
41
1
10
17.6171809864689
20
1.33317481907042
30
0
41
1
10
17.6171809864689
20
1.10734000946187
30
0
41
1
10
17.6171809864689
20
1.03685250383782
30
0
41
1
10
17.6171809864689
20
0.939144631818976
30
0
41
1
10
17.6171809864689
20
0.907865404149163
30
0
41
1
10
17.6171809864689
20
0.87037978198012
30
0
41
1
10
17.6171809864689
20
0.859256945353366
30
0
41
1
10
17.6171809864689
20
0.8483179656846
30
0
41
1
10
17.6171809864689
20
0.841066128442691
30
0
41
1
10
17.6171809864689
20
0.837100606868148
30
0
41
1
10
17.6171809864689
20
0.830850512972972
30
0
41
1
10
17.6171809864689
20
0.829373075855216
30
0
41
1
10
17.6171809864689
20
0.829687656024305
30
0
41
1
10
17.6171809864689
20
0.831951774079585
30
0
41
1
10
17.6171809864689
20
0.84106940635229
30
0
41
1
10
17.6171809864689
20
0.847242340021069
30
0
41
1
10
17.6171809864689
20
0.903652867923768
30
0
41
1
10
17.6171809864689
20
0.959736503770699
30
0
41
1
10
17.6171809864689
20
1.08404511128467
30
0
41
1
10
17.6171809864689
20
1.15248481147745
30
0
41
1
10
17.6171809864689
20
1.37476343477883
30
0
41
1
10
17.6171809864689
20
1.54560169335076
30
0
41
1
10
17.6171809864689
20
1.83834196463599
30
0
41
1
10
17.6171809864689
20
1.94203620829933
30
0
41
1
10
17.6171809864689
20
2.16258781690934
30
0
41
1
10
17.6171809864689
20
2.2778996562968
30
0
41
1
10
17.6171809864689
20
2.61195539608252
30
0
41
1
10
17.6171809864689
20
2.84145297394079
30
0
41
1
10
17.6171809864689
20
3.08824921165805
30
0
0
SPLINE
5
F0
100
AcDbEntity
8
1
62
256
6
ByLayer
370
18
48
1
60
0
100
AcDbSpline
70
4
71
3
72
8
73
4
40
0
40
0
40
0
40
0
40
1
40
1
40
1
40
1
41
1
10
27.4190523589754
20
-2.06712401391738
30
0
41
1
10
27.2432423344143
20
-1.99700667406697
30
0
41
1
10
27.0672978134252
20
-1.92566026361629
30
0
41
1
10
26.8910676859856
20
-1.85337082928686
30
0
0
SPLINE
5
F1
100
AcDbEntity
8
1
62
256
6
ByLayer
370
18
48
1
60
0
100
AcDbSpline
70
4
71
3
72
8
73
4
40
0
40
0
40
0
40
0
40
1
40
1
40
1
40
1
41
1
10
27.4190523589852
20
-2.06712401392153
30
0
41
1
10
27.4190523589852
20
-2.03721048934887
30
0
41
1
10
27.4190523589853
20
-2.00652354944913
30
0
41
1
10
27.4190523589853
20
-1.9752570903664
30
0
0
SPLINE
5
F2
100
AcDbEntity
8
1
62
256
6
ByLayer
370
18
48
1
60
0
100
AcDbSpline
70
4
71
3
72
10
73
6
40
0
40
0
40
0
40
0
40
0.5
40
0.5
40
1
40
1
40
1
40
1
41
1
10
47.9691352844715
20
3.33134824057242
30
0
41
1
10
48.1294847199906
20
2.90203984012416
30
0
41
1
10
48.2923593257225
20
2.4737796288197
30
0
41
1
10
48.6220986045255
20
1.61887670700418
30
0
41
1
10
48.7890072833474
20
1.19220545879006
30
0
41
1
10
48.9575563359643
20
0.766294305071057
30
0
0
SPLINE
5
F3
100
AcDbEntity
8
1
62
256
6
ByLayer
370
18
48
1
60
0
100
AcDbSpline
70
4
71
3
72
10
73
6
40
0
40
0
40
0
40
0
40
0.5
40
0.5
40
1
40
1
40
1
40
1
41
1
10
27.4536421179347
20
2.84893388125423
30
0
41
1
10
27.2377906652814
20
3.07765784274341
30
0
41
1
10
27.022278619198
20
3.30713807065635
30
0
41
1
10
26.5916816331418
20
3.76739857936707
30
0
41
1
10
26.3767607308652
20
3.99815054490131
30
0
41
1
10
26.1621335166271
20
4.22865181268838
30
0
0
SPLINE
5
F4
100
AcDbEntity
8
1
62
256
6
ByLayer
370
18
48
1
60
0
100
AcDbSpline
70
4
71
3
72
26
73
22
40
0
40
0
40
0
40
0
40
0.0625000000000037
40
0.0625000000000037
40
0.125000000000007
40
0.125000000000007
40
0.187500000000011
40
0.187500000000011
40
0.250000000000015
40
0.250000000000015
40
0.375000000000012
40
0.375000000000012
40
0.50000000000001
40
0.50000000000001
40
0.625000000000007
40
0.625000000000007
40
0.750000000000005
40
0.750000000000005
40
0.875000000000002
40
0.875000000000002
40
1
40
1
40
1
40
1
41
1
10
48.353347612755
20
-1.09201783380951
30
0
41
1
10
48.3506166828909
20
-1.11463842606565
30
0
41
1
10
48.3467295656361
20
-1.13917370143829
30
0
41
1
10
48.3369636030732
20
-1.18972960335063
30
0
41
1
10
48.3310985087938
20
-1.21582394473199
30
0
41
1
10
48.3174395601792
20
-1.26963750543806
30
0
41
1
10
48.3095712928589
20
-1.29755722869365
30
0
41
1
10
48.292553939815
20
-1.3528318711144
30
0
41
1
10
48.2833531566516
20
-1.38042807392284
30
0
41
1
10
48.2537832515587
20
-1.46310985201114
30
0
41
1
10
48.2320111798353
20
-1.51649567132611
30
0
41
1
10
48.1864104769086
20
-1.61663403292309
30
0
41
1
10
48.1631110117969
20
-1.66228788208281
30
0
41
1
10
48.1164745786615
20
-1.7442231763149
30
0
41
1
10
48.0932008922811
20
-1.78023969767963
30
0
41
1
10
48.0495333267892
20
-1.83894500908482
30
0
41
1
10
48.0287887887568
20
-1.86226429495369
30
0
41
1
10
47.9898681603988
20
-1.89613550669003
30
0
41
1
10
47.9723742264724
20
-1.90612890166545
30
0
41
1
10
47.9412393518758
20
-1.91201418359847
30
0
41
1
10
47.9277512915438
20
-1.90761933298924
30
0
41
1
10
47.9171864966246
20
-1.89567686361059
30
0
0
SPLINE
5
F5
100
AcDbEntity
8
1
62
256
6
ByLayer
370
18
48
1
60
0
100
AcDbSpline
70
4
71
3
72
10
73
6
40
0
40
0
40
0
40
0
40
0.5
40
0.5
40
1
40
1
40
1
40
1
41
1
10
48.9999520109616
20
0.0417779745048108
30
0
41
1
10
48.9962231926435
20
0.0264353444451899
30
0
41
1
10
48.9911239529888
20
0.0099868096031059
30
0
41
1
10
48.9788256057086
20
-0.0212436123879343
30
0
41
1
10
48.9715895109423
20
-0.0360504004586346
30
0
41
1
10
48.9642593958175
20
-0.0480625837387549
30
0
0
SPLINE
5
F6
100
AcDbEntity
8
1
62
256
6
ByLayer
370
18
48
1
60
0
100
AcDbSpline
70
4
71
3
72
28
73
24
40
0
40
0
40
0
40
0
40
0.0520194981536832
40
0.0520194981536832
40
0.131017873307541
40
0.131017873307541
40
0.210016248461398
40
0.210016248461398
40
0.289014623615256
40
0.289014623615256
40
0.368012998769113
40
0.368012998769113
40
0.526009749076833
40
0.526009749076833
40
0.684006499384552
40
0.684006499384552
40
0.763004874538414
40
0.763004874538414
40
0.842003249692276
40
0.842003249692276
40
0.921001624846138
40
0.921001624846138
40
1
40
1
40
1
40
1
41
1
10
40.0309652342605
20
2.25727489350695
30
0
41
1
10
40.168194661625
20
2.30534354164374
30
0
41
1
10
40.3054737283019
20
2.35230151337228
30
0
41
1
10
40.651260556277
20
2.4678934521524
30
0
41
1
10
40.8598919311539
20
2.53494458860894
30
0
41
1
10
41.278431238665
20
2.66220334606055
30
0
41
1
10
41.488333877465
20
2.72245240285889
30
0
41
1
10
41.9086667777352
20
2.83715865700867
30
0
41
1
10
42.1196131051689
20
2.8915555978617
30
0
41
1
10
42.5405214043325
20
2.99244414708073
30
0
41
1
10
42.7506580599442
20
3.03877844142249
30
0
41
1
10
43.37947946579
20
3.16652835813562
30
0
41
1
10
43.7959969272894
20
3.23692118961321
30
0
41
1
10
44.6294313165171
20
3.34418957016479
30
0
41
1
10
45.0445556639089
20
3.38219153628822
30
0
41
1
10
45.6687971911645
20
3.41402826365058
30
0
41
1
10
45.8771182424298
20
3.42052950955579
30
0
41
1
10
46.2935956712278
20
3.42529163702116
30
0
41
1
10
46.5018907884691
20
3.42349577379738
30
0
41
1
10
46.9195271505436
20
3.41153247636342
30
0
41
1
10
47.1289648135312
20
3.40142893594677
30
0
41
1
10
47.5484669209155
20
3.37279028264595
30
0
41
1
10
47.7584694773047
20
3.35418623197342
30
0
41
1
10
47.9691352844733
20
3.33134824055875
30
0
0
SPLINE
5
F7
100
AcDbEntity
8
1
62
256
6
ByLayer
370
18
48
1
60
0
100
AcDbSpline
70
4
71
3
72
35
73
31
40
0
40
0
40
0
40
0
40
0.124999999999996
40
0.124999999999996
40
0.249999999999992
40
0.249999999999992
40
0.31249999999999
40
0.31249999999999
40
0.374999999999988
40
0.374999999999988
40
0.499999999999991
40
0.499999999999991
40
0.624999999999994
40
0.624999999999994
40
0.749999999999997
40
0.749999999999997
40
0.875000000000001
40
0.875000000000001
40
0.890625
40
0.890625
40
0.898437499999999
40
0.898437499999999
40
0.906249999999999
40
0.906249999999999
40
0.914062499999998
40
0.914062499999998
40
0.921874999999998
40
0.937499999999998
40
0.937499999999998
40
1
40
1
40
1
40
1
41
1
10
44.6797015046543
20
0.415844610786593
30
0
41
1
10
44.8272838279211
20
0.335231891074898
30
0
41
1
10
44.9762624251948
20
0.262480299589299
30
0
41
1
10
45.2768727724354
20
0.131914566875935
30
0
41
1
10
45.4285978001294
20
0.0746255863045064
30
0
41
1
10
45.6585013355306
20
0.001731335984033
30
0
41
1
10
45.7355195866051
20
-0.0204062663300419
30
0
41
1
10
45.890381512422
20
-0.0600342733003743
30
0
41
1
10
45.9682196704081
20
-0.077537434644313
30
0
41
1
10
46.2000149265696
20
-0.121611349485704
30
0
41
1
10
46.3531375281437
20
-0.13933391292116
30
0
41
1
10
46.6565244274117
20
-0.151101371914507
30
0
41
1
10
46.8070202799296
20
-0.144756084263037
30
0
41
1
10
47.1032603050948
20
-0.102380209562284
30
0
41
1
10
47.2475626322495
20
-0.0667077686778441
30
0
41
1
10
47.5231296502744
20
0.0373891759425078
30
0
41
1
10
47.6542790106872
20
0.106579766646718
30
0
41
1
10
47.7903874201903
20
0.203961498388367
30
0
41
1
10
47.8053567907933
20
0.215047140810668
30
0
41
1
10
47.8275609798408
20
0.232061281344869
30
0
41
1
10
47.8347955370148
20
0.238480607316632
30
0
41
1
10
47.8435783524347
20
0.256708994230621
30
0
41
1
10
47.8449601692244
20
0.268177040842829
30
0
41
1
10
47.8428184767577
20
0.291507590698501
30
0
41
1
10
47.8408127505742
20
0.303269732271048
30
0
41
1
10
47.8377126742277
20
0.326712593679815
30
0
41
1
10
47.8329845904248
20
0.361879940536994
30
0
41
1
10
47.8280272456989
20
0.397058531431043
30
0
41
1
10
47.8110177772664
20
0.51432167137645
30
0
41
1
10
47.7958595513863
20
0.608168275417114
30
0
41
1
10
47.7793837758437
20
0.701992064939446
30
0
0
SPLINE
5
F8
100
AcDbEntity
8
1
62
256
6
ByLayer
370
18
48
1
60
0
100
AcDbSpline
70
4
71
3
72
20
73
16
40
0
40
0
40
0
40
0
40
0.192836151355589
40
0.192836151355589
40
0.385672302711177
40
0.385672302711177
40
0.578508454066766
40
0.578508454066766
40
0.771344605422354
40
0.771344605422354
40
0.867762681100149
40
0.867762681100149
40
0.964180756777943
40
0.964180756777943
40
1
40
1
40
1
40
1
41
1
10
17.6171809864689
20
3.09404278252512
30
0
41
1
10
17.2355870301018
20
3.26905671990917
30
0
41
1
10
16.8586354046616
20
3.43569764290538
30
0
41
1
10
16.1078218968713
20
3.74274554762943
30
0
41
1
10
15.7328737575238
20
3.88352654420561
30
0
41
1
10
14.9890514099149
20
4.13007940539052
30
0
41
1
10
14.6196694825975
20
4.23621342604542
30
0
41
1
10
13.8827914439136
20
4.41184808499375
30
0
41
1
10
13.5152907937475
20
4.48143357990193
30
0
41
1
10
12.9646655204859
20
4.5567984463712
30
0
41
1
10
12.7812446842211
20
4.57707845147692
30
0
41
1
10
12.4147332765859
20
4.60745564847298
30
0
41
1
10
12.2312408643387
20
4.61755890660319
30
0
41
1
10
11.9817955843631
20
4.62385388283622
30
0
41
1
10
11.9144292483711
20
4.62481624459483
30
0
41
1
10
11.8472888670853
20
4.62500418716661
30
0
0
SPLINE
5
F9
100
AcDbEntity
8
1
62
256
6
ByLayer
370
18
48
1
60
0
100
AcDbSpline
70
4
71
3
72
8
73
4
40
0
40
0
40
0
40
0
40
1
40
1
40
1
40
1
41
1
10
17.2470762747257
20
3.25739904032301
30
0
41
1
10
17.3707444610625
20
3.29952312446645
30
0
41
1
10
17.4940992125781
20
3.34163186164295
30
0
41
1
10
17.6171809864689
20
3.38356082193007
30
0
0
SPLINE
5
FA
100
AcDbEntity
8
1
62
256
6
ByLayer
370
18
48
1
60
0
100
AcDbSpline
70
4
71
3
72
8
73
4
40
0
40
0
40
0
40
0
40
1
40
1
40
1
40
1
41
1
10
48.9894528554725
20
-0.117802130845575
30
0
41
1
10
48.9901457256545
20
-0.0961085302056119
30
0
41
1
10
48.9941276076398
20
-0.0696490829403729
30
0
41
1
10
48.9999520109582
20
-0.0417779744649636
30
0
0
SPLINE
5
FB
100
AcDbEntity
8
1
62
256
6
ByLayer
370
18
48
1
60
0
100
AcDbSpline
70
4
71
3
72
36
73
32
40
0
40
0
40
0
40
0
40
0.0288032041657393
40
0.0288032041657393
40
0.0799188249991231
40
0.0799188249991231
40
0.182150066665887
40
0.182150066665887
40
0.233265687499271
40
0.233265687499271
40
0.284381308332655
40
0.284381308332655
40
0.335496929166038
40
0.335496929166038
40
0.386612549999422
40
0.386612549999422
40
0.488843791666186
40
0.488843791666186
40
0.59107503333295
40
0.59107503333295
40
0.693306274999714
40
0.693306274999714
40
0.744421895833096
40
0.744421895833096
40
0.795537516666479
40
0.795537516666479
40
0.897768758333239
40
0.897768758333239
40
0.94888437916662
40
0.94888437916662
40
1
40
1
40
1
40
1
41
1
10
34.1272424150687
20
3.24198758280113
30
0
41
1
10
34.2285440660794
20
3.24200888048534
30
0
41
1
10
34.3298043862084
20
3.24118759872391
30
0
41
1
10
34.6105936451649
20
3.23682205600105
30
0
41
1
10
34.7902252146549
20
3.23198283805863
30
0
41
1
10
35.3292461917794
20
3.20535230014789
30
0
41
1
10
35.6887244366649
20
3.17393890683673
30
0
41
1
10
36.2289086527119
20
3.11061409071286
30
0
41
1
10
36.4093381287397
20
3.08689035135728
30
0
41
1
10
36.7692925411427
20
3.0342381178103
30
0
41
1
10
36.9492635389329
20
3.00561316711551
30
0
41
1
10
37.3087897695721
20
2.94333941236849
30
0
41
1
10
37.4882402116558
20
2.90896700240228
30
0
41
1
10
37.8476873327841
20
2.83487659019505
30
0
41
1
10
38.0272977390148
20
2.79498798763541
30
0
41
1
10
38.5666485285353
20
2.66829069309927
30
0
41
1
10
38.9266689293246
20
2.57294771691673
30
0
41
1
10
39.6474234718608
20
2.36695111264342
30
0
41
1
10
40.0069123258348
20
2.2551011431845
30
0
41
1
10
40.7252408750324
20
2.01400330817026
30
0
41
1
10
41.0847549251234
20
1.88651565061835
30
0
41
1
10
41.6241954307454
20
1.68550872778565
30
0
41
1
10
41.8039234046507
20
1.61672027547209
30
0
41
1
10
42.164282906338
20
1.47713263380044
30
0
41
1
10
42.3444283358698
20
1.40546981477121
30
0
41
1
10
42.8841265554432
20
1.18723592701366
30
0
41
1
10
43.2430166666593
20
1.03639914422382
30
0
41
1
10
43.7816907260336
20
0.806720161080136
30
0
41
1
10
43.961224352253
20
0.729406687081877
30
0
41
1
10
44.3204694897337
20
0.573914327545509
30
0
41
1
10
44.4999607830382
20
0.495134313880982
30
0
41
1
10
44.6797015046543
20
0.415844610786593
30
0
0
SPLINE
5
FC
100
AcDbEntity
8
1
62
256
6
ByLayer
370
18
48
1
60
0
100
AcDbSpline
70
4
71
3
72
75
73
71
40
0
40
0
40
0
40
0
40
0.0429245070739996
40
0.0429245070739996
40
0.106729539935726
40
0.106729539935726
40
0.170534572797452
40
0.170534572797452
40
0.234339605659178
40
0.234339605659178
40
0.26624212209004
40
0.26624212209004
40
0.298144638520903
40
0.298144638520903
40
0.361949671382628
40
0.361949671382628
40
0.39385218781349
40
0.39385218781349
40
0.425754704244352
40
0.425754704244352
40
0.441705962459783
40
0.441705962459783
40
0.457657220675214
40
0.457657220675214
40
0.489559737106076
40
0.489559737106076
40
0.505510995321506
40
0.505510995321506
40
0.513486624429222
40
0.513486624429222
40
0.521462253536937
40
0.521462253536937
40
0.537413511752368
40
0.537413511752368
40
0.553364769967798
40
0.553364769967798
40
0.561340399075513
40
0.561340399075513
40
0.569316028183229
40
0.569316028183229
40
0.58526728639866
40
0.58526728639866
40
0.60121854461409
40
0.60121854461409
40
0.617169802829521
40
0.617169802829521
40
0.649072319260383
40
0.649072319260383
40
0.657047948368098
40
0.661035762921956
40
0.661035762921956
40
0.663029670198885
40
0.663029670198885
40
0.665023577475814
40
0.665023577475814
40
0.667017484752744
40
0.667017484752744
40
0.669011392029673
40
0.669011392029673
40
0.672999206583532
40
0.672999206583532
40
0.68097483569125
40
0.68097483569125
40
0.744779868553
40
0.744779868553
40
0.8723899342765
40
0.8723899342765
40
0.93619496713825
40
0.93619496713825
40
1
40
1
40
1
40
1
41
1
10
17.2439281863079
20
-3.26300900890618
30
0
41
1
10
16.9890337558932
20
-3.3767201471565
30
0
41
1
10
16.7357816099997
20
-3.48593914741605
30
0
41
1
10
16.1078218968714
20
-3.74274554762937
30
0
41
1
10
15.7328737575239
20
-3.88352654420555
30
0
41
1
10
14.989051409915
20
-4.13007940539046
30
0
41
1
10
14.6196694825978
20
-4.23621342604537
30
0
41
1
10
13.882791443914
20
-4.41184808499369
30
0
41
1
10
13.5152907937478
20
-4.48143357990188
30
0
41
1
10
12.9646655204863
20
-4.55679844637118
30
0
41
1
10
12.7812446842214
20
-4.57707845147692
30
0
41
1
10
12.4147332765863
20
-4.60745564847295
30
0
41
1
10
12.2312408643391
20
-4.61755890660319
30
0
41
1
10
11.6856074361453
20
-4.63132845743519
30
0
41
1
10
11.3276813112714
20
-4.61898058551245
30
0
41
1
10
10.8053454974622
20
-4.56075858969538
30
0
41
1
10
10.6337060712024
20
-4.53466793107395
30
0
41
1
10
10.2975388939574
20
-4.46608676817783
30
0
41
1
10
10.1332196288327
20
-4.4236031976734
30
0
41
1
10
9.89860150027829
20
-4.34478200354769
30
0
41
1
10
9.82226056413987
20
-4.31594977860578
30
0
41
1
10
9.67429618320995
20
-4.25219660168378
30
0
41
1
10
9.60253788097856
20
-4.21716951766774
30
0
41
1
10
9.39927594454474
20
-4.10252432665393
30
0
41
1
10
9.27827433722356
20
-4.01349133283927
30
0
41
1
10
9.13507497504952
20
-3.85005154805054
30
0
41
1
10
9.09383101698046
20
-3.78999760260157
30
0
41
1
10
9.04772196098293
20
-3.69383065453894
30
0
41
1
10
9.03486770919
20
-3.66065490593704
30
0
41
1
10
9.01479068898632
20
-3.59186296419705
30
0
41
1
10
9.00756034745018
20
-3.55606377901211
30
0
41
1
10
8.99564797910307
20
-3.44586562081517
30
0
41
1
10
9.00077604986336
20
-3.37014101025315
30
0
41
1
10
9.03797205658043
20
-3.21462019204088
30
0
41
1
10
9.0706955751277
20
-3.13426450253044
30
0
41
1
10
9.13637758710931
20
-3.01751584293189
30
0
41
1
10
9.16106159583282
20
-2.97896557510512
30
0
41
1
10
9.21553132204596
20
-2.90258748895738
30
0
41
1
10
9.24547972889047
20
-2.8645941511775
30
0
41
1
10
9.34074709230279
20
-2.75361119039366
30
0
41
1
10
9.41162615210729
20
-2.68316848315021
30
0
41
1
10
9.56457990841392
20
-2.54797759673568
30
0
41
1
10
9.64691618465699
20
-2.48307390066097
30
0
41
1
10
9.81959996376025
20
-2.35880993647638
30
0
41
1
10
9.90899037366447
20
-2.30010917575515
30
0
41
1
10
10.1842513734937
20
-2.13224441013688
30
0
41
1
10
10.3771053506947
20
-2.0312075832916
30
0
41
1
10
10.6262685000108
20
-1.91496259972814
30
0
41
1
10
10.7016395716997
20
-1.88085803710695
30
0
41
1
10
10.7778798015967
20
-1.84784445999458
30
0
41
1
10
10.8161403592764
20
-1.8315153066541
30
0
41
1
10
10.8289203594929
20
-1.82610058079507
30
0
41
1
10
10.8545026618988
20
-1.81533960364891
30
0
41
1
10
10.8676378580756
20
-1.81096351271563
30
0
41
1
10
10.8952330775417
20
-1.80609928509875
30
0
41
1
10
10.9096235827973
20
-1.80514017478546
30
0
41
1
10
10.9378509405859
20
-1.8058340865629
30
0
41
1
10
10.9519037669093
20
-1.80700289508573
30
0
41
1
10
10.9941059038986
20
-1.80991911900131
30
0
41
1
10
11.0222535951889
20
-1.81168812604909
30
0
41
1
10
11.1066548408671
20
-1.81755812811096
30
0
41
1
10
11.1629018477031
20
-1.82175929621013
30
0
41
1
10
11.6689134106579
20
-1.86214352281277
30
0
41
1
10
12.11670137229
20
-1.91640787029809
30
0
41
1
10
13.4489449349836
20
-2.12914816692782
30
0
41
1
10
14.3112294840232
20
-2.33694996678622
30
0
41
1
10
15.5719566240389
20
-2.70450998600813
30
0
41
1
10
15.9868207091722
20
-2.83603781224639
30
0
41
1
10
16.8078177613346
20
-3.10691226004647
30
0
41
1
10
17.2139642023454
20
-3.24620124386931
30
0
41
1
10
17.6171809864689
20
-3.38356082193007
30
0
0
SPLINE
5
FD
100
AcDbEntity
8
1
62
256
6
ByLayer
370
18
48
1
60
0
100
AcDbSpline
70
4
71
3
72
8
73
4
40
0
40
0
40
0
40
0
40
1
40
1
40
1
40
1
41
1
10
27.8455622315558
20
2.76266603745796
30
0
41
1
10
27.7150426288804
20
2.79296094023354
30
0
41
1
10
27.5844255220322
20
2.82173647344754
30
0
41
1
10
27.4536421179347
20
2.84893388125423
30
0
0
SPLINE
5
FE
100
AcDbEntity
8
1
62
256
6
ByLayer
370
18
48
1
60
0
100
AcDbSpline
70
4
71
3
72
8
73
4
40
0
40
0
40
0
40
0
40
1
40
1
40
1
40
1
41
1
10
47.7990452778174
20
3.41946447067221
30
0
41
1
10
47.6616517280028
20
3.42300407193142
30
0
41
1
10
47.5242896565501
20
3.42472648456351
30
0
41
1
10
47.3869247141164
20
3.42463684316454
30
0
0
SPLINE
5
FF
100
AcDbEntity
8
1
62
256
6
ByLayer
370
18
48
1
60
0
100
AcDbSpline
70
4
71
3
72
20
73
16
40
0
40
0
40
0
40
0
40
0.113764923935109
40
0.217332919613804
40
0.295387456848261
40
0.358920380893199
40
0.415937595631339
40
0.477164925461885
40
0.558351436525459
40
0.654171679010508
40
0.728875759242567
40
0.765019814556326
40
0.822767226155728
40
0.904458136388461
40
1
40
1
40
1
40
1
41
1
10
27.4190498891146
20
-3.24051022809141
30
0
41
1
10
27.6730532416666
20
-3.24014779079545
30
0
41
1
10
28.1582929298655
20
-3.2398213408737
30
0
41
1
10
28.8178007756232
20
-3.24216230002131
30
0
41
1
10
29.3651609768265
20
-3.24209416437816
30
0
41
1
10
29.808586602379
20
-3.24173770530672
30
0
41
1
10
30.2144439224549
20
-3.24102993568602
30
0
41
1
10
30.6597171831892
20
-3.24087564021195
30
0
41
1
10
31.1916245685906
20
-3.24230283541715
30
0
41
1
10
31.7536246010302
20
-3.24219357424028
30
0
41
1
10
32.2150474747615
20
-3.24348218281517
30
0
41
1
10
32.591356867443
20
-3.24379449836039
30
0
41
1
10
32.9834164399177
20
-3.24293493404815
30
0
41
1
10
33.5080472476754
20
-3.24205304316863
30
0
41
1
10
33.9037195849269
20
-3.24197879469602
30
0
41
1
10
34.1170061282831
20
-3.24207990843993
30
0
0
SPLINE
5
100
100
AcDbEntity
8
1
62
256
6
ByLayer
370
18
48
1
60
0
100
AcDbSpline
70
4
71
1
72
4
73
2
40
0
40
0
40
1
40
1
41
1
10
27.2464312734671
20
-3.38495618185502
30
0
41
1
10
27.4184670202074
20
-3.39398756794017
30
0
0
SPLINE
5
101
100
AcDbEntity
8
1
62
256
6
ByLayer
370
18
48
1
60
0
100
AcDbSpline
70
4
71
2
72
6
73
3
40
0
40
0
40
0
40
1
40
1
40
1
41
1
10
47.4615655556886
20
-3.25312754808167
30
0
41
1
10
47.628478342109
20
-3.25282689260445
30
0
41
1
10
47.7947946144891
20
-3.2520454343813
30
0
0
SPLINE
5
102
100
AcDbEntity
8
1
62
256
6
ByLayer
370
18
48
1
60
0
100
AcDbSpline
70
4
71
3
72
19
73
15
40
0
40
0
40
0
40
0
40
0.1298705011097
40
0.235726212905679
40
0.324149022456434
40
0.399154434097237
40
0.468592701070416
40
0.540996278399594
40
0.625983559904129
40
0.693990859150887
40
0.737147304889954
40
0.803277721925108
40
0.896894274117977
40
1
40
1
40
1
40
1
41
1
10
34.1875618442413
20
3.2420664476908
30
0
41
1
10
33.8952755833591
20
3.24164182958467
30
0
41
1
10
33.3644626340582
20
3.24113679741887
30
0
41
1
10
32.6331136035582
20
3.24429887754073
30
0
41
1
10
32.0261342992595
20
3.24251086935192
30
0
41
1
10
31.5003188615576
20
3.2424860412456
30
0
41
1
10
31.0108845512133
20
3.24178682041938
30
0
41
1
10
30.498867300468
20
3.24064544330432
30
0
41
1
10
29.9900924443702
20
3.24147162577216
30
0
41
1
10
29.5473327281001
20
3.24196150013273
30
0
41
1
10
29.1471344465403
20
3.24218338741557
30
0
41
1
10
28.6891466843275
20
3.24164603307244
30
0
41
1
10
28.0958268862187
20
3.23991173456983
30
0
41
1
10
27.6517844178789
20
3.24016529169179
30
0
41
1
10
27.4190533894421
20
3.240502215101
30
0
0
SPLINE
5
103
100
AcDbEntity
8
1
62
256
6
ByLayer
370
18
48
1
60
0
100
AcDbSpline
70
4
71
2
72
6
73
3
40
0
40
0
40
0
40
1
40
1
40
1
41
1
10
26.048441297728
20
-4.59841836148428
30
0
41
1
10
26.6683540156998
20
-3.98047116891431
30
0
41
1
10
27.2886421737618
20
-3.36388534385725
30
0
0
SPLINE
5
104
100
AcDbEntity
8
1
62
256
6
ByLayer
370
18
48
1
60
0
100
AcDbSpline
70
4
71
1
72
4
73
2
40
0
40
0
40
1
40
1
41
1
10
27.4184670202074
20
3.39398756794017
30
0
41
1
10
27.2664064117982
20
3.38600481965147
30
0
0
SPLINE
5
105
100
AcDbEntity
8
1
62
256
6
ByLayer
370
18
48
1
60
0
100
AcDbSpline
70
4
71
2
72
6
73
3
40
0
40
0
40
0
40
1
40
1
40
1
41
1
10
27.2886421737616
20
3.36388534385745
30
0
41
1
10
26.6683540156998
20
3.98047116891448
30
0
41
1
10
26.048441297728
20
4.59841836148442
30
0
0
SPLINE
5
106
100
AcDbEntity
8
1
62
256
6
ByLayer
370
18
48
1
60
0
100
AcDbSpline
70
4
71
1
72
4
73
2
40
0
40
0
40
1
40
1
41
1
10
35.8885178175261
20
-0.0006909347659985
30
0
41
1
10
35.8885075239694
20
-0.0006857090697565
30
0
0
LINE
5
7D
100
AcDbEntity
8
SK1
62
256
6
ByLayer
370
13
48
1
60
0
100
AcDbLine
10
-39.35
20
-4.007889
30
0
11
-39.35
21
-4.291899
31
0
39
0
210
0
220
0
230
1
0
LINE
5
7F
100
AcDbEntity
8
SK1
62
256
6
ByLayer
370
18
48
1
60
0
100
AcDbLine
10
-40
20
3.627056
30
0
11
-40
21
-3.343078
31
0
39
0
210
0
220
0
230
1
0
LINE
5
80
100
AcDbEntity
8
SK1
62
256
6
ByLayer
370
18
48
1
60
0
100
AcDbLine
10
-40
20
-3.343024
30
0
11
-40
21
-3.627056
31
0
39
0
210
0
220
0
230
1
0
LINE
5
81
100
AcDbEntity
8
SK1
62
256
6
ByLayer
370
18
48
1
60
0
100
AcDbLine
10
0
20
-5
30
0
11
0
21
5
31
0
39
0
210
0
220
0
230
1
0
LINE
5
82
100
AcDbEntity
8
SK1
62
256
6
ByLayer
370
18
48
1
60
0
100
AcDbLine
10
-39.25
20
4.41
30
0
11
-39.25
21
4.401236
31
0
39
0
210
0
220
0
230
1
0
LINE
5
83
100
AcDbEntity
8
SK1
62
256
6
ByLayer
370
18
48
1
60
0
100
AcDbLine
10
-38.66
20
5
30
0
11
-38.66
21
-5
31
0
39
0
210
0
220
0
230
1
0
LINE
5
84
100
AcDbEntity
8
SK1
62
256
6
ByLayer
370
18
48
1
60
0
100
AcDbLine
10
-39.25
20
-4.41
30
0
11
-39.25
21
-4.145655
31
0
39
0
210
0
220
0
230
1
0
LINE
5
85
100
AcDbEntity
8
1
62
256
6
ByLayer
370
13
48
1
60
0
100
AcDbLine
10
1.029259
20
4.625
30
0
11
1.029259
21
-4.625
31
0
39
0
210
0
220
0
230
1
0
LINE
5
86
100
AcDbEntity
8
1
62
256
6
ByLayer
370
13
48
1
60
0
100
AcDbLine
10
0.51463
20
4.8125
30
0
11
0.51463
21
-4.8125
31
0
39
0
210
0
220
0
230
1
0
LINE
5
87
100
AcDbEntity
8
1
62
256
6
ByLayer
370
13
48
1
60
0
100
AcDbLine
10
47.901946
20
0.80622
30
0
11
48.989453
21
0.117802
31
0
39
0
210
0
220
0
230
1
0
LINE
5
88
100
AcDbEntity
8
1
62
256
6
ByLayer
370
18
48
1
60
0
100
AcDbLine
10
27.419052
20
2.99978
30
0
11
27.419052
21
3.008296
31
0
39
0
210
0
220
0
230
1
0
LINE
5
89
100
AcDbEntity
8
1
62
256
6
ByLayer
370
13
48
1
60
0
100
AcDbLine
10
47.779384
20
0.701992
30
0
11
48.964259
21
-0.048063
31
0
39
0
210
0
220
0
230
1
0
LINE
5
8A
100
AcDbEntity
8
1
62
256
6
ByLayer
370
18
48
1
60
0
100
AcDbLine
10
0
20
-5
30
0
11
0
21
5
31
0
39
0
210
0
220
0
230
1
0
LINE
5
8B
100
AcDbEntity
8
80
62
256
6
ByLayer
370
18
48
1
60
0
100
AcDbLine
10
0
20
0
30
0
11
-5
21
0
31
0
39
0
210
0
220
0
230
1
0
LINE
5
8C
100
AcDbEntity
8
SK4
62
256
6
ByLayer
370
18
48
0.05
60
0
100
AcDbLine
10
54
20
0
30
0
11
-45
21
0
31
0
39
0
210
0
220
0
230
1
0
LINE
5
8E
100
AcDbEntity
8
4
62
256
6
ByLayer
370
18
48
0.05
60
0
100
AcDbLine
10
49
20
0
30
0
11
0
21
0
31
0
39
0
210
0
220
0
230
1
0
LINE
5
90
100
AcDbEntity
8
SK1
62
256
6
ByLayer
370
18
48
1
60
0
100
AcDbLine
10
-38.66
20
-5
30
0
11
0
21
-5
31
0
39
0
210
0
220
0
230
1
0
LINE
5
91
100
AcDbEntity
8
SK1
62
256
6
ByLayer
370
18
48
1
60
0
100
AcDbLine
10
0
20
5
30
0
11
-38.66
21
5
31
0
39
0
210
0
220
0
230
1
0
LINE
5
92
100
AcDbEntity
8
SK1
62
256
6
ByLayer
370
18
48
1
60
0
100
AcDbLine
10
-39.25
20
-4.41
30
0
11
-38.66
21
-5
31
0
39
0
210
0
220
0
230
1
0
LINE
5
93
100
AcDbEntity
8
SK1
62
256
6
ByLayer
370
18
48
1
60
0
100
AcDbLine
10
-38.66
20
5
30
0
11
-39.25
21
4.41
31
0
39
0
210
0
220
0
230
1
0
LINE
5
94
100
AcDbEntity
8
1
62
256
6
ByLayer
370
18
48
1
60
0
100
AcDbLine
10
47.38742
20
3.424636
30
0
11
46.253692
21
3.423928
31
0
39
0
210
0
220
0
230
1
0
LINE
5
95
100
AcDbEntity
8
1
62
256
6
ByLayer
370
18
48
1
60
0
100
AcDbLine
10
46.253692
20
-3.423928
30
0
11
47.38742
21
-3.424636
31
0
39
0
210
0
220
0
230
1
0
LINE
5
96
100
AcDbEntity
8
1
62
256
6
ByLayer
370
18
48
1
60
0
100
AcDbLine
10
26.006972
20
4.625
30
0
11
23.108243
21
4.625
31
0
39
0
210
0
220
0
230
1
0
LINE
5
97
100
AcDbEntity
8
1
62
256
6
ByLayer
370
18
48
1
60
0
100
AcDbLine
10
11.8349
20
4.625
30
0
11
1.029259
21
4.625
31
0
39
0
210
0
220
0
230
1
0
LINE
5
98
100
AcDbEntity
8
1
62
256
6
ByLayer
370
18
48
1
60
0
100
AcDbLine
10
1.029259
20
-4.625
30
0
11
11.8349
21
-4.625
31
0
39
0
210
0
220
0
230
1
0
LINE
5
99
100
AcDbEntity
8
1
62
256
6
ByLayer
370
18
48
1
60
0
100
AcDbLine
10
23.108243
20
-4.625
30
0
11
26.006972
21
-4.625
31
0
39
0
210
0
220
0
230
1
0
LINE
5
9A
100
AcDbEntity
8
81
62
256
6
ByLayer
370
18
48
1
60
0
100
AcDbLine
10
49
20
0
30
0
11
54
21
0
31
0
39
0
210
0
220
0
230
1
0
LINE
5
9B
100
AcDbEntity
8
2
62
256
6
ByLayer
370
13
48
1
60
0
100
AcDbLine
10
71.236431
20
-4.625
30
0
11
71.236431
21
31.380881
31
0
39
0
210
0
220
0
230
1
0
LINE
5
9D
100
AcDbEntity
8
2
62
256
6
ByLayer
370
13
48
1
60
0
100
AcDbLine
10
27.8282
20
4.625
30
0
11
73.236431
21
4.625
31
0
39
0
210
0
220
0
230
1
0
LINE
5
9E
100
AcDbEntity
8
2
62
256
6
ByLayer
370
13
48
1
60
0
100
AcDbLine
10
27.8282
20
-4.625
30
0
11
73.236431
21
-4.625
31
0
39
0
210
0
220
0
230
1
0
LINE
5
9F
100
AcDbEntity
8
1
62
256
6
ByLayer
370
18
48
1
60
1
100
AcDbLine
10
71.236431
20
4.625
30
0
11
71.697214
21
1.125002
31
0
39
0
210
0
220
0
230
1
0
LINE
5
A0
100
AcDbEntity
8
1
62
256
6
ByLayer
370
18
48
1
60
1
100
AcDbLine
10
71.697214
20
1.125002
30
0
11
70.775647
21
1.124998
31
0
39
0
210
0
220
0
230
1
0
LINE
5
A1
100
AcDbEntity
8
1
62
256
6
ByLayer
370
18
48
1
60
1
100
AcDbLine
10
70.775647
20
1.124998
30
0
11
71.236431
21
4.625
31
0
39
0
210
0
220
0
230
1
0
LINE
5
A2
100
AcDbEntity
8
1
62
256
6
ByLayer
370
18
48
1
60
1
100
AcDbLine
10
71.236431
20
-4.625
30
0
11
70.775647
21
-1.125002
31
0
39
0
210
0
220
0
230
1
0
LINE
5
A3
100
AcDbEntity
8
1
62
256
6
ByLayer
370
18
48
1
60
1
100
AcDbLine
10
70.775647
20
-1.125002
30
0
11
71.697214
21
-1.124998
31
0
39
0
210
0
220
0
230
1
0
LINE
5
A4
100
AcDbEntity
8
1
62
256
6
ByLayer
370
18
48
1
60
1
100
AcDbLine
10
71.697214
20
-1.124998
30
0
11
71.236431
21
-4.625
31
0
39
0
210
0
220
0
230
1
0
LINE
5
A5
100
AcDbEntity
8
SK2
62
256
6
ByLayer
370
13
48
1
60
0
100
AcDbLine
10
-48.625163
20
-5
30
0
11
-48.625163
21
35.857173
31
0
39
0
210
0
220
0
230
1
0
LINE
5
A7
100
AcDbEntity
8
SK2
62
256
6
ByLayer
370
13
48
1
60
0
100
AcDbLine
10
-41.5875
20
5
30
0
11
-50.625163
21
5
31
0
39
0
210
0
220
0
230
1
0
LINE
5
A8
100
AcDbEntity
8
SK2
62
256
6
ByLayer
370
13
48
1
60
0
100
AcDbLine
10
-41.5875
20
-5
30
0
11
-50.625163
21
-5
31
0
39
0
210
0
220
0
230
1
0
LINE
5
A9
100
AcDbEntity
8
1
62
256
6
ByLayer
370
18
48
1
60
1
100
AcDbLine
10
-48.625163
20
5
30
0
11
-48.164379
21
1.500002
31
0
39
0
210
0
220
0
230
1
0
LINE
5
AA
100
AcDbEntity
8
1
62
256
6
ByLayer
370
18
48
1
60
1
100
AcDbLine
10
-48.164379
20
1.500002
30
0
11
-49.085946
21
1.499998
31
0
39
0
210
0
220
0
230
1
0
LINE
5
AB
100
AcDbEntity
8
1
62
256
6
ByLayer
370
18
48
1
60
1
100
AcDbLine
10
-49.085946
20
1.499998
30
0
11
-48.625163
21
5
31
0
39
0
210
0
220
0
230
1
0
LINE
5
AC
100
AcDbEntity
8
1
62
256
6
ByLayer
370
18
48
1
60
1
100
AcDbLine
10
-48.625163
20
-5
30
0
11
-49.085946
21
-1.500002
31
0
39
0
210
0
220
0
230
1
0
LINE
5
AD
100
AcDbEntity
8
1
62
256
6
ByLayer
370
18
48
1
60
1
100
AcDbLine
10
-49.085946
20
-1.500002
30
0
11
-48.164379
21
-1.499998
31
0
39
0
210
0
220
0
230
1
0
LINE
5
AE
100
AcDbEntity
8
1
62
256
6
ByLayer
370
18
48
1
60
1
100
AcDbLine
10
-48.164379
20
-1.499998
30
0
11
-48.625163
21
-5
31
0
39
0
210
0
220
0
230
1
0
LINE
5
AF
100
AcDbEntity
8
2
62
256
6
ByLayer
370
13
48
1
60
0
100
AcDbLine
10
62.970081
20
31.88983
30
0
11
62.970081
21
-12.175
31
0
39
0
210
0
220
0
230
1
0
LINE
5
B0
100
AcDbEntity
8
2
62
256
6
ByLayer
370
13
48
1
60
0
100
AcDbLine
10
49.5782
20
3.425
30
0
11
64.970081
21
3.425
31
0
39
0
210
0
220
0
230
1
0
LINE
5
B1
100
AcDbEntity
8
2
62
256
6
ByLayer
370
13
48
1
60
0
100
AcDbLine
10
49.5782
20
-3.425
30
0
11
64.970081
21
-3.425
31
0
39
0
210
0
220
0
230
1
0
LINE
5
B2
100
AcDbEntity
8
1
62
256
6
ByLayer
370
18
48
1
60
1
100
AcDbLine
10
62.970081
20
3.425
30
0
11
62.509297
21
6.924998
31
0
39
0
210
0
220
0
230
1
0
LINE
5
B3
100
AcDbEntity
8
1
62
256
6
ByLayer
370
18
48
1
60
1
100
AcDbLine
10
62.509297
20
6.924998
30
0
11
63.430865
21
6.925002
31
0
39
0
210
0
220
0
230
1
0
LINE
5
B4
100
AcDbEntity
8
1
62
256
6
ByLayer
370
18
48
1
60
1
100
AcDbLine
10
63.430865
20
6.925002
30
0
11
62.970081
21
3.425
31
0
39
0
210
0
220
0
230
1
0
LINE
5
B5
100
AcDbEntity
8
1
62
256
6
ByLayer
370
18
48
1
60
1
100
AcDbLine
10
62.970081
20
-3.425
30
0
11
63.430865
21
-6.924998
31
0
39
0
210
0
220
0
230
1
0
LINE
5
B6
100
AcDbEntity
8
1
62
256
6
ByLayer
370
18
48
1
60
1
100
AcDbLine
10
63.430865
20
-6.924998
30
0
11
62.509297
21
-6.925002
31
0
39
0
210
0
220
0
230
1
0
LINE
5
B7
100
AcDbEntity
8
1
62
256
6
ByLayer
370
18
48
1
60
1
100
AcDbLine
10
62.509297
20
-6.925002
30
0
11
62.970081
21
-3.425
31
0
39
0
210
0
220
0
230
1
0
LINE
5
B8
100
AcDbEntity
8
SK2
62
256
6
ByLayer
370
13
48
1
60
0
100
AcDbLine
10
25.118168
20
-5.747532
30
0
11
16.190306
21
-14.675394
31
0
39
0
210
0
220
0
230
1
0
LINE
5
B9
100
AcDbEntity
8
SK2
62
256
6
ByLayer
370
13
48
1
60
0
100
AcDbLine
10
25.118168
20
5.747532
30
0
11
16.190306
21
14.675394
31
0
39
0
210
0
220
0
230
1
0
LINE
5
BA
100
AcDbEntity
8
1
62
256
6
ByLayer
370
18
48
1
60
1
100
AcDbLine
10
17.604519
20
-13.261181
30
0
11
14.906795
21
-10.984211
31
0
39
0
210
0
220
0
230
1
0
LINE
5
BB
100
AcDbEntity
8
1
62
256
6
ByLayer
370
18
48
1
60
1
100
AcDbLine
10
14.906795
20
-10.984211
30
0
11
15.588039
21
-10.363571
31
0
39
0
210
0
220
0
230
1
0
LINE
5
BC
100
AcDbEntity
8
1
62
256
6
ByLayer
370
18
48
1
60
1
100
AcDbLine
10
15.588039
20
-10.363571
30
0
11
17.604519
21
-13.261181
31
0
39
0
210
0
220
0
230
1
0
LINE
5
BD
100
AcDbEntity
8
1
62
256
6
ByLayer
370
18
48
1
60
1
100
AcDbLine
10
17.604519
20
13.261181
30
0
11
15.588041
21
10.363574
31
0
39
0
210
0
220
0
230
1
0
LINE
5
BE
100
AcDbEntity
8
1
62
256
6
ByLayer
370
18
48
1
60
1
100
AcDbLine
10
15.588041
20
10.363574
30
0
11
14.906792
21
10.984208
31
0
39
0
210
0
220
0
230
1
0
LINE
5
BF
100
AcDbEntity
8
1
62
256
6
ByLayer
370
18
48
1
60
1
100
AcDbLine
10
14.906792
20
10.984208
30
0
11
17.604519
21
13.261181
31
0
39
0
210
0
220
0
230
1
0
LINE
5
10D
100
AcDbEntity
8
1
62
256
6
ByLayer
370
18
48
1
60
1
100
AcDbLine
10
71.236431
20
4.625
30
0
11
71.697214
21
1.125002
31
0
39
0
210
0
220
0
230
1
0
LINE
5
10E
100
AcDbEntity
8
1
62
256
6
ByLayer
370
18
48
1
60
1
100
AcDbLine
10
71.697214
20
1.125002
30
0
11
70.775647
21
1.124998
31
0
39
0
210
0
220
0
230
1
0
LINE
5
10F
100
AcDbEntity
8
1
62
256
6
ByLayer
370
18
48
1
60
1
100
AcDbLine
10
70.775647
20
1.124998
30
0
11
71.236431
21
4.625
31
0
39
0
210
0
220
0
230
1
0
LINE
5
111
100
AcDbEntity
8
1
62
256
6
ByLayer
370
18
48
1
60
1
100
AcDbLine
10
71.236431
20
-4.625
30
0
11
70.775647
21
-1.125002
31
0
39
0
210
0
220
0
230
1
0
LINE
5
112
100
AcDbEntity
8
1
62
256
6
ByLayer
370
18
48
1
60
1
100
AcDbLine
10
70.775647
20
-1.125002
30
0
11
71.697214
21
-1.124998
31
0
39
0
210
0
220
0
230
1
0
LINE
5
113
100
AcDbEntity
8
1
62
256
6
ByLayer
370
18
48
1
60
1
100
AcDbLine
10
71.697214
20
-1.124998
30
0
11
71.236431
21
-4.625
31
0
39
0
210
0
220
0
230
1
0
LINE
5
117
100
AcDbEntity
8
1
62
256
6
ByLayer
370
18
48
1
60
1
100
AcDbLine
10
-48.625163
20
5
30
0
11
-48.164379
21
1.500002
31
0
39
0
210
0
220
0
230
1
0
LINE
5
118
100
AcDbEntity
8
1
62
256
6
ByLayer
370
18
48
1
60
1
100
AcDbLine
10
-48.164379
20
1.500002
30
0
11
-49.085946
21
1.499998
31
0
39
0
210
0
220
0
230
1
0
LINE
5
119
100
AcDbEntity
8
1
62
256
6
ByLayer
370
18
48
1
60
1
100
AcDbLine
10
-49.085946
20
1.499998
30
0
11
-48.625163
21
5
31
0
39
0
210
0
220
0
230
1
0
LINE
5
11B
100
AcDbEntity
8
1
62
256
6
ByLayer
370
18
48
1
60
1
100
AcDbLine
10
-48.625163
20
-5
30
0
11
-49.085946
21
-1.500002
31
0
39
0
210
0
220
0
230
1
0
LINE
5
11C
100
AcDbEntity
8
1
62
256
6
ByLayer
370
18
48
1
60
1
100
AcDbLine
10
-49.085946
20
-1.500002
30
0
11
-48.164379
21
-1.499998
31
0
39
0
210
0
220
0
230
1
0
LINE
5
11D
100
AcDbEntity
8
1
62
256
6
ByLayer
370
18
48
1
60
1
100
AcDbLine
10
-48.164379
20
-1.499998
30
0
11
-48.625163
21
-5
31
0
39
0
210
0
220
0
230
1
0
LINE
5
121
100
AcDbEntity
8
1
62
256
6
ByLayer
370
18
48
1
60
1
100
AcDbLine
10
62.970081
20
3.425
30
0
11
62.509297
21
6.924998
31
0
39
0
210
0
220
0
230
1
0
LINE
5
122
100
AcDbEntity
8
1
62
256
6
ByLayer
370
18
48
1
60
1
100
AcDbLine
10
62.509297
20
6.924998
30
0
11
63.430865
21
6.925002
31
0
39
0
210
0
220
0
230
1
0
LINE
5
123
100
AcDbEntity
8
1
62
256
6
ByLayer
370
18
48
1
60
1
100
AcDbLine
10
63.430865
20
6.925002
30
0
11
62.970081
21
3.425
31
0
39
0
210
0
220
0
230
1
0
LINE
5
125
100
AcDbEntity
8
1
62
256
6
ByLayer
370
18
48
1
60
1
100
AcDbLine
10
62.970081
20
-3.425
30
0
11
63.430865
21
-6.924998
31
0
39
0
210
0
220
0
230
1
0
LINE
5
126
100
AcDbEntity
8
1
62
256
6
ByLayer
370
18
48
1
60
1
100
AcDbLine
10
63.430865
20
-6.924998
30
0
11
62.509297
21
-6.925002
31
0
39
0
210
0
220
0
230
1
0
LINE
5
127
100
AcDbEntity
8
1
62
256
6
ByLayer
370
18
48
1
60
1
100
AcDbLine
10
62.509297
20
-6.925002
30
0
11
62.970081
21
-3.425
31
0
39
0
210
0
220
0
230
1
0
LINE
5
12A
100
AcDbEntity
8
1
62
256
6
ByLayer
370
18
48
1
60
1
100
AcDbLine
10
17.604519
20
-13.261181
30
0
11
14.906795
21
-10.984211
31
0
39
0
210
0
220
0
230
1
0
LINE
5
12B
100
AcDbEntity
8
1
62
256
6
ByLayer
370
18
48
1
60
1
100
AcDbLine
10
14.906795
20
-10.984211
30
0
11
15.588039
21
-10.363571
31
0
39
0
210
0
220
0
230
1
0
LINE
5
12C
100
AcDbEntity
8
1
62
256
6
ByLayer
370
18
48
1
60
1
100
AcDbLine
10
15.588039
20
-10.363571
30
0
11
17.604519
21
-13.261181
31
0
39
0
210
0
220
0
230
1
0
LINE
5
12E
100
AcDbEntity
8
1
62
256
6
ByLayer
370
18
48
1
60
1
100
AcDbLine
10
17.604519
20
13.261181
30
0
11
15.588041
21
10.363574
31
0
39
0
210
0
220
0
230
1
0
LINE
5
12F
100
AcDbEntity
8
1
62
256
6
ByLayer
370
18
48
1
60
1
100
AcDbLine
10
15.588041
20
10.363574
30
0
11
14.906792
21
10.984208
31
0
39
0
210
0
220
0
230
1
0
LINE
5
130
100
AcDbEntity
8
1
62
256
6
ByLayer
370
18
48
1
60
1
100
AcDbLine
10
14.906792
20
10.984208
30
0
11
17.604519
21
13.261181
31
0
39
0
210
0
220
0
230
1
0
MTEXT
5
107
100
AcDbEntity
8
SK6
62
256
6
ByLayer
370
13
48
1
60
0
100
AcDbMText
10
-25.082626
20
35.965328
30
0
210
0
220
0
230
1
1
\W0.7776;462.2-0685-022A1-XM X2BM
40
3.5
41
0
44
1.084337
50
0
71
7
72
5
7
iso_b_vert
0
MTEXT
5
10B
100
AcDbEntity
8
2
62
256
6
ByLayer
370
18
48
1
60
0
100
AcDbMText
10
69.671797
20
15.672798
30
0
210
0
220
0
230
1
1
%%c
40
3.5
41
0
44
1.084337
50
90
71
7
72
5
7
iso_b_vert
0
MTEXT
5
10C
100
AcDbEntity
8
2
62
256
6
ByLayer
370
18
48
1
60
0
100
AcDbMText
10
69.671797
20
20.895454
30
0
210
0
220
0
230
1
1
\W0.7317;9,250
40
3.5
41
0
44
1.084337
50
90
71
7
72
5
7
iso_b_vert
0
MTEXT
5
115
100
AcDbEntity
8
SK2
62
256
6
ByLayer
370
18
48
1
60
0
100
AcDbMText
10
-50.189796
20
18.409024
30
0
210
0
220
0
230
1
1
%%c
40
3.5
41
0
44
1.084337
50
90
71
7
72
5
7
iso_b_vert
0
MTEXT
5
116
100
AcDbEntity
8
SK2
62
256
6
ByLayer
370
18
48
1
60
0
100
AcDbMText
10
-50.189796
20
23.63168
30
0
210
0
220
0
230
1
1
\W0.6930;10,000
40
3.5
41
0
44
1.084337
50
90
71
7
72
5
7
iso_b_vert
0
MTEXT
5
11F
100
AcDbEntity
8
2
62
256
6
ByLayer
370
18
48
1
60
0
100
AcDbMText
10
61.405448
20
16.181747
30
0
210
0
220
0
230
1
1
%%c
40
3.5
41
0
44
1.084337
50
90
71
7
72
5
7
iso_b_vert
0
MTEXT
5
120
100
AcDbEntity
8
2
62
256
6
ByLayer
370
18
48
1
60
0
100
AcDbMText
10
61.405448
20
21.404403
30
0
210
0
220
0
230
1
1
\W0.7317;6,850
40
3.5
41
0
44
1.084337
50
90
71
7
72
5
7
iso_b_vert
0
MTEXT
5
129
100
AcDbEntity
8
SK2
62
256
6
ByLayer
370
13
48
1
60
0
100
AcDbMText
10
7.297575
20
-0.291663
30
0
210
0
220
0
230
1
1
\W0.8181;90,0%%d
40
3.5
41
0
44
1.084337
50
0
71
7
72
5
7
iso_b_vert
0
HATCH
5
110
100
AcDbEntity
8
2
62
256
6
ByLayer
370
13
48
1
60
0
100
AcDbHatch
10
0
20
0
30
0
210
0
220
0
230
1
2
ANSI31
70
0
71
0
91
1
92
5
93
3
72
1
10
71.2364306046164
20
4.625
11
71.6972143461692
21
1.12500169255318
72
1
10
71.6972143461692
20
1.12500169255318
11
70.7756468630637
21
1.12499830744682
72
1
10
70.7756468630637
20
1.12499830744682
11
71.2364306046164
21
4.625
97
0
75
0
76
1
52
0
41
0.0062
77
0
78
1
53
45
43
0
44
0
45
-0.0139193969876572
46
0.0139193969876572
79
0
47
0
98
1
10
0
20
0
0
HATCH
5
114
100
AcDbEntity
8
2
62
256
6
ByLayer
370
13
48
1
60
0
100
AcDbHatch
10
0
20
0
30
0
210
0
220
0
230
1
2
ANSI31
70
0
71
0
91
1
92
5
93
3
72
1
10
71.2364306046164
20
-4.625
11
70.7756468630637
21
-1.12500169255318
72
1
10
70.7756468630637
20
-1.12500169255318
11
71.6972143461692
21
-1.12499830744682
72
1
10
71.6972143461692
20
-1.12499830744682
11
71.2364306046164
21
-4.625
97
0
75
0
76
1
52
0
41
0.0062
77
0
78
1
53
45
43
0
44
0
45
-0.0139193969876572
46
0.0139193969876572
79
0
47
0
98
1
10
0
20
0
0
HATCH
5
11A
100
AcDbEntity
8
SK2
62
256
6
ByLayer
370
13
48
1
60
0
100
AcDbHatch
10
0
20
0
30
0
210
0
220
0
230
1
2
ANSI31
70
0
71
0
91
1
92
5
93
3
72
1
10
-48.6251625675374
20
5
11
-48.1643788259847
21
1.50000169255318
72
1
10
-48.1643788259847
20
1.50000169255318
11
-49.0859463090902
21
1.49999830744682
72
1
10
-49.0859463090902
20
1.49999830744682
11
-48.6251625675374
21
5
97
0
75
0
76
1
52
0
41
0.0062
77
0
78
1
53
45
43
0
44
0
45
-0.0139193969876572
46
0.0139193969876572
79
0
47
0
98
1
10
0
20
0
0
HATCH
5
11E
100
AcDbEntity
8
SK2
62
256
6
ByLayer
370
13
48
1
60
0
100
AcDbHatch
10
0
20
0
30
0
210
0
220
0
230
1
2
ANSI31
70
0
71
0
91
1
92
5
93
3
72
1
10
-48.6251625675374
20
-5
11
-49.0859463090902
21
-1.50000169255318
72
1
10
-49.0859463090902
20
-1.50000169255318
11
-48.1643788259847
21
-1.49999830744682
72
1
10
-48.1643788259847
20
-1.49999830744682
11
-48.6251625675374
21
-5
97
0
75
0
76
1
52
0
41
0.0062
77
0
78
1
53
45
43
0
44
0
45
-0.0139193969876572
46
0.0139193969876572
79
0
47
0
98
1
10
0
20
0
0
HATCH
5
124
100
AcDbEntity
8
2
62
256
6
ByLayer
370
13
48
1
60
0
100
AcDbHatch
10
0
20
0
30
0
210
0
220
0
230
1
2
ANSI31
70
0
71
0
91
1
92
5
93
3
72
1
10
62.9700811011615
20
3.42500000000001
11
62.5092973596088
21
6.92499830744683
72
1
10
62.5092973596088
20
6.92499830744683
11
63.4308648427142
21
6.9250016925532
72
1
10
63.4308648427142
20
6.9250016925532
11
62.9700811011615
21
3.42500000000001
97
0
75
0
76
1
52
0
41
0.0062
77
0
78
1
53
45
43
0
44
0
45
-0.0139193969876572
46
0.0139193969876572
79
0
47
0
98
1
10
0
20
0
0
HATCH
5
128
100
AcDbEntity
8
2
62
256
6
ByLayer
370
13
48
1
60
0
100
AcDbHatch
10
0
20
0
30
0
210
0
220
0
230
1
2
ANSI31
70
0
71
0
91
1
92
5
93
3
72
1
10
62.9700811011615
20
-3.42499999999998
11
63.4308648427142
21
-6.9249983074468
72
1
10
63.4308648427142
20
-6.9249983074468
11
62.5092973596088
21
-6.92500169255317
72
1
10
62.5092973596088
20
-6.92500169255317
11
62.9700811011615
21
-3.42499999999998
97
0
75
0
76
1
52
0
41
0.0062
77
0
78
1
53
45
43
0
44
0
45
-0.0139193969876572
46
0.0139193969876572
79
0
47
0
98
1
10
0
20
0
0
HATCH
5
12D
100
AcDbEntity
8
SK2
62
256
6
ByLayer
370
13
48
1
60
0
100
AcDbHatch
10
0
20
0
30
0
210
0
220
0
230
1
2
ANSI31
70
0
71
0
91
1
92
5
93
3
72
1
10
17.6045191493699
20
-13.2611808506301
11
14.9067947301465
21
-10.9842107659483
72
1
10
14.9067947301465
20
-10.9842107659483
11
15.588038766613
21
-10.3635714272759
72
1
10
15.588038766613
20
-10.3635714272759
11
17.6045191493699
21
-13.2611808506301
97
0
75
0
76
1
52
0
41
0.0062
77
0
78
1
53
45
43
0
44
0
45
-0.0139193969876572
46
0.0139193969876572
79
0
47
0
98
1
10
0
20
0
0
HATCH
5
131
100
AcDbEntity
8
SK2
62
256
6
ByLayer
370
13
48
1
60
0
100
AcDbHatch
10
0
20
0
30
0
210
0
220
0
230
1
2
ANSI31
70
0
71
0
91
1
92
5
93
3
72
1
10
17.6045191493697
20
13.2611808506301
11
15.5880410463393
21
10.3635739296333
72
1
10
15.5880410463393
20
10.3635739296333
11
14.90679245042
21
10.9842082635908
72
1
10
14.90679245042
20
10.9842082635908
11
17.6045191493697
21
13.2611808506301
97
0
75
0
76
1
52
0
41
0.0062
77
0
78
1
53
45
43
0
44
0
45
-0.0139193969876572
46
0.0139193969876572
79
0
47
0
98
1
10
0
20
0
0
DIMENSION
5
133
100
AcDbEntity
8
SK2
62
256
6
ByLayer
370
13
48
1
60
0
100
AcDbDimension
2
_U0
10
47.9907
20
-16.227503
30
0
11
23.99535
21
-16.227503
31
0
70
32
71
1
72
1
41
1
210
0
220
0
230
1
3
Standard
100
AcDbAlignedDimension
13
0
23
0
33
0
14
47.9907
24
-3.425
34
0
50
0
100
AcDbRotatedDimension
1001
ACAD
1000
DSTYLE
1002
{
1070
   371
1070
    13
1070
   372
1070
    13
1070
   170
1070
     0
1070
   144
1040
1.0
1070
   277
1070
     2
1070
   278
1070
    44
1070
   146
1040
1.0
1070
   345
1005
16
1070
   347
1005
16
1070
   346
1005
16
1070
   344
1005
0
1070
   343
1005
0
1070
   172
1070
     1
1070
    76
1070
     0
1070
    75
1070
     0
1070
   282
1070
     0
1070
   281
1070
     0
1070
    71
1070
     0
1070
    74
1070
     0
1070
   279
1070
     0
1070
   173
1070
     1
1070
   340
1005
108
1070
   271
1070
     2
1070
   272
1070
     2
1070
    77
1070
     1
1070
    73
1070
     1
1070
   171
1070
     3
1070
   274
1070
     4
1070
   177
1070
    35
1070
   176
1070
    35
1070
   178
1070
    35
1070
    48
1040
-0.1
1070
    41
1040
3.5
1070
   147
1040
1.75
1070
    42
1040
1.5875
1070
    44
1040
2.0
1070
   140
1040
3.5
1002
}
1001
ACAD_DSTYLE_DIM_LINETYPE
1070
   380
1005
16
1001
ACAD_DSTYLE_DIM_EXT1_LINETYPE
1070
   381
1005
16
1001
ACAD_DSTYLE_DIM_EXT2_LINETYPE
1070
   382
1005
16
0
DIMENSION
5
14C
100
AcDbEntity
8
SK2
62
256
6
ByLayer
370
13
48
1
60
0
100
AcDbDimension
2
_U1
10
49
20
-36.192985
30
0
11
4.5
21
-36.192985
31
0
70
32
71
1
72
1
41
1
210
0
220
0
230
1
3
Standard
100
AcDbAlignedDimension
13
-40
23
-5
33
0
14
49
24
0
34
0
50
0
100
AcDbRotatedDimension
1001
ACAD
1000
DSTYLE
1002
{
1070
   371
1070
    13
1070
   372
1070
    13
1070
   170
1070
     0
1070
   144
1040
1.0
1070
   277
1070
     2
1070
   278
1070
    44
1070
   146
1040
1.0
1070
   345
1005
16
1070
   347
1005
16
1070
   346
1005
16
1070
   344
1005
0
1070
   343
1005
0
1070
   172
1070
     1
1070
    76
1070
     0
1070
    75
1070
     0
1070
   282
1070
     0
1070
   281
1070
     0
1070
    71
1070
     0
1070
    74
1070
     0
1070
   279
1070
     0
1070
   173
1070
     1
1070
   340
1005
108
1070
   271
1070
     2
1070
   272
1070
     2
1070
    77
1070
     1
1070
    73
1070
     1
1070
   171
1070
     3
1070
   274
1070
     4
1070
   177
1070
    35
1070
   176
1070
    35
1070
   178
1070
    35
1070
    48
1040
-0.1
1070
    41
1040
3.5
1070
   147
1040
1.75
1070
    42
1040
1.5875
1070
    44
1040
2.0
1070
   140
1040
3.5
1002
}
1001
ACAD_DSTYLE_DIM_LINETYPE
1070
   380
1005
16
1001
ACAD_DSTYLE_DIM_EXT1_LINETYPE
1070
   381
1005
16
1001
ACAD_DSTYLE_DIM_EXT2_LINETYPE
1070
   382
1005
16
0
DIMENSION
5
164
100
AcDbEntity
8
SK2
62
256
6
ByLayer
370
13
48
1
60
0
100
AcDbDimension
2
_U2
10
49
20
15.034119
30
0
11
37.62
21
15.034119
31
0
70
32
71
1
72
1
41
1
210
0
220
0
230
1
3
Standard
100
AcDbAlignedDimension
13
26.24
23
4.625
33
0
14
49
24
0
34
0
50
0
100
AcDbRotatedDimension
1001
ACAD
1000
DSTYLE
1002
{
1070
   371
1070
    13
1070
   372
1070
    13
1070
   170
1070
     0
1070
   144
1040
1.0
1070
   277
1070
     2
1070
   278
1070
    44
1070
   146
1040
1.0
1070
   345
1005
16
1070
   347
1005
16
1070
   346
1005
16
1070
   344
1005
0
1070
   343
1005
0
1070
   172
1070
     1
1070
    76
1070
     0
1070
    75
1070
     0
1070
   282
1070
     0
1070
   281
1070
     0
1070
    71
1070
     0
1070
    74
1070
     0
1070
   279
1070
     0
1070
   173
1070
     1
1070
   340
1005
108
1070
   271
1070
     2
1070
   272
1070
     2
1070
    77
1070
     1
1070
    73
1070
     1
1070
   171
1070
     3
1070
   274
1070
     4
1070
   177
1070
    35
1070
   176
1070
    35
1070
   178
1070
    35
1070
    48
1040
-0.1
1070
    41
1040
3.5
1070
   147
1040
1.75
1070
    42
1040
1.5875
1070
    44
1040
2.0
1070
   140
1040
3.5
1002
}
1001
ACAD_DSTYLE_DIM_LINETYPE
1070
   380
1005
16
1001
ACAD_DSTYLE_DIM_EXT1_LINETYPE
1070
   381
1005
16
1001
ACAD_DSTYLE_DIM_EXT2_LINETYPE
1070
   382
1005
16
0
DIMENSION
5
17C
100
AcDbEntity
8
SK2
62
256
6
ByLayer
370
13
48
1
60
0
100
AcDbDimension
2
_U3
10
47.9907
20
-16.227503
30
0
11
65.833333
21
-16.227503
31
0
70
32
71
1
72
1
41
1
210
0
220
0
230
1
3
Standard
100
AcDbAlignedDimension
13
49
23
0
33
0
14
47.9907
24
-3.425
34
0
50
0
100
AcDbRotatedDimension
1001
ACAD
1000
DSTYLE
1002
{
1070
   371
1070
    13
1070
   372
1070
    13
1070
   170
1070
     0
1070
   144
1040
1.0
1070
   277
1070
     2
1070
   278
1070
    44
1070
   146
1040
1.0
1070
   345
1005
16
1070
   347
1005
16
1070
   346
1005
16
1070
   344
1005
0
1070
   343
1005
0
1070
   172
1070
     1
1070
    76
1070
     0
1070
    75
1070
     0
1070
   282
1070
     0
1070
   281
1070
     0
1070
    71
1070
     0
1070
    74
1070
     0
1070
   279
1070
     0
1070
   173
1070
     1
1070
   340
1005
108
1070
   271
1070
     2
1070
   272
1070
     2
1070
    77
1070
     1
1070
    73
1070
     1
1070
   171
1070
     3
1070
   274
1070
     4
1070
   177
1070
    35
1070
   176
1070
    35
1070
   178
1070
    35
1070
    48
1040
-0.1
1070
    41
1040
3.5
1070
   147
1040
1.75
1070
    42
1040
1.5875
1070
    44
1040
2.0
1070
   140
1040
3.5
1002
}
1001
ACAD_DSTYLE_DIM_LINETYPE
1070
   380
1005
16
1001
ACAD_DSTYLE_DIM_EXT1_LINETYPE
1070
   381
1005
16
1001
ACAD_DSTYLE_DIM_EXT2_LINETYPE
1070
   382
1005
16
0
DIMENSION
5
196
100
AcDbEntity
8
SK2
62
256
6
ByLayer
370
13
48
1
60
0
100
AcDbDimension
2
_U4
10
27.4407
20
7.560371
30
0
11
37.7157
21
7.560371
31
0
70
32
71
1
72
1
41
1
210
0
220
0
230
1
3
Standard
100
AcDbAlignedDimension
13
47.9907
23
3.425
33
0
14
27.4407
24
3.425
34
0
50
0
100
AcDbRotatedDimension
1001
ACAD
1000
DSTYLE
1002
{
1070
   371
1070
    13
1070
   372
1070
    13
1070
   170
1070
     0
1070
   144
1040
1.0
1070
   277
1070
     2
1070
   278
1070
    44
1070
   146
1040
1.0
1070
   345
1005
16
1070
   347
1005
16
1070
   346
1005
16
1070
   344
1005
0
1070
   343
1005
0
1070
   172
1070
     1
1070
    76
1070
     0
1070
    75
1070
     0
1070
   282
1070
     0
1070
   281
1070
     0
1070
    71
1070
     0
1070
    74
1070
     0
1070
   279
1070
     0
1070
   173
1070
     1
1070
   340
1005
108
1070
   271
1070
     2
1070
   272
1070
     2
1070
    77
1070
     1
1070
    73
1070
     1
1070
   171
1070
     3
1070
   274
1070
     4
1070
   177
1070
    35
1070
   176
1070
    35
1070
   178
1070
    35
1070
    48
1040
-0.1
1070
    41
1040
3.5
1070
   147
1040
1.75
1070
    42
1040
1.5875
1070
    44
1040
2.0
1070
   140
1040
3.5
1002
}
1001
ACAD_DSTYLE_DIM_LINETYPE
1070
   380
1005
16
1001
ACAD_DSTYLE_DIM_EXT1_LINETYPE
1070
   381
1005
16
1001
ACAD_DSTYLE_DIM_EXT2_LINETYPE
1070
   382
1005
16
0
DIMENSION
5
1AE
100
AcDbEntity
8
SK2
62
256
6
ByLayer
370
13
48
1
60
0
100
AcDbDimension
2
_U5
10
47.9907
20
-25.690158
30
0
11
3.99535
21
-25.690158
31
0
70
32
71
1
72
1
41
1
210
0
220
0
230
1
3
Standard
100
AcDbAlignedDimension
13
-40
23
-5
33
0
14
47.9907
24
-3.425
34
0
50
0
100
AcDbRotatedDimension
1001
ACAD
1000
DSTYLE
1002
{
1070
   371
1070
    13
1070
   372
1070
    13
1070
   170
1070
     0
1070
   144
1040
1.0
1070
   277
1070
     2
1070
   278
1070
    44
1070
   146
1040
1.0
1070
   345
1005
16
1070
   347
1005
16
1070
   346
1005
16
1070
   344
1005
0
1070
   343
1005
0
1070
   172
1070
     1
1070
    76
1070
     0
1070
    75
1070
     0
1070
   282
1070
     0
1070
   281
1070
     0
1070
    71
1070
     0
1070
    74
1070
     0
1070
   279
1070
     0
1070
   173
1070
     1
1070
   340
1005
108
1070
   271
1070
     2
1070
   272
1070
     2
1070
    77
1070
     1
1070
    73
1070
     1
1070
   171
1070
     3
1070
   274
1070
     4
1070
   177
1070
    35
1070
   176
1070
    35
1070
   178
1070
    35
1070
    48
1040
-0.1
1070
    41
1040
3.5
1070
   147
1040
1.75
1070
    42
1040
1.5875
1070
    44
1040
2.0
1070
   140
1040
3.5
1002
}
1001
ACAD_DSTYLE_DIM_LINETYPE
1070
   380
1005
16
1001
ACAD_DSTYLE_DIM_EXT1_LINETYPE
1070
   381
1005
16
1001
ACAD_DSTYLE_DIM_EXT2_LINETYPE
1070
   382
1005
16
0
ENDSEC
0
SECTION
2
OBJECTS
0
DICTIONARY
5
236
330
0
100
AcDbDictionary
280
0
281
1
3
ACAD_GROUP
350
237
3
ACAD_MLINESTYLE
350
238
0
DICTIONARY
5
237
330
0
100
AcDbDictionary
280
0
281
1
0
DICTIONARY
5
238
330
0
100
AcDbDictionary
280
0
281
1
3
Standard
350
18
0
MLINESTYLE
5
18
330
238
100
AcDbMlineStyle
2
Standard
70
0
3

62
256
51
90
52
90
71
2
49
-0.5
62
256
6
ByLayer
49
0.5
62
256
6
ByLayer
0
RASTERVARIABLES
5
224
330

100
AcDbRasterVariables
90
0
70
1
71
1
72
1
0
ENDSEC
0
EOF
