0
SECTION
2
HEADER
9
$ACADVER
1
AC1015
9
$DWGCODEPAGE
3
ANSI_1252
9
$HANDSEED
5
219
9
$ANGBASE
50
0
9
$ANGDIR
70
0
9
$ATTMODE
70
1
9
$AUNITS
70
0
9
$AUPREC
70
0
9
$CECOLOR
62
256
9
$CELTSCALE
40
1
9
$CELTYPE
6
ByLayer
9
$CELWEIGHT
370
18
9
$CLAYER
8
0
9
$CMLJUST
70
0
9
$CMLSCALE
40
1
9
$CMLSTYLE
2
Standard
9
$DIMSTYLE
2
Standard
9
$TEXTSIZE
40
0.2
9
$TEXTSTYLE
7
Standard
9
$LUNITS
70
2
9
$LUPREC
70
4
9
$EXTNAMES
290
1
9
$INSUNITS
70
4
9
$LTSCALE
40
1
9
$LWDISPLAY
290
1
9
$PDMODE
70
0
9
$PDSIZE
40
0
9
$PLINEGEN
70
0
0
ENDSEC
0
SECTION
2
CLASSES
0
CLASS
1
RASTERVARIABLES
2
AcDbRasterVariables
3
ISM
90
0
280
0
281
0
0
ENDSEC
0
SECTION
2
TABLES
0
TABLE
2
VPORT
5
20f
100
AcDbSymbolTable
0
VPORT
5
1
100
AcDbSymbolTableRecord
100
AcDbViewportTableRecord
2
*Active
70
0
10
0
20
0
11
1
21
1
12
-1
22
1
13
0
23
0
14
0.5
24
0.5
15
10
25
10
16
0
26
0
36
1
17
0
27
0
37
0
0
ENDTAB
0
TABLE
2
LTYPE
5
210
100
AcDbSymbolTable
0
LTYPE
5
14
100
AcDbSymbolTableRecord
100
AcDbLinetypeTableRecord
70
0
2
ByBlock
3

72
65
73
0
40
0
0
LTYPE
5
15
100
AcDbSymbolTableRecord
100
AcDbLinetypeTableRecord
70
0
2
ByLayer
3

72
65
73
0
40
0
0
LTYPE
5
16
100
AcDbSymbolTableRecord
100
AcDbLinetypeTableRecord
70
0
2
Continuous
3
Solid line
72
65
73
0
40
0
0
LTYPE
5
6E
100
AcDbSymbolTableRecord
100
AcDbLinetypeTableRecord
70
0
2
CENTER
3
____ _ ____ _ ____ _ ____
72
65
73
4
40
47.5
49
22
74
0
49
-8.5
74
0
49
8.5
74
0
49
-8.5
74
0
0
LTYPE
5
6F
100
AcDbSymbolTableRecord
100
AcDbLinetypeTableRecord
70
0
2
DASHED
3
__ __ __ __ __ __ __ __ __
72
65
73
2
40
25.72
49
12.86
74
0
49
-12.86
74
0
0
ENDTAB
0
TABLE
2
LAYER
5
211
100
AcDbSymbolTable
0
LAYER
5
10
100
AcDbSymbolTableRecord
100
AcDbLayerTableRecord
2
0
70
0
62
7
6
Continuous
290
1
370
-3
390
0
0
LAYER
5
71
100
AcDbSymbolTableRecord
100
AcDbLayerTableRecord
2
80
70
0
62
-6
6
Continuous
290
1
370
-3
390
0
0
LAYER
5
73
100
AcDbSymbolTableRecord
100
AcDbLayerTableRecord
2
81
70
0
62
-3
6
Continuous
290
1
370
-3
390
0
0
LAYER
5
75
100
AcDbSymbolTableRecord
100
AcDbLayerTableRecord
2
1
70
0
62
4
6
Continuous
290
1
370
-3
390
0
0
LAYER
5
8C
100
AcDbSymbolTableRecord
100
AcDbLayerTableRecord
2
4
70
0
62
-2
6
CENTER
290
1
370
-3
390
0
0
LAYER
5
A9
100
AcDbSymbolTableRecord
100
AcDbLayerTableRecord
2
2
70
0
62
7
6
Continuous
290
1
370
-3
390
0
0
LAYER
5
124
100
AcDbSymbolTableRecord
100
AcDbLayerTableRecord
2
Defpoints
70
0
62
7
6
Continuous
290
0
370
-3
390
0
0
LAYER
5
1fb
100
AcDbSymbolTableRecord
100
AcDbLayerTableRecord
2
SK1
70
0
62
4
6
Continuous
290
1
370
-3
390
0
0
LAYER
5
1fc
100
AcDbSymbolTableRecord
100
AcDbLayerTableRecord
2
SK4
70
0
62
2
6
CENTER
290
1
370
-3
390
0
0
LAYER
5
1fd
100
AcDbSymbolTableRecord
100
AcDbLayerTableRecord
2
SK2
70
0
62
7
6
Continuous
290
1
370
-3
390
0
0
LAYER
5
1fe
100
AcDbSymbolTableRecord
100
AcDbLayerTableRecord
2
SK6
70
0
62
5
6
Continuous
290
1
370
-3
390
0
0
ENDTAB
0
TABLE
2
STYLE
5
212
100
AcDbSymbolTable
0
STYLE
5
11
100
AcDbSymbolTableRecord
100
AcDbTextStyleTableRecord
2
Standard
3
txt
70
0
71
0
40
0
41
1
42
0
50
0
0
STYLE
5
109
100
AcDbSymbolTableRecord
100
AcDbTextStyleTableRecord
2
iso_b_vert
3
simplex.shx
70
0
71
0
40
0
41
1
42
0
50
0
0
STYLE
5
10A
100
AcDbSymbolTableRecord
100
AcDbTextStyleTableRecord
2
DWGDirectTextStyle
3
simplex
70
0
71
0
40
0
41
1
42
0
50
0
0
ENDTAB
0
TABLE
2
DIMSTYLE
5
213
100
AcDbSymbolTable
100
AcDbDimStyleTable
0
DIMSTYLE
105
27
100
AcDbSymbolTableRecord
100
AcDbDimStyleTableRecord
2
Standard
70
0
3
<>
41
0.18
42
0.0625
44
0.18
140
0.18
147
0.09
73
0
74
0
77
1
271
2
275
0
278
52
280
0
340
11
0
ENDTAB
0
TABLE
2
VIEW
5
214
100
AcDbSymbolTable
0
ENDTAB
0
TABLE
2
UCS
5
215
100
AcDbSymbolTable
0
ENDTAB
0
TABLE
2
APPID
5
216
100
AcDbSymbolTable
0
APPID
5
12
100
AcDbSymbolTableRecord
100
AcDbRegAppTableRecord
2
ACAD
70
0
0
APPID
5
120
100
AcDbSymbolTableRecord
100
AcDbRegAppTableRecord
2
ACAD_DSTYLE_DIMBREAK
70
0
0
APPID
5
1BA
100
AcDbSymbolTableRecord
100
AcDbRegAppTableRecord
2
ACAD_DSTYLE_DIM_LINETYPE
70
0
0
APPID
5
1BB
100
AcDbSymbolTableRecord
100
AcDbRegAppTableRecord
2
ACAD_DSTYLE_DIM_EXT1_LINETYPE
70
0
0
APPID
5
1BC
100
AcDbSymbolTableRecord
100
AcDbRegAppTableRecord
2
ACAD_DSTYLE_DIM_EXT2_LINETYPE
70
0
0
APPID
5
1F7
100
AcDbSymbolTableRecord
100
AcDbRegAppTableRecord
2
ACAD_MLEADERVER
70
0
0
ENDTAB
0
TABLE
2
BLOCK_RECORD
5
217
100
AcDbSymbolTable
0
BLOCK_RECORD
5
1F
100
AcDbSymbolTableRecord
100
AcDbBlockTableRecord
2
*Model_Space
340
0
70
0
0
BLOCK_RECORD
5
1B
100
AcDbSymbolTableRecord
100
AcDbBlockTableRecord
2
*Paper_Space
340
0
70
0
0
BLOCK_RECORD
5
23
100
AcDbSymbolTableRecord
100
AcDbBlockTableRecord
2
*Paper_Space0
340
0
70
0
0
BLOCK_RECORD
5
125
100
AcDbSymbolTableRecord
100
AcDbBlockTableRecord
2
*D1
340
0
70
0
0
BLOCK_RECORD
5
131
100
AcDbSymbolTableRecord
100
AcDbBlockTableRecord
2
_U0
340
0
70
0
0
BLOCK_RECORD
5
13D
100
AcDbSymbolTableRecord
100
AcDbBlockTableRecord
2
*D3
340
0
70
0
0
BLOCK_RECORD
5
149
100
AcDbSymbolTableRecord
100
AcDbBlockTableRecord
2
_U1
340
0
70
0
0
BLOCK_RECORD
5
155
100
AcDbSymbolTableRecord
100
AcDbBlockTableRecord
2
*D5
340
0
70
0
0
BLOCK_RECORD
5
161
100
AcDbSymbolTableRecord
100
AcDbBlockTableRecord
2
_U2
340
0
70
0
0
BLOCK_RECORD
5
16D
100
AcDbSymbolTableRecord
100
AcDbBlockTableRecord
2
*D7
340
0
70
0
0
BLOCK_RECORD
5
17B
100
AcDbSymbolTableRecord
100
AcDbBlockTableRecord
2
_U3
340
0
70
0
0
BLOCK_RECORD
5
187
100
AcDbSymbolTableRecord
100
AcDbBlockTableRecord
2
*D9
340
0
70
0
0
BLOCK_RECORD
5
193
100
AcDbSymbolTableRecord
100
AcDbBlockTableRecord
2
_U4
340
0
70
0
0
ENDTAB
0
ENDSEC
0
SECTION
2
BLOCKS
0
BLOCK
5
20
100
AcDbEntity
8
0
100
AcDbBlockBegin
2
*Model_Space
70
0
10
0
20
0
30
0
3
*Model_Space
0
ENDBLK
5
21
100
AcDbEntity
8
0
100
AcDbBlockEnd
0
BLOCK
5
1C
100
AcDbEntity
8
0
100
AcDbBlockBegin
2
*Paper_Space
70
0
10
0
20
0
30
0
3
*Paper_Space
0
ENDBLK
5
1D
100
AcDbEntity
8
0
100
AcDbBlockEnd
0
BLOCK
5
24
100
AcDbEntity
8
0
100
AcDbBlockBegin
2
*Paper_Space0
70
0
10
0
20
0
30
0
3
*Paper_Space0
0
ENDBLK
5
25
100
AcDbEntity
8
0
100
AcDbBlockEnd
0
BLOCK
5
126
100
AcDbEntity
8
0
100
AcDbBlockBegin
2
*D1
70
1
10
0
20
0
30
0
3
*D1
0
LINE
5
128
100
AcDbEntity
8
0
62
256
6
ByLayer
370
-2
48
1
60
0
100
AcDbLine
10
0
20
-1.5875
30
0
11
0
21
-21.663398
31
0
39
0
210
0
220
0
230
1
0
LINE
5
129
100
AcDbEntity
8
0
62
256
6
ByLayer
370
-2
48
1
60
0
100
AcDbLine
10
216.1748
20
-11.0375
30
0
11
216.1748
21
-21.663398
31
0
39
0
210
0
220
0
230
1
0
LINE
5
12A
100
AcDbEntity
8
0
62
256
6
ByLayer
370
-2
48
1
60
0
100
AcDbLine
10
3.5
20
-19.663398
30
0
11
212.6748
21
-19.663398
31
0
39
0
210
0
220
0
230
1
0
SOLID
5
12B
100
AcDbEntity
8
0
62
256
6
ByLayer
370
-1
48
1
60
0
100
AcDbTrace
10
3.5
20
-19.080065
30
0
11
3.5
21
-20.246732
31
0
12
0
22
-19.663398
32
0
13
0
23
-19.663398
33
0
39
0
210
0
220
0
230
1
0
SOLID
5
12C
100
AcDbEntity
8
0
62
256
6
ByLayer
370
-1
48
1
60
0
100
AcDbTrace
10
212.6748
20
-20.246732
30
0
11
212.6748
21
-19.080065
31
0
12
216.1748
22
-19.663398
32
0
13
216.1748
23
-19.663398
33
0
39
0
210
0
220
0
230
1
0
MTEXT
5
12D
100
AcDbEntity
8
0
62
256
6
ByLayer
370
18
48
1
60
0
100
AcDbMText
10
108.0874
20
-12.663398
30
0
210
0
220
0
230
1
1
\A1;216.17
40
3.5
41
0
44
1
50
0
71
5
72
5
7
iso_b_vert
0
POINT
5
12E
100
AcDbEntity
8
Defpoints
62
0
6
ByLayer
370
-1
48
1
60
0
100
AcDbPoint
10
0
20
0
30
0
39
0
210
0
220
0
230
1
50
360
0
POINT
5
12F
100
AcDbEntity
8
Defpoints
62
0
6
ByLayer
370
-1
48
1
60
0
100
AcDbPoint
10
216.1748
20
-9.45
30
0
39
0
210
0
220
0
230
1
50
360
0
POINT
5
130
100
AcDbEntity
8
Defpoints
62
0
6
ByLayer
370
-1
48
1
60
0
100
AcDbPoint
10
216.1748
20
-19.663398
30
0
39
0
210
0
220
0
230
1
50
360
0
ENDBLK
5
127
100
AcDbEntity
8
0
100
AcDbBlockEnd
0
BLOCK
5
138
100
AcDbEntity
8
0
100
AcDbBlockBegin
2
_U0
70
0
10
0
20
0
30
0
3
_U0
0
MTEXT
5
132
100
AcDbEntity
8
SK2
62
256
6
ByLayer
370
13
48
1
60
0
100
AcDbMText
10
102.517235
20
-18.630765
30
0
210
0
220
0
230
1
1
\W0.6440;216,17
40
3.5
41
0
44
1.084337
50
0
71
7
72
5
7
iso_b_vert
0
LINE
5
133
100
AcDbEntity
8
SK2
62
256
6
ByLayer
370
13
48
1
60
0
100
AcDbLine
10
0
20
-1.5875
30
0
11
0
21
-21.663398
31
0
39
0
210
0
220
0
230
1
0
LINE
5
134
100
AcDbEntity
8
SK2
62
256
6
ByLayer
370
13
48
1
60
0
100
AcDbLine
10
216.1748
20
-11.0375
30
0
11
216.1748
21
-21.663398
31
0
39
0
210
0
220
0
230
1
0
LINE
5
135
100
AcDbEntity
8
SK2
62
256
6
ByLayer
370
13
48
1
60
0
100
AcDbLine
10
0
20
-19.663398
30
0
11
216.1748
21
-19.663398
31
0
39
0
210
0
220
0
230
1
0
SOLID
5
136
100
AcDbEntity
8
SK2
62
256
6
ByLayer
370
18
48
1
60
0
100
AcDbTrace
10
0
20
-19.663398
30
0
11
3.499998
21
-19.202615
31
0
12
3.500002
22
-20.124182
32
0
13
3.500002
23
-20.124182
33
0
39
0
210
0
220
0
230
1
0
SOLID
5
137
100
AcDbEntity
8
SK2
62
256
6
ByLayer
370
18
48
1
60
0
100
AcDbTrace
10
216.1748
20
-19.663398
30
0
11
212.674802
21
-20.124182
31
0
12
212.674798
22
-19.202615
32
0
13
212.674798
23
-19.202615
33
0
39
0
210
0
220
0
230
1
0
ENDBLK
5
139
100
AcDbEntity
8
0
100
AcDbBlockEnd
0
BLOCK
5
13E
100
AcDbEntity
8
0
100
AcDbBlockBegin
2
*D3
70
1
10
0
20
0
30
0
3
*D3
0
LINE
5
140
100
AcDbEntity
8
0
62
256
6
ByLayer
370
-2
48
1
60
0
100
AcDbLine
10
-50
20
-11.5875
30
0
11
-50
21
-40.692985
31
0
39
0
210
0
220
0
230
1
0
LINE
5
141
100
AcDbEntity
8
0
62
256
6
ByLayer
370
-2
48
1
60
0
100
AcDbLine
10
219
20
-1.5875
30
0
11
219
21
-40.692985
31
0
39
0
210
0
220
0
230
1
0
LINE
5
142
100
AcDbEntity
8
0
62
256
6
ByLayer
370
-2
48
1
60
0
100
AcDbLine
10
-46.5
20
-38.692985
30
0
11
215.5
21
-38.692985
31
0
39
0
210
0
220
0
230
1
0
SOLID
5
143
100
AcDbEntity
8
0
62
256
6
ByLayer
370
-1
48
1
60
0
100
AcDbTrace
10
-46.5
20
-38.109652
30
0
11
-46.5
21
-39.276319
31
0
12
-50
22
-38.692985
32
0
13
-50
23
-38.692985
33
0
39
0
210
0
220
0
230
1
0
SOLID
5
144
100
AcDbEntity
8
0
62
256
6
ByLayer
370
-1
48
1
60
0
100
AcDbTrace
10
215.5
20
-39.276319
30
0
11
215.5
21
-38.109652
31
0
12
219
22
-38.692985
32
0
13
219
23
-38.692985
33
0
39
0
210
0
220
0
230
1
0
MTEXT
5
145
100
AcDbEntity
8
0
62
256
6
ByLayer
370
18
48
1
60
0
100
AcDbMText
10
84.5
20
-31.692985
30
0
210
0
220
0
230
1
1
\A1;269.00
40
3.5
41
0
44
1
50
0
71
5
72
5
7
iso_b_vert
0
POINT
5
146
100
AcDbEntity
8
Defpoints
62
0
6
ByLayer
370
-1
48
1
60
0
100
AcDbPoint
10
-50
20
-10
30
0
39
0
210
0
220
0
230
1
50
360
0
POINT
5
147
100
AcDbEntity
8
Defpoints
62
0
6
ByLayer
370
-1
48
1
60
0
100
AcDbPoint
10
219
20
0
30
0
39
0
210
0
220
0
230
1
50
360
0
POINT
5
148
100
AcDbEntity
8
Defpoints
62
0
6
ByLayer
370
-1
48
1
60
0
100
AcDbPoint
10
219
20
-38.692985
30
0
39
0
210
0
220
0
230
1
50
360
0
ENDBLK
5
13F
100
AcDbEntity
8
0
100
AcDbBlockEnd
0
BLOCK
5
150
100
AcDbEntity
8
0
100
AcDbBlockBegin
2
_U1
70
0
10
0
20
0
30
0
3
_U1
0
MTEXT
5
14A
100
AcDbEntity
8
SK2
62
256
6
ByLayer
370
13
48
1
60
0
100
AcDbMText
10
78.054968
20
-37.660352
30
0
210
0
220
0
230
1
1
\W0.7421;269,00
40
3.5
41
0
44
1.084337
50
0
71
7
72
5
7
iso_b_vert
0
LINE
5
14B
100
AcDbEntity
8
SK2
62
256
6
ByLayer
370
13
48
1
60
0
100
AcDbLine
10
-50
20
-11.5875
30
0
11
-50
21
-40.692985
31
0
39
0
210
0
220
0
230
1
0
LINE
5
14C
100
AcDbEntity
8
SK2
62
256
6
ByLayer
370
13
48
1
60
0
100
AcDbLine
10
219
20
-1.5875
30
0
11
219
21
-40.692985
31
0
39
0
210
0
220
0
230
1
0
LINE
5
14D
100
AcDbEntity
8
SK2
62
256
6
ByLayer
370
13
48
1
60
0
100
AcDbLine
10
-50
20
-38.692985
30
0
11
219
21
-38.692985
31
0
39
0
210
0
220
0
230
1
0
SOLID
5
14E
100
AcDbEntity
8
SK2
62
256
6
ByLayer
370
18
48
1
60
0
100
AcDbTrace
10
-50
20
-38.692985
30
0
11
-46.500002
21
-38.232202
31
0
12
-46.499998
22
-39.153769
32
0
13
-46.499998
23
-39.153769
33
0
39
0
210
0
220
0
230
1
0
SOLID
5
14F
100
AcDbEntity
8
SK2
62
256
6
ByLayer
370
18
48
1
60
0
100
AcDbTrace
10
219
20
-38.692985
30
0
11
215.500002
21
-39.153769
31
0
12
215.499998
22
-38.232202
32
0
13
215.499998
23
-38.232202
33
0
39
0
210
0
220
0
230
1
0
ENDBLK
5
151
100
AcDbEntity
8
0
100
AcDbBlockEnd
0
BLOCK
5
156
100
AcDbEntity
8
0
100
AcDbBlockBegin
2
*D5
70
1
10
0
20
0
30
0
3
*D5
0
LINE
5
158
100
AcDbEntity
8
0
62
256
6
ByLayer
370
-2
48
1
60
0
100
AcDbLine
10
64.97
20
11.0375
30
0
11
64.97
21
23.059119
31
0
39
0
210
0
220
0
230
1
0
LINE
5
159
100
AcDbEntity
8
0
62
256
6
ByLayer
370
-2
48
1
60
0
100
AcDbLine
10
219
20
1.5875
30
0
11
219
21
23.059119
31
0
39
0
210
0
220
0
230
1
0
LINE
5
15A
100
AcDbEntity
8
0
62
256
6
ByLayer
370
-2
48
1
60
0
100
AcDbLine
10
68.47
20
21.059119
30
0
11
215.5
21
21.059119
31
0
39
0
210
0
220
0
230
1
0
SOLID
5
15B
100
AcDbEntity
8
0
62
256
6
ByLayer
370
-1
48
1
60
0
100
AcDbTrace
10
68.47
20
21.642453
30
0
11
68.47
21
20.475786
31
0
12
64.97
22
21.059119
32
0
13
64.97
23
21.059119
33
0
39
0
210
0
220
0
230
1
0
SOLID
5
15C
100
AcDbEntity
8
0
62
256
6
ByLayer
370
-1
48
1
60
0
100
AcDbTrace
10
215.5
20
20.475786
30
0
11
215.5
21
21.642453
31
0
12
219
22
21.059119
32
0
13
219
23
21.059119
33
0
39
0
210
0
220
0
230
1
0
MTEXT
5
15D
100
AcDbEntity
8
0
62
256
6
ByLayer
370
18
48
1
60
0
100
AcDbMText
10
141.985
20
28.059119
30
0
210
0
220
0
230
1
1
\A1;154.03
40
3.5
41
0
44
1
50
0
71
5
72
5
7
iso_b_vert
0
POINT
5
15E
100
AcDbEntity
8
Defpoints
62
0
6
ByLayer
370
-1
48
1
60
0
100
AcDbPoint
10
64.97
20
9.45
30
0
39
0
210
0
220
0
230
1
50
360
0
POINT
5
15F
100
AcDbEntity
8
Defpoints
62
0
6
ByLayer
370
-1
48
1
60
0
100
AcDbPoint
10
219
20
0
30
0
39
0
210
0
220
0
230
1
50
360
0
POINT
5
160
100
AcDbEntity
8
Defpoints
62
0
6
ByLayer
370
-1
48
1
60
0
100
AcDbPoint
10
219
20
21.059119
30
0
39
0
210
0
220
0
230
1
50
360
0
ENDBLK
5
157
100
AcDbEntity
8
0
100
AcDbBlockEnd
0
BLOCK
5
168
100
AcDbEntity
8
0
100
AcDbBlockBegin
2
_U2
70
0
10
0
20
0
30
0
3
_U2
0
MTEXT
5
162
100
AcDbEntity
8
SK2
62
256
6
ByLayer
370
13
48
1
60
0
100
AcDbMText
10
135.793135
20
22.091753
30
0
210
0
220
0
230
1
1
\W0.7145;154,03
40
3.5
41
0
44
1.084337
50
0
71
7
72
5
7
iso_b_vert
0
LINE
5
163
100
AcDbEntity
8
SK2
62
256
6
ByLayer
370
13
48
1
60
0
100
AcDbLine
10
64.97
20
11.0375
30
0
11
64.97
21
23.059119
31
0
39
0
210
0
220
0
230
1
0
LINE
5
164
100
AcDbEntity
8
SK2
62
256
6
ByLayer
370
13
48
1
60
0
100
AcDbLine
10
219
20
1.5875
30
0
11
219
21
23.059119
31
0
39
0
210
0
220
0
230
1
0
LINE
5
165
100
AcDbEntity
8
SK2
62
256
6
ByLayer
370
13
48
1
60
0
100
AcDbLine
10
64.97
20
21.059119
30
0
11
219
21
21.059119
31
0
39
0
210
0
220
0
230
1
0
SOLID
5
166
100
AcDbEntity
8
SK2
62
256
6
ByLayer
370
18
48
1
60
0
100
AcDbTrace
10
64.97
20
21.059119
30
0
11
68.469998
21
21.519903
31
0
12
68.470002
22
20.598335
32
0
13
68.470002
23
20.598335
33
0
39
0
210
0
220
0
230
1
0
SOLID
5
167
100
AcDbEntity
8
SK2
62
256
6
ByLayer
370
18
48
1
60
0
100
AcDbTrace
10
219
20
21.059119
30
0
11
215.500002
21
20.598335
31
0
12
215.499998
22
21.519903
32
0
13
215.499998
23
21.519903
33
0
39
0
210
0
220
0
230
1
0
ENDBLK
5
169
100
AcDbEntity
8
0
100
AcDbBlockEnd
0
BLOCK
5
16E
100
AcDbEntity
8
0
100
AcDbBlockBegin
2
*D7
70
1
10
0
20
0
30
0
3
*D7
0
LINE
5
170
100
AcDbEntity
8
0
62
256
6
ByLayer
370
-2
48
1
60
0
100
AcDbLine
10
219
20
-1.5875
30
0
11
219
21
-24.252503
31
0
39
0
210
0
220
0
230
1
0
LINE
5
171
100
AcDbEntity
8
0
62
256
6
ByLayer
370
-2
48
1
60
0
100
AcDbLine
10
216.1748
20
-11.0375
30
0
11
216.1748
21
-24.252503
31
0
39
0
210
0
220
0
230
1
0
LINE
5
172
100
AcDbEntity
8
0
62
256
6
ByLayer
370
-2
48
1
60
0
100
AcDbLine
10
219
20
-22.252503
30
0
11
247.166667
21
-22.252503
31
0
39
0
210
0
220
0
230
1
0
LINE
5
173
100
AcDbEntity
8
0
62
256
6
ByLayer
370
-2
48
1
60
0
100
AcDbLine
10
222.5
20
-22.252503
30
0
11
226
21
-22.252503
31
0
39
0
210
0
220
0
230
1
0
LINE
5
174
100
AcDbEntity
8
0
62
256
6
ByLayer
370
-2
48
1
60
0
100
AcDbLine
10
212.6748
20
-22.252503
30
0
11
209.1748
21
-22.252503
31
0
39
0
210
0
220
0
230
1
0
SOLID
5
175
100
AcDbEntity
8
0
62
256
6
ByLayer
370
-1
48
1
60
0
100
AcDbTrace
10
222.5
20
-21.66917
30
0
11
222.5
21
-22.835837
31
0
12
219
22
-22.252503
32
0
13
219
23
-22.252503
33
0
39
0
210
0
220
0
230
1
0
SOLID
5
176
100
AcDbEntity
8
0
62
256
6
ByLayer
370
-1
48
1
60
0
100
AcDbTrace
10
212.6748
20
-22.835837
30
0
11
212.6748
21
-21.66917
31
0
12
216.1748
22
-22.252503
32
0
13
216.1748
23
-22.252503
33
0
39
0
210
0
220
0
230
1
0
MTEXT
5
177
100
AcDbEntity
8
0
62
256
6
ByLayer
370
18
48
1
60
0
100
AcDbMText
10
236.583333
20
-15.252503
30
0
210
0
220
0
230
1
1
\A1;2.83
40
3.5
41
0
44
1
50
0
71
5
72
5
7
iso_b_vert
0
POINT
5
178
100
AcDbEntity
8
Defpoints
62
0
6
ByLayer
370
-1
48
1
60
0
100
AcDbPoint
10
219
20
0
30
0
39
0
210
0
220
0
230
1
50
360
0
POINT
5
179
100
AcDbEntity
8
Defpoints
62
0
6
ByLayer
370
-1
48
1
60
0
100
AcDbPoint
10
216.1748
20
-9.45
30
0
39
0
210
0
220
0
230
1
50
360
0
POINT
5
17A
100
AcDbEntity
8
Defpoints
62
0
6
ByLayer
370
-1
48
1
60
0
100
AcDbPoint
10
216.1748
20
-22.252503
30
0
39
0
210
0
220
0
230
1
50
360
0
ENDBLK
5
16F
100
AcDbEntity
8
0
100
AcDbBlockEnd
0
BLOCK
5
182
100
AcDbEntity
8
0
100
AcDbBlockBegin
2
_U3
70
0
10
0
20
0
30
0
3
_U3
0
MTEXT
5
17C
100
AcDbEntity
8
SK2
62
256
6
ByLayer
370
13
48
1
60
0
100
AcDbMText
10
225.15186
20
-21.21987
30
0
210
0
220
0
230
1
1
\W0.7150;2,83
40
3.5
41
0
44
1.084337
50
0
71
7
72
5
7
iso_b_vert
0
LINE
5
17D
100
AcDbEntity
8
SK2
62
256
6
ByLayer
370
13
48
1
60
0
100
AcDbLine
10
219
20
-1.5875
30
0
11
219
21
-24.252503
31
0
39
0
210
0
220
0
230
1
0
LINE
5
17E
100
AcDbEntity
8
SK2
62
256
6
ByLayer
370
13
48
1
60
0
100
AcDbLine
10
216.1748
20
-11.0375
30
0
11
216.1748
21
-24.252503
31
0
39
0
210
0
220
0
230
1
0
LINE
5
17F
100
AcDbEntity
8
SK2
62
256
6
ByLayer
370
13
48
1
60
0
100
AcDbLine
10
207.4248
20
-22.252503
30
0
11
232.996491
21
-22.252503
31
0
39
0
210
0
220
0
230
1
0
SOLID
5
180
100
AcDbEntity
8
SK2
62
256
6
ByLayer
370
18
48
1
60
0
100
AcDbTrace
10
219
20
-22.252503
30
0
11
222.499998
21
-21.791719
31
0
12
222.500002
22
-22.713287
32
0
13
222.500002
23
-22.713287
33
0
39
0
210
0
220
0
230
1
0
SOLID
5
181
100
AcDbEntity
8
SK2
62
256
6
ByLayer
370
18
48
1
60
0
100
AcDbTrace
10
216.1748
20
-22.252503
30
0
11
212.674802
21
-22.713287
31
0
12
212.674798
22
-21.791719
32
0
13
212.674798
23
-21.791719
33
0
39
0
210
0
220
0
230
1
0
ENDBLK
5
183
100
AcDbEntity
8
0
100
AcDbBlockEnd
0
BLOCK
5
188
100
AcDbEntity
8
0
100
AcDbBlockBegin
2
*D9
70
1
10
0
20
0
30
0
3
*D9
0
LINE
5
18A
100
AcDbEntity
8
0
62
256
6
ByLayer
370
-2
48
1
60
0
100
AcDbLine
10
-50
20
-11.5875
30
0
11
-50
21
-30.343428
31
0
39
0
210
0
220
0
230
1
0
LINE
5
18B
100
AcDbEntity
8
0
62
256
6
ByLayer
370
-2
48
1
60
0
100
AcDbLine
10
216.1748
20
-11.0375
30
0
11
216.1748
21
-30.343428
31
0
39
0
210
0
220
0
230
1
0
LINE
5
18C
100
AcDbEntity
8
0
62
256
6
ByLayer
370
-2
48
1
60
0
100
AcDbLine
10
-46.5
20
-28.343428
30
0
11
212.6748
21
-28.343428
31
0
39
0
210
0
220
0
230
1
0
SOLID
5
18D
100
AcDbEntity
8
0
62
256
6
ByLayer
370
-1
48
1
60
0
100
AcDbTrace
10
-46.5
20
-27.760095
30
0
11
-46.5
21
-28.926762
31
0
12
-50
22
-28.343428
32
0
13
-50
23
-28.343428
33
0
39
0
210
0
220
0
230
1
0
SOLID
5
18E
100
AcDbEntity
8
0
62
256
6
ByLayer
370
-1
48
1
60
0
100
AcDbTrace
10
212.6748
20
-28.926762
30
0
11
212.6748
21
-27.760095
31
0
12
216.1748
22
-28.343428
32
0
13
216.1748
23
-28.343428
33
0
39
0
210
0
220
0
230
1
0
MTEXT
5
18F
100
AcDbEntity
8
0
62
256
6
ByLayer
370
18
48
1
60
0
100
AcDbMText
10
83.0874
20
-21.343428
30
0
210
0
220
0
230
1
1
\A1;266.17
40
3.5
41
0
44
1
50
0
71
5
72
5
7
iso_b_vert
0
POINT
5
190
100
AcDbEntity
8
Defpoints
62
0
6
ByLayer
370
-1
48
1
60
0
100
AcDbPoint
10
-50
20
-10
30
0
39
0
210
0
220
0
230
1
50
360
0
POINT
5
191
100
AcDbEntity
8
Defpoints
62
0
6
ByLayer
370
-1
48
1
60
0
100
AcDbPoint
10
216.1748
20
-9.45
30
0
39
0
210
0
220
0
230
1
50
360
0
POINT
5
192
100
AcDbEntity
8
Defpoints
62
0
6
ByLayer
370
-1
48
1
60
0
100
AcDbPoint
10
216.1748
20
-28.343428
30
0
39
0
210
0
220
0
230
1
50
360
0
ENDBLK
5
189
100
AcDbEntity
8
0
100
AcDbBlockEnd
0
BLOCK
5
19A
100
AcDbEntity
8
0
100
AcDbBlockBegin
2
_U4
70
0
10
0
20
0
30
0
3
_U4
0
MTEXT
5
194
100
AcDbEntity
8
SK2
62
256
6
ByLayer
370
13
48
1
60
0
100
AcDbMText
10
77.079801
20
-27.310795
30
0
210
0
220
0
230
1
1
\W0.6930;266,17
40
3.5
41
0
44
1.084337
50
0
71
7
72
5
7
iso_b_vert
0
LINE
5
195
100
AcDbEntity
8
SK2
62
256
6
ByLayer
370
13
48
1
60
0
100
AcDbLine
10
-50
20
-11.5875
30
0
11
-50
21
-30.343428
31
0
39
0
210
0
220
0
230
1
0
LINE
5
196
100
AcDbEntity
8
SK2
62
256
6
ByLayer
370
13
48
1
60
0
100
AcDbLine
10
216.1748
20
-11.0375
30
0
11
216.1748
21
-30.343428
31
0
39
0
210
0
220
0
230
1
0
LINE
5
197
100
AcDbEntity
8
SK2
62
256
6
ByLayer
370
13
48
1
60
0
100
AcDbLine
10
-50
20
-28.343428
30
0
11
216.1748
21
-28.343428
31
0
39
0
210
0
220
0
230
1
0
SOLID
5
198
100
AcDbEntity
8
SK2
62
256
6
ByLayer
370
18
48
1
60
0
100
AcDbTrace
10
-50
20
-28.343428
30
0
11
-46.500002
21
-27.882645
31
0
12
-46.499998
22
-28.804212
32
0
13
-46.499998
23
-28.804212
33
0
39
0
210
0
220
0
230
1
0
SOLID
5
199
100
AcDbEntity
8
SK2
62
256
6
ByLayer
370
18
48
1
60
0
100
AcDbTrace
10
216.1748
20
-28.343428
30
0
11
212.674802
21
-28.804212
31
0
12
212.674798
22
-27.882645
32
0
13
212.674798
23
-27.882645
33
0
39
0
210
0
220
0
230
1
0
ENDBLK
5
19B
100
AcDbEntity
8
0
100
AcDbBlockEnd
0
ENDSEC
0
SECTION
2
ENTITIES
0
ARC
5
B2
100
AcDbEntity
8
1
62
256
6
ByLayer
370
18
48
1
60
0
100
AcDbCircle
39
0
10
1.311959
20
-10.115841
30
0
40
0.799999999999998
210
0
220
0
230
1
100
AcDbArc
50
89.96419
51
145.082206
0
ARC
5
B3
100
AcDbEntity
8
1
62
256
6
ByLayer
370
18
48
1
60
0
100
AcDbCircle
39
0
10
1.311959
20
10.115841
30
0
40
0.799999999999998
210
0
220
0
230
1
100
AcDbArc
50
214.917794
51
270.03581
0
ARC
5
B4
100
AcDbEntity
8
1
62
256
6
ByLayer
370
18
48
1
60
0
100
AcDbCircle
39
0
10
0
20
-9.2
30
0
40
0.800000000000004
210
0
220
0
230
1
100
AcDbArc
50
270
51
325.082206
0
ARC
5
B5
100
AcDbEntity
8
1
62
256
6
ByLayer
370
18
48
1
60
0
100
AcDbCircle
39
0
10
0
20
9.2
30
0
40
0.800000000000004
210
0
220
0
230
1
100
AcDbArc
50
34.917794
51
90
0
ELLIPSE
5
B6
100
AcDbEntity
8
1
62
256
6
ByLayer
370
18
48
1
60
0
100
AcDbEllipse
10
6.25
20
9.049178
30
0
11
0.25
21
0
31
0
210
0
220
0
230
1
40
0.999998
41
-3.10040147578607
42
-1.56418054589581
0
ELLIPSE
5
B7
100
AcDbEntity
8
1
62
256
6
ByLayer
370
18
48
1
60
0
100
AcDbEllipse
10
6.25
20
-9.049178
30
0
11
0.25
21
0
31
0
210
0
220
0
230
1
40
0.999998
41
1.57604324110317
42
3.10040147578608
0
POINT
5
70
100
AcDbEntity
8
80
62
256
6
ByLayer
370
18
48
1
60
0
100
AcDbPoint
10
0
20
0
30
0
39
0
210
0
220
0
230
1
50
360
0
POINT
5
72
100
AcDbEntity
8
81
62
256
6
ByLayer
370
18
48
1
60
0
100
AcDbPoint
10
219
20
0
30
0
39
0
210
0
220
0
230
1
50
360
0
POINT
5
74
100
AcDbEntity
8
1
62
256
6
ByLayer
370
18
48
1
60
1
100
AcDbPoint
10
216.1748
20
-9.45
30
0
39
0
210
0
220
0
230
1
50
360
0
POINT
5
76
100
AcDbEntity
8
1
62
256
6
ByLayer
370
18
48
1
60
1
100
AcDbPoint
10
-50
20
-10
30
0
39
0
210
0
220
0
230
1
50
360
0
POINT
5
77
100
AcDbEntity
8
1
62
256
6
ByLayer
370
18
48
1
60
1
100
AcDbPoint
10
64.97
20
9.45
30
0
39
0
210
0
220
0
230
1
50
360
0
POINT
5
78
100
AcDbEntity
8
1
62
256
6
ByLayer
370
18
48
1
60
1
100
AcDbPoint
10
216.1748
20
-9.45
30
0
39
0
210
0
220
0
230
1
50
360
0
POINT
5
79
100
AcDbEntity
8
1
62
256
6
ByLayer
370
18
48
1
60
1
100
AcDbPoint
10
-50
20
-10
30
0
39
0
210
0
220
0
230
1
50
360
0
POINT
5
7A
100
AcDbEntity
8
1
62
256
6
ByLayer
370
18
48
1
60
1
100
AcDbPoint
10
216.1748
20
-9.45
30
0
39
0
210
0
220
0
230
1
50
360
0
SPLINE
5
B8
100
AcDbEntity
8
SK1
62
256
6
ByLayer
370
18
48
1
60
0
100
AcDbSpline
70
4
71
3
72
12
73
8
40
0
40
0
40
0
40
0
40
0.249999999999999
40
0.249999999999999
40
0.499999999999998
40
0.499999999999998
40
1
40
1
40
1
40
1
41
1
10
-47.6
20
-9.08938367472268
30
0
41
1
10
-47.6
20
-9.08754337261811
30
0
41
1
10
-47.6041468027231
20
-9.08158390396622
30
0
41
1
10
-47.6170570586248
20
-9.0655155428538
30
0
41
1
10
-47.6255546314712
20
-9.055691328477
30
0
41
1
10
-47.654055184327
20
-9.02389811204156
30
0
41
1
10
-47.6767308868523
20
-8.99995386868309
30
0
41
1
10
-47.7
20
-8.9763801941769
30
0
0
SPLINE
5
B9
100
AcDbEntity
8
SK1
62
256
6
ByLayer
370
18
48
1
60
0
100
AcDbSpline
70
4
71
3
72
8
73
4
40
0
40
0
40
0
40
0
40
1
40
1
40
1
40
1
41
1
10
-49.8872703804669
20
6.75038929766109
30
0
41
1
10
-49.9185237764596
20
6.69962336239081
30
0
41
1
10
-49.9567056459576
20
6.63984336697254
30
0
41
1
10
-50
20
6.57382350175331
30
0
0
SPLINE
5
BA
100
AcDbEntity
8
SK1
62
256
6
ByLayer
370
18
48
1
60
0
100
AcDbSpline
70
4
71
3
72
12
73
8
40
0
40
0
40
0
40
0
40
0.499999999999993
40
0.499999999999993
40
0.749999999999996
40
0.749999999999996
40
1
40
1
40
1
40
1
41
1
10
-47.7
20
8.84636934137353
30
0
41
1
10
-47.6767410897415
20
8.86993267944843
30
0
41
1
10
-47.6540473543102
20
8.89456849923144
30
0
41
1
10
-47.6255892761979
20
8.92841832697405
30
0
41
1
10
-47.6170511286925
20
8.93918005676051
30
0
41
1
10
-47.6041481443464
20
8.9574711589791
30
0
41
1
10
-47.6
20
8.96477462077183
30
0
41
1
10
-47.6
20
8.96804021210619
30
0
0
SPLINE
5
BB
100
AcDbEntity
8
SK1
62
256
6
ByLayer
370
18
48
1
60
0
100
AcDbSpline
70
4
71
3
72
8
73
4
40
0
40
0
40
0
40
0
40
1
40
1
40
1
40
1
41
1
10
-47.7
20
-8.9763801941769
30
0
41
1
10
-48.430785844415
20
-8.23602934708424
30
0
41
1
10
-49.160428385453
20
-7.49456863786099
30
0
41
1
10
-49.8872703804685
20
-6.75038929766163
30
0
0
SPLINE
5
BC
100
AcDbEntity
8
SK1
62
256
6
ByLayer
370
18
48
1
60
0
100
AcDbSpline
70
4
71
3
72
8
73
4
40
0
40
0
40
0
40
0
40
1
40
1
40
1
40
1
41
1
10
-49.8872703804669
20
-6.75038929766106
30
0
41
1
10
-49.9185237764595
20
-6.69962336239081
30
0
41
1
10
-49.9567056459576
20
-6.63984336697254
30
0
41
1
10
-50
20
-6.57382350175331
30
0
0
SPLINE
5
BD
100
AcDbEntity
8
SK1
62
256
6
ByLayer
370
18
48
1
60
0
100
AcDbSpline
70
4
71
3
72
8
73
4
40
0
40
0
40
0
40
0
40
1
40
1
40
1
40
1
41
1
10
-47.7
20
8.9763801941769
30
0
41
1
10
-48.430785844415
20
8.23602934708427
30
0
41
1
10
-49.160428385453
20
7.49456863786099
30
0
41
1
10
-49.8872703804685
20
6.75038929766166
30
0
0
SPLINE
5
BE
100
AcDbEntity
8
SK1
62
256
6
ByLayer
370
18
48
1
60
0
100
AcDbSpline
70
4
71
3
72
8
73
4
40
0
40
0
40
0
40
0
40
1
40
1
40
1
40
1
41
1
10
-49.7770470219617
20
6.73488579340906
30
0
41
1
10
-49.8137488047057
20
6.74027241535379
30
0
41
1
10
-49.8504904463356
20
6.74543734608196
30
0
41
1
10
-49.8872703804686
20
6.7503892976618
30
0
0
SPLINE
5
BF
100
AcDbEntity
8
SK1
62
256
6
ByLayer
370
18
48
1
60
0
100
AcDbSpline
70
4
71
3
72
8
73
4
40
0
40
0
40
0
40
0
40
1
40
1
40
1
40
1
41
1
10
-50
20
6.50491138388401
30
0
41
1
10
-49.2358894936441
20
7.28791153007208
30
0
41
1
10
-48.468562176693
20
8.06774772068027
30
0
41
1
10
-47.7
20
8.84636934137353
30
0
0
SPLINE
5
C0
100
AcDbEntity
8
SK1
62
256
6
ByLayer
370
18
48
1
60
0
100
AcDbSpline
70
4
71
3
72
12
73
8
40
0
40
0
40
0
40
0
40
0.250000000000001
40
0.250000000000001
40
0.500000000000002
40
0.500000000000002
40
1
40
1
40
1
40
1
41
1
10
-47.6
20
9.08938367472268
30
0
41
1
10
-47.6
20
9.08754337261811
30
0
41
1
10
-47.6041468027231
20
9.08158390396619
30
0
41
1
10
-47.6170570586248
20
9.0655155428538
30
0
41
1
10
-47.6255546314712
20
9.055691328477
30
0
41
1
10
-47.654055184327
20
9.02389811204156
30
0
41
1
10
-47.6767308868523
20
8.99995386868309
30
0
41
1
10
-47.7
20
8.9763801941769
30
0
0
SPLINE
5
C1
100
AcDbEntity
8
1
62
256
6
ByLayer
370
18
48
1
60
0
100
AcDbSpline
70
4
71
3
72
8
73
4
40
0
40
0
40
0
40
0
40
1
40
1
40
1
40
1
41
1
10
218.974886045706
20
-0.0076792442096405
30
0
41
1
10
218.915413433446
20
-0.118339931669141
30
0
41
1
10
218.856125844709
20
-0.229165918732008
30
0
41
1
10
218.797023531448
20
-0.340157430417804
30
0
0
SPLINE
5
C2
100
AcDbEntity
8
1
62
256
6
ByLayer
370
13
48
1
60
0
100
AcDbSpline
70
4
71
3
72
31
73
27
40
0
40
0
40
0
40
0
40
4.7434132864E-06
40
4.7434132864E-06
40
0.0500045062426221
40
0.0500045062426221
40
0.100004269071958
40
0.100004269071958
40
0.200003794730629
40
0.3000033203893
40
0.3000033203893
40
0.400002846047971
40
0.400002846047971
40
0.500002371706642
40
0.500002371706642
40
0.550002134535978
40
0.550002134535978
40
0.600001897365314
40
0.600001897365314
40
0.800000948682657
40
0.800000948682657
40
0.900000474341329
40
0.900000474341329
40
0.950000237170664
40
0.950000237170664
40
1
40
1
40
1
40
1
41
1
10
6.25017112817827
20
-8.79919208742968
30
0
41
1
10
6.25017108381853
20
-8.79919108831396
30
0
41
1
10
6.25017104002839
20
-8.79919008917314
30
0
41
1
10
6.25016914815564
20
-8.79914692198184
30
0
41
1
10
6.25016727080416
20
-8.79608987382511
30
0
41
1
10
6.25016370852248
20
-8.7840615520393
30
0
41
1
10
6.25016201980165
20
-8.77509341957543
30
0
41
1
10
6.25015729615143
20
-8.73946423055514
30
0
41
1
10
6.25015191445357
20
-8.66872709347317
30
0
41
1
10
6.25014898282154
20
-8.55212136453139
30
0
41
1
10
6.25014754575676
20
-8.41232494017939
30
0
41
1
10
6.2501475758861
20
-8.33067589970153
30
0
41
1
10
6.25014936266211
20
-8.14402487866326
30
0
41
1
10
6.25015111008892
20
-8.03979873276296
30
0
41
1
10
6.25015507449731
20
-7.86724319540772
30
0
41
1
10
6.25015661947936
20
-7.80701780881719
30
0
41
1
10
6.25016016256478
20
-7.6811258855312
30
0
41
1
10
6.25016216443231
20
-7.61535459426747
30
0
41
1
10
6.25017323448907
20
-7.27510156380996
30
0
41
1
10
6.25018553745724
20
-6.9655375802605
30
0
41
1
10
6.25020831403279
20
-6.44648772078551
30
0
41
1
10
6.25021662148555
20
-6.26429864382976
30
0
41
1
10
6.25022999602845
20
-5.97691814131494
30
0
41
1
10
6.25023461515275
20
-5.8785801293034
30
0
41
1
10
6.25024402701911
20
-5.67915959445989
30
0
41
1
10
6.25024882890813
20
-5.57787732386589
30
0
41
1
10
6.25025370421488
20
-5.47505409999141
30
0
0
SPLINE
5
C3
100
AcDbEntity
8
1
62
256
6
ByLayer
370
18
48
1
60
0
100
AcDbSpline
70
4
71
3
72
16
73
12
40
0
40
0
40
0
40
0
40
0.12499999999998
40
0.12499999999998
40
0.249999999999959
40
0.249999999999959
40
0.499999999999973
40
0.499999999999973
40
0.749999999999986
40
0.749999999999986
40
1
40
1
40
1
40
1
41
1
10
215.644591307384
20
2.33970428382958
30
0
41
1
10
215.770348595203
20
2.33722304981731
30
0
41
1
10
215.896114574601
20
2.33466454309539
30
0
41
1
10
216.147477238595
20
2.33105264969521
30
0
41
1
10
216.273127477961
20
2.32952313288186
30
0
41
1
10
216.650107619971
20
2.3246729883532
30
0
41
1
10
216.901418297677
20
2.32152328047024
30
0
41
1
10
217.404007270446
20
2.31551176347762
30
0
41
1
10
217.655298115747
20
2.31253837613153
30
0
41
1
10
218.157677511578
20
2.30839010862661
30
0
41
1
10
218.408774491419
20
2.30748665874469
30
0
41
1
10
218.659613890322
20
2.30773592772556
30
0
0
SPLINE
5
C4
100
AcDbEntity
8
1
62
256
6
ByLayer
370
18
48
1
60
0
100
AcDbSpline
70
4
71
3
72
54
73
50
40
0
40
0
40
0
40
0
40
0.0624999999999991
40
0.0624999999999991
40
0.124999999999998
40
0.124999999999998
40
0.187499999999997
40
0.187499999999997
40
0.249999999999996
40
0.249999999999996
40
0.312499999999995
40
0.312499999999995
40
0.343749999999995
40
0.343749999999995
40
0.374999999999994
40
0.374999999999994
40
0.437499999999983
40
0.437499999999983
40
0.499999999999973
40
0.499999999999973
40
0.531249999999971
40
0.531249999999971
40
0.56249999999997
40
0.56249999999997
40
0.624999999999976
40
0.624999999999976
40
0.687499999999982
40
0.687499999999982
40
0.718749999999982
40
0.718749999999982
40
0.749999999999981
40
0.749999999999981
40
0.812499999999986
40
0.812499999999986
40
0.828124999999988
40
0.828124999999988
40
0.832031249999989
40
0.832031249999989
40
0.835937499999989
40
0.835937499999989
40
0.843749999999991
40
0.843749999999991
40
0.851562499999992
40
0.851562499999992
40
0.859374999999993
40
0.859374999999993
40
0.874999999999995
40
0.874999999999995
40
1
40
1
40
1
40
1
41
1
10
209.265588703124
20
-2.63825901273754
30
0
41
1
10
209.470871482957
20
-2.69410627095132
30
0
41
1
10
209.67647700928
20
-2.74415522061128
30
0
41
1
10
210.088401484846
20
-2.83143610614695
30
0
41
1
10
210.295116204876
20
-2.86872575191981
30
0
41
1
10
210.7075557722
20
-2.9284160475768
30
0
41
1
10
210.912114074601
20
-2.94887464209808
30
0
41
1
10
211.318340486803
20
-2.97346366207779
30
0
41
1
10
211.519962302382
20
-2.97733254791956
30
0
41
1
10
211.919924156066
20
-2.96652988827634
30
0
41
1
10
212.118273823585
20
-2.95191274425426
30
0
41
1
10
212.412965179855
20
-2.91398115004512
30
0
41
1
10
212.510720128809
20
-2.89865092606806
30
0
41
1
10
212.705186761895
20
-2.86209654413469
30
0
41
1
10
212.802160319099
20
-2.84080593885395
30
0
41
1
10
213.088665274422
20
-2.76767802962499
30
0
41
1
10
213.274015804715
20
-2.70645025929778
30
0
41
1
10
213.633296942298
20
-2.55879062480585
30
0
41
1
10
213.807272946299
20
-2.4724589524686
30
0
41
1
10
214.058726675959
20
-2.32197199444602
30
0
41
1
10
214.140949879594
20
-2.26829011319563
30
0
41
1
10
214.302122453893
20
-2.15370090850902
30
0
41
1
10
214.381240707408
20
-2.09262196923319
30
0
41
1
10
214.610455986468
20
-1.90097634633631
30
0
41
1
10
214.753448807195
20
-1.76142613454567
30
0
41
1
10
215.020690677147
20
-1.45982244600134
30
0
41
1
10
215.144909182901
20
-1.29773229958147
30
0
41
1
10
215.317702093282
20
-1.03834750731951
30
0
41
1
10
215.373044799982
20
-0.949178701834171
30
0
41
1
10
215.479326970461
20
-0.765554676540262
30
0
41
1
10
215.530264104643
20
-0.671069243639693
30
0
41
1
10
215.675513633359
20
-0.382346354396731
30
0
41
1
10
215.762768027705
20
-0.182047546225221
30
0
41
1
10
215.861170158263
20
0.0768015097340538
30
0
41
1
10
215.880296492412
20
0.128958819026167
30
0
41
1
10
215.903528813969
20
0.194627926339876
30
0
41
1
10
215.908161972049
20
0.207771053368674
30
0
41
1
10
215.917273799864
20
0.234165347145876
30
0
41
1
10
215.921568869577
20
0.247525318548668
30
0
41
1
10
215.930090983629
20
0.289453464371519
30
0
41
1
10
215.931688220824
20
0.319551913952665
30
0
41
1
10
215.928816043697
20
0.380657920815651
30
0
41
1
10
215.92427106286
20
0.41129739640607
30
0
41
1
10
215.911206808928
20
0.472686890378952
30
0
41
1
10
215.903519262407
20
0.503412552482416
30
0
41
1
10
215.881830819577
20
0.595578855313107
30
0
41
1
10
215.867334527449
20
0.657018987154544
30
0
41
1
10
215.736579802262
20
1.20994876316209
30
0
41
1
10
215.618586175853
20
1.7012479453567
30
0
41
1
10
215.49938423457
20
2.19239665066757
30
0
0
SPLINE
5
C5
100
AcDbEntity
8
1
62
256
6
ByLayer
370
18
48
1
60
0
100
AcDbSpline
70
4
71
3
72
18
73
14
40
0
40
0
40
0
40
0
40
0.125
40
0.125
40
0.1875
40
0.1875
40
0.25
40
0.25
40
0.5
40
0.5
40
0.75
40
0.75
40
1
40
1
40
1
40
1
41
1
10
209.265588703124
20
-2.63825901273751
30
0
41
1
10
209.443079248957
20
-2.85035287908431
30
0
41
1
10
209.626440409397
20
-3.05610991083688
30
0
41
1
10
209.909654892201
20
-3.35592367086412
30
0
41
1
10
210.005419238563
20
-3.45439410474378
30
0
41
1
10
210.199537482541
20
-3.64853976977202
30
0
41
1
10
210.2979114065
20
-3.74422256126161
30
0
41
1
10
210.792404828167
20
-4.21268869075229
30
0
41
1
10
211.199095798416
20
-4.55891298390924
30
0
41
1
10
212.030183644831
20
-5.20580746062009
30
0
41
1
10
212.454628726658
20
-5.50635361968506
30
0
41
1
10
213.318811931746
20
-6.06809969430824
30
0
41
1
10
213.758568917769
20
-6.32925107937677
30
0
41
1
10
214.2052948006
20
-6.5724727470685
30
0
0
SPLINE
5
C6
100
AcDbEntity
8
1
62
256
6
ByLayer
370
18
48
1
60
0
100
AcDbSpline
70
4
71
3
72
18
73
14
40
0
40
0
40
0
40
0
40
0.0028557626950576
40
0.0028557626950576
40
0.478819467718627
40
0.478819467718627
40
0.597810393974521
40
0.597810393974521
40
0.716801320230415
40
0.716801320230415
40
0.954783172742207
40
0.954783172742207
40
1
40
1
40
1
40
1
41
1
10
78.3108998879728
20
-0.0097569418873604
30
0
41
1
10
78.3238967348513
20
-0.0164703469573624
30
0
41
1
10
78.3368932822883
20
-0.0231836299750228
30
0
41
1
10
80.5159467964053
20
-1.14876239170599
30
0
41
1
10
82.6741700314884
20
-2.26327871644844
30
0
41
1
10
85.4016762884497
20
-3.57316922526542
30
0
41
1
10
85.9491889952588
20
-3.83121764140932
30
0
41
1
10
87.0460184486335
20
-4.33591057185785
30
0
41
1
10
87.592754944085
20
-4.58135037997053
30
0
41
1
10
89.2294694238041
20
-5.29465920170802
30
0
41
1
10
90.3159128195995
20
-5.73967133415277
30
0
41
1
10
91.6081457245895
20
-6.22566745687365
30
0
41
1
10
91.814444780027
20
-6.30195316124107
30
0
41
1
10
92.0207470649155
20
-6.37688919373969
30
0
0
SPLINE
5
C7
100
AcDbEntity
8
1
62
256
6
ByLayer
370
13
48
1
60
0
100
AcDbSpline
70
4
71
3
72
20
73
16
40
0
40
0
40
0
40
0
40
0.167840715792206
40
0.167840715792206
40
0.271446206994034
40
0.271446206994034
40
0.375051698195862
40
0.375051698195862
40
0.582262680599512
40
0.582262680599512
40
0.789473663003163
40
0.789473663003163
40
0.996684645406814
40
0.996684645406814
40
1
40
1
40
1
40
1
41
1
10
92.0207461259167
20
-6.37688885266329
30
0
41
1
10
92.9002390430275
20
-6.69635072124882
30
0
41
1
10
93.7797906522287
20
-6.99128331023812
30
0
41
1
10
95.2058957562237
20
-7.42372054790522
30
0
41
1
10
95.7510880703163
20
-7.57824009728975
30
0
41
1
10
96.8441171945161
20
-7.86507923727996
30
0
41
1
10
97.3928315932171
20
-7.997542166622
30
0
41
1
10
99.037126627392
20
-8.35761821627358
30
0
41
1
10
100.130480342913
20
-8.54833603293258
30
0
41
1
10
102.319941404508
20
-8.82588981584533
30
0
41
1
10
103.417680749624
20
-8.91270008422947
30
0
41
1
10
105.607082909093
20
-8.97811452814199
30
0
41
1
10
106.700269821947
20
-8.95710408010908
30
0
41
1
10
107.813844551646
20
-8.88136918442166
30
0
41
1
10
107.831381741569
20
-8.88016275719841
30
0
41
1
10
107.848919581209
20
-8.87894258172764
30
0
0
SPLINE
5
C8
100
AcDbEntity
8
1
62
256
6
ByLayer
370
18
48
1
60
0
100
AcDbSpline
70
4
71
3
72
22
73
18
40
0
40
0
40
0
40
0
40
0.180456352819309
40
0.180456352819309
40
0.295690163828245
40
0.295690163828245
40
0.353307069332714
40
0.353307069332714
40
0.410923974837184
40
0.410923974837184
40
0.641391596855064
40
0.641391596855064
40
0.756625407864001
40
0.756625407864001
40
0.871859218872938
40
0.871859218872938
40
1
40
1
40
1
40
1
41
1
10
187.121025141332
20
-0.015187711820289
30
0
41
1
10
187.967855222668
20
-0.455906773856043
30
0
41
1
10
188.815901791656
20
-0.897257604871811
30
0
41
1
10
190.210623152905
20
-1.6153180424426
30
0
41
1
10
190.755447499323
20
-1.89386409531747
30
0
41
1
10
191.57535138438
20
-2.30828900753954
30
0
41
1
10
191.849343974692
20
-2.44598739954918
30
0
41
1
10
192.396815768636
20
-2.71919246784014
30
0
41
1
10
192.670327926238
20
-2.8547142350815
30
0
41
1
10
194.037110484631
20
-3.52632411972851
30
0
41
1
10
195.127948208245
20
-4.04459185656626
30
0
41
1
10
196.766562706369
20
-4.78258469165343
30
0
41
1
10
197.31317913456
20
-5.02199288487685
30
0
41
1
10
198.408199037597
20
-5.48595240601625
30
0
41
1
10
198.955584971345
20
-5.71002187991104
30
0
41
1
10
200.109638536079
20
-6.16371647247004
30
0
41
1
10
200.7165789705
20
-6.39142304248634
30
0
41
1
10
201.323550922965
20
-6.60699382816307
30
0
0
SPLINE
5
C9
100
AcDbEntity
8
1
62
256
6
ByLayer
370
13
48
1
60
0
100
AcDbSpline
70
4
71
3
72
16
73
12
40
0
40
0
40
0
40
0
40
0.0999093607256586
40
0.0999093607256586
40
0.21242069063495
40
0.21242069063495
40
0.324932020544241
40
0.324932020544241
40
0.549954680362825
40
0.549954680362825
40
1
40
1
40
1
40
1
41
1
10
201.323549983559
20
-6.60699349452585
30
0
41
1
10
201.808247844622
20
-6.77913770049042
30
0
41
1
10
202.292965803975
20
-6.94354312125648
30
0
41
1
10
203.324362895356
20
-7.27559305185343
30
0
41
1
10
203.871352258778
20
-7.44108657633427
30
0
41
1
10
204.96654858304
20
-7.74970741046164
30
0
41
1
10
205.512303160699
20
-7.89212114947284
30
0
41
1
10
207.145593321076
20
-8.28271101360346
30
0
41
1
10
208.22910914397
20
-8.49433941213459
30
0
41
1
10
211.47611624149
20
-8.97615888136824
30
0
41
1
10
213.636302186154
20
-9.09442300925147
30
0
41
1
10
215.822930046867
20
-8.99450650887158
30
0
0
SPLINE
5
CA
100
AcDbEntity
8
1
62
256
6
ByLayer
370
18
48
1
60
0
100
AcDbSpline
70
4
71
3
72
8
73
4
40
0
40
0
40
0
40
0
40
1
40
1
40
1
40
1
41
1
10
6.00000010845952
20
-5.79083316416973
30
0
41
1
10
6.00000010845952
20
-5.67597187318611
30
0
41
1
10
6.00000010845955
20
-5.56103157520346
30
0
41
1
10
6.00000010845955
20
-5.44601561035611
30
0
0
SPLINE
5
CB
100
AcDbEntity
8
1
62
256
6
ByLayer
370
18
48
1
60
0
100
AcDbSpline
70
4
71
3
72
18
73
14
40
0
40
0
40
0
40
0
40
0.125000000000001
40
0.125000000000001
40
0.250000000000001
40
0.250000000000001
40
0.375000000000002
40
0.375000000000002
40
0.500000000000002
40
0.500000000000002
40
0.750000000000001
40
0.750000000000001
40
1
40
1
40
1
40
1
41
1
10
6.00000010846225
20
-5.44601561036788
30
0
41
1
10
6.00000010846216
20
-5.42380195685976
30
0
41
1
10
6.00170160059324
20
-5.40191817469105
30
0
41
1
10
6.01064622644247
20
-5.36282348114634
30
0
41
1
10
6.0181997475884
20
-5.34556521972456
30
0
41
1
10
6.03924194410729
20
-5.32325053781602
30
0
41
1
10
6.05238158518924
20
-5.31852880698904
30
0
41
1
10
6.07885896181037
20
-5.31875448900243
30
0
41
1
10
6.09253779966423
20
-5.32331250125705
30
0
41
1
10
6.13211290817651
20
-5.34358449676051
30
0
41
1
10
6.15757825179486
20
-5.36590281016134
30
0
41
1
10
6.20545391856791
20
-5.41600864936595
30
0
41
1
10
6.22823408866731
20
-5.44442389940241
30
0
41
1
10
6.25025370422293
20
-5.47505410000238
30
0
0
SPLINE
5
CC
100
AcDbEntity
8
1
62
256
6
ByLayer
370
18
48
1
60
0
100
AcDbSpline
70
4
71
3
72
136
73
132
40
0
40
0
40
0
40
0
40
0.0216390877803103
40
0.0216390877803103
40
0.0437649426093734
40
0.0437649426093734
40
0.0548278700239047
40
0.0548278700239047
40
0.0658907974384361
40
0.0658907974384361
40
0.0769537248529674
40
0.0769537248529674
40
0.0880166522674987
40
0.0880166522674987
40
0.110142507096562
40
0.110142507096562
40
0.132268361925625
40
0.132268361925625
40
0.137799825632891
40
0.137799825632891
40
0.143331289340157
40
0.143331289340157
40
0.154394216754689
40
0.154394216754689
40
0.165457144169221
40
0.165457144169221
40
0.176520071583753
40
0.176520071583753
40
0.198645926412816
40
0.198645926412816
40
0.209708853827348
40
0.209708853827348
40
0.22077178124188
40
0.22077178124188
40
0.242897636070944
40
0.242897636070944
40
0.253960563485476
40
0.253960563485476
40
0.265023490900008
40
0.265023490900008
40
0.27608641831454
40
0.27608641831454
40
0.287149345729072
40
0.287149345729072
40
0.309275200558136
40
0.309275200558136
40
0.331401055387199
40
0.331401055387199
40
0.353526910216262
40
0.353526910216262
40
0.364589837630794
40
0.364589837630794
40
0.375652765045326
40
0.375652765045326
40
0.386715692459858
40
0.386715692459858
40
0.39777861987439
40
0.39777861987439
40
0.419904474703453
40
0.419904474703453
40
0.430967402117985
40
0.430967402117985
40
0.442030329532517
40
0.442030329532517
40
0.464156184361581
40
0.464156184361581
40
0.486282039190644
40
0.486282039190644
40
0.497344966605176
40
0.497344966605176
40
0.508407894019708
40
0.508407894019708
40
0.530533748848771
40
0.530533748848771
40
0.552659603677834
40
0.552659603677834
40
0.574785458506897
40
0.574785458506897
40
0.585848385921429
40
0.585848385921429
40
0.59691131333596
40
0.59691131333596
40
0.607974240750492
40
0.607974240750492
40
0.619037168165024
40
0.619037168165024
40
0.641163022994086
40
0.641163022994086
40
0.652225950408618
40
0.652225950408618
40
0.663288877823149
40
0.663288877823149
40
0.685414732652211
40
0.685414732652211
40
0.707540587481274
40
0.707540587481274
40
0.729666442310336
40
0.729666442310336
40
0.751792297139398
40
0.751792297139398
40
0.762855224553929
40
0.762855224553929
40
0.77391815196846
40
0.77391815196846
40
0.796044006797523
40
0.796044006797523
40
0.807106934212054
40
0.807106934212054
40
0.818169861626586
40
0.818169861626586
40
0.829232789041118
40
0.829232789041118
40
0.840295716455649
40
0.840295716455649
40
0.862421571284712
40
0.862421571284712
40
0.873484498699243
40
0.873484498699243
40
0.884547426113775
40
0.884547426113775
40
0.906673280942838
40
0.906673280942838
40
0.928799135771901
40
0.928799135771901
40
0.950924990600964
40
0.950924990600964
40
0.973050845430028
40
0.973050845430028
40
0.995176700259091
40
0.995176700259091
40
1
40
1
40
1
40
1
41
1
10
30.8522849719894
20
4.82766069790498
30
0
41
1
10
31.3758391302287
20
5.06984331858482
30
0
41
1
10
31.8998986350568
20
5.30319783711545
30
0
41
1
10
32.9575849044526
20
5.76255204220109
30
0
41
1
10
33.4912574753064
20
5.98799124618685
30
0
41
1
10
34.2931600449026
20
6.31160657741296
30
0
41
1
10
34.5607279630149
20
6.41702234042364
30
0
41
1
10
35.0961813960812
20
6.62326338739476
30
0
41
1
10
35.3642497371008
20
6.72385902595951
30
0
41
1
10
35.8991786237213
20
6.92236873770233
30
0
41
1
10
36.1672927693571
20
7.01905519756102
30
0
41
1
10
36.7030161913318
20
7.20641507910261
30
0
41
1
10
36.9706512976622
20
7.29708059724123
30
0
41
1
10
37.7723586878585
20
7.56087533144304
30
0
41
1
10
38.3042341287544
20
7.72690770463461
30
0
41
1
10
39.3662927971102
20
8.03537600625847
30
0
41
1
10
39.8966789070444
20
8.17769562748629
30
0
41
1
10
40.5590187291875
20
8.34085873594586
30
0
41
1
10
40.6914975113193
20
8.37271958355521
30
0
41
1
10
40.9559519052312
20
8.43532448733311
30
0
41
1
10
41.0879616319249
20
8.46603195318042
30
0
41
1
10
41.484377211661
20
8.55552509787958
30
0
41
1
10
41.7487992272085
20
8.61199332004736
30
0
41
1
10
42.2779472747685
20
8.71863852672101
30
0
41
1
10
42.5427188141389
20
8.76879284468336
30
0
41
1
10
43.0719599471593
20
8.86323696887371
30
0
41
1
10
43.3363109103553
20
8.9075834782542
30
0
41
1
10
44.1294722051016
20
9.03131022781773
30
0
41
1
10
44.658743037657
20
9.10118634382465
30
0
41
1
10
45.4548124587341
20
9.18653978218819
30
0
41
1
10
45.7204683951749
20
9.21178344679404
30
0
41
1
10
46.2520590512405
20
9.25591134571468
30
0
41
1
10
46.5173894234489
20
9.27493105162512
30
0
41
1
10
47.3160622832193
20
9.32167784502357
30
0
41
1
10
47.851141589653
20
9.33956948942588
30
0
41
1
10
48.6551621919293
20
9.34654715916648
30
0
41
1
10
48.9229649816097
20
9.34550977634257
30
0
41
1
10
49.458170866109
20
9.33670626556446
30
0
41
1
10
49.7255835457316
20
9.32894319122391
30
0
41
1
10
50.2603812025592
20
9.30678372366947
30
0
41
1
10
50.5278520525934
20
9.29240861572612
30
0
41
1
10
51.0626786436803
20
9.25708394936888
30
0
41
1
10
51.3301403851872
20
9.23617678724128
30
0
41
1
10
52.1303872931496
20
9.16286976353007
30
0
41
1
10
52.665093412917
20
9.10113365094242
30
0
41
1
10
53.7358700993527
20
8.9521210588471
30
0
41
1
10
54.2712629907099
20
8.86400032700999
30
0
41
1
10
55.3423131869841
20
8.66276137061618
30
0
41
1
10
55.8764622550181
20
8.55026665033429
30
0
41
1
10
56.675595853206
20
8.36414594060739
30
0
41
1
10
56.9410801636685
20
8.29872356599643
30
0
41
1
10
57.471846433777
20
8.16247140961951
30
0
41
1
10
57.7371743865804
20
8.09170233599323
30
0
41
1
10
58.2677405145385
20
7.94500840043017
30
0
41
1
10
58.5330063067132
20
7.86911909355891
30
0
41
1
10
59.0627702720573
20
7.71152279300705
30
0
41
1
10
59.3271703121179
20
7.62969549577366
30
0
41
1
10
60.1200869499664
20
7.37631204432284
30
0
41
1
10
60.648476090489
20
7.19704135674039
30
0
41
1
10
61.442028411745
20
6.91437984003397
30
0
41
1
10
61.7066847010598
20
6.81785096291938
30
0
41
1
10
62.2356503388397
20
6.61933479693778
30
0
41
1
10
62.4995479511293
20
6.51676793787416
30
0
41
1
10
63.2934334120467
20
6.20443161118561
30
0
41
1
10
63.8245354434425
20
5.98874723697708
30
0
41
1
10
64.8867825352548
20
5.53701119740211
30
0
41
1
10
65.4183984705448
20
5.30151166409308
30
0
41
1
10
66.2192069011227
20
4.9377882589533
30
0
41
1
10
66.4867374175736
20
4.81487188743824
30
0
41
1
10
67.0227170645523
20
4.56521508318647
30
0
41
1
10
67.2910164291964
20
4.43856931061507
30
0
41
1
10
68.0929135728707
20
4.05166932833401
30
0
41
1
10
68.627928912416
20
3.78991091954435
30
0
41
1
10
69.697569245829
20
3.25694166970462
30
0
41
1
10
70.2310157977066
20
2.98364848165747
30
0
41
1
10
71.299092306459
20
2.43020959953591
30
0
41
1
10
71.833970479872
20
2.15054718289775
30
0
41
1
10
72.6372724423546
20
1.72616724472317
30
0
41
1
10
72.9047546038131
20
1.58268879920948
30
0
41
1
10
73.440110388991
20
1.29581431482759
30
0
41
1
10
73.7075261456548
20
1.15254851227093
30
0
41
1
10
74.2418643269398
20
0.86638560442475
30
0
41
1
10
74.5087932245906
20
0.723499018174266
30
0
41
1
10
75.0414445464916
20
0.436687122043708
30
0
41
1
10
75.3070875580086
20
0.292611879797533
30
0
41
1
10
76.1032989885024
20
-0.139032213385718
30
0
41
1
10
76.6331387516617
20
-0.426046254387927
30
0
41
1
10
77.4276734720166
20
-0.853186811900713
30
0
41
1
10
77.6925437700262
20
-0.994889021306335
30
0
41
1
10
78.2210920397499
20
-1.27927296503327
30
0
41
1
10
78.4848464516365
20
-1.4218020274115
30
0
41
1
10
79.2774986142325
20
-1.84489168211542
30
0
41
1
10
79.8069864372901
20
-2.12249035217917
30
0
41
1
10
80.8642302446058
20
-2.67584604102129
30
0
41
1
10
81.392692395523
20
-2.95027125174664
30
0
41
1
10
82.4525606119104
20
-3.48867771847102
30
0
41
1
10
82.9842715497655
20
-3.75215478486996
30
0
41
1
10
84.0470051465899
20
-4.27505833700579
30
0
41
1
10
84.5808982835841
20
-4.52941195805434
30
0
41
1
10
85.3845161774117
20
-4.90208163636714
30
0
41
1
10
85.6526260372056
20
-5.02518054791165
30
0
41
1
10
86.1875479483769
20
-5.26788632516769
30
0
41
1
10
86.4548239969084
20
-5.38726756025258
30
0
41
1
10
87.2563558913786
20
-5.73913973899255
30
0
41
1
10
87.7907985056096
20
-5.96466197689023
30
0
41
1
10
88.5921605972368
20
-6.2901523373024
30
0
41
1
10
88.8585968189741
20
-6.39737483752029
30
0
41
1
10
89.3922872514631
20
-6.60622421896676
30
0
41
1
10
89.6594180670368
20
-6.70803697008364
30
0
41
1
10
90.1942609916718
20
-6.90648540446983
30
0
41
1
10
90.4619622195773
20
-7.00314236762492
30
0
41
1
10
90.9971728636252
20
-7.19222679800026
30
0
41
1
10
91.264680472899
20
-7.28474170246474
30
0
41
1
10
92.0677934448289
20
-7.55412193181005
30
0
41
1
10
92.601449018552
20
-7.722175686985
30
0
41
1
10
93.4005014194294
20
-7.95622579922531
30
0
41
1
10
93.6667478094661
20
-8.03112747847624
30
0
41
1
10
94.1972350997914
20
-8.17644632324235
30
0
41
1
10
94.4620796772042
20
-8.2462371859657
30
0
41
1
10
95.257024880296
20
-8.4456706097522
30
0
41
1
10
95.7872240547855
20
-8.56583878917627
30
0
41
1
10
96.8442336516243
20
-8.7838057254437
30
0
41
1
10
97.3719319962073
20
-8.88077726917209
30
0
41
1
10
98.428770423774
20
-9.0489268115312
30
0
41
1
10
98.9579933339039
20
-9.1202365027126
30
0
41
1
10
100.014637751969
20
-9.23845946090483
30
0
41
1
10
100.544733574859
20
-9.28428623913902
30
0
41
1
10
101.606894788945
20
-9.35017146983193
30
0
41
1
10
102.137969891743
20
-9.37029019231778
30
0
41
1
10
102.787244541188
20
-9.37839910358056
30
0
41
1
10
102.903538744143
20
-9.37921457065505
30
0
41
1
10
103.019934582523
20
-9.37939417212488
30
0
0
SPLINE
5
CD
100
AcDbEntity
8
1
62
256
6
ByLayer
370
18
48
1
60
0
100
AcDbSpline
70
4
71
3
72
144
73
140
40
0
40
0
40
0
40
0
40
0.0187737716970068
40
0.0187737716970068
40
0.0298171637821151
40
0.0298171637821151
40
0.0408605558672237
40
0.0408605558672237
40
0.0629473400374418
40
0.0629473400374418
40
0.0850341242076599
40
0.0850341242076599
40
0.0960775162927685
40
0.0960775162927685
40
0.101599212335323
40
0.101599212335323
40
0.107120908377878
40
0.107120908377878
40
0.129207692548095
40
0.129207692548095
40
0.151294476718313
40
0.151294476718313
40
0.17338126088853
40
0.17338126088853
40
0.184424652973638
40
0.184424652973638
40
0.195468045058747
40
0.195468045058747
40
0.206511437143855
40
0.206511437143855
40
0.217554829228963
40
0.217554829228963
40
0.239641613399181
40
0.239641613399181
40
0.250685005484289
40
0.250685005484289
40
0.261728397569397
40
0.261728397569397
40
0.283815181739614
40
0.283815181739614
40
0.30590196590983
40
0.30590196590983
40
0.316945357994939
40
0.316945357994939
40
0.322467054037493
40
0.322467054037493
40
0.327988750080048
40
0.327988750080048
40
0.350075534250268
40
0.350075534250268
40
0.372162318420488
40
0.372162318420488
40
0.394249102590707
40
0.394249102590707
40
0.405292494675817
40
0.405292494675817
40
0.416335886760927
40
0.416335886760927
40
0.427379278846037
40
0.427379278846037
40
0.438422670931147
40
0.438422670931147
40
0.460509455101367
40
0.460509455101367
40
0.471552847186477
40
0.471552847186477
40
0.482596239271588
40
0.482596239271588
40
0.504683023441808
40
0.504683023441808
40
0.526769807612029
40
0.526769807612029
40
0.537813199697139
40
0.537813199697139
40
0.548856591782249
40
0.548856591782249
40
0.570943375952469
40
0.570943375952469
40
0.593030160122688
40
0.593030160122688
40
0.615116944292908
40
0.615116944292908
40
0.626160336378018
40
0.626160336378018
40
0.637203728463128
40
0.637203728463128
40
0.648247120548238
40
0.648247120548238
40
0.659290512633348
40
0.659290512633348
40
0.681377296803567
40
0.681377296803567
40
0.692420688888676
40
0.692420688888676
40
0.703464080973785
40
0.703464080973785
40
0.725550865144003
40
0.725550865144003
40
0.747637649314221
40
0.747637649314221
40
0.758681041399331
40
0.758681041399331
40
0.76972443348444
40
0.76972443348444
40
0.780767825569549
40
0.780767825569549
40
0.791811217654658
40
0.791811217654658
40
0.813898001824876
40
0.813898001824876
40
0.824941393909985
40
0.824941393909985
40
0.835984785995094
40
0.835984785995094
40
0.847028178080203
40
0.847028178080203
40
0.858071570165312
40
0.858071570165312
40
0.869114962250422
40
0.869114962250422
40
0.88015835433553
40
0.88015835433553
40
0.902245138505747
40
0.902245138505747
40
0.913288530590854
40
0.913288530590854
40
0.924331922675961
40
0.924331922675961
40
0.935375314761068
40
0.935375314761068
40
0.946418706846175
40
0.946418706846175
40
0.96850549101639
40
0.96850549101639
40
0.979548883101497
40
0.979548883101497
40
0.990592275186604
40
0.990592275186604
40
1
40
1
40
1
40
1
41
1
10
139.657016772757
20
4.85817657022642
30
0
41
1
10
140.105673967275
20
5.06722589899084
30
0
41
1
10
140.554328673204
20
5.27101504092235
30
0
41
1
10
141.267565000838
20
5.5853576081123
30
0
41
1
10
141.531930738601
20
5.69967589302919
30
0
41
1
10
142.059363718715
20
5.9265830244853
30
0
41
1
10
142.32341226535
20
6.03770224288556
30
0
41
1
10
143.116683695623
20
6.36394416612387
30
0
41
1
10
143.647200300949
20
6.5717842953764
30
0
41
1
10
144.707942116153
20
6.97293424798571
30
0
41
1
10
145.239275988174
20
7.16465626732858
30
0
41
1
10
146.03976610833
20
7.43624193880206
30
0
41
1
10
146.307180328042
20
7.52414577829057
30
0
41
1
10
146.708860340581
20
7.65227699581442
30
0
41
1
10
146.842743656334
20
7.6942366520833
30
0
41
1
10
147.109922984187
20
7.77725083328653
30
0
41
1
10
147.243285286826
20
7.81822673784495
30
0
41
1
10
147.910617191099
20
8.01872126548352
30
0
41
1
10
148.445044478155
20
8.16637202401475
30
0
41
1
10
149.512645667084
20
8.43896136850677
30
0
41
1
10
150.045164455894
20
8.56429938091625
30
0
41
1
10
151.111890647104
20
8.78942434863754
30
0
41
1
10
151.646441422797
20
8.88912600074701
30
0
41
1
10
152.448551474214
20
9.02030923470622
30
0
41
1
10
152.715649175198
20
9.06126561061524
30
0
41
1
10
153.249907023414
20
9.13584997779779
30
0
41
1
10
153.516793968986
20
9.16971217080754
30
0
41
1
10
154.050014768934
20
9.23077269200317
30
0
41
1
10
154.316277515035
20
9.25800812511386
30
0
41
1
10
154.847500313867
20
9.30609174441082
30
0
41
1
10
155.112510080341
20
9.32690002280145
30
0
41
1
10
155.907197665898
20
9.37924673266176
30
0
41
1
10
156.43614105624
20
9.40083970983636
30
0
41
1
10
157.229255678577
20
9.41355659666615
30
0
41
1
10
157.493545493904
20
9.41454082257033
30
0
41
1
10
158.020674759709
20
9.40987839240893
30
0
41
1
10
158.284405103944
20
9.40424269355248
30
0
41
1
10
159.076116138598
20
9.37760499935408
30
0
41
1
10
159.604781974316
20
9.3470137596004
30
0
41
1
10
160.660301773625
20
9.25919178702355
30
0
41
1
10
161.188313331506
20
9.20212115040451
30
0
41
1
10
161.982655936467
20
9.09754111776402
30
0
41
1
10
162.247801805494
20
9.05952651154647
30
0
41
1
10
162.645843051263
20
8.99764024453597
30
0
41
1
10
162.778647689006
20
8.97624282655784
30
0
41
1
10
163.043917521066
20
8.93153844838537
30
0
41
1
10
163.176498929551
20
8.90829241635259
30
0
41
1
10
163.840525310268
20
8.78843920853717
30
0
41
1
10
164.374410577391
20
8.68053874911345
30
0
41
1
10
165.445205808611
20
8.43892416136089
30
0
41
1
10
165.978608655173
20
8.30520077881457
30
0
41
1
10
167.045486048346
20
8.01555026668782
30
0
41
1
10
167.579361353112
20
7.86011130602142
30
0
41
1
10
168.379186648656
20
7.6094969605947
30
0
41
1
10
168.645102492388
20
7.52243702850501
30
0
41
1
10
169.178279144847
20
7.34425381741522
30
0
41
1
10
169.445177699343
20
7.2527517181602
30
0
41
1
10
169.979496058413
20
7.06487135032472
30
0
41
1
10
170.246838864212
20
6.96840640953599
30
0
41
1
10
170.781267646873
20
6.76956690070014
30
0
41
1
10
171.04858238055
20
6.66719505941128
30
0
41
1
10
171.850216554274
20
6.35393459231128
30
0
41
1
10
172.384011747469
20
6.1363526761408
30
0
41
1
10
173.184694574619
20
5.79838029701583
30
0
41
1
10
173.451459567175
20
5.68361457030241
30
0
41
1
10
173.983875952525
20
5.44853359989997
30
0
41
1
10
174.250312290569
20
5.32938124172387
30
0
41
1
10
175.050326690862
20
4.96721876759503
30
0
41
1
10
175.584669835579
20
4.71966227182577
30
0
41
1
10
176.652063982174
20
4.20687057091507
30
0
41
1
10
177.187279605062
20
3.94312856528168
30
0
41
1
10
177.987725356478
20
3.542918478128
30
0
41
1
10
178.254222711562
20
3.4086299225996
30
0
41
1
10
178.786286966428
20
3.13775215675739
30
0
41
1
10
179.051340943866
20
3.00022466792635
30
0
41
1
10
179.846416212358
20
2.58657546290704
30
0
41
1
10
180.376506922828
20
2.30969223542849
30
0
41
1
10
181.434051588454
20
1.74874787848665
30
0
41
1
10
181.96114882426
20
1.46401041033053
30
0
41
1
10
183.016037463412
20
0.893499406628905
30
0
41
1
10
183.544282583483
20
0.608588580214615
30
0
41
1
10
184.335595389062
20
0.177520799054463
30
0
41
1
10
184.598871600158
20
0.0326105816116353
30
0
41
1
10
185.126794347602
20
-0.255214385459453
30
0
41
1
10
185.391116345606
20
-0.398737737411068
30
0
41
1
10
185.920361270049
20
-0.685228001752307
30
0
41
1
10
186.185206646366
20
-0.828341075301779
30
0
41
1
10
186.714763672034
20
-1.11541216920312
30
0
41
1
10
186.979554695284
20
-1.25922133387795
30
0
41
1
10
187.775365751236
20
-1.68881197629418
30
0
41
1
10
188.307448718252
20
-1.97346861786875
30
0
41
1
10
189.108774714241
20
-2.39615647712998
30
0
41
1
10
189.376499013817
20
-2.53669694111062
30
0
41
1
10
189.910169377442
20
-2.81731947066117
30
0
41
1
10
190.177037637404
20
-2.95610325262965
30
0
41
1
10
190.977771698462
20
-3.36791162743583
30
0
41
1
10
191.511820796728
20
-3.63634777533383
30
0
41
1
10
192.577097649267
20
-4.1665678951461
30
0
41
1
10
193.109577575752
20
-4.42618018410076
30
0
41
1
10
193.909901736395
20
-4.80440297854159
30
0
41
1
10
194.176902187241
20
-4.92868529694655
30
0
41
1
10
194.71103847106
20
-5.17416039053637
30
0
41
1
10
194.977641223045
20
-5.29617550435523
30
0
41
1
10
195.511918709652
20
-5.53560330619067
30
0
41
1
10
195.779155155006
20
-5.65295885645071
30
0
41
1
10
196.312760838387
20
-5.88256498485165
30
0
41
1
10
196.579302215408
20
-5.99489276717213
30
0
41
1
10
197.377059594027
20
-6.32614133174667
30
0
41
1
10
197.906489470218
20
-6.53908795968078
30
0
41
1
10
198.70004033487
20
-6.84254386990688
30
0
41
1
10
198.964479068514
20
-6.94102842583814
30
0
41
1
10
199.493153888319
20
-7.13279985090989
30
0
41
1
10
199.757493764648
20
-7.2259696706401
30
0
41
1
10
200.284979019605
20
-7.40829736714943
30
0
41
1
10
200.548169262474
20
-7.49736388870707
30
0
41
1
10
201.075457814462
20
-7.66900907186741
30
0
41
1
10
201.339278780558
20
-7.75192286781413
30
0
41
1
10
201.867125774789
20
-7.91216386146525
30
0
41
1
10
202.13106966901
20
-7.98958177420212
30
0
41
1
10
202.658439706209
20
-8.13950430054336
30
0
41
1
10
202.921968598595
20
-8.21189162069055
30
0
41
1
10
203.713418668203
20
-8.42003734231253
30
0
41
1
10
204.24184516258
20
-8.54713539253066
30
0
41
1
10
205.036521063084
20
-8.71962092305361
30
0
41
1
10
205.301615235151
20
-8.77420526575435
30
0
41
1
10
205.831470598169
20
-8.8779257384916
30
0
41
1
10
206.096966369341
20
-8.92654891385087
30
0
41
1
10
206.62910429447
20
-9.0173664236622
30
0
41
1
10
206.895800685964
20
-9.0595342881702
30
0
41
1
10
207.429962977878
20
-9.1376513173995
30
0
41
1
10
207.697512621976
20
-9.17368499012471
30
0
41
1
10
208.498448484359
20
-9.27200366684204
30
0
41
1
10
209.03149442138
20
-9.32423538346796
30
0
41
1
10
209.831555945257
20
-9.38235004174305
30
0
41
1
10
210.09828372062
20
-9.39837606917743
30
0
41
1
10
210.631503396582
20
-9.42381120078684
30
0
41
1
10
210.897460429777
20
-9.43327252440926
30
0
41
1
10
211.390622348533
20
-9.44446451570315
30
0
41
1
10
211.61775694604
20
-9.44717029759866
30
0
41
1
10
211.845053270239
20
-9.44743924132277
30
0
0
SPLINE
5
CE
100
AcDbEntity
8
1
62
256
6
ByLayer
370
18
48
1
60
0
100
AcDbSpline
70
4
71
3
72
18
73
14
40
0
40
0
40
0
40
0
40
0.125817817360734
40
0.125817817360734
40
0.251635634721468
40
0.251635634721468
40
0.503271269442946
40
0.503271269442946
40
0.754906904164424
40
0.754906904164424
40
0.880724721525164
40
0.880724721525164
40
1
40
1
40
1
40
1
41
1
10
215.839629480552
20
-8.90381432602223
30
0
41
1
10
215.292297249967
20
-8.92528301876078
30
0
41
1
10
214.745223813115
20
-8.93324859775529
30
0
41
1
10
213.654785778763
20
-8.92251902435103
30
0
41
1
10
213.110852191344
20
-8.90385101751554
30
0
41
1
10
211.481515760933
20
-8.80875031339903
30
0
41
1
10
210.398468784467
20
-8.69324763626346
30
0
41
1
10
208.230950430138
20
-8.36200502243352
30
0
41
1
10
207.146480778928
20
-8.1460481213324
30
0
41
1
10
205.512538808839
20
-7.75030116383749
30
0
41
1
10
204.966701575235
20
-7.60639065284303
30
0
41
1
10
203.90009035818
20
-7.30337857742674
30
0
41
1
10
203.38181757354
20
-7.14614503593114
30
0
41
1
10
202.864032029115
20
-6.97970970826165
30
0
0
SPLINE
5
CF
100
AcDbEntity
8
1
62
256
6
ByLayer
370
13
48
1
60
0
100
AcDbSpline
70
4
71
3
72
24
73
20
40
0
40
0
40
0
40
0
40
0.0043587654729966
40
0.0043587654729966
40
0.172003358155318
40
0.172003358155318
40
0.255825654496478
40
0.255825654496478
40
0.339647950837639
40
0.339647950837639
40
0.50729254351996
40
0.50729254351996
40
0.54920369169054
40
0.54920369169054
40
0.59111483986112
40
0.59111483986112
40
0.674937136202281
40
0.674937136202281
40
1
40
1
40
1
40
1
41
1
10
202.86403198637
20
-6.979709694522
30
0
41
1
10
202.835630205191
20
-6.97058031688201
30
0
41
1
10
202.807229890014
20
-6.96142325303592
30
0
41
1
10
201.686567114884
20
-6.59898308945128
30
0
41
1
10
200.596170809267
20
-6.20485874027656
30
0
41
1
10
198.957215767091
20
-5.56081060553248
30
0
41
1
10
198.40988321754
20
-5.33707531448587
30
0
41
1
10
197.315272148185
20
-4.87437363624093
30
0
41
1
10
196.768827051315
20
-4.63581167351049
30
0
41
1
10
195.13067262916
20
-3.90098025133375
30
0
41
1
10
194.040049927724
20
-3.38567840674216
30
0
41
1
10
192.673543652481
20
-2.71878071179714
30
0
41
1
10
192.400087689978
20
-2.58425070885792
30
0
41
1
10
191.852727491277
20
-2.31313716934156
30
0
41
1
10
191.578867689479
20
-2.17657748087177
30
0
41
1
10
190.759308887002
20
-1.76568983423039
30
0
41
1
10
190.214661543821
20
-1.48968387894766
30
0
41
1
10
187.564017276982
20
-0.137705965767935
30
0
41
1
10
185.475438199185
20
0.95387113581674
30
0
41
1
10
183.37694998191
20
2.00565473727565
30
0
0
SPLINE
5
D0
100
AcDbEntity
8
1
62
256
6
ByLayer
370
18
48
1
60
0
100
AcDbSpline
70
4
71
3
72
18
73
14
40
0
40
0
40
0
40
0
40
0.0997673611895995
40
0.0997673611895995
40
0.392335688167441
40
0.392335688167441
40
0.68490401514528
40
0.68490401514528
40
0.831188178634204
40
0.831188178634204
40
0.977472342123128
40
0.977472342123128
40
1
40
1
40
1
40
1
41
1
10
105.654931018459
20
-8.86080493532268
30
0
41
1
10
105.28190932448
20
-8.85997589222058
30
0
41
1
10
104.908881182116
20
-8.85297936457479
30
0
41
1
10
103.441249081799
20
-8.80118696326053
30
0
41
1
10
102.343863613733
20
-8.7091361986532
30
0
41
1
10
100.155025628166
20
-8.42261702686008
30
0
41
1
10
99.0619405225077
20
-8.22817574028798
30
0
41
1
10
97.4180723186149
20
-7.86373164871858
30
0
41
1
10
96.8695765729771
20
-7.73003710836707
30
0
41
1
10
95.7768850338116
20
-7.44113507246675
30
0
41
1
10
95.2318229687781
20
-7.28579395950231
30
0
41
1
10
94.6038138529417
20
-7.09460776609595
30
0
41
1
10
94.5200268293087
20
-7.06885017223215
30
0
41
1
10
94.4362577142446
20
-7.04285106600321
30
0
0
SPLINE
5
D1
100
AcDbEntity
8
1
62
256
6
ByLayer
370
13
48
1
60
0
100
AcDbSpline
70
4
71
3
72
20
73
16
40
0
40
0
40
0
40
0
40
0.152815026299669
40
0.152815026299669
40
0.318378371717197
40
0.318378371717197
40
0.40116004442596
40
0.40116004442596
40
0.483941717134723
40
0.483941717134723
40
0.815068407969774
40
0.815068407969774
40
0.980631753387299
40
0.980631753387299
40
1
40
1
40
1
40
1
41
1
10
94.4362577146776
20
-7.04285106613756
30
0
41
1
10
93.4321112557425
20
-6.73119789379021
30
0
41
1
10
92.4305380774348
20
-6.38484183188558
30
0
41
1
10
90.3425818578438
20
-5.60026761914119
30
0
41
1
10
89.2562620095089
20
-5.15647629663906
30
0
41
1
10
87.6198090761631
20
-4.4463009940655
30
0
41
1
10
87.0731816064307
20
-4.20211274540767
30
0
41
1
10
85.9766142697782
20
-3.70035431633104
30
0
41
1
10
85.429346899923
20
-3.44404788175095
30
0
41
1
10
82.7025611919714
20
-2.14350671001154
30
0
41
1
10
80.5444135900827
20
-1.0391697128558
30
0
41
1
10
77.2955100187976
20
0.620300371144594
30
0
41
1
10
76.2105264251752
20
1.17381529254368
30
0
41
1
10
74.9921351950968
20
1.78399154679727
30
0
41
1
10
74.8644261619862
20
1.84780537312409
30
0
41
1
10
74.7366229751277
20
1.91150657034731
30
0
0
SPLINE
5
D2
100
AcDbEntity
8
1
62
256
6
ByLayer
370
18
48
1
60
0
100
AcDbSpline
70
4
71
3
72
8
73
4
40
0
40
0
40
0
40
0
40
1
40
1
40
1
40
1
41
1
10
218.659613890322
20
-2.30773592772559
30
0
41
1
10
218.770277467763
20
-1.62023017026934
30
0
41
1
10
218.868034359886
20
-0.932827659934276
30
0
41
1
10
218.952799787084
20
-0.245529074915453
30
0
0
SPLINE
5
D3
100
AcDbEntity
8
1
62
256
6
ByLayer
370
18
48
1
60
0
100
AcDbSpline
70
4
71
3
72
8
73
4
40
0
40
0
40
0
40
0
40
1
40
1
40
1
40
1
41
1
10
218.659613890322
20
2.30773592772556
30
0
41
1
10
218.770278737725
20
1.62022228053902
30
0
41
1
10
218.868035334746
20
0.932819755531057
30
0
41
1
10
218.952799787084
20
0.245529074915538
30
0
0
SPLINE
5
D4
100
AcDbEntity
8
1
62
256
6
ByLayer
370
18
48
1
60
0
100
AcDbSpline
70
4
71
3
72
20
73
16
40
0
40
0
40
0
40
0
40
0.250000000000002
40
0.250000000000002
40
0.312500000000002
40
0.312500000000002
40
0.375000000000002
40
0.375000000000002
40
0.500000000000002
40
0.500000000000002
40
0.75
40
0.75
40
0.875
40
0.875
40
1
40
1
40
1
40
1
41
1
10
6.25025371537279
20
-5.47505411551228
30
0
41
1
10
6.60874740619798
20
-5.97373374007987
30
0
41
1
10
6.9927625326755
20
-6.41119099041117
30
0
41
1
10
7.50401219677951
20
-6.89097719926554
30
0
41
1
10
7.60786261294007
20
-6.98353436113871
30
0
41
1
10
7.81889022619555
20
-7.1619211659891
30
0
41
1
10
7.92611142808701
20
-7.24775787791597
30
0
41
1
10
8.25011275150945
20
-7.49316700770746
30
0
41
1
10
8.47015218047025
20
-7.64148317581044
30
0
41
1
10
9.14400134579802
20
-8.04368062753349
30
0
41
1
10
9.61142401637576
20
-8.25492372394118
30
0
41
1
10
10.3488304340636
20
-8.49446700262206
30
0
41
1
10
10.5993453749982
20
-8.56092807889178
30
0
41
1
10
11.1093563093256
20
-8.66880571443616
30
0
41
1
10
11.3691571426069
20
-8.71030927037123
30
0
41
1
10
11.6344641000323
20
-8.74046723645711
30
0
0
SPLINE
5
D5
100
AcDbEntity
8
1
62
256
6
ByLayer
370
18
48
1
60
0
100
AcDbSpline
70
4
71
3
72
12
73
8
40
0
40
0
40
0
40
0
40
0.250000000000002
40
0.250000000000002
40
0.500000000000004
40
0.500000000000004
40
1
40
1
40
1
40
1
41
1
10
215.966816305311
20
9.18616392024805
30
0
41
1
10
216.193697011702
20
8.61527540227732
30
0
41
1
10
216.420490318618
20
8.04404567218305
30
0
41
1
10
216.872851800314
20
6.90025166733307
30
0
41
1
10
217.098481690809
20
6.32774082679933
30
0
41
1
10
217.772829588165
20
4.60799235523786
30
0
41
1
10
218.219043387641
20
3.45863648099174
30
0
41
1
10
218.659613890322
20
2.30773592772553
30
0
0
SPLINE
5
D6
100
AcDbEntity
8
1
62
256
6
ByLayer
370
18
48
1
60
0
100
AcDbSpline
70
4
71
3
72
16
73
12
40
0
40
0
40
0
40
0
40
0.134975198483451
40
0.134975198483451
40
0.281689039413525
40
0.281689039413525
40
0.575116721273671
40
0.575116721273671
40
0.868544403133818
40
0.868544403133818
40
1
40
1
40
1
40
1
41
1
10
160.200261642425
20
-8.89484185807086
30
0
41
1
10
159.696457464686
20
-8.89588508602324
30
0
41
1
10
159.192670923702
20
-8.88558262453043
30
0
41
1
10
158.143047652735
20
-8.84079903920988
30
0
41
1
10
157.596950062781
20
-8.80427393933311
30
0
41
1
10
155.958744427797
20
-8.65549575247186
30
0
41
1
10
154.866423811953
20
-8.50402664591491
30
0
41
1
10
152.674724346449
20
-8.09990144929543
30
0
41
1
10
151.582646440754
20
-7.84879056875974
30
0
41
1
10
150.001003260056
20
-7.41974228088714
30
0
41
1
10
149.511602443666
20
-7.27794790430161
30
0
41
1
10
149.021776325105
20
-7.12751169772613
30
0
0
SPLINE
5
D7
100
AcDbEntity
8
1
62
256
6
ByLayer
370
13
48
1
60
0
100
AcDbSpline
70
4
71
3
72
28
73
24
40
0
40
0
40
0
40
0
40
0.0085596724830278
40
0.0085596724830278
40
0.0908641911375996
40
0.0908641911375996
40
0.255473228446747
40
0.255473228446747
40
0.337777747101322
40
0.337777747101322
40
0.420082265755898
40
0.420082265755898
40
0.584691303065051
40
0.584691303065051
40
0.666995821719628
40
0.666995821719628
40
0.749300340374205
40
0.749300340374205
40
0.913909377683359
40
0.913909377683359
40
0.996213896337936
40
0.996213896337936
40
1
40
1
40
1
40
1
41
1
10
149.021776324276
20
-7.12751169747156
30
0
41
1
10
148.964921488059
20
-7.11005034626487
30
0
41
1
10
148.908060921923
20
-7.09247256726493
30
0
41
1
10
148.304397294194
20
-6.90464858554517
30
0
41
1
10
147.756484444848
20
-6.72355737082177
30
0
41
1
10
146.113526406944
20
-6.15110969861442
30
0
41
1
10
145.021674181357
20
-5.73158115848642
30
0
41
1
10
143.38291910871
20
-5.05475297851865
30
0
41
1
10
142.836505425056
20
-4.8212239720655
30
0
41
1
10
141.742410393095
20
-4.33987444557428
30
0
41
1
10
141.194051476404
20
-4.09178432689805
30
0
41
1
10
139.5517866501
20
-3.33165254858341
30
0
41
1
10
138.460084395926
20
-2.80332304150858
30
0
41
1
10
136.820953907175
20
-1.99017831608109
30
0
41
1
10
136.274328568214
20
-1.71565862369758
30
0
41
1
10
135.179617504656
20
-1.16152251795404
30
0
41
1
10
134.631156789863
20
-0.881784982762696
30
0
41
1
10
132.989534526083
20
-0.041969369751115
30
0
41
1
10
131.897907341649
20
0.520144443119108
30
0
41
1
10
130.258280169371
20
1.35419466268698
30
0
41
1
10
129.711399018646
20
1.63074010397256
30
0
41
1
10
129.138531413894
20
1.91754577796485
30
0
41
1
10
129.113336632452
20
1.93015325681077
30
0
41
1
10
129.088140875855
20
1.94275483831279
30
0
0
SPLINE
5
D8
100
AcDbEntity
8
1
62
256
6
ByLayer
370
18
48
1
60
0
100
AcDbSpline
70
4
71
3
72
18
73
14
40
0
40
0
40
0
40
0
40
0.227247960116617
40
0.227247960116617
40
0.364309309641876
40
0.364309309641876
40
0.501370659167137
40
0.501370659167137
40
0.775493358217659
40
0.775493358217659
40
0.91255470774292
40
0.91255470774292
40
1
40
1
40
1
40
1
41
1
10
51.6568701077454
20
-8.82563669898906
30
0
41
1
10
50.7499729558574
20
-8.83434368042975
30
0
41
1
10
49.8433682681202
20
-8.80667042588422
30
0
41
1
10
48.3871089588096
20
-8.70417530971883
30
0
41
1
10
47.8379364232513
20
-8.65234946586978
30
0
41
1
10
46.7417343893849
20
-8.52315275534127
30
0
41
1
10
46.1944373583136
20
-8.44577647332039
30
0
41
1
10
44.5531981696005
20
-8.1760805802046
30
0
41
1
10
43.4598418715945
20
-7.94647264341597
30
0
41
1
10
41.8152637974034
20
-7.53160125066759
30
0
41
1
10
41.2660548165465
20
-7.38153060095243
30
0
41
1
10
40.3685807271184
20
-7.11856190241537
30
0
41
1
10
40.0193026357309
20
-7.01179823584056
30
0
41
1
10
39.67015918092
20
-6.9008717577656
30
0
0
SPLINE
5
D9
100
AcDbEntity
8
1
62
256
6
ByLayer
370
13
48
1
60
0
100
AcDbSpline
70
4
71
3
72
24
73
20
40
0
40
0
40
0
40
0
40
0.0304712900384009
40
0.0304712900384009
40
0.198821470828035
40
0.198821470828035
40
0.282996561222849
40
0.282996561222849
40
0.367171651617665
40
0.367171651617665
40
0.535521832407294
40
0.535521832407294
40
0.703872013196923
40
0.703872013196923
40
0.788047103591738
40
0.788047103591738
40
0.872222193986553
40
0.872222193986553
40
1
40
1
40
1
40
1
41
1
10
39.6701591850262
20
-6.90087175907013
30
0
41
1
10
39.4720567907027
20
-6.83793258438075
30
0
41
1
10
39.2739977409494
20
-6.77365324434175
30
0
41
1
10
37.9817866313923
20
-6.34570203265335
30
0
41
1
10
36.8881197921098
20
-5.9435449332066
30
0
41
1
10
35.2426082714752
20
-5.28840190805039
30
0
41
1
10
34.6936982240665
20
-5.06169047538464
30
0
41
1
10
33.5982733922966
20
-4.59456926178234
30
0
41
1
10
33.0511651239246
20
-4.35397358362752
30
0
41
1
10
31.4098987310173
20
-3.61411762183445
30
0
41
1
10
30.3158602979274
20
-3.09669864881272
30
0
41
1
10
28.1201566529555
20
-2.0273186217697
30
0
41
1
10
27.0256804869766
20
-1.47839334441724
30
0
41
1
10
25.3842889358073
20
-0.647425867499464
30
0
41
1
10
24.8370976143389
20
-0.369150237771919
30
0
41
1
10
23.7416096623481
20
0.188038654355353
30
0
41
1
10
23.1929511453017
20
0.467125144511527
30
0
41
1
10
21.8108173983082
20
1.16731070650863
30
0
41
1
10
20.9798178228286
20
1.58601551791793
30
0
41
1
10
20.1491291063487
20
1.99756919589302
30
0
0
SPLINE
5
DA
100
AcDbEntity
8
1
62
256
6
ByLayer
370
18
48
1
60
0
100
AcDbSpline
70
4
71
3
72
20
73
16
40
0
40
0
40
0
40
0
40
0.0272180875749941
40
0.0272180875749941
40
0.150950358463137
40
0.150950358463137
40
0.398414900239423
40
0.398414900239423
40
0.645879442015709
40
0.645879442015709
40
0.769611712903853
40
0.769611712903853
40
0.893343983791998
40
0.893343983791998
40
1
40
1
40
1
40
1
41
1
10
23.8867624317044
20
0.0030030101978298
30
0
41
1
10
24.0073678868559
20
-0.0590226515834331
30
0
41
1
10
24.1279357295552
20
-0.121033518917955
30
0
41
1
10
24.7963517900526
20
-0.464772758676219
30
0
41
1
10
25.3436833967346
20
-0.746068309450123
30
0
41
1
10
26.9854882057178
20
-1.58565911182103
30
0
41
1
10
28.0802394719271
20
-2.13981733582574
30
0
41
1
10
30.2765977928194
20
-3.21810975811374
30
0
41
1
10
31.3709166694831
20
-3.73920745938449
30
0
41
1
10
33.0125970962045
20
-4.48348036827156
30
0
41
1
10
33.5598425974886
20
-4.72536359238316
30
0
41
1
10
34.6555658626159
20
-5.19466593113648
30
0
41
1
10
35.2046538426287
20
-5.42227671944451
30
0
41
1
10
36.2262549718062
20
-5.83014736894739
30
0
41
1
10
36.6985622635925
20
-6.01238291095288
30
0
41
1
10
37.1705524638573
20
-6.18761874882017
30
0
0
SPLINE
5
DB
100
AcDbEntity
8
1
62
256
6
ByLayer
370
13
48
1
60
0
100
AcDbSpline
70
4
71
3
72
22
73
18
40
0
40
0
40
0
40
0
40
0.113505756725836
40
0.113505756725836
40
0.213246344031281
40
0.213246344031281
40
0.312986931336727
40
0.312986931336727
40
0.512468105947619
40
0.512468105947619
40
0.612208693253064
40
0.612208693253064
40
0.71194928055851
40
0.71194928055851
40
0.9114304551694
40
0.9114304551694
40
1
40
1
40
1
40
1
41
1
10
37.1705524637548
20
-6.18761874878209
30
0
41
1
10
37.7936794710115
20
-6.41896716057909
30
0
41
1
10
38.4162538007281
20
-6.63811537463715
30
0
41
1
10
39.5862285064143
20
-7.02511799516884
30
0
41
1
10
40.1335765085971
20
-7.19594252316313
30
0
41
1
10
41.2297052064422
20
-7.51587177468693
30
0
41
1
10
41.7790953675232
20
-7.66515411120551
30
0
41
1
10
43.4241339339601
20
-8.07701681763427
30
0
41
1
10
44.5177290793077
20
-8.30380364424701
30
0
41
1
10
46.159406391332
20
-8.56810919345506
30
0
41
1
10
46.7068537758509
20
-8.6435028210673
30
0
41
1
10
47.8033818604422
20
-8.76834344838034
30
0
41
1
10
48.3527275917848
20
-8.81780337831665
30
0
41
1
10
49.996802568869
20
-8.92588417132586
30
0
41
1
10
51.0902205501186
20
-8.94446866863979
30
0
41
1
10
52.6706892235744
20
-8.89399290764183
30
0
41
1
10
53.1568852697052
20
-8.86794491915711
30
0
41
1
10
53.6437534882305
20
-8.83140825098954
30
0
0
SPLINE
5
DC
100
AcDbEntity
8
1
62
256
6
ByLayer
370
18
48
1
60
0
100
AcDbSpline
70
4
71
3
72
24
73
20
40
0
40
0
40
0
40
0
40
0.0809190864338204
40
0.0809190864338204
40
0.180819193537204
40
0.180819193537204
40
0.280719300640588
40
0.280719300640588
40
0.480519514847358
40
0.480519514847358
40
0.58041962195074
40
0.58041962195074
40
0.680319729054123
40
0.680319729054123
40
0.880119943260888
40
0.880119943260888
40
0.980020050364271
40
0.980020050364271
40
1
40
1
40
1
40
1
41
1
10
132.739725219881
20
-0.0247169712999664
30
0
41
1
10
133.182449474263
20
-0.254263826295443
30
0
41
1
10
133.625358601775
20
-0.483900530054257
30
0
41
1
10
134.616124355582
20
-0.995995788148463
30
0
41
1
10
135.16477250619
20
-1.27855726102769
30
0
41
1
10
136.259727920156
20
-1.83792478013166
30
0
41
1
10
136.806469284627
20
-2.11487650277994
30
0
41
1
10
138.445981419192
20
-2.93472497215515
30
0
41
1
10
139.537950061217
20
-3.46678662230201
30
0
41
1
10
141.180777383027
20
-4.23130079821138
30
0
41
1
10
141.729282849725
20
-4.48062461320055
30
0
41
1
10
142.823611559828
20
-4.96400211305783
30
0
41
1
10
143.370143123509
20
-5.19831857658681
30
0
41
1
10
145.009285230168
20
-5.87685799261052
30
0
41
1
10
146.101409631497
20
-6.29669041325155
30
0
41
1
10
147.744964096405
20
-6.86826472324617
30
0
41
1
10
148.292973095471
20
-7.04880998314786
30
0
41
1
10
148.949265534195
20
-7.25206313065735
30
0
41
1
10
149.05862401696
20
-7.28550146369173
30
0
41
1
10
149.167963494042
20
-7.31849823165498
30
0
0
SPLINE
5
DD
100
AcDbEntity
8
1
62
256
6
ByLayer
370
13
48
1
60
0
100
AcDbSpline
70
4
71
3
72
18
73
14
40
0
40
0
40
0
40
0
40
0.0985949848652926
40
0.0985949848652926
40
0.345082406410846
40
0.345082406410846
40
0.5915698279564
40
0.5915698279564
40
0.71481353872918
40
0.71481353872918
40
0.838057249501959
40
0.838057249501959
40
1
40
1
40
1
40
1
41
1
10
149.16796445635
20
-7.31849852206312
30
0
41
1
10
149.605324007662
20
-7.45048607951199
30
0
41
1
10
150.042379465954
20
-7.57540854251667
30
0
41
1
10
151.571962683195
20
-7.98690688505633
30
0
41
1
10
152.66432383815
20
-8.23480578963458
30
0
41
1
10
154.856863856337
20
-8.63085807476108
30
0
41
1
10
155.949216756972
20
-8.77743336339734
30
0
41
1
10
157.587829137786
20
-8.91784306993716
30
0
41
1
10
158.134073026745
20
-8.95140523465426
30
0
41
1
10
159.227759455198
20
-8.99177544686461
30
0
41
1
10
159.775680732921
20
-8.9986028895286
30
0
41
1
10
161.043143002674
20
-8.98298721008814
30
0
41
1
10
161.761314554405
20
-8.95083438872811
30
0
41
1
10
162.479071346106
20
-8.89576012065777
30
0
0
SPLINE
5
DE
100
AcDbEntity
8
1
62
256
6
ByLayer
370
18
48
1
60
0
100
AcDbSpline
70
4
71
3
72
10
73
6
40
0
40
0
40
0
40
0
40
0.5
40
0.5
40
1
40
1
40
1
40
1
41
1
10
218.952799787084
20
0.245529074915453
30
0
41
1
10
218.956115029324
20
0.218648289012521
30
0
41
1
10
218.962297891099
20
0.187514409104352
30
0
41
1
10
218.978550121862
20
0.11978972639605
30
0
41
1
10
218.988399425064
20
0.0842522273291024
30
0
41
1
10
218.999970640023
20
0.0472495367834824
30
0
0
SPLINE
5
DF
100
AcDbEntity
8
1
62
256
6
ByLayer
370
18
48
1
60
0
100
AcDbSpline
70
4
71
3
72
8
73
4
40
0
40
0
40
0
40
0
40
1
40
1
40
1
40
1
41
1
10
215.966816305311
20
9.18616392024799
30
0
41
1
10
215.848312388674
20
9.30307127501106
30
0
41
1
10
215.745055091253
20
9.38128018757283
30
0
41
1
10
215.655834607686
20
9.42051851122693
30
0
0
SPLINE
5
E0
100
AcDbEntity
8
1
62
256
6
ByLayer
370
18
48
1
60
0
100
AcDbSpline
70
4
71
3
72
62
73
58
40
0
40
0
40
0
40
0
40
0.0293203539448077
40
0.0293203539448077
40
0.0586407078896153
40
0.0586407078896153
40
0.117281415779231
40
0.117281415779231
40
0.175922123668846
40
0.175922123668846
40
0.205242477613652
40
0.205242477613652
40
0.234562831558459
40
0.234562831558459
40
0.293203539448072
40
0.293203539448072
40
0.322523893392878
40
0.322523893392878
40
0.351844247337684
40
0.351844247337684
40
0.38116460128249
40
0.38116460128249
40
0.410484955227296
40
0.410484955227296
40
0.469125663116908
40
0.469125663116908
40
0.498446017061714
40
0.498446017061714
40
0.527766371006521
40
0.527766371006521
40
0.586407078896135
40
0.586407078896135
40
0.615727432840942
40
0.615727432840942
40
0.64504778678575
40
0.64504778678575
40
0.674368140730558
40
0.674368140730558
40
0.703688494675365
40
0.703688494675365
40
0.762329202564982
40
0.762329202564982
40
0.79164955650979
40
0.79164955650979
40
0.820969910454597
40
0.820969910454597
40
0.879610618344212
40
0.879610618344212
40
0.90893097228902
40
0.90893097228902
40
0.938251326233828
40
0.938251326233828
40
0.967571680178635
40
0.967571680178635
40
0.996892034123443
40
0.996892034123443
40
1
40
1
40
1
40
1
41
1
10
215.655834607686
20
-9.42051851122693
30
0
41
1
10
215.110587080891
20
-9.44361469503943
30
0
41
1
10
214.5646616946
20
-9.45264290384233
30
0
41
1
10
213.474217488718
20
-9.44256696740382
30
0
41
1
10
212.92968134112
20
-9.42349208792641
30
0
41
1
10
211.296621172954
20
-9.32455404364319
30
0
41
1
10
210.20820748019
20
-9.2029186887371
30
0
41
1
10
208.025389308055
20
-8.85097222387031
30
0
41
1
10
206.937483724032
20
-8.62179520264004
30
0
41
1
10
205.304184226568
20
-8.20356332324613
30
0
41
1
10
204.75951638611
20
-8.05174022167841
30
0
41
1
10
203.668607847134
20
-7.72417471547431
30
0
41
1
10
203.122760278679
20
-7.54853456396805
30
0
41
1
10
201.488393873263
20
-6.98980065788783
30
0
41
1
10
200.400722076263
20
-6.57433854315718
30
0
41
1
10
198.765474527088
20
-5.89509758237676
30
0
41
1
10
198.219272412049
20
-5.65910082345928
30
0
41
1
10
197.128948297673
20
-5.17195835956116
30
0
41
1
10
196.584411512056
20
-4.92067420689386
30
0
41
1
10
195.495548189867
20
-4.40436064963032
30
0
41
1
10
194.951209163716
20
-4.13934985347919
30
0
41
1
10
193.861577803907
20
-3.59746899075543
30
0
41
1
10
193.31578847001
20
-3.32035902076194
30
0
41
1
10
191.678910630581
20
-2.47563678699078
30
0
41
1
10
190.590885121052
20
-1.89613429025783
30
0
41
1
10
188.956969759503
20
-1.01449886975166
30
0
41
1
10
188.412039565172
20
-0.718518718622789
30
0
41
1
10
187.320433798762
20
-0.124464597502936
30
0
41
1
10
186.774894179198
20
0.172996024686739
30
0
41
1
10
185.140465176579
20
1.06204358516825
30
0
41
1
10
184.052476018465
20
1.65094835408328
30
0
41
1
10
182.416289778345
20
2.51645647568594
30
0
41
1
10
181.870009006483
20
2.80208842478788
30
0
41
1
10
180.779738679627
20
3.36287098498144
30
0
41
1
10
180.235165637747
20
3.63835069217532
30
0
41
1
10
179.146052585994
20
4.17765664866482
30
0
41
1
10
178.601498074588
20
4.44145903993254
30
0
41
1
10
177.511342276282
20
4.95560559287586
30
0
41
1
10
176.965113242325
20
5.20618116916168
30
0
41
1
10
175.328462603588
20
5.93252166101877
30
0
41
1
10
174.240237213688
20
6.38285358444651
30
0
41
1
10
172.605687256641
20
6.99862021711056
30
0
41
1
10
172.060324484224
20
7.19391689321242
30
0
41
1
10
170.968182473268
20
7.56293409575309
30
0
41
1
10
170.423014564796
20
7.73613439538121
30
0
41
1
10
168.788508195263
20
8.22019914957951
30
0
41
1
10
167.700094993918
20
8.49546350838091
30
0
41
1
10
166.06295741666
20
8.83138429525951
30
0
41
1
10
165.516747044661
20
8.93039078770187
30
0
41
1
10
164.42647406908
20
9.10119273010369
30
0
41
1
10
163.881852308105
20
9.17311763217734
30
0
41
1
10
162.792497086036
20
9.28955921069411
30
0
41
1
10
162.24773269783
20
9.33406710408084
30
0
41
1
10
161.156977016772
20
9.39528154027838
30
0
41
1
10
160.610475690315
20
9.4119713101085
30
0
41
1
10
160.007154230424
20
9.41486977928005
30
0
41
1
10
159.949338461461
20
9.41499005309583
30
0
41
1
10
159.891529273219
20
9.41495292815389
30
0
0
SPLINE
5
E1
100
AcDbEntity
8
1
62
256
6
ByLayer
370
18
48
1
60
0
100
AcDbSpline
70
4
71
3
72
64
73
60
40
0
40
0
40
0
40
0
40
0.0026183554732429
40
0.0026183554732429
40
0.0571707540756417
40
0.0571707540756417
40
0.0844469533768411
40
0.0844469533768411
40
0.11172315267804
40
0.11172315267804
40
0.138999351979239
40
0.138999351979239
40
0.166275551280439
40
0.166275551280439
40
0.220827949882837
40
0.220827949882837
40
0.275380348485236
40
0.275380348485236
40
0.329932747087634
40
0.329932747087634
40
0.357208946388833
40
0.357208946388833
40
0.384485145690033
40
0.384485145690033
40
0.411761344991232
40
0.411761344991232
40
0.439037544292431
40
0.439037544292431
40
0.493589942894831
40
0.493589942894831
40
0.52086614219603
40
0.52086614219603
40
0.548142341497229
40
0.548142341497229
40
0.602694740099629
40
0.602694740099629
40
0.629970939400829
40
0.629970939400829
40
0.657247138702029
40
0.657247138702029
40
0.684523338003228
40
0.684523338003228
40
0.711799537304428
40
0.711799537304428
40
0.766351935906826
40
0.766351935906826
40
0.793628135208026
40
0.793628135208026
40
0.820904334509225
40
0.820904334509225
40
0.875456733111624
40
0.875456733111624
40
0.930009131714023
40
0.930009131714023
40
0.957285331015222
40
0.957285331015222
40
0.984561530316421
40
0.984561530316421
40
1
40
1
40
1
40
1
41
1
10
111.134280944349
20
-8.89065793960745
30
0
41
1
10
111.081903796845
20
-8.89971308884245
30
0
41
1
10
111.02953357633
20
-8.90864483687935
30
0
41
1
10
109.886216792376
20
-9.10096125129053
30
0
41
1
10
108.797027759202
20
-9.2310669918628
30
0
41
1
10
107.159093570105
20
-9.34316730537324
30
0
41
1
10
106.612170182815
20
-9.36668091332857
30
0
41
1
10
105.520599379578
20
-9.38561822366083
30
0
41
1
10
104.975375960137
20
-9.38109895714675
30
0
41
1
10
103.884990805826
20
-9.34422847661872
30
0
41
1
10
103.339850677816
20
-9.31187289897639
30
0
41
1
10
102.248548161418
20
-9.2194687607078
30
0
41
1
10
101.701761928959
20
-9.15934507409213
30
0
41
1
10
100.063071295789
20
-8.93841654892157
30
0
41
1
10
98.9736012338167
20
-8.73729617278966
30
0
41
1
10
96.7917480387152
20
-8.23347152614858
30
0
41
1
10
95.6975671917909
20
-7.92999470221147
30
0
41
1
10
93.5156042361663
20
-7.23427262283505
30
0
41
1
10
92.4260393411321
20
-6.84175199724115
30
0
41
1
10
90.7871056130922
20
-6.19400609405429
30
0
41
1
10
90.2402098495348
20
-5.96826316135056
30
0
41
1
10
89.1486567488903
20
-5.50059474359509
30
0
41
1
10
88.6033938171518
20
-5.25845080409295
30
0
41
1
10
87.5127454837674
20
-4.75933979209543
30
0
41
1
10
86.9673697931545
20
-4.50235934100937
30
0
41
1
10
85.8754825239399
20
-3.97516581831223
30
0
41
1
10
85.3283943542989
20
-3.7046754995016
30
0
41
1
10
83.6898620635548
20
-2.87943537283698
30
0
41
1
10
82.6002015818382
20
-2.31023435041323
30
0
41
1
10
80.96310161842
20
-1.43980339668465
30
0
41
1
10
80.4165753132594
20
-1.14670882372576
30
0
41
1
10
79.3232666746593
20
-0.557846897967835
30
0
41
1
10
78.7774787463104
20
-0.262550244686935
30
0
41
1
10
77.1408556366964
20
0.622486820992492
30
0
41
1
10
76.0508657186832
20
1.21156911026205
30
0
41
1
10
74.4109523741164
20
2.08160835078254
30
0
41
1
10
73.8642618369452
20
2.36887333453757
30
0
41
1
10
72.7726605094341
20
2.9345797578336
30
0
41
1
10
72.2273154507147
20
3.21326183905063
30
0
41
1
10
71.1363595731009
20
3.76023756206396
30
0
41
1
10
70.590755592161
20
4.02854450989622
30
0
41
1
10
69.4982615765844
20
4.55300471473484
30
0
41
1
10
68.9510279373978
20
4.80929595244939
30
0
41
1
10
67.3126240965711
20
5.55370062227956
30
0
41
1
10
66.2226776865433
20
6.01851913019198
30
0
41
1
10
64.5848826989217
20
6.659327813278
30
0
41
1
10
64.0378602829318
20
6.86368097230201
30
0
41
1
10
62.9446912423359
20
7.25076336687641
30
0
41
1
10
62.3988575264227
20
7.43347001440938
30
0
41
1
10
60.7619970390144
20
7.94740891621777
30
0
41
1
10
59.6715949989066
20
8.24442589476027
30
0
41
1
10
57.4835889805432
20
8.7382559417002
30
0
41
1
10
56.3928582655915
20
8.93347494249241
30
0
41
1
10
54.7559329439258
20
9.14525077864266
30
0
41
1
10
54.2100602379576
20
9.20232540719707
30
0
41
1
10
53.1168644786895
20
9.28896696589686
30
0
41
1
10
52.5696853565385
20
9.31849543441885
30
0
41
1
10
51.7144777452812
20
9.34279023226387
30
0
41
1
10
51.4055347248434
20
9.34710398569646
30
0
41
1
10
51.0966546311428
20
9.34695735489385
30
0
0
SPLINE
5
E2
100
AcDbEntity
8
1
62
256
6
ByLayer
370
18
48
1
60
0
100
AcDbSpline
70
4
71
3
72
8
73
4
40
0
40
0
40
0
40
0
40
1
40
1
40
1
40
1
41
1
10
218.797023531459
20
-0.340157430391884
30
0
41
1
10
217.755709628362
20
-3.20114386571987
30
0
41
1
10
216.714395725264
20
-6.062130301048
30
0
41
1
10
215.673081822167
20
-8.92311673637406
30
0
0
SPLINE
5
E3
100
AcDbEntity
8
1
62
256
6
ByLayer
370
18
48
1
60
0
100
AcDbSpline
70
4
71
3
72
8
73
4
40
0
40
0
40
0
40
0
40
1
40
1
40
1
40
1
41
1
10
215.822930046869
20
-8.99450650887209
30
0
41
1
10
215.767307440251
20
-9.13672304182009
30
0
41
1
10
215.711604470922
20
-9.27872484852082
30
0
41
1
10
215.655834607686
20
-9.4205185112269
30
0
0
SPLINE
5
E4
100
AcDbEntity
8
1
62
256
6
ByLayer
370
18
48
1
60
0
100
AcDbSpline
70
4
71
3
72
84
73
80
40
0
40
0
40
0
40
0
40
0.0431852865860693
40
0.0431852865860693
40
0.0647779298791035
40
0.0647779298791035
40
0.0863705731721377
40
0.0863705731721377
40
0.129555859758206
40
0.129555859758206
40
0.172741146344275
40
0.172741146344275
40
0.194333789637309
40
0.194333789637309
40
0.215926432930344
40
0.215926432930344
40
0.237519076223379
40
0.237519076223379
40
0.259111719516413
40
0.259111719516413
40
0.280704362809448
40
0.280704362809448
40
0.302297006102483
40
0.302297006102483
40
0.323889649395517
40
0.323889649395517
40
0.345482292688552
40
0.345482292688552
40
0.356278614335069
40
0.356278614335069
40
0.367074935981587
40
0.367074935981587
40
0.388667579274621
40
0.388667579274621
40
0.410260222567656
40
0.410260222567656
40
0.43185286586069
40
0.43185286586069
40
0.475038152446759
40
0.475038152446759
40
0.496630795739793
40
0.496630795739793
40
0.518223439032828
40
0.518223439032828
40
0.561408725618896
40
0.561408725618896
40
0.604594012204964
40
0.604594012204964
40
0.626186655497998
40
0.626186655497998
40
0.647779298791032
40
0.647779298791032
40
0.669371942084066
40
0.669371942084066
40
0.690964585377099
40
0.690964585377099
40
0.734149871963167
40
0.734149871963167
40
0.777335158549234
40
0.777335158549234
40
0.788131480195751
40
0.788131480195751
40
0.798927801842267
40
0.798927801842267
40
0.820520445135299
40
0.820520445135299
40
0.842113088428332
40
0.842113088428332
40
0.863705731721364
40
0.863705731721364
40
0.906891018307429
40
0.906891018307429
40
0.928483661600462
40
0.928483661600462
40
0.950076304893494
40
0.950076304893494
40
0.993261591479559
40
0.993261591479559
40
1
40
1
40
1
40
1
41
1
10
11.6344641000321
20
5.00170495373294
30
0
41
1
10
12.1699204398424
20
4.75625917137199
30
0
41
1
10
12.7042627804969
20
4.50586215738079
30
0
41
1
10
13.504753514486
20
4.12418920123358
30
0
41
1
10
13.7713375578826
20
3.99582105542328
30
0
41
1
10
14.3035308783184
20
3.7359547499006
30
0
41
1
10
14.5686030729327
20
3.60349852883681
30
0
41
1
10
15.3642913157604
20
3.20484142984699
30
0
41
1
10
15.8950866873094
20
2.93688314285578
30
0
41
1
10
16.9543793422687
20
2.39133237369626
30
0
41
1
10
17.4826829199083
20
2.11334400334127
30
0
41
1
10
18.2761089336958
20
1.69401870388248
30
0
41
1
10
18.540771037465
20
1.55390486299291
30
0
41
1
10
19.0703819041582
20
1.27284877949802
30
0
41
1
10
19.3354871488229
20
1.13220483182064
30
0
41
1
10
19.8647640032649
20
0.847767189421006
30
0
41
1
10
20.1292652070349
20
0.704588929063647
30
0
41
1
10
20.6595534790685
20
0.419290477575089
30
0
41
1
10
20.9251313405377
20
0.27677512754758
30
0
41
1
10
21.4569610894252
20
-0.0083500782648684
30
0
41
1
10
21.7231218128123
20
-0.1511352034411
30
0
41
1
10
22.2554455957711
20
-0.438130697037735
30
0
41
1
10
22.5217537193295
20
-0.582061894500413
30
0
41
1
10
23.0554364625734
20
-0.869286142384112
30
0
41
1
10
23.3226439217643
20
-1.01290816463882
30
0
41
1
10
23.8583112239288
20
-1.29914581285379
30
0
41
1
10
24.1269201549478
20
-1.44183652234071
30
0
41
1
10
24.5291429638997
20
-1.65481535281938
30
0
41
1
10
24.6631669328799
20
-1.72563593687576
30
0
41
1
10
24.9309915769615
20
-1.86715818367929
30
0
41
1
10
25.0645508844317
20
-1.93830311648935
30
0
41
1
10
25.4654727993036
20
-2.15048257971617
30
0
41
1
10
25.7328529893248
20
-2.29068501888094
30
0
41
1
10
26.2678285934888
20
-2.5685985192078
30
0
41
1
10
26.535482431296
20
-2.70620706717284
30
0
41
1
10
27.0704891857844
20
-2.97987309592128
30
0
41
1
10
27.3377014688574
20
-3.11617585758859
30
0
41
1
10
28.1390652807412
20
-3.52238321628747
30
0
41
1
10
28.6735301025565
20
-3.78855494778529
30
0
41
1
10
29.4771865514714
20
-4.17810954648277
30
0
41
1
10
29.7453404921496
20
-4.30644713043822
30
0
41
1
10
30.2818694095098
20
-4.5606125366271
30
0
41
1
10
30.5493003470339
20
-4.68728475385555
30
0
41
1
10
31.3522613422641
20
-5.05934163657659
30
0
41
1
10
31.8881347255628
20
-5.29808875945167
30
0
41
1
10
32.9575849044525
20
-5.76255204220107
30
0
41
1
10
33.4912574753063
20
-5.98799124618682
30
0
41
1
10
34.2931600449026
20
-6.31160657741296
30
0
41
1
10
34.5607279630148
20
-6.41702234042364
30
0
41
1
10
35.0961813960811
20
-6.62326338739473
30
0
41
1
10
35.3642497371007
20
-6.72385902595948
30
0
41
1
10
35.8991786237213
20
-6.9223687377023
30
0
41
1
10
36.167292769357
20
-7.01905519756099
30
0
41
1
10
36.7030161913316
20
-7.20641507910256
30
0
41
1
10
36.9706512976621
20
-7.29708059724123
30
0
41
1
10
37.7723586878585
20
-7.56087533144301
30
0
41
1
10
38.3042341287542
20
-7.72690770463458
30
0
41
1
10
39.3662927971101
20
-8.03537600625845
30
0
41
1
10
39.8966789070442
20
-8.17769562748626
30
0
41
1
10
40.5590187291873
20
-8.34085873594583
30
0
41
1
10
40.6914975113193
20
-8.37271958355521
30
0
41
1
10
40.9559519052312
20
-8.43532448733308
30
0
41
1
10
41.0879616319248
20
-8.46603195318039
30
0
41
1
10
41.4843772116608
20
-8.55552509787955
30
0
41
1
10
41.7487992272085
20
-8.61199332004733
30
0
41
1
10
42.2779472747685
20
-8.71863852672101
30
0
41
1
10
42.5427188141388
20
-8.76879284468336
30
0
41
1
10
43.0719599471592
20
-8.86323696887371
30
0
41
1
10
43.3363109103552
20
-8.9075834782542
30
0
41
1
10
44.1294722051015
20
-9.03131022781773
30
0
41
1
10
44.658743037657
20
-9.10118634382462
30
0
41
1
10
45.454812458734
20
-9.18653978218819
30
0
41
1
10
45.7204683951747
20
-9.21178344679404
30
0
41
1
10
46.2520590512404
20
-9.25591134571468
30
0
41
1
10
46.5173894234488
20
-9.27493105162512
30
0
41
1
10
47.3160622832192
20
-9.32167784502357
30
0
41
1
10
47.8511415896528
20
-9.33956948942588
30
0
41
1
10
48.4707921323965
20
-9.34494710889186
30
0
41
1
10
48.5544090656754
20
-9.34534540793103
30
0
41
1
10
48.6380062529067
20
-9.34541613294485
30
0
0
SPLINE
5
E5
100
AcDbEntity
8
1
62
256
6
ByLayer
370
18
48
1
60
0
100
AcDbSpline
70
4
71
3
72
144
73
140
40
0
40
0
40
0
40
0
40
0.0094180358119153
40
0.0094180358119153
40
0.0204721529180668
40
0.0204721529180668
40
0.0425803871303699
40
0.0425803871303699
40
0.053634504236521
40
0.053634504236521
40
0.064688621342672
40
0.064688621342672
40
0.0757427384488231
40
0.0757427384488231
40
0.086796855554974
40
0.086796855554974
40
0.108905089767276
40
0.108905089767276
40
0.119959206873427
40
0.119959206873427
40
0.131013323979577
40
0.131013323979577
40
0.153121558191879
40
0.153121558191879
40
0.175229792404181
40
0.175229792404181
40
0.197338026616484
40
0.197338026616484
40
0.219446260828786
40
0.219446260828786
40
0.241554495041088
40
0.241554495041088
40
0.252608612147239
40
0.252608612147239
40
0.26366272925339
40
0.26366272925339
40
0.274716846359541
40
0.274716846359541
40
0.285770963465692
40
0.285770963465692
40
0.296825080571843
40
0.296825080571843
40
0.307879197677994
40
0.307879197677994
40
0.329987431890295
40
0.329987431890295
40
0.341041548996446
40
0.341041548996446
40
0.352095666102597
40
0.352095666102597
40
0.374203900314899
40
0.374203900314899
40
0.396312134527201
40
0.396312134527201
40
0.407366251633352
40
0.407366251633352
40
0.412893310186428
40
0.412893310186428
40
0.418420368739504
40
0.418420368739504
40
0.440528602951806
40
0.440528602951806
40
0.462636837164109
40
0.462636837164109
40
0.48474507137641
40
0.48474507137641
40
0.495799188482561
40
0.495799188482561
40
0.506853305588712
40
0.506853305588712
40
0.517907422694863
40
0.517907422694863
40
0.528961539801013
40
0.528961539801013
40
0.551069774013315
40
0.551069774013315
40
0.562123891119466
40
0.562123891119466
40
0.573178008225618
40
0.573178008225618
40
0.595286242437921
40
0.595286242437921
40
0.617394476650223
40
0.617394476650223
40
0.628448593756375
40
0.628448593756375
40
0.633975652309451
40
0.633975652309451
40
0.639502710862526
40
0.639502710862526
40
0.66161094507483
40
0.66161094507483
40
0.672665062180981
40
0.672665062180981
40
0.683719179287132
40
0.683719179287132
40
0.705827413499435
40
0.705827413499435
40
0.716881530605587
40
0.716881530605587
40
0.727935647711738
40
0.727935647711738
40
0.738989764817889
40
0.738989764817889
40
0.75004388192404
40
0.75004388192404
40
0.772152116136344
40
0.772152116136344
40
0.783206233242496
40
0.783206233242496
40
0.794260350348648
40
0.794260350348648
40
0.816368584560952
40
0.816368584560952
40
0.838476818773256
40
0.838476818773256
40
0.849530935879407
40
0.849530935879407
40
0.855057994432483
40
0.855057994432483
40
0.860585052985559
40
0.860585052985559
40
0.882693287197866
40
0.882693287197866
40
0.904801521410172
40
0.904801521410172
40
0.926909755622479
40
0.926909755622479
40
0.937963872728632
40
0.937963872728632
40
0.949017989834784
40
0.949017989834784
40
0.960072106940938
40
0.960072106940938
40
0.97112622404709
40
0.97112622404709
40
0.993234458259395
40
0.993234458259395
40
1
40
1
40
1
40
1
41
1
10
85.2355969430856
20
4.83294004556703
30
0
41
1
10
85.4638659718635
20
4.93848226868644
30
0
41
1
10
85.6922119998083
20
5.04314156543825
30
0
41
1
10
86.1875479483766
20
5.26788632516764
30
0
41
1
10
86.454823996908
20
5.38726756025247
30
0
41
1
10
87.2563558913782
20
5.73913973899244
30
0
41
1
10
87.7907985056093
20
5.96466197689014
30
0
41
1
10
88.5921605972366
20
6.29015233730232
30
0
41
1
10
88.858596818974
20
6.39737483752023
30
0
41
1
10
89.3922872514628
20
6.60622421896667
30
0
41
1
10
89.6594180670365
20
6.70803697008355
30
0
41
1
10
90.1942609916715
20
6.90648540446978
30
0
41
1
10
90.461962219577
20
7.00314236762483
30
0
41
1
10
90.9971728636249
20
7.19222679800018
30
0
41
1
10
91.2646804728988
20
7.28474170246466
30
0
41
1
10
92.0677934448286
20
7.55412193181002
30
0
41
1
10
92.6014490185516
20
7.72217568698491
30
0
41
1
10
93.4005014194291
20
7.95622579922522
30
0
41
1
10
93.6667478094658
20
8.03112747847615
30
0
41
1
10
94.1972350997911
20
8.17644632324229
30
0
41
1
10
94.4620796772038
20
8.24623718596564
30
0
41
1
10
95.2570248802957
20
8.44567060975211
30
0
41
1
10
95.7872240547852
20
8.56583878917621
30
0
41
1
10
96.8442336516239
20
8.78380572544364
30
0
41
1
10
97.3719319962069
20
8.88077726917203
30
0
41
1
10
98.4287704237735
20
9.04892681153115
30
0
41
1
10
98.9579933339035
20
9.12023650271257
30
0
41
1
10
100.014637751969
20
9.23845946090481
30
0
41
1
10
100.544733574858
20
9.28428623913899
30
0
41
1
10
101.606894788945
20
9.35017146983193
30
0
41
1
10
102.137969891743
20
9.37029019231778
30
0
41
1
10
102.937573267083
20
9.38027658686067
30
0
41
1
10
103.204573150447
20
9.38026031809918
30
0
41
1
10
103.739821475645
20
9.37353721765015
30
0
41
1
10
104.008074517531
20
9.36682725736006
30
0
41
1
10
104.543454865856
20
9.34672370668019
30
0
41
1
10
104.810231993991
20
9.33321326575594
30
0
41
1
10
105.344322074296
20
9.29964085880562
30
0
41
1
10
105.61145308216
20
9.27957267382888
30
0
41
1
10
106.145896076036
20
9.2329906972588
30
0
41
1
10
106.413182132241
20
9.20647936280218
30
0
41
1
10
106.947145098677
20
9.14673018902988
30
0
41
1
10
107.213767250255
20
9.11344654982909
30
0
41
1
10
108.014099258959
20
9.00393363520476
30
0
41
1
10
108.548072273384
20
8.91798250049257
30
0
41
1
10
109.350808479117
20
8.77043142736511
30
0
41
1
10
109.618824282282
20
8.71826795913165
30
0
41
1
10
110.153747426158
20
8.60645605709749
30
0
41
1
10
110.42078409969
20
8.54753754922288
30
0
41
1
10
111.221465968795
20
8.36272530891685
30
0
41
1
10
111.754646975554
20
8.22882700401587
30
0
41
1
10
112.81605613698
20
7.93646864405241
30
0
41
1
10
113.345277045496
20
7.77883406334394
30
0
41
1
10
114.139065605128
20
7.52773586106139
30
0
41
1
10
114.403651571801
20
7.44160682555258
30
0
41
1
10
114.800289422053
20
7.30853654304357
30
0
41
1
10
114.932494569587
20
7.26357242217048
30
0
41
1
10
115.196631518049
20
7.1721135586458
30
0
41
1
10
115.328390861582
20
7.12540457424939
30
0
41
1
10
115.987901283443
20
6.88969357188674
30
0
41
1
10
116.51654706544
20
6.69278395585638
30
0
41
1
10
117.574079038837
20
6.28026480188305
30
0
41
1
10
118.102074821851
20
6.06331613005318
30
0
41
1
10
119.160585830096
20
5.61346810052663
30
0
41
1
10
119.69134117212
20
5.38103366335812
30
0
41
1
10
120.48904760297
20
5.02000715921196
30
0
41
1
10
120.754576849605
20
4.89653430809335
30
0
41
1
10
121.287306887065
20
4.64724151264051
30
0
41
1
10
121.554285627727
20
4.52107310289301
30
0
41
1
10
122.089467776346
20
4.26571658823582
30
0
41
1
10
122.357745314343
20
4.13641738753327
30
0
41
1
10
122.892830371965
20
3.87436304342725
30
0
41
1
10
123.159822473438
20
3.74142030946842
30
0
41
1
10
123.960729190207
20
3.33953349320956
30
0
41
1
10
124.494301585015
20
3.06707320297579
30
0
41
1
10
125.295250388322
20
2.65366022339956
30
0
41
1
10
125.562460503455
20
2.51530659324405
30
0
41
1
10
126.095338739359
20
2.23389857729828
30
0
41
1
10
126.361953030855
20
2.09253240253872
30
0
41
1
10
127.162947294944
20
1.66761706764029
30
0
41
1
10
127.698486518745
20
1.38331087326216
30
0
41
1
10
128.768797661051
20
0.805426611791034
30
0
41
1
10
129.30281766896
20
0.514866147918667
30
0
41
1
10
130.104063607321
20
0.0808215633873317
30
0
41
1
10
130.371180956702
20
-0.0635996531149772
30
0
41
1
10
130.771673029413
20
-0.280282091919446
30
0
41
1
10
130.905202132878
20
-0.352402527042187
30
0
41
1
10
131.17182912831
20
-0.49734389867993
30
0
41
1
10
131.304922079629
20
-0.570173449597348
30
0
41
1
10
131.971209199182
20
-0.932555603584717
30
0
41
1
10
132.505574677423
20
-1.21921579180861
30
0
41
1
10
133.30739974128
20
-1.64753559221023
30
0
41
1
10
133.574495178124
20
-1.7904433853426
30
0
41
1
10
134.109000633559
20
-2.07528453344156
30
0
41
1
10
134.376758438382
20
-2.21711641369811
30
0
41
1
10
135.17835349904
20
-2.63906115033509
30
0
41
1
10
135.711706995803
20
-2.91452477621715
30
0
41
1
10
136.508977233738
20
-3.32147957300131
30
0
41
1
10
136.773674311472
20
-3.45715039661386
30
0
41
1
10
137.303672672953
20
-3.72363879523488
30
0
41
1
10
137.568626535844
20
-3.85509513344721
30
0
41
1
10
138.098389753108
20
-4.11459771490854
30
0
41
1
10
138.363134403602
20
-4.24275996402432
30
0
41
1
10
138.891714018943
20
-4.49696426843923
30
0
41
1
10
139.15556607394
20
-4.62296444243461
30
0
41
1
10
139.947338618799
20
-4.99511765746379
30
0
41
1
10
140.475080329295
20
-5.23608814936509
30
0
41
1
10
141.267565000838
20
-5.58535760811222
30
0
41
1
10
141.5319307386
20
-5.69967589302922
30
0
41
1
10
142.059363718715
20
-5.9265830244851
30
0
41
1
10
142.323412265349
20
-6.03770224288547
30
0
41
1
10
143.116683695623
20
-6.36394416612373
30
0
41
1
10
143.647200300949
20
-6.5717842953764
30
0
41
1
10
144.707942116153
20
-6.97293424798551
30
0
41
1
10
145.239275988174
20
-7.16465626732847
30
0
41
1
10
146.03976610833
20
-7.43624193880197
30
0
41
1
10
146.307180328041
20
-7.52414577829046
30
0
41
1
10
146.708860340581
20
-7.6522769958143
30
0
41
1
10
146.842743656333
20
-7.69423665208325
30
0
41
1
10
147.109922984187
20
-7.77725083328642
30
0
41
1
10
147.243285286826
20
-7.81822673784487
30
0
41
1
10
147.910617191099
20
-8.01872126548344
30
0
41
1
10
148.445044478154
20
-8.16637202401472
30
0
41
1
10
149.512645667083
20
-8.43896136850668
30
0
41
1
10
150.045164455894
20
-8.5642993809162
30
0
41
1
10
151.111890647104
20
-8.78942434863748
30
0
41
1
10
151.646441422796
20
-8.88912600074701
30
0
41
1
10
152.448551474214
20
-9.02030923470616
30
0
41
1
10
152.715649175198
20
-9.06126561061518
30
0
41
1
10
153.249907023413
20
-9.13584997779776
30
0
41
1
10
153.516793968985
20
-9.16971217080749
30
0
41
1
10
154.050014768934
20
-9.23077269200314
30
0
41
1
10
154.316277515035
20
-9.25800812511383
30
0
41
1
10
154.847500313867
20
-9.30609174441079
30
0
41
1
10
155.112510080341
20
-9.32690002280142
30
0
41
1
10
155.907197665898
20
-9.37924673266176
30
0
41
1
10
156.43614105624
20
-9.40083970983636
30
0
41
1
10
157.126689615069
20
-9.41191204115614
30
0
41
1
10
157.288464478743
20
-9.41328725382763
30
0
41
1
10
157.450061207406
20
-9.41342935503172
30
0
0
SPLINE
5
E6
100
AcDbEntity
8
1
62
256
6
ByLayer
370
18
48
1
60
0
100
AcDbSpline
70
4
71
3
72
52
73
48
40
0
40
0
40
0
40
0
40
0.0178961307674211
40
0.0178961307674211
40
0.0542703481464103
40
0.0542703481464103
40
0.0906445655253994
40
0.0906445655253994
40
0.12701878290439
40
0.12701878290439
40
0.199767217662371
40
0.199767217662371
40
0.23614143504136
40
0.23614143504136
40
0.272515652420351
40
0.272515652420351
40
0.308889869799337
40
0.308889869799337
40
0.345264087178323
40
0.345264087178323
40
0.38163830455731
40
0.38163830455731
40
0.418012521936296
40
0.418012521936296
40
0.490760956694268
40
0.490760956694268
40
0.527135174073252
40
0.527135174073252
40
0.563509391452235
40
0.563509391452235
40
0.599883608831218
40
0.599883608831218
40
0.636257826210202
40
0.636257826210202
40
0.709006260968163
40
0.709006260968163
40
0.745380478347143
40
0.745380478347143
40
0.781754695726123
40
0.781754695726123
40
0.854503130484084
40
0.854503130484084
40
0.927251565242044
40
0.927251565242044
40
0.963625782621022
40
0.963625782621022
40
1
40
1
40
1
40
1
41
1
10
194.049845381941
20
4.8691108243093
30
0
41
1
10
194.181191430846
20
4.93027505669687
30
0
41
1
10
194.312572687199
20
4.99103591734718
30
0
41
1
10
194.71103847106
20
5.17416039053634
30
0
41
1
10
194.977641223045
20
5.29617550435518
30
0
41
1
10
195.511918709652
20
5.53560330619064
30
0
41
1
10
195.779155155006
20
5.65295885645065
30
0
41
1
10
196.312760838387
20
5.88256498485163
30
0
41
1
10
196.579302215408
20
5.99489276717216
30
0
41
1
10
197.377059594027
20
6.32614133174664
30
0
41
1
10
197.906489470218
20
6.53908795968076
30
0
41
1
10
198.70004033487
20
6.84254386990693
30
0
41
1
10
198.964479068514
20
6.94102842583811
30
0
41
1
10
199.493153888319
20
7.13279985090992
30
0
41
1
10
199.757493764648
20
7.22596967064013
30
0
41
1
10
200.284979019605
20
7.40829736714943
30
0
41
1
10
200.548169262474
20
7.4973638887071
30
0
41
1
10
201.075457814462
20
7.66900907186744
30
0
41
1
10
201.339278780558
20
7.75192286781416
30
0
41
1
10
201.867125774789
20
7.91216386146527
30
0
41
1
10
202.13106966901
20
7.98958177420224
30
0
41
1
10
202.658439706209
20
8.13950430054334
30
0
41
1
10
202.921968598595
20
8.21189162069055
30
0
41
1
10
203.713418668204
20
8.42003734231253
30
0
41
1
10
204.24184516258
20
8.54713539253069
30
0
41
1
10
205.036521063084
20
8.71962092305364
30
0
41
1
10
205.301615235151
20
8.77420526575435
30
0
41
1
10
205.831470598169
20
8.8779257384916
30
0
41
1
10
206.096966369341
20
8.92654891385087
30
0
41
1
10
206.62910429447
20
9.0173664236622
30
0
41
1
10
206.895800685964
20
9.0595342881702
30
0
41
1
10
207.429962977878
20
9.13765131739947
30
0
41
1
10
207.697512621976
20
9.17368499012471
30
0
41
1
10
208.498448484359
20
9.27200366684204
30
0
41
1
10
209.03149442138
20
9.32423538346799
30
0
41
1
10
209.831555945257
20
9.38235004174308
30
0
41
1
10
210.09828372062
20
9.39837606917743
30
0
41
1
10
210.631503396582
20
9.42381120078684
30
0
41
1
10
210.897460429777
20
9.43327252440926
30
0
41
1
10
211.696367470986
20
9.45140320382663
30
0
41
1
10
212.230488060516
20
9.45002685569273
30
0
41
1
10
213.298828785686
20
9.42049762675751
30
0
41
1
10
213.833078967815
20
9.3920550624907
30
0
41
1
10
214.633436267786
20
9.32955127290182
30
0
41
1
10
214.900222392138
20
9.30544186972358
30
0
41
1
10
215.433726581614
20
9.25073251819614
30
0
41
1
10
215.70059632865
20
9.2202057414593
30
0
41
1
10
215.966816305311
20
9.18616392024802
30
0
0
SPLINE
5
E7
100
AcDbEntity
8
1
62
256
6
ByLayer
370
18
48
1
60
0
100
AcDbSpline
70
2053
71
3
72
90
73
86
40
0
40
0
40
0
40
0
40
0.0312500000000039
40
0.0312500000000039
40
0.0625000000000078
40
0.0625000000000078
40
0.078125000000007
40
0.078125000000007
40
0.0937500000000061
40
0.0937500000000061
40
0.125000000000004
40
0.125000000000004
40
0.140625000000005
40
0.140625000000005
40
0.156250000000005
40
0.156250000000005
40
0.171875000000006
40
0.171875000000006
40
0.187500000000006
40
0.187500000000006
40
0.218750000000006
40
0.218750000000006
40
0.250000000000007
40
0.250000000000007
40
0.265625000000009
40
0.265625000000009
40
0.281250000000012
40
0.281250000000012
40
0.312500000000022
40
0.312500000000022
40
0.343750000000032
40
0.343750000000032
40
0.375000000000042
40
0.375000000000042
40
0.406250000000051
40
0.406250000000051
40
0.437500000000061
40
0.437500000000061
40
0.468750000000071
40
0.468750000000071
40
0.500000000000081
40
0.500000000000081
40
0.515625000000083
40
0.515625000000083
40
0.531250000000084
40
0.531250000000084
40
0.562500000000081
40
0.562500000000081
40
0.578125000000079
40
0.578125000000079
40
0.593750000000078
40
0.593750000000078
40
0.609375000000076
40
0.609375000000076
40
0.625000000000074
40
0.625000000000074
40
0.640625000000073
40
0.640625000000073
40
0.656250000000071
40
0.656250000000071
40
0.687500000000068
40
0.687500000000068
40
0.718750000000064
40
0.718750000000064
40
0.734375000000062
40
0.734375000000062
40
0.75000000000006
40
0.75000000000006
40
0.781250000000053
40
0.781250000000053
40
0.796875000000049
40
0.796875000000049
40
0.812500000000045
40
0.812500000000045
40
0.843750000000038
40
0.843750000000038
40
0.87500000000003
40
0.87500000000003
40
0.906250000000023
40
0.906250000000023
40
0.937500000000015
40
0.937500000000015
40
0.968750000000008
40
0.968750000000008
40
1
40
1
40
1
40
1
41
1
10
216.80414124894
20
-5.55336544484932
30
0
41
1
10
216.859101770219
20
-5.46457764299748
30
0
41
1
10
216.912037187749
20
-5.3708728560961
30
0
41
1
10
217.013377281018
20
-5.17246256707728
30
0
41
1
10
217.06228964427
20
-5.06641233399694
30
0
41
1
10
217.128336719157
20
-4.90456185481079
30
0
41
1
10
217.149220517038
20
-4.8500153848687
30
0
41
1
10
217.188558417811
20
-4.73964242030078
30
0
41
1
10
217.207138041842
20
-4.68339362372726
30
0
41
1
10
217.25786376828
20
-4.51569137896939
30
0
41
1
10
217.28473619768
20
-4.4066695030198
30
0
41
1
10
217.314183347366
20
-4.24748399558942
30
0
41
1
10
217.322169196616
20
-4.19492546840567
30
0
41
1
10
217.333901864811
20
-4.0948405990373
30
0
41
1
10
217.337747858115
20
-4.04687031343593
30
0
41
1
10
217.341560038172
20
-3.95490903999004
30
0
41
1
10
217.341511015936
20
-3.91067575881433
30
0
41
1
10
217.337613939001
20
-3.82735200978451
30
0
41
1
10
217.333806744797
20
-3.78851762283446
30
0
41
1
10
217.317298704905
20
-3.67975225572684
30
0
41
1
10
217.299237402381
20
-3.61703380798406
30
0
41
1
10
217.252765582336
20
-3.51422124224578
30
0
41
1
10
217.22440674459
20
-3.47348709573444
30
0
41
1
10
217.175213535363
20
-3.426249542509
30
0
41
1
10
217.157619578618
20
-3.4128123824764
30
0
41
1
10
217.120929796828
20
-3.39081267623908
30
0
41
1
10
217.10178193373
20
-3.38217639541978
30
0
41
1
10
217.042118077445
20
-3.36280297415917
30
0
41
1
10
216.999399511688
20
-3.3585491708667
30
0
41
1
10
216.908531191147
20
-3.36602842894405
30
0
41
1
10
216.860230065299
20
-3.37793977420122
30
0
41
1
10
216.761122125091
20
-3.4164388762812
30
0
41
1
10
216.709993604822
20
-3.44301374263577
30
0
41
1
10
216.604636947542
20
-3.51058389236374
30
0
41
1
10
216.550033163058
20
-3.55195589380247
30
0
41
1
10
216.440439329252
20
-3.64748284708622
30
0
41
1
10
216.385243900011
20
-3.70168327782318
30
0
41
1
10
216.274023682036
20
-3.82348033424097
30
0
41
1
10
216.218000177562
20
-3.89105621598728
30
0
41
1
10
216.105000292911
20
-4.0415992649279
30
0
41
1
10
216.049324317095
20
-4.12287214438743
30
0
41
1
10
215.967763776407
20
-4.2538176814725
30
0
41
1
10
215.940873557867
20
-4.29902310452786
30
0
41
1
10
215.887741809008
20
-4.39283871490261
30
0
41
1
10
215.861353701449
20
-4.44174391173416
30
0
41
1
10
215.784696060527
20
-4.59143172349718
30
0
41
1
10
215.736780980653
20
-4.69521864991668
30
0
41
1
10
215.670460280777
20
-4.85785205223695
30
0
41
1
10
215.649190290779
20
-4.91355697614938
30
0
41
1
10
215.609941162878
20
-5.02416198034592
30
0
41
1
10
215.591809634895
20
-5.0793965833262
30
0
41
1
10
215.558615677908
20
-5.18972621521212
30
0
41
1
10
215.543552317859
20
-5.24482128645909
30
0
41
1
10
215.516700150352
20
-5.35486251142018
30
0
41
1
10
215.504941395805
20
-5.40985740805448
30
0
41
1
10
215.485631383572
20
-5.51569827430262
30
0
41
1
10
215.477942511203
20
-5.5670637879567
30
0
41
1
10
215.466416644797
20
-5.66674855220236
30
0
41
1
10
215.462571168522
20
-5.71536040059999
30
0
41
1
10
215.456980389584
20
-5.85442877934958
30
0
41
1
10
215.461040809532
20
-5.93689937283207
30
0
41
1
10
215.482935938597
20
-6.08372567641089
30
0
41
1
10
215.500552160701
20
-6.14611907458251
30
0
41
1
10
215.535078641847
20
-6.22445572391987
30
0
41
1
10
215.548040649302
20
-6.24818246136454
30
0
41
1
10
215.57623908326
20
-6.29033035620802
30
0
41
1
10
215.591430616476
20
-6.30873979162791
30
0
41
1
10
215.639980283867
20
-6.35671094705538
30
0
41
1
10
215.676287710093
20
-6.37907839145581
30
0
41
1
10
215.736094695131
20
-6.39958931427938
30
0
41
1
10
215.756999999326
20
-6.40423059827774
30
0
41
1
10
215.79993871536
20
-6.40915050999291
30
0
41
1
10
215.822025835257
20
-6.40946227145054
30
0
41
1
10
215.890042710045
20
-6.40429295818964
30
0
41
1
10
215.937715011391
20
-6.39275238278003
30
0
41
1
10
216.037557945711
20
-6.35402881189432
30
0
41
1
10
216.089328484759
20
-6.32691938587365
30
0
41
1
10
216.194635184242
20
-6.25879698685668
30
0
41
1
10
216.248437472907
20
-6.21768556790434
30
0
41
1
10
216.358402036089
20
-6.12098117855359
30
0
41
1
10
216.414903446457
20
-6.06493371757489
30
0
41
1
10
216.526781090817
20
-5.9410538111288
30
0
41
1
10
216.582535925388
20
-5.87296594602148
30
0
41
1
10
216.693651879332
20
-5.72363429524648
30
0
41
1
10
216.749180727661
20
-5.64215324670113
30
0
41
1
10
216.80414124894
20
-5.55336544484932
30
0
0
SPLINE
5
E8
100
AcDbEntity
8
1
62
256
6
ByLayer
370
18
48
1
60
0
100
AcDbSpline
70
4
71
3
72
148
73
144
40
0
40
0
40
0
40
0
40
0.0029754130243143
40
0.0029754130243143
40
0.0137559222630113
40
0.0137559222630113
40
0.0245364315017082
40
0.0245364315017082
40
0.0353169407404051
40
0.0353169407404051
40
0.046097449979102
40
0.046097449979102
40
0.0568779592177989
40
0.0568779592177989
40
0.0676584684564959
40
0.0676584684564959
40
0.0892194869338888
40
0.0892194869338888
40
0.0999999961725853
40
0.0999999961725853
40
0.110780505411282
40
0.110780505411282
40
0.132341523888676
40
0.132341523888676
40
0.143122033127373
40
0.143122033127373
40
0.15390254236607
40
0.15390254236607
40
0.164683051604768
40
0.164683051604768
40
0.175463560843465
40
0.175463560843465
40
0.19702457932086
40
0.19702457932086
40
0.218585597798255
40
0.218585597798255
40
0.229366107036952
40
0.229366107036952
40
0.240146616275649
40
0.240146616275649
40
0.261707634753045
40
0.261707634753045
40
0.283268653230441
40
0.283268653230441
40
0.304829671707836
40
0.304829671707836
40
0.315610180946535
40
0.315610180946535
40
0.326390690185233
40
0.326390690185233
40
0.347951708662631
40
0.347951708662631
40
0.35873221790133
40
0.35873221790133
40
0.369512727140029
40
0.369512727140029
40
0.391073745617428
40
0.391073745617428
40
0.401854254856127
40
0.401854254856127
40
0.412634764094826
40
0.412634764094826
40
0.434195782572225
40
0.434195782572225
40
0.444976291810925
40
0.444976291810925
40
0.455756801049624
40
0.455756801049624
40
0.477317819527021
40
0.477317819527021
40
0.48809832876572
40
0.48809832876572
40
0.498878838004418
40
0.498878838004418
40
0.509659347243116
40
0.509659347243116
40
0.520439856481814
40
0.520439856481814
40
0.54200087495921
40
0.54200087495921
40
0.552781384197908
40
0.552781384197908
40
0.563561893436607
40
0.563561893436607
40
0.574342402675305
40
0.574342402675305
40
0.585122911914003
40
0.585122911914003
40
0.595903421152702
40
0.595903421152702
40
0.6066839303914
40
0.6066839303914
40
0.628244948868798
40
0.628244948868798
40
0.649805967346195
40
0.649805967346195
40
0.660586476584893
40
0.660586476584893
40
0.671366985823592
40
0.671366985823592
40
0.692928004300987
40
0.692928004300987
40
0.703708513539685
40
0.703708513539685
40
0.714489022778383
40
0.714489022778383
40
0.725269532017081
40
0.725269532017081
40
0.736050041255779
40
0.736050041255779
40
0.757611059733173
40
0.757611059733173
40
0.779172078210568
40
0.779172078210568
40
0.800733096687963
40
0.800733096687963
40
0.81151360592666
40
0.81151360592666
40
0.822294115165357
40
0.822294115165357
40
0.833074624404054
40
0.833074624404054
40
0.843855133642751
40
0.843855133642751
40
0.865416152120144
40
0.865416152120144
40
0.876196661358841
40
0.876196661358841
40
0.88158691597819
40
0.88158691597819
40
0.886977170597538
40
0.886977170597538
40
0.90853818907493
40
0.90853818907493
40
0.930099207552322
40
0.930099207552322
40
0.951660226029714
40
0.951660226029714
40
0.973221244507106
40
0.973221244507106
40
0.994782262984498
40
0.994782262984498
40
1
40
1
40
1
40
1
41
1
10
194.052815408181
20
-4.87350547660702
30
0
41
1
10
193.982381461847
20
-4.90388537483148
30
0
41
1
10
193.91195621504
20
-4.9341162474434
30
0
41
1
10
193.586396102337
20
-5.07317173305839
30
0
41
1
10
193.331307503619
20
-5.18011997394507
30
0
41
1
10
192.821318734072
20
-5.39075498424265
30
0
41
1
10
192.56658280141
20
-5.49468024683569
30
0
41
1
10
192.057279765194
20
-5.69868209764502
30
0
41
1
10
191.802696594151
20
-5.79873902888033
30
0
41
1
10
191.29411285802
20
-5.99551028843325
30
0
41
1
10
191.039926330965
20
-6.09193901485668
30
0
41
1
10
190.531300611017
20
-6.28010248663404
30
0
41
1
10
190.276867224806
20
-6.37179903546956
30
0
41
1
10
189.767750173727
20
-6.55125775973693
30
0
41
1
10
189.512939943855
20
-6.63896508022557
30
0
41
1
10
188.749903980133
20
-6.89801355638727
30
0
41
1
10
188.240287613151
20
-7.06126101317898
30
0
41
1
10
187.474244690997
20
-7.29123381849928
30
0
41
1
10
187.2188242615
20
-7.36558745842564
30
0
41
1
10
186.707370113932
20
-7.50963418036852
30
0
41
1
10
186.45139016484
20
-7.57952904304517
30
0
41
1
10
185.683203107427
20
-7.78308662351026
30
0
41
1
10
185.169730198582
20
-7.90895188250929
30
0
41
1
10
184.396274509985
20
-8.08067182385946
30
0
41
1
10
184.137967201715
20
-8.13511752918919
30
0
41
1
10
183.623000385519
20
-8.2390799999053
30
0
41
1
10
183.365567931323
20
-8.28837273641687
30
0
41
1
10
182.850661559719
20
-8.38180216886741
30
0
41
1
10
182.593154134503
20
-8.42576449367382
30
0
41
1
10
182.078411164601
20
-8.50785933125619
30
0
41
1
10
181.821287038722
20
-8.54607810251949
30
0
41
1
10
181.049761249616
20
-8.65155303142672
30
0
41
1
10
180.53616984131
20
-8.70984731559372
30
0
41
1
10
179.507213848977
20
-8.80552945792755
30
0
41
1
10
178.991761424425
20
-8.84237719486049
30
0
41
1
10
178.219006973552
20
-8.87901879902901
30
0
41
1
10
177.960971984894
20
-8.8876923312024
30
0
41
1
10
177.445143142442
20
-8.89937142699301
30
0
41
1
10
177.187223575095
20
-8.90239448190638
30
0
41
1
10
176.414128248609
20
-8.90345389079926
30
0
41
1
10
175.899444898394
20
-8.89301203482376
30
0
41
1
10
174.871159824613
20
-8.84745224585762
30
0
41
1
10
174.356853369934
20
-8.81154637543276
30
0
41
1
10
173.326985312288
20
-8.71901907857091
30
0
41
1
10
172.812890837072
20
-8.66116848387034
30
0
41
1
10
172.039302514056
20
-8.55747109282774
30
0
41
1
10
171.780964582173
20
-8.5199584447158
30
0
41
1
10
171.264774747455
20
-8.43859034761422
30
0
41
1
10
171.006939503675
20
-8.39508776398546
30
0
41
1
10
170.233716588992
20
-8.25709374971632
30
0
41
1
10
169.719558166745
20
-8.15391848125924
30
0
41
1
10
168.947497986917
20
-7.98390282083173
30
0
41
1
10
168.690100451972
20
-7.92455614894885
30
0
41
1
10
168.175241062075
20
-7.80007433273457
30
0
41
1
10
167.918295028516
20
-7.73471301550967
30
0
41
1
10
167.146694988013
20
-7.53261138081714
30
0
41
1
10
166.631248077152
20
-7.38921428720013
30
0
41
1
10
165.857760028266
20
-7.15848726026616
30
0
41
1
10
165.599662077528
20
-7.07898673263617
30
0
41
1
10
165.083393039232
20
-6.91437173115213
30
0
41
1
10
164.825967435666
20
-6.82933688796197
30
0
41
1
10
164.054307182865
20
-6.56926889132151
30
0
41
1
10
163.540743800946
20
-6.38884267856565
30
0
41
1
10
162.771931640579
20
-6.10651843471098
30
0
41
1
10
162.516574719224
20
-6.00942962508037
30
0
41
1
10
162.005669508828
20
-5.81219225532396
30
0
41
1
10
161.750320637879
20
-5.71184420046831
30
0
41
1
10
160.984308634009
20
-5.40674982873264
30
0
41
1
10
160.474232274221
20
-5.19690869060028
30
0
41
1
10
159.709947728984
20
-4.87188490848445
30
0
41
1
10
159.4554853575
20
-4.7615362753539
30
0
41
1
10
158.946379104744
20
-4.5377129368905
30
0
41
1
10
158.691744805063
20
-4.42426807278525
30
0
41
1
10
158.182168827022
20
-4.1952723605323
30
0
41
1
10
157.927203215942
20
-4.07975890723895
30
0
41
1
10
157.417257719551
20
-3.84596719491202
30
0
41
1
10
157.162805316523
20
-3.72672732687789
30
0
41
1
10
156.397907866692
20
-3.36733448455229
30
0
41
1
10
155.886709494223
20
-3.12379409568297
30
0
41
1
10
155.119092831609
20
-2.75038903146196
30
0
41
1
10
154.862873824308
20
-2.62518270244129
30
0
41
1
10
154.350220140359
20
-2.37232910846055
30
0
41
1
10
154.093799259331
20
-2.24462633952555
30
0
41
1
10
153.580019508226
20
-1.98800807425545
30
0
41
1
10
153.322683532099
20
-1.85907195284162
30
0
41
1
10
152.807003528278
20
-1.59986989579241
30
0
41
1
10
152.548276954239
20
-1.46973143472141
30
0
41
1
10
152.032062615643
20
-1.20748364768977
30
0
41
1
10
151.774542325683
20
-1.07525705370398
30
0
41
1
10
151.25906110985
20
-0.811760985201857
30
0
41
1
10
151.001307990964
20
-0.680084744384999
30
0
41
1
10
150.228065003488
20
-0.285170419896502
30
0
41
1
10
149.713003029607
20
-0.0212385150752539
30
0
41
1
10
148.683762372138
20
0.507909662457649
30
0
41
1
10
148.169197307854
20
0.772395344310382
30
0
41
1
10
147.395738318662
20
1.16569122058195
30
0
41
1
10
147.137491433643
20
1.295906251784
30
0
41
1
10
146.621940531067
20
1.55807545765245
30
0
41
1
10
146.363883995879
20
1.68881035585176
30
0
41
1
10
145.58916401818
20
2.0780702094855
30
0
41
1
10
145.072998432223
20
2.33356095494173
30
0
41
1
10
144.299775139982
20
2.71267504620244
30
0
41
1
10
144.042082721011
20
2.83807146228676
30
0
41
1
10
143.527289787455
20
3.08774016285139
30
0
41
1
10
143.26999683373
20
3.21165642885734
30
0
41
1
10
142.755155198961
20
3.45657574887255
30
0
41
1
10
142.497613620364
20
3.57756214174023
30
0
41
1
10
141.98227102714
20
3.81698801219139
30
0
41
1
10
141.724386721662
20
3.93532325696276
30
0
41
1
10
140.951977744601
20
4.28933039345841
30
0
41
1
10
140.436028806397
20
4.51925826735109
30
0
41
1
10
139.402010628987
20
4.96600908955801
30
0
41
1
10
138.88588851577
20
5.18258461777637
30
0
41
1
10
137.855454146266
20
5.60352985182851
30
0
41
1
10
137.34045529316
20
5.80648168370754
30
0
41
1
10
136.567463738729
20
6.09737640869488
30
0
41
1
10
136.309875851571
20
6.19237864951427
30
0
41
1
10
135.795186438142
20
6.37906524660843
30
0
41
1
10
135.537679787021
20
6.47021256067325
30
0
41
1
10
135.022210677139
20
6.64808815080247
30
0
41
1
10
134.764199363163
20
6.73471993073332
30
0
41
1
10
134.248039440554
20
6.90368135047388
30
0
41
1
10
133.989953693493
20
6.98606459309607
30
0
41
1
10
133.21479582648
20
7.22560331680532
30
0
41
1
10
132.699370201831
20
7.37638879751054
30
0
41
1
10
131.927992645465
20
7.58651180273779
30
0
41
1
10
131.671090929958
20
7.65392048023796
30
0
41
1
10
131.286114139038
20
7.75101867523017
30
0
41
1
10
131.157782132065
20
7.7826492890635
30
0
41
1
10
130.901657602988
20
7.84495020681325
30
0
41
1
10
130.773792081927
20
7.87554223834891
30
0
41
1
10
130.134353169699
20
8.02460514004321
30
0
41
1
10
129.623075043675
20
8.13214438886925
30
0
41
1
10
128.601751581144
20
8.32695918412836
30
0
41
1
10
128.091725023097
20
8.4142696286053
30
0
41
1
10
127.072631132864
20
8.56604822652398
30
0
41
1
10
126.562847871779
20
8.62993153242559
30
0
41
1
10
125.54210448212
20
8.73614672169595
30
0
41
1
10
125.032568693161
20
8.77895822000892
30
0
41
1
10
124.010209791939
20
8.84021196708434
30
0
41
1
10
123.498169554857
20
8.85852688410463
30
0
41
1
10
122.861055026081
20
8.8675488833521
30
0
41
1
10
122.736894608218
20
8.86866023359633
30
0
41
1
10
122.612686183566
20
8.86911108479379
30
0
0
SPLINE
5
E9
100
AcDbEntity
8
1
62
256
6
ByLayer
370
18
48
1
60
0
100
AcDbSpline
70
4
71
3
72
148
73
144
40
0
40
0
40
0
40
0
40
0.0137787042152777
40
0.0137787042152777
40
0.0245769052629796
40
0.0245769052629796
40
0.0353751063106811
40
0.0353751063106811
40
0.0461733073583826
40
0.0461733073583826
40
0.0569715084060842
40
0.0569715084060842
40
0.0785679105014872
40
0.0785679105014872
40
0.10016431259689
40
0.10016431259689
40
0.110962513644592
40
0.110962513644592
40
0.121760714692295
40
0.121760714692295
40
0.143357116787699
40
0.143357116787699
40
0.164953518883103
40
0.164953518883103
40
0.175751719930805
40
0.175751719930805
40
0.186549920978507
40
0.186549920978507
40
0.208146323073911
40
0.208146323073911
40
0.218944524121613
40
0.218944524121613
40
0.229742725169315
40
0.229742725169315
40
0.240540926217018
40
0.240540926217018
40
0.25133912726472
40
0.25133912726472
40
0.262137328312422
40
0.262137328312422
40
0.272935529360124
40
0.272935529360124
40
0.294531931455528
40
0.294531931455528
40
0.316128333550932
40
0.316128333550932
40
0.326926534598635
40
0.326926534598635
40
0.337724735646336
40
0.337724735646336
40
0.359321137741742
40
0.359321137741742
40
0.370119338789444
40
0.370119338789444
40
0.380917539837146
40
0.380917539837146
40
0.391715740884848
40
0.391715740884848
40
0.40251394193255
40
0.40251394193255
40
0.424110344027955
40
0.424110344027955
40
0.445706746123359
40
0.445706746123359
40
0.467303148218764
40
0.467303148218764
40
0.478101349266467
40
0.478101349266467
40
0.488899550314169
40
0.488899550314169
40
0.499697751361872
40
0.499697751361872
40
0.510495952409574
40
0.510495952409574
40
0.532092354504979
40
0.532092354504979
40
0.542890555552681
40
0.542890555552681
40
0.548289656076533
40
0.548289656076533
40
0.553688756600384
40
0.553688756600384
40
0.575285158695791
40
0.575285158695791
40
0.596881560791197
40
0.596881560791197
40
0.618477962886603
40
0.618477962886603
40
0.629276163934307
40
0.629276163934307
40
0.64007436498201
40
0.64007436498201
40
0.661670767077416
40
0.661670767077416
40
0.683267169172821
40
0.683267169172821
40
0.694065370220524
40
0.694065370220524
40
0.704863571268227
40
0.704863571268227
40
0.726459973363633
40
0.726459973363633
40
0.737258174411336
40
0.737258174411336
40
0.748056375459039
40
0.748056375459039
40
0.758854576506742
40
0.758854576506742
40
0.769652777554446
40
0.769652777554446
40
0.780450978602149
40
0.780450978602149
40
0.791249179649852
40
0.791249179649852
40
0.802047380697555
40
0.802047380697555
40
0.812845581745258
40
0.812845581745258
40
0.834441983840663
40
0.834441983840663
40
0.845240184888366
40
0.845240184888366
40
0.856038385936068
40
0.856038385936068
40
0.877634788031473
40
0.877634788031473
40
0.888432989079175
40
0.888432989079175
40
0.899231190126878
40
0.899231190126878
40
0.91002939117458
40
0.91002939117458
40
0.920827592222283
40
0.920827592222283
40
0.942423994317688
40
0.942423994317688
40
0.964020396413094
40
0.964020396413094
40
0.9856167985085
40
0.9856167985085
40
0.996414999556203
40
0.996414999556203
40
1
40
1
40
1
40
1
41
1
10
85.3550999326704
20
-4.79784700440212
30
0
41
1
10
85.0261008521819
20
-4.93913074782105
30
0
41
1
10
84.6971559987801
20
-5.07793656810949
30
0
41
1
10
84.1096344407323
20
-5.32024092718692
30
0
41
1
10
83.8513026817367
20
-5.42490955106854
30
0
41
1
10
83.3342830278188
20
-5.63056909089272
30
0
41
1
10
83.0760007467733
20
-5.73218718279264
30
0
41
1
10
82.5589621476529
20
-5.93130130859092
30
0
41
1
10
82.3000453826157
20
-6.02863213071569
30
0
41
1
10
81.7826112174909
20
-6.21847171444952
30
0
41
1
10
81.5239067002989
20
-6.3111156433846
30
0
41
1
10
80.7486579206222
20
-6.5837131231778
30
0
41
1
10
80.2324510209297
20
-6.75736838483266
30
0
41
1
10
79.2009032420108
20
-7.08610207104246
30
0
41
1
10
78.6848331733939
20
-7.23959857178568
30
0
41
1
10
77.909888406028
20
-7.45616811187779
30
0
41
1
10
77.6520618712119
20
-7.5266798554463
30
0
41
1
10
77.1356344907753
20
-7.66214443325546
30
0
41
1
10
76.8771736881176
20
-7.72725353741222
30
0
41
1
10
76.1008446402568
20
-7.91420006952737
30
0
41
1
10
75.5826061699939
20
-8.02772099079047
30
0
41
1
10
74.5488476399841
20
-8.23427894588252
30
0
41
1
10
74.0330683399739
20
-8.32765578808065
30
0
41
1
10
73.2585609159148
20
-8.44923979774276
30
0
41
1
10
73.0002867694805
20
-8.48675752425385
30
0
41
1
10
72.483937352265
20
-8.55624676687907
30
0
41
1
10
72.2263485417698
20
-8.58843823411931
30
0
41
1
10
71.4521833735686
20
-8.6761353170279
30
0
41
1
10
70.9350817931892
20
-8.72339678094139
30
0
41
1
10
70.1591031432237
20
-8.77600813943752
30
0
41
1
10
69.899967467917
20
-8.7903682241344
30
0
41
1
10
69.3824870101994
20
-8.81338932577248
30
0
41
1
10
69.1242949897814
20
-8.82205793847095
30
0
41
1
10
68.6083515325546
20
-8.83367791466182
30
0
41
1
10
68.3506114910521
20
-8.83664814230985
30
0
41
1
10
67.8356051264781
20
-8.83676042682879
30
0
41
1
10
67.5781210542622
20
-8.83392194108575
30
0
41
1
10
67.0647795803213
20
-8.82209876831706
30
0
41
1
10
66.8085562401783
20
-8.81305082627253
30
0
41
1
10
66.2960532234345
20
-8.78925077937842
30
0
41
1
10
66.0398577394527
20
-8.77456727624929
30
0
41
1
10
65.2715132457492
20
-8.72243768005796
30
0
41
1
10
64.7599517575338
20
-8.67683745591924
30
0
41
1
10
63.7383060807767
20
-8.56178180980262
30
0
41
1
10
63.2278373196064
20
-8.49200406468589
30
0
41
1
10
62.4609818360767
20
-8.37242296785217
30
0
41
1
10
62.205023250689
20
-8.33013834697849
30
0
41
1
10
61.6941930879763
20
-8.23927648024619
30
0
41
1
10
61.4386504884689
20
-8.19113994096887
30
0
41
1
10
60.6711325208625
20
-8.03880116750159
30
0
41
1
10
60.158343285312
20
-7.92637843646131
30
0
41
1
10
59.3881799455729
20
-7.74193273205634
30
0
41
1
10
59.1311613046674
20
-7.67796591048904
30
0
41
1
10
58.6170062761008
20
-7.54457533141365
30
0
41
1
10
58.3596855775082
20
-7.47531231686
30
0
41
1
10
57.8440723751839
20
-7.33184449129118
30
0
41
1
10
57.5857885597195
20
-7.25763697748914
30
0
41
1
10
57.0682470764443
20
-7.10397769659275
30
0
41
1
10
56.8087406410515
20
-7.02459915035874
30
0
41
1
10
56.032830191059
20
-6.77818030240178
30
0
41
1
10
55.5156746792976
20
-6.60602294054948
30
0
41
1
10
54.4817143838269
20
-6.24545489932248
30
0
41
1
10
53.9652711274708
20
-6.0562254159926
30
0
41
1
10
52.9331219756515
20
-5.66040710688696
30
0
41
1
10
52.4167073371092
20
-5.4553905991944
30
0
41
1
10
51.6407613953957
20
-5.13806156786362
30
0
41
1
10
51.38207732755
20
-5.03034424817739
30
0
41
1
10
50.8648855982609
20
-4.81038597960949
30
0
41
1
10
50.6058659700238
20
-4.69866920177552
30
0
41
1
10
50.0877248532281
20
-4.47270377419232
30
0
41
1
10
49.8286591980482
20
-4.3586770173923
30
0
41
1
10
49.3109769503082
20
-4.1278583118177
30
0
41
1
10
49.0524153651862
20
-4.01093627357639
30
0
41
1
10
48.2768017459664
20
-3.65675971115738
30
0
41
1
10
47.7609155267745
20
-3.41400116534027
30
0
41
1
10
46.9860661992375
20
-3.04485954876264
30
0
41
1
10
46.7276517587817
20
-2.92105653971169
30
0
41
1
10
46.3398707250873
20
-2.73415333305235
30
0
41
1
10
46.2105166304047
20
-2.67177704960051
30
0
41
1
10
45.9522465293915
20
-2.54567883465262
30
0
41
1
10
45.8231673500406
20
-2.48226313910229
30
0
41
1
10
45.1772806746162
20
-2.16478357221669
30
0
41
1
10
44.6592839853289
20
-1.90872159083443
30
0
41
1
10
43.6223258732574
20
-1.3896742073978
30
0
41
1
10
43.1046994611635
20
-1.12839853515996
30
0
41
1
10
42.0708816851889
20
-0.602865753907111
30
0
41
1
10
41.5539916381908
20
-0.339985592838644
30
0
41
1
10
40.7784027898305
20
0.0539630817414718
30
0
41
1
10
40.5203977513478
20
0.186333485012
30
0
41
1
10
40.00381753008
20
0.449982810106064
30
0
41
1
10
39.7453533288994
20
0.581482252637244
30
0
41
1
10
38.9692598230556
20
0.974652428822054
30
0
41
1
10
38.4514305835067
20
1.23598604913329
30
0
41
1
10
37.414488946515
20
1.75628735311588
30
0
41
1
10
36.8977308801434
20
2.01502126100016
30
0
41
1
10
36.1237489787406
20
2.39536243974095
30
0
41
1
10
35.8659586309587
20
2.52099463071184
30
0
41
1
10
35.3511255553822
20
2.77039945179769
30
0
41
1
10
35.0946350880977
20
2.89519154501809
30
0
41
1
10
34.3247669450987
20
3.26375850909679
30
0
41
1
10
33.8116784701899
20
3.50353864232244
30
0
41
1
10
33.0433921601658
20
3.85709974923955
30
0
41
1
10
32.7872936025993
20
3.97349798410792
30
0
41
1
10
32.2755925833603
20
4.20430055850517
30
0
41
1
10
32.0199954173448
20
4.31869939828545
30
0
41
1
10
31.5085810827912
20
4.54416803915666
30
0
41
1
10
31.252781182116
20
4.65527317072403
30
0
41
1
10
30.7409499422284
20
4.87413405925057
30
0
41
1
10
30.4847858155829
20
4.98167306485158
30
0
41
1
10
29.9729283248166
20
5.19452622507714
30
0
41
1
10
29.71734972015
20
5.30001308107356
30
0
41
1
10
29.2052540263109
20
5.50636505531304
30
0
41
1
10
28.9489461165683
20
5.60754952920519
30
0
41
1
10
28.4357529931136
20
5.8054330773941
30
0
41
1
10
28.1789936937885
20
5.90237571486085
30
0
41
1
10
27.6651510725752
20
6.09288041437679
30
0
41
1
10
27.407874775882
20
6.18614048997713
30
0
41
1
10
26.6358946417726
20
6.46124248076151
30
0
41
1
10
26.1203049406671
20
6.6373178679363
30
0
41
1
10
25.3437749283937
20
6.88780343359903
30
0
41
1
10
25.0840395856805
20
6.96889996329421
30
0
41
1
10
24.5660015452549
20
7.12790893742991
30
0
41
1
10
24.3072289591469
20
7.20503525177591
30
0
41
1
10
23.5308526411903
20
7.42829591525421
30
0
41
1
10
23.0133802177047
20
7.56680657519416
30
0
41
1
10
22.238128230507
20
7.75836679987603
30
0
41
1
10
21.9797340395419
20
7.8191610914256
30
0
41
1
10
21.463408185762
20
7.93580355294867
30
0
41
1
10
21.2052792964673
20
7.99161915988344
30
0
41
1
10
20.6886170743653
20
8.09802940670033
30
0
41
1
10
20.4300955039725
20
8.14858708634262
30
0
41
1
10
19.9127129343649
20
8.24428150257455
30
0
41
1
10
19.6537719099263
20
8.28936125076282
30
0
41
1
10
18.8780151142465
20
8.41729170430284
30
0
41
1
10
18.3590116996397
20
8.49120312884367
30
0
41
1
10
17.3224844885286
20
8.61602417436782
30
0
41
1
10
16.8051520669393
20
8.66703462358907
30
0
41
1
10
15.7721254118936
20
8.74505770897295
30
0
41
1
10
15.2557134026402
20
8.77197673967297
30
0
41
1
10
14.4803495444881
20
8.79548990775845
30
0
41
1
10
14.2219505526227
20
8.80053466769456
30
0
41
1
10
13.8781100346387
20
8.80332278842616
30
0
41
1
10
13.7923958279555
20
8.80368991968317
30
0
41
1
10
13.7066635472932
20
8.80372586527039
30
0
0
SPLINE
5
EA
100
AcDbEntity
8
1
62
256
6
ByLayer
370
18
48
1
60
0
100
AcDbSpline
70
4
71
3
72
10
73
6
40
0
40
0
40
0
40
0
40
0.5
40
0.5
40
1
40
1
40
1
40
1
41
1
10
218.952799787084
20
-0.245529074915083
30
0
41
1
10
218.956115029324
20
-0.218648289012236
30
0
41
1
10
218.962297891099
20
-0.187514409104182
30
0
41
1
10
218.978550121862
20
-0.119789726396107
30
0
41
1
10
218.988399425064
20
-0.0842522273293298
30
0
41
1
10
218.999970640023
20
-0.0472495367838519
30
0
0
SPLINE
5
EB
100
AcDbEntity
8
1
62
256
6
ByLayer
370
18
48
1
60
0
100
AcDbSpline
70
4
71
3
72
40
73
36
40
0
40
0
40
0
40
0
40
0.10030958587824
40
0.10030958587824
40
0.201233250805331
40
0.201233250805331
40
0.302156915732423
40
0.302156915732423
40
0.504004245586607
40
0.504004245586607
40
0.516619703702493
40
0.516619703702493
40
0.522927432760436
40
0.522927432760436
40
0.52923516181838
40
0.52923516181838
40
0.535542890876323
40
0.535542890876323
40
0.538696755405294
40
0.538696755405294
40
0.541850619934266
40
0.541850619934266
40
0.554466078050153
40
0.554466078050153
40
0.604927910513698
40
0.604927910513698
40
0.70585157544079
40
0.70585157544079
40
0.806775240367882
40
0.806775240367882
40
0.857237072831428
40
0.857237072831428
40
0.907698905294974
40
0.907698905294974
40
1
40
1
40
1
40
1
41
1
10
11.6344641000321
20
5.0017049537465
30
0
41
1
10
11.6344641000322
20
4.66158581796017
30
0
41
1
10
11.6344641000323
20
4.30948410110875
30
0
41
1
10
11.6344641000323
20
3.5796387426706
30
0
41
1
10
11.6344641000323
20
3.20170029077482
30
0
41
1
10
11.6344641000323
20
2.4220231957008
30
0
41
1
10
11.6344641000323
20
2.01979865648687
30
0
41
1
10
11.6344641000323
20
0.780126125817389
30
0
41
1
10
11.6344641000323
20
-0.0839978236903391
30
0
41
1
10
11.6344641000323
20
-1.04196215073674
30
0
41
1
10
11.6344641000323
20
-1.09846010671839
30
0
41
1
10
11.6344641000323
20
-1.18342804529993
30
0
41
1
10
11.6344641000323
20
-1.21178418248832
30
0
41
1
10
11.6344641000323
20
-1.2685261706645
30
0
41
1
10
11.6344641000323
20
-1.29673209355263
30
0
41
1
10
11.6344641000323
20
-1.35509616413665
30
0
41
1
10
11.6344641000323
20
-1.38504192841808
30
0
41
1
10
11.6344641000323
20
-1.43127190696572
30
0
41
1
10
11.6344641000323
20
-1.44690303681335
30
0
41
1
10
11.6344641000323
20
-1.47868905727702
30
0
41
1
10
11.6344641000323
20
-1.4949514489345
30
0
41
1
10
11.6344641000323
20
-1.57637871041482
30
0
41
1
10
11.6344641000323
20
-1.64159075197782
30
0
41
1
10
11.6344641000323
20
-1.9680047026593
30
0
41
1
10
11.6344641000323
20
-2.23039719892509
30
0
41
1
10
11.6344641000323
20
-3.01861659442125
30
0
41
1
10
11.6344641000323
20
-3.54619410675031
30
0
41
1
10
11.6344641000323
20
-4.60573581178826
30
0
41
1
10
11.6344641000323
20
-5.13769924884372
30
0
41
1
10
11.6344641000323
20
-5.93913667896621
30
0
41
1
10
11.6344641000323
20
-6.20716267434875
30
0
41
1
10
11.6344641000323
20
-6.74273305404535
30
0
41
1
10
11.6344641000323
20
-7.01022132780909
30
0
41
1
10
11.6344641000323
20
-7.76612160258017
30
0
41
1
10
11.6344641000323
20
-8.25383086842714
30
0
41
1
10
11.6344641000323
20
-8.74046723645725
30
0
0
SPLINE
5
EC
100
AcDbEntity
8
1
62
256
6
ByLayer
370
18
48
1
60
0
100
AcDbSpline
70
4
71
3
72
12
73
8
40
0
40
0
40
0
40
0
40
0.249999999999988
40
0.249999999999988
40
0.499999999999976
40
0.499999999999976
40
1
40
1
40
1
40
1
41
1
10
6.13145920807068
20
7.96809106036247
30
0
41
1
10
6.11152843388984
20
7.97364637185555
30
0
41
1
10
6.09348194188647
20
7.98043952325665
30
0
41
1
10
6.06105414325782
20
7.99638126337535
30
0
41
1
10
6.04687481702695
20
8.0055025808216
30
0
41
1
10
6.01250704324406
20
8.03481112009678
30
0
41
1
10
6.00000010845943
20
8.0573782535929
30
0
41
1
10
6.0000001084594
20
8.079934271805
30
0
0
SPLINE
5
ED
100
AcDbEntity
8
1
62
256
6
ByLayer
370
18
48
1
60
0
100
AcDbSpline
70
4
71
3
72
8
73
4
40
0
40
0
40
0
40
0
40
1
40
1
40
1
40
1
41
1
10
215.966816305311
20
-9.18616392024799
30
0
41
1
10
215.848312388674
20
-9.30307127501106
30
0
41
1
10
215.745055091253
20
-9.38128018757283
30
0
41
1
10
215.655834607686
20
-9.4205185112269
30
0
0
SPLINE
5
EE
100
AcDbEntity
8
1
62
256
6
ByLayer
370
18
48
1
60
0
100
AcDbSpline
70
4
71
3
72
8
73
4
40
0
40
0
40
0
40
0
40
1
40
1
40
1
40
1
41
1
10
218.999970640023
20
0.047249536783653
30
0
41
1
10
219.000009786651
20
0.0157498522962385
30
0
41
1
10
219.000009786651
20
-0.0157498522963238
30
0
41
1
10
218.999970640023
20
-0.0472495367837382
30
0
0
SPLINE
5
EF
100
AcDbEntity
8
1
62
256
6
ByLayer
370
18
48
1
60
0
100
AcDbSpline
70
4
71
3
72
14
73
10
40
0
40
0
40
0
40
0
40
0.25
40
0.25
40
0.5
40
0.5
40
0.75
40
0.75
40
1
40
1
40
1
40
1
41
1
10
215.839629480569
20
-8.90381432602155
30
0
41
1
10
215.842167516282
20
-8.90274560983636
30
0
41
1
10
215.844014509671
20
-8.90349056716298
30
0
41
1
10
215.845932432652
20
-8.90963011155688
30
0
41
1
10
215.845942664475
20
-8.91515044871801
30
0
41
1
10
215.843271703086
20
-8.93173494725906
30
0
41
1
10
215.840561599326
20
-8.94276180127659
30
0
41
1
10
215.832951760348
20
-8.96759959744648
30
0
41
1
10
215.828094507092
20
-8.98130195640448
30
0
41
1
10
215.822930046869
20
-8.99450650887158
30
0
0
SPLINE
5
F0
100
AcDbEntity
8
1
62
256
6
ByLayer
370
18
48
1
60
0
100
AcDbSpline
70
4
71
3
72
8
73
4
40
0
40
0
40
0
40
0
40
1
40
1
40
1
40
1
41
1
10
215.655834607686
20
9.42051851122693
30
0
41
1
10
215.201030749889
20
9.4397835843948
30
0
41
1
10
214.745817801187
20
9.44925588950466
30
0
41
1
10
214.29110190642
20
9.44895089682416
30
0
0
SPLINE
5
F1
100
AcDbEntity
8
1
62
256
6
ByLayer
370
18
48
1
60
0
100
AcDbSpline
70
4
71
3
72
66
73
62
40
0
40
0
40
0
40
0
40
0.0365728754652198
40
0.0365728754652198
40
0.0638268259805971
40
0.0638268259805971
40
0.0910807764959744
40
0.0910807764959744
40
0.145588677526729
40
0.145588677526729
40
0.172842628042106
40
0.172842628042106
40
0.200096578557483
40
0.200096578557483
40
0.22735052907286
40
0.22735052907286
40
0.254604479588236
40
0.254604479588236
40
0.309112380618991
40
0.309112380618991
40
0.336366331134368
40
0.336366331134368
40
0.363620281649746
40
0.363620281649746
40
0.418128182680502
40
0.418128182680502
40
0.44538213319588
40
0.44538213319588
40
0.472636083711258
40
0.472636083711258
40
0.499890034226636
40
0.499890034226636
40
0.527143984742013
40
0.527143984742013
40
0.581651885772769
40
0.581651885772769
40
0.608905836288148
40
0.608905836288148
40
0.636159786803526
40
0.636159786803526
40
0.690667687834282
40
0.690667687834282
40
0.71792163834966
40
0.71792163834966
40
0.745175588865037
40
0.745175588865037
40
0.772429539380414
40
0.772429539380414
40
0.799683489895791
40
0.799683489895791
40
0.854191390926547
40
0.854191390926547
40
0.881445341441925
40
0.881445341441925
40
0.908699291957303
40
0.908699291957303
40
0.963207192988059
40
0.963207192988059
40
0.990461143503437
40
0.990461143503437
40
1
40
1
40
1
40
1
41
1
10
165.531096708105
20
-8.92345463204205
30
0
41
1
10
164.799403189863
20
-9.05033889147276
30
0
41
1
10
164.068585924405
20
-9.15314816854834
30
0
41
1
10
162.79286119738
20
-9.28952731989574
30
0
41
1
10
162.247919989933
20
-9.33405851081724
30
0
41
1
10
161.156564596572
20
-9.39530276758853
30
0
41
1
10
160.610202601062
20
-9.41197283823871
30
0
41
1
10
158.974488589822
20
-9.41983046589957
30
0
41
1
10
157.88609461918
20
-9.36904833568465
30
0
41
1
10
156.250146095693
20
-9.20982737039674
30
0
41
1
10
155.703644262667
20
-9.14282299273412
30
0
41
1
10
154.612352755848
20
-8.98202565786244
30
0
41
1
10
154.067392805141
20
-8.88824358297549
30
0
41
1
10
152.977782017122
20
-8.67464890285049
30
0
41
1
10
152.433120265801
20
-8.55484072977012
30
0
41
1
10
151.342919622182
20
-8.29004390634901
30
0
41
1
10
150.797083346777
20
-8.14495939821126
30
0
41
1
10
149.158732622409
20
-7.67363743922073
30
0
41
1
10
148.069865982939
20
-7.31281398127294
30
0
41
1
10
146.435036376699
20
-6.70950452707581
30
0
41
1
10
145.889853256029
20
-6.49803669141903
30
0
41
1
10
144.797828684378
20
-6.05580968883982
30
0
41
1
10
144.251629895803
20
-5.82529175332579
30
0
41
1
10
142.615880938589
20
-5.11006575389646
30
0
41
1
10
141.527252343924
20
-4.60080989265924
30
0
41
1
10
139.890316081494
20
-3.79897110146263
30
0
41
1
10
139.34364273996
20
-3.52506638435852
30
0
41
1
10
138.25247410215
20
-2.96879879354694
30
0
41
1
10
137.707468533586
20
-2.68623175988483
30
0
41
1
10
136.61760791627
20
-2.11404011179275
30
0
41
1
10
136.07277250251
20
-1.82437899035236
30
0
41
1
10
134.982088785248
20
-1.24008583193694
30
0
41
1
10
134.435673911307
20
-0.945178600287591
30
0
41
1
10
132.797542841808
20
-0.0581565618687989
30
0
41
1
10
131.70860474187
20
0.535370256995435
30
0
41
1
10
130.073070649664
20
1.41627884359849
30
0
41
1
10
129.527606361676
20
1.70847724122026
30
0
41
1
10
128.434892932318
20
2.28776212216991
30
0
41
1
10
127.889051996301
20
2.57401589415417
30
0
41
1
10
126.253195103322
20
3.41905980489995
30
0
41
1
10
125.164320150345
20
3.96483779063789
30
0
41
1
10
123.526326892705
20
4.74473523188237
30
0
41
1
10
122.97959561526
20
4.99836865456516
30
0
41
1
10
121.888507138616
20
5.48902429967842
30
0
41
1
10
121.343501384002
20
5.72627223169152
30
0
41
1
10
120.253359538824
20
6.182885751783
30
0
41
1
10
119.708287102628
20
6.40234520958259
30
0
41
1
10
118.617079267229
20
6.82204430911915
30
0
41
1
10
118.070301754007
20
7.02242342813196
30
0
41
1
10
116.432307863583
20
7.590141040085
30
0
41
1
10
115.343208969415
20
7.92466979904125
30
0
41
1
10
113.70701190258
20
8.35356168854318
30
0
41
1
10
113.160951238822
20
8.48445817165313
30
0
41
1
10
112.068034866918
20
8.72068656822051
30
0
41
1
10
111.522417775685
20
8.82573830032578
30
0
41
1
10
109.886469178597
20
9.10091654569638
30
0
41
1
10
108.797115074334
20
9.23108027924727
30
0
41
1
10
107.158197570897
20
9.3432189884783
30
0
41
1
10
106.611665196169
20
9.36669434215139
30
0
41
1
10
105.875167816433
20
9.37946529466998
30
0
41
1
10
105.684278290384
20
9.38106447475874
30
0
41
1
10
105.493419871483
20
9.38095413504141
30
0
0
SPLINE
5
F2
100
AcDbEntity
8
1
62
256
6
ByLayer
370
18
48
1
60
0
100
AcDbSpline
70
4
71
3
72
56
73
52
40
0
40
0
40
0
40
0
40
0.0295650662409442
40
0.0295650662409442
40
0.0619128973662469
40
0.0619128973662469
40
0.0942607284915492
40
0.0942607284915492
40
0.158956390742154
40
0.158956390742154
40
0.191304221867457
40
0.191304221867457
40
0.223652052992759
40
0.223652052992759
40
0.255999884118061
40
0.255999884118061
40
0.288347715243363
40
0.288347715243363
40
0.353043377493967
40
0.353043377493967
40
0.385391208619269
40
0.385391208619269
40
0.417739039744571
40
0.417739039744571
40
0.482434701995175
40
0.482434701995175
40
0.514782533120477
40
0.514782533120477
40
0.547130364245778
40
0.547130364245778
40
0.57947819537108
40
0.57947819537108
40
0.611826026496381
40
0.611826026496381
40
0.676521688746984
40
0.676521688746984
40
0.708869519872285
40
0.708869519872285
40
0.741217350997586
40
0.741217350997586
40
0.805913013248189
40
0.805913013248189
40
0.838260844373491
40
0.838260844373491
40
0.870608675498793
40
0.870608675498793
40
0.902956506624094
40
0.902956506624094
40
0.935304337749397
40
0.935304337749397
40
1
40
1
40
1
40
1
41
1
10
56.7973084091857
20
-8.84754237741987
30
0
41
1
10
56.2985956068128
20
-8.93437977461531
30
0
41
1
10
55.8000439674669
20
-9.01017485460787
30
0
41
1
10
54.7554870666082
20
-9.14530292262018
30
0
41
1
10
54.209381490942
20
-9.20239661538855
30
0
41
1
10
53.11547438323
20
-9.28905969147297
30
0
41
1
10
52.5689381351093
20
-9.31852592251906
30
0
41
1
10
50.9312217115266
20
-9.36502248880927
30
0
41
1
10
49.8408824086383
20
-9.34029855966352
30
0
41
1
10
48.2013648492854
20
-9.21985688787359
30
0
41
1
10
47.6539738383444
20
-9.16577564799508
30
0
41
1
10
46.561458905081
20
-9.03068554655269
30
0
41
1
10
46.0158110266811
20
-8.94961143039453
30
0
41
1
10
44.9244746553336
20
-8.76112243249869
30
0
41
1
10
44.3787803269122
20
-8.65371819921222
30
0
41
1
10
43.2863387140995
20
-8.41320568317164
30
0
41
1
10
42.7390077307642
20
-8.27990646979103
30
0
41
1
10
41.0990824056712
20
-7.84408728230008
30
0
41
1
10
40.0086278542856
20
-7.50573746175255
30
0
41
1
10
38.3706688844647
20
-6.93373273841652
30
0
41
1
10
37.8241231206103
20
-6.73229752524128
30
0
41
1
10
36.7298251654778
20
-6.30939686310535
30
0
41
1
10
36.1835809787327
20
-6.08849822108877
30
0
41
1
10
34.545788334463
20
-5.40009950672248
30
0
41
1
10
33.455234103654
20
-4.90681082561645
30
0
41
1
10
31.8146675603011
20
-4.12555814309965
30
0
41
1
10
31.2673766894226
20
-3.85844371305828
30
0
41
1
10
30.1748577130597
20
-3.3146068422659
30
0
41
1
10
29.6290680350572
20
-3.03762387981598
30
0
41
1
10
28.53739652503
20
-2.47535731741044
30
0
41
1
10
27.9915301301013
20
-2.19004579095019
30
0
41
1
10
26.8986501719947
20
-1.61298566379031
30
0
41
1
10
26.3510986194694
20
-1.32102395054361
30
0
41
1
10
24.7113429106814
20
-0.442601999488488
30
0
41
1
10
23.6205240513301
20
0.147286233024999
30
0
41
1
10
21.9817091396631
20
1.02713408722948
30
0
41
1
10
21.4345572932571
20
1.31988714728868
30
0
41
1
10
20.3405386916347
20
1.90047487790014
30
0
41
1
10
19.7943336040534
20
2.18791119858349
30
0
41
1
10
18.1563504092047
20
3.038480683432
30
0
41
1
10
17.0652814807446
20
3.59001555221445
30
0
41
1
10
15.4236156124346
20
4.38266783247934
30
0
41
1
10
14.8765772598946
20
4.64059014412686
30
0
41
1
10
13.7837598233439
20
5.14118590820755
30
0
41
1
10
13.2376620362544
20
5.38399953685388
30
0
41
1
10
12.1450128168324
20
5.85301539775003
30
0
41
1
10
11.5984822229
20
6.07924740588169
30
0
41
1
10
10.5038546695338
20
6.51340787311528
30
0
41
1
10
9.95696944734442
20
6.72083001849057
30
0
41
1
10
8.31775421381295
20
7.31136515840905
30
0
41
1
10
7.22598750686402
20
7.66301281389721
30
0
41
1
10
6.1314592080706
20
7.9680910603625
30
0
0
SPLINE
5
F3
100
AcDbEntity
8
1
62
256
6
ByLayer
370
18
48
1
60
0
100
AcDbSpline
70
4
71
3
72
22
73
18
40
0
40
0
40
0
40
0
40
0.249999999999999
40
0.249999999999999
40
0.312500000000002
40
0.312500000000002
40
0.375000000000006
40
0.375000000000006
40
0.500000000000005
40
0.500000000000005
40
0.750000000000004
40
0.750000000000004
40
0.812500000000003
40
0.812500000000003
40
0.875000000000002
40
0.875000000000002
40
1
40
1
40
1
40
1
41
1
10
215.673081822166
20
-8.92311673637491
30
0
41
1
10
215.475984353208
20
-8.90325142486628
30
0
41
1
10
215.293265372378
20
-8.8414178198579
30
0
41
1
10
215.08455144046
20
-8.70666934044249
30
0
41
1
10
215.043699707159
20
-8.67673695252282
30
0
41
1
10
214.964591152608
20
-8.6113163283585
30
0
41
1
10
214.926379360028
20
-8.57588865512813
30
0
41
1
10
214.815753209131
20
-8.46149044627063
30
0
41
1
10
214.747340356684
20
-8.37442034971804
30
0
41
1
10
214.558247220664
20
-8.08052965725466
30
0
41
1
10
214.453560467694
20
-7.84133610482056
30
0
41
1
10
214.351889035579
20
-7.48326591570827
30
0
41
1
10
214.332988282262
20
-7.40847194696497
30
0
41
1
10
214.298563875308
20
-7.25424872513503
30
0
41
1
10
214.283001919202
20
-7.17472710663591
30
0
41
1
10
214.241242406188
20
-6.92896784268223
30
0
41
1
10
214.219961056507
20
-6.7555506089366
30
0
41
1
10
214.2052948006
20
-6.57247274706847
30
0
0
SPLINE
5
F4
100
AcDbEntity
8
1
62
256
6
ByLayer
370
18
48
1
60
0
100
AcDbSpline
70
4
71
3
72
38
73
34
40
0
40
0
40
0
40
0
40
0.0804246305543554
40
0.0804246305543554
40
0.120636945831533
40
0.120636945831533
40
0.160849261108711
40
0.160849261108711
40
0.241273891663066
40
0.241273891663066
40
0.321698522217422
40
0.321698522217422
40
0.402123152771777
40
0.402123152771777
40
0.482547783326133
40
0.482547783326133
40
0.562972413880488
40
0.562972413880488
40
0.643397044434843
40
0.643397044434843
40
0.683609359712022
40
0.683609359712022
40
0.723821674989201
40
0.723821674989201
40
0.804246305543558
40
0.804246305543558
40
0.844458620820736
40
0.844458620820736
40
0.884670936097915
40
0.884670936097915
40
0.96509556665227
40
0.96509556665227
40
1
40
1
40
1
40
1
41
1
10
11.6344641000323
20
-8.74046723645711
30
0
41
1
10
12.1531156223301
20
-8.77187779730258
30
0
41
1
10
12.6701856397347
20
-8.79191458456913
30
0
41
1
10
13.44270145737
20
-8.80379704430294
30
0
41
1
10
13.6997326723413
20
-8.8047122036017
30
0
41
1
10
14.2131653922075
20
-8.80066129701592
30
0
41
1
10
14.4699080954094
20
-8.79571579220314
30
0
41
1
10
15.2397657518491
20
-8.77263550945173
30
0
41
1
10
15.7517615294768
20
-8.74619318113542
30
0
41
1
10
16.7742257965077
20
-8.66975332673942
30
0
41
1
10
17.2853824297462
20
-8.61983702909984
30
0
41
1
10
18.3078770193978
20
-8.49796174429611
30
0
41
1
10
18.8189555376748
20
-8.42600783587471
30
0
41
1
10
19.8405232752077
20
-8.25946417281497
30
0
41
1
10
20.352837165789
20
-8.16596754169029
30
0
41
1
10
21.3771476084671
20
-7.95725938161715
30
0
41
1
10
21.8894331052721
20
-7.8429976976264
30
0
41
1
10
22.9177677642619
20
-7.59170812613377
30
0
41
1
10
23.4335206343257
20
-7.45483720707628
30
0
41
1
10
24.2088837540723
20
-7.23385229327309
30
0
41
1
10
24.467804691537
20
-7.15742785773097
30
0
41
1
10
24.9854375322215
20
-6.99960251171987
30
0
41
1
10
25.2446191451011
20
-6.91908454287707
30
0
41
1
10
26.0211451639886
20
-6.6703717507678
30
0
41
1
10
26.5377153343072
20
-6.49528029095285
30
0
41
1
10
27.3122079958249
20
-6.2205866418212
30
0
41
1
10
27.570565170325
20
-6.12736307959074
30
0
41
1
10
28.0871087837309
20
-5.93684764589614
30
0
41
1
10
28.3453638584455
20
-5.83969849676836
30
0
41
1
10
29.1206528039889
20
-5.54225690377618
30
0
41
1
10
29.6372675807132
20
-5.33416857340967
30
0
41
1
10
30.3789598070381
20
-5.02566485060382
30
0
41
1
10
30.6040087276315
20
-4.93168542139969
30
0
41
1
10
30.8290677905599
20
-4.83618927435955
30
0
0
SPLINE
5
F5
100
AcDbEntity
8
1
62
256
6
ByLayer
370
18
48
1
60
0
100
AcDbSpline
70
4
71
3
72
144
73
140
40
0
40
0
40
0
40
0
40
0.0102274188200202
40
0.0102274188200202
40
0.0210158329804732
40
0.0210158329804732
40
0.031804247140926
40
0.031804247140926
40
0.053381075461832
40
0.053381075461832
40
0.0641694896222848
40
0.0641694896222848
40
0.0749579037827378
40
0.0749579037827378
40
0.0965347321036436
40
0.0965347321036436
40
0.11811156042455
40
0.11811156042455
40
0.128899974585002
40
0.128899974585002
40
0.139688388745455
40
0.139688388745455
40
0.161265217066361
40
0.161265217066361
40
0.182842045387267
40
0.182842045387267
40
0.204418873708173
40
0.204418873708173
40
0.215207287868626
40
0.215207287868626
40
0.225995702029079
40
0.225995702029079
40
0.247572530349985
40
0.247572530349985
40
0.269149358670891
40
0.269149358670891
40
0.279937772831344
40
0.279937772831344
40
0.290726186991797
40
0.290726186991797
40
0.312303015312703
40
0.312303015312703
40
0.33387984363361
40
0.33387984363361
40
0.355456671954517
40
0.355456671954517
40
0.360850879034744
40
0.360850879034744
40
0.366245086114971
40
0.366245086114971
40
0.377033500275426
40
0.377033500275426
40
0.398610328596334
40
0.398610328596334
40
0.409398742756789
40
0.409398742756789
40
0.420187156917244
40
0.420187156917244
40
0.430975571077699
40
0.430975571077699
40
0.441763985238153
40
0.441763985238153
40
0.463340813559063
40
0.463340813559063
40
0.474129227719518
40
0.474129227719518
40
0.484917641879972
40
0.484917641879972
40
0.506494470200882
40
0.506494470200882
40
0.517282884361337
40
0.517282884361337
40
0.528071298521792
40
0.528071298521792
40
0.538859712682246
40
0.538859712682246
40
0.549648126842701
40
0.549648126842701
40
0.560436541003156
40
0.560436541003156
40
0.571224955163611
40
0.571224955163611
40
0.582013369324065
40
0.582013369324065
40
0.59280178348452
40
0.59280178348452
40
0.603590197644975
40
0.603590197644975
40
0.61437861180543
40
0.61437861180543
40
0.63595544012634
40
0.63595544012634
40
0.646743854286794
40
0.646743854286794
40
0.657532268447249
40
0.657532268447249
40
0.67910909676816
40
0.67910909676816
40
0.689897510928615
40
0.689897510928615
40
0.70068592508907
40
0.70068592508907
40
0.722262753409979
40
0.722262753409979
40
0.733051167570435
40
0.733051167570435
40
0.74383958173089
40
0.74383958173089
40
0.7654164100518
40
0.7654164100518
40
0.786993238372711
40
0.786993238372711
40
0.808570066693621
40
0.808570066693621
40
0.830146895014532
40
0.830146895014532
40
0.851723723335442
40
0.851723723335442
40
0.873300551656353
40
0.873300551656353
40
0.87869475873658
40
0.87869475873658
40
0.884088965816808
40
0.884088965816808
40
0.894877379977263
40
0.894877379977263
40
0.916454208298173
40
0.916454208298173
40
0.927242622458629
40
0.927242622458629
40
0.938031036619084
40
0.938031036619084
40
0.948819450779539
40
0.948819450779539
40
0.959607864939995
40
0.959607864939995
40
0.981184693260906
40
0.981184693260906
40
1
40
1
40
1
40
1
41
1
10
68.0998142158928
20
8.83670219166538
30
0
41
1
10
68.3448796230485
20
8.83660087976122
30
0
41
1
10
68.5899926764636
20
8.83385947015142
30
0
41
1
10
69.0937462488522
20
8.82296210024063
30
0
41
1
10
69.352521314856
20
8.81449087139097
30
0
41
1
10
69.8699078300827
20
8.79191162417428
30
0
41
1
10
70.1286364061701
20
8.77781094656783
30
0
41
1
10
70.9039983902534
20
8.72598577812533
30
0
41
1
10
71.4207917392338
20
8.67921577274285
30
0
41
1
10
72.1947014642627
20
8.59223981406541
30
0
41
1
10
72.4522473327836
20
8.56030315285219
30
0
41
1
10
72.9684031383079
20
8.49123236056676
30
0
41
1
10
73.2267150129146
20
8.45397875943976
30
0
41
1
10
74.0012924057218
20
8.33311927456589
30
0
41
1
10
74.5172562064692
20
8.24020010217572
30
0
41
1
10
75.5514689714746
20
8.03431075541903
30
0
41
1
10
76.0698908473112
20
7.92116740969774
30
0
41
1
10
76.8439940589415
20
7.73546450825748
30
0
41
1
10
77.1015255836198
20
7.67083179275178
30
0
41
1
10
77.6157220146422
20
7.53643868853433
30
0
41
1
10
77.8721877398594
20
7.46645248488358
30
0
41
1
10
78.6426248344075
20
7.25184373442275
30
0
41
1
10
79.1550564076883
20
7.10003099479525
30
0
41
1
10
80.177582235222
20
6.77547166762844
30
0
41
1
10
80.688435171323
20
6.60423161341626
30
0
41
1
10
81.709853885747
20
6.24630968864705
30
0
41
1
10
82.2206839615306
20
6.060466082765
30
0
41
1
10
82.9860504072417
20
5.76725176982248
30
0
41
1
10
83.2410164484601
20
5.66711045406694
30
0
41
1
10
83.7521740391349
20
5.46472224039391
30
0
41
1
10
84.0078188662519
20
5.36162918194117
30
0
41
1
10
84.774870392187
20
5.04678440053698
30
0
41
1
10
85.2859384656031
20
4.82918975776138
30
0
41
1
10
86.3115460150891
20
4.38259008588864
30
0
41
1
10
86.825641563609
20
4.15260511967489
30
0
41
1
10
87.5986411278076
20
3.79898967883301
30
0
41
1
10
87.8565208018907
20
3.67946870293079
30
0
41
1
10
88.3727869901449
20
3.43739356040391
30
0
41
1
10
88.6314380344
20
3.3148626470072
30
0
41
1
10
89.4076615625489
20
2.94635670634085
30
0
41
1
10
89.9240378280163
20
2.69593572664189
30
0
41
1
10
90.9553549737414
20
2.18778529423227
30
0
41
1
10
91.4709794413818
20
1.93140672749968
30
0
41
1
10
92.5026029572547
20
1.41477065250913
30
0
41
1
10
93.0186362801833
20
1.15422568564134
30
0
41
1
10
93.6634130964281
20
0.825080237660217
30
0
41
1
10
93.7922928017667
20
0.758953557160311
30
0
41
1
10
94.0505445595828
20
0.627384464479974
30
0
41
1
10
94.1798400341777
20
0.561792202040095
30
0
41
1
10
94.5676440158804
20
0.364433333142529
30
0
41
1
10
94.8263669725276
20
0.232461237283559
30
0
41
1
10
95.6021991334073
20
-0.164347792936809
30
0
41
1
10
96.1179717376529
20
-0.429592678751391
30
0
41
1
10
96.8920566600232
20
-0.823685257165181
30
0
41
1
10
97.1499016152331
20
-0.954933647665996
30
0
41
1
10
97.6657987258301
20
-1.21611675350411
30
0
41
1
10
97.923742257725
20
-1.34627097528403
30
0
41
1
10
98.4392453115576
20
-1.60643045212598
30
0
41
1
10
98.6968568096422
20
-1.73631231528989
30
0
41
1
10
99.2120230059324
20
-1.99505377120644
30
0
41
1
10
99.4700913598242
20
-2.12294971342507
30
0
41
1
10
100.244503892595
20
-2.50484050275915
30
0
41
1
10
100.76077645524
20
-2.75753840806618
30
0
41
1
10
101.536078054202
20
-3.13216149539343
30
0
41
1
10
101.7945771724
20
-3.25566820395
30
0
41
1
10
102.311124765402
20
-3.50003656286253
30
0
41
1
10
102.56917628494
20
-3.62094935985249
30
0
41
1
10
103.343440924472
20
-3.97892097276494
30
0
41
1
10
103.858899697683
20
-4.2128969062291
30
0
41
1
10
104.63121085571
20
-4.55693642946443
30
0
41
1
10
104.88926419344
20
-4.66916507279979
30
0
41
1
10
105.404948431073
20
-4.89119367588225
30
0
41
1
10
105.662781539584
20
-5.00058679981692
30
0
41
1
10
106.178405596538
20
-5.21637841550168
30
0
41
1
10
106.436182136151
20
-5.32284112567396
30
0
41
1
10
106.952193418373
20
-5.53213311162924
30
0
41
1
10
107.210604294413
20
-5.63465087683565
30
0
41
1
10
107.727569839093
20
-5.83680333804264
30
0
41
1
10
107.986149871869
20
-5.93620285736768
30
0
41
1
10
108.502858610856
20
-6.12973356902558
30
0
41
1
10
108.760959776158
20
-6.2242429559777
30
0
41
1
10
109.276632076804
20
-6.40943203920318
30
0
41
1
10
109.534084434354
20
-6.50020245486289
30
0
41
1
10
110.049280253943
20
-6.6768961083684
30
0
41
1
10
110.307326738983
20
-6.76244954867414
30
0
41
1
10
110.822758810871
20
-6.93028590787836
30
0
41
1
10
111.080351066777
20
-7.01234853024098
30
0
41
1
10
111.595382438168
20
-7.17148000247855
30
0
41
1
10
111.852817468838
20
-7.24849164357607
30
0
41
1
10
112.625909671561
20
-7.4716896208048
30
0
41
1
10
113.142143750982
20
-7.60981791787887
30
0
41
1
10
113.917485355579
20
-7.80382857551112
30
0
41
1
10
114.176047576413
20
-7.86633252556916
30
0
41
1
10
114.692251864335
20
-7.98556351863576
30
0
41
1
10
114.949766669314
20
-8.04260437555516
30
0
41
1
10
115.723758487745
20
-8.20383435844158
30
0
41
1
10
116.239356615485
20
-8.30002944123302
30
0
41
1
10
117.011652191476
20
-8.42923876022027
30
0
41
1
10
117.268926595733
20
-8.46979353816803
30
0
41
1
10
117.78401431669
20
-8.5447057922604
30
0
41
1
10
118.041698144779
20
-8.57911702854665
30
0
41
1
10
118.814796364773
20
-8.67374120529999
30
0
41
1
10
119.331013341745
20
-8.72511549984125
30
0
41
1
10
120.10519244388
20
-8.7859727889545
30
0
41
1
10
120.36328458868
20
-8.80356821009624
30
0
41
1
10
120.880056193671
20
-8.8324086742499
30
0
41
1
10
121.138213109454
20
-8.84372888607763
30
0
41
1
10
121.911981469021
20
-8.86854204841174
30
0
41
1
10
122.426512468627
20
-8.87303984981455
30
0
41
1
10
123.456728260204
20
-8.85972242319258
30
0
41
1
10
123.971853009733
20
-8.84194862987968
30
0
41
1
10
125.002553603988
20
-8.78128196036886
30
0
41
1
10
125.517220579447
20
-8.73846012446455
30
0
41
1
10
126.550247765781
20
-8.63150875695578
30
0
41
1
10
127.067229124342
20
-8.56686006403257
30
0
41
1
10
128.098069353702
20
-8.41331743982917
30
0
41
1
10
128.613230657964
20
-8.32497128869045
30
0
41
1
10
129.64356557703
20
-8.12802780996313
30
0
41
1
10
130.158666770323
20
-8.01933669515333
30
0
41
1
10
130.80198383337
20
-7.8688567923752
30
0
41
1
10
130.93056198955
20
-7.837969839045
30
0
41
1
10
131.188149974373
20
-7.77519867810801
30
0
41
1
10
131.317127452982
20
-7.74329118695374
30
0
41
1
10
131.703934747912
20
-7.64540770257457
30
0
41
1
10
131.961882624375
20
-7.57749715070497
30
0
41
1
10
132.735884123246
20
-7.36596145441922
30
0
41
1
10
133.252252179054
20
-7.21447444871632
30
0
41
1
10
134.026082290136
20
-6.97465268760371
30
0
41
1
10
134.283778496895
20
-6.89216527003614
30
0
41
1
10
134.799279474268
20
-6.72302689974538
30
0
41
1
10
135.05699057718
20
-6.63627932383196
30
0
41
1
10
135.571954056888
20
-6.45816477195373
30
0
41
1
10
135.829254125029
20
-6.36689457648015
30
0
41
1
10
136.343629442229
20
-6.17992309916366
30
0
41
1
10
136.601180534545
20
-6.08486318393358
30
0
41
1
10
137.374014330841
20
-5.79346552733367
30
0
41
1
10
137.889091090549
20
-5.59007176744097
30
0
41
1
10
138.854158448041
20
-5.19528179231776
30
0
41
1
10
139.305013304451
20
-5.00650194192085
30
0
41
1
10
139.754652036217
20
-4.81342800247992
30
0
0
SPLINE
5
F6
100
AcDbEntity
8
1
62
256
6
ByLayer
370
18
48
1
60
0
100
AcDbSpline
70
4
71
3
72
76
73
72
40
0
40
0
40
0
40
0
40
0.0202637866477353
40
0.0202637866477353
40
0.0441597918514514
40
0.0441597918514514
40
0.0561077944533084
40
0.0561077944533084
40
0.0680557970551653
40
0.0680557970551653
40
0.0919518022588793
40
0.0919518022588793
40
0.139743812666307
40
0.139743812666307
40
0.16363981787002
40
0.16363981787002
40
0.187535823073734
40
0.187535823073734
40
0.211431828277448
40
0.211431828277448
40
0.235327833481162
40
0.235327833481162
40
0.283119843888589
40
0.283119843888589
40
0.307015849092304
40
0.307015849092304
40
0.330911854296018
40
0.330911854296018
40
0.378703864703447
40
0.378703864703447
40
0.402599869907162
40
0.402599869907162
40
0.426495875110877
40
0.426495875110877
40
0.450391880314591
40
0.450391880314591
40
0.474287885518305
40
0.474287885518305
40
0.49818389072202
40
0.49818389072202
40
0.522079895925735
40
0.522079895925735
40
0.545975901129449
40
0.545975901129449
40
0.569871906333164
40
0.569871906333164
40
0.617663916740593
40
0.617663916740593
40
0.665455927148022
40
0.665455927148022
40
0.689351932351737
40
0.689351932351737
40
0.713247937555453
40
0.713247937555453
40
0.737143942759168
40
0.737143942759168
40
0.761039947962883
40
0.761039947962883
40
0.784935953166598
40
0.784935953166598
40
0.808831958370313
40
0.808831958370313
40
0.856623968777741
40
0.856623968777741
40
0.880519973981452
40
0.880519973981452
40
0.904415979185163
40
0.904415979185163
40
0.952207989592582
40
0.952207989592582
40
1
40
1
40
1
40
1
41
1
10
177.01997314465
20
8.90251486909332
30
0
41
1
10
177.235813606946
20
8.9016957034016
30
0
41
1
10
177.451683378859
20
8.898987993243
30
0
41
1
10
177.921860823643
20
8.8888162739276
30
0
41
1
10
178.176161146952
20
8.88062548611296
30
0
41
1
10
178.557600306598
20
8.86312332191159
30
0
41
1
10
178.684674952769
20
8.8564717962698
30
0
41
1
10
178.939199181202
20
8.84176466986452
30
0
41
1
10
179.066666011425
20
8.83370914870926
30
0
41
1
10
179.448937438748
20
8.80730833292535
30
0
41
1
10
179.703876751044
20
8.78674775887694
30
0
41
1
10
180.468849351936
20
8.71693326948429
30
0
41
1
10
180.978770232711
20
8.6600434893441
30
0
41
1
10
181.746461864264
20
8.5567925299377
30
0
41
1
10
182.00257369232
20
8.51931150803861
30
0
41
1
10
182.515773279335
20
8.43858156978138
30
0
41
1
10
182.772813902041
20
8.39529574188501
30
0
41
1
10
183.28729499394
20
8.30304102925248
30
0
41
1
10
183.544841678182
20
8.25421997942416
30
0
41
1
10
184.060134270145
20
8.15130109301006
30
0
41
1
10
184.317817138348
20
8.09742158536173
30
0
41
1
10
185.090642068341
20
7.92758296078281
30
0
41
1
10
185.604810144474
20
7.80282679179365
30
0
41
1
10
186.3753924663
20
7.60007669848375
30
0
41
1
10
186.632360526578
20
7.53024609503933
30
0
41
1
10
187.146372529334
20
7.38637734346898
30
0
41
1
10
187.403282655513
20
7.31204273524199
30
0
41
1
10
188.174660471962
20
7.08177561091566
30
0
41
1
10
188.68899630108
20
6.91796845128994
30
0
41
1
10
189.460601277109
20
6.65704033663533
30
0
41
1
10
189.718421304013
20
6.56838197350694
30
0
41
1
10
190.234201498013
20
6.38705872391796
30
0
41
1
10
190.492061593256
20
6.2943752024141
30
0
41
1
10
191.006944332135
20
6.10435220181932
30
0
41
1
10
191.26406478361
20
6.00699568663384
30
0
41
1
10
191.778129818506
20
5.808370047534
30
0
41
1
10
192.035269674172
20
5.70739448665628
30
0
41
1
10
192.549375858288
20
5.50166865389119
30
0
41
1
10
192.806330850215
20
5.39689274474568
30
0
41
1
10
193.320480609265
20
5.18464163099199
30
0
41
1
10
193.577507513051
20
5.07693164615534
30
0
41
1
10
194.091307460322
20
4.85754614335787
30
0
41
1
10
194.348114130649
20
4.74589477904487
30
0
41
1
10
194.861759675708
20
4.51906265809728
30
0
41
1
10
195.119319116517
20
4.40510764061591
30
0
41
1
10
195.891632426143
20
4.05743802922342
30
0
41
1
10
196.407109154067
20
3.81855896789884
30
0
41
1
10
197.43663330716
20
3.33223815132695
30
0
41
1
10
197.951129382823
20
3.08537816287546
30
0
41
1
10
198.722555657482
20
2.70989789882873
30
0
41
1
10
198.979558373916
20
2.58371273738624
30
0
41
1
10
199.49322051794
20
2.32920713861833
30
0
41
1
10
199.749777710559
20
2.20070431019502
30
0
41
1
10
200.263292071808
20
1.94294963339831
30
0
41
1
10
200.520623012049
20
1.81439651986955
30
0
41
1
10
201.034857131281
20
1.55487986709102
30
0
41
1
10
201.291981925583
20
1.42434837643449
30
0
41
1
10
201.806268301942
20
1.16180410837788
30
0
41
1
10
202.063416604249
20
1.02976361417612
30
0
41
1
10
202.578395257647
20
0.765491896652918
30
0
41
1
10
202.83638093293
20
0.633353530888343
30
0
41
1
10
203.609039469538
20
0.23615533597706
30
0
41
1
10
204.12385930816
20
-0.0279930415840965
30
0
41
1
10
204.894554852509
20
-0.425394762373742
30
0
41
1
10
205.150987893015
20
-0.55847253992286
30
0
41
1
10
205.664921589571
20
-0.821982380142742
30
0
41
1
10
205.922027063392
20
-0.953188678735728
30
0
41
1
10
206.692898375761
20
-1.34680992324348
30
0
41
1
10
207.206160328686
20
-1.60931520096418
30
0
41
1
10
208.234776581106
20
-2.12789547302177
30
0
41
1
10
208.750425807303
20
-2.38481251737781
30
0
41
1
10
209.265588703111
20
-2.6382590127314
30
0
0
SPLINE
5
F7
100
AcDbEntity
8
1
62
256
6
ByLayer
370
18
48
1
60
0
100
AcDbSpline
70
4
71
3
72
14
73
10
40
0
40
0
40
0
40
0
40
0.25
40
0.25
40
0.5
40
0.5
40
0.75
40
0.75
40
1
40
1
40
1
40
1
41
1
10
215.49938423457
20
2.19239665066757
30
0
41
1
10
215.494548673327
20
2.21232065205643
30
0
41
1
10
215.493340259865
20
2.23329959966907
30
0
41
1
10
215.502604295439
20
2.2728881964868
30
0
41
1
10
215.513654216177
20
2.2914778359081
30
0
41
1
10
215.544685103181
20
2.31883249242117
30
0
41
1
10
215.563854860925
20
2.32771094783223
30
0
41
1
10
215.603382354488
20
2.33825417688723
30
0
41
1
10
215.624055709091
20
2.34010945816038
30
0
41
1
10
215.644591307384
20
2.33970428382949
30
0
0
SPLINE
5
F8
100
AcDbEntity
8
1
62
256
6
ByLayer
370
18
48
1
60
0
100
AcDbSpline
70
4
71
3
72
63
73
59
40
0
40
0
40
0
40
0
40
0.0624999999999942
40
0.0624999999999942
40
0.124999999999988
40
0.124999999999988
40
0.156249999999986
40
0.156249999999986
40
0.187499999999983
40
0.187499999999983
40
0.249999999999976
40
0.249999999999976
40
0.281249999999973
40
0.281249999999973
40
0.312499999999971
40
0.312499999999971
40
0.374999999999964
40
0.374999999999964
40
0.406249999999961
40
0.406249999999961
40
0.42187499999996
40
0.42187499999996
40
0.437499999999958
40
0.437499999999958
40
0.499999999999952
40
0.499999999999952
40
0.515624999999951
40
0.515624999999951
40
0.531249999999949
40
0.531249999999949
40
0.562499999999946
40
0.562499999999946
40
0.624999999999941
40
0.624999999999941
40
0.687499999999937
40
0.687499999999937
40
0.703124999999935
40
0.703124999999935
40
0.710937499999934
40
0.710937499999934
40
0.714843749999934
40
0.716796874999934
40
0.716796874999934
40
0.718749999999933
40
0.718749999999933
40
0.722656249999934
40
0.722656249999934
40
0.726562499999934
40
0.726562499999934
40
0.734374999999936
40
0.734374999999936
40
0.749999999999939
40
0.749999999999939
40
0.812499999999954
40
0.812499999999954
40
0.87499999999997
40
0.87499999999997
40
1
40
1
40
1
40
1
41
1
10
6.00000010847427
20
-5.79083316417425
30
0
41
1
10
5.81453139534975
20
-5.53199505974288
30
0
41
1
10
5.63752461360784
20
-5.26106612177162
30
0
41
1
10
5.30153091586976
20
-4.6937575665612
30
0
41
1
10
5.142523870465
20
-4.39739875207914
30
0
41
1
10
4.91971268848954
20
-3.93164218427842
30
0
41
1
10
4.84807485553392
20
-3.77283942750191
30
0
41
1
10
4.71067613948083
20
-3.44755266071448
30
0
41
1
10
4.64482396437052
20
-3.28072886741972
30
0
41
1
10
4.45987023120003
20
-2.77502178886945
30
0
41
1
10
4.3523082782126
20
-2.42889214267697
30
0
41
1
10
4.2192152009668
20
-1.89453884258398
30
0
41
1
10
4.17958424013003
20
-1.71388379764883
30
0
41
1
10
4.11095886219294
20
-1.34705395892479
30
0
41
1
10
4.08186783927246
20
-1.15994503105938
30
0
41
1
10
4.01372703130642
20
-0.597826486958468
30
0
41
1
10
3.9934468024905
20
-0.2222015371824
30
0
41
1
10
4.00607438760767
20
0.342651520600299
30
0
41
1
10
4.01747269125198
20
0.531172368712845
30
0
41
1
10
4.04629238072511
20
0.814328192145155
30
0
41
1
10
4.05787674163025
20
0.908806625228522
30
0
41
1
10
4.08477229768343
20
1.09564995752777
30
0
41
1
10
4.10010787224408
20
1.18829707121699
30
0
41
1
10
4.18619897320573
20
1.64771836379103
30
0
41
1
10
4.28514669263015
20
2.00307694580198
30
0
41
1
10
4.44657868317148
20
2.43267429824237
30
0
41
1
10
4.48075508903713
20
2.51786216579455
30
0
41
1
10
4.55290040498858
20
2.68678481407807
30
0
41
1
10
4.59092203688732
20
2.77058465037282
30
0
41
1
10
4.70949081084672
20
3.01732730058123
30
0
41
1
10
4.79487951064581
20
3.17647645062198
30
0
41
1
10
5.0689049200918
20
3.63923124803841
30
0
41
1
10
5.27535349335474
20
3.9281963867289
30
0
41
1
10
5.7315128743227
20
4.4722666394691
30
0
41
1
10
5.97855715484906
20
4.72410767905649
30
0
41
1
10
6.30627550011477
20
5.0162986215812
30
0
41
1
10
6.37273482495121
20
5.07357772629285
30
0
41
1
10
6.47375044051716
20
5.15784161063468
30
0
41
1
10
6.50764165218385
20
5.18565178324607
30
0
41
1
10
6.55878510717039
20
5.22694619175738
30
0
41
1
10
6.58443460134131
20
5.24748927199025
30
0
41
1
10
6.61019975226571
20
5.2678780958536
30
0
41
1
10
6.62740211254592
20
5.28143657624119
30
0
41
1
10
6.63609812334226
20
5.28822144561715
30
0
41
1
10
6.66498194471913
20
5.30553212351305
30
0
41
1
10
6.6865484655797
20
5.31386646669654
30
0
41
1
10
6.73220422488149
20
5.32455407620461
30
0
41
1
10
6.75559080024272
20
5.32599732365713
30
0
41
1
10
6.82552153713323
20
5.3319260097899
30
0
41
1
10
6.87217191175105
20
5.33566800538824
30
0
41
1
10
7.01221235718046
20
5.34626678998643
30
0
41
1
10
7.10565608157293
20
5.35249714054467
30
0
41
1
10
7.5730566240149
20
5.37951086873278
30
0
41
1
10
7.94871536596776
20
5.3878777580893
30
0
41
1
10
8.69616995993147
20
5.37892652862612
30
0
41
1
10
9.06794069158309
20
5.36174717773136
30
0
41
1
10
10.1775716142445
20
5.27280073416276
30
0
41
1
10
10.909778022645
20
5.16404792476877
30
0
41
1
10
11.6344641000321
20
5.00170495373294
30
0
0
SPLINE
5
F9
100
AcDbEntity
8
1
62
256
6
ByLayer
370
18
48
1
60
0
100
AcDbSpline
70
4
71
3
72
8
73
4
40
0
40
0
40
0
40
0
40
1
40
1
40
1
40
1
41
1
10
215.673081822167
20
-8.92311673637263
30
0
41
1
10
215.684837897958
20
-8.92644651778332
30
0
41
1
10
215.697008254483
20
-8.92857877980532
30
0
41
1
10
215.70959770635
20
-8.92951985238557
30
0
0
SPLINE
5
FA
100
AcDbEntity
8
1
62
256
6
ByLayer
370
18
48
1
60
0
100
AcDbSpline
70
4
71
3
72
8
73
4
40
0
40
0
40
0
40
0
40
1
40
1
40
1
40
1
41
1
10
215.777192586194
20
-8.92408183944087
30
0
41
1
10
215.797136072256
20
-8.91970766043789
30
0
41
1
10
215.817943753641
20
-8.91294575283126
30
0
41
1
10
215.839629480566
20
-8.90381432602243
30
0
0
SPLINE
5
FB
100
AcDbEntity
8
1
62
256
6
ByLayer
370
18
48
1
60
0
100
AcDbSpline
70
4
71
3
72
8
73
4
40
0
40
0
40
0
40
0
40
1
40
1
40
1
40
1
41
1
10
218.999970640023
20
0.0472495367835393
30
0
41
1
10
218.992065369378
20
0.0270867290597607
30
0
41
1
10
218.983476865836
20
0.0083056944937141
30
0
41
1
10
218.974886045706
20
-0.0076792442096973
30
0
0
SPLINE
5
FC
100
AcDbEntity
8
1
62
256
6
ByLayer
370
13
48
1
60
0
100
AcDbSpline
70
4
71
3
72
16
73
12
40
0
40
0
40
0
40
0
40
0.186531594865641
40
0.186531594865641
40
0.594027527716801
40
0.594027527716801
40
0.695901510929592
40
0.695901510929592
40
0.797775494142382
40
0.797775494142382
40
1
40
1
40
1
40
1
41
1
10
6.25021623558286
20
7.95605405919594
30
0
41
1
10
6.25021599325683
20
8.05919871895736
30
0
41
1
10
6.25021493594525
20
8.15285138492979
30
0
41
1
10
6.2502095922257
20
8.42148746752545
30
0
41
1
10
6.25020296871165
20
8.56166288816527
30
0
41
1
10
6.25019332659969
20
8.68022396613159
30
0
41
1
10
6.25019132572226
20
8.70111106398585
30
0
41
1
10
6.25018726992693
20
8.73684624906579
30
0
41
1
10
6.2501852145063
20
8.75171713352728
30
0
41
1
10
6.25017908422248
20
8.78721515829929
30
0
41
1
10
6.25017501535001
20
8.79910097723385
30
0
41
1
10
6.25017117031368
20
8.79919105261592
30
0
0
SPLINE
5
FD
100
AcDbEntity
8
1
62
256
6
ByLayer
370
18
48
1
60
0
100
AcDbSpline
70
4
71
3
72
12
73
8
40
0
40
0
40
0
40
0
40
0.250000000000002
40
0.250000000000002
40
0.500000000000004
40
0.500000000000004
40
1
40
1
40
1
40
1
41
1
10
215.966816305311
20
-9.18616392024799
30
0
41
1
10
216.193694242995
20
-8.61528236903587
30
0
41
1
10
216.420486096352
20
-8.04405632525547
30
0
41
1
10
216.872848328318
20
-6.90026046916822
30
0
41
1
10
217.09848029542
20
-6.32774440584524
30
0
41
1
10
217.772839533988
20
-4.60796695007107
30
0
41
1
10
218.219040331287
20
-3.45864446509143
30
0
41
1
10
218.659613890322
20
-2.30773592772556
30
0
0
SPLINE
5
FE
100
AcDbEntity
8
1
62
256
6
ByLayer
370
18
48
1
60
0
100
AcDbSpline
70
4
71
2
72
6
73
3
40
0
40
0
40
0
40
1
40
1
40
1
41
1
10
187.096451275893
20
-0.0023237858131608
30
0
41
1
10
187.09643683878
20
-0.0023161562601501
30
0
41
1
10
187.096422401718
20
-0.0023081707810206
30
0
0
SPLINE
5
FF
100
AcDbEntity
8
1
62
256
6
ByLayer
370
18
48
1
60
0
100
AcDbSpline
70
4
71
3
72
20
73
16
40
0
40
0
40
0
40
0
40
0.0698761505527998
40
0.141452832391622
40
0.1847908145812
40
0.225536171328259
40
0.299686463345746
40
0.397108785201314
40
0.512093636541472
40
0.604830673272078
40
0.680208683497644
40
0.772660820999736
40
0.859608481393968
40
0.948772037179958
40
1
40
1
40
1
40
1
41
1
10
6.25016207752668
20
-8.79919151329912
30
0
41
1
10
6.42368193581797
20
-8.79931066395653
30
0
41
1
10
6.7749447987585
20
-8.7995500818617
30
0
41
1
10
7.23382709048997
20
-8.79986214631671
30
0
41
1
10
7.62037142686196
20
-8.80011636663872
30
0
41
1
10
8.01330613885455
20
-8.8003658447652
30
0
41
1
10
8.54054909234799
20
-8.80068065705484
30
0
41
1
10
9.25213108242508
20
-8.8010692061705
30
0
41
1
10
10.0098868452961
20
-8.80143030113095
30
0
41
1
10
10.7128945033161
20
-8.80175140340219
30
0
41
1
10
11.3599445632852
20
-8.80209640799953
30
0
41
1
10
11.9926261604369
20
-8.80251141591677
30
0
41
1
10
12.6595347143642
20
-8.80321635526872
30
0
41
1
10
13.2240778234924
20
-8.80368040568746
30
0
41
1
10
13.572705937357
20
-8.80370956304236
30
0
41
1
10
13.6999181199496
20
-8.80369586307933
30
0
0
SPLINE
5
100
100
AcDbEntity
8
1
62
256
6
ByLayer
370
18
48
1
60
0
100
AcDbSpline
70
4
71
1
72
4
73
2
40
0
40
0
40
1
40
1
41
1
10
214.503327182303
20
-8.92946847306615
30
0
41
1
10
215.713558471945
20
-8.92948788258428
30
0
0
SPLINE
5
101
100
AcDbEntity
8
1
62
256
6
ByLayer
370
18
48
1
60
0
100
AcDbSpline
70
4
71
3
72
30
73
26
40
0
40
0
40
0
40
0
40
0.0571598189843086
40
0.111806532301557
40
0.158722612514094
40
0.199695166776845
40
0.235364109127814
40
0.267951637352596
40
0.314357224153196
40
0.365589988171845
40
0.408933074054237
40
0.443685464717621
40
0.47427165074337
40
0.515333755553782
40
0.562617336549839
40
0.602484743817913
40
0.633961837969965
40
0.664430798454249
40
0.70155706849176
40
0.744742259023376
40
0.800343699421108
40
0.843419174559085
40
0.894311987055253
40
0.956346381429202
40
1
40
1
40
1
40
1
41
1
10
105.690545509546
20
-8.86079046321072
30
0
41
1
10
106.008600167099
20
-8.86065413425143
30
0
41
1
10
106.631353490059
20
-8.8606900511721
30
0
41
1
10
107.525933293188
20
-8.86072065494113
30
0
41
1
10
108.31607329166
20
-8.86286986368509
30
0
41
1
10
109.002872984869
20
-8.86251220855993
30
0
41
1
10
109.617522889121
20
-8.86256408844179
30
0
41
1
10
110.25698616972
20
-8.86333373594303
30
0
41
1
10
110.987912767899
20
-8.86394628364812
30
0
41
1
10
111.778492421745
20
-8.86474170656618
30
0
41
1
10
112.503909925277
20
-8.86482062485138
30
0
41
1
10
113.11348754352
20
-8.86477988071221
30
0
41
1
10
113.710265408903
20
-8.86502356572558
30
0
41
1
10
114.377240124928
20
-8.86599688458756
30
0
41
1
10
115.096262712147
20
-8.86633212138969
30
0
41
1
10
115.761684953828
20
-8.86638645477035
30
0
41
1
10
116.33264968906
20
-8.86641544720135
30
0
41
1
10
116.888220034716
20
-8.86662800291859
30
0
41
1
10
117.509612838861
20
-8.86738990105763
30
0
41
1
10
118.271888067387
20
-8.86772577644243
30
0
41
1
10
119.067608121163
20
-8.86762888396785
30
0
41
1
10
119.906450872927
20
-8.86793147373274
30
0
41
1
10
120.781471051071
20
-8.86928954337952
30
0
41
1
10
121.659693409541
20
-8.86929733501361
30
0
41
1
10
122.252484308161
20
-8.86938902060393
30
0
41
1
10
122.497331847255
20
-8.86938215816826
30
0
0
SPLINE
5
102
100
AcDbEntity
8
1
62
256
6
ByLayer
370
18
48
1
60
0
100
AcDbSpline
70
4
71
3
72
20
73
16
40
0
40
0
40
0
40
0
40
0.135947534216192
40
0.316374304290747
40
0.483017295189304
40
0.559623432664352
40
0.637730675212774
40
0.717624507947559
40
0.751104874147698
40
0.777186912754306
40
0.800382902093142
40
0.833574847817535
40
0.883396028250864
40
0.949999119000029
40
1
40
1
40
1
40
1
41
1
10
13.695870403324
20
8.8036057843056
30
0
41
1
10
13.3584603560417
20
8.80354038909479
30
0
41
1
10
12.5732468447393
20
8.80329920363604
30
0
41
1
10
11.3744452709435
20
8.80195742076376
30
0
41
1
10
10.3229161578791
20
8.80158533912001
30
0
41
1
10
9.52534518823251
20
8.8012025392766
30
0
41
1
10
8.94307140071376
20
8.80090365422939
30
0
41
1
10
8.4678312382768
20
8.80063591346422
30
0
41
1
10
8.12171361655876
20
8.80042984093407
30
0
41
1
10
7.91631524337137
20
8.80030372161301
30
0
41
1
10
7.71163139846587
20
8.80017459538962
30
0
41
1
10
7.44803627802443
20
8.80000318840891
30
0
41
1
10
7.07670499547959
20
8.7997547926519
30
0
41
1
10
6.66364865780398
20
8.79947287980903
30
0
41
1
10
6.37425450836255
20
8.79927585230809
30
0
41
1
10
6.25016032530996
20
8.79919115942118
30
0
0
SPLINE
5
103
100
AcDbEntity
8
1
62
256
6
ByLayer
370
18
48
1
60
0
100
AcDbSpline
70
4
71
3
72
17
73
13
40
0
40
0
40
0
40
0
40
0.070203560098936
40
0.17222591476227
40
0.2649967331202
40
0.36061273877109
40
0.484304064351501
40
0.607292517211066
40
0.748269765947312
40
0.861228815889506
40
0.985120733459627
40
1
40
1
40
1
40
1
41
1
10
68.0856147398092
20
8.83666766437631
30
0
41
1
10
67.8205741936235
20
8.83670774950653
30
0
41
1
10
67.1703673959697
20
8.83667665374008
30
0
41
1
10
66.169920477421
20
8.83506077645052
30
0
41
1
10
65.0735393483124
20
8.8349430322898
30
0
41
1
10
63.8953445178778
20
8.83501716708366
30
0
41
1
10
62.603069688838
20
8.83302639245923
30
0
41
1
10
61.1395482737431
20
8.83330395163827
30
0
41
1
10
59.716564958134
20
8.83159541373496
30
0
41
1
10
58.2901190814706
20
8.8313656130058
30
0
41
1
10
57.339821698471
20
8.83089019845292
30
0
41
1
10
56.8158604663891
20
8.83043925815659
30
0
41
1
10
56.7596821159235
20
8.83039014667727
30
0
0
SPLINE
5
104
100
AcDbEntity
8
1
62
256
6
ByLayer
370
18
48
1
60
0
100
AcDbSpline
70
4
71
3
72
26
73
22
40
0
40
0
40
0
40
0
40
0.0550408781734037
40
0.105502887990181
40
0.145161178529867
40
0.178379704288343
40
0.211058184341129
40
0.243111776317924
40
0.270970829629511
40
0.302621515701401
40
0.340982697986019
40
0.387136062163144
40
0.433069379148651
40
0.511870891616562
40
0.587875854532988
40
0.670070628269969
40
0.749639613628222
40
0.825923874792984
40
0.901406526854023
40
0.966266438865794
40
1
40
1
40
1
40
1
41
1
10
160.099136146605
20
-8.89486167082879
30
0
41
1
10
160.407937259147
20
-8.89490367097949
30
0
41
1
10
161.000439440962
20
-8.89504717747459
30
0
41
1
10
161.817029915727
20
-8.89479859844798
30
0
41
1
10
162.512270707658
20
-8.89563692012737
30
0
41
1
10
163.102146684148
20
-8.89638576976807
30
0
41
1
10
163.651297770511
20
-8.89648834692642
30
0
41
1
10
164.169220057394
20
-8.89624134756497
30
0
41
1
10
164.686214083684
20
-8.896221299968
30
0
41
1
10
165.232461651081
20
-8.89756978147332
30
0
41
1
10
165.886851480224
20
-8.8980346305369
30
0
41
1
10
166.621116025562
20
-8.89801706500839
30
0
41
1
10
167.583238990166
20
-8.8978269390137
30
0
41
1
10
168.713327293257
20
-8.89959465074276
30
0
41
1
10
170.047615892367
20
-8.89948373197694
30
0
41
1
10
171.386200140849
20
-8.90070151404925
30
0
41
1
10
172.726393561895
20
-8.90145286131579
30
0
41
1
10
174.028718691122
20
-8.90098641922819
30
0
41
1
10
175.248502974983
20
-8.90368669721514
30
0
41
1
10
176.227916714314
20
-8.90254110682912
30
0
41
1
10
176.78273752723
20
-8.90295535481806
30
0
41
1
10
176.972561029416
20
-8.90311087581807
30
0
0
SPLINE
5
105
100
AcDbEntity
8
1
62
256
6
ByLayer
370
18
48
1
60
0
100
AcDbSpline
70
4
71
3
72
18
73
14
40
0
40
0
40
0
40
0
40
0.0234264987534854
40
0.101148761324414
40
0.154672065718522
40
0.224279895927904
40
0.301986392004908
40
0.372218314780851
40
0.523628418517804
40
0.672609967596344
40
0.818330319508625
40
0.972688721050204
40
1
40
1
40
1
40
1
41
1
10
176.998200703988
20
8.90277855978849
30
0
41
1
10
176.90896641418
20
8.90269841633588
30
0
41
1
10
176.523701437512
20
8.90241702419675
30
0
41
1
10
175.935969036162
20
8.90310212285576
30
0
41
1
10
175.170267615265
20
8.90320097868096
30
0
41
1
10
174.40513186797
20
8.90185492050821
30
0
41
1
10
173.576169764687
20
8.90114384572661
30
0
41
1
10
172.435561111769
20
8.90145940707797
30
0
41
1
10
171.02333560619
20
8.89983949251101
30
0
41
1
10
169.32356657939
20
8.89997353890675
30
0
41
1
10
167.61222169233
20
8.89752893873026
30
0
41
1
10
166.365541390201
20
8.89819303249078
30
0
41
1
10
165.672538238464
20
8.89786233606822
30
0
41
1
10
165.568542126212
20
8.89777909828837
30
0
0
SPLINE
5
106
100
AcDbEntity
8
1
62
256
6
ByLayer
370
18
48
1
60
0
100
AcDbSpline
70
4
71
3
72
25
73
21
40
0
40
0
40
0
40
0
40
0.005194796477072
40
0.0711069405720418
40
0.144157380637133
40
0.207444072639763
40
0.258171355065612
40
0.311705289893865
40
0.378191657526187
40
0.450484360604093
40
0.510835693482633
40
0.560430448306246
40
0.620569227472538
40
0.696874530276257
40
0.756301882409891
40
0.80313643374229
40
0.840653552729454
40
0.88439324126303
40
0.936246812205322
40
1
40
1
40
1
40
1
41
1
10
122.497771086407
20
8.8693449236296
30
0
41
1
10
122.478103958887
20
8.86933252050918
30
0
41
1
10
122.208897840817
20
8.86917070198899
30
0
41
1
10
121.663095260259
20
8.86941380374282
30
0
41
1
10
120.897390841898
20
8.8693239404536
30
0
41
1
10
120.189138945068
20
8.86830367651609
30
0
41
1
10
119.554830338921
20
8.86778601347689
30
0
41
1
10
118.908390192807
20
8.86764278330446
30
0
41
1
10
118.180268361071
20
8.86771679998355
30
0
41
1
10
117.426393485712
20
8.8672994284037
30
0
41
1
10
116.736362820602
20
8.86649731036093
30
0
41
1
10
116.092647088623
20
8.86639517948146
30
0
41
1
10
115.388239851889
20
8.86636844837608
30
0
41
1
10
114.646704680031
20
8.86622108163596
30
0
41
1
10
113.955616449266
20
8.86537459192664
30
0
41
1
10
113.411307525778
20
8.86483560931603
30
0
41
1
10
112.926338458409
20
8.86480816322702
30
0
41
1
10
112.42238663391
20
8.86480437584797
30
0
41
1
10
111.819049110789
20
8.86471255962985
30
0
41
1
10
111.381495596079
20
8.8643600755068
30
0
41
1
10
111.140038171495
20
8.86413663003088
30
0
0
SPLINE
5
107
100
AcDbEntity
8
1
62
256
6
ByLayer
370
18
48
1
60
0
100
AcDbSpline
70
4
71
3
72
34
73
30
40
0
40
0
40
0
40
0
40
0.0397720630724661
40
0.0780723513415072
40
0.111622855395397
40
0.142734762656529
40
0.171836107541641
40
0.199072800198288
40
0.22747349383337
40
0.260258304794551
40
0.299711040999661
40
0.341510078105293
40
0.373825975369629
40
0.398829272512293
40
0.424453184775142
40
0.475746433951371
40
0.535267754424654
40
0.583553490752804
40
0.629219163229893
40
0.683623167629565
40
0.737402641068074
40
0.770742297470571
40
0.799420608104371
40
0.833300667089097
40
0.873793234017361
40
0.916170312052036
40
0.951468526057685
40
0.980468365621115
40
1
40
1
40
1
40
1
41
1
10
51.2658107763423
20
-8.82691772081009
30
0
41
1
10
51.476287163971
20
-8.82632271001046
30
0
41
1
10
51.8951142168054
20
-8.82558004046695
30
0
41
1
10
52.5217537467879
20
-8.82258179703433
30
0
41
1
10
53.0926175316344
20
-8.8262460644774
30
0
41
1
10
53.6021126297343
20
-8.82836735801899
30
0
41
1
10
54.0872466455903
20
-8.82896691820656
30
0
41
1
10
54.5604572743959
20
-8.82920622530801
30
0
41
1
10
55.0550451403942
20
-8.82943611842578
30
0
41
1
10
55.6177175722623
20
-8.82963721879054
30
0
41
1
10
56.2553804832669
20
-8.82991350575304
30
0
41
1
10
56.8903644905456
20
-8.83049627591788
30
0
41
1
10
57.4445701459836
20
-8.83101163176923
30
0
41
1
10
57.9083571327286
20
-8.83121349280316
30
0
41
1
10
58.4782525998236
20
-8.83134247102009
30
0
41
1
10
59.2411477026944
20
-8.83143192719629
30
0
41
1
10
60.1308087167671
20
-8.83223317451623
30
0
41
1
10
60.9888384772024
20
-8.83297213190838
30
0
41
1
10
61.8183576698735
20
-8.83317509805906
30
0
41
1
10
62.6785786392699
20
-8.83330163259126
30
0
41
1
10
63.4699887399616
20
-8.83425907768012
30
0
41
1
10
64.117315777393
20
-8.83488309846902
30
0
41
1
10
64.6519002080523
20
-8.83472198018649
30
0
41
1
10
65.2285687876323
20
-8.83462373165366
30
0
41
1
10
65.8810601980653
20
-8.83488122054223
30
0
41
1
10
66.5410613396029
20
-8.83567479218641
30
0
41
1
10
67.1378514762137
20
-8.8364809481543
30
0
41
1
10
67.6060861970183
20
-8.83657863000917
30
0
41
1
10
67.8773663821501
20
-8.83657072989732
30
0
41
1
10
67.9865449208785
20
-8.83654683118164
30
0
0
LINE
5
7B
100
AcDbEntity
8
SK1
62
256
6
ByLayer
370
18
48
1
60
0
100
AcDbLine
10
-47.6
20
-9.089384
30
0
11
-47.6
21
-9.145
31
0
39
0
210
0
220
0
230
1
0
LINE
5
7D
100
AcDbEntity
8
SK1
62
256
6
ByLayer
370
18
48
1
60
0
100
AcDbLine
10
-46.745
20
10
30
0
11
-46.745
21
-10
31
0
39
0
210
0
220
0
230
1
0
LINE
5
7E
100
AcDbEntity
8
SK1
62
256
6
ByLayer
370
13
48
1
60
0
100
AcDbLine
10
-47.7
20
8.97638
30
0
11
-47.7
21
8.846358
31
0
39
0
210
0
220
0
230
1
0
LINE
5
7F
100
AcDbEntity
8
SK1
62
256
6
ByLayer
370
18
48
1
60
0
100
AcDbLine
10
-50
20
6.504911
30
0
11
-50
21
-6.573824
31
0
39
0
210
0
220
0
230
1
0
LINE
5
80
100
AcDbEntity
8
SK1
62
256
6
ByLayer
370
18
48
1
60
0
100
AcDbLine
10
0
20
-10
30
0
11
0
21
10
31
0
39
0
210
0
220
0
230
1
0
LINE
5
81
100
AcDbEntity
8
SK1
62
256
6
ByLayer
370
18
48
1
60
0
100
AcDbLine
10
-47.6
20
9.145
30
0
11
-47.6
21
8.96804
31
0
39
0
210
0
220
0
230
1
0
LINE
5
82
100
AcDbEntity
8
1
62
256
6
ByLayer
370
13
48
1
60
0
100
AcDbLine
10
1.312459
20
9.315841
30
0
11
1.312459
21
-9.315841
31
0
39
0
210
0
220
0
230
1
0
LINE
5
83
100
AcDbEntity
8
1
62
256
6
ByLayer
370
13
48
1
60
0
100
AcDbLine
10
215.644591
20
2.339704
30
0
11
218.9528
21
0.245529
31
0
39
0
210
0
220
0
230
1
0
LINE
5
84
100
AcDbEntity
8
1
62
256
6
ByLayer
370
18
48
1
60
0
100
AcDbLine
10
214.205295
20
-6.572473
30
0
11
218.797024
21
-0.340157
31
0
39
0
210
0
220
0
230
1
0
LINE
5
85
100
AcDbEntity
8
1
62
256
6
ByLayer
370
18
48
1
60
0
100
AcDbLine
10
6
20
-9.318771
30
0
11
6
21
-5.790833
31
0
39
0
210
0
220
0
230
1
0
LINE
5
86
100
AcDbEntity
8
1
62
256
6
ByLayer
370
18
48
1
60
0
100
AcDbLine
10
6
20
9.318771
30
0
11
6
21
8.079934
31
0
39
0
210
0
220
0
230
1
0
LINE
5
87
100
AcDbEntity
8
1
62
256
6
ByLayer
370
18
48
1
60
0
100
AcDbLine
10
0
20
-10
30
0
11
0
21
10
31
0
39
0
210
0
220
0
230
1
0
LINE
5
88
100
AcDbEntity
8
1
62
256
6
ByLayer
370
13
48
1
60
0
100
AcDbLine
10
0.655979
20
9.65792
30
0
11
0.655979
21
-9.65792
31
0
39
0
210
0
220
0
230
1
0
LINE
5
89
100
AcDbEntity
8
1
62
256
6
ByLayer
370
13
48
1
60
0
100
AcDbLine
10
215.499384
20
2.192397
30
0
11
218.974886
21
-0.007679
31
0
39
0
210
0
220
0
230
1
0
LINE
5
8A
100
AcDbEntity
8
80
62
256
6
ByLayer
370
18
48
1
60
0
100
AcDbLine
10
0
20
0
30
0
11
-5
21
0
31
0
39
0
210
0
220
0
230
1
0
LINE
5
8B
100
AcDbEntity
8
4
62
256
6
ByLayer
370
18
48
0.05
60
0
100
AcDbLine
10
219
20
0
30
0
11
0
21
0
31
0
39
0
210
0
220
0
230
1
0
LINE
5
8D
100
AcDbEntity
8
SK4
62
256
6
ByLayer
370
18
48
0.05
60
0
100
AcDbLine
10
224
20
0
30
0
11
-55
21
0
31
0
39
0
210
0
220
0
230
1
0
LINE
5
8F
100
AcDbEntity
8
SK1
62
256
6
ByLayer
370
18
48
1
60
0
100
AcDbLine
10
-47.6
20
-9.145
30
0
11
-46.745
21
-10
31
0
39
0
210
0
220
0
230
1
0
LINE
5
90
100
AcDbEntity
8
SK1
62
256
6
ByLayer
370
18
48
1
60
0
100
AcDbLine
10
-46.745
20
10
30
0
11
-47.6
21
9.145
31
0
39
0
210
0
220
0
230
1
0
LINE
5
91
100
AcDbEntity
8
SK1
62
256
6
ByLayer
370
18
48
1
60
0
100
AcDbLine
10
-46.745
20
-10
30
0
11
0
21
-10
31
0
39
0
210
0
220
0
230
1
0
LINE
5
92
100
AcDbEntity
8
SK1
62
256
6
ByLayer
370
18
48
1
60
0
100
AcDbLine
10
0
20
10
30
0
11
-46.745
21
10
31
0
39
0
210
0
220
0
230
1
0
LINE
5
93
100
AcDbEntity
8
1
62
256
6
ByLayer
370
18
48
1
60
0
100
AcDbLine
10
1.312459
20
-9.315841
30
0
11
6
21
-9.318771
31
0
39
0
210
0
220
0
230
1
0
LINE
5
94
100
AcDbEntity
8
1
62
256
6
ByLayer
370
18
48
1
60
0
100
AcDbLine
10
48.64527
20
-9.345424
30
0
11
51.091351
21
-9.346953
31
0
39
0
210
0
220
0
230
1
0
LINE
5
95
100
AcDbEntity
8
1
62
256
6
ByLayer
370
18
48
1
60
0
100
AcDbLine
10
103.050524
20
-9.379427
30
0
11
105.491522
21
-9.380953
31
0
39
0
210
0
220
0
230
1
0
LINE
5
96
100
AcDbEntity
8
1
62
256
6
ByLayer
370
18
48
1
60
0
100
AcDbLine
10
157.454433
20
-9.41343
30
0
11
159.891919
21
-9.414953
31
0
39
0
210
0
220
0
230
1
0
LINE
5
97
100
AcDbEntity
8
1
62
256
6
ByLayer
370
18
48
1
60
0
100
AcDbLine
10
211.864411
20
-9.447436
30
0
11
214.29316
21
-9.448954
31
0
39
0
210
0
220
0
230
1
0
LINE
5
98
100
AcDbEntity
8
1
62
256
6
ByLayer
370
18
48
1
60
0
100
AcDbLine
10
214.2931
20
9.448954
30
0
11
211.864411
21
9.447436
31
0
39
0
210
0
220
0
230
1
0
LINE
5
99
100
AcDbEntity
8
1
62
256
6
ByLayer
370
18
48
1
60
0
100
AcDbLine
10
159.892272
20
9.414953
30
0
11
157.454433
21
9.41343
31
0
39
0
210
0
220
0
230
1
0
LINE
5
9A
100
AcDbEntity
8
1
62
256
6
ByLayer
370
18
48
1
60
0
100
AcDbLine
10
105.491293
20
9.380953
30
0
11
103.050524
21
9.379427
31
0
39
0
210
0
220
0
230
1
0
LINE
5
9B
100
AcDbEntity
8
1
62
256
6
ByLayer
370
18
48
1
60
0
100
AcDbLine
10
51.091074
20
9.346953
30
0
11
48.64527
21
9.345424
31
0
39
0
210
0
220
0
230
1
0
LINE
5
9C
100
AcDbEntity
8
1
62
256
6
ByLayer
370
18
48
1
60
0
100
AcDbLine
10
6
20
9.318771
30
0
11
1.312459
21
9.315841
31
0
39
0
210
0
220
0
230
1
0
LINE
5
9D
100
AcDbEntity
8
81
62
256
6
ByLayer
370
18
48
1
60
0
100
AcDbLine
10
219
20
0
30
0
11
224
21
0
31
0
39
0
210
0
220
0
230
1
0
LINE
5
9E
100
AcDbEntity
8
SK2
62
256
6
ByLayer
370
13
48
1
60
0
100
AcDbLine
10
-58.625163
20
-10
30
0
11
-58.625163
21
41.732039
31
0
39
0
210
0
220
0
230
1
0
LINE
5
A0
100
AcDbEntity
8
SK2
62
256
6
ByLayer
370
13
48
1
60
0
100
AcDbLine
10
-51.5875
20
10
30
0
11
-60.625163
21
10
31
0
39
0
210
0
220
0
230
1
0
LINE
5
A1
100
AcDbEntity
8
SK2
62
256
6
ByLayer
370
13
48
1
60
0
100
AcDbLine
10
-51.5875
20
-10
30
0
11
-60.625163
21
-10
31
0
39
0
210
0
220
0
230
1
0
LINE
5
A2
100
AcDbEntity
8
1
62
256
6
ByLayer
370
18
48
1
60
1
100
AcDbLine
10
-58.625163
20
10
30
0
11
-58.164379
21
6.500002
31
0
39
0
210
0
220
0
230
1
0
LINE
5
A3
100
AcDbEntity
8
1
62
256
6
ByLayer
370
18
48
1
60
1
100
AcDbLine
10
-58.164379
20
6.500002
30
0
11
-59.085946
21
6.499998
31
0
39
0
210
0
220
0
230
1
0
LINE
5
A4
100
AcDbEntity
8
1
62
256
6
ByLayer
370
18
48
1
60
1
100
AcDbLine
10
-59.085946
20
6.499998
30
0
11
-58.625163
21
10
31
0
39
0
210
0
220
0
230
1
0
LINE
5
A5
100
AcDbEntity
8
1
62
256
6
ByLayer
370
18
48
1
60
1
100
AcDbLine
10
-58.625163
20
-10
30
0
11
-59.085946
21
-6.500002
31
0
39
0
210
0
220
0
230
1
0
LINE
5
A6
100
AcDbEntity
8
1
62
256
6
ByLayer
370
18
48
1
60
1
100
AcDbLine
10
-59.085946
20
-6.500002
30
0
11
-58.164379
21
-6.499998
31
0
39
0
210
0
220
0
230
1
0
LINE
5
A7
100
AcDbEntity
8
1
62
256
6
ByLayer
370
18
48
1
60
1
100
AcDbLine
10
-58.164379
20
-6.499998
30
0
11
-58.625163
21
-10
31
0
39
0
210
0
220
0
230
1
0
LINE
5
A8
100
AcDbEntity
8
2
62
256
6
ByLayer
370
13
48
1
60
0
100
AcDbLine
10
231.083343
20
-9.45
30
0
11
231.083343
21
38.900259
31
0
39
0
210
0
220
0
230
1
0
LINE
5
AA
100
AcDbEntity
8
2
62
256
6
ByLayer
370
13
48
1
60
0
100
AcDbLine
10
217.7623
20
9.45
30
0
11
233.083343
21
9.45
31
0
39
0
210
0
220
0
230
1
0
LINE
5
AB
100
AcDbEntity
8
2
62
256
6
ByLayer
370
13
48
1
60
0
100
AcDbLine
10
217.7623
20
-9.45
30
0
11
233.083343
21
-9.45
31
0
39
0
210
0
220
0
230
1
0
LINE
5
AC
100
AcDbEntity
8
1
62
256
6
ByLayer
370
18
48
1
60
1
100
AcDbLine
10
231.083343
20
9.45
30
0
11
231.544126
21
5.950002
31
0
39
0
210
0
220
0
230
1
0
LINE
5
AD
100
AcDbEntity
8
1
62
256
6
ByLayer
370
18
48
1
60
1
100
AcDbLine
10
231.544126
20
5.950002
30
0
11
230.622559
21
5.949998
31
0
39
0
210
0
220
0
230
1
0
LINE
5
AE
100
AcDbEntity
8
1
62
256
6
ByLayer
370
18
48
1
60
1
100
AcDbLine
10
230.622559
20
5.949998
30
0
11
231.083343
21
9.45
31
0
39
0
210
0
220
0
230
1
0
LINE
5
AF
100
AcDbEntity
8
1
62
256
6
ByLayer
370
18
48
1
60
1
100
AcDbLine
10
231.083343
20
-9.45
30
0
11
230.622559
21
-5.950002
31
0
39
0
210
0
220
0
230
1
0
LINE
5
B0
100
AcDbEntity
8
1
62
256
6
ByLayer
370
18
48
1
60
1
100
AcDbLine
10
230.622559
20
-5.950002
30
0
11
231.544126
21
-5.949998
31
0
39
0
210
0
220
0
230
1
0
LINE
5
B1
100
AcDbEntity
8
1
62
256
6
ByLayer
370
18
48
1
60
1
100
AcDbLine
10
231.544126
20
-5.949998
30
0
11
231.083343
21
-9.45
31
0
39
0
210
0
220
0
230
1
0
LINE
5
10E
100
AcDbEntity
8
1
62
256
6
ByLayer
370
18
48
1
60
1
100
AcDbLine
10
-58.625163
20
10
30
0
11
-58.164379
21
6.500002
31
0
39
0
210
0
220
0
230
1
0
LINE
5
10F
100
AcDbEntity
8
1
62
256
6
ByLayer
370
18
48
1
60
1
100
AcDbLine
10
-58.164379
20
6.500002
30
0
11
-59.085946
21
6.499998
31
0
39
0
210
0
220
0
230
1
0
LINE
5
110
100
AcDbEntity
8
1
62
256
6
ByLayer
370
18
48
1
60
1
100
AcDbLine
10
-59.085946
20
6.499998
30
0
11
-58.625163
21
10
31
0
39
0
210
0
220
0
230
1
0
LINE
5
112
100
AcDbEntity
8
1
62
256
6
ByLayer
370
18
48
1
60
1
100
AcDbLine
10
-58.625163
20
-10
30
0
11
-59.085946
21
-6.500002
31
0
39
0
210
0
220
0
230
1
0
LINE
5
113
100
AcDbEntity
8
1
62
256
6
ByLayer
370
18
48
1
60
1
100
AcDbLine
10
-59.085946
20
-6.500002
30
0
11
-58.164379
21
-6.499998
31
0
39
0
210
0
220
0
230
1
0
LINE
5
114
100
AcDbEntity
8
1
62
256
6
ByLayer
370
18
48
1
60
1
100
AcDbLine
10
-58.164379
20
-6.499998
30
0
11
-58.625163
21
-10
31
0
39
0
210
0
220
0
230
1
0
LINE
5
118
100
AcDbEntity
8
1
62
256
6
ByLayer
370
18
48
1
60
1
100
AcDbLine
10
231.083343
20
9.45
30
0
11
231.544126
21
5.950002
31
0
39
0
210
0
220
0
230
1
0
LINE
5
119
100
AcDbEntity
8
1
62
256
6
ByLayer
370
18
48
1
60
1
100
AcDbLine
10
231.544126
20
5.950002
30
0
11
230.622559
21
5.949998
31
0
39
0
210
0
220
0
230
1
0
LINE
5
11A
100
AcDbEntity
8
1
62
256
6
ByLayer
370
18
48
1
60
1
100
AcDbLine
10
230.622559
20
5.949998
30
0
11
231.083343
21
9.45
31
0
39
0
210
0
220
0
230
1
0
LINE
5
11C
100
AcDbEntity
8
1
62
256
6
ByLayer
370
18
48
1
60
1
100
AcDbLine
10
231.083343
20
-9.45
30
0
11
230.622559
21
-5.950002
31
0
39
0
210
0
220
0
230
1
0
LINE
5
11D
100
AcDbEntity
8
1
62
256
6
ByLayer
370
18
48
1
60
1
100
AcDbLine
10
230.622559
20
-5.950002
30
0
11
231.544126
21
-5.949998
31
0
39
0
210
0
220
0
230
1
0
LINE
5
11E
100
AcDbEntity
8
1
62
256
6
ByLayer
370
18
48
1
60
1
100
AcDbLine
10
231.544126
20
-5.949998
30
0
11
231.083343
21
-9.45
31
0
39
0
210
0
220
0
230
1
0
MTEXT
5
108
100
AcDbEntity
8
SK6
62
256
6
ByLayer
370
13
48
1
60
0
100
AcDbMText
10
56.229673
20
41.990328
30
0
210
0
220
0
230
1
1
\W0.7456;462.1-1890-139A1-XM X2BM
40
3.5
41
0
44
1.084337
50
0
71
7
72
5
7
iso_b_vert
0
MTEXT
5
10C
100
AcDbEntity
8
SK2
62
256
6
ByLayer
370
18
48
1
60
0
100
AcDbMText
10
-60.189796
20
23.409024
30
0
210
0
220
0
230
1
1
%%c
40
3.5
41
0
44
1.084337
50
90
71
7
72
5
7
iso_b_vert
0
MTEXT
5
10D
100
AcDbEntity
8
SK2
62
256
6
ByLayer
370
18
48
1
60
0
100
AcDbMText
10
-60.189796
20
28.63168
30
0
210
0
220
0
230
1
1
\W0.7421;20,000
40
3.5
41
0
44
1.084337
50
90
71
7
72
5
7
iso_b_vert
0
MTEXT
5
116
100
AcDbEntity
8
2
62
256
6
ByLayer
370
18
48
1
60
0
100
AcDbMText
10
229.518709
20
21.45211
30
0
210
0
220
0
230
1
1
%%c
40
3.5
41
0
44
1.084337
50
90
71
7
72
5
7
iso_b_vert
0
MTEXT
5
117
100
AcDbEntity
8
2
62
256
6
ByLayer
370
18
48
1
60
0
100
AcDbMText
10
229.518709
20
26.674766
30
0
210
0
220
0
230
1
1
\W0.6930;18,900
40
3.5
41
0
44
1.084337
50
90
71
7
72
5
7
iso_b_vert
0
HATCH
5
111
100
AcDbEntity
8
SK2
62
256
6
ByLayer
370
13
48
1
60
0
100
AcDbHatch
10
0
20
0
30
0
210
0
220
0
230
1
2
ANSI31
70
0
71
0
91
1
92
5
93
3
72
1
10
-58.6251625675374
20
10
11
-58.1643788259847
21
6.50000169255318
72
1
10
-58.1643788259847
20
6.50000169255318
11
-59.0859463090902
21
6.49999830744682
72
1
10
-59.0859463090902
20
6.49999830744682
11
-58.6251625675374
21
10
97
0
75
0
76
1
52
0
41
0.0062
77
0
78
1
53
45
43
0
44
0
45
-0.0139193969876572
46
0.0139193969876572
79
0
47
0
98
1
10
0
20
0
0
HATCH
5
115
100
AcDbEntity
8
SK2
62
256
6
ByLayer
370
13
48
1
60
0
100
AcDbHatch
10
0
20
0
30
0
210
0
220
0
230
1
2
ANSI31
70
0
71
0
91
1
92
5
93
3
72
1
10
-58.6251625675374
20
-10
11
-59.0859463090902
21
-6.50000169255318
72
1
10
-59.0859463090902
20
-6.50000169255318
11
-58.1643788259847
21
-6.49999830744682
72
1
10
-58.1643788259847
20
-6.49999830744682
11
-58.6251625675374
21
-10
97
0
75
0
76
1
52
0
41
0.0062
77
0
78
1
53
45
43
0
44
0
45
-0.0139193969876572
46
0.0139193969876572
79
0
47
0
98
1
10
0
20
0
0
HATCH
5
11B
100
AcDbEntity
8
2
62
256
6
ByLayer
370
13
48
1
60
0
100
AcDbHatch
10
0
20
0
30
0
210
0
220
0
230
1
2
ANSI31
70
0
71
0
91
1
92
5
93
3
72
1
10
231.083342615295
20
9.45000000000002
11
231.544126356848
21
5.9500016925532
72
1
10
231.544126356848
20
5.9500016925532
11
230.622558873742
21
5.94999830744683
72
1
10
230.622558873742
20
5.94999830744683
11
231.083342615295
21
9.45000000000002
97
0
75
0
76
1
52
0
41
0.0062
77
0
78
1
53
45
43
0
44
0
45
-0.0139193969876572
46
0.0139193969876572
79
0
47
0
98
1
10
0
20
0
0
HATCH
5
11F
100
AcDbEntity
8
2
62
256
6
ByLayer
370
13
48
1
60
0
100
AcDbHatch
10
0
20
0
30
0
210
0
220
0
230
1
2
ANSI31
70
0
71
0
91
1
92
5
93
3
72
1
10
231.083342615295
20
-9.44999999999999
11
230.622558873742
21
-5.95000169255317
72
1
10
230.622558873742
20
-5.95000169255317
11
231.544126356848
21
-5.9499983074468
72
1
10
231.544126356848
20
-5.9499983074468
11
231.083342615295
21
-9.44999999999999
97
0
75
0
76
1
52
0
41
0.0062
77
0
78
1
53
45
43
0
44
0
45
-0.0139193969876572
46
0.0139193969876572
79
0
47
0
98
1
10
0
20
0
0
DIMENSION
5
121
100
AcDbEntity
8
SK2
62
256
6
ByLayer
370
13
48
1
60
0
100
AcDbDimension
2
_U0
10
216.1748
20
-19.663398
30
0
11
108.0874
21
-19.663398
31
0
70
32
71
1
72
1
41
1
210
0
220
0
230
1
3
Standard
100
AcDbAlignedDimension
13
0
23
0
33
0
14
216.1748
24
-9.45
34
0
50
0
100
AcDbRotatedDimension
1001
ACAD
1000
DSTYLE
1002
{
1070
   371
1070
    13
1070
   372
1070
    13
1070
   170
1070
     0
1070
   144
1040
1.0
1070
   277
1070
     2
1070
   278
1070
    44
1070
   146
1040
1.0
1070
   345
1005
16
1070
   347
1005
16
1070
   346
1005
16
1070
   344
1005
0
1070
   343
1005
0
1070
   172
1070
     1
1070
    76
1070
     0
1070
    75
1070
     0
1070
   282
1070
     0
1070
   281
1070
     0
1070
    71
1070
     0
1070
    74
1070
     0
1070
   279
1070
     0
1070
   173
1070
     1
1070
   340
1005
109
1070
   271
1070
     2
1070
   272
1070
     2
1070
    77
1070
     1
1070
    73
1070
     1
1070
   171
1070
     3
1070
   274
1070
     4
1070
   177
1070
    35
1070
   176
1070
    35
1070
   178
1070
    35
1070
    48
1040
-0.1
1070
    41
1040
3.5
1070
   147
1040
1.75
1070
    42
1040
1.5875
1070
    44
1040
2.0
1070
   140
1040
3.5
1002
}
1001
ACAD_DSTYLE_DIM_LINETYPE
1070
   380
1005
16
1001
ACAD_DSTYLE_DIM_EXT1_LINETYPE
1070
   381
1005
16
1001
ACAD_DSTYLE_DIM_EXT2_LINETYPE
1070
   382
1005
16
0
DIMENSION
5
13A
100
AcDbEntity
8
SK2
62
256
6
ByLayer
370
13
48
1
60
0
100
AcDbDimension
2
_U1
10
219
20
-38.692985
30
0
11
84.5
21
-38.692985
31
0
70
32
71
1
72
1
41
1
210
0
220
0
230
1
3
Standard
100
AcDbAlignedDimension
13
-50
23
-10
33
0
14
219
24
0
34
0
50
0
100
AcDbRotatedDimension
1001
ACAD
1000
DSTYLE
1002
{
1070
   371
1070
    13
1070
   372
1070
    13
1070
   170
1070
     0
1070
   144
1040
1.0
1070
   277
1070
     2
1070
   278
1070
    44
1070
   146
1040
1.0
1070
   345
1005
16
1070
   347
1005
16
1070
   346
1005
16
1070
   344
1005
0
1070
   343
1005
0
1070
   172
1070
     1
1070
    76
1070
     0
1070
    75
1070
     0
1070
   282
1070
     0
1070
   281
1070
     0
1070
    71
1070
     0
1070
    74
1070
     0
1070
   279
1070
     0
1070
   173
1070
     1
1070
   340
1005
109
1070
   271
1070
     2
1070
   272
1070
     2
1070
    77
1070
     1
1070
    73
1070
     1
1070
   171
1070
     3
1070
   274
1070
     4
1070
   177
1070
    35
1070
   176
1070
    35
1070
   178
1070
    35
1070
    48
1040
-0.1
1070
    41
1040
3.5
1070
   147
1040
1.75
1070
    42
1040
1.5875
1070
    44
1040
2.0
1070
   140
1040
3.5
1002
}
1001
ACAD_DSTYLE_DIM_LINETYPE
1070
   380
1005
16
1001
ACAD_DSTYLE_DIM_EXT1_LINETYPE
1070
   381
1005
16
1001
ACAD_DSTYLE_DIM_EXT2_LINETYPE
1070
   382
1005
16
0
DIMENSION
5
152
100
AcDbEntity
8
SK2
62
256
6
ByLayer
370
13
48
1
60
0
100
AcDbDimension
2
_U2
10
219
20
21.059119
30
0
11
141.985
21
21.059119
31
0
70
32
71
1
72
1
41
1
210
0
220
0
230
1
3
Standard
100
AcDbAlignedDimension
13
64.97
23
9.45
33
0
14
219
24
0
34
0
50
0
100
AcDbRotatedDimension
1001
ACAD
1000
DSTYLE
1002
{
1070
   371
1070
    13
1070
   372
1070
    13
1070
   170
1070
     0
1070
   144
1040
1.0
1070
   277
1070
     2
1070
   278
1070
    44
1070
   146
1040
1.0
1070
   345
1005
16
1070
   347
1005
16
1070
   346
1005
16
1070
   344
1005
0
1070
   343
1005
0
1070
   172
1070
     1
1070
    76
1070
     0
1070
    75
1070
     0
1070
   282
1070
     0
1070
   281
1070
     0
1070
    71
1070
     0
1070
    74
1070
     0
1070
   279
1070
     0
1070
   173
1070
     1
1070
   340
1005
109
1070
   271
1070
     2
1070
   272
1070
     2
1070
    77
1070
     1
1070
    73
1070
     1
1070
   171
1070
     3
1070
   274
1070
     4
1070
   177
1070
    35
1070
   176
1070
    35
1070
   178
1070
    35
1070
    48
1040
-0.1
1070
    41
1040
3.5
1070
   147
1040
1.75
1070
    42
1040
1.5875
1070
    44
1040
2.0
1070
   140
1040
3.5
1002
}
1001
ACAD_DSTYLE_DIM_LINETYPE
1070
   380
1005
16
1001
ACAD_DSTYLE_DIM_EXT1_LINETYPE
1070
   381
1005
16
1001
ACAD_DSTYLE_DIM_EXT2_LINETYPE
1070
   382
1005
16
0
DIMENSION
5
16A
100
AcDbEntity
8
SK2
62
256
6
ByLayer
370
13
48
1
60
0
100
AcDbDimension
2
_U3
10
216.1748
20
-22.252503
30
0
11
236.583333
21
-22.252503
31
0
70
32
71
1
72
1
41
1
210
0
220
0
230
1
3
Standard
100
AcDbAlignedDimension
13
219
23
0
33
0
14
216.1748
24
-9.45
34
0
50
0
100
AcDbRotatedDimension
1001
ACAD
1000
DSTYLE
1002
{
1070
   371
1070
    13
1070
   372
1070
    13
1070
   170
1070
     0
1070
   144
1040
1.0
1070
   277
1070
     2
1070
   278
1070
    44
1070
   146
1040
1.0
1070
   345
1005
16
1070
   347
1005
16
1070
   346
1005
16
1070
   344
1005
0
1070
   343
1005
0
1070
   172
1070
     1
1070
    76
1070
     0
1070
    75
1070
     0
1070
   282
1070
     0
1070
   281
1070
     0
1070
    71
1070
     0
1070
    74
1070
     0
1070
   279
1070
     0
1070
   173
1070
     1
1070
   340
1005
109
1070
   271
1070
     2
1070
   272
1070
     2
1070
    77
1070
     1
1070
    73
1070
     1
1070
   171
1070
     3
1070
   274
1070
     4
1070
   177
1070
    35
1070
   176
1070
    35
1070
   178
1070
    35
1070
    48
1040
-0.1
1070
    41
1040
3.5
1070
   147
1040
1.75
1070
    42
1040
1.5875
1070
    44
1040
2.0
1070
   140
1040
3.5
1002
}
1001
ACAD_DSTYLE_DIM_LINETYPE
1070
   380
1005
16
1001
ACAD_DSTYLE_DIM_EXT1_LINETYPE
1070
   381
1005
16
1001
ACAD_DSTYLE_DIM_EXT2_LINETYPE
1070
   382
1005
16
0
DIMENSION
5
184
100
AcDbEntity
8
SK2
62
256
6
ByLayer
370
13
48
1
60
0
100
AcDbDimension
2
_U4
10
216.1748
20
-28.343428
30
0
11
83.0874
21
-28.343428
31
0
70
32
71
1
72
1
41
1
210
0
220
0
230
1
3
Standard
100
AcDbAlignedDimension
13
-50
23
-10
33
0
14
216.1748
24
-9.45
34
0
50
0
100
AcDbRotatedDimension
1001
ACAD
1000
DSTYLE
1002
{
1070
   371
1070
    13
1070
   372
1070
    13
1070
   170
1070
     0
1070
   144
1040
1.0
1070
   277
1070
     2
1070
   278
1070
    44
1070
   146
1040
1.0
1070
   345
1005
16
1070
   347
1005
16
1070
   346
1005
16
1070
   344
1005
0
1070
   343
1005
0
1070
   172
1070
     1
1070
    76
1070
     0
1070
    75
1070
     0
1070
   282
1070
     0
1070
   281
1070
     0
1070
    71
1070
     0
1070
    74
1070
     0
1070
   279
1070
     0
1070
   173
1070
     1
1070
   340
1005
109
1070
   271
1070
     2
1070
   272
1070
     2
1070
    77
1070
     1
1070
    73
1070
     1
1070
   171
1070
     3
1070
   274
1070
     4
1070
   177
1070
    35
1070
   176
1070
    35
1070
   178
1070
    35
1070
    48
1040
-0.1
1070
    41
1040
3.5
1070
   147
1040
1.75
1070
    42
1040
1.5875
1070
    44
1040
2.0
1070
   140
1040
3.5
1002
}
1001
ACAD_DSTYLE_DIM_LINETYPE
1070
   380
1005
16
1001
ACAD_DSTYLE_DIM_EXT1_LINETYPE
1070
   381
1005
16
1001
ACAD_DSTYLE_DIM_EXT2_LINETYPE
1070
   382
1005
16
0
ENDSEC
0
SECTION
2
OBJECTS
0
DICTIONARY
5
20c
330
0
100
AcDbDictionary
280
0
281
1
3
ACAD_GROUP
350
20d
3
ACAD_MLINESTYLE
350
20e
0
DICTIONARY
5
20d
330
0
100
AcDbDictionary
280
0
281
1
0
DICTIONARY
5
20e
330
0
100
AcDbDictionary
280
0
281
1
3
Standard
350
18
0
MLINESTYLE
5
18
330
20e
100
AcDbMlineStyle
2
Standard
70
0
3

62
256
51
90
52
90
71
2
49
-0.5
62
256
6
ByLayer
49
0.5
62
256
6
ByLayer
0
RASTERVARIABLES
5
1fa
330

100
AcDbRasterVariables
90
0
70
1
71
1
72
1
0
ENDSEC
0
EOF
