0
SECTION
2
HEADER
9
$ACADVER
1
AC1015
9
$DWGCODEPAGE
3
ANSI_1252
9
$HANDSEED
5
223
9
$ANGBASE
50
0
9
$ANGDIR
70
0
9
$ATTMODE
70
1
9
$AUNITS
70
0
9
$AUPREC
70
0
9
$CECOLOR
62
256
9
$CELTSCALE
40
1
9
$CELTYPE
6
ByLayer
9
$CELWEIGHT
370
18
9
$CLAYER
8
0
9
$CMLJUST
70
0
9
$CMLSCALE
40
1
9
$CMLSTYLE
2
Standard
9
$DIMSTYLE
2
Standard
9
$TEXTSIZE
40
0.2
9
$TEXTSTYLE
7
Standard
9
$LUNITS
70
2
9
$LUPREC
70
4
9
$EXTNAMES
290
1
9
$INSUNITS
70
4
9
$LTSCALE
40
1
9
$LWDISPLAY
290
1
9
$PDMODE
70
0
9
$PDSIZE
40
0
9
$PLINEGEN
70
0
0
ENDSEC
0
SECTION
2
CLASSES
0
CLASS
1
RASTERVARIABLES
2
AcDbRasterVariables
3
ISM
90
0
280
0
281
0
0
ENDSEC
0
SECTION
2
TABLES
0
TABLE
2
VPORT
5
219
100
AcDbSymbolTable
0
VPORT
5
1
100
AcDbSymbolTableRecord
100
AcDbViewportTableRecord
2
*Active
70
0
10
0
20
0
11
1
21
1
12
-1
22
1
13
0
23
0
14
0.5
24
0.5
15
10
25
10
16
0
26
0
36
1
17
0
27
0
37
0
0
ENDTAB
0
TABLE
2
LTYPE
5
21a
100
AcDbSymbolTable
0
LTYPE
5
14
100
AcDbSymbolTableRecord
100
AcDbLinetypeTableRecord
70
0
2
ByBlock
3

72
65
73
0
40
0
0
LTYPE
5
15
100
AcDbSymbolTableRecord
100
AcDbLinetypeTableRecord
70
0
2
ByLayer
3

72
65
73
0
40
0
0
LTYPE
5
16
100
AcDbSymbolTableRecord
100
AcDbLinetypeTableRecord
70
0
2
Continuous
3
Solid line
72
65
73
0
40
0
0
LTYPE
5
6E
100
AcDbSymbolTableRecord
100
AcDbLinetypeTableRecord
70
0
2
CENTER
3
____ _ ____ _ ____ _ ____
72
65
73
4
40
47.5
49
22
74
0
49
-8.5
74
0
49
8.5
74
0
49
-8.5
74
0
0
LTYPE
5
6F
100
AcDbSymbolTableRecord
100
AcDbLinetypeTableRecord
70
0
2
DASHED
3
__ __ __ __ __ __ __ __ __
72
65
73
2
40
25.72
49
12.86
74
0
49
-12.86
74
0
0
ENDTAB
0
TABLE
2
LAYER
5
21b
100
AcDbSymbolTable
0
LAYER
5
10
100
AcDbSymbolTableRecord
100
AcDbLayerTableRecord
2
0
70
0
62
7
6
Continuous
290
1
370
-3
390
0
0
LAYER
5
71
100
AcDbSymbolTableRecord
100
AcDbLayerTableRecord
2
80
70
0
62
-6
6
Continuous
290
1
370
-3
390
0
0
LAYER
5
73
100
AcDbSymbolTableRecord
100
AcDbLayerTableRecord
2
81
70
0
62
-3
6
Continuous
290
1
370
-3
390
0
0
LAYER
5
75
100
AcDbSymbolTableRecord
100
AcDbLayerTableRecord
2
1
70
0
62
4
6
Continuous
290
1
370
-3
390
0
0
LAYER
5
8B
100
AcDbSymbolTableRecord
100
AcDbLayerTableRecord
2
4
70
0
62
-2
6
CENTER
290
1
370
-3
390
0
0
LAYER
5
AC
100
AcDbSymbolTableRecord
100
AcDbLayerTableRecord
2
2
70
0
62
7
6
Continuous
290
1
370
-3
390
0
0
LAYER
5
12E
100
AcDbSymbolTableRecord
100
AcDbLayerTableRecord
2
Defpoints
70
0
62
7
6
Continuous
290
0
370
-3
390
0
0
LAYER
5
205
100
AcDbSymbolTableRecord
100
AcDbLayerTableRecord
2
SK1
70
0
62
4
6
Continuous
290
1
370
-3
390
0
0
LAYER
5
206
100
AcDbSymbolTableRecord
100
AcDbLayerTableRecord
2
SK4
70
0
62
2
6
CENTER
290
1
370
-3
390
0
0
LAYER
5
207
100
AcDbSymbolTableRecord
100
AcDbLayerTableRecord
2
SK2
70
0
62
7
6
Continuous
290
1
370
-3
390
0
0
LAYER
5
208
100
AcDbSymbolTableRecord
100
AcDbLayerTableRecord
2
SK6
70
0
62
5
6
Continuous
290
1
370
-3
390
0
0
ENDTAB
0
TABLE
2
STYLE
5
21c
100
AcDbSymbolTable
0
STYLE
5
11
100
AcDbSymbolTableRecord
100
AcDbTextStyleTableRecord
2
Standard
3
txt
70
0
71
0
40
0
41
1
42
0
50
0
0
STYLE
5
113
100
AcDbSymbolTableRecord
100
AcDbTextStyleTableRecord
2
iso_b_vert
3
simplex.shx
70
0
71
0
40
0
41
1
42
0
50
0
0
STYLE
5
114
100
AcDbSymbolTableRecord
100
AcDbTextStyleTableRecord
2
DWGDirectTextStyle
3
simplex
70
0
71
0
40
0
41
1
42
0
50
0
0
ENDTAB
0
TABLE
2
DIMSTYLE
5
21d
100
AcDbSymbolTable
100
AcDbDimStyleTable
0
DIMSTYLE
105
27
100
AcDbSymbolTableRecord
100
AcDbDimStyleTableRecord
2
Standard
70
0
3
<>
41
0.18
42
0.0625
44
0.18
140
0.18
147
0.09
73
0
74
0
77
1
271
2
275
0
278
52
280
0
340
11
0
ENDTAB
0
TABLE
2
VIEW
5
21e
100
AcDbSymbolTable
0
ENDTAB
0
TABLE
2
UCS
5
21f
100
AcDbSymbolTable
0
ENDTAB
0
TABLE
2
APPID
5
220
100
AcDbSymbolTable
0
APPID
5
12
100
AcDbSymbolTableRecord
100
AcDbRegAppTableRecord
2
ACAD
70
0
0
APPID
5
12A
100
AcDbSymbolTableRecord
100
AcDbRegAppTableRecord
2
ACAD_DSTYLE_DIMBREAK
70
0
0
APPID
5
1C4
100
AcDbSymbolTableRecord
100
AcDbRegAppTableRecord
2
ACAD_DSTYLE_DIM_LINETYPE
70
0
0
APPID
5
1C5
100
AcDbSymbolTableRecord
100
AcDbRegAppTableRecord
2
ACAD_DSTYLE_DIM_EXT1_LINETYPE
70
0
0
APPID
5
1C6
100
AcDbSymbolTableRecord
100
AcDbRegAppTableRecord
2
ACAD_DSTYLE_DIM_EXT2_LINETYPE
70
0
0
APPID
5
201
100
AcDbSymbolTableRecord
100
AcDbRegAppTableRecord
2
ACAD_MLEADERVER
70
0
0
ENDTAB
0
TABLE
2
BLOCK_RECORD
5
221
100
AcDbSymbolTable
0
BLOCK_RECORD
5
1F
100
AcDbSymbolTableRecord
100
AcDbBlockTableRecord
2
*Model_Space
340
0
70
0
0
BLOCK_RECORD
5
1B
100
AcDbSymbolTableRecord
100
AcDbBlockTableRecord
2
*Paper_Space
340
0
70
0
0
BLOCK_RECORD
5
23
100
AcDbSymbolTableRecord
100
AcDbBlockTableRecord
2
*Paper_Space0
340
0
70
0
0
BLOCK_RECORD
5
12F
100
AcDbSymbolTableRecord
100
AcDbBlockTableRecord
2
*D1
340
0
70
0
0
BLOCK_RECORD
5
13B
100
AcDbSymbolTableRecord
100
AcDbBlockTableRecord
2
_U0
340
0
70
0
0
BLOCK_RECORD
5
147
100
AcDbSymbolTableRecord
100
AcDbBlockTableRecord
2
*D3
340
0
70
0
0
BLOCK_RECORD
5
153
100
AcDbSymbolTableRecord
100
AcDbBlockTableRecord
2
_U1
340
0
70
0
0
BLOCK_RECORD
5
15F
100
AcDbSymbolTableRecord
100
AcDbBlockTableRecord
2
*D5
340
0
70
0
0
BLOCK_RECORD
5
16B
100
AcDbSymbolTableRecord
100
AcDbBlockTableRecord
2
_U2
340
0
70
0
0
BLOCK_RECORD
5
177
100
AcDbSymbolTableRecord
100
AcDbBlockTableRecord
2
*D7
340
0
70
0
0
BLOCK_RECORD
5
185
100
AcDbSymbolTableRecord
100
AcDbBlockTableRecord
2
_U3
340
0
70
0
0
BLOCK_RECORD
5
191
100
AcDbSymbolTableRecord
100
AcDbBlockTableRecord
2
*D9
340
0
70
0
0
BLOCK_RECORD
5
19D
100
AcDbSymbolTableRecord
100
AcDbBlockTableRecord
2
_U4
340
0
70
0
0
ENDTAB
0
ENDSEC
0
SECTION
2
BLOCKS
0
BLOCK
5
20
100
AcDbEntity
8
0
100
AcDbBlockBegin
2
*Model_Space
70
0
10
0
20
0
30
0
3
*Model_Space
0
ENDBLK
5
21
100
AcDbEntity
8
0
100
AcDbBlockEnd
0
BLOCK
5
1C
100
AcDbEntity
8
0
100
AcDbBlockBegin
2
*Paper_Space
70
0
10
0
20
0
30
0
3
*Paper_Space
0
ENDBLK
5
1D
100
AcDbEntity
8
0
100
AcDbBlockEnd
0
BLOCK
5
24
100
AcDbEntity
8
0
100
AcDbBlockBegin
2
*Paper_Space0
70
0
10
0
20
0
30
0
3
*Paper_Space0
0
ENDBLK
5
25
100
AcDbEntity
8
0
100
AcDbBlockEnd
0
BLOCK
5
130
100
AcDbEntity
8
0
100
AcDbBlockBegin
2
*D1
70
1
10
0
20
0
30
0
3
*D1
0
LINE
5
132
100
AcDbEntity
8
0
62
256
6
ByLayer
370
-2
48
1
60
0
100
AcDbLine
10
0
20
-1.5875
30
0
11
0
21
-17.113398
31
0
39
0
210
0
220
0
230
1
0
LINE
5
133
100
AcDbEntity
8
0
62
256
6
ByLayer
370
-2
48
1
60
0
100
AcDbLine
10
110.5461
20
-6.4875
30
0
11
110.5461
21
-17.113398
31
0
39
0
210
0
220
0
230
1
0
LINE
5
134
100
AcDbEntity
8
0
62
256
6
ByLayer
370
-2
48
1
60
0
100
AcDbLine
10
3.5
20
-15.113398
30
0
11
107.0461
21
-15.113398
31
0
39
0
210
0
220
0
230
1
0
SOLID
5
135
100
AcDbEntity
8
0
62
256
6
ByLayer
370
-1
48
1
60
0
100
AcDbTrace
10
3.5
20
-14.530065
30
0
11
3.5
21
-15.696732
31
0
12
0
22
-15.113398
32
0
13
0
23
-15.113398
33
0
39
0
210
0
220
0
230
1
0
SOLID
5
136
100
AcDbEntity
8
0
62
256
6
ByLayer
370
-1
48
1
60
0
100
AcDbTrace
10
107.0461
20
-15.696732
30
0
11
107.0461
21
-14.530065
31
0
12
110.5461
22
-15.113398
32
0
13
110.5461
23
-15.113398
33
0
39
0
210
0
220
0
230
1
0
MTEXT
5
137
100
AcDbEntity
8
0
62
256
6
ByLayer
370
18
48
1
60
0
100
AcDbMText
10
55.27305
20
-8.113398
30
0
210
0
220
0
230
1
1
\A1;110.55
40
3.5
41
0
44
1
50
0
71
5
72
5
7
iso_b_vert
0
POINT
5
138
100
AcDbEntity
8
Defpoints
62
0
6
ByLayer
370
-1
48
1
60
0
100
AcDbPoint
10
0
20
0
30
0
39
0
210
0
220
0
230
1
50
360
0
POINT
5
139
100
AcDbEntity
8
Defpoints
62
0
6
ByLayer
370
-1
48
1
60
0
100
AcDbPoint
10
110.5461
20
-4.9
30
0
39
0
210
0
220
0
230
1
50
360
0
POINT
5
13A
100
AcDbEntity
8
Defpoints
62
0
6
ByLayer
370
-1
48
1
60
0
100
AcDbPoint
10
110.5461
20
-15.113398
30
0
39
0
210
0
220
0
230
1
50
360
0
ENDBLK
5
131
100
AcDbEntity
8
0
100
AcDbBlockEnd
0
BLOCK
5
142
100
AcDbEntity
8
0
100
AcDbBlockBegin
2
_U0
70
0
10
0
20
0
30
0
3
_U0
0
MTEXT
5
13C
100
AcDbEntity
8
SK2
62
256
6
ByLayer
370
13
48
1
60
0
100
AcDbMText
10
49.702885
20
-14.080765
30
0
210
0
220
0
230
1
1
\W0.6440;110,55
40
3.5
41
0
44
1.084337
50
0
71
7
72
5
7
iso_b_vert
0
LINE
5
13D
100
AcDbEntity
8
SK2
62
256
6
ByLayer
370
13
48
1
60
0
100
AcDbLine
10
0
20
-1.5875
30
0
11
0
21
-17.113398
31
0
39
0
210
0
220
0
230
1
0
LINE
5
13E
100
AcDbEntity
8
SK2
62
256
6
ByLayer
370
13
48
1
60
0
100
AcDbLine
10
110.5461
20
-6.4875
30
0
11
110.5461
21
-17.113398
31
0
39
0
210
0
220
0
230
1
0
LINE
5
13F
100
AcDbEntity
8
SK2
62
256
6
ByLayer
370
13
48
1
60
0
100
AcDbLine
10
0
20
-15.113398
30
0
11
110.5461
21
-15.113398
31
0
39
0
210
0
220
0
230
1
0
SOLID
5
140
100
AcDbEntity
8
SK2
62
256
6
ByLayer
370
18
48
1
60
0
100
AcDbTrace
10
0
20
-15.113398
30
0
11
3.499998
21
-14.652615
31
0
12
3.500002
22
-15.574182
32
0
13
3.500002
23
-15.574182
33
0
39
0
210
0
220
0
230
1
0
SOLID
5
141
100
AcDbEntity
8
SK2
62
256
6
ByLayer
370
18
48
1
60
0
100
AcDbTrace
10
110.5461
20
-15.113398
30
0
11
107.046102
21
-15.574182
31
0
12
107.046098
22
-14.652615
32
0
13
107.046098
23
-14.652615
33
0
39
0
210
0
220
0
230
1
0
ENDBLK
5
143
100
AcDbEntity
8
0
100
AcDbBlockEnd
0
BLOCK
5
148
100
AcDbEntity
8
0
100
AcDbBlockBegin
2
*D3
70
1
10
0
20
0
30
0
3
*D3
0
LINE
5
14A
100
AcDbEntity
8
0
62
256
6
ByLayer
370
-2
48
1
60
0
100
AcDbLine
10
-40
20
-6.5875
30
0
11
-40
21
-35.692985
31
0
39
0
210
0
220
0
230
1
0
LINE
5
14B
100
AcDbEntity
8
0
62
256
6
ByLayer
370
-2
48
1
60
0
100
AcDbLine
10
112
20
-1.5875
30
0
11
112
21
-35.692985
31
0
39
0
210
0
220
0
230
1
0
LINE
5
14C
100
AcDbEntity
8
0
62
256
6
ByLayer
370
-2
48
1
60
0
100
AcDbLine
10
-36.5
20
-33.692985
30
0
11
108.5
21
-33.692985
31
0
39
0
210
0
220
0
230
1
0
SOLID
5
14D
100
AcDbEntity
8
0
62
256
6
ByLayer
370
-1
48
1
60
0
100
AcDbTrace
10
-36.5
20
-33.109652
30
0
11
-36.5
21
-34.276319
31
0
12
-40
22
-33.692985
32
0
13
-40
23
-33.692985
33
0
39
0
210
0
220
0
230
1
0
SOLID
5
14E
100
AcDbEntity
8
0
62
256
6
ByLayer
370
-1
48
1
60
0
100
AcDbTrace
10
108.5
20
-34.276319
30
0
11
108.5
21
-33.109652
31
0
12
112
22
-33.692985
32
0
13
112
23
-33.692985
33
0
39
0
210
0
220
0
230
1
0
MTEXT
5
14F
100
AcDbEntity
8
0
62
256
6
ByLayer
370
18
48
1
60
0
100
AcDbMText
10
36
20
-26.692985
30
0
210
0
220
0
230
1
1
\A1;152.00
40
3.5
41
0
44
1
50
0
71
5
72
5
7
iso_b_vert
0
POINT
5
150
100
AcDbEntity
8
Defpoints
62
0
6
ByLayer
370
-1
48
1
60
0
100
AcDbPoint
10
-40
20
-5
30
0
39
0
210
0
220
0
230
1
50
360
0
POINT
5
151
100
AcDbEntity
8
Defpoints
62
0
6
ByLayer
370
-1
48
1
60
0
100
AcDbPoint
10
112
20
0
30
0
39
0
210
0
220
0
230
1
50
360
0
POINT
5
152
100
AcDbEntity
8
Defpoints
62
0
6
ByLayer
370
-1
48
1
60
0
100
AcDbPoint
10
112
20
-33.692985
30
0
39
0
210
0
220
0
230
1
50
360
0
ENDBLK
5
149
100
AcDbEntity
8
0
100
AcDbBlockEnd
0
BLOCK
5
15A
100
AcDbEntity
8
0
100
AcDbBlockBegin
2
_U1
70
0
10
0
20
0
30
0
3
_U1
0
MTEXT
5
154
100
AcDbEntity
8
SK2
62
256
6
ByLayer
370
13
48
1
60
0
100
AcDbMText
10
29.992401
20
-32.660352
30
0
210
0
220
0
230
1
1
\W0.6930;152,00
40
3.5
41
0
44
1.084337
50
0
71
7
72
5
7
iso_b_vert
0
LINE
5
155
100
AcDbEntity
8
SK2
62
256
6
ByLayer
370
13
48
1
60
0
100
AcDbLine
10
-40
20
-6.5875
30
0
11
-40
21
-35.692985
31
0
39
0
210
0
220
0
230
1
0
LINE
5
156
100
AcDbEntity
8
SK2
62
256
6
ByLayer
370
13
48
1
60
0
100
AcDbLine
10
112
20
-1.5875
30
0
11
112
21
-35.692985
31
0
39
0
210
0
220
0
230
1
0
LINE
5
157
100
AcDbEntity
8
SK2
62
256
6
ByLayer
370
13
48
1
60
0
100
AcDbLine
10
-40
20
-33.692985
30
0
11
112
21
-33.692985
31
0
39
0
210
0
220
0
230
1
0
SOLID
5
158
100
AcDbEntity
8
SK2
62
256
6
ByLayer
370
18
48
1
60
0
100
AcDbTrace
10
-40
20
-33.692985
30
0
11
-36.500002
21
-33.232202
31
0
12
-36.499998
22
-34.153769
32
0
13
-36.499998
23
-34.153769
33
0
39
0
210
0
220
0
230
1
0
SOLID
5
159
100
AcDbEntity
8
SK2
62
256
6
ByLayer
370
18
48
1
60
0
100
AcDbTrace
10
112
20
-33.692985
30
0
11
108.500002
21
-34.153769
31
0
12
108.499998
22
-33.232202
32
0
13
108.499998
23
-33.232202
33
0
39
0
210
0
220
0
230
1
0
ENDBLK
5
15B
100
AcDbEntity
8
0
100
AcDbBlockEnd
0
BLOCK
5
160
100
AcDbEntity
8
0
100
AcDbBlockBegin
2
*D5
70
1
10
0
20
0
30
0
3
*D5
0
LINE
5
162
100
AcDbEntity
8
0
62
256
6
ByLayer
370
-2
48
1
60
0
100
AcDbLine
10
32.15
20
6.4875
30
0
11
32.15
21
18.509119
31
0
39
0
210
0
220
0
230
1
0
LINE
5
163
100
AcDbEntity
8
0
62
256
6
ByLayer
370
-2
48
1
60
0
100
AcDbLine
10
112
20
1.5875
30
0
11
112
21
18.509119
31
0
39
0
210
0
220
0
230
1
0
LINE
5
164
100
AcDbEntity
8
0
62
256
6
ByLayer
370
-2
48
1
60
0
100
AcDbLine
10
35.65
20
16.509119
30
0
11
108.5
21
16.509119
31
0
39
0
210
0
220
0
230
1
0
SOLID
5
165
100
AcDbEntity
8
0
62
256
6
ByLayer
370
-1
48
1
60
0
100
AcDbTrace
10
35.65
20
17.092453
30
0
11
35.65
21
15.925786
31
0
12
32.15
22
16.509119
32
0
13
32.15
23
16.509119
33
0
39
0
210
0
220
0
230
1
0
SOLID
5
166
100
AcDbEntity
8
0
62
256
6
ByLayer
370
-1
48
1
60
0
100
AcDbTrace
10
108.5
20
15.925786
30
0
11
108.5
21
17.092453
31
0
12
112
22
16.509119
32
0
13
112
23
16.509119
33
0
39
0
210
0
220
0
230
1
0
MTEXT
5
167
100
AcDbEntity
8
0
62
256
6
ByLayer
370
18
48
1
60
0
100
AcDbMText
10
72.075
20
23.509119
30
0
210
0
220
0
230
1
1
\A1;79.85
40
3.5
41
0
44
1
50
0
71
5
72
5
7
iso_b_vert
0
POINT
5
168
100
AcDbEntity
8
Defpoints
62
0
6
ByLayer
370
-1
48
1
60
0
100
AcDbPoint
10
32.15
20
4.9
30
0
39
0
210
0
220
0
230
1
50
360
0
POINT
5
169
100
AcDbEntity
8
Defpoints
62
0
6
ByLayer
370
-1
48
1
60
0
100
AcDbPoint
10
112
20
0
30
0
39
0
210
0
220
0
230
1
50
360
0
POINT
5
16A
100
AcDbEntity
8
Defpoints
62
0
6
ByLayer
370
-1
48
1
60
0
100
AcDbPoint
10
112
20
16.509119
30
0
39
0
210
0
220
0
230
1
50
360
0
ENDBLK
5
161
100
AcDbEntity
8
0
100
AcDbBlockEnd
0
BLOCK
5
172
100
AcDbEntity
8
0
100
AcDbBlockBegin
2
_U2
70
0
10
0
20
0
30
0
3
_U2
0
MTEXT
5
16C
100
AcDbEntity
8
SK2
62
256
6
ByLayer
370
13
48
1
60
0
100
AcDbMText
10
66.937701
20
17.541753
30
0
210
0
220
0
230
1
1
\W0.7317;79,85
40
3.5
41
0
44
1.084337
50
0
71
7
72
5
7
iso_b_vert
0
LINE
5
16D
100
AcDbEntity
8
SK2
62
256
6
ByLayer
370
13
48
1
60
0
100
AcDbLine
10
32.15
20
6.4875
30
0
11
32.15
21
18.509119
31
0
39
0
210
0
220
0
230
1
0
LINE
5
16E
100
AcDbEntity
8
SK2
62
256
6
ByLayer
370
13
48
1
60
0
100
AcDbLine
10
112
20
1.5875
30
0
11
112
21
18.509119
31
0
39
0
210
0
220
0
230
1
0
LINE
5
16F
100
AcDbEntity
8
SK2
62
256
6
ByLayer
370
13
48
1
60
0
100
AcDbLine
10
32.15
20
16.509119
30
0
11
112
21
16.509119
31
0
39
0
210
0
220
0
230
1
0
SOLID
5
170
100
AcDbEntity
8
SK2
62
256
6
ByLayer
370
18
48
1
60
0
100
AcDbTrace
10
32.15
20
16.509119
30
0
11
35.649998
21
16.969903
31
0
12
35.650002
22
16.048335
32
0
13
35.650002
23
16.048335
33
0
39
0
210
0
220
0
230
1
0
SOLID
5
171
100
AcDbEntity
8
SK2
62
256
6
ByLayer
370
18
48
1
60
0
100
AcDbTrace
10
112
20
16.509119
30
0
11
108.500002
21
16.048335
31
0
12
108.499998
22
16.969903
32
0
13
108.499998
23
16.969903
33
0
39
0
210
0
220
0
230
1
0
ENDBLK
5
173
100
AcDbEntity
8
0
100
AcDbBlockEnd
0
BLOCK
5
178
100
AcDbEntity
8
0
100
AcDbBlockBegin
2
*D7
70
1
10
0
20
0
30
0
3
*D7
0
LINE
5
17A
100
AcDbEntity
8
0
62
256
6
ByLayer
370
-2
48
1
60
0
100
AcDbLine
10
112
20
-1.5875
30
0
11
112
21
-19.702503
31
0
39
0
210
0
220
0
230
1
0
LINE
5
17B
100
AcDbEntity
8
0
62
256
6
ByLayer
370
-2
48
1
60
0
100
AcDbLine
10
110.5461
20
-6.4875
30
0
11
110.5461
21
-19.702503
31
0
39
0
210
0
220
0
230
1
0
LINE
5
17C
100
AcDbEntity
8
0
62
256
6
ByLayer
370
-2
48
1
60
0
100
AcDbLine
10
112
20
-17.702503
30
0
11
139.666667
21
-17.702503
31
0
39
0
210
0
220
0
230
1
0
LINE
5
17D
100
AcDbEntity
8
0
62
256
6
ByLayer
370
-2
48
1
60
0
100
AcDbLine
10
115.5
20
-17.702503
30
0
11
119
21
-17.702503
31
0
39
0
210
0
220
0
230
1
0
LINE
5
17E
100
AcDbEntity
8
0
62
256
6
ByLayer
370
-2
48
1
60
0
100
AcDbLine
10
107.0461
20
-17.702503
30
0
11
103.5461
21
-17.702503
31
0
39
0
210
0
220
0
230
1
0
SOLID
5
17F
100
AcDbEntity
8
0
62
256
6
ByLayer
370
-1
48
1
60
0
100
AcDbTrace
10
115.5
20
-17.11917
30
0
11
115.5
21
-18.285837
31
0
12
112
22
-17.702503
32
0
13
112
23
-17.702503
33
0
39
0
210
0
220
0
230
1
0
SOLID
5
180
100
AcDbEntity
8
0
62
256
6
ByLayer
370
-1
48
1
60
0
100
AcDbTrace
10
107.0461
20
-18.285837
30
0
11
107.0461
21
-17.11917
31
0
12
110.5461
22
-17.702503
32
0
13
110.5461
23
-17.702503
33
0
39
0
210
0
220
0
230
1
0
MTEXT
5
181
100
AcDbEntity
8
0
62
256
6
ByLayer
370
18
48
1
60
0
100
AcDbMText
10
129.333333
20
-10.702503
30
0
210
0
220
0
230
1
1
\A1;1.45
40
3.5
41
0
44
1
50
0
71
5
72
5
7
iso_b_vert
0
POINT
5
182
100
AcDbEntity
8
Defpoints
62
0
6
ByLayer
370
-1
48
1
60
0
100
AcDbPoint
10
112
20
0
30
0
39
0
210
0
220
0
230
1
50
360
0
POINT
5
183
100
AcDbEntity
8
Defpoints
62
0
6
ByLayer
370
-1
48
1
60
0
100
AcDbPoint
10
110.5461
20
-4.9
30
0
39
0
210
0
220
0
230
1
50
360
0
POINT
5
184
100
AcDbEntity
8
Defpoints
62
0
6
ByLayer
370
-1
48
1
60
0
100
AcDbPoint
10
110.5461
20
-17.702503
30
0
39
0
210
0
220
0
230
1
50
360
0
ENDBLK
5
179
100
AcDbEntity
8
0
100
AcDbBlockEnd
0
BLOCK
5
18C
100
AcDbEntity
8
0
100
AcDbBlockBegin
2
_U3
70
0
10
0
20
0
30
0
3
_U3
0
MTEXT
5
186
100
AcDbEntity
8
SK2
62
256
6
ByLayer
370
13
48
1
60
0
100
AcDbMText
10
118.405026
20
-16.66987
30
0
210
0
220
0
230
1
1
\W0.6709;1,45
40
3.5
41
0
44
1.084337
50
0
71
7
72
5
7
iso_b_vert
0
LINE
5
187
100
AcDbEntity
8
SK2
62
256
6
ByLayer
370
13
48
1
60
0
100
AcDbLine
10
112
20
-1.5875
30
0
11
112
21
-19.702503
31
0
39
0
210
0
220
0
230
1
0
LINE
5
188
100
AcDbEntity
8
SK2
62
256
6
ByLayer
370
13
48
1
60
0
100
AcDbLine
10
110.5461
20
-6.4875
30
0
11
110.5461
21
-19.702503
31
0
39
0
210
0
220
0
230
1
0
LINE
5
189
100
AcDbEntity
8
SK2
62
256
6
ByLayer
370
13
48
1
60
0
100
AcDbLine
10
101.7961
20
-17.702503
30
0
11
125.743324
21
-17.702503
31
0
39
0
210
0
220
0
230
1
0
SOLID
5
18A
100
AcDbEntity
8
SK2
62
256
6
ByLayer
370
18
48
1
60
0
100
AcDbTrace
10
112
20
-17.702503
30
0
11
115.499998
21
-17.241719
31
0
12
115.500002
22
-18.163287
32
0
13
115.500002
23
-18.163287
33
0
39
0
210
0
220
0
230
1
0
SOLID
5
18B
100
AcDbEntity
8
SK2
62
256
6
ByLayer
370
18
48
1
60
0
100
AcDbTrace
10
110.5461
20
-17.702503
30
0
11
107.046102
21
-18.163287
31
0
12
107.046098
22
-17.241719
32
0
13
107.046098
23
-17.241719
33
0
39
0
210
0
220
0
230
1
0
ENDBLK
5
18D
100
AcDbEntity
8
0
100
AcDbBlockEnd
0
BLOCK
5
192
100
AcDbEntity
8
0
100
AcDbBlockBegin
2
*D9
70
1
10
0
20
0
30
0
3
*D9
0
LINE
5
194
100
AcDbEntity
8
0
62
256
6
ByLayer
370
-2
48
1
60
0
100
AcDbLine
10
-40
20
-6.5875
30
0
11
-40
21
-25.343428
31
0
39
0
210
0
220
0
230
1
0
LINE
5
195
100
AcDbEntity
8
0
62
256
6
ByLayer
370
-2
48
1
60
0
100
AcDbLine
10
110.5461
20
-6.4875
30
0
11
110.5461
21
-25.343428
31
0
39
0
210
0
220
0
230
1
0
LINE
5
196
100
AcDbEntity
8
0
62
256
6
ByLayer
370
-2
48
1
60
0
100
AcDbLine
10
-36.5
20
-23.343428
30
0
11
107.0461
21
-23.343428
31
0
39
0
210
0
220
0
230
1
0
SOLID
5
197
100
AcDbEntity
8
0
62
256
6
ByLayer
370
-1
48
1
60
0
100
AcDbTrace
10
-36.5
20
-22.760095
30
0
11
-36.5
21
-23.926762
31
0
12
-40
22
-23.343428
32
0
13
-40
23
-23.343428
33
0
39
0
210
0
220
0
230
1
0
SOLID
5
198
100
AcDbEntity
8
0
62
256
6
ByLayer
370
-1
48
1
60
0
100
AcDbTrace
10
107.0461
20
-23.926762
30
0
11
107.0461
21
-22.760095
31
0
12
110.5461
22
-23.343428
32
0
13
110.5461
23
-23.343428
33
0
39
0
210
0
220
0
230
1
0
MTEXT
5
199
100
AcDbEntity
8
0
62
256
6
ByLayer
370
18
48
1
60
0
100
AcDbMText
10
35.27305
20
-16.343428
30
0
210
0
220
0
230
1
1
\A1;150.55
40
3.5
41
0
44
1
50
0
71
5
72
5
7
iso_b_vert
0
POINT
5
19A
100
AcDbEntity
8
Defpoints
62
0
6
ByLayer
370
-1
48
1
60
0
100
AcDbPoint
10
-40
20
-5
30
0
39
0
210
0
220
0
230
1
50
360
0
POINT
5
19B
100
AcDbEntity
8
Defpoints
62
0
6
ByLayer
370
-1
48
1
60
0
100
AcDbPoint
10
110.5461
20
-4.9
30
0
39
0
210
0
220
0
230
1
50
360
0
POINT
5
19C
100
AcDbEntity
8
Defpoints
62
0
6
ByLayer
370
-1
48
1
60
0
100
AcDbPoint
10
110.5461
20
-23.343428
30
0
39
0
210
0
220
0
230
1
50
360
0
ENDBLK
5
193
100
AcDbEntity
8
0
100
AcDbBlockEnd
0
BLOCK
5
1A4
100
AcDbEntity
8
0
100
AcDbBlockBegin
2
_U4
70
0
10
0
20
0
30
0
3
_U4
0
MTEXT
5
19E
100
AcDbEntity
8
SK2
62
256
6
ByLayer
370
13
48
1
60
0
100
AcDbMText
10
29.265451
20
-22.310795
30
0
210
0
220
0
230
1
1
\W0.6930;150,55
40
3.5
41
0
44
1.084337
50
0
71
7
72
5
7
iso_b_vert
0
LINE
5
19F
100
AcDbEntity
8
SK2
62
256
6
ByLayer
370
13
48
1
60
0
100
AcDbLine
10
-40
20
-6.5875
30
0
11
-40
21
-25.343428
31
0
39
0
210
0
220
0
230
1
0
LINE
5
1A0
100
AcDbEntity
8
SK2
62
256
6
ByLayer
370
13
48
1
60
0
100
AcDbLine
10
110.5461
20
-6.4875
30
0
11
110.5461
21
-25.343428
31
0
39
0
210
0
220
0
230
1
0
LINE
5
1A1
100
AcDbEntity
8
SK2
62
256
6
ByLayer
370
13
48
1
60
0
100
AcDbLine
10
-40
20
-23.343428
30
0
11
110.5461
21
-23.343428
31
0
39
0
210
0
220
0
230
1
0
SOLID
5
1A2
100
AcDbEntity
8
SK2
62
256
6
ByLayer
370
18
48
1
60
0
100
AcDbTrace
10
-40
20
-23.343428
30
0
11
-36.500002
21
-22.882645
31
0
12
-36.499998
22
-23.804212
32
0
13
-36.499998
23
-23.804212
33
0
39
0
210
0
220
0
230
1
0
SOLID
5
1A3
100
AcDbEntity
8
SK2
62
256
6
ByLayer
370
18
48
1
60
0
100
AcDbTrace
10
110.5461
20
-23.343428
30
0
11
107.046102
21
-23.804212
31
0
12
107.046098
22
-22.882645
32
0
13
107.046098
23
-22.882645
33
0
39
0
210
0
220
0
230
1
0
ENDBLK
5
1A5
100
AcDbEntity
8
0
100
AcDbBlockEnd
0
ENDSEC
0
SECTION
2
ENTITIES
0
ELLIPSE
5
B5
100
AcDbEntity
8
1
62
256
6
ByLayer
370
13
48
1
60
0
100
AcDbEllipse
10
8.169078
20
-1.106588
30
0
11
0.0418174644861699
21
0.0908366647557467
31
0
210
0
220
0
230
1
40
0.573668
41
1.61603552369102
42
2.87806283323361
0
ELLIPSE
5
B6
100
AcDbEntity
8
1
62
256
6
ByLayer
370
13
48
1
60
0
100
AcDbEllipse
10
8.25014
20
-1.150731
30
0
11
0.0525686387660014
21
0.0850678447963134
31
0
210
0
220
0
230
1
40
0.131724
41
1.35904201545579
42
2.91491149791414
0
POINT
5
70
100
AcDbEntity
8
80
62
256
6
ByLayer
370
18
48
1
60
0
100
AcDbPoint
10
0
20
0
30
0
39
0
210
0
220
0
230
1
50
360
0
POINT
5
72
100
AcDbEntity
8
81
62
256
6
ByLayer
370
18
48
1
60
0
100
AcDbPoint
10
112
20
0
30
0
39
0
210
0
220
0
230
1
50
360
0
POINT
5
74
100
AcDbEntity
8
1
62
256
6
ByLayer
370
18
48
1
60
1
100
AcDbPoint
10
110.5461
20
-4.9
30
0
39
0
210
0
220
0
230
1
50
360
0
POINT
5
76
100
AcDbEntity
8
1
62
256
6
ByLayer
370
18
48
1
60
1
100
AcDbPoint
10
-40
20
-5
30
0
39
0
210
0
220
0
230
1
50
360
0
POINT
5
77
100
AcDbEntity
8
1
62
256
6
ByLayer
370
18
48
1
60
1
100
AcDbPoint
10
32.15
20
4.9
30
0
39
0
210
0
220
0
230
1
50
360
0
POINT
5
78
100
AcDbEntity
8
1
62
256
6
ByLayer
370
18
48
1
60
1
100
AcDbPoint
10
110.5461
20
-4.9
30
0
39
0
210
0
220
0
230
1
50
360
0
POINT
5
79
100
AcDbEntity
8
1
62
256
6
ByLayer
370
18
48
1
60
1
100
AcDbPoint
10
-40
20
-5
30
0
39
0
210
0
220
0
230
1
50
360
0
POINT
5
7A
100
AcDbEntity
8
1
62
256
6
ByLayer
370
18
48
1
60
1
100
AcDbPoint
10
110.5461
20
-4.9
30
0
39
0
210
0
220
0
230
1
50
360
0
SPLINE
5
B7
100
AcDbEntity
8
SK1
62
256
6
ByLayer
370
18
48
1
60
0
100
AcDbSpline
70
4
71
3
72
8
73
4
40
0
40
0
40
0
40
0
40
1
40
1
40
1
40
1
41
1
10
-40
20
0.455360356791488
30
0
41
1
10
-39.7840191979406
20
0.543100365713627
30
0
41
1
10
-39.5672460254585
20
0.630550816540165
30
0
41
1
10
-39.35
20
0.71782847140733
30
0
0
SPLINE
5
B8
100
AcDbEntity
8
SK1
62
256
6
ByLayer
370
18
48
1
60
0
100
AcDbSpline
70
4
71
3
72
8
73
4
40
0
40
0
40
0
40
0
40
1
40
1
40
1
40
1
41
1
10
-39.35
20
2.55879447986857
30
0
41
1
10
-39.5672415048354
20
2.47151864114224
30
0
41
1
10
-39.7840138771994
20
2.38406853567199
30
0
41
1
10
-40
20
2.29632636525273
30
0
0
SPLINE
5
B9
100
AcDbEntity
8
SK1
62
256
6
ByLayer
370
18
48
1
60
0
100
AcDbSpline
70
4
71
3
72
12
73
8
40
0
40
0
40
0
40
0
40
0.500000000000001
40
0.500000000000001
40
0.75
40
0.75
40
1
40
1
40
1
40
1
41
1
10
-39.35
20
0.717828471407302
30
0
41
1
10
-39.3264103729719
20
0.727305502445518
30
0
41
1
10
-39.3036886178189
20
0.744551646051491
30
0
41
1
10
-39.275599229617
20
0.78010059042316
30
0
41
1
10
-39.2670477807072
20
0.793930299525897
30
0
41
1
10
-39.2542670006876
20
0.824626909751032
30
0
41
1
10
-39.25
20
0.841968181039476
30
0
41
1
10
-39.25
20
0.858646685617003
30
0
0
SPLINE
5
BA
100
AcDbEntity
8
SK1
62
256
6
ByLayer
370
18
48
1
60
0
100
AcDbSpline
70
4
71
3
72
12
73
8
40
0
40
0
40
0
40
0
40
0.25
40
0.25
40
0.5
40
0.5
40
1
40
1
40
1
40
1
41
1
10
-39.25
20
2.51551609323212
30
0
41
1
10
-39.25
20
2.52949718822134
30
0
41
1
10
-39.254235624227
20
2.54073915210387
30
0
41
1
10
-39.2670201311554
20
2.5568785844259
30
0
41
1
10
-39.2754786511826
20
2.56200463975821
30
0
41
1
10
-39.3037388067419
20
2.57081833838262
30
0
41
1
10
-39.3264172660865
20
2.56826874162775
30
0
41
1
10
-39.35
20
2.55879447986859
30
0
0
SPLINE
5
BB
100
AcDbEntity
8
1
62
256
6
ByLayer
370
18
48
1
60
0
100
AcDbSpline
70
4
71
3
72
61
73
57
40
0
40
0
40
0
40
0
40
0.0312499999999995
40
0.0312499999999995
40
0.062499999999999
40
0.062499999999999
40
0.124999999999998
40
0.124999999999998
40
0.187499999999997
40
0.187499999999997
40
0.218749999999996
40
0.218749999999996
40
0.249999999999996
40
0.249999999999996
40
0.312499999999995
40
0.312499999999995
40
0.374999999999994
40
0.374999999999994
40
0.406249999999993
40
0.406249999999993
40
0.437499999999993
40
0.437499999999993
40
0.499999999999991
40
0.499999999999991
40
0.531249999999991
40
0.531249999999991
40
0.56249999999999
40
0.56249999999999
40
0.624999999999989
40
0.624999999999989
40
0.656249999999989
40
0.656249999999989
40
0.687499999999988
40
0.687499999999988
40
0.718749999999988
40
0.718749999999988
40
0.749999999999987
40
0.749999999999987
40
0.812499999999986
40
0.812499999999986
40
0.843749999999986
40
0.843749999999986
40
0.851562499999987
40
0.855468749999987
40
0.855468749999987
40
0.859374999999987
40
0.859374999999987
40
0.863281249999988
40
0.863281249999988
40
0.867187499999988
40
0.867187499999988
40
0.874999999999988
40
0.874999999999988
40
0.937499999999994
40
0.937499999999994
40
1
40
1
40
1
40
1
41
1
10
7.9999999252442
20
-3.24665319834546
30
0
41
1
10
7.93573089621606
20
-3.32146531227679
30
0
41
1
10
7.87247308611447
20
-3.39492401543853
30
0
41
1
10
7.74779864278855
20
-3.53878770674729
30
0
41
1
10
7.68614323214723
20
-3.60945971843592
30
0
41
1
10
7.50573257231076
20
-3.81399236371803
30
0
41
1
10
7.39159538926179
20
-3.94031158515966
30
0
41
1
10
7.17366813655065
20
-4.17150639055009
30
0
41
1
10
7.06987314625363
20
-4.27639514933307
30
0
41
1
10
6.92117157524348
20
-4.41612036008138
30
0
41
1
10
6.87277674072803
20
-4.45975431898884
30
0
41
1
10
6.77830766753371
20
-4.54077606949929
30
0
41
1
10
6.73206776851811
20
-4.57828790738301
30
0
41
1
10
6.59809025215981
20
-4.67987254832479
30
0
41
1
10
6.51593850489115
20
-4.73243677909591
30
0
41
1
10
6.36606395883985
20
-4.8067583388418
30
0
41
1
10
6.29832330653772
20
-4.82853889468029
30
0
41
1
10
6.209180098231
20
-4.83626542756772
30
0
41
1
10
6.18156105954901
20
-4.83466632163416
30
0
41
1
10
6.13107174765923
20
-4.82253225652491
30
0
41
1
10
6.10848351393111
20
-4.81203581530147
30
0
41
1
10
6.04975119297757
20
-4.76746923339033
30
0
41
1
10
6.0222868291514
20
-4.72035394176612
30
0
41
1
10
6.0023308272952
20
-4.62244159148381
30
0
41
1
10
5.99925768694933
20
-4.58498789250501
30
0
41
1
10
6.00117366843278
20
-4.50185645682549
30
0
41
1
10
6.00610627091166
20
-4.45633034771257
30
0
41
1
10
6.03337626017174
20
-4.30839740623156
30
0
41
1
10
6.06809913195966
20
-4.19468352062293
30
0
41
1
10
6.14850005024536
20
-4.00256013838015
30
0
41
1
10
6.18018258797477
20
-3.93475700770597
30
0
41
1
10
6.25185639304161
20
-3.79568585636869
30
0
41
1
10
6.29199191695318
20
-3.72403349148709
30
0
41
1
10
6.38074703384879
20
-3.57705518214988
30
0
41
1
10
6.429352702648
20
-3.50172435609082
30
0
41
1
10
6.53501400098997
20
-3.3478586556831
30
0
41
1
10
6.59230663398975
20
-3.26904639959679
30
0
41
1
10
6.77505495131939
20
-3.03103739428914
30
0
41
1
10
6.91172660916027
20
-2.86977911199281
30
0
41
1
10
7.13434783669618
20
-2.62937318323577
30
0
41
1
10
7.21157084936954
20
-2.54939776356827
30
0
41
1
10
7.31132022788304
20
-2.45014803558513
30
0
41
1
10
7.34147830547533
20
-2.42043496851599
30
0
41
1
10
7.3719810565502
20
-2.3908174052967
30
0
41
1
10
7.39239224625786
20
-2.3710938613896
30
0
41
1
10
7.40203085849049
20
-2.36075298301941
30
0
41
1
10
7.42502206795933
20
-2.34303782254688
30
0
41
1
10
7.43973891984714
20
-2.33679674351672
30
0
41
1
10
7.47051739245885
20
-2.3312136463789
30
0
41
1
10
7.48649655031539
20
-2.33105801538019
30
0
41
1
10
7.53374750836394
20
-2.32873759222468
30
0
41
1
10
7.56526342925997
20
-2.32743277444953
30
0
41
1
10
7.84904368210141
20
-2.31786287577302
30
0
41
1
10
8.10173588561079
20
-2.32487709356158
30
0
41
1
10
8.60317282375922
20
-2.36859400771638
30
0
41
1
10
8.85130008168224
20
-2.40515945597889
30
0
41
1
10
9.09686844815258
20
-2.4556085913438
30
0
0
SPLINE
5
BC
100
AcDbEntity
8
1
62
256
6
ByLayer
370
13
48
1
60
0
100
AcDbSpline
70
4
71
3
72
18
73
14
40
0
40
0
40
0
40
0
40
0.25
40
0.25
40
0.5
40
0.5
40
0.625
40
0.625
40
0.75
40
0.75
40
0.875
40
0.875
40
1
40
1
40
1
40
1
41
1
10
8.25023352722201
20
-1.12608179084603
30
0
41
1
10
8.25020538090203
20
-0.782207838371761
30
0
41
1
10
8.25016303400517
20
-0.432830134665465
30
0
41
1
10
8.2500651644616
20
0.276656657336133
30
0
41
1
10
8.25001136092462
20
0.625161881037116
30
0
41
1
10
8.24993479470098
20
1.13890256433044
30
0
41
1
10
8.24990988886873
20
1.30898587077482
30
0
41
1
10
8.24986338670331
20
1.64447113769506
30
0
41
1
10
8.24984202952987
20
1.80816702899108
30
0
41
1
10
8.24980449170044
20
2.12750978318002
30
0
41
1
10
8.24978834325066
20
2.28315910154504
30
0
41
1
10
8.24976283312054
20
2.58048298690406
30
0
41
1
10
8.24975336632218
20
2.72296662157527
30
0
41
1
10
8.24974745345887
20
2.85934798045855
30
0
0
SPLINE
5
BD
100
AcDbEntity
8
1
62
256
6
ByLayer
370
18
48
1
60
0
100
AcDbSpline
70
4
71
3
72
118
73
114
40
0
40
0
40
0
40
0
40
0.0088762206757109
40
0.0088762206757109
40
0.0214132042298765
40
0.0214132042298765
40
0.0464871713382078
40
0.0464871713382078
40
0.0715611384465391
40
0.0715611384465391
40
0.0840981220007037
40
0.0840981220007037
40
0.0966351055548683
40
0.0966351055548683
40
0.121709072663196
40
0.121709072663196
40
0.146783039771523
40
0.146783039771523
40
0.159320023325687
40
0.159320023325687
40
0.17185700687985
40
0.17185700687985
40
0.196930973988179
40
0.196930973988179
40
0.222004941096509
40
0.222004941096509
40
0.247078908204838
40
0.247078908204838
40
0.259615891759003
40
0.259615891759003
40
0.272152875313167
40
0.272152875313167
40
0.297226842421497
40
0.297226842421497
40
0.322300809529826
40
0.322300809529826
40
0.334837793083991
40
0.334837793083991
40
0.347374776638157
40
0.347374776638157
40
0.372448743746488
40
0.372448743746488
40
0.397522710854819
40
0.397522710854819
40
0.410059694408985
40
0.410059694408985
40
0.422596677963151
40
0.422596677963151
40
0.447670645071484
40
0.447670645071484
40
0.472744612179817
40
0.472744612179817
40
0.485281595733984
40
0.485281595733984
40
0.49781857928815
40
0.49781857928815
40
0.522892546396483
40
0.522892546396483
40
0.547966513504816
40
0.547966513504816
40
0.573040480613149
40
0.573040480613149
40
0.585577464167316
40
0.585577464167316
40
0.598114447721483
40
0.598114447721483
40
0.623188414829815
40
0.623188414829815
40
0.63572539838398
40
0.63572539838398
40
0.648262381938146
40
0.648262381938146
40
0.660799365492311
40
0.660799365492311
40
0.673336349046477
40
0.673336349046477
40
0.698410316154807
40
0.698410316154807
40
0.723484283263137
40
0.723484283263137
40
0.736021266817302
40
0.736021266817302
40
0.748558250371468
40
0.748558250371468
40
0.761095233925633
40
0.761095233925633
40
0.773632217479798
40
0.773632217479798
40
0.798706184588128
40
0.798706184588128
40
0.811243168142293
40
0.811243168142293
40
0.823780151696458
40
0.823780151696458
40
0.848854118804788
40
0.848854118804788
40
0.873928085913118
40
0.873928085913118
40
0.899002053021449
40
0.899002053021449
40
0.911539036575614
40
0.911539036575614
40
0.924076020129779
40
0.924076020129779
40
0.94914998723811
40
0.94914998723811
40
0.974223954346441
40
0.974223954346441
40
0.986760937900607
40
0.986760937900607
40
0.999297921454772
40
0.999297921454772
40
1
40
1
40
1
40
1
41
1
10
100.633476551467
20
-2.19792945416421
30
0
41
1
10
100.541976399545
20
-2.24852917350538
30
0
41
1
10
100.450644478817
20
-2.29859417953804
30
0
41
1
10
100.231367928182
20
-2.4190006514817
30
0
41
1
10
100.103139329066
20
-2.48812933496672
30
0
41
1
10
99.7188209632715
20
-2.69078235786054
30
0
41
1
10
99.4631130029082
20
-2.81957949031875
30
0
41
1
10
98.9528369115417
20
-3.06795784538937
30
0
41
1
10
98.6983669958849
20
-3.18749921150081
30
0
41
1
10
98.3159967529024
20
-3.35637459360703
30
0
41
1
10
98.1884203754857
20
-3.41092117251304
30
0
41
1
10
97.9330389102092
20
-3.51664554887614
30
0
41
1
10
97.8059938931571
20
-3.56860368343169
30
0
41
1
10
97.4236941731964
20
-3.71927012394133
30
0
41
1
10
97.1677397997589
20
-3.81338162785764
30
0
41
1
10
96.6547865823057
20
-3.98713317967307
30
0
41
1
10
96.3976872329238
20
-4.06655927784135
30
0
41
1
10
96.0101264222761
20
-4.17520106759647
30
0
41
1
10
95.8810181402807
20
-4.20957989560446
30
0
41
1
10
95.6231272386065
20
-4.2742417176371
30
0
41
1
10
95.4942001945363
20
-4.30443573578643
30
0
41
1
10
95.1101128040456
20
-4.38978635872496
30
0
41
1
10
94.8545468081882
20
-4.43685539134208
30
0
41
1
10
94.3435091862589
20
-4.51614706709202
30
0
41
1
10
94.0884625799829
20
-4.54853922153714
30
0
41
1
10
93.5788953660409
20
-4.59582638221295
30
0
41
1
10
93.3239778241402
20
-4.60997359568566
30
0
41
1
10
92.9401934256913
20
-4.619617910268
30
0
41
1
10
92.8128180623936
20
-4.62090772195745
30
0
41
1
10
92.5573488837649
20
-4.6192634108468
30
0
41
1
10
92.429355272444
20
-4.61639906047733
30
0
41
1
10
92.044442666201
20
-4.60127523159369
30
0
41
1
10
91.7869559085145
20
-4.58183668550916
30
0
41
1
10
91.2700231368538
20
-4.52630122249346
30
0
41
1
10
91.012587946112
20
-4.49075600077876
30
0
41
1
10
90.6270188329176
20
-4.42532398527362
30
0
41
1
10
90.4984566862823
20
-4.40145827666862
30
0
41
1
10
90.2430783558879
20
-4.34883057968258
30
0
41
1
10
90.1154832295064
20
-4.32051674154039
30
0
41
1
10
89.7325274754247
20
-4.23043188895679
30
0
41
1
10
89.4770558052073
20
-4.16376851512288
30
0
41
1
10
88.9669833787606
20
-4.0146297713367
30
0
41
1
10
88.7124083632758
20
-3.93120951442421
30
0
41
1
10
88.3292312563747
20
-3.79661238564117
30
0
41
1
10
88.201285667364
20
-3.75026156853198
30
0
41
1
10
87.9449402964461
20
-3.65450007708793
30
0
41
1
10
87.8172305636014
20
-3.6043418106326
30
0
41
1
10
87.4330525072968
20
-3.44886489411059
30
0
41
1
10
87.1754807965602
20
-3.33862066640126
30
0
41
1
10
86.6584112073278
20
-3.10466270649857
30
0
41
1
10
86.4003716433406
20
-2.98194050664787
30
0
41
1
10
86.015203543176
20
-2.79077850297949
30
0
41
1
10
85.8869381090253
20
-2.72589478299832
30
0
41
1
10
85.6305601837435
20
-2.59391114806755
30
0
41
1
10
85.502219330418
20
-2.52719237501714
30
0
41
1
10
85.119610411666
20
-2.32129085710417
30
0
41
1
10
84.8645077646686
20
-2.18075362958962
30
0
41
1
10
84.3538854685639
20
-1.89300274697069
30
0
41
1
10
84.0988824634168
20
-1.74457062366298
30
0
41
1
10
83.5884725175338
20
-1.44145217867103
30
0
41
1
10
83.3327576245983
20
-1.28733806150069
30
0
41
1
10
82.9473179817047
20
-1.05360222211974
30
0
41
1
10
82.8192108796569
20
-0.974132452611087
30
0
41
1
10
82.5622623912275
20
-0.814176710109308
30
0
41
1
10
82.4334197385035
20
-0.733754549021427
30
0
41
1
10
82.0456939192946
20
-0.491966417982667
30
0
41
1
10
81.7868700216699
20
-0.329870904416111
30
0
41
1
10
81.4011670734329
20
-0.0869742570172605
30
0
41
1
10
81.2729272884256
20
-0.0058964944111892
30
0
41
1
10
81.0168204552563
20
0.155844969593346
30
0
41
1
10
80.8888656357918
20
0.236387523218411
30
0
41
1
10
80.6328693888318
20
0.396622206932733
30
0
41
1
10
80.5046154308532
20
0.475963610622614
30
0
41
1
10
80.2496933359748
20
0.636418776550386
30
0
41
1
10
80.1223040762451
20
0.71636640480466
30
0
41
1
10
79.7397046444015
20
0.954275054896328
30
0
41
1
10
79.484275342926
20
1.11048760841547
30
0
41
1
10
78.9734412604775
20
1.41969080226971
30
0
41
1
10
78.7180082235016
20
1.57280279066941
30
0
41
1
10
78.3332316333573
20
1.79747682491777
30
0
41
1
10
78.2046852643417
20
1.87151742219319
30
0
41
1
10
77.946940602015
20
2.01764501926172
30
0
41
1
10
77.8183405860928
20
2.0906103547722
30
0
41
1
10
77.560401090352
20
2.23458503538561
30
0
41
1
10
77.4309012119749
20
2.30565354510091
30
0
41
1
10
77.1724549162653
20
2.4448968356109
30
0
41
1
10
77.0433854722991
20
2.51318788444513
30
0
41
1
10
76.6571281340325
20
2.7146728042168
30
0
41
1
10
76.4007979663436
20
2.8439726065092
30
0
41
1
10
76.0172319534243
20
3.02849254372563
30
0
41
1
10
75.889359704168
20
3.08852004858448
30
0
41
1
10
75.6334913144593
20
3.20561828588114
30
0
41
1
10
75.5052612676953
20
3.26240272809468
30
0
41
1
10
75.1228449477836
20
3.4307669822563
30
0
41
1
10
74.8678314749369
20
3.53663290646608
30
0
41
1
10
74.3564626597531
20
3.73286913963039
30
0
41
1
10
74.1005889284679
20
3.82506302943551
30
0
41
1
10
73.5879186806361
20
3.99640654248236
30
0
41
1
10
73.3308281766244
20
4.07506231691565
30
0
41
1
10
72.9426315941265
20
4.18009434209859
30
0
41
1
10
72.8132714007188
20
4.21365693993096
30
0
41
1
10
72.5550231718529
20
4.276937283862
30
0
41
1
10
72.4260397197119
20
4.30658438254426
30
0
41
1
10
72.0394257136066
20
4.38921862724925
30
0
41
1
10
71.7825130252958
20
4.43604695358587
30
0
41
1
10
71.2704272180995
20
4.5118013142577
30
0
41
1
10
71.0151753288717
20
4.54159423465237
30
0
41
1
10
70.6314563558543
20
4.57396000896
30
0
41
1
10
70.5032208008036
20
4.58261428882534
30
0
41
1
10
70.2481750645632
20
4.59576212341494
30
0
41
1
10
70.1207043961279
20
4.6001601909104
30
0
41
1
10
69.9858123316706
20
4.60261115368405
30
0
41
1
10
69.978658241253
20
4.60273491121126
30
0
41
1
10
69.971503511854
20
4.60285244047142
30
0
0
SPLINE
5
BE
100
AcDbEntity
8
1
62
256
6
ByLayer
370
18
48
1
60
0
100
AcDbSpline
70
4
71
3
72
114
73
110
40
0
40
0
40
0
40
0
40
0.0016119134657626
40
0.0016119134657626
40
0.0267983052139856
40
0.0267983052139856
40
0.0519846969622086
40
0.0519846969622086
40
0.0645778928363201
40
0.0645778928363201
40
0.0771710887104316
40
0.0771710887104316
40
0.102357480458655
40
0.102357480458655
40
0.127543872206878
40
0.127543872206878
40
0.140137068080989
40
0.140137068080989
40
0.1527302639551
40
0.1527302639551
40
0.177916655703321
40
0.177916655703321
40
0.203103047451542
40
0.203103047451542
40
0.215696243325652
40
0.215696243325652
40
0.228289439199763
40
0.228289439199763
40
0.253475830947984
40
0.253475830947984
40
0.278662222696205
40
0.278662222696205
40
0.291255418570316
40
0.291255418570316
40
0.303848614444427
40
0.303848614444427
40
0.316441810318538
40
0.316441810318538
40
0.329035006192649
40
0.329035006192649
40
0.35422139794087
40
0.35422139794087
40
0.379407789689091
40
0.379407789689091
40
0.392000985563201
40
0.392000985563201
40
0.404594181437311
40
0.404594181437311
40
0.429780573185531
40
0.429780573185531
40
0.454966964933752
40
0.454966964933752
40
0.467560160807862
40
0.467560160807862
40
0.480153356681973
40
0.480153356681973
40
0.505339748430194
40
0.505339748430194
40
0.530526140178415
40
0.530526140178415
40
0.543119336052525
40
0.543119336052525
40
0.555712531926636
40
0.555712531926636
40
0.580898923674857
40
0.580898923674857
40
0.606085315423078
40
0.606085315423078
40
0.618678511297189
40
0.618678511297189
40
0.631271707171299
40
0.631271707171299
40
0.65645809891952
40
0.65645809891952
40
0.68164449066774
40
0.68164449066774
40
0.70683088241596
40
0.70683088241596
40
0.719424078290071
40
0.719424078290071
40
0.732017274164182
40
0.732017274164182
40
0.757203665912402
40
0.757203665912402
40
0.782390057660624
40
0.782390057660624
40
0.794983253534734
40
0.794983253534734
40
0.807576449408845
40
0.807576449408845
40
0.832762841157066
40
0.832762841157066
40
0.857949232905287
40
0.857949232905287
40
0.870542428779398
40
0.870542428779398
40
0.883135624653509
40
0.883135624653509
40
0.908322016401731
40
0.908322016401731
40
0.933508408149953
40
0.933508408149953
40
0.946101604024064
40
0.946101604024064
40
0.958694799898175
40
0.958694799898175
40
0.983881191646397
40
0.983881191646397
40
1
40
1
40
1
40
1
41
1
10
54.6386364546239
20
-2.18636063502149
30
0
41
1
10
54.6221289760102
20
-2.19544789355135
30
0
41
1
10
54.6056156396114
20
-2.20451705342117
30
0
41
1
10
54.330977952634
20
-2.35498632996524
30
0
41
1
10
54.0712663367989
20
-2.49353357095453
30
0
41
1
10
53.5547581694653
20
-2.76037537352013
30
0
41
1
10
53.2974827936179
20
-2.88816983840513
30
0
41
1
10
52.9118932198035
20
-3.06925224442625
30
0
41
1
10
52.7840342870272
20
-3.12883384066632
30
0
41
1
10
52.5283328687609
20
-3.24491266561958
30
0
41
1
10
52.4004676624561
20
-3.30136095999228
30
0
41
1
10
52.016684514183
20
-3.46576130377395
30
0
41
1
10
51.7609550858054
20
-3.56922437895798
30
0
41
1
10
51.2498459441754
20
-3.76138177670006
30
0
41
1
10
50.9944001778663
20
-3.85143034623178
30
0
41
1
10
50.6094579871802
20
-3.97577307837673
30
0
41
1
10
50.4806483075708
20
-4.01525312393414
30
0
41
1
10
50.2240980195363
20
-4.09155640264868
30
0
41
1
10
50.0957267648976
20
-4.12778497095712
30
0
41
1
10
49.7092525832124
20
-4.22978393634563
30
0
41
1
10
49.4493223722868
20
-4.29019075241661
30
0
41
1
10
48.9321308411548
20
-4.3957412985333
30
0
41
1
10
48.6749201280313
20
-4.44069918094638
30
0
41
1
10
48.2897614128396
20
-4.49366936045757
30
0
41
1
10
48.1614342250646
20
-4.50907933380805
30
0
41
1
10
47.9047518151824
20
-4.53622840815746
30
0
41
1
10
47.7770343429628
20
-4.54804119386398
30
0
41
1
10
47.3938285238403
20
-4.5772688275475
30
0
41
1
10
47.1379499468254
20
-4.58870280809464
30
0
41
1
10
46.6265334411577
20
-4.5925839187347
30
0
41
1
10
46.3708996183863
20
-4.5858642139905
30
0
41
1
10
45.9867066730833
20
-4.56436306773259
30
0
41
1
10
45.858410108509
20
-4.55519900594823
30
0
41
1
10
45.6012425496693
20
-4.53278255871103
30
0
41
1
10
45.4721278222357
20
-4.51959818061104
30
0
41
1
10
45.2148481694071
20
-4.48777414288259
30
0
41
1
10
45.0860353550934
20
-4.46935205168859
30
0
41
1
10
44.8274617003092
20
-4.42890909259978
30
0
41
1
10
44.697599811348
20
-4.40682202788105
30
0
41
1
10
44.3091046457925
20
-4.33499809662462
30
0
41
1
10
44.0512755746712
20
-4.27969912645233
30
0
41
1
10
43.5378185988547
20
-4.15149643985617
30
0
41
1
10
43.2817533810364
20
-4.07914863660056
30
0
41
1
10
42.897081716163
20
-3.96201896047612
30
0
41
1
10
42.7694619255938
20
-3.92083754295092
30
0
41
1
10
42.5141107527005
20
-3.83504103904124
30
0
41
1
10
42.3863564777819
20
-3.79047117668114
30
0
41
1
10
42.0027173919668
20
-3.65133946746175
30
0
41
1
10
41.7467671693204
20
-3.55121322354168
30
0
41
1
10
41.2343405304222
20
-3.33906790058424
30
0
41
1
10
40.9779836434318
20
-3.22644192428999
30
0
41
1
10
40.5911463797802
20
-3.04869476179556
30
0
41
1
10
40.461614845174
20
-2.98817207915079
30
0
41
1
10
40.2034369896978
20
-2.86238835916845
30
0
41
1
10
40.0739333443282
20
-2.79792416952156
30
0
41
1
10
39.6856262956502
20
-2.60197860778155
30
0
41
1
10
39.4273752089192
20
-2.46757000114639
30
0
41
1
10
38.9131539865722
20
-2.18964415921661
30
0
41
1
10
38.6571017276281
20
-2.04633866044503
30
0
41
1
10
38.2728418001162
20
-1.82763727454395
30
0
41
1
10
38.144719584892
20
-1.75410753678901
30
0
41
1
10
37.8883779609161
20
-1.60579144687691
30
0
41
1
10
37.7607980352895
20
-1.5300221607807
30
0
41
1
10
37.3777223072374
20
-1.30109519851382
30
0
41
1
10
37.1215941140301
20
-1.1468728374727
30
0
41
1
10
36.6088697835382
20
-0.833912862911831
30
0
41
1
10
36.3522973323809
20
-0.674990013784111
30
0
41
1
10
35.9661769125833
20
-0.434101090374668
30
0
41
1
10
35.8371439686026
20
-0.35361408537392
30
0
41
1
10
35.5783290251061
20
-0.192514941271668
30
0
41
1
10
35.4481699869814
20
-0.112204597920368
30
0
41
1
10
35.0599963057098
20
0.132338875848944
30
0
41
1
10
34.8021472549237
20
0.294228224961955
30
0
41
1
10
34.2875009870907
20
0.614054275969323
30
0
41
1
10
34.0310556281281
20
0.772865944617337
30
0
41
1
10
33.5192375849143
20
1.08731705228138
30
0
41
1
10
33.2635673846165
20
1.24239331039323
30
0
41
1
10
32.8792807374079
20
1.46980046409453
30
0
41
1
10
32.7517412430681
20
1.54580854963982
30
0
41
1
10
32.496318194319
20
1.69605964637378
30
0
41
1
10
32.3684355002311
20
1.77030486868688
30
0
41
1
10
31.9841168474854
20
1.99020374712339
30
0
41
1
10
31.7273938623717
20
2.13358984179615
30
0
41
1
10
31.2128087044003
20
2.41306990800996
30
0
41
1
10
30.9549807304355
20
2.54930448016572
30
0
41
1
10
30.5654889179603
20
2.74606587467383
30
0
41
1
10
30.4355231692531
20
2.8098966973233
30
0
41
1
10
30.1776648196598
20
2.93645319837128
30
0
41
1
10
30.0490035730554
20
2.99822139392032
30
0
41
1
10
29.6632164132301
20
3.17803910619347
30
0
41
1
10
29.4063846719452
20
3.29090358853836
30
0
41
1
10
28.89400695555
20
3.50600601093356
30
0
41
1
10
28.6386008678813
20
3.60758185850042
30
0
41
1
10
28.2549531937312
20
3.74834582806588
30
0
41
1
10
28.1269699649715
20
3.79328786869544
30
0
41
1
10
27.8707115148576
20
3.87963139573526
30
0
41
1
10
27.7430872126661
20
3.92172897728989
30
0
41
1
10
27.3595646703486
20
4.04284119199818
30
0
41
1
10
27.1028616468491
20
4.11621046963731
30
0
41
1
10
26.5883679099615
20
4.24679434779722
30
0
41
1
10
26.3305255065783
20
4.30398369379884
30
0
41
1
10
25.9420500129824
20
4.37902758799009
30
0
41
1
10
25.8122948050273
20
4.40205351429989
30
0
41
1
10
25.5534343463708
20
4.443814489076
30
0
41
1
10
25.4239680783369
20
4.46240443908104
30
0
41
1
10
25.0385338643702
20
4.51171877638859
30
0
41
1
10
24.7820923825227
20
4.53561213387215
30
0
41
1
10
24.3615064226399
20
4.56278370305623
30
0
41
1
10
24.1976102487682
20
4.57026359957223
30
0
41
1
10
24.0338994485182
20
4.57405373464096
30
0
0
SPLINE
5
BF
100
AcDbEntity
8
1
62
256
6
ByLayer
370
18
48
1
60
0
100
AcDbSpline
70
4
71
3
72
8
73
4
40
0
40
0
40
0
40
0
40
1
40
1
40
1
40
1
41
1
10
111.810887153512
20
-1.28681188693821
30
0
41
1
10
111.873036871144
20
-0.911280724058003
30
0
41
1
10
111.927767504691
20
-0.535798258436841
30
0
41
1
10
111.975026433458
20
-0.160364835465543
30
0
0
SPLINE
5
C0
100
AcDbEntity
8
1
62
256
6
ByLayer
370
18
48
1
60
0
100
AcDbSpline
70
4
71
3
72
8
73
4
40
0
40
0
40
0
40
0
40
1
40
1
40
1
40
1
41
1
10
7.99999992523806
20
-1.01541473947512
30
0
41
1
10
7.99999992523806
20
-1.0170411677652
30
0
41
1
10
7.99999992523806
20
-1.01866743137416
30
0
41
1
10
7.99999992523806
20
-1.02029353089796
30
0
0
SPLINE
5
C1
100
AcDbEntity
8
1
62
256
6
ByLayer
370
18
48
1
60
0
100
AcDbSpline
70
4
71
3
72
8
73
4
40
0
40
0
40
0
40
0
40
1
40
1
40
1
40
1
41
1
10
111.99994343604
20
0.047156140388779
30
0
41
1
10
112.000018854593
20
0.0157187382816062
30
0
41
1
10
112.000018854593
20
-0.0157187382808388
30
0
41
1
10
111.99994343604
20
-0.0471561403879832
30
0
0
SPLINE
5
C2
100
AcDbEntity
8
1
62
256
6
ByLayer
370
18
48
1
60
0
100
AcDbSpline
70
4
71
3
72
14
73
10
40
0
40
0
40
0
40
0
40
0.393390851005321
40
0.393390851005321
40
0.590086276507983
40
0.590086276507983
40
0.786781702010645
40
0.786781702010645
40
1
40
1
40
1
40
1
41
1
10
8.19639790312806
20
-1.23206619149613
30
0
41
1
10
8.73347655718095
20
-1.56231696646643
30
0
41
1
10
9.26760203435256
20
-1.88032952688064
30
0
41
1
10
10.0692568190327
20
-2.33225733939028
30
0
41
1
10
10.3365829605763
20
-2.47867219550247
30
0
41
1
10
10.8724446010857
20
-2.76163706382059
30
0
41
1
10
11.1417317807411
20
-2.89852581482557
30
0
41
1
10
11.7002787847217
20
-3.1697509736205
30
0
41
1
10
11.9894354438176
20
-3.30302763441299
30
0
41
1
10
12.2778056008833
20
-3.42800196368384
30
0
0
SPLINE
5
C3
100
AcDbEntity
8
1
62
256
6
ByLayer
370
13
48
1
60
0
100
AcDbSpline
70
4
71
3
72
16
73
12
40
0
40
0
40
0
40
0
40
0.333943773009412
40
0.333943773009412
40
0.44846507101705
40
0.44846507101705
40
0.562986369024688
40
0.562986369024688
40
0.792028965039962
40
0.792028965039962
40
1
40
1
40
1
40
1
41
1
10
12.2778060611841
20
-3.42800216316977
30
0
41
1
10
13.0535299895221
20
-3.76418664237468
30
0
41
1
10
13.8235625923391
20
-4.04029334714843
30
0
41
1
10
14.865377825187
20
-4.31733265379543
30
0
41
1
10
15.1320573078633
20
-4.37983697420984
30
0
41
1
10
15.6676058821123
20
-4.48752349319884
30
0
41
1
10
15.936957226963
20
-4.53270199159005
30
0
41
1
10
16.7394874462788
20
-4.63984119420985
30
0
41
1
10
17.2702292852634
20
-4.6740798258131
30
0
41
1
10
18.2818924676746
20
-4.66948889621531
30
0
41
1
10
18.7628165131517
20
-4.63700581304721
30
0
41
1
10
19.2458553716264
20
-4.57429997111078
30
0
0
SPLINE
5
C4
100
AcDbEntity
8
1
62
256
6
ByLayer
370
18
48
1
60
0
100
AcDbSpline
70
4
71
3
72
18
73
14
40
0
40
0
40
0
40
0
40
0.0466265679918184
40
0.0466265679918184
40
0.111027826571648
40
0.111027826571648
40
0.626237895210254
40
0.626237895210254
40
0.755040412369902
40
0.755040412369902
40
0.88384292952955
40
0.88384292952955
40
1
40
1
40
1
40
1
41
1
10
52.2349063917438
20
0.0034235098007969
30
0
41
1
10
52.3315921029918
20
-0.0585693475799758
30
0
41
1
10
52.4284129191598
20
-0.120657607312609
30
0
41
1
10
52.659356283522
20
-0.268621007989594
30
0
41
1
10
52.79373769563
20
-0.354612070693548
30
0
41
1
10
53.9988395072164
20
-1.12369262975997
30
0
41
1
10
55.0516264986034
20
-1.78201737734639
30
0
41
1
10
56.3816965628417
20
-2.51863323039072
30
0
41
1
10
56.6483949642916
20
-2.66166039094281
30
0
41
1
10
57.1840342443971
20
-2.93779210021339
30
0
41
1
10
57.4526430159882
20
-3.07059234689328
30
0
41
1
10
57.9618488120164
20
-3.31007967362115
30
0
41
1
10
58.2031299451355
20
-3.41839561553408
30
0
41
1
10
58.4444920875993
20
-3.52102500788516
30
0
0
SPLINE
5
C5
100
AcDbEntity
8
1
62
256
6
ByLayer
370
13
48
1
60
0
100
AcDbSpline
70
4
71
3
72
16
73
12
40
0
40
0
40
0
40
0
40
0.129806121871736
40
0.129806121871736
40
0.602611944208028
40
0.602611944208028
40
0.7208133997921
40
0.7208133997921
40
0.83901485537617
40
0.83901485537617
40
1
40
1
40
1
40
1
41
1
10
58.4444920863613
20
-3.52102500735873
30
0
41
1
10
58.7384060384894
20
-3.64599991025051
30
0
41
1
10
59.032440116673
20
-3.76254241839044
30
0
41
1
10
60.4001970986507
20
-4.26074176443922
30
0
41
1
10
61.4526039307071
20
-4.51986521990463
30
0
41
1
10
62.7793942899671
20
-4.66264488958089
30
0
41
1
10
63.0452469863324
20
-4.68211630610904
30
0
41
1
10
63.5788517492472
20
-4.70243870373506
30
0
41
1
10
63.8475938511785
20
-4.70331176474121
30
0
41
1
10
64.4794493409392
20
-4.68298105055837
30
0
41
1
10
64.8415117193991
20
-4.65385904620902
30
0
41
1
10
65.2026225552586
20
-4.6080541050988
30
0
0
SPLINE
5
C6
100
AcDbEntity
8
1
62
256
6
ByLayer
370
18
48
1
60
0
100
AcDbSpline
70
4
71
3
72
20
73
16
40
0
40
0
40
0
40
0
40
0.130695942216752
40
0.130695942216752
40
0.24183184972259
40
0.24183184972259
40
0.352967757228428
40
0.352967757228428
40
0.797511387251769
40
0.797511387251769
40
0.9086472947576
40
0.9086472947576
40
0.964215248510515
40
0.964215248510515
40
1
40
1
40
1
40
1
41
1
10
98.2392274621982
20
0.0006250488023056
30
0
41
1
10
98.549788416418
20
-0.199695211582195
30
0
41
1
10
98.8602398091226
20
-0.399987243332447
30
0
41
1
10
99.4358010600238
20
-0.768455347432621
30
0
41
1
10
99.7007928761976
20
-0.936873705138908
30
0
41
1
10
100.232676180302
20
-1.27042485106986
30
0
41
1
10
100.499984611455
20
-1.43575639960554
30
0
41
1
10
101.839054222634
20
-2.24852566515139
30
0
41
1
10
102.888772347724
20
-2.83537324382547
30
0
41
1
10
104.211669561351
20
-3.44342640342245
30
0
41
1
10
104.476769470874
20
-3.55877071411132
30
0
41
1
10
104.875892265254
20
-3.72149394507304
30
0
41
1
10
105.009177184945
20
-3.77402073787533
30
0
41
1
10
105.22878468183
20
-3.85743671031219
30
0
41
1
10
105.315020206601
20
-3.8894012703378
30
0
41
1
10
105.401223032519
20
-3.9205421217286
30
0
0
SPLINE
5
C7
100
AcDbEntity
8
1
62
256
6
ByLayer
370
13
48
1
60
0
100
AcDbSpline
70
4
71
3
72
16
73
12
40
0
40
0
40
0
40
0
40
0.0288133426374649
40
0.0288133426374649
40
0.352542228424977
40
0.352542228424977
40
0.676271114212486
40
0.676271114212486
40
0.838135557106243
40
0.838135557106243
40
1
40
1
40
1
40
1
41
1
10
105.401223033891
20
-3.92054212222431
30
0
41
1
10
105.44887930796
20
-3.93775799574559
30
0
41
1
10
105.49652558825
20
-3.95472211851168
30
0
41
1
10
106.078870501811
20
-4.15897178253596
30
0
41
1
10
106.608826201167
20
-4.31297392749582
30
0
41
1
10
107.666092410412
20
-4.55133788621248
30
0
41
1
10
108.193503591336
20
-4.63563855291102
30
0
41
1
10
108.988382775726
20
-4.70715516710987
30
0
41
1
10
109.253960454656
20
-4.72183788715259
30
0
41
1
10
109.787165809217
20
-4.73245397329015
30
0
41
1
10
110.055218708884
20
-4.7283399805336
30
0
41
1
10
110.322848815331
20
-4.7147532830592
30
0
0
SPLINE
5
C8
100
AcDbEntity
8
1
62
256
6
ByLayer
370
18
48
1
60
0
100
AcDbSpline
70
4
71
3
72
16
73
12
40
0
40
0
40
0
40
0
40
0.12500000000002
40
0.12500000000002
40
0.250000000000039
40
0.250000000000039
40
0.500000000000026
40
0.500000000000026
40
0.750000000000013
40
0.750000000000013
40
1
40
1
40
1
40
1
41
1
10
110.272762757864
20
1.23793851630822
30
0
41
1
10
110.337245599767
20
1.23843688538628
30
0
41
1
10
110.401731080666
20
1.2389416205952
30
0
41
1
10
110.530467603145
20
1.24084489900116
30
0
41
1
10
110.594676313861
20
1.24241524937003
30
0
41
1
10
110.787345974608
20
1.24695750360567
30
0
41
1
10
110.915724648083
20
1.2502484626641
30
0
41
1
10
111.172257650482
20
1.25770035273211
30
0
41
1
10
111.300436400876
20
1.26176658122
30
0
41
1
10
111.556148208838
20
1.27240293071111
30
0
41
1
10
111.683677930414
20
1.27898598815438
30
0
41
1
10
111.810887153514
20
1.28681188693815
30
0
0
SPLINE
5
C9
100
AcDbEntity
8
1
62
256
6
ByLayer
370
18
48
1
60
0
100
AcDbSpline
70
4
71
3
72
18
73
14
40
0
40
0
40
0
40
0
40
0.249999999999993
40
0.249999999999993
40
0.374999999999994
40
0.374999999999994
40
0.499999999999994
40
0.499999999999994
40
0.749999999999995
40
0.749999999999995
40
0.874999999999998
40
0.874999999999998
40
1
40
1
40
1
40
1
41
1
10
110.260551863808
20
-4.62372602392404
30
0
41
1
10
110.161271821076
20
-4.60992585892262
30
0
41
1
10
110.0693396953
20
-4.57506264772198
30
0
41
1
10
109.943515863298
20
-4.48815628947338
30
0
41
1
10
109.903531318466
20
-4.45322420512116
30
0
41
1
10
109.829435217609
20
-4.37277071685233
30
0
41
1
10
109.79510135845
20
-4.32713678566324
30
0
41
1
10
109.700293226535
20
-4.17391208467663
30
0
41
1
10
109.647939589943
20
-4.05014345768748
30
0
41
1
10
109.587064680054
20
-3.82931730171356
30
0
41
1
10
109.569748461499
20
-3.74960473114996
30
0
41
1
10
109.541966115943
20
-3.5813457462516
30
0
41
1
10
109.531379435946
20
-3.49244216103003
30
0
41
1
10
109.524118208748
20
-3.39873420151793
30
0
0
SPLINE
5
CA
100
AcDbEntity
8
1
62
256
6
ByLayer
370
18
48
1
60
0
100
AcDbSpline
70
4
71
3
72
22
73
18
40
0
40
0
40
0
40
0
40
0.125
40
0.125
40
0.249999999999999
40
0.249999999999999
40
0.374999999999999
40
0.374999999999999
40
0.499999999999999
40
0.499999999999999
40
0.624999999999999
40
0.624999999999999
40
0.75
40
0.75
40
0.875
40
0.875
40
1
40
1
40
1
40
1
41
1
10
111.346948048967
20
-1.63887703661589
30
0
41
1
10
111.346129007595
20
-1.66307551543704
30
0
41
1
10
111.342853855377
20
-1.69170097724208
30
0
41
1
10
111.331197407041
20
-1.75813825269484
30
0
41
1
10
111.322859723825
20
-1.79541790495105
30
0
41
1
10
111.302012781098
20
-1.87478898309004
30
0
41
1
10
111.289337476239
20
-1.91745062562717
30
0
41
1
10
111.261352199555
20
-2.00326946666041
30
0
41
1
10
111.24570170046
20
-2.04749320526423
30
0
41
1
10
111.213148959526
20
-2.13357070707119
30
0
41
1
10
111.195949774064
20
-2.17625460227808
30
0
41
1
10
111.161063415114
20
-2.25816574305003
30
0
41
1
10
111.143506513312
20
-2.29713919252873
30
0
41
1
10
111.108219718604
20
-2.37145706955164
30
0
41
1
10
111.090684371398
20
-2.40635340233385
30
0
41
1
10
111.056768842671
20
-2.47012886379335
30
0
41
1
10
111.040238111954
20
-2.49932465974263
30
0
41
1
10
111.024142984196
20
-2.52577666296443
30
0
0
SPLINE
5
CB
100
AcDbEntity
8
1
62
256
6
ByLayer
370
18
48
1
60
0
100
AcDbSpline
70
4
71
3
72
8
73
4
40
0
40
0
40
0
40
0
40
1
40
1
40
1
40
1
41
1
10
110.417198893403
20
-4.76803451590365
30
0
41
1
10
110.354796939518
20
-4.82885445202879
30
0
41
1
10
110.300254566711
20
-4.86914287827497
30
0
41
1
10
110.253196641889
20
-4.88788297964555
30
0
0
SPLINE
5
CC
100
AcDbEntity
8
1
62
256
6
ByLayer
370
18
48
1
60
0
100
AcDbSpline
70
4
71
3
72
116
73
112
40
0
40
0
40
0
40
0
40
0.025898728099465
40
0.025898728099465
40
0.0388480921491975
40
0.0388480921491975
40
0.0517974561989301
40
0.0517974561989301
40
0.0776961842983951
40
0.0776961842983951
40
0.10359491239786
40
0.10359491239786
40
0.116544276447593
40
0.116544276447593
40
0.129493640497325
40
0.129493640497325
40
0.142443004547058
40
0.142443004547058
40
0.15539236859679
40
0.15539236859679
40
0.181291096696256
40
0.181291096696256
40
0.207189824795721
40
0.207189824795721
40
0.233088552895187
40
0.233088552895187
40
0.258987280994652
40
0.258987280994652
40
0.271936645044385
40
0.271936645044385
40
0.284886009094118
40
0.284886009094118
40
0.29783537314385
40
0.29783537314385
40
0.310784737193583
40
0.310784737193583
40
0.336683465293049
40
0.336683465293049
40
0.362582193392514
40
0.362582193392514
40
0.375531557442247
40
0.375531557442247
40
0.38848092149198
40
0.38848092149198
40
0.414379649591445
40
0.414379649591445
40
0.440278377690911
40
0.440278377690911
40
0.453227741740643
40
0.453227741740643
40
0.466177105790375
40
0.466177105790375
40
0.49207583388984
40
0.49207583388984
40
0.517974561989305
40
0.517974561989305
40
0.530923926039037
40
0.530923926039037
40
0.543873290088769
40
0.543873290088769
40
0.569772018188233
40
0.569772018188233
40
0.582721382237965
40
0.582721382237965
40
0.595670746287697
40
0.595670746287697
40
0.60862011033743
40
0.60862011033743
40
0.621569474387162
40
0.621569474387162
40
0.647468202486626
40
0.647468202486626
40
0.673366930586089
40
0.673366930586089
40
0.699265658685553
40
0.699265658685553
40
0.712215022735285
40
0.712215022735285
40
0.725164386785016
40
0.725164386785016
40
0.75106311488448
40
0.75106311488448
40
0.764012478934212
40
0.764012478934212
40
0.776961842983943
40
0.776961842983943
40
0.789911207033675
40
0.789911207033675
40
0.802860571083407
40
0.802860571083407
40
0.828759299182871
40
0.828759299182871
40
0.854658027282334
40
0.854658027282334
40
0.867607391332066
40
0.867607391332066
40
0.880556755381798
40
0.880556755381798
40
0.906455483481261
40
0.906455483481261
40
0.932354211580725
40
0.932354211580725
40
0.945303575630457
40
0.945303575630457
40
0.958252939680188
40
0.958252939680188
40
0.97120230372992
40
0.97120230372992
40
0.984151667779652
40
0.984151667779652
40
1
40
1
40
1
40
1
41
1
10
9.09686844815263
20
2.45560859134378
30
0
41
1
10
9.36260100908072
20
2.60918434688134
30
0
41
1
10
9.62803430796708
20
2.75575588000288
30
0
41
1
10
10.0262454692804
20
2.96517143899985
30
0
41
1
10
10.1589250150936
20
3.03332765342799
30
0
41
1
10
10.4233299920147
20
3.16734367682903
30
0
41
1
10
10.5547473280426
20
3.23353493711355
30
0
41
1
10
10.9503030662743
20
3.42541800196639
30
0
41
1
10
11.2146778133588
20
3.54578529986983
30
0
41
1
10
11.7420804560662
20
3.77430504234215
30
0
41
1
10
12.0056831488952
20
3.88177135887895
30
0
41
1
10
12.4030220362365
20
4.03080816564335
30
0
41
1
10
12.5357423720532
20
4.07851534195976
30
0
41
1
10
12.8015086906868
20
4.17015317484308
30
0
41
1
10
12.9341505820605
20
4.21439972928624
30
0
41
1
10
13.200173765841
20
4.29867054875464
30
0
41
1
10
13.3336687927309
20
4.33858854566844
30
0
41
1
10
13.5999093866876
20
4.41363501882637
30
0
41
1
10
13.7328619203312
20
4.4488473747044
30
0
41
1
10
14.1303242656039
20
4.54816131270366
30
0
41
1
10
14.3938290986634
20
4.60560532922017
30
0
41
1
10
14.9210922378922
20
4.70165512725853
30
0
41
1
10
15.1852734079807
20
4.74029703981398
30
0
41
1
10
15.71004081744
20
4.80012311526778
30
0
41
1
10
15.9735269767329
20
4.82046514256251
30
0
41
1
10
16.5011761020138
20
4.84265594211064
30
0
41
1
10
16.7646782608126
20
4.84443289243077
30
0
41
1
10
17.162034079381
20
4.83273649463737
30
0
41
1
10
17.2948421098705
20
4.82646298475598
30
0
41
1
10
17.5611934703674
20
4.80916210591417
30
0
41
1
10
17.6950203706148
20
4.79813182849355
30
0
41
1
10
17.9612663849322
20
4.77122891381148
30
0
41
1
10
18.0935528891078
20
4.75527632088239
30
0
41
1
10
18.3585806449289
20
4.71902854237473
30
0
41
1
10
18.4910514601876
20
4.69867636150198
30
0
41
1
10
18.887992879636
20
4.63096179252207
30
0
41
1
10
19.1511789768108
20
4.57655100651061
30
0
41
1
10
19.6772501291522
20
4.45041267224261
30
0
41
1
10
19.9405432985657
20
4.37898872841919
30
0
41
1
10
20.3355556842001
20
4.25929566221123
30
0
41
1
10
20.4667225175151
20
4.21691278133173
30
0
41
1
10
20.7296223202306
20
4.1282567663072
30
0
41
1
10
20.8613815058315
20
4.08202454406938
30
0
41
1
10
21.2575081008507
20
3.93763000562325
30
0
41
1
10
21.522013968943
20
3.83315871005072
30
0
41
1
10
22.0526039504652
20
3.60791103283412
30
0
41
1
10
22.3200633975806
20
3.48747084445719
30
0
41
1
10
22.7189089001041
20
3.2984147295864
30
0
41
1
10
22.8515172305908
20
3.23380869591779
30
0
41
1
10
23.1153968863394
20
3.10061755606998
30
0
41
1
10
23.2473554197952
20
3.03284311994756
30
0
41
1
10
23.6432215273963
20
2.82600810032594
30
0
41
1
10
23.9068424353482
20
2.68311889432727
30
0
41
1
10
24.4324080013502
20
2.38595008802304
30
0
41
1
10
24.695135495959
20
2.23265908727302
30
0
41
1
10
25.0903539692826
20
1.99738946680571
30
0
41
1
10
25.2223257061748
20
1.91814929820129
30
0
41
1
10
25.4856833110113
20
1.75650880522292
30
0
41
1
10
25.6170683442296
20
1.67408699964494
30
0
41
1
10
26.0131664894584
20
1.42609999634377
30
0
41
1
10
26.2788035026354
20
1.25840871314588
30
0
41
1
10
26.6778446900525
20
1.00046163625862
30
0
41
1
10
26.8111815144844
20
0.913558014526615
30
0
41
1
10
27.0769839461593
20
0.739850681835662
30
0
41
1
10
27.2096720860274
20
0.652919084051092
30
0
41
1
10
27.4748054833079
20
0.479175256958797
30
0
41
1
10
27.6072203462904
20
0.392314993452373
30
0
41
1
10
27.871525025655
20
0.218268403777415
30
0
41
1
10
28.0028847805892
20
0.130262343270744
30
0
41
1
10
28.3974841875307
20
-0.132210602166992
30
0
41
1
10
28.6611591557786
20
-0.305284523454048
30
0
41
1
10
29.1869322726104
20
-0.651933504250877
30
0
41
1
10
29.4493366948464
20
-0.825024436983142
30
0
41
1
10
29.976221564112
20
-1.16612128730244
30
0
41
1
10
30.2408442813682
20
-1.33393164995743
30
0
41
1
10
30.6368645586356
20
-1.58551563591683
30
0
41
1
10
30.7693354083481
20
-1.66843212096936
30
0
41
1
10
31.03515364225
20
-1.83245675080676
30
0
41
1
10
31.1687460493864
20
-1.91361704328185
30
0
41
1
10
31.5685841179095
20
-2.15461151779024
30
0
41
1
10
31.8331178477032
20
-2.31158070964466
30
0
41
1
10
32.2294932231241
20
-2.53800979394072
30
0
41
1
10
32.3615500261034
20
-2.61199205381376
30
0
41
1
10
32.6254725408512
20
-2.75709460257201
30
0
41
1
10
32.7574859691015
20
-2.82803697880675
30
0
41
1
10
33.0202083885518
20
-2.96843370682396
30
0
41
1
10
33.1512562626461
20
-3.03744528527466
30
0
41
1
10
33.4140620631517
20
-3.1715169380258
30
0
41
1
10
33.5456498294922
20
-3.23679244840804
30
0
41
1
10
33.9404930828937
20
-3.42793459383756
30
0
41
1
10
34.2031007982192
20
-3.54988376489283
30
0
41
1
10
34.7300055002786
20
-3.77943078350063
30
0
41
1
10
34.9946333953689
20
-3.88675869394371
30
0
41
1
10
35.3928689104549
20
-4.03695532998196
30
0
41
1
10
35.5252441244965
20
-4.08572236749279
30
0
41
1
10
35.7913340862372
20
-4.17875097977011
30
0
41
1
10
35.9246088578591
20
-4.22303372967932
30
0
41
1
10
36.3234286448657
20
-4.34892894451676
30
0
41
1
10
36.5877913186203
20
-4.42441502258922
30
0
41
1
10
37.1148908602822
20
-4.55766565561373
30
0
41
1
10
37.3782266233819
20
-4.61511057921845
30
0
41
1
10
37.7730993816564
20
-4.68774470518596
30
0
41
1
10
37.9044555981122
20
-4.70980137312438
30
0
41
1
10
38.1666694860397
20
-4.74947974465047
30
0
41
1
10
38.2980158648217
20
-4.76693392398019
30
0
41
1
10
38.5611355802764
20
-4.79717116853928
30
0
41
1
10
38.6929516649674
20
-4.80995073192568
30
0
41
1
10
38.9564637430622
20
-4.83095512628017
30
0
41
1
10
39.0881507784343
20
-4.83916648775912
30
0
41
1
10
39.3813984190937
20
-4.8521636436995
30
0
41
1
10
39.54312531034
20
-4.85576654436508
30
0
41
1
10
39.705352670297
20
-4.8558023973859
30
0
0
SPLINE
5
CD
100
AcDbEntity
8
1
62
256
6
ByLayer
370
18
48
1
60
0
100
AcDbSpline
70
4
71
3
72
118
73
114
40
0
40
0
40
0
40
0
40
0.0138990121983099
40
0.0138990121983099
40
0.0266268429169622
40
0.0266268429169622
40
0.0393546736356144
40
0.0393546736356144
40
0.064810335072919
40
0.064810335072919
40
0.0902659965102235
40
0.0902659965102235
40
0.102993827228876
40
0.102993827228876
40
0.115721657947528
40
0.115721657947528
40
0.141177319384832
40
0.141177319384832
40
0.166632980822137
40
0.166632980822137
40
0.179360811540788
40
0.179360811540788
40
0.19208864225944
40
0.19208864225944
40
0.217544303696743
40
0.217544303696743
40
0.242999965134047
40
0.242999965134047
40
0.255727795852699
40
0.255727795852699
40
0.26845562657135
40
0.26845562657135
40
0.293911288008653
40
0.293911288008653
40
0.319366949445956
40
0.319366949445956
40
0.344822610883258
40
0.344822610883258
40
0.357550441601909
40
0.357550441601909
40
0.37027827232056
40
0.37027827232056
40
0.395733933757862
40
0.395733933757862
40
0.408461764476512
40
0.408461764476512
40
0.421189595195162
40
0.421189595195162
40
0.446645256632463
40
0.446645256632463
40
0.459373087351113
40
0.459373087351113
40
0.472100918069764
40
0.472100918069764
40
0.497556579507065
40
0.497556579507065
40
0.510284410225715
40
0.510284410225715
40
0.523012240944365
40
0.523012240944365
40
0.548467902381666
40
0.548467902381666
40
0.573923563818967
40
0.573923563818967
40
0.586651394537617
40
0.586651394537617
40
0.599379225256267
40
0.599379225256267
40
0.624834886693567
40
0.624834886693567
40
0.650290548130867
40
0.650290548130867
40
0.663018378849516
40
0.663018378849516
40
0.675746209568166
40
0.675746209568166
40
0.688474040286815
40
0.688474040286815
40
0.701201871005465
40
0.701201871005465
40
0.726657532442764
40
0.726657532442764
40
0.739385363161413
40
0.739385363161413
40
0.752113193880063
40
0.752113193880063
40
0.777568855317362
40
0.777568855317362
40
0.803024516754661
40
0.803024516754661
40
0.82848017819196
40
0.82848017819196
40
0.84120800891061
40
0.84120800891061
40
0.853935839629259
40
0.853935839629259
40
0.879391501066557
40
0.879391501066557
40
0.904847162503855
40
0.904847162503855
40
0.917574993222504
40
0.917574993222504
40
0.930302823941153
40
0.930302823941153
40
0.943030654659803
40
0.943030654659803
40
0.955758485378452
40
0.955758485378452
40
0.98121414681575
40
0.98121414681575
40
0.993941977534399
40
0.993941977534399
40
1
40
1
40
1
40
1
41
1
10
54.6343867899915
20
2.19754972615155
30
0
41
1
10
54.77853858651
20
2.28302967416596
30
0
41
1
10
54.92253854821
20
2.36697586900453
30
0
41
1
10
55.1982875398627
20
2.52467629877245
30
0
41
1
10
55.3301318069048
20
2.59859400757674
30
0
41
1
10
55.5923318110047
20
2.74547134028322
30
0
41
1
10
55.7234126079805
20
2.81748551858661
30
0
41
1
10
56.1173654823444
20
3.02837072871228
30
0
41
1
10
56.3805311463482
20
3.16265812229446
30
0
41
1
10
56.9060207127509
20
3.42077131003694
30
0
41
1
10
57.1691020868319
20
3.5436732638928
30
0
41
1
10
57.5658334044616
20
3.71705491728539
30
0
41
1
10
57.6983728659228
20
3.7730866378904
30
0
41
1
10
57.9637118810251
20
3.88191514561279
30
0
41
1
10
58.0959817858938
20
3.93520378386751
30
0
41
1
10
58.495187587021
20
4.08816965111609
30
0
41
1
10
58.7609791419732
20
4.18089477183412
30
0
41
1
10
59.2891341239581
20
4.3505675624113
30
0
41
1
10
59.5520198169616
20
4.42698533751295
30
0
41
1
10
59.9466980727769
20
4.5278525705582
30
0
41
1
10
60.0782760808665
20
4.55922174539799
30
0
41
1
10
60.3412492966405
20
4.61760341728237
30
0
41
1
10
60.4723214286452
20
4.64476809532624
30
0
41
1
10
60.8654386375827
20
4.71949675432654
30
0
41
1
10
61.1287539438933
20
4.75982890733167
30
0
41
1
10
61.6553429129054
20
4.82257183661278
30
0
41
1
10
61.9185460008903
20
4.84484799634976
30
0
41
1
10
62.3157054805325
20
4.86386915362434
30
0
41
1
10
62.448485077748
20
4.8678298283657
30
0
41
1
10
62.7147046931257
20
4.87098013170981
30
0
41
1
10
62.8483165909536
20
4.87017528258389
30
0
41
1
10
63.2456150428774
20
4.86042997099156
30
0
41
1
10
63.5101326375436
20
4.84434532565044
30
0
41
1
10
64.0379575719719
20
4.79379872676751
30
0
41
1
10
64.3003693608862
20
4.75902804843352
30
0
41
1
10
64.8255166446983
20
4.67151628015998
30
0
41
1
10
65.0885358280233
20
4.61900693420748
30
0
41
1
10
65.4827130022932
20
4.52672560500073
30
0
41
1
10
65.6134885414821
20
4.49336509621318
30
0
41
1
10
65.8762219193235
20
4.42278212360242
30
0
41
1
10
66.0079088093376
20
4.38542537516864
30
0
41
1
10
66.4037220553556
20
4.26708087307873
30
0
41
1
10
66.6677431777405
20
4.17917898293848
30
0
41
1
10
67.0655263729301
20
4.03452176429675
30
0
41
1
10
67.1986983585509
20
3.98414529227051
30
0
41
1
10
67.4648275658625
20
3.87992015690082
30
0
41
1
10
67.5976851259436
20
3.8261026700261
30
0
41
1
10
67.995315767994
20
3.65929644477026
30
0
41
1
10
68.2580047958081
20
3.53971511582216
30
0
41
1
10
68.6530937732679
20
3.35278350172536
30
0
41
1
10
68.7848004399367
20
3.28905954706755
30
0
41
1
10
69.0475964379351
20
3.15807050881813
30
0
41
1
10
69.1787459471117
20
3.09086529527133
30
0
41
1
10
69.5721599550489
20
2.88492725106829
30
0
41
1
10
69.8346256306872
20
2.74216657011985
30
0
41
1
10
70.2293274472207
20
2.52082346819168
30
0
41
1
10
70.3611286098472
20
2.44594201000362
30
0
41
1
10
70.6237140040565
20
2.29192100784854
30
0
41
1
10
70.7552708418466
20
2.21380705798177
30
0
41
1
10
71.1512532035022
20
1.97691054541394
30
0
41
1
10
71.4166236677923
20
1.81511576197073
30
0
41
1
10
71.9484675536183
20
1.48102149352945
30
0
41
1
10
72.2134644690478
20
1.31125836502619
30
0
41
1
10
72.610105541829
20
1.0555247017665
30
0
41
1
10
72.7422000204328
20
0.970016842350731
30
0
41
1
10
73.0056393476737
20
0.797700520121907
30
0
41
1
10
73.1365540793279
20
0.710238465870788
30
0
41
1
10
73.5304614903625
20
0.44937068640175
30
0
41
1
10
73.7936055834108
20
0.27595403028721
30
0
41
1
10
74.3182888451802
20
-0.0739687696384692
30
0
41
1
10
74.5803772354869
20
-0.24964258087806
30
0
41
1
10
74.9752169527409
20
-0.511032827531352
30
0
41
1
10
75.1070713842327
20
-0.597875225359985
30
0
41
1
10
75.3710431695356
20
-0.771321567734276
30
0
41
1
10
75.5028066349802
20
-0.858468741580424
30
0
41
1
10
75.7668397238103
20
-1.03215666810823
30
0
41
1
10
75.8993259246199
20
-1.11836418255436
30
0
41
1
10
76.1651871264595
20
-1.28958292498245
30
0
41
1
10
76.2986889281503
20
-1.37465034538428
30
0
41
1
10
76.6969920452934
20
-1.62778078369988
30
0
41
1
10
76.9607352728294
20
-1.79374619808158
30
0
41
1
10
77.3561218214314
20
-2.03508719815665
30
0
41
1
10
77.4878780961581
20
-2.11427890052261
30
0
41
1
10
77.7511597546668
20
-2.27040210462496
30
0
41
1
10
77.8827899009178
20
-2.34719932566699
30
0
41
1
10
78.2755626139238
20
-2.57651664068749
30
0
41
1
10
78.5381189934305
20
-2.72326827385442
30
0
41
1
10
79.0636695199075
20
-3.00603956640939
30
0
41
1
10
79.3258532131478
20
-3.14299539167595
30
0
41
1
10
79.8523998008733
20
-3.4038399382045
30
0
41
1
10
80.1170618947634
20
-3.52746212331579
30
0
41
1
10
80.5149675837322
20
-3.70385294906202
30
0
41
1
10
80.6474501166126
20
-3.76172344035754
30
0
41
1
10
80.9131135853904
20
-3.87253966074792
30
0
41
1
10
81.0458280483233
20
-3.92571778342742
30
0
41
1
10
81.443381701529
20
-4.07898060951439
30
0
41
1
10
81.7067811993113
20
-4.17351658332061
30
0
41
1
10
82.2325490468829
20
-4.34552610551239
30
0
41
1
10
82.4953920423716
20
-4.42270717600414
30
0
41
1
10
82.8894459719319
20
-4.52561411509222
30
0
41
1
10
83.0203307948892
20
-4.55801030883893
30
0
41
1
10
83.282241018607
20
-4.6182978439457
30
0
41
1
10
83.4134462344404
20
-4.64610976319926
30
0
41
1
10
83.6763048560338
20
-4.69716392046365
30
0
41
1
10
83.8079684745364
20
-4.72040909199347
30
0
41
1
10
84.0711328251692
20
-4.76254925925693
30
0
41
1
10
84.2026969912064
20
-4.78140665641146
30
0
41
1
10
84.5980535397594
20
-4.83099695946973
30
0
41
1
10
84.8627509475595
20
-4.85469879202924
30
0
41
1
10
85.2621840696817
20
-4.87594764507853
30
0
41
1
10
85.395396765446
20
-4.88063852258014
30
0
41
1
10
85.5904618602523
20
-4.8840253617054
30
0
41
1
10
85.6533400004198
20
-4.88456462605936
30
0
41
1
10
85.7162017044535
20
-4.88455904555866
30
0
0
SPLINE
5
CE
100
AcDbEntity
8
1
62
256
6
ByLayer
370
18
48
1
60
0
100
AcDbSpline
70
4
71
3
72
38
73
34
40
0
40
0
40
0
40
0
40
0.031477177531994
40
0.031477177531994
40
0.112187412737654
40
0.112187412737654
40
0.192897647943313
40
0.192897647943313
40
0.233252765546144
40
0.233252765546144
40
0.273607883148974
40
0.273607883148974
40
0.354318118354639
40
0.354318118354639
40
0.435028353560305
40
0.435028353560305
40
0.475383471163137
40
0.475383471163137
40
0.51573858876597
40
0.51573858876597
40
0.596448823971641
40
0.596448823971641
40
0.677159059177311
40
0.677159059177311
40
0.71751417678015
40
0.71751417678015
40
0.757869294382988
40
0.757869294382988
40
0.838579529588659
40
0.838579529588659
40
0.91928976479433
40
0.91928976479433
40
1
40
1
40
1
40
1
41
1
10
100.632701977135
20
2.20466509643256
30
0
41
1
10
100.73475203705
20
2.26601153699426
30
0
41
1
10
100.836886230222
20
2.32655210543578
30
0
41
1
10
101.201358551488
20
2.53927799221404
30
0
41
1
10
101.464127266756
20
2.68711255520475
30
0
41
1
10
101.989133957877
20
2.97437759596235
30
0
41
1
10
102.252146192511
20
3.11279340150753
30
0
41
1
10
102.64891546902
20
3.31077286077286
30
0
41
1
10
102.781514814597
20
3.37520402135814
30
0
41
1
10
103.046901652781
20
3.50146935836756
30
0
41
1
10
103.179427756953
20
3.56382272609983
30
0
41
1
10
103.577010678595
20
3.74320724966574
30
0
41
1
10
103.841775680893
20
3.85419646950294
30
0
41
1
10
104.368126311136
20
4.06194981715004
30
0
41
1
10
104.63027697922
20
4.15806568883005
30
0
41
1
10
105.024036628255
20
4.2891328242209
30
0
41
1
10
105.155331980689
20
4.33068773199741
30
0
41
1
10
105.417786508109
20
4.4097060289956
30
0
41
1
10
105.548572923278
20
4.44740936486883
30
0
41
1
10
105.941164626163
20
4.55395513246458
30
0
41
1
10
106.204245132097
20
4.61572827583041
30
0
41
1
10
106.730518432833
20
4.72223039036894
30
0
41
1
10
106.993724195239
20
4.76680776036653
30
0
41
1
10
107.39110493096
20
4.81942802984366
30
0
41
1
10
107.524179833831
20
4.83462943820888
30
0
41
1
10
107.790141414992
20
4.86024765089633
30
0
41
1
10
107.922896430237
20
4.87064385663467
30
0
41
1
10
108.318425309507
20
4.89486925337241
30
0
41
1
10
108.58196429088
20
4.90121676511941
30
0
41
1
10
109.107799468863
20
4.89522613644442
30
0
41
1
10
109.369298065988
20
4.88274389755605
30
0
41
1
10
109.892811260606
20
4.83916112377361
30
0
41
1
10
110.155104572717
20
4.8082434859445
30
0
41
1
10
110.417198893405
20
4.76803451590152
30
0
0
SPLINE
5
CF
100
AcDbEntity
8
1
62
256
6
ByLayer
370
18
48
1
60
0
100
AcDbSpline
70
4
71
3
72
84
73
80
40
0
40
0
40
0
40
0
40
0.0342255593099849
40
0.0342255593099849
40
0.0513383389649777
40
0.0513383389649777
40
0.0684511186199705
40
0.0684511186199705
40
0.102676677929956
40
0.102676677929956
40
0.136902237239942
40
0.136902237239942
40
0.154015016894934
40
0.154015016894934
40
0.171127796549927
40
0.171127796549927
40
0.205353355859913
40
0.205353355859913
40
0.2395789151699
40
0.2395789151699
40
0.273804474479886
40
0.273804474479886
40
0.290917254134879
40
0.290917254134879
40
0.308030033789872
40
0.308030033789872
40
0.342255593099857
40
0.342255593099857
40
0.376481152409843
40
0.376481152409843
40
0.393593932064835
40
0.393593932064835
40
0.410706711719828
40
0.410706711719828
40
0.444932271029812
40
0.444932271029812
40
0.479157830339796
40
0.479157830339796
40
0.496270609994789
40
0.496270609994789
40
0.513383389649781
40
0.513383389649781
40
0.547608948959767
40
0.547608948959767
40
0.581834508269753
40
0.581834508269753
40
0.598947287924745
40
0.598947287924745
40
0.616060067579737
40
0.616060067579737
40
0.650285626889721
40
0.650285626889721
40
0.684511186199705
40
0.684511186199705
40
0.718736745509688
40
0.718736745509688
40
0.73584952516468
40
0.73584952516468
40
0.752962304819672
40
0.752962304819672
40
0.787187864129654
40
0.787187864129654
40
0.821413423439637
40
0.821413423439637
40
0.838526203094627
40
0.838526203094627
40
0.855638982749618
40
0.855638982749618
40
0.889864542059599
40
0.889864542059599
40
0.92409010136958
40
0.92409010136958
40
0.941202881024572
40
0.941202881024572
40
0.958315660679563
40
0.958315660679563
40
0.992541219989545
40
0.992541219989545
40
1
40
1
40
1
40
1
41
1
10
9.09686844815263
20
1.91968230747202
30
0
41
1
10
9.35656054721477
20
1.77459282465952
30
0
41
1
10
9.61501338714626
20
1.62617545570509
30
0
41
1
10
10.0002285586663
20
1.39752286681238
30
0
41
1
10
10.1282975644737
20
1.32041618558966
30
0
41
1
10
10.3843911155512
20
1.1654237446314
30
0
41
1
10
10.5130874088576
20
1.08859918955213
30
0
41
1
10
10.898156741236
20
0.855520688085761
30
0
41
1
10
11.1539554518086
20
0.6973439019078
30
0
41
1
10
11.6664361713202
20
0.37955152980075
30
0
41
1
10
11.9230994827104
20
0.219900676121029
30
0
41
1
10
12.3088754366137
20
-0.0204032482663195
30
0
41
1
10
12.4374910531752
20
-0.100815696322513
30
0
41
1
10
12.6948657404422
20
-0.262119436139528
30
0
41
1
10
12.8234964216005
20
-0.34322947493763
30
0
41
1
10
13.2121591796305
20
-0.583040282282553
30
0
41
1
10
13.470237868099
20
-0.742570691373373
30
0
41
1
10
13.9836265478794
20
-1.05771764289753
30
0
41
1
10
14.2396511827806
20
-1.21314451153768
30
0
41
1
10
14.7511359821411
20
-1.51718928714655
30
0
41
1
10
15.0062496813425
20
-1.66653780555819
30
0
41
1
10
15.3880462164847
20
-1.8870389073646
30
0
41
1
10
15.5159803661685
20
-1.95872575512453
30
0
41
1
10
15.7713824173584
20
-2.1012248565572
30
0
41
1
10
15.8989918783552
20
-2.17180819362318
30
0
41
1
10
16.2817551860385
20
-2.38079632613531
30
0
41
1
10
16.5372778145408
20
-2.51589936541316
30
0
41
1
10
17.0501402937692
20
-2.77691599243124
30
0
41
1
10
17.3074939046611
20
-2.90284467522685
30
0
41
1
10
17.6942824690303
20
-3.08510159518275
30
0
41
1
10
17.8233589722736
20
-3.14486755753163
30
0
41
1
10
18.0819650380603
20
-3.25923653020095
30
0
41
1
10
18.2109338798216
20
-3.31487208761828
30
0
41
1
10
18.5968006227787
20
-3.47735766768889
30
0
41
1
10
18.8526831233469
20
-3.57983527649915
30
0
41
1
10
19.3641490961613
20
-3.77063928076291
30
0
41
1
10
19.6197223027291
20
-3.85873794476043
30
0
41
1
10
20.002253686142
20
-3.9804954416808
30
0
41
1
10
20.129611985087
20
-4.01941628673941
30
0
41
1
10
20.3841657706652
20
-4.09377315332651
30
0
41
1
10
20.5121077485896
20
-4.12868013961756
30
0
41
1
10
20.8955460874924
20
-4.22811021469377
30
0
41
1
10
21.1508337820571
20
-4.28690895949848
30
0
41
1
10
21.6632252454087
20
-4.38867994250805
30
0
41
1
10
21.9202251238568
20
-4.43211789008564
30
0
41
1
10
22.3073710241969
20
-4.48467278787771
30
0
41
1
10
22.4368128863383
20
-4.50007145919477
30
0
41
1
10
22.6948221411976
20
-4.52656850004306
30
0
41
1
10
22.8232442323827
20
-4.53772299758035
30
0
41
1
10
23.2099521219908
20
-4.56464580601624
30
0
41
1
10
23.4664449730078
20
-4.57495684454503
30
0
41
1
10
23.9777251987877
20
-4.57837856984054
30
0
41
1
10
24.2330380483595
20
-4.57028573287641
30
0
41
1
10
24.7437646444252
20
-4.53877757731456
30
0
41
1
10
24.9987843208133
20
-4.51576770238282
30
0
41
1
10
25.3807817695304
20
-4.4683308942804
30
0
41
1
10
25.5088022964565
20
-4.45041526848689
30
0
41
1
10
25.7648064626785
20
-4.41013184660949
30
0
41
1
10
25.8928228453281
20
-4.38790395345782
30
0
41
1
10
26.2769182073448
20
-4.31529203676683
30
0
41
1
10
26.5333832993108
20
-4.25937538850701
30
0
41
1
10
27.0489615135685
20
-4.13100329206307
30
0
41
1
10
27.3086239286259
20
-4.05787147107884
30
0
41
1
10
27.6944391388608
20
-3.93748121890113
30
0
41
1
10
27.8224876183223
20
-3.89540775229034
30
0
41
1
10
28.0796456577783
20
-3.809550768337
30
0
41
1
10
28.2080056582159
20
-3.76500480106128
30
0
41
1
10
28.5922024118529
20
-3.62547664534622
30
0
41
1
10
28.8472406897582
20
-3.52482275452093
30
0
41
1
10
29.357755741981
20
-3.31199582908846
30
0
41
1
10
29.61312261492
20
-3.20036899520108
30
0
41
1
10
29.9958535720278
20
-3.0233630592611
30
0
41
1
10
30.1233778508007
20
-2.96267675386383
30
0
41
1
10
30.3784405742268
20
-2.83819738092132
30
0
41
1
10
30.5066411692911
20
-2.77525605899743
30
0
41
1
10
30.8913556970527
20
-2.58221495618571
30
0
41
1
10
31.1476851306258
20
-2.44766614346679
30
0
41
1
10
31.4613201208879
20
-2.27816183091369
30
0
41
1
10
31.5175336284465
20
-2.24758309356378
30
0
41
1
10
31.57380339835
20
-2.21678421300101
30
0
0
SPLINE
5
D0
100
AcDbEntity
8
1
62
256
6
ByLayer
370
18
48
1
60
0
100
AcDbSpline
70
4
71
3
72
120
73
116
40
0
40
0
40
0
40
0
40
0.0068621814362809
40
0.0068621814362809
40
0.0317217008776835
40
0.0317217008776835
40
0.0441514605983852
40
0.0441514605983852
40
0.0565812203190869
40
0.0565812203190869
40
0.0814407397604905
40
0.0814407397604905
40
0.106300259201894
40
0.106300259201894
40
0.118730018922596
40
0.118730018922596
40
0.131159778643298
40
0.131159778643298
40
0.156019298084701
40
0.156019298084701
40
0.180878817526104
40
0.180878817526104
40
0.193308577246806
40
0.193308577246806
40
0.205738336967508
40
0.205738336967508
40
0.21816809668821
40
0.21816809668821
40
0.230597856408912
40
0.230597856408912
40
0.255457375850316
40
0.255457375850316
40
0.28031689529172
40
0.28031689529172
40
0.305176414733125
40
0.305176414733125
40
0.33003593417453
40
0.33003593417453
40
0.354895453615934
40
0.354895453615934
40
0.367325213336637
40
0.367325213336637
40
0.379754973057339
40
0.379754973057339
40
0.404614492498743
40
0.404614492498743
40
0.429474011940148
40
0.429474011940148
40
0.44190377166085
40
0.44190377166085
40
0.454333531381552
40
0.454333531381552
40
0.479193050822955
40
0.479193050822955
40
0.504052570264359
40
0.504052570264359
40
0.516482329985061
40
0.516482329985061
40
0.528912089705763
40
0.528912089705763
40
0.541341849426465
40
0.541341849426465
40
0.553771609147167
40
0.553771609147167
40
0.57863112858857
40
0.57863112858857
40
0.591060888309273
40
0.591060888309273
40
0.603490648029975
40
0.603490648029975
40
0.628350167471381
40
0.628350167471381
40
0.653209686912786
40
0.653209686912786
40
0.678069206354191
40
0.678069206354191
40
0.690498966074895
40
0.690498966074895
40
0.702928725795598
40
0.702928725795598
40
0.727788245237005
40
0.727788245237005
40
0.740218004957709
40
0.740218004957709
40
0.752647764678413
40
0.752647764678413
40
0.765077524399116
40
0.765077524399116
40
0.77750728411982
40
0.77750728411982
40
0.802366803561227
40
0.802366803561227
40
0.827226323002635
40
0.827226323002635
40
0.839656082723338
40
0.839656082723338
40
0.852085842444042
40
0.852085842444042
40
0.864515602164746
40
0.864515602164746
40
0.87694536188545
40
0.87694536188545
40
0.889375121606153
40
0.889375121606153
40
0.901804881326857
40
0.901804881326857
40
0.926664400768265
40
0.926664400768265
40
0.951523920209672
40
0.951523920209672
40
0.963953679930376
40
0.963953679930376
40
0.976383439651079
40
0.976383439651079
40
1
40
1
40
1
40
1
41
1
10
46.5828113941898
20
4.5889736204555
30
0
41
1
10
46.6537570820158
20
4.59026041357131
30
0
41
1
10
46.7246485790982
20
4.59092196769663
30
0
41
1
10
47.0521820230381
20
4.59105939847458
30
0
41
1
10
47.308435704928
20
4.58162571367399
30
0
41
1
10
47.6913764771982
20
4.55518883214418
30
0
41
1
10
47.8185556787338
20
4.54423663153244
30
0
41
1
10
48.0742369701037
20
4.51884068158401
30
0
41
1
10
48.2021525551687
20
4.50435800640105
30
0
41
1
10
48.5852814268945
20
4.45469244626199
30
0
41
1
10
48.8402482911688
20
4.41223467231592
30
0
41
1
10
49.351863035962
20
4.31163489235644
30
0
41
1
10
49.6084091682949
20
4.25373902096987
30
0
41
1
10
49.9937921227384
20
4.15535483674481
30
0
41
1
10
50.1223458477391
20
4.12042850401977
30
0
41
1
10
50.3798938818065
20
4.04586493108513
30
0
41
1
10
50.5095612019044
20
4.00670405095875
30
0
41
1
10
50.8983195977027
20
3.88403633111457
30
0
41
1
10
51.1557130920143
20
3.79489716001925
30
0
41
1
10
51.669254976971
20
3.60499489593963
30
0
41
1
10
51.9254150902586
20
3.5030330536425
30
0
41
1
10
52.3092213737873
20
3.34094356578575
30
0
41
1
10
52.4369736221572
20
3.28534691338382
30
0
41
1
10
52.6921240090711
20
3.17104871862139
30
0
41
1
10
52.819259272778
20
3.11202891961321
30
0
41
1
10
53.0748817020344
20
2.99298909614856
30
0
41
1
10
53.2028433797416
20
2.93232378618836
30
0
41
1
10
53.4584877523112
20
2.8074085017754
30
0
41
1
10
53.5862478736912
20
2.74328745751839
30
0
41
1
10
53.969698835634
20
2.54697022901584
30
0
41
1
10
54.2258864144378
20
2.41129668784961
30
0
41
1
10
54.7400300184368
20
2.1316988843048
30
0
41
1
10
54.9979146109763
20
1.98714358044299
30
0
41
1
10
55.5150410927788
20
1.6873800198546
30
0
41
1
10
55.7738323945999
20
1.53703366113353
30
0
41
1
10
56.2878262917993
20
1.22921066236807
30
0
41
1
10
56.5437949523713
20
1.07281353519215
30
0
41
1
10
57.0555161199983
20
0.75804202853476
30
0
41
1
10
57.3113215699477
20
0.599812034731997
30
0
41
1
10
57.6939367726982
20
0.359632344183836
30
0
41
1
10
57.8210768196936
20
0.278727243526021
30
0
41
1
10
58.0768101426061
20
0.118852750043231
30
0
41
1
10
58.2049268826489
20
0.0391151927317139
30
0
41
1
10
58.5888979612414
20
-0.201319200678967
30
0
41
1
10
58.8447249641408
20
-0.362659805027221
30
0
41
1
10
59.3583112236797
20
-0.683575012048948
30
0
41
1
10
59.616209177465
20
-0.843042836590996
30
0
41
1
10
60.0044836704544
20
-1.08119061668967
30
0
41
1
10
60.1338512023048
20
-1.16029467107157
30
0
41
1
10
60.3915335442414
20
-1.31720229461769
30
0
41
1
10
60.5205322837453
20
-1.39432651544601
30
0
41
1
10
60.9070080650844
20
-1.62344484595823
30
0
41
1
10
61.1631429490297
20
-1.77388795918534
30
0
41
1
10
61.6748506325274
20
-2.06640919994538
30
0
41
1
10
61.9304720893114
20
-2.20864464483529
30
0
41
1
10
62.3138740809389
20
-2.41578862251814
30
0
41
1
10
62.4415686468321
20
-2.48390659373359
30
0
41
1
10
62.6967936699125
20
-2.61801633681682
30
0
41
1
10
62.8240614874975
20
-2.68436753524028
30
0
41
1
10
63.0800857463884
20
-2.81290169783884
30
0
41
1
10
63.2084029070073
20
-2.87568058403699
30
0
41
1
10
63.4647987141851
20
-2.99942652901126
30
0
41
1
10
63.5929787618784
20
-3.06025352869287
30
0
41
1
10
63.9778722347802
20
-3.23902848278763
30
0
41
1
10
64.2353517436654
20
-3.35255356462577
30
0
41
1
10
64.623709696787
20
-3.51311552339729
30
0
41
1
10
64.7534832980002
20
-3.56504395678743
30
0
41
1
10
65.0117951189631
20
-3.66565070596082
30
0
41
1
10
65.1405651587168
20
-3.71437340223909
30
0
41
1
10
65.5258861141897
20
-3.85548911695113
30
0
41
1
10
65.7833002248839
20
-3.94096964283892
30
0
41
1
10
66.2952451220862
20
-4.09779806278451
30
0
41
1
10
66.5505697936255
20
-4.16864717694747
30
0
41
1
10
67.0615537197906
20
-4.29549119296476
30
0
41
1
10
67.317256291932
20
-4.35142974022793
30
0
41
1
10
67.7004113773602
20
-4.4228504212933
30
0
41
1
10
67.8278275236055
20
-4.44475066910414
30
0
41
1
10
68.0841857747178
20
-4.4840600310086
30
0
41
1
10
68.2127162340433
20
-4.50170037105596
30
0
41
1
10
68.5980566254279
20
-4.54889978583464
30
0
41
1
10
68.855041190567
20
-4.57237737637479
30
0
41
1
10
69.2429557353416
20
-4.5937425962457
30
0
41
1
10
69.3726946459097
20
-4.59866327005389
30
0
41
1
10
69.6314301449934
20
-4.60432996055522
30
0
41
1
10
69.7605898536248
20
-4.60513551361674
30
0
41
1
10
70.0181572239807
20
-4.60268979546453
30
0
41
1
10
70.1465935837522
20
-4.59940767265707
30
0
41
1
10
70.402888936692
20
-4.58848252780692
30
0
41
1
10
70.531258693603
20
-4.58087801049933
30
0
41
1
10
70.9161413519729
20
-4.55172764064343
30
0
41
1
10
71.1715883260418
20
-4.52385050068668
30
0
41
1
10
71.6824497406077
20
-4.45257904991558
30
0
41
1
10
71.937988134448
20
-4.40826697313429
30
0
41
1
10
72.3219048454192
20
-4.32949501330037
30
0
41
1
10
72.4498703338113
20
-4.30118342011633
30
0
41
1
10
72.7057526787011
20
-4.2406325648017
30
0
41
1
10
72.8334065562865
20
-4.20824036339471
30
0
41
1
10
73.0902579335542
20
-4.14065907498986
30
0
41
1
10
73.2190780321695
20
-4.10511754890177
30
0
41
1
10
73.4767662037432
20
-4.02920775273341
30
0
41
1
10
73.6057283743656
20
-3.98901536133178
30
0
41
1
10
73.8640997928469
20
-3.90469254901123
30
0
41
1
10
73.9937856013265
20
-3.86055626184788
30
0
41
1
10
74.2525550785758
20
-3.76923853883366
30
0
41
1
10
74.3816698984566
20
-3.72200528989043
30
0
41
1
10
74.7685322608476
20
-3.57609806547782
30
0
41
1
10
75.0254368106854
20
-3.47195953954216
30
0
41
1
10
75.536990818004
20
-3.24963773310228
30
0
41
1
10
75.7937038075351
20
-3.13424945398745
30
0
41
1
10
76.1770034942658
20
-2.95210003287198
30
0
41
1
10
76.3045804028503
20
-2.88995672351996
30
0
41
1
10
76.5600147499954
20
-2.76287247857087
30
0
41
1
10
76.6878352510728
20
-2.69789246099936
30
0
41
1
10
77.0587500708407
20
-2.50601019169278
30
0
41
1
10
77.302311562203
20
-2.37639736698665
30
0
41
1
10
77.5458106554478
20
-2.24222216262584
30
0
0
SPLINE
5
D1
100
AcDbEntity
8
1
62
256
6
ByLayer
370
18
48
1
60
0
100
AcDbSpline
70
4
71
3
72
54
73
50
40
0
40
0
40
0
40
0
40
0.0103072266906296
40
0.0103072266906296
40
0.0623963200227102
40
0.0623963200227102
40
0.11448541335479
40
0.11448541335479
40
0.166574506686871
40
0.166574506686871
40
0.218663600018951
40
0.218663600018951
40
0.270752693351031
40
0.270752693351031
40
0.322841786683111
40
0.322841786683111
40
0.348886333349148
40
0.348886333349148
40
0.374930880015186
40
0.374930880015186
40
0.427019973347263
40
0.427019973347263
40
0.47910906667934
40
0.47910906667934
40
0.505153613345376
40
0.505153613345376
40
0.531198160011412
40
0.531198160011412
40
0.583287253343481
40
0.583287253343481
40
0.635376346675549
40
0.635376346675549
40
0.661420893341583
40
0.661420893341583
40
0.687465440007618
40
0.687465440007618
40
0.739554533339681
40
0.739554533339681
40
0.791643626671745
40
0.791643626671745
40
0.843732720003809
40
0.843732720003809
40
0.895821813335873
40
0.895821813335873
40
0.921866360001905
40
0.921866360001905
40
0.947910906667937
40
0.947910906667937
40
1
40
1
40
1
40
1
41
1
10
92.8515682837225
20
4.61997491190687
30
0
41
1
10
92.9027238962933
20
4.61958468521121
30
0
41
1
10
92.9538817925849
20
4.61886807695277
30
0
41
1
10
93.2638790284938
20
4.61259989557024
30
0
41
1
10
93.5216660162938
20
4.59974073327527
30
0
41
1
10
94.0348098177836
20
4.55464270897099
30
0
41
1
10
94.2909298940586
20
4.52321388890402
30
0
41
1
10
94.8030464212038
20
4.44573561913293
30
0
41
1
10
95.0587293218878
20
4.39991141674838
30
0
41
1
10
95.5693972112467
20
4.28878163788721
30
0
41
1
10
95.826455086585
20
4.22550681267694
30
0
41
1
10
96.3394434234851
20
4.08383351644372
30
0
41
1
10
96.5961522496484
20
4.00575473845103
30
0
41
1
10
97.1123514257043
20
3.833136939632
30
0
41
1
10
97.3726780425869
20
3.73848182464312
30
0
41
1
10
97.7602837471655
20
3.58695237567639
30
0
41
1
10
97.8888450735623
20
3.53462916173203
30
0
41
1
10
98.1469333123023
20
3.42831334548922
30
0
41
1
10
98.2758589649304
20
3.37367990535304
30
0
41
1
10
98.6615449063303
20
3.204438532978
30
0
41
1
10
98.9174724744804
20
3.08470141639785
30
0
41
1
10
99.429554914992
20
2.83632486996834
30
0
41
1
10
99.6855902837666
20
2.70774541221411
30
0
41
1
10
100.069402850063
20
2.50614692111694
30
0
41
1
10
100.197283047533
20
2.43745565126451
30
0
41
1
10
100.453024731138
20
2.29748668190246
30
0
41
1
10
100.581442596564
20
2.22700942039293
30
0
41
1
10
100.967097723404
20
2.01249102563563
30
0
41
1
10
101.224088940563
20
1.86436085987694
30
0
41
1
10
101.740212703531
20
1.56122836081784
30
0
41
1
10
102.000166765046
20
1.40585350318773
30
0
41
1
10
102.388308559893
20
1.17039306337279
30
0
41
1
10
102.517313250055
20
1.09131871832875
30
0
41
1
10
102.774612396963
20
0.932063858404604
30
0
41
1
10
102.902656930474
20
0.851480717063851
30
0
41
1
10
103.28845226094
20
0.612467649842245
30
0
41
1
10
103.544854206279
20
0.451918633352193
30
0
41
1
10
104.056162358245
20
0.128554325956429
30
0
41
1
10
104.311697467745
20
-0.0332467678674391
30
0
41
1
10
104.823405464468
20
-0.355677072752343
30
0
41
1
10
105.079322378686
20
-0.516719096916404
30
0
41
1
10
105.590951246539
20
-0.83898700409668
30
0
41
1
10
105.848770960292
20
-0.996824579605487
30
0
41
1
10
106.235337881437
20
-1.23372912865636
30
0
41
1
10
106.364311909731
20
-1.31248800353723
30
0
41
1
10
106.623038326981
20
-1.46871719516446
30
0
41
1
10
106.752878649893
20
-1.54636214649412
30
0
41
1
10
107.14114713292
20
-1.77617421144166
30
0
41
1
10
107.39921843245
20
-1.92525440600525
30
0
41
1
10
107.655940148472
20
-2.07108146517703
30
0
0
SPLINE
5
D2
100
AcDbEntity
8
1
62
256
6
ByLayer
370
18
48
1
60
0
100
AcDbSpline
70
4
71
3
72
10
73
6
40
0
40
0
40
0
40
0
40
0.5
40
0.5
40
1
40
1
40
1
40
1
41
1
10
111.975026433458
20
0.160364835465629
30
0
41
1
10
111.977017402762
20
0.144548217520594
30
0
41
1
10
111.980329372116
20
0.126797609441269
30
0
41
1
10
111.988829192005
20
0.0885454784709907
30
0
41
1
10
111.99403504241
20
0.0680964117282485
30
0
41
1
10
111.99994343604
20
0.0471561403888074
30
0
0
SPLINE
5
D3
100
AcDbEntity
8
1
62
256
6
ByLayer
370
18
48
1
60
0
100
AcDbSpline
70
4
71
3
72
16
73
12
40
0
40
0
40
0
40
0
40
0.125
40
0.125
40
0.250000000000001
40
0.250000000000001
40
0.5
40
0.5
40
0.75
40
0.75
40
1
40
1
40
1
40
1
41
1
10
7.99999992523806
20
3.2388560907113
30
0
41
1
10
7.99999992523806
20
3.23082592091225
30
0
41
1
10
8.0026280824961
20
3.2193202884676
30
0
41
1
10
8.01353444192102
20
3.19049638597531
30
0
41
1
10
8.02180465408051
20
3.17323487880893
30
0
41
1
10
8.05111657291525
20
3.11947293425601
30
0
41
1
10
8.07583005823741
20
3.08179784733761
30
0
41
1
10
8.12501151716117
20
3.01217063225212
30
0
41
1
10
8.1502958044826
20
2.97905883259912
30
0
41
1
10
8.20041258431439
20
2.91652587829992
30
0
41
1
10
8.22519773787849
20
2.88718463440944
30
0
41
1
10
8.24974745345682
20
2.85934801987389
30
0
0
SPLINE
5
D4
100
AcDbEntity
8
1
62
256
6
ByLayer
370
18
48
1
60
0
100
AcDbSpline
70
4
71
3
72
14
73
10
40
0
40
0
40
0
40
0
40
0.25
40
0.25
40
0.5
40
0.5
40
0.75
40
0.75
40
1
40
1
40
1
40
1
41
1
10
110.339641152212
20
-4.62302434777368
30
0
41
1
10
110.342136766547
20
-4.62221555897213
30
0
41
1
10
110.344014767431
20
-4.62303363357344
30
0
41
1
10
110.346104543984
20
-4.62903710433565
30
0
41
1
10
110.346272577459
20
-4.63430262479994
30
0
41
1
10
110.343867439289
20
-4.65057088091064
30
0
41
1
10
110.3412216458
20
-4.66165269531552
30
0
41
1
10
110.33332954201
20
-4.68725687902383
30
0
41
1
10
110.328212329988
20
-4.70138870014165
30
0
41
1
10
110.322848815347
20
-4.7147532830584
30
0
0
SPLINE
5
D5
100
AcDbEntity
8
1
62
256
6
ByLayer
370
18
48
1
60
0
100
AcDbSpline
70
4
71
3
72
8
73
4
40
0
40
0
40
0
40
0
40
1
40
1
40
1
40
1
41
1
10
111.971862573767
20
-0.0194451435691576
30
0
41
1
10
111.934679499468
20
-0.0885950211190334
30
0
41
1
10
111.897635627874
20
-0.157869587219295
30
0
41
1
10
111.860731674229
20
-0.227268127714012
30
0
0
SPLINE
5
D6
100
AcDbEntity
8
1
62
256
6
ByLayer
370
18
48
1
60
0
100
AcDbSpline
70
4
71
3
72
44
73
40
40
0
40
0
40
0
40
0
40
0.062500000000002
40
0.062500000000002
40
0.125000000000004
40
0.125000000000004
40
0.187500000000006
40
0.187500000000006
40
0.250000000000008
40
0.250000000000008
40
0.312500000000009
40
0.312500000000009
40
0.375000000000011
40
0.375000000000011
40
0.437500000000013
40
0.437500000000013
40
0.46875000000001
40
0.46875000000001
40
0.500000000000008
40
0.500000000000008
40
0.625000000000009
40
0.625000000000009
40
0.687500000000011
40
0.687500000000011
40
0.750000000000013
40
0.750000000000013
40
0.812500000000016
40
0.812500000000016
40
0.820312500000016
40
0.820312500000016
40
0.828125000000016
40
0.828125000000016
40
0.843750000000017
40
0.843750000000017
40
0.859375000000017
40
0.859375000000017
40
0.875000000000017
40
0.875000000000017
40
1
40
1
40
1
40
1
41
1
10
107.655940148472
20
-2.07108146517677
30
0
41
1
10
107.761186752341
20
-2.10079000345561
30
0
41
1
10
107.866281716975
20
-2.12780097933495
30
0
41
1
10
108.07587356929
20
-2.17118353486973
30
0
41
1
10
108.180335588384
20
-2.18693482527422
30
0
41
1
10
108.388806538942
20
-2.21037727473319
30
0
41
1
10
108.492776566082
20
-2.21737635140062
30
0
41
1
10
108.70006603972
20
-2.21980110238289
30
0
41
1
10
108.803611053012
20
-2.21517531195951
30
0
41
1
10
109.005017376427
20
-2.19039573216673
30
0
41
1
10
109.103356444816
20
-2.17022086723497
30
0
41
1
10
109.294470288695
20
-2.11154764845028
30
0
41
1
10
109.38805583284
20
-2.07252312432044
30
0
41
1
10
109.562625198567
20
-1.97555675429487
30
0
41
1
10
109.64397019251
20
-1.91765694150953
30
0
41
1
10
109.757159660466
20
-1.81681150517181
30
0
41
1
10
109.793421308331
20
-1.78086875374072
30
0
41
1
10
109.863035814244
20
-1.70437173143367
30
0
41
1
10
109.896541445467
20
-1.66360393374933
30
0
41
1
10
110.054561587721
20
-1.4515016567818
30
0
41
1
10
110.151168478652
20
-1.25601651144149
30
0
41
1
10
110.266059354093
20
-0.93680348433324
30
0
41
1
10
110.299186816077
20
-0.826230552020434
30
0
41
1
10
110.356596330354
20
-0.601459153807951
30
0
41
1
10
110.381047249554
20
-0.486816297968261
30
0
41
1
10
110.423349063681
20
-0.254028504298674
30
0
41
1
10
110.441200423476
20
-0.135732202010445
30
0
41
1
10
110.458308495401
20
-0.0016612284928499
30
0
41
1
10
110.460331626413
20
0.0131917486867508
30
0
41
1
10
110.462549640823
20
0.0435527816100318
30
0
41
1
10
110.462485784492
20
0.0591535462673392
30
0
41
1
10
110.45852490134
20
0.107306421466404
30
0
41
1
10
110.452044252074
20
0.139916422314798
30
0
41
1
10
110.435259850184
20
0.2034304422464
30
0
41
1
10
110.425147820963
20
0.234881736130433
30
0
41
1
10
110.40558489662
20
0.297901846867944
30
0
41
1
10
110.395889390242
20
0.329427181708809
30
0
41
1
10
110.309406614944
20
0.613293275797162
30
0
41
1
10
110.238119970648
20
0.866656607506542
30
0
41
1
10
110.170848182814
20
1.12064010546402
30
0
0
SPLINE
5
D7
100
AcDbEntity
8
1
62
256
6
ByLayer
370
18
48
1
60
0
100
AcDbSpline
70
4
71
3
72
8
73
4
40
0
40
0
40
0
40
0
40
1
40
1
40
1
40
1
41
1
10
110.260551863806
20
-4.62372602392475
30
0
41
1
10
110.272028490579
20
-4.62834134005126
30
0
41
1
10
110.284329556016
20
-4.63057849646529
30
0
41
1
10
110.29747339768
20
-4.63046320152719
30
0
0
SPLINE
5
D8
100
AcDbEntity
8
1
62
256
6
ByLayer
370
18
48
1
60
0
100
AcDbSpline
70
4
71
3
72
18
73
14
40
0
40
0
40
0
40
0
40
0.25
40
0.25
40
0.5
40
0.5
40
0.625
40
0.625
40
0.75
40
0.75
40
0.875
40
0.875
40
1
40
1
40
1
40
1
41
1
10
8.2497474534571
20
-2.85934801987386
30
0
41
1
10
8.22518925265859
20
-2.88719425569428
30
0
41
1
10
8.20046399826458
20
-2.91647046482794
30
0
41
1
10
8.15064810272727
20
-2.97861058679521
30
0
41
1
10
8.12523783073647
20
-3.01185430396703
30
0
41
1
10
8.08809246511333
20
-3.06443567499235
30
0
41
1
10
8.07580378777089
20
-3.0825347449813
30
0
41
1
10
8.05253843852216
20
-3.11884362426383
30
0
41
1
10
8.04129433083335
20
-3.13748580999467
30
0
41
1
10
8.02182038230222
20
-3.17320845384032
30
0
41
1
10
8.01353734492923
20
-3.19049483126835
30
0
41
1
10
8.00264802137329
20
-3.21926148825725
30
0
41
1
10
7.99999992523791
20
-3.2308222334047
30
0
41
1
10
7.99999992523806
20
-3.23885609071201
30
0
0
SPLINE
5
D9
100
AcDbEntity
8
1
62
256
6
ByLayer
370
18
48
1
60
0
100
AcDbSpline
70
4
71
3
72
29
73
25
40
0
40
0
40
0
40
0
40
0.242971917166668
40
0.242971917166668
40
0.486478095740115
40
0.486478095740115
40
0.516916368061796
40
0.532135504222637
40
0.532135504222637
40
0.547354640383477
40
0.547354640383477
40
0.554964208463897
40
0.554964208463897
40
0.562573776544318
40
0.562573776544318
40
0.577792912705158
40
0.577792912705158
40
0.608231185026839
40
0.608231185026839
40
0.729984274313563
40
0.729984274313563
40
0.973490452887011
40
0.973490452887011
40
1
40
1
40
1
40
1
41
1
10
9.09686844815263
20
2.45560859135583
30
0
41
1
10
9.09686844815263
20
2.21908641439342
30
0
41
1
10
9.09686844815263
20
2.00474092705892
30
0
41
1
10
9.09686844815263
20
1.61963699305608
30
0
41
1
10
9.09686844815263
20
1.45036292473162
30
0
41
1
10
9.09686844815263
20
1.28645684461054
30
0
41
1
10
9.09686844815263
20
1.25968988520924
30
0
41
1
10
9.09686844815337
20
1.23374960602914
30
0
41
1
10
9.09686844815337
20
1.21663991519293
30
0
41
1
10
9.09686844815724
20
1.2080080234033
30
0
41
1
10
9.09686844815724
20
1.20186132892235
30
0
41
1
10
9.09686844815263
20
1.20070701255747
30
0
41
1
10
9.09686844815263
20
1.2009891870531
30
0
41
1
10
9.09686844815263
20
1.20315779761532
30
0
41
1
10
9.09686844815263
20
1.21077619415217
30
0
41
1
10
9.09686844815263
20
1.21596635560252
30
0
41
1
10
9.09686844815263
20
1.23184873594639
30
0
41
1
10
9.09686844815263
20
1.24285433895162
30
0
41
1
10
9.09686844815263
20
1.29999407920539
30
0
41
1
10
9.09686844815263
20
1.35245480748256
30
0
41
1
10
9.09686844815263
20
1.53123743073462
30
0
41
1
10
9.09686844815263
20
1.67877003520124
30
0
41
1
10
9.09686844815263
20
1.87915292866742
30
0
41
1
10
9.09686844815263
20
1.89921643738114
30
0
41
1
10
9.09686844815263
20
1.9196823074721
30
0
0
SPLINE
5
DA
100
AcDbEntity
8
1
62
256
6
ByLayer
370
13
48
1
60
0
100
AcDbSpline
70
4
71
3
72
14
73
10
40
0
40
0
40
0
40
0
40
0.25
40
0.25
40
0.5
40
0.5
40
0.75
40
0.75
40
1
40
1
40
1
40
1
41
1
10
7.99999992523806
20
-1.01541473947512
30
0
41
1
10
7.99999992523806
20
-1.02242537367317
30
0
41
1
10
8.00246047848825
20
-1.02954877910156
30
0
41
1
10
8.01228143361911
20
-1.04315267802818
30
0
41
1
10
8.01952654826152
20
-1.04962129717544
30
0
41
1
10
8.03884690381227
20
-1.06190339533964
30
0
41
1
10
8.05114023426344
20
-1.0677749840178
30
0
41
1
10
8.07987367843225
20
-1.07819002616233
30
0
41
1
10
8.09630511171497
20
-1.08279326734109
30
0
41
1
10
8.11513004394615
20
-1.08673120264058
30
0
0
SPLINE
5
DB
100
AcDbEntity
8
1
62
256
6
ByLayer
370
18
48
1
60
0
100
AcDbSpline
70
4
71
3
72
32
73
28
40
0
40
0
40
0
40
0
40
0.104318890832067
40
0.104318890832067
40
0.156478336248101
40
0.156478336248101
40
0.208637781664136
40
0.208637781664136
40
0.312956672496205
40
0.312956672496205
40
0.417275563328273
40
0.417275563328273
40
0.469435008744309
40
0.469435008744309
40
0.521594454160344
40
0.521594454160344
40
0.57375389957638
40
0.57375389957638
40
0.625913344992415
40
0.625913344992415
40
0.730232235824484
40
0.730232235824484
40
0.834551126656553
40
0.834551126656553
40
0.938870017488622
40
0.938870017488622
40
1
40
1
40
1
40
1
41
1
10
9.09686844815263
20
-2.45560859134378
30
0
41
1
10
9.36260100908072
20
-2.60918434688131
30
0
41
1
10
9.62803430796711
20
-2.75575588000285
30
0
41
1
10
10.0262454692804
20
-2.96517143899985
30
0
41
1
10
10.1589250150936
20
-3.03332765342799
30
0
41
1
10
10.4233299920146
20
-3.16734367682901
30
0
41
1
10
10.5547473280426
20
-3.23353493711355
30
0
41
1
10
10.9503030662743
20
-3.42541800196639
30
0
41
1
10
11.2146778133588
20
-3.54578529986983
30
0
41
1
10
11.7420804560662
20
-3.77430504234212
30
0
41
1
10
12.0056831488952
20
-3.88177135887895
30
0
41
1
10
12.4030220362365
20
-4.03080816564335
30
0
41
1
10
12.5357423720532
20
-4.07851534195976
30
0
41
1
10
12.8015086906868
20
-4.17015317484305
30
0
41
1
10
12.9341505820605
20
-4.21439972928621
30
0
41
1
10
13.200173765841
20
-4.29867054875464
30
0
41
1
10
13.3336687927309
20
-4.33858854566844
30
0
41
1
10
13.5999093866876
20
-4.41363501882637
30
0
41
1
10
13.7328619203311
20
-4.4488473747044
30
0
41
1
10
14.1303242656039
20
-4.54816131270366
30
0
41
1
10
14.3938290986634
20
-4.60560532922017
30
0
41
1
10
14.9210922378922
20
-4.7016551272585
30
0
41
1
10
15.1852734079807
20
-4.74029703981398
30
0
41
1
10
15.71004081744
20
-4.80012311526778
30
0
41
1
10
15.9735269767329
20
-4.82046514256251
30
0
41
1
10
16.3919504885344
20
-4.8380623522076
30
0
41
1
10
16.5464387287205
20
-4.84136433672398
30
0
41
1
10
16.7011631904076
20
-4.84141496323471
30
0
0
SPLINE
5
DC
100
AcDbEntity
8
1
62
256
6
ByLayer
370
18
48
1
60
0
100
AcDbSpline
70
4
71
3
72
118
73
114
40
0
40
0
40
0
40
0
40
0.0147800169962055
40
0.0147800169962055
40
0.0275214702039995
40
0.0275214702039995
40
0.0402629234117935
40
0.0402629234117935
40
0.0530043766195874
40
0.0530043766195874
40
0.0657458298273813
40
0.0657458298273813
40
0.0912287362429703
40
0.0912287362429703
40
0.116711642658559
40
0.116711642658559
40
0.129453095866354
40
0.129453095866354
40
0.142194549074148
40
0.142194549074148
40
0.167677455489737
40
0.167677455489737
40
0.193160361905326
40
0.193160361905326
40
0.205901815113121
40
0.205901815113121
40
0.218643268320916
40
0.218643268320916
40
0.231384721528711
40
0.231384721528711
40
0.244126174736506
40
0.244126174736506
40
0.269609081152096
40
0.269609081152096
40
0.282350534359891
40
0.282350534359891
40
0.295091987567686
40
0.295091987567686
40
0.320574893983276
40
0.320574893983276
40
0.346057800398866
40
0.346057800398866
40
0.358799253606661
40
0.358799253606661
40
0.371540706814455
40
0.371540706814455
40
0.397023613230044
40
0.397023613230044
40
0.422506519645633
40
0.422506519645633
40
0.435247972853427
40
0.435247972853427
40
0.447989426061221
40
0.447989426061221
40
0.473472332476808
40
0.473472332476808
40
0.498955238892395
40
0.498955238892395
40
0.511696692100189
40
0.511696692100189
40
0.524438145307982
40
0.524438145307982
40
0.537179598515775
40
0.537179598515775
40
0.549921051723568
40
0.549921051723568
40
0.575403958139153
40
0.575403958139153
40
0.600886864554739
40
0.600886864554739
40
0.613628317762531
40
0.613628317762531
40
0.626369770970323
40
0.626369770970323
40
0.651852677385907
40
0.651852677385907
40
0.677335583801492
40
0.677335583801492
40
0.702818490217076
40
0.702818490217076
40
0.715559943424869
40
0.715559943424869
40
0.728301396632661
40
0.728301396632661
40
0.753784303048246
40
0.753784303048246
40
0.766525756256039
40
0.766525756256039
40
0.779267209463832
40
0.779267209463832
40
0.804750115879416
40
0.804750115879416
40
0.830233022295
40
0.830233022295
40
0.842974475502792
40
0.842974475502792
40
0.855715928710583
40
0.855715928710583
40
0.881198835126168
40
0.881198835126168
40
0.906681741541752
40
0.906681741541752
40
0.919423194749544
40
0.919423194749544
40
0.932164647957336
40
0.932164647957336
40
0.95764755437292
40
0.95764755437292
40
0.983130460788503
40
0.983130460788503
40
0.995871913996295
40
0.995871913996295
40
1
40
1
40
1
40
1
41
1
10
31.6369489321988
20
2.19425832799567
30
0
41
1
10
31.7907438713496
20
2.28540516684851
30
0
41
1
10
31.9441036654774
20
2.37498126035183
30
0
41
1
10
32.2294932231241
20
2.53800979394069
30
0
41
1
10
32.3615500261033
20
2.61199205381376
30
0
41
1
10
32.6254725408512
20
2.75709460257198
30
0
41
1
10
32.7574859691014
20
2.82803697880675
30
0
41
1
10
33.0202083885518
20
2.96843370682393
30
0
41
1
10
33.1512562626461
20
3.03744528527463
30
0
41
1
10
33.4140620631517
20
3.17151693802577
30
0
41
1
10
33.5456498294922
20
3.23679244840804
30
0
41
1
10
33.9404930828938
20
3.42793459383751
30
0
41
1
10
34.2031007982192
20
3.5498837648928
30
0
41
1
10
34.7300055002786
20
3.77943078350063
30
0
41
1
10
34.9946333953689
20
3.88675869394368
30
0
41
1
10
35.3928689104549
20
4.03695532998196
30
0
41
1
10
35.5252441244965
20
4.08572236749279
30
0
41
1
10
35.7913340862372
20
4.17875097977009
30
0
41
1
10
35.924608857859
20
4.22303372967932
30
0
41
1
10
36.3234286448657
20
4.34892894451673
30
0
41
1
10
36.5877913186203
20
4.42441502258922
30
0
41
1
10
37.1148908602822
20
4.5576656556137
30
0
41
1
10
37.3782266233819
20
4.61511057921845
30
0
41
1
10
37.7730993816565
20
4.68774470518596
30
0
41
1
10
37.9044555981122
20
4.70980137312438
30
0
41
1
10
38.1666694860397
20
4.74947974465047
30
0
41
1
10
38.2980158648217
20
4.76693392398019
30
0
41
1
10
38.5611355802764
20
4.79717116853928
30
0
41
1
10
38.6929516649674
20
4.80995073192568
30
0
41
1
10
38.9564637430622
20
4.83095512628017
30
0
41
1
10
39.0881507784344
20
4.83916648775912
30
0
41
1
10
39.4837418444707
20
4.85669965106891
30
0
41
1
10
39.748385035142
20
4.85890856749481
30
0
41
1
10
40.1477547285508
20
4.84788969230112
30
0
41
1
10
40.281565769493
20
4.84184424048829
30
0
41
1
10
40.5470318358026
20
4.82481553425291
30
0
41
1
10
40.6793469285922
20
4.81387945745052
30
0
41
1
10
41.0765399146502
20
4.77427227714711
30
0
41
1
10
41.3410301455788
20
4.73878045097567
30
0
41
1
10
41.8673259990298
20
4.64919466507564
30
0
41
1
10
42.1298635436516
20
4.59527772292813
30
0
41
1
10
42.5244576779054
20
4.50177283156376
30
0
41
1
10
42.6560523370135
20
4.46847485589137
30
0
41
1
10
42.9191291203034
20
4.39746968734738
30
0
41
1
10
43.050037037975
20
4.35937031979213
30
0
41
1
10
43.4442697024587
20
4.23942734416642
30
0
41
1
10
43.708546232541
20
4.15175505797478
30
0
41
1
10
44.237231840631
20
3.95866331264645
30
0
41
1
10
44.5023023541228
20
3.85335204061133
30
0
41
1
10
44.9021389934518
20
3.68455600836705
30
0
41
1
10
45.0352129276082
20
3.62670938585148
30
0
41
1
10
45.3007393038591
20
3.50768064618134
30
0
41
1
10
45.4329391698143
20
3.44622259301522
30
0
41
1
10
45.8284440563846
20
3.25661750171835
30
0
41
1
10
46.0924434405711
20
3.12530542519045
30
0
41
1
10
46.6187318478471
20
2.85043044702039
30
0
41
1
10
46.8808439640015
20
2.70656584215891
30
0
41
1
10
47.2749700003774
20
2.48427849625222
30
0
41
1
10
47.4065069218359
20
2.40911397182714
30
0
41
1
10
47.6698043033868
20
2.25653222881311
30
0
41
1
10
47.8017263338551
20
2.17934385456795
30
0
41
1
10
48.0645520968494
20
2.0209530534755
30
0
41
1
10
48.1960562619329
20
1.94056848932314
30
0
41
1
10
48.4600710414685
20
1.77860281681183
30
0
41
1
10
48.592488739669
20
1.69689738612522
30
0
41
1
10
48.9904020223861
20
1.44877472602423
30
0
41
1
10
49.2568287611196
20
1.27778407152792
30
0
41
1
10
49.7877495817028
20
0.934086391744586
30
0
41
1
10
50.0526850356808
20
0.761797742294277
30
0
41
1
10
50.4485470778562
20
0.501527827661022
30
0
41
1
10
50.5796448082652
20
0.413545019243543
30
0
41
1
10
50.8425142166705
20
0.238794145789257
30
0
41
1
10
50.9740417291907
20
0.151650077046014
30
0
41
1
10
51.3687331277178
20
-0.109353140378516
30
0
41
1
10
51.6311532831613
20
-0.28408772350457
30
0
41
1
10
52.15634632575
20
-0.632309838539925
30
0
41
1
10
52.4196631239259
20
-0.804969490895218
30
0
41
1
10
52.9477994388129
20
-1.14729367679271
30
0
41
1
10
53.2112323033672
20
-1.31905831288734
30
0
41
1
10
53.609946481437
20
-1.57074690487175
30
0
41
1
10
53.7435416095902
20
-1.6539822729994
30
0
41
1
10
54.0096089935101
20
-1.81895270819891
30
0
41
1
10
54.1421511168639
20
-1.90064675057627
30
0
41
1
10
54.5390323000579
20
-2.14230639262408
30
0
41
1
10
54.8028572782796
20
-2.29853033239513
30
0
41
1
10
55.1982875398627
20
-2.52467629877242
30
0
41
1
10
55.3301318069047
20
-2.59859400757674
30
0
41
1
10
55.5923318110047
20
-2.74547134028319
30
0
41
1
10
55.7234126079805
20
-2.81748551858661
30
0
41
1
10
56.1173654823444
20
-3.02837072871222
30
0
41
1
10
56.3805311463481
20
-3.16265812229446
30
0
41
1
10
56.9060207127508
20
-3.42077131003694
30
0
41
1
10
57.1691020868318
20
-3.54367326389274
30
0
41
1
10
57.5658334044616
20
-3.71705491728537
30
0
41
1
10
57.6983728659228
20
-3.77308663789043
30
0
41
1
10
57.9637118810251
20
-3.88191514561277
30
0
41
1
10
58.0959817858939
20
-3.93520378386748
30
0
41
1
10
58.495187587021
20
-4.08816965111609
30
0
41
1
10
58.7609791419732
20
-4.18089477183412
30
0
41
1
10
59.2891341239581
20
-4.3505675624113
30
0
41
1
10
59.5520198169616
20
-4.42698533751295
30
0
41
1
10
59.9466980727769
20
-4.52785257055817
30
0
41
1
10
60.0782760808665
20
-4.55922174539799
30
0
41
1
10
60.3412492966405
20
-4.61760341728234
30
0
41
1
10
60.4723214286452
20
-4.64476809532624
30
0
41
1
10
60.8654386375827
20
-4.71949675432654
30
0
41
1
10
61.1287539438933
20
-4.75982890733167
30
0
41
1
10
61.6553429129053
20
-4.82257183661278
30
0
41
1
10
61.9185460008904
20
-4.84484799634976
30
0
41
1
10
62.3157054805325
20
-4.86386915362434
30
0
41
1
10
62.448485077748
20
-4.8678298283657
30
0
41
1
10
62.6247209500321
20
-4.86991531127433
30
0
41
1
10
62.6678997183434
20
-4.87017581707789
30
0
41
1
10
62.711074016036
20
-4.87018433493148
30
0
0
SPLINE
5
DD
100
AcDbEntity
8
1
62
256
6
ByLayer
370
18
48
1
60
0
100
AcDbSpline
70
4
71
3
72
114
73
110
40
0
40
0
40
0
40
0
40
0.0121058166737785
40
0.0121058166737785
40
0.0375381873763705
40
0.0375381873763705
40
0.0629705580789625
40
0.0629705580789625
40
0.0884029287815546
40
0.0884029287815546
40
0.101119114132851
40
0.101119114132851
40
0.113835299484147
40
0.113835299484147
40
0.139267670186739
40
0.139267670186739
40
0.164700040889331
40
0.164700040889331
40
0.177416226240627
40
0.177416226240627
40
0.190132411591923
40
0.190132411591923
40
0.202848596943219
40
0.202848596943219
40
0.215564782294515
40
0.215564782294515
40
0.240997152997107
40
0.240997152997107
40
0.253713338348403
40
0.253713338348403
40
0.266429523699699
40
0.266429523699699
40
0.291861894402291
40
0.291861894402291
40
0.317294265104883
40
0.317294265104883
40
0.33001045045618
40
0.33001045045618
40
0.342726635807476
40
0.342726635807476
40
0.36815900651007
40
0.36815900651007
40
0.380875191861368
40
0.380875191861368
40
0.393591377212666
40
0.393591377212666
40
0.406307562563964
40
0.406307562563964
40
0.419023747915261
40
0.419023747915261
40
0.444456118617859
40
0.444456118617859
40
0.469888489320456
40
0.469888489320456
40
0.482604674671756
40
0.482604674671756
40
0.495320860023055
40
0.495320860023055
40
0.520753230725656
40
0.520753230725656
40
0.546185601428257
40
0.546185601428257
40
0.571617972130858
40
0.571617972130858
40
0.584334157482158
40
0.584334157482158
40
0.597050342833458
40
0.597050342833458
40
0.622482713536055
40
0.622482713536055
40
0.647915084238653
40
0.647915084238653
40
0.67334745494125
40
0.67334745494125
40
0.686063640292549
40
0.686063640292549
40
0.698779825643849
40
0.698779825643849
40
0.72421219634645
40
0.72421219634645
40
0.73692838169775
40
0.73692838169775
40
0.749644567049049
40
0.749644567049049
40
0.775076937751648
40
0.775076937751648
40
0.800509308454248
40
0.800509308454248
40
0.813225493805546
40
0.813225493805546
40
0.825941679156845
40
0.825941679156845
40
0.851374049859442
40
0.851374049859442
40
0.87680642056204
40
0.87680642056204
40
0.889522605913339
40
0.889522605913339
40
0.902238791264639
40
0.902238791264639
40
0.92767116196724
40
0.92767116196724
40
0.95310353266984
40
0.95310353266984
40
0.965819718021141
40
0.965819718021141
40
0.978535903372442
40
0.978535903372442
40
1
40
1
40
1
40
1
41
1
10
77.6384747988374
20
2.20357258295482
30
0
41
1
10
77.7637944521742
20
2.27777371348924
30
0
41
1
10
77.8890741797006
20
2.35086835329943
30
0
41
1
10
78.2755626139237
20
2.57651664068743
30
0
41
1
10
78.5381189934305
20
2.72326827385439
30
0
41
1
10
79.0636695199075
20
3.00603956640939
30
0
41
1
10
79.3258532131478
20
3.1429953916759
30
0
41
1
10
79.8523998008733
20
3.40383993820447
30
0
41
1
10
80.1170618947633
20
3.52746212331576
30
0
41
1
10
80.5149675837321
20
3.703852949062
30
0
41
1
10
80.6474501166126
20
3.76172344035751
30
0
41
1
10
80.9131135853903
20
3.87253966074789
30
0
41
1
10
81.0458280483233
20
3.92571778342742
30
0
41
1
10
81.443381701529
20
4.07898060951436
30
0
41
1
10
81.7067811993113
20
4.17351658332058
30
0
41
1
10
82.2325490468829
20
4.34552610551239
30
0
41
1
10
82.4953920423715
20
4.42270717600411
30
0
41
1
10
82.8894459719318
20
4.52561411509222
30
0
41
1
10
83.0203307948891
20
4.55801030883893
30
0
41
1
10
83.2822410186071
20
4.61829784394567
30
0
41
1
10
83.4134462344404
20
4.64610976319926
30
0
41
1
10
83.6763048560337
20
4.69716392046362
30
0
41
1
10
83.8079684745363
20
4.72040909199345
30
0
41
1
10
84.0711328251693
20
4.76254925925693
30
0
41
1
10
84.2026969912064
20
4.78140665641143
30
0
41
1
10
84.5980535397593
20
4.83099695946973
30
0
41
1
10
84.8627509475594
20
4.85469879202924
30
0
41
1
10
85.2621840696817
20
4.87594764507853
30
0
41
1
10
85.395396765446
20
4.88063852258014
30
0
41
1
10
85.6597185911796
20
4.8852278393
30
0
41
1
10
85.7917645517753
20
4.88508184204881
30
0
41
1
10
86.1878248269376
20
4.87754645209188
30
0
41
1
10
86.4514736288177
20
4.86311869663376
30
0
41
1
10
86.9764214924228
20
4.81540052250114
30
0
41
1
10
87.2384944677309
20
4.78217844394374
30
0
41
1
10
87.6324494221399
20
4.71896944080211
30
0
41
1
10
87.7638787402577
20
4.69567408086854
30
0
41
1
10
88.0264381708062
20
4.64438189262825
30
0
41
1
10
88.1571452782591
20
4.61615637935071
30
0
41
1
10
88.5511235265624
20
4.52540412308289
30
0
41
1
10
88.8152253738306
20
4.4564794271912
30
0
41
1
10
89.2115694670447
20
4.33903675357959
30
0
41
1
10
89.3438324427328
20
4.29759746837718
30
0
41
1
10
89.6091023820718
20
4.21039500141436
30
0
41
1
10
89.7422635821382
20
4.16458329964877
30
0
41
1
10
90.007854787855
20
4.06946270985583
30
0
41
1
10
90.1404538589566
20
4.02008453283605
30
0
41
1
10
90.405043885105
20
3.91755084770801
30
0
41
1
10
90.5366396770592
20
3.86402202262028
30
0
41
1
10
90.9310741710913
20
3.69823649088181
30
0
41
1
10
91.1944451590872
20
3.58174487246117
30
0
41
1
10
91.7193898123621
20
3.33445057297658
30
0
41
1
10
91.9810225917462
20
3.2036047449426
30
0
41
1
10
92.3746239202071
20
2.99927478352112
30
0
41
1
10
92.5060151332684
20
2.92983231523152
30
0
41
1
10
92.7690254910228
20
2.7881090357599
30
0
41
1
10
92.9007538365819
20
2.71597538175402
30
0
41
1
10
93.2945083463992
20
2.4929331600263
30
0
41
1
10
93.5586320446565
20
2.33993656778045
30
0
41
1
10
94.0891839357389
20
2.02413539699816
30
0
41
1
10
94.3551747634829
20
1.8598725094667
30
0
41
1
10
94.8841915801082
20
1.52823553360466
30
0
41
1
10
95.1483981952118
20
1.36086792032333
30
0
41
1
10
95.5429053936243
20
1.10553281002984
30
0
41
1
10
95.673640192041
20
1.01900643513613
30
0
41
1
10
95.93592337059
20
0.84662895415488
30
0
41
1
10
96.0671862728575
20
0.760354381690149
30
0
41
1
10
96.4610830879301
20
0.500902313495544
30
0
41
1
10
96.722977397338
20
0.32581397884357
30
0
41
1
10
97.2475634127792
20
-0.0252980675759886
30
0
41
1
10
97.5107311802803
20
-0.20058853298633
30
0
41
1
10
98.0386450915397
20
-0.550901608640288
30
0
41
1
10
98.3020633333646
20
-0.72799453823194
30
0
41
1
10
98.7010572966034
20
-0.989321001296361
30
0
41
1
10
98.8342094890865
20
-1.07578003804576
30
0
41
1
10
99.0991711854002
20
-1.24770017999478
30
0
41
1
10
99.2312056240906
20
-1.3331526509304
30
0
41
1
10
99.6266858712221
20
-1.58692230143299
30
0
41
1
10
99.8897547102349
20
-1.75229838779256
30
0
41
1
10
100.284137789812
20
-1.99391550771816
30
0
41
1
10
100.415597037138
20
-2.07334009853162
30
0
41
1
10
100.67714962548
20
-2.23179337837257
30
0
41
1
10
100.808043748283
20
-2.30971806293266
30
0
41
1
10
101.201358551488
20
-2.53927799221398
30
0
41
1
10
101.464127266756
20
-2.68711255520475
30
0
41
1
10
101.989133957877
20
-2.97437759596227
30
0
41
1
10
102.252146192511
20
-3.11279340150747
30
0
41
1
10
102.64891546902
20
-3.3107728607728
30
0
41
1
10
102.781514814597
20
-3.37520402135817
30
0
41
1
10
103.046901652781
20
-3.50146935836744
30
0
41
1
10
103.179427756953
20
-3.5638227260998
30
0
41
1
10
103.577010678595
20
-3.74320724966574
30
0
41
1
10
103.841775680893
20
-3.85419646950294
30
0
41
1
10
104.368126311136
20
-4.06194981714998
30
0
41
1
10
104.63027697922
20
-4.15806568883002
30
0
41
1
10
105.024036628255
20
-4.2891328242209
30
0
41
1
10
105.155331980689
20
-4.33068773199739
30
0
41
1
10
105.417786508109
20
-4.40970602899557
30
0
41
1
10
105.548572923278
20
-4.4474093648688
30
0
41
1
10
105.941164626162
20
-4.55395513246455
30
0
41
1
10
106.204245132097
20
-4.61572827583035
30
0
41
1
10
106.730518432833
20
-4.72223039036896
30
0
41
1
10
106.993724195239
20
-4.7668077603665
30
0
41
1
10
107.39110493096
20
-4.81942802984366
30
0
41
1
10
107.524179833831
20
-4.83462943820885
30
0
41
1
10
107.790141414992
20
-4.86024765089633
30
0
41
1
10
107.922896430237
20
-4.87064385663464
30
0
41
1
10
108.277281760186
20
-4.89234928869283
30
0
41
1
10
108.499719469089
20
-4.89899727109383
30
0
41
1
10
108.721767302177
20
-4.89893941746675
30
0
0
SPLINE
5
DE
100
AcDbEntity
8
1
62
256
6
ByLayer
370
18
48
1
60
0
100
AcDbSpline
70
4
71
3
72
8
73
4
40
0
40
0
40
0
40
0
40
1
40
1
40
1
40
1
41
1
10
8.65925551182704
20
-2.39823455151057
30
0
41
1
10
8.51807756135975
20
-2.55549273636163
30
0
41
1
10
8.38183545413958
20
-2.70957509285083
30
0
41
1
10
8.24974745447688
20
-2.85934801871736
30
0
0
SPLINE
5
DF
100
AcDbEntity
8
1
62
256
6
ByLayer
370
18
48
1
60
0
100
AcDbSpline
70
4
71
3
72
12
73
8
40
0
40
0
40
0
40
0
40
0.25
40
0.25
40
0.5
40
0.5
40
1
40
1
40
1
40
1
41
1
10
8.11217044366731
20
-1.22324113379929
30
0
41
1
10
8.09485622026207
20
-1.21216889484927
30
0
41
1
10
8.07930649809299
20
-1.19926399876073
30
0
41
1
10
8.05161893789969
20
-1.16988738683006
30
0
41
1
10
8.0395165354725
20
-1.1533116300285
30
0
41
1
10
8.01044580561518
20
-1.10076013267536
30
0
41
1
10
7.99999992523806
20
-1.06086530794354
30
0
41
1
10
7.99999992523806
20
-1.02029353089796
30
0
0
SPLINE
5
E0
100
AcDbEntity
8
1
62
256
6
ByLayer
370
18
48
1
60
0
100
AcDbSpline
70
4
71
3
72
8
73
4
40
0
40
0
40
0
40
0
40
1
40
1
40
1
40
1
41
1
10
110.322848815344
20
-4.71475328306613
30
0
41
1
10
110.299643968711
20
-4.77257415568835
30
0
41
1
10
110.276425241592
20
-4.830283256173
30
0
41
1
10
110.253196641889
20
-4.88788297964558
30
0
0
SPLINE
5
E1
100
AcDbEntity
8
1
62
256
6
ByLayer
370
18
48
1
60
0
100
AcDbSpline
70
4
71
3
72
46
73
42
40
0
40
0
40
0
40
0
40
0.0624999999999967
40
0.0624999999999967
40
0.124999999999993
40
0.124999999999993
40
0.18749999999999
40
0.18749999999999
40
0.249999999999987
40
0.249999999999987
40
0.374999999999993
40
0.374999999999993
40
0.406249999999992
40
0.406249999999992
40
0.43749999999999
40
0.43749999999999
40
0.468749999999988
40
0.468749999999988
40
0.499999999999986
40
0.499999999999986
40
0.531249999999984
40
0.531249999999984
40
0.562499999999982
40
0.562499999999982
40
0.624999999999985
40
0.624999999999985
40
0.656249999999986
40
0.656249999999986
40
0.687499999999988
40
0.687499999999988
40
0.718749999999989
40
0.718749999999989
40
0.74999999999999
40
0.74999999999999
40
0.812499999999993
40
0.812499999999993
40
0.874999999999995
40
0.874999999999995
40
0.937499999999998
40
0.937499999999998
40
1
40
1
40
1
40
1
41
1
10
111.346948048969
20
-1.638877036613
30
0
41
1
10
111.336772317738
20
-1.60836166501156
30
0
41
1
10
111.321907061076
20
-1.58592908460395
30
0
41
1
10
111.286572544881
20
-1.55643010673813
30
0
41
1
10
111.26569040829
20
-1.54889638106812
30
0
41
1
10
111.220155747653
20
-1.54665093354589
30
0
41
1
10
111.195672595306
20
-1.55177781092667
30
0
41
1
10
111.14363549803
20
-1.57321642548354
30
0
41
1
10
111.116014844745
20
-1.58970697172646
30
0
41
1
10
111.031912133203
20
-1.65387393902782
30
0
41
1
10
110.97202393942
20
-1.7177524385221
30
0
41
1
10
110.900013703861
20
-1.81959580918263
30
0
41
1
10
110.885692522059
20
-1.84114399326282
30
0
41
1
10
110.857233227921
20
-1.88691063199312
30
0
41
1
10
110.843024499297
20
-1.91127958556226
30
0
41
1
10
110.815729461374
20
-1.96149522640044
30
0
41
1
10
110.802541765324
20
-1.98748668897437
30
0
41
1
10
110.777195966171
20
-2.04144818393786
30
0
41
1
10
110.76493782708
20
-2.06968823927417
30
0
41
1
10
110.74239940395
20
-2.12660177407781
30
0
41
1
10
110.732056192788
20
-2.15536442212704
30
0
41
1
10
110.713413378358
20
-2.2135647720431
30
0
41
1
10
110.705129783578
20
-2.24307535255792
30
0
41
1
10
110.684777406591
20
-2.32844400368995
30
0
41
1
10
110.676696458124
20
-2.38366451563684
30
0
41
1
10
110.673893917138
20
-2.4554925890576
30
0
41
1
10
110.674452312833
20
-2.47799054279244
30
0
41
1
10
110.678350862594
20
-2.51889349876547
30
0
41
1
10
110.681646539862
20
-2.53719755889725
30
0
41
1
10
110.690638569581
20
-2.56997676976303
30
0
41
1
10
110.696380450678
20
-2.58446457012803
30
0
41
1
10
110.709672779208
20
-2.60908060017789
30
0
41
1
10
110.717253062825
20
-2.61935692701979
30
0
41
1
10
110.742497228556
20
-2.64474125504728
30
0
41
1
10
110.762777592374
20
-2.65429621123695
30
0
41
1
10
110.806961542368
20
-2.6601507236592
30
0
41
1
10
110.831281326875
20
-2.65664147529711
30
0
41
1
10
110.883001287692
20
-2.63789829455462
30
0
41
1
10
110.909961328569
20
-2.62289554511403
30
0
41
1
10
110.965975574207
20
-2.58217011738864
30
0
41
1
10
110.995122637716
20
-2.55624035153306
30
0
41
1
10
111.024142984193
20
-2.52577666296949
30
0
0
SPLINE
5
E2
100
AcDbEntity
8
1
62
256
6
ByLayer
370
18
48
1
60
0
100
AcDbSpline
70
4
71
3
72
8
73
4
40
0
40
0
40
0
40
0
40
1
40
1
40
1
40
1
41
1
10
111.810887153512
20
1.28681188693815
30
0
41
1
10
111.873037945242
20
0.911274233970232
30
0
41
1
10
111.927768323338
20
0.535791754959632
30
0
41
1
10
111.975026433458
20
0.160364835465629
30
0
0
SPLINE
5
E3
100
AcDbEntity
8
1
62
256
6
ByLayer
370
18
48
1
60
0
100
AcDbSpline
70
4
71
3
72
8
73
4
40
0
40
0
40
0
40
0
40
1
40
1
40
1
40
1
41
1
10
110.417198893403
20
4.76803451590362
30
0
41
1
10
110.354796939518
20
4.82885445202876
30
0
41
1
10
110.300254566711
20
4.86914287827494
30
0
41
1
10
110.253196641889
20
4.88788297964555
30
0
0
SPLINE
5
E4
100
AcDbEntity
8
1
62
256
6
ByLayer
370
18
48
1
60
0
100
AcDbSpline
70
4
71
3
72
16
73
12
40
0
40
0
40
0
40
0
40
0.0941319285028298
40
0.0941319285028298
40
0.435195222386293
40
0.435195222386293
40
0.776258516269756
40
0.776258516269756
40
0.946790163211485
40
0.946790163211485
40
1
40
1
40
1
40
1
41
1
10
86.911438294345
20
-4.61570674105946
30
0
41
1
10
86.7636860988236
20
-4.61544005026326
30
0
41
1
10
86.6159008194377
20
-4.61237098924258
30
0
41
1
10
85.9351397789221
20
-4.58523715040678
30
0
41
1
10
85.4056508957541
20
-4.52737980630738
30
0
41
1
10
84.3481715365994
20
-4.34266449420227
30
0
41
1
10
83.8199081169985
20
-4.21576306157417
30
0
41
1
10
83.0233666211495
20
-3.97612591079104
30
0
41
1
10
82.7571025135148
20
-3.88801868023893
30
0
41
1
10
82.4062252841522
20
-3.761947136771
30
0
41
1
10
82.32260645629
20
-3.73115829042132
30
0
41
1
10
82.2390336623543
20
-3.69966506282083
30
0
0
SPLINE
5
E5
100
AcDbEntity
8
1
62
256
6
ByLayer
370
13
48
1
60
0
100
AcDbSpline
70
4
71
3
72
26
73
22
40
0
40
0
40
0
40
0
40
0.0154383317462093
40
0.0154383317462093
40
0.0565028007271147
40
0.0565028007271147
40
0.38501855257435
40
0.38501855257435
40
0.467147490536158
40
0.467147490536158
40
0.549276428497965
40
0.549276428497965
40
0.713534304421585
40
0.713534304421585
40
0.877792180345204
40
0.877792180345204
40
0.918856649326108
40
0.918856649326108
40
0.959921118307012
40
0.959921118307012
40
1
40
1
40
1
40
1
41
1
10
82.2390336621923
20
-3.69966506275975
30
0
41
1
10
82.1886856715157
20
-3.68069213323349
30
0
41
1
10
82.1383543883773
20
-3.66146355580651
30
0
41
1
10
81.9543838086815
20
-3.59023506879132
30
0
41
1
10
81.8209706886156
20
-3.53676342561352
30
0
41
1
10
80.6222861513431
20
-3.04089909619185
30
0
41
1
10
79.5717410013861
20
-2.49626003826631
30
0
41
1
10
78.2421515690484
20
-1.73159387416723
30
0
41
1
10
77.9753968805042
20
-1.5744889020277
30
0
41
1
10
77.4392877245324
20
-1.25313228404465
30
0
41
1
10
77.1723832741604
20
-1.09025643984779
30
0
41
1
10
76.374370131843
20
-0.597988683248104
30
0
41
1
10
75.8457428944599
20
-0.264541581803854
30
0
41
1
10
74.7879626021901
20
0.401117114188537
30
0
41
1
10
74.2589890417428
20
0.733619627662705
30
0
41
1
10
73.593019783987
20
1.14133072973218
30
0
41
1
10
73.4595857178388
20
1.22247286945941
30
0
41
1
10
73.1921607182804
20
1.38383368538635
30
0
41
1
10
73.0579723049357
20
1.46417568707173
30
0
41
1
10
72.7935910811553
20
1.62092134398193
30
0
41
1
10
72.6632864195191
20
1.69742699996681
30
0
41
1
10
72.53320834918
20
1.77294839346086
30
0
0
SPLINE
5
E6
100
AcDbEntity
8
1
62
256
6
ByLayer
370
18
48
1
60
0
100
AcDbSpline
70
4
71
3
72
16
73
12
40
0
40
0
40
0
40
0
40
0.182476424215564
40
0.182476424215564
40
0.381678074112135
40
0.381678074112135
40
0.580879724008707
40
0.580879724008707
40
0.97928302380185
40
0.97928302380185
40
1
40
1
40
1
40
1
41
1
10
40.9385079248343
20
-4.5870073288722
30
0
41
1
10
40.6959151459813
20
-4.587105974445
30
0
41
1
10
40.4531959902946
20
-4.57965711822899
30
0
41
1
10
39.9445501352126
20
-4.54827706964809
30
0
41
1
10
39.6785279587859
20
-4.52287127370778
30
0
41
1
10
39.1444314833798
20
-4.45383833077389
30
0
41
1
10
38.875511547627
20
-4.41003135964124
30
0
41
1
10
38.0727830261771
20
-4.25300908967449
30
0
41
1
10
37.5420709011375
20
-4.11431026625684
30
0
41
1
10
36.9846055665257
20
-3.93616911894267
30
0
41
1
10
36.9570525201487
20
-3.92728058711515
30
0
41
1
10
36.9295012820379
20
-3.9183094308782
30
0
0
SPLINE
5
E7
100
AcDbEntity
8
1
62
256
6
ByLayer
370
13
48
1
60
0
100
AcDbSpline
70
4
71
3
72
24
73
20
40
0
40
0
40
0
40
0
40
0.144051067128616
40
0.144051067128616
40
0.220027369258532
40
0.220027369258532
40
0.296003671388448
40
0.296003671388448
40
0.599908879908115
40
0.599908879908115
40
0.675885182038032
40
0.675885182038032
40
0.71387333310299
40
0.71387333310299
40
0.751861484167948
40
0.751861484167948
40
0.903814088427781
40
0.903814088427781
40
1
40
1
40
1
40
1
41
1
10
36.9295012825416
20
-3.91830943104213
30
0
41
1
10
36.4272211362261
20
-3.75475839029747
30
0
41
1
10
35.9255419867492
20
-3.5637462354795
30
0
41
1
10
35.1558146300745
20
-3.23420552848737
30
0
41
1
10
34.8893512108024
20
-3.11356438033039
30
0
41
1
10
34.354158959545
20
-2.85926222555665
30
0
41
1
10
34.0851833539403
20
-2.72534521675604
30
0
41
1
10
32.7494515694375
20
-2.03459706333314
30
0
41
1
10
31.6965225623435
20
-1.40864062510201
30
0
41
1
10
30.3659851726517
20
-0.586746398329268
30
0
41
1
10
30.0990763641022
20
-0.420514213878761
30
0
41
1
10
29.6967994838514
20
-0.169427976797294
30
0
41
1
10
29.5623431587944
20
-0.0854025302002412
30
0
41
1
10
29.2945003810398
20
0.0821531032478902
30
0
41
1
10
29.1608927513767
20
0.165803005002573
30
0
41
1
10
28.4939466887369
20
0.582617275891778
30
0
41
1
10
27.9637844542743
20
0.911299576605643
30
0
41
1
10
27.0985816142414
20
1.43256420487407
30
0
41
1
10
26.7631886518122
20
1.63059085609891
30
0
41
1
10
26.4269710281592
20
1.82331879641904
30
0
0
SPLINE
5
E8
100
AcDbEntity
8
1
62
256
6
ByLayer
370
18
48
1
60
0
100
AcDbSpline
70
4
71
3
72
8
73
4
40
0
40
0
40
0
40
0
40
1
40
1
40
1
40
1
41
1
10
7.99999992523806
20
-3.23885609071132
30
0
41
1
10
7.99999992523806
20
-3.24145036349512
30
0
41
1
10
7.99999992523806
20
-3.24404939441689
30
0
41
1
10
7.99999992523806
20
-3.24665319835259
30
0
0
SPLINE
5
E9
100
AcDbEntity
8
1
62
256
6
ByLayer
370
13
48
1
60
0
100
AcDbSpline
70
4
71
3
72
8
73
4
40
0
40
0
40
0
40
0
40
1
40
1
40
1
40
1
41
1
10
8.11217044366737
20
-1.22324113379898
30
0
41
1
10
8.11314343003778
20
-1.21151780526336
30
0
41
1
10
8.11412989581163
20
-1.19978421916929
30
0
41
1
10
8.11513004394604
20
-1.18803971571771
30
0
0
SPLINE
5
EA
100
AcDbEntity
8
1
62
256
6
ByLayer
370
18
48
1
60
0
100
AcDbSpline
70
4
71
3
72
8
73
4
40
0
40
0
40
0
40
0
40
1
40
1
40
1
40
1
41
1
10
110.253196641889
20
4.88788297964555
30
0
41
1
10
110.081290249983
20
4.89584105162294
30
0
41
1
10
109.90931324585
20
4.8997416250721
30
0
41
1
10
109.737157077621
20
4.89957549158433
30
0
0
SPLINE
5
EB
100
AcDbEntity
8
1
62
256
6
ByLayer
370
18
48
1
60
0
100
AcDbSpline
70
4
71
3
72
52
73
48
40
0
40
0
40
0
40
0
40
0.0474489099163053
40
0.0474489099163053
40
0.0788303011826193
40
0.0788303011826193
40
0.0945209968157763
40
0.0945209968157763
40
0.110211692448933
40
0.110211692448933
40
0.172974474981559
40
0.172974474981559
40
0.235737257514185
40
0.235737257514185
40
0.251427953147342
40
0.251427953147342
40
0.267118648780498
40
0.267118648780498
40
0.29850004004681
40
0.29850004004681
40
0.424025605112058
40
0.424025605112058
40
0.45540699637837
40
0.45540699637837
40
0.486788387644682
40
0.486788387644682
40
0.549551170177306
40
0.549551170177306
40
0.61231395270993
40
0.61231395270993
40
0.675076735242554
40
0.675076735242554
40
0.737839517775178
40
0.737839517775178
40
0.76922090904149
40
0.76922090904149
40
0.800602300307802
40
0.800602300307802
40
0.926127865373049
40
0.926127865373049
40
0.957509256639362
40
0.957509256639362
40
0.973199952272518
40
0.973199952272518
40
0.988890647905675
40
0.988890647905675
40
1
40
1
40
1
40
1
41
1
10
89.145365178279
20
-4.62542687710692
30
0
41
1
10
88.7456304294179
20
-4.71125561462804
30
0
41
1
10
88.3456991201375
20
-4.77639931442201
30
0
41
1
10
87.6782138599338
20
-4.84891049327823
30
0
41
1
10
87.4116744485399
20
-4.86833656829563
30
0
41
1
10
87.0098939490888
20
-4.88286517102142
30
0
41
1
10
86.8757611607888
20
-4.88525915884102
30
0
41
1
10
86.6085472424931
20
-4.88514659373755
30
0
41
1
10
86.4752402058683
20
-4.88264875689816
30
0
41
1
10
85.8098276839804
20
-4.85811314744925
30
0
41
1
10
85.2811094958299
20
-4.79999210124862
30
0
41
1
10
84.2235575585281
20
-4.61011599241607
30
0
41
1
10
83.694593608313
20
-4.47840989236857
30
0
41
1
10
83.0285045324652
20
-4.26942274540903
30
0
41
1
10
82.8950331532142
20
-4.22541165437127
30
0
41
1
10
82.6274733736984
20
-4.13298746221796
30
0
41
1
10
82.4932104430058
20
-4.08450390717698
30
0
41
1
10
82.0918646494853
20
-3.93350232129171
30
0
41
1
10
81.8255446590648
20
-3.82522347924038
30
0
41
1
10
80.4974164805469
20
-3.24913286879993
30
0
41
1
10
79.4470017093962
20
-2.67654409578063
30
0
41
1
10
78.1104981667274
20
-1.86583934377572
30
0
41
1
10
77.8417952316133
20
-1.69876658924443
30
0
41
1
10
77.3082638433439
20
-1.36100145031446
30
0
41
1
10
77.0425466062376
20
-1.18975764848679
30
0
41
1
10
76.2470354563327
20
-0.671239178283315
30
0
41
1
10
75.7190273552538
20
-0.318959436341771
30
0
41
1
10
74.6596958373459
20
0.38666718323816
30
0
41
1
10
74.1286204201898
20
0.740393711079065
30
0
41
1
10
73.0553026689065
20
1.43703097081166
30
0
41
1
10
72.5241458118628
20
1.77312467241995
30
0
41
1
10
71.4646666877014
20
2.41009133427701
30
0
41
1
10
70.9366004616171
20
2.71137477496777
30
0
41
1
10
70.1409998507244
20
3.1295597640767
30
0
41
1
10
69.8752339334569
20
3.26335208438059
30
0
41
1
10
69.3415297475896
20
3.51834158849022
30
0
41
1
10
69.0726932733505
20
3.63991062140056
30
0
41
1
10
67.7354404797734
20
4.20702631688792
30
0
41
1
10
66.6846506187335
20
4.53294306560051
30
0
41
1
10
65.3557152283887
20
4.75679303540963
30
0
41
1
10
65.0892696853903
20
4.7924091029839
30
0
41
1
10
64.6877221967693
20
4.83149623967748
30
0
41
1
10
64.5533641336582
20
4.84213951391826
30
0
41
1
10
64.2855647494862
20
4.85847532376045
30
0
41
1
10
64.1519654668106
20
4.86418986305668
30
0
41
1
10
63.9241913867578
20
4.86980674933855
30
0
41
1
10
63.8299049697723
20
4.87091865477419
30
0
41
1
10
63.7357264466213
20
4.87082168918198
30
0
0
SPLINE
5
EC
100
AcDbEntity
8
1
62
256
6
ByLayer
370
18
48
1
60
0
100
AcDbSpline
70
4
71
3
72
48
73
44
40
0
40
0
40
0
40
0
40
0.0273972484361958
40
0.0273972484361958
40
0.0588161244609131
40
0.0588161244609131
40
0.121653876510347
40
0.121653876510347
40
0.18449162855978
40
0.18449162855978
40
0.215910504584498
40
0.215910504584498
40
0.247329380609215
40
0.247329380609215
40
0.37300488470808
40
0.37300488470808
40
0.388714322720438
40
0.388714322720438
40
0.404423760732797
40
0.404423760732797
40
0.435842636757514
40
0.435842636757514
40
0.498680388806947
40
0.498680388806947
40
0.56151814085638
40
0.56151814085638
40
0.577227578868739
40
0.577227578868739
40
0.592937016881097
40
0.592937016881097
40
0.624355892905815
40
0.624355892905815
40
0.68719364495525
40
0.68719364495525
40
0.750031397004685
40
0.750031397004685
40
0.875706901103555
40
0.875706901103555
40
0.907125777128272
40
0.907125777128272
40
0.93854465315299
40
0.93854465315299
40
1
40
1
40
1
40
1
41
1
10
43.1774629877863
20
-4.59127396434889
30
0
41
1
10
42.9455741771482
20
-4.64142093269029
30
0
41
1
10
42.7131100585744
20
-4.68476394136599
30
0
41
1
10
42.2121814165002
20
-4.76267558667783
30
0
41
1
10
41.9430649885731
20
-4.79500514226146
30
0
41
1
10
41.1413685123003
20
-4.86229444656959
30
0
41
1
10
40.6111202067514
20
-4.86830501559572
30
0
41
1
10
39.5516515020942
20
-4.80446001865278
30
0
41
1
10
39.0223488391965
20
-4.73459590160434
30
0
41
1
10
38.2232973520922
20
-4.57376313762077
30
0
41
1
10
37.9561006786046
20
-4.51080668617411
30
0
41
1
10
37.4190495724698
20
-4.36625680148146
30
0
41
1
10
37.1512898925187
20
-4.28522155401126
30
0
41
1
10
35.8183079966686
20
-3.84039416631376
30
0
41
1
10
34.7662674125986
20
-3.35631040429325
30
0
41
1
10
33.5644935975136
20
-2.70246230499225
30
0
41
1
10
33.4306993666237
20
-2.62830295510597
30
0
41
1
10
33.1624585596821
20
-2.47708604872778
30
0
41
1
10
33.0279313754097
20
-2.39998594483151
30
0
41
1
10
32.6259397819495
20
-2.16607093104008
30
0
41
1
10
32.3592757795999
20
-2.00601766218651
30
0
41
1
10
31.5612316347104
20
-1.51656249818322
30
0
41
1
10
31.0319302112116
20
-1.17769906886821
30
0
41
1
10
29.9717562872825
20
-0.485413185434709
30
0
41
1
10
29.4405509558199
20
-0.132498129954826
30
0
41
1
10
28.7708247123966
20
0.310750774118901
30
0
41
1
10
28.636339006463
20
0.399615749103504
30
0
41
1
10
28.3679617230022
20
0.576396662504237
30
0
41
1
10
28.2340848913163
20
0.664311351684717
30
0
41
1
10
27.8332445699255
20
0.926437390898286
30
0
41
1
10
27.567100288926
20
1.0990746325661
30
0
41
1
10
26.7702742252555
20
1.60833017136457
30
0
41
1
10
26.2411526697334
20
1.93624185971589
30
0
41
1
10
25.1797716428872
20
2.55853211051519
30
0
41
1
10
24.6472521106428
20
2.85297742508644
30
0
41
1
10
23.034668764956
20
3.66834006258154
30
0
41
1
10
21.9809043395941
20
4.09966655391139
30
0
41
1
10
20.6522081434522
20
4.46864591515765
30
0
41
1
10
20.385896384484
20
4.53390966215915
30
0
41
1
10
19.8511700069419
20
4.64651764468857
30
0
41
1
10
19.5818795135018
20
4.69396903476633
30
0
41
1
10
18.7899789705674
20
4.80525256837467
30
0
41
1
10
18.2703400844645
20
4.84187280224262
30
0
41
1
10
17.7515620373924
20
4.84207823482427
30
0
0
SPLINE
5
ED
100
AcDbEntity
8
1
62
256
6
ByLayer
370
18
48
1
60
0
100
AcDbSpline
70
4
71
3
72
10
73
6
40
0
40
0
40
0
40
0
40
0.5
40
0.5
40
1
40
1
40
1
40
1
41
1
10
107.655940148472
20
-2.07108146517646
30
0
41
1
10
107.945265029036
20
-2.33775014175126
30
0
41
1
10
108.248444631407
20
-2.57940727446345
30
0
41
1
10
108.877120754893
20
-3.02243342729733
30
0
41
1
10
109.197982909531
20
-3.22045471708463
30
0
41
1
10
109.524118208747
20
-3.3987342015173
30
0
0
SPLINE
5
EE
100
AcDbEntity
8
1
62
256
6
ByLayer
370
18
48
1
60
0
100
AcDbSpline
70
4
71
3
72
12
73
8
40
0
40
0
40
0
40
0
40
0.25
40
0.25
40
0.5
40
0.5
40
1
40
1
40
1
40
1
41
1
10
110.417198893396
20
4.76803451592193
30
0
41
1
10
110.536702155144
20
4.48191069953589
30
0
41
1
10
110.655990322506
20
4.1951369888786
30
0
41
1
10
110.892906568718
20
3.61947626040779
30
0
41
1
10
111.010590199753
20
3.33064714989246
30
0
41
1
10
111.360269380712
20
2.46076315442448
30
0
41
1
10
111.588999114824
20
1.87641258205053
30
0
41
1
10
111.810887153513
20
1.28681188693756
30
0
0
SPLINE
5
EF
100
AcDbEntity
8
1
62
256
6
ByLayer
370
18
48
1
60
0
100
AcDbSpline
70
4
71
3
72
10
73
6
40
0
40
0
40
0
40
0
40
0.5
40
0.5
40
1
40
1
40
1
40
1
41
1
10
111.975026433459
20
-0.160364835465401
30
0
41
1
10
111.977017402762
20
-0.144548217520395
30
0
41
1
10
111.980329372116
20
-0.126797609441127
30
0
41
1
10
111.988829192004
20
-0.0885454784709907
30
0
41
1
10
111.99403504241
20
-0.0680964117283338
30
0
41
1
10
111.99994343604
20
-0.0471561403889496
30
0
0
SPLINE
5
F0
100
AcDbEntity
8
1
62
256
6
ByLayer
370
18
48
1
60
0
100
AcDbSpline
70
4
71
3
72
8
73
4
40
0
40
0
40
0
40
0
40
1
40
1
40
1
40
1
41
1
10
111.86073167424
20
-0.227268127694089
30
0
41
1
10
111.689470465816
20
-0.697804430667048
30
0
41
1
10
111.518209257392
20
-1.16834073364004
30
0
41
1
10
111.346948048968
20
-1.63887703661297
30
0
0
SPLINE
5
F1
100
AcDbEntity
8
1
62
256
6
ByLayer
370
18
48
1
60
0
100
AcDbSpline
70
4
71
3
72
14
73
10
40
0
40
0
40
0
40
0
40
0.309118893068535
40
0.309118893068535
40
0.618237786137071
40
0.618237786137071
40
0.927356679205606
40
0.927356679205606
40
1
40
1
40
1
40
1
41
1
10
110.339641152212
20
-4.62302434777368
30
0
41
1
10
109.806631429313
20
-4.6418845162714
30
0
41
1
10
109.278189277405
20
-4.62379711334552
30
0
41
1
10
108.224575346479
20
-4.51689257556649
30
0
41
1
10
107.699409726177
20
-4.42806461173686
30
0
41
1
10
106.645204838898
20
-4.18264568442561
30
0
41
1
10
106.116082159222
20
-4.0261145099974
30
0
41
1
10
105.455955658485
20
-3.79244810574997
30
0
41
1
10
105.329993552815
20
-3.7461602156317
30
0
41
1
10
105.204437934829
20
-3.69839882949
30
0
0
SPLINE
5
F2
100
AcDbEntity
8
1
62
256
6
ByLayer
370
13
48
1
60
0
100
AcDbSpline
70
4
71
3
72
26
73
22
40
0
40
0
40
0
40
0
40
0.0024479681363294
40
0.0024479681363294
40
0.0432510017776884
40
0.0432510017776884
40
0.124857069060413
40
0.124857069060413
40
0.451281338191309
40
0.451281338191309
40
0.532887405474033
40
0.532887405474033
40
0.614493472756758
40
0.614493472756758
40
0.777705607322206
40
0.777705607322206
40
0.85931167460493
40
0.85931167460493
40
0.940917741887654
40
0.940917741887654
40
1
40
1
40
1
40
1
41
1
10
105.204437809539
20
-3.69839878182984
30
0
41
1
10
105.196424363344
20
-3.69535046497333
30
0
41
1
10
105.188412572972
20
-3.69229614585015
30
0
41
1
10
105.04689200868
20
-3.63822762555017
30
0
41
1
10
104.913668161819
20
-3.5854975686068
30
0
41
1
10
104.514699652645
20
-3.4223587539866
30
0
41
1
10
104.24966348989
20
-3.30699699061211
30
0
41
1
10
102.926952988811
20
-2.70014921699976
30
0
41
1
10
101.876953223584
20
-2.11840164010576
30
0
41
1
10
100.538229202547
20
-1.31723871368308
30
0
41
1
10
100.271162342711
20
-1.15455140884671
30
0
41
1
10
99.7394592194754
20
-0.826612404590207
30
0
41
1
10
99.4745038659688
20
-0.661217660403111
30
0
41
1
10
98.6810753749617
20
-0.162773220845366
30
0
41
1
10
98.1537835010913
20
0.172123476986599
30
0
41
1
10
97.3602338684511
20
0.67014956857787
30
0
41
1
10
97.0953206769664
20
0.835500640916479
30
0
41
1
10
96.5636385092094
20
1.16317589314153
30
0
41
1
10
96.2965766320036
20
1.32568728420182
30
0
41
1
10
95.8349907648462
20
1.60154309330767
30
0
41
1
10
95.6418022131845
20
1.71540681132956
30
0
41
1
10
95.4490996945744
20
1.82707974735936
30
0
0
SPLINE
5
F3
100
AcDbEntity
8
1
62
256
6
ByLayer
370
18
48
1
60
0
100
AcDbSpline
70
4
71
3
72
14
73
10
40
0
40
0
40
0
40
0
40
0.120436494427757
40
0.120436494427757
40
0.293509718097831
40
0.293509718097831
40
0.985802612778132
40
0.985802612778132
40
1
40
1
40
1
40
1
41
1
10
63.9147813079816
20
-4.60146298911059
30
0
41
1
10
63.7283821228523
20
-4.60114310122631
30
0
41
1
10
63.5418726941835
20
-4.59635911169971
30
0
41
1
10
63.089565064442
20
-4.57404470004744
30
0
41
1
10
62.8237782512829
20
-4.55180070022789
30
0
41
1
10
61.4971936302583
20
-4.39622000980691
30
0
41
1
10
60.4445786807881
20
-4.13048305668184
30
0
41
1
10
59.3497671922326
20
-3.72931314960832
30
0
41
1
10
59.3277697055114
20
-3.72120179730993
30
0
41
1
10
59.3057754798564
20
-3.71304119153996
30
0
0
SPLINE
5
F4
100
AcDbEntity
8
1
62
256
6
ByLayer
370
13
48
1
60
0
100
AcDbSpline
70
4
71
3
72
24
73
20
40
0
40
0
40
0
40
0
40
0.154103614427717
40
0.154103614427717
40
0.234450910153664
40
0.234450910153664
40
0.314798205879611
40
0.314798205879611
40
0.636187388783398
40
0.636187388783398
40
0.67636103664637
40
0.67636103664637
40
0.716534684509344
40
0.716534684509344
40
0.796881980235289
40
0.796881980235289
40
0.957576571687181
40
0.957576571687181
40
1
40
1
40
1
40
1
41
1
10
59.3057754815305
20
-3.71304119216114
30
0
41
1
10
58.791528569188
20
-3.52223809754159
30
0
41
1
10
58.2790643871708
20
-3.304509558565
30
0
41
1
10
57.4980440730608
20
-2.93862626709546
30
0
41
1
10
57.2295296123969
20
-2.80664794068005
30
0
41
1
10
56.6941455218077
20
-2.53268161558586
30
0
41
1
10
56.4275375619468
20
-2.39097112198036
30
0
41
1
10
55.0977258184597
20
-1.6622004763702
30
0
41
1
10
54.0447849719731
20
-1.01378631663317
30
0
41
1
10
52.8400003486285
20
-0.259995680349334
30
0
41
1
10
52.7056781469974
20
-0.175769105700255
30
0
41
1
10
52.4378852411526
20
-0.0077299756297577
30
0
41
1
10
52.3042924056977
20
0.0761610043946632
30
0
41
1
10
51.9042014537351
20
0.327092552236309
30
0
41
1
10
51.6383948484637
20
0.49340198311242
30
0
41
1
10
50.8425284728676
20
0.987531784583553
30
0
41
1
10
50.3140175538769
20
1.3104954408447
30
0
41
1
10
49.6440314776858
20
1.70353207103622
30
0
41
1
10
49.5039995757385
20
1.78479511607631
30
0
41
1
10
49.3638014685913
20
1.86512488364471
30
0
0
SPLINE
5
F5
100
AcDbEntity
8
1
62
256
6
ByLayer
370
18
48
1
60
0
100
AcDbSpline
70
4
71
3
72
16
73
12
40
0
40
0
40
0
40
0
40
0.0214762136634861
40
0.0214762136634861
40
0.411950460192956
40
0.411950460192956
40
0.607187583457688
40
0.607187583457688
40
0.802424706722423
40
0.802424706722423
40
1
40
1
40
1
40
1
41
1
10
17.939368116022
20
-4.57267366910065
30
0
41
1
10
17.9102091199754
20
-4.57268530251508
30
0
41
1
10
17.8810488356612
20
-4.57258807722005
30
0
41
1
10
17.3216691586153
20
-4.56863499816973
30
0
41
1
10
16.7909292501431
20
-4.52902598218233
30
0
41
1
10
15.9886022006073
20
-4.41519581002402
30
0
41
1
10
15.7193657707064
20
-4.36803201210466
30
0
41
1
10
15.1839897012992
20
-4.25687240725617
30
0
41
1
10
14.9173723682685
20
-4.19286937931668
30
0
41
1
10
14.38217606655
20
-4.04801275391981
30
0
41
1
10
14.1136511131512
20
-3.96700094838147
30
0
41
1
10
13.8453303477229
20
-3.8782498076832
30
0
0
SPLINE
5
F6
100
AcDbEntity
8
1
62
256
6
ByLayer
370
13
48
1
60
0
100
AcDbSpline
70
4
71
3
72
14
73
10
40
0
40
0
40
0
40
0
40
0.427592115850166
40
0.427592115850166
40
0.570694086887623
40
0.570694086887623
40
0.713796057925082
40
0.713796057925082
40
1
40
1
40
1
40
1
41
1
10
13.8453303445947
20
-3.87824980664848
30
0
41
1
10
13.0530696287326
20
-3.61619762369872
30
0
41
1
10
12.2625890678954
20
-3.28667223722269
30
0
41
1
10
11.1940668254529
20
-2.77100108890406
30
0
41
1
10
10.9249039342034
20
-2.63524988142205
30
0
41
1
10
10.3892532440131
20
-2.35503622311751
30
0
41
1
10
10.1220329924722
20
-2.21024200876405
30
0
41
1
10
9.32072693336909
20
-1.76391686580945
30
0
41
1
10
8.78687279796176
20
-1.45062854884998
30
0
41
1
10
8.25023352722204
20
-1.12608179084606
30
0
0
SPLINE
5
F7
100
AcDbEntity
8
1
62
256
6
ByLayer
370
18
48
1
60
0
100
AcDbSpline
70
4
71
3
72
12
73
8
40
0
40
0
40
0
40
0
40
0.25
40
0.25
40
0.5
40
0.5
40
1
40
1
40
1
40
1
41
1
10
110.417198893396
20
-4.7680345159221
30
0
41
1
10
110.536702658172
20
-4.48190949514833
30
0
41
1
10
110.655991218951
20
-4.19513482927357
30
0
41
1
10
110.892907966725
20
-3.61947284493721
30
0
41
1
10
111.010591713379
20
-3.33064341808537
30
0
41
1
10
111.360270852962
20
-2.46075942479476
30
0
41
1
10
111.589000050794
20
-1.87641009499165
30
0
41
1
10
111.810887153513
20
-1.28681188693761
30
0
0
SPLINE
5
F8
100
AcDbEntity
8
1
62
256
6
ByLayer
370
18
48
1
60
0
100
AcDbSpline
70
4
71
3
72
8
73
4
40
0
40
0
40
0
40
0
40
1
40
1
40
1
40
1
41
1
10
8.24974745451343
20
2.85934801867583
30
0
41
1
10
8.51332392846453
20
2.56048196124414
30
0
41
1
10
8.79562233483995
20
2.24210232976787
30
0
41
1
10
9.09686844815263
20
1.91968230747202
30
0
0
SPLINE
5
F9
100
AcDbEntity
8
1
62
256
6
ByLayer
370
18
48
1
60
0
100
AcDbSpline
70
4
71
3
72
24
73
20
40
0
40
0
40
0
40
0
40
0.0822503929074268
40
0.0822503929074268
40
0.164500785814854
40
0.164500785814854
40
0.329001571629705
40
0.329001571629705
40
0.493502357444556
40
0.493502357444556
40
0.575752750351983
40
0.575752750351983
40
0.65800314325941
40
0.65800314325941
40
0.822503929074265
40
0.822503929074265
40
0.98700471488912
40
0.98700471488912
40
1
40
1
40
1
40
1
41
1
10
7.9999999252482
20
3.24665319834077
30
0
41
1
10
7.93573089621998
20
3.32146531227221
30
0
41
1
10
7.87247308611833
20
3.39492401543404
30
0
41
1
10
7.74779864279228
20
3.53878770674302
30
0
41
1
10
7.68614323215087
20
3.60945971843174
30
0
41
1
10
7.50573257231412
20
3.81399236371428
30
0
41
1
10
7.39159538926498
20
3.94031158515617
30
0
41
1
10
7.17366813655354
20
4.17150639054714
30
0
41
1
10
7.06987314625636
20
4.2763951493304
30
0
41
1
10
6.92117157524598
20
4.41612036007905
30
0
41
1
10
6.87277674073047
20
4.45975431898665
30
0
41
1
10
6.77830766753601
20
4.54077606949735
30
0
41
1
10
6.73206776852035
20
4.57828790738122
30
0
41
1
10
6.59809025216182
20
4.6798725483234
30
0
41
1
10
6.51593850489297
20
4.7324367790948
30
0
41
1
10
6.36606395884144
20
4.80675833884121
30
0
41
1
10
6.29832330653915
20
4.82853889467995
30
0
41
1
10
6.2341997254234
20
4.83409683866452
30
0
41
1
10
6.22955725628506
20
4.83439955002981
30
0
41
1
10
6.22496819405242
20
4.83459689386993
30
0
0
SPLINE
5
FA
100
AcDbEntity
8
1
62
256
6
ByLayer
370
18
48
1
60
0
100
AcDbSpline
70
4
71
3
72
8
73
4
40
0
40
0
40
0
40
0
40
1
40
1
40
1
40
1
41
1
10
8.64685223813242
20
2.37927106841988
30
0
41
1
10
8.79780528350122
20
2.39947871267535
30
0
41
1
10
8.94780827741508
20
2.4249859307823
30
0
41
1
10
9.09686844815263
20
2.45560859134378
30
0
0
SPLINE
5
FB
100
AcDbEntity
8
1
62
256
6
ByLayer
370
18
48
1
60
0
100
AcDbSpline
70
4
71
3
72
8
73
4
40
0
40
0
40
0
40
0
40
1
40
1
40
1
40
1
41
1
10
111.024142984193
20
-2.52577666296958
30
0
41
1
10
110.769612610732
20
-3.22509311662074
30
0
41
1
10
110.51508223727
20
-3.92440957027174
30
0
41
1
10
110.260551863808
20
-4.62372602392239
30
0
0
SPLINE
5
FC
100
AcDbEntity
8
1
62
256
6
ByLayer
370
18
48
1
60
0
100
AcDbSpline
70
4
71
3
72
48
73
44
40
0
40
0
40
0
40
0
40
0.0338845811281146
40
0.0338845811281146
40
0.0677691622562292
40
0.0677691622562292
40
0.135538324512458
40
0.135538324512458
40
0.203307486768688
40
0.203307486768688
40
0.237192067896801
40
0.237192067896801
40
0.271076649024914
40
0.271076649024914
40
0.406614973537368
40
0.406614973537368
40
0.423557264101424
40
0.423557264101424
40
0.44049955466548
40
0.44049955466548
40
0.47438413579359
40
0.47438413579359
40
0.542153298049809
40
0.542153298049809
40
0.609922460306029
40
0.609922460306029
40
0.626864750870084
40
0.626864750870084
40
0.643807041434138
40
0.643807041434138
40
0.677691622562248
40
0.677691622562248
40
0.745460784818465
40
0.745460784818465
40
0.779345365946574
40
0.779345365946574
40
0.813229947074682
40
0.813229947074682
40
0.948768271587114
40
0.948768271587114
40
0.982652852715222
40
0.982652852715222
40
1
40
1
40
1
40
1
41
1
10
110.253196641889
20
-4.88788297964555
30
0
41
1
10
109.986226634115
20
-4.9002418367777
30
0
41
1
10
109.719283785391
20
-4.90280567552102
30
0
41
1
10
109.184641806929
20
-4.88836135968029
30
0
41
1
10
108.916291215395
20
-4.87126619292528
30
0
41
1
10
108.115064968836
20
-4.79117792370459
30
0
41
1
10
107.585528910246
20
-4.69959996510366
30
0
41
1
10
106.52764733931
20
-4.44524317329703
30
0
41
1
10
105.99922437663
20
-4.28254188392657
30
0
41
1
10
105.201967203637
20
-3.98822820718141
30
0
41
1
10
104.935398901866
20
-3.88177381983411
30
0
41
1
10
104.399649745531
20
-3.65265582319975
30
0
41
1
10
104.132689780692
20
-3.53090941193744
30
0
41
1
10
102.803511940639
20
-2.89120480857454
30
0
41
1
10
101.754512437583
20
-2.27878835791455
30
0
41
1
10
100.55526858767
20
-1.52187141357084
30
0
41
1
10
100.421753687549
20
-1.43682266369081
30
0
41
1
10
100.154075706098
20
-1.26497291027138
30
0
41
1
10
100.019927175505
20
-1.17816549729395
30
0
41
1
10
99.6191202028734
20
-0.917057146749784
30
0
41
1
10
99.3531391491347
20
-0.741559232901892
30
0
41
1
10
98.5573667661289
20
-0.213061810655205
30
0
41
1
10
98.0295500524469
20
0.141643197145328
30
0
41
1
10
96.9719668545823
20
0.844656542476429
30
0
41
1
10
96.4421782776437
20
1.1929309014337
30
0
41
1
10
95.7738383861395
20
1.61683955273057
30
0
41
1
10
95.6396540051048
20
1.70117582673905
30
0
41
1
10
95.3721309366131
20
1.86749808046963
30
0
41
1
10
95.238674750733
20
1.94955314495601
30
0
41
1
10
94.8390820098115
20
2.19225678861076
30
0
41
1
10
94.5737102503097
20
2.34942710213119
30
0
41
1
10
93.7791142924888
20
2.80522768287261
30
0
41
1
10
93.2513590824808
20
3.08811584536369
30
0
41
1
10
92.4573436015966
20
3.47454445179412
30
0
41
1
10
92.1922041386853
20
3.59695112358565
30
0
41
1
10
91.6600594535877
20
3.82780796286943
30
0
41
1
10
91.3926584656808
20
3.93646153354007
30
0
41
1
10
90.0533534947118
20
4.44000031935619
30
0
41
1
10
89.002597562079
20
4.70522066491216
30
0
41
1
10
87.6768736719654
20
4.84901026465852
30
0
41
1
10
87.4111023306482
20
4.86834752798202
30
0
41
1
10
87.007591871261
20
4.88295338483104
30
0
41
1
10
86.8704854835283
20
4.8853439593106
30
0
41
1
10
86.7333758070869
20
4.88517680893486
30
0
0
SPLINE
5
FD
100
AcDbEntity
8
1
62
256
6
ByLayer
370
18
48
1
60
0
100
AcDbSpline
70
4
71
3
72
56
73
52
40
0
40
0
40
0
40
0
40
0.0200608789492956
40
0.0200608789492956
40
0.0515034109237527
40
0.0515034109237527
40
0.0672246769109813
40
0.0672246769109813
40
0.0829459428982099
40
0.0829459428982099
40
0.145831006847124
40
0.145831006847124
40
0.208716070796038
40
0.208716070796038
40
0.240158602770496
40
0.240158602770496
40
0.255879868757725
40
0.255879868757725
40
0.271601134744954
40
0.271601134744954
40
0.397371262642785
40
0.397371262642785
40
0.428813794617243
40
0.428813794617243
40
0.460256326591702
40
0.460256326591702
40
0.523141390540617
40
0.523141390540617
40
0.586026454489532
40
0.586026454489532
40
0.617468986463989
40
0.617468986463989
40
0.648911518438447
40
0.648911518438447
40
0.774681646336279
40
0.774681646336279
40
0.790402912323508
40
0.790402912323508
40
0.806124178310737
40
0.806124178310737
40
0.837566710285195
40
0.837566710285195
40
0.900451774234108
40
0.900451774234108
40
0.931894306208564
40
0.931894306208564
40
0.947615572195791
40
0.947615572195791
40
0.963336838183019
40
0.963336838183019
40
1
40
1
40
1
40
1
41
1
10
66.1268450376669
20
-4.61572018945986
30
0
41
1
10
65.9579533014997
20
-4.65161690173986
30
0
41
1
10
65.788952124959
20
-4.68384383481237
30
0
41
1
10
65.3544411773879
20
-4.75696565360664
30
0
41
1
10
65.0887101104079
20
-4.79245498534547
30
0
41
1
10
64.6885370959427
20
-4.83142120144717
30
0
41
1
10
64.5548721229756
20
-4.84203032982253
30
0
41
1
10
64.2868764687357
20
-4.85841232514866
30
0
41
1
10
64.1525609093614
20
-4.86417326260323
30
0
41
1
10
63.4835953710456
20
-4.88067946544672
30
0
41
1
10
62.9534392082565
20
-4.85478672992238
30
0
41
1
10
61.8943172741727
20
-4.72821720860645
30
0
41
1
10
61.3659393594713
20
-4.62737300057549
30
0
41
1
10
60.5685581396295
20
-4.42203066392165
30
0
41
1
10
60.302031385241
20
-4.34454366611845
30
0
41
1
10
59.900511709289
20
-4.21484515219518
30
0
41
1
10
59.7661610364521
20
-4.16929158171303
30
0
41
1
10
59.4982695366586
20
-4.07433662562755
30
0
41
1
10
59.3646307279686
20
-4.02490988438976
30
0
41
1
10
58.1640637651778
20
-3.56324204375747
30
0
41
1
10
57.1130573685995
20
-3.03293718426781
30
0
41
1
10
55.7810046624032
20
-2.26436937230986
30
0
41
1
10
55.5133770527615
20
-2.10503541822365
30
0
41
1
10
54.9768232836626
20
-1.77783697703501
30
0
41
1
10
54.7098244413486
20
-1.6112268763587
30
0
41
1
10
53.9113256197538
20
-1.10442301890205
30
0
41
1
10
53.3823853557945
20
-0.757162435134859
30
0
41
1
10
52.3232889414435
20
-0.056042884589715
30
0
41
1
10
51.7933172636112
20
0.298096149344275
30
0
41
1
10
50.9917781306438
20
0.825673825043509
30
0
41
1
10
50.7226863745659
20
1.0014441072498
30
0
41
1
10
50.1878295461636
20
1.34614117645572
30
0
41
1
10
49.9215435489063
20
1.51539009306077
30
0
41
1
10
48.5932551748714
20
2.34279142854734
30
0
41
1
10
47.5410926440051
20
2.94523700965681
30
0
41
1
10
46.3346719032301
20
3.50933733108121
30
0
41
1
10
46.2002442769726
20
3.57044501960425
30
0
41
1
10
45.9324368349487
20
3.68852672406536
30
0
41
1
10
45.7988319109186
20
3.74560724354632
30
0
41
1
10
45.3987334477972
20
3.91086890545725
30
0
41
1
10
45.1330116587292
20
4.01312126762139
30
0
41
1
10
44.337170768473
20
4.29499043597835
30
0
41
1
10
43.8084421051714
20
4.44982334689036
30
0
41
1
10
43.0125967457099
20
4.62877767941623
30
0
41
1
10
42.7468086086846
20
4.67951562946033
30
0
41
1
10
42.3467019045695
20
4.74175652855729
30
0
41
1
10
42.2131016923384
20
4.76019394387191
30
0
41
1
10
41.9453212161403
20
4.79235212010749
30
0
41
1
10
41.8109041108578
20
4.8060859798382
30
0
41
1
10
41.3641120866668
20
4.84362638836274
30
0
41
1
10
41.0531157905945
20
4.85658013119661
30
0
41
1
10
40.7430826573207
20
4.85646263586193
30
0
0
SPLINE
5
FE
100
AcDbEntity
8
1
62
256
6
ByLayer
370
18
48
1
60
0
100
AcDbSpline
70
4
71
3
72
25
73
21
40
0
40
0
40
0
40
0
40
0.0698900822139711
40
0.0698900822139711
40
0.202762927611973
40
0.202762927611973
40
0.335635773009975
40
0.335635773009975
40
0.402072195708976
40
0.435290407058477
40
0.435290407058477
40
0.468508618407978
40
0.468508618407978
40
0.73425430920399
40
0.73425430920399
40
0.800690731902993
40
0.800690731902993
40
0.867127154601995
40
0.867127154601995
40
1
40
1
40
1
40
1
41
1
10
20.1603155403923
20
-4.58135803374958
30
0
41
1
10
19.8799687814717
20
-4.64140277778702
30
0
41
1
10
19.5986998999311
20
-4.69155627215298
30
0
41
1
10
18.7783615752031
20
-4.80697787394246
30
0
41
1
10
18.2456255632362
20
-4.84358503947948
30
0
41
1
10
17.1838406487771
20
-4.84047825620922
30
0
41
1
10
16.6545800889218
20
-4.80077864752533
30
0
41
1
10
15.8573858703386
20
-4.68480074856393
30
0
41
1
10
15.4580013856541
20
-4.61268222407449
30
0
41
1
10
15.0562529805855
20
-4.51948270426701
30
0
41
1
10
14.7877641053661
20
-4.4526764041245
30
0
41
1
10
14.6531858919808
20
-4.41692769526131
30
0
41
1
10
13.4467826562238
20
-4.07661281947628
30
0
41
1
10
12.3936013459397
20
-3.63909499786377
30
0
41
1
10
11.0624486904685
20
-2.96290120529383
30
0
41
1
10
10.7954996812318
20
-2.8211634249661
30
0
41
1
10
10.2591967244303
20
-2.52558651761677
30
0
41
1
10
9.98991551036386
20
-2.37177660713371
30
0
41
1
10
9.1851090718163
20
-1.89885716182306
30
0
41
1
10
8.64973359018904
20
-1.56700634172668
30
0
41
1
10
8.11217044366742
20
-1.22324113379935
30
0
0
SPLINE
5
FF
100
AcDbEntity
8
1
62
256
6
ByLayer
370
18
48
1
60
0
100
AcDbSpline
70
4
71
3
72
14
73
10
40
0
40
0
40
0
40
0
40
0.25
40
0.25
40
0.5
40
0.5
40
0.75
40
0.75
40
1
40
1
40
1
40
1
41
1
10
110.170848182814
20
1.12064010546405
30
0
41
1
10
110.166897042381
20
1.13555756938479
30
0
41
1
10
110.165428324524
20
1.15125824113741
30
0
41
1
10
110.170550653302
20
1.18141731657244
30
0
41
1
10
110.177473430536
20
1.19592074031925
30
0
41
1
10
110.198917378786
20
1.21847788034694
30
0
41
1
10
110.212865924518
20
1.22628147368283
30
0
41
1
10
110.241927121486
20
1.23581876443191
30
0
41
1
10
110.257380114349
20
1.23781962834548
30
0
41
1
10
110.272762757864
20
1.23793851631063
30
0
0
SPLINE
5
100
100
AcDbEntity
8
1
62
256
6
ByLayer
370
18
48
1
60
0
100
AcDbSpline
70
4
71
3
72
8
73
4
40
0
40
0
40
0
40
0
40
1
40
1
40
1
40
1
41
1
10
111.99994343604
20
0.0471561403888643
30
0
41
1
10
111.99204654995
20
0.0234212567266354
30
0
41
1
10
111.981915567464
20
-0.0007494521487956
30
0
41
1
10
111.971862573767
20
-0.0194451435690723
30
0
0
SPLINE
5
101
100
AcDbEntity
8
1
62
256
6
ByLayer
370
18
48
1
60
0
100
AcDbSpline
70
4
71
3
72
18
73
14
40
0
40
0
40
0
40
0
40
0.25
40
0.25
40
0.375
40
0.375
40
0.5
40
0.5
40
0.75
40
0.75
40
0.875
40
0.875
40
1
40
1
40
1
40
1
41
1
10
7.99999992523806
20
3.23885609071112
30
0
41
1
10
7.99999992523806
20
2.95768132377648
30
0
41
1
10
7.99999992523806
20
2.64942290511394
30
0
41
1
10
7.99999992523806
20
2.14536278771061
30
0
41
1
10
7.99999992523806
20
1.97167417390207
30
0
41
1
10
7.99999992523809
20
1.61640192535333
30
0
41
1
10
7.99999992523806
20
1.43353455640585
30
0
41
1
10
7.99999992523806
20
0.881642495241437
30
0
41
1
10
7.99999992523809
20
0.50695383164495
30
0
41
1
10
7.99999992523806
20
-0.0652720200231158
30
0
41
1
10
7.99999992523806
20
-0.257934885351006
30
0
41
1
10
7.99999992523809
20
-0.638634073203832
30
0
41
1
10
7.99999992523806
20
-0.827683449679114
30
0
41
1
10
7.99999992523806
20
-1.01541473947512
30
0
0
SPLINE
5
102
100
AcDbEntity
8
1
62
256
6
ByLayer
370
13
48
1
60
0
100
AcDbSpline
70
4
71
3
72
10
73
6
40
0
40
0
40
0
40
0
40
0.5
40
0.5
40
1
40
1
40
1
40
1
41
1
10
8.11513004394612
20
-1.08673120264058
30
0
41
1
10
8.13553033255619
20
-1.09099868236527
30
0
41
1
10
8.15772942530859
20
-1.09661548297854
30
0
41
1
10
8.20321004352641
20
-1.10986216032387
30
0
41
1
10
8.22646879230766
20
-1.11745700530707
30
0
41
1
10
8.25023352722201
20
-1.12608179084606
30
0
0
SPLINE
5
103
100
AcDbEntity
8
1
62
256
6
ByLayer
370
18
48
1
60
0
100
AcDbSpline
70
4
71
3
72
20
73
16
40
0
40
0
40
0
40
0
40
0.0214834373772802
40
0.0214834373772802
40
0.0854220780101837
40
0.0854220780101837
40
0.213299359275987
40
0.213299359275987
40
0.724808484339194
40
0.724808484339194
40
0.852685765604997
40
0.852685765604997
40
0.980563046870801
40
0.980563046870801
40
1
40
1
40
1
40
1
41
1
10
29.2435380849474
20
-0.0021890129867472
30
0
41
1
10
29.2884829443275
20
-0.0309270281111651
30
0
41
1
10
29.3334603587154
20
-0.0596824725825513
30
0
41
1
10
29.512442875055
20
-0.174065101578265
30
0
41
1
10
29.6469622874733
20
-0.259903170678399
30
0
41
1
10
30.0493762737442
20
-0.516203700232012
30
0
41
1
10
30.3163491359604
20
-0.685677558063759
30
0
41
1
10
31.6470721314198
20
-1.52270326301507
30
0
41
1
10
32.6997734587956
20
-2.15725386868274
30
0
41
1
10
34.0359386504089
20
-2.85406598789248
30
0
41
1
10
34.3050432160569
20
-2.9889814981473
30
0
41
1
10
34.8403805650446
20
-3.24464082100727
30
0
41
1
10
35.1068995565246
20
-3.36567671633998
30
0
41
1
10
35.4131209025327
20
-3.49691962538287
30
0
41
1
10
35.4535093815814
20
-3.51407079691887
30
0
41
1
10
35.493884381229
20
-3.53105531039086
30
0
0
SPLINE
5
104
100
AcDbEntity
8
1
62
256
6
ByLayer
370
13
48
1
60
0
100
AcDbSpline
70
4
71
3
72
16
73
12
40
0
40
0
40
0
40
0
40
0.219113087080737
40
0.219113087080737
40
0.456248067648356
40
0.456248067648356
40
0.574815557932164
40
0.574815557932164
40
0.693383048215974
40
0.693383048215974
40
1
40
1
40
1
40
1
41
1
10
35.4938843807597
20
-3.53105531019344
30
0
41
1
10
35.984770135126
20
-3.73755576298896
30
0
41
1
10
36.4736633525094
20
-3.9194206734536
30
0
41
1
10
37.4932625709014
20
-4.24171708424339
30
0
41
1
10
38.0240280065212
20
-4.37759783738943
30
0
41
1
10
38.8270723998182
20
-4.52891033855968
30
0
41
1
10
39.0961043244019
20
-4.57054617727613
30
0
41
1
10
39.6303192409074
20
-4.63479347141552
30
0
41
1
10
39.8963788615591
20
-4.65759465047196
30
0
41
1
10
40.8483958184226
20
-4.70622797194233
30
0
41
1
10
41.5311940454197
20
-4.67972617520627
30
0
41
1
10
42.217960826853
20
-4.5919982923341
30
0
0
SPLINE
5
105
100
AcDbEntity
8
1
62
256
6
ByLayer
370
18
48
1
60
0
100
AcDbSpline
70
4
71
3
72
16
73
12
40
0
40
0
40
0
40
0
40
0.0044270458643314
40
0.0044270458643314
40
0.264844176493324
40
0.264844176493324
40
0.395052741807817
40
0.395052741807817
40
0.525261307122312
40
0.525261307122312
40
1
40
1
40
1
40
1
41
1
10
75.2475905515533
20
-0.0046623502806824
30
0
41
1
10
75.2565820414208
20
-0.0104426837224025
30
0
41
1
10
75.2655735077841
20
-0.0162229209804252
30
0
41
1
10
75.8034799247457
20
-0.36201302405351
30
0
41
1
10
76.3321054423295
20
-0.702017514305084
30
0
41
1
10
77.1303829203434
20
-1.20288952013141
30
0
41
1
10
77.397483720864
20
-1.36850028263774
30
0
41
1
10
77.9337324645431
20
-1.69475999078566
30
0
41
1
10
78.2005262331641
20
-1.85403687763034
30
0
41
1
10
79.4361424086229
20
-2.57336240797329
30
0
41
1
10
80.3945647809203
20
-3.07877216010783
30
0
41
1
10
81.363839600921
20
-3.49711251080979
30
0
0
SPLINE
5
106
100
AcDbEntity
8
1
62
256
6
ByLayer
370
13
48
1
60
0
100
AcDbSpline
70
4
71
3
72
24
73
20
40
0
40
0
40
0
40
0
40
0.0413566380401391
40
0.0413566380401391
40
0.0997677688321217
40
0.0997677688321217
40
0.158178899624104
40
0.158178899624104
40
0.275001161208069
40
0.275001161208069
40
0.508645684375999
40
0.508645684375999
40
0.742290207543931
40
0.742290207543931
40
0.859112469127895
40
0.859112469127895
40
0.97593473071186
40
0.97593473071186
40
1
40
1
40
1
40
1
41
1
10
81.3638396031098
20
-3.49711251175441
30
0
41
1
10
81.4579530050071
20
-3.53773198595314
30
0
41
1
10
81.55216872131
20
-3.5775305896648
30
0
41
1
10
81.7797480803099
20
-3.67149775482943
30
0
41
1
10
81.91322230916
20
-3.72482747785207
30
0
41
1
10
82.1807704188971
20
-3.82795202105797
30
0
41
1
10
82.3149938059177
20
-3.87779375594724
30
0
41
1
10
82.7162177550265
20
-4.02087265888576
30
0
41
1
10
82.982512431335
20
-4.10798478571974
30
0
41
1
10
83.7791164365952
20
-4.3438556950664
30
0
41
1
10
84.307326947868
20
-4.46722507055716
30
0
41
1
10
85.3648794139692
20
-4.64299414926069
30
0
41
1
10
85.8944192064322
20
-4.69544009805117
30
0
41
1
10
86.6950483356684
20
-4.71788587781373
30
0
41
1
10
86.9637033803717
20
-4.71594030729111
30
0
41
1
10
87.4975729112791
20
-4.69328727577235
30
0
41
1
10
87.7633960343753
20
-4.67262650176389
30
0
41
1
10
88.0831997948579
20
-4.63674980546679
30
0
41
1
10
88.137799400247
20
-4.63023821186965
30
0
41
1
10
88.1923762578747
20
-4.62334503251307
30
0
0
SPLINE
5
107
100
AcDbEntity
8
1
62
256
6
ByLayer
370
13
48
1
60
0
100
AcDbSpline
70
4
71
3
72
8
73
4
40
0
40
0
40
0
40
0
40
1
40
1
40
1
40
1
41
1
10
8.11513004394612
20
-1.18803971571776
30
0
41
1
10
8.14016656459688
20
-1.19951359236131
30
0
41
1
10
8.16796317239027
20
-1.21458161676699
30
0
41
1
10
8.19639790312806
20
-1.23206619149616
30
0
0
SPLINE
5
108
100
AcDbEntity
8
1
62
256
6
ByLayer
370
18
48
1
60
0
100
AcDbSpline
70
4
71
3
72
14
73
10
40
0
40
0
40
0
40
0
40
0.25
40
0.25
40
0.5
40
0.5
40
0.75
40
0.75
40
1
40
1
40
1
40
1
41
1
10
7.99999992523806
20
-1.01541473947512
30
0
41
1
10
7.99999992523806
20
-1.03187450689515
30
0
41
1
10
8.00246614935668
20
-1.04872219348613
30
0
41
1
10
8.01230407819
20
-1.08120851774785
30
0
41
1
10
8.01955811365306
20
-1.09679338309112
30
0
41
1
10
8.03888375341316
20
-1.12661775832919
30
0
41
1
10
8.05117056144044
20
-1.1410014450918
30
0
41
1
10
8.07988505380746
20
-1.16670779328842
30
0
41
1
10
8.09630651050594
20
-1.17817405711736
30
0
41
1
10
8.11513004394612
20
-1.18803971571776
30
0
0
SPLINE
5
109
100
AcDbEntity
8
1
62
256
6
ByLayer
370
18
48
1
60
0
100
AcDbSpline
70
4
71
3
72
16
73
12
40
0
40
0
40
0
40
0
40
0.0570815315576013
40
0.228148739462102
40
0.382650682039035
40
0.50952836181488
40
0.61876496662794
40
0.7707661100309
40
0.909690126347767
40
0.997787588352291
40
1
40
1
40
1
40
1
41
1
10
24.028394826784
20
4.57392310325324
30
0
41
1
10
23.9546386305836
20
4.57357298082232
30
0
41
1
10
23.6598022972221
20
4.57245566970386
30
0
41
1
10
23.1584474564912
20
4.57302942366817
30
0
41
1
10
22.5799966242626
20
4.5756458079446
30
0
41
1
10
22.071061326454
20
4.57533006034419
30
0
41
1
10
21.5651202406953
20
4.5746806118828
30
0
41
1
10
21.0432044534673
20
4.57482494286708
30
0
41
1
10
20.5500510726354
20
4.57427154982455
30
0
41
1
10
20.252205020413
20
4.5736965014612
30
0
41
1
10
20.1346775890687
20
4.57353141235615
30
0
41
1
10
20.1317982914705
20
4.57352740440737
30
0
0
SPLINE
5
10A
100
AcDbEntity
8
1
62
256
6
ByLayer
370
18
48
1
60
0
100
AcDbSpline
70
4
71
3
72
16
73
12
40
0
40
0
40
0
40
0
40
0.151480693930118
40
0.28729298934926
40
0.403114819215803
40
0.495821216690869
40
0.574065070764912
40
0.667543269794805
40
0.792535538920147
40
0.948474869732256
40
1
40
1
40
1
40
1
41
1
10
63.8893976119568
20
-4.60144592496593
30
0
41
1
10
64.1932543362846
20
-4.60102847404437
30
0
41
1
10
64.7702908040776
20
-4.60067881094693
30
0
41
1
10
65.5860476586755
20
-4.60254083594614
30
0
41
1
10
66.2778973859454
20
-4.60314989499832
30
0
41
1
10
66.8581741907963
20
-4.6030956574879
30
0
41
1
10
67.3920986051239
20
-4.60413109239875
30
0
41
1
10
67.9928001416662
20
-4.60400379774498
30
0
41
1
10
68.7409277285973
20
-4.60409483625844
30
0
41
1
10
69.4167346167856
20
-4.601132138037
30
0
41
1
10
69.8319046508075
20
-4.60258915987691
30
0
41
1
10
69.9349242755699
20
-4.60303030660745
30
0
0
SPLINE
5
10B
100
AcDbEntity
8
1
62
256
6
ByLayer
370
18
48
1
60
0
100
AcDbSpline
70
4
71
3
72
14
73
10
40
0
40
0
40
0
40
0
40
0.0306004804277219
40
0.23886561713041
40
0.418218807480713
40
0.563399363368126
40
0.67833113119639
40
0.835969724464926
40
1
40
1
40
1
40
1
41
1
10
69.9512121920619
20
4.60294007289068
30
0
41
1
10
69.9126155858541
20
4.60279652889562
30
0
41
1
10
69.6111304572422
20
4.60178596807674
30
0
41
1
10
69.0716702185767
20
4.60237183634797
30
0
41
1
10
68.3996609607319
20
4.60420250768402
30
0
41
1
10
67.8405824640848
20
4.60403592149481
30
0
41
1
10
67.3069322298675
20
4.60404472318723
30
0
41
1
10
66.7495731464391
20
4.60290723225023
30
0
41
1
10
66.3389609899557
20
4.60314071161395
30
0
41
1
10
66.1297964215148
20
4.6030548921253
30
0
0
SPLINE
5
10C
100
AcDbEntity
8
1
62
256
6
ByLayer
370
18
48
1
60
0
100
AcDbSpline
70
4
71
3
72
15
73
11
40
0
40
0
40
0
40
0
40
0.0126524273230795
40
0.220444116921588
40
0.400759410345226
40
0.54509403464109
40
0.661113233852489
40
0.791205376227476
40
0.946050939014779
40
1
40
1
40
1
40
1
41
1
10
92.8986592200757
20
4.61956149339545
30
0
41
1
10
92.8828535649489
20
4.61951451241913
30
0
41
1
10
92.607508973708
20
4.61872083117623
30
0
41
1
10
92.0981659430123
20
4.6209609917465
30
0
41
1
10
91.4491091057759
20
4.61859540845623
30
0
41
1
10
90.8910871533744
20
4.6176104960347
30
0
41
1
10
90.4080430068345
20
4.61900169594975
30
0
41
1
10
89.9056356456709
20
4.61763222428971
30
0
41
1
10
89.4789545160541
20
4.61800094439781
30
0
41
1
10
89.2175266446416
20
4.61775080917676
30
0
41
1
10
89.1500232900228
20
4.61766433952224
30
0
0
SPLINE
5
10D
100
AcDbEntity
8
1
62
256
6
ByLayer
370
18
48
1
60
0
100
AcDbSpline
70
4
71
3
72
17
73
13
40
0
40
0
40
0
40
0
40
0.0993735129949169
40
0.208862941341928
40
0.289198888461164
40
0.367416139097011
40
0.44507768856244
40
0.535155095208319
40
0.640931712054291
40
0.803105382844443
40
0.948193420972666
40
1
40
1
40
1
40
1
41
1
10
46.6590437714487
20
4.59019076590829
30
0
41
1
10
46.5428211262663
20
4.58967959491687
30
0
41
1
10
46.2989429378878
20
4.58897943016205
30
0
41
1
10
45.9606464724629
20
4.58959884293012
30
0
41
1
10
45.6509234065052
20
4.590287114505
30
0
41
1
10
45.3749653642889
20
4.59034034619742
30
0
41
1
10
45.0874015591186
20
4.58952512990641
30
0
41
1
10
44.7676383423886
20
4.58897523393193
30
0
41
1
10
44.3490739077195
20
4.58907671429893
30
0
41
1
10
43.8661699013197
20
4.5893573351735
30
0
41
1
10
43.4463490585346
20
4.5884655928399
30
0
41
1
10
43.2161651301394
20
4.58831607571025
30
0
41
1
10
43.1555997458942
20
4.58828976886687
30
0
0
SPLINE
5
10E
100
AcDbEntity
8
1
62
256
6
ByLayer
370
18
48
1
60
0
100
AcDbSpline
70
4
71
3
72
18
73
14
40
0
40
0
40
0
40
0
40
0.139745561117881
40
0.256577130866098
40
0.355538977237658
40
0.443474035777031
40
0.520827719161672
40
0.58742416262575
40
0.65982950358436
40
0.749905954342293
40
0.862437245628388
40
0.992116025048285
40
1
40
1
40
1
40
1
41
1
10
86.8881897558011
20
-4.61570124101084
30
0
41
1
10
87.1671332950137
20
-4.61556063484005
30
0
41
1
10
87.6799957848613
20
-4.61567129898631
30
0
41
1
10
88.39872706336
20
-4.61551804691669
30
0
41
1
10
89.0041772065649
20
-4.61802571229629
30
0
41
1
10
89.5359063521244
20
-4.61779866269825
30
0
41
1
10
90.0031478127568
20
-4.61789166192398
30
0
41
1
10
90.4369546202847
20
-4.61893820712294
30
0
41
1
10
90.8910921584702
20
-4.6176035390906
30
0
41
1
10
91.449107254453
20
-4.61859799735637
30
0
41
1
10
92.0981665238576
20
-4.62096010034824
30
0
41
1
10
92.6074844429303
20
-4.61872083418984
30
0
41
1
10
92.8828048588739
20
-4.61951438699455
30
0
41
1
10
92.8985861779007
20
-4.61956129101307
30
0
0
SPLINE
5
10F
100
AcDbEntity
8
1
62
256
6
ByLayer
370
18
48
1
60
0
100
AcDbSpline
70
4
71
3
72
20
73
16
40
0
40
0
40
0
40
0
40
0.13215856123252
40
0.234504606903971
40
0.307092500591404
40
0.35389772806736
40
0.404750428898436
40
0.465768623793777
40
0.536969785176349
40
0.610627004296446
40
0.72961186917519
40
0.824277345196438
40
0.873082904804271
40
0.939599738366692
40
1
40
1
40
1
40
1
41
1
10
40.8897523462253
20
-4.58697870924405
30
0
41
1
10
41.1440321408378
20
-4.58711233268139
30
0
41
1
10
41.5952574269348
20
-4.58737916162909
30
0
41
1
10
42.1862830725045
20
-4.58788641389529
30
0
41
1
10
42.6129884511765
20
-4.58818034092167
30
0
41
1
10
42.9406217732338
20
-4.58823340232524
30
0
41
1
10
43.2459544538258
20
-4.58828534862792
30
0
41
1
10
43.5982770344594
20
-4.58876099168563
30
0
41
1
10
43.9944698503263
20
-4.58932543560101
30
0
41
1
10
44.5023105998637
20
-4.58891853530247
30
0
41
1
10
45.0546953631466
20
-4.58938158594151
30
0
41
1
10
45.5611542565813
20
-4.59056658336806
30
0
41
1
10
45.9606726864304
20
-4.58957681166603
30
0
41
1
10
46.2989911931177
20
-4.58898582974865
30
0
41
1
10
46.5429327499464
20
-4.58967973863261
30
0
41
1
10
46.6592113089803
20
-4.59019120720458
30
0
0
SPLINE
5
110
100
AcDbEntity
8
1
62
256
6
ByLayer
370
18
48
1
60
0
100
AcDbSpline
70
4
71
3
72
19
73
15
40
0
40
0
40
0
40
0
40
0.136558080590894
40
0.243344003266763
40
0.320699880005266
40
0.389487313785342
40
0.466296776861119
40
0.54817292423114
40
0.620198449983352
40
0.719727529847519
40
0.803784262122576
40
0.853544417776629
40
0.928862268093202
40
1
40
1
40
1
40
1
41
1
10
17.8902904469975
20
-4.57264452523051
30
0
41
1
10
18.15994220644
20
-4.57280550736849
30
0
41
1
10
18.6404561711932
20
-4.57309196262395
30
0
41
1
10
19.2736236842566
20
-4.57341971818892
30
0
41
1
10
19.7731170227567
20
-4.57374399254414
30
0
41
1
10
20.212894569901
20
-4.57395780975119
30
0
41
1
10
20.6621469866692
20
-4.57444755960756
30
0
41
1
10
21.117711172893
20
-4.57476788029663
30
0
41
1
10
21.6181001632386
20
-4.57470067834552
30
0
41
1
10
22.1229635067481
20
-4.5754893922969
30
0
41
1
10
22.5834310509917
20
-4.57545331279863
30
0
41
1
10
22.9960735600638
20
-4.57520968968706
30
0
41
1
10
23.3836616286662
20
-4.57571593061894
30
0
41
1
10
23.6727877150719
20
-4.57626706648355
30
0
41
1
10
23.8132287061546
20
-4.57661322466703
30
0
0
SPLINE
5
111
100
AcDbEntity
8
1
62
256
6
ByLayer
370
18
48
1
60
0
100
AcDbSpline
70
4
71
1
72
4
73
2
40
0
40
0
40
1
40
1
41
1
10
109.888431543843
20
-4.63024758166597
30
0
41
1
10
110.30000551091
20
-4.63052437311566
30
0
0
LINE
5
7B
100
AcDbEntity
8
SK1
62
256
6
ByLayer
370
18
48
1
60
0
100
AcDbLine
10
-40
20
2.296326
30
0
11
-40
21
0.455362
31
0
39
0
210
0
220
0
230
1
0
LINE
5
7D
100
AcDbEntity
8
SK1
62
256
6
ByLayer
370
18
48
1
60
0
100
AcDbLine
10
0
20
-5
30
0
11
0
21
5
31
0
39
0
210
0
220
0
230
1
0
LINE
5
7E
100
AcDbEntity
8
SK1
62
256
6
ByLayer
370
18
48
1
60
0
100
AcDbLine
10
-38.66
20
5
30
0
11
-38.66
21
-5
31
0
39
0
210
0
220
0
230
1
0
LINE
5
7F
100
AcDbEntity
8
SK1
62
256
6
ByLayer
370
18
48
1
60
0
100
AcDbLine
10
-39.25
20
0.858647
30
0
11
-39.25
21
2.515516
31
0
39
0
210
0
220
0
230
1
0
LINE
5
80
100
AcDbEntity
8
SK1
62
256
6
ByLayer
370
18
48
1
60
0
100
AcDbLine
10
-40
20
0.45536
30
0
11
-40
21
-3.66
31
0
39
0
210
0
220
0
230
1
0
LINE
5
81
100
AcDbEntity
8
SK1
62
256
6
ByLayer
370
18
48
1
60
0
100
AcDbLine
10
-40
20
3.66
30
0
11
-40
21
2.296326
31
0
39
0
210
0
220
0
230
1
0
LINE
5
82
100
AcDbEntity
8
SK1
62
256
6
ByLayer
370
13
48
1
60
0
100
AcDbLine
10
-39.35
20
2.558794
30
0
11
-39.35
21
0.717844
31
0
39
0
210
0
220
0
230
1
0
LINE
5
83
100
AcDbEntity
8
1
62
256
6
ByLayer
370
13
48
1
60
0
100
AcDbLine
10
110.170848
20
1.12064
30
0
11
111.971863
21
-0.019445
31
0
39
0
210
0
220
0
230
1
0
LINE
5
84
100
AcDbEntity
8
1
62
256
6
ByLayer
370
18
48
1
60
0
100
AcDbLine
10
0
20
-5
30
0
11
0
21
5
31
0
39
0
210
0
220
0
230
1
0
LINE
5
85
100
AcDbEntity
8
1
62
256
6
ByLayer
370
18
48
1
60
0
100
AcDbLine
10
109.524118
20
-3.398734
30
0
11
111.860732
21
-0.227268
31
0
39
0
210
0
220
0
230
1
0
LINE
5
86
100
AcDbEntity
8
1
62
256
6
ByLayer
370
18
48
1
60
0
100
AcDbLine
10
8
20
-1.020294
30
0
11
8
21
3.246653
31
0
39
0
210
0
220
0
230
1
0
LINE
5
87
100
AcDbEntity
8
1
62
256
6
ByLayer
370
13
48
1
60
0
100
AcDbLine
10
110.272763
20
1.237939
30
0
11
111.975026
21
0.160365
31
0
39
0
210
0
220
0
230
1
0
LINE
5
88
100
AcDbEntity
8
1
62
256
6
ByLayer
370
18
48
1
60
0
100
AcDbLine
10
1.5
20
4.831927
30
0
11
1.5
21
-4.831927
31
0
39
0
210
0
220
0
230
1
0
LINE
5
89
100
AcDbEntity
8
80
62
256
6
ByLayer
370
18
48
1
60
0
100
AcDbLine
10
0
20
0
30
0
11
-5
21
0
31
0
39
0
210
0
220
0
230
1
0
LINE
5
8A
100
AcDbEntity
8
4
62
256
6
ByLayer
370
18
48
0.05
60
0
100
AcDbLine
10
112
20
0
30
0
11
0
21
0
31
0
39
0
210
0
220
0
230
1
0
LINE
5
8C
100
AcDbEntity
8
SK4
62
256
6
ByLayer
370
18
48
0.05
60
0
100
AcDbLine
10
117
20
0
30
0
11
-45
21
0
31
0
39
0
210
0
220
0
230
1
0
LINE
5
8E
100
AcDbEntity
8
1
62
256
6
ByLayer
370
18
48
1
60
0
100
AcDbLine
10
16.697929
20
-4.841425
30
0
11
17.740331
21
-4.842077
31
0
39
0
210
0
220
0
230
1
0
LINE
5
8F
100
AcDbEntity
8
1
62
256
6
ByLayer
370
18
48
1
60
0
100
AcDbLine
10
62.706197
20
-4.870181
30
0
11
63.740248
21
-4.870827
31
0
39
0
210
0
220
0
230
1
0
LINE
5
90
100
AcDbEntity
8
1
62
256
6
ByLayer
370
18
48
1
60
0
100
AcDbLine
10
63.739931
20
4.870827
30
0
11
62.706197
21
4.870181
31
0
39
0
210
0
220
0
230
1
0
LINE
5
91
100
AcDbEntity
8
1
62
256
6
ByLayer
370
18
48
1
60
0
100
AcDbLine
10
17.740032
20
4.842077
30
0
11
16.697929
21
4.841425
31
0
39
0
210
0
220
0
230
1
0
LINE
5
92
100
AcDbEntity
8
SK1
62
256
6
ByLayer
370
18
48
1
60
0
100
AcDbLine
10
-38.66
20
-5
30
0
11
0
21
-5
31
0
39
0
210
0
220
0
230
1
0
LINE
5
93
100
AcDbEntity
8
SK1
62
256
6
ByLayer
370
18
48
1
60
0
100
AcDbLine
10
0
20
5
30
0
11
-38.66
21
5
31
0
39
0
210
0
220
0
230
1
0
LINE
5
94
100
AcDbEntity
8
SK1
62
256
6
ByLayer
370
18
48
1
60
0
100
AcDbLine
10
-40
20
-3.66
30
0
11
-38.66
21
-5
31
0
39
0
210
0
220
0
230
1
0
LINE
5
95
100
AcDbEntity
8
SK1
62
256
6
ByLayer
370
18
48
1
60
0
100
AcDbLine
10
-38.66
20
5
30
0
11
-40
21
3.66
31
0
39
0
210
0
220
0
230
1
0
LINE
5
96
100
AcDbEntity
8
1
62
256
6
ByLayer
370
18
48
1
60
0
100
AcDbLine
10
1.5
20
4.831927
30
0
11
0
21
5
31
0
39
0
210
0
220
0
230
1
0
LINE
5
97
100
AcDbEntity
8
1
62
256
6
ByLayer
370
18
48
1
60
0
100
AcDbLine
10
0
20
-5
30
0
11
1.5
21
-4.831927
31
0
39
0
210
0
220
0
230
1
0
LINE
5
98
100
AcDbEntity
8
1
62
256
6
ByLayer
370
18
48
1
60
0
100
AcDbLine
10
1.5
20
-4.831927
30
0
11
6.222728
21
-4.834878
31
0
39
0
210
0
220
0
230
1
0
LINE
5
99
100
AcDbEntity
8
1
62
256
6
ByLayer
370
18
48
1
60
0
100
AcDbLine
10
39.70221
20
-4.855803
30
0
11
40.74043
21
-4.856452
31
0
39
0
210
0
220
0
230
1
0
LINE
5
9A
100
AcDbEntity
8
1
62
256
6
ByLayer
370
18
48
1
60
0
100
AcDbLine
10
85.709267
20
-4.884558
30
0
11
86.740098
21
-4.885202
31
0
39
0
210
0
220
0
230
1
0
LINE
5
9B
100
AcDbEntity
8
1
62
256
6
ByLayer
370
18
48
1
60
0
100
AcDbLine
10
108.713457
20
-4.898935
30
0
11
109.740613
21
-4.899577
31
0
39
0
210
0
220
0
230
1
0
LINE
5
9C
100
AcDbEntity
8
1
62
256
6
ByLayer
370
18
48
1
60
0
100
AcDbLine
10
109.740543
20
4.899577
30
0
11
108.713457
21
4.898935
31
0
39
0
210
0
220
0
230
1
0
LINE
5
9D
100
AcDbEntity
8
1
62
256
6
ByLayer
370
18
48
1
60
0
100
AcDbLine
10
86.739883
20
4.885202
30
0
11
85.709267
21
4.884558
31
0
39
0
210
0
220
0
230
1
0
LINE
5
9E
100
AcDbEntity
8
1
62
256
6
ByLayer
370
18
48
1
60
0
100
AcDbLine
10
40.740117
20
4.856452
30
0
11
39.70221
21
4.855803
31
0
39
0
210
0
220
0
230
1
0
LINE
5
9F
100
AcDbEntity
8
1
62
256
6
ByLayer
370
18
48
1
60
0
100
AcDbLine
10
6.222728
20
4.834878
30
0
11
1.5
21
4.831927
31
0
39
0
210
0
220
0
230
1
0
LINE
5
A0
100
AcDbEntity
8
81
62
256
6
ByLayer
370
18
48
1
60
0
100
AcDbLine
10
112
20
0
30
0
11
117
21
0
31
0
39
0
210
0
220
0
230
1
0
LINE
5
A1
100
AcDbEntity
8
SK2
62
256
6
ByLayer
370
13
48
1
60
0
100
AcDbLine
10
-48.625163
20
-5
30
0
11
-48.625163
21
35.857173
31
0
39
0
210
0
220
0
230
1
0
LINE
5
A3
100
AcDbEntity
8
SK2
62
256
6
ByLayer
370
13
48
1
60
0
100
AcDbLine
10
-41.5875
20
5
30
0
11
-50.625163
21
5
31
0
39
0
210
0
220
0
230
1
0
LINE
5
A4
100
AcDbEntity
8
SK2
62
256
6
ByLayer
370
13
48
1
60
0
100
AcDbLine
10
-41.5875
20
-5
30
0
11
-50.625163
21
-5
31
0
39
0
210
0
220
0
230
1
0
LINE
5
A5
100
AcDbEntity
8
1
62
256
6
ByLayer
370
18
48
1
60
1
100
AcDbLine
10
-48.625163
20
5
30
0
11
-48.164379
21
1.500002
31
0
39
0
210
0
220
0
230
1
0
LINE
5
A6
100
AcDbEntity
8
1
62
256
6
ByLayer
370
18
48
1
60
1
100
AcDbLine
10
-48.164379
20
1.500002
30
0
11
-49.085946
21
1.499998
31
0
39
0
210
0
220
0
230
1
0
LINE
5
A7
100
AcDbEntity
8
1
62
256
6
ByLayer
370
18
48
1
60
1
100
AcDbLine
10
-49.085946
20
1.499998
30
0
11
-48.625163
21
5
31
0
39
0
210
0
220
0
230
1
0
LINE
5
A8
100
AcDbEntity
8
1
62
256
6
ByLayer
370
18
48
1
60
1
100
AcDbLine
10
-48.625163
20
-5
30
0
11
-49.085946
21
-1.500002
31
0
39
0
210
0
220
0
230
1
0
LINE
5
A9
100
AcDbEntity
8
1
62
256
6
ByLayer
370
18
48
1
60
1
100
AcDbLine
10
-49.085946
20
-1.500002
30
0
11
-48.164379
21
-1.499998
31
0
39
0
210
0
220
0
230
1
0
LINE
5
AA
100
AcDbEntity
8
1
62
256
6
ByLayer
370
18
48
1
60
1
100
AcDbLine
10
-48.164379
20
-1.499998
30
0
11
-48.625163
21
-5
31
0
39
0
210
0
220
0
230
1
0
LINE
5
AB
100
AcDbEntity
8
2
62
256
6
ByLayer
370
13
48
1
60
0
100
AcDbLine
10
124.083343
20
-4.9
30
0
11
124.083343
21
32.610193
31
0
39
0
210
0
220
0
230
1
0
LINE
5
AD
100
AcDbEntity
8
2
62
256
6
ByLayer
370
13
48
1
60
0
100
AcDbLine
10
112.1336
20
4.9
30
0
11
126.083343
21
4.9
31
0
39
0
210
0
220
0
230
1
0
LINE
5
AE
100
AcDbEntity
8
2
62
256
6
ByLayer
370
13
48
1
60
0
100
AcDbLine
10
112.1336
20
-4.9
30
0
11
126.083343
21
-4.9
31
0
39
0
210
0
220
0
230
1
0
LINE
5
AF
100
AcDbEntity
8
1
62
256
6
ByLayer
370
18
48
1
60
1
100
AcDbLine
10
124.083343
20
4.9
30
0
11
124.544126
21
1.400002
31
0
39
0
210
0
220
0
230
1
0
LINE
5
B0
100
AcDbEntity
8
1
62
256
6
ByLayer
370
18
48
1
60
1
100
AcDbLine
10
124.544126
20
1.400002
30
0
11
123.622559
21
1.399998
31
0
39
0
210
0
220
0
230
1
0
LINE
5
B1
100
AcDbEntity
8
1
62
256
6
ByLayer
370
18
48
1
60
1
100
AcDbLine
10
123.622559
20
1.399998
30
0
11
124.083343
21
4.9
31
0
39
0
210
0
220
0
230
1
0
LINE
5
B2
100
AcDbEntity
8
1
62
256
6
ByLayer
370
18
48
1
60
1
100
AcDbLine
10
124.083343
20
-4.9
30
0
11
123.622559
21
-1.400002
31
0
39
0
210
0
220
0
230
1
0
LINE
5
B3
100
AcDbEntity
8
1
62
256
6
ByLayer
370
18
48
1
60
1
100
AcDbLine
10
123.622559
20
-1.400002
30
0
11
124.544126
21
-1.399998
31
0
39
0
210
0
220
0
230
1
0
LINE
5
B4
100
AcDbEntity
8
1
62
256
6
ByLayer
370
18
48
1
60
1
100
AcDbLine
10
124.544126
20
-1.399998
30
0
11
124.083343
21
-4.9
31
0
39
0
210
0
220
0
230
1
0
LINE
5
118
100
AcDbEntity
8
1
62
256
6
ByLayer
370
18
48
1
60
1
100
AcDbLine
10
-48.625163
20
5
30
0
11
-48.164379
21
1.500002
31
0
39
0
210
0
220
0
230
1
0
LINE
5
119
100
AcDbEntity
8
1
62
256
6
ByLayer
370
18
48
1
60
1
100
AcDbLine
10
-48.164379
20
1.500002
30
0
11
-49.085946
21
1.499998
31
0
39
0
210
0
220
0
230
1
0
LINE
5
11A
100
AcDbEntity
8
1
62
256
6
ByLayer
370
18
48
1
60
1
100
AcDbLine
10
-49.085946
20
1.499998
30
0
11
-48.625163
21
5
31
0
39
0
210
0
220
0
230
1
0
LINE
5
11C
100
AcDbEntity
8
1
62
256
6
ByLayer
370
18
48
1
60
1
100
AcDbLine
10
-48.625163
20
-5
30
0
11
-49.085946
21
-1.500002
31
0
39
0
210
0
220
0
230
1
0
LINE
5
11D
100
AcDbEntity
8
1
62
256
6
ByLayer
370
18
48
1
60
1
100
AcDbLine
10
-49.085946
20
-1.500002
30
0
11
-48.164379
21
-1.499998
31
0
39
0
210
0
220
0
230
1
0
LINE
5
11E
100
AcDbEntity
8
1
62
256
6
ByLayer
370
18
48
1
60
1
100
AcDbLine
10
-48.164379
20
-1.499998
30
0
11
-48.625163
21
-5
31
0
39
0
210
0
220
0
230
1
0
LINE
5
122
100
AcDbEntity
8
1
62
256
6
ByLayer
370
18
48
1
60
1
100
AcDbLine
10
124.083343
20
4.9
30
0
11
124.544126
21
1.400002
31
0
39
0
210
0
220
0
230
1
0
LINE
5
123
100
AcDbEntity
8
1
62
256
6
ByLayer
370
18
48
1
60
1
100
AcDbLine
10
124.544126
20
1.400002
30
0
11
123.622559
21
1.399998
31
0
39
0
210
0
220
0
230
1
0
LINE
5
124
100
AcDbEntity
8
1
62
256
6
ByLayer
370
18
48
1
60
1
100
AcDbLine
10
123.622559
20
1.399998
30
0
11
124.083343
21
4.9
31
0
39
0
210
0
220
0
230
1
0
LINE
5
126
100
AcDbEntity
8
1
62
256
6
ByLayer
370
18
48
1
60
1
100
AcDbLine
10
124.083343
20
-4.9
30
0
11
123.622559
21
-1.400002
31
0
39
0
210
0
220
0
230
1
0
LINE
5
127
100
AcDbEntity
8
1
62
256
6
ByLayer
370
18
48
1
60
1
100
AcDbLine
10
123.622559
20
-1.400002
30
0
11
124.544126
21
-1.399998
31
0
39
0
210
0
220
0
230
1
0
LINE
5
128
100
AcDbEntity
8
1
62
256
6
ByLayer
370
18
48
1
60
1
100
AcDbLine
10
124.544126
20
-1.399998
30
0
11
124.083343
21
-4.9
31
0
39
0
210
0
220
0
230
1
0
MTEXT
5
112
100
AcDbEntity
8
SK6
62
256
6
ByLayer
370
13
48
1
60
0
100
AcDbMText
10
6.67054
20
37.440328
30
0
210
0
220
0
230
1
1
\W0.7716;462.1-0980-074A1-XM X2BM
40
3.5
41
0
44
1.084337
50
0
71
7
72
5
7
iso_b_vert
0
MTEXT
5
116
100
AcDbEntity
8
SK2
62
256
6
ByLayer
370
18
48
1
60
0
100
AcDbMText
10
-50.189796
20
18.409024
30
0
210
0
220
0
230
1
1
%%c
40
3.5
41
0
44
1.084337
50
90
71
7
72
5
7
iso_b_vert
0
MTEXT
5
117
100
AcDbEntity
8
SK2
62
256
6
ByLayer
370
18
48
1
60
0
100
AcDbMText
10
-50.189796
20
23.63168
30
0
210
0
220
0
230
1
1
\W0.6930;10,000
40
3.5
41
0
44
1.084337
50
90
71
7
72
5
7
iso_b_vert
0
MTEXT
5
120
100
AcDbEntity
8
2
62
256
6
ByLayer
370
18
48
1
60
0
100
AcDbMText
10
122.518709
20
16.90211
30
0
210
0
220
0
230
1
1
%%c
40
3.5
41
0
44
1.084337
50
90
71
7
72
5
7
iso_b_vert
0
MTEXT
5
121
100
AcDbEntity
8
2
62
256
6
ByLayer
370
18
48
1
60
0
100
AcDbMText
10
122.518709
20
22.124766
30
0
210
0
220
0
230
1
1
\W0.7317;9,800
40
3.5
41
0
44
1.084337
50
90
71
7
72
5
7
iso_b_vert
0
HATCH
5
11B
100
AcDbEntity
8
SK2
62
256
6
ByLayer
370
13
48
1
60
0
100
AcDbHatch
10
0
20
0
30
0
210
0
220
0
230
1
2
ANSI31
70
0
71
0
91
1
92
5
93
3
72
1
10
-48.6251625675374
20
5
11
-48.1643788259847
21
1.50000169255318
72
1
10
-48.1643788259847
20
1.50000169255318
11
-49.0859463090902
21
1.49999830744682
72
1
10
-49.0859463090902
20
1.49999830744682
11
-48.6251625675374
21
5
97
0
75
0
76
1
52
0
41
0.0062
77
0
78
1
53
45
43
0
44
0
45
-0.0139193969876572
46
0.0139193969876572
79
0
47
0
98
1
10
0
20
0
0
HATCH
5
11F
100
AcDbEntity
8
SK2
62
256
6
ByLayer
370
13
48
1
60
0
100
AcDbHatch
10
0
20
0
30
0
210
0
220
0
230
1
2
ANSI31
70
0
71
0
91
1
92
5
93
3
72
1
10
-48.6251625675374
20
-5
11
-49.0859463090902
21
-1.50000169255318
72
1
10
-49.0859463090902
20
-1.50000169255318
11
-48.1643788259847
21
-1.49999830744682
72
1
10
-48.1643788259847
20
-1.49999830744682
11
-48.6251625675374
21
-5
97
0
75
0
76
1
52
0
41
0.0062
77
0
78
1
53
45
43
0
44
0
45
-0.0139193969876572
46
0.0139193969876572
79
0
47
0
98
1
10
0
20
0
0
HATCH
5
125
100
AcDbEntity
8
2
62
256
6
ByLayer
370
13
48
1
60
0
100
AcDbHatch
10
0
20
0
30
0
210
0
220
0
230
1
2
ANSI31
70
0
71
0
91
1
92
5
93
3
72
1
10
124.083342615295
20
4.90000000000001
11
124.544126356848
21
1.40000169255319
72
1
10
124.544126356848
20
1.40000169255319
11
123.622558873742
21
1.39999830744682
72
1
10
123.622558873742
20
1.39999830744682
11
124.083342615295
21
4.90000000000001
97
0
75
0
76
1
52
0
41
0.0062
77
0
78
1
53
45
43
0
44
0
45
-0.0139193969876572
46
0.0139193969876572
79
0
47
0
98
1
10
0
20
0
0
HATCH
5
129
100
AcDbEntity
8
2
62
256
6
ByLayer
370
13
48
1
60
0
100
AcDbHatch
10
0
20
0
30
0
210
0
220
0
230
1
2
ANSI31
70
0
71
0
91
1
92
5
93
3
72
1
10
124.083342615295
20
-4.90000000000001
11
123.622558873742
21
-1.40000169255319
72
1
10
123.622558873742
20
-1.40000169255319
11
124.544126356848
21
-1.39999830744682
72
1
10
124.544126356848
20
-1.39999830744682
11
124.083342615295
21
-4.90000000000001
97
0
75
0
76
1
52
0
41
0.0062
77
0
78
1
53
45
43
0
44
0
45
-0.0139193969876572
46
0.0139193969876572
79
0
47
0
98
1
10
0
20
0
0
DIMENSION
5
12B
100
AcDbEntity
8
SK2
62
256
6
ByLayer
370
13
48
1
60
0
100
AcDbDimension
2
_U0
10
110.5461
20
-15.113398
30
0
11
55.27305
21
-15.113398
31
0
70
32
71
1
72
1
41
1
210
0
220
0
230
1
3
Standard
100
AcDbAlignedDimension
13
0
23
0
33
0
14
110.5461
24
-4.9
34
0
50
0
100
AcDbRotatedDimension
1001
ACAD
1000
DSTYLE
1002
{
1070
   371
1070
    13
1070
   372
1070
    13
1070
   170
1070
     0
1070
   144
1040
1.0
1070
   277
1070
     2
1070
   278
1070
    44
1070
   146
1040
1.0
1070
   345
1005
16
1070
   347
1005
16
1070
   346
1005
16
1070
   344
1005
0
1070
   343
1005
0
1070
   172
1070
     1
1070
    76
1070
     0
1070
    75
1070
     0
1070
   282
1070
     0
1070
   281
1070
     0
1070
    71
1070
     0
1070
    74
1070
     0
1070
   279
1070
     0
1070
   173
1070
     1
1070
   340
1005
113
1070
   271
1070
     2
1070
   272
1070
     2
1070
    77
1070
     1
1070
    73
1070
     1
1070
   171
1070
     3
1070
   274
1070
     4
1070
   177
1070
    35
1070
   176
1070
    35
1070
   178
1070
    35
1070
    48
1040
-0.1
1070
    41
1040
3.5
1070
   147
1040
1.75
1070
    42
1040
1.5875
1070
    44
1040
2.0
1070
   140
1040
3.5
1002
}
1001
ACAD_DSTYLE_DIM_LINETYPE
1070
   380
1005
16
1001
ACAD_DSTYLE_DIM_EXT1_LINETYPE
1070
   381
1005
16
1001
ACAD_DSTYLE_DIM_EXT2_LINETYPE
1070
   382
1005
16
0
DIMENSION
5
144
100
AcDbEntity
8
SK2
62
256
6
ByLayer
370
13
48
1
60
0
100
AcDbDimension
2
_U1
10
112
20
-33.692985
30
0
11
36
21
-33.692985
31
0
70
32
71
1
72
1
41
1
210
0
220
0
230
1
3
Standard
100
AcDbAlignedDimension
13
-40
23
-5
33
0
14
112
24
0
34
0
50
0
100
AcDbRotatedDimension
1001
ACAD
1000
DSTYLE
1002
{
1070
   371
1070
    13
1070
   372
1070
    13
1070
   170
1070
     0
1070
   144
1040
1.0
1070
   277
1070
     2
1070
   278
1070
    44
1070
   146
1040
1.0
1070
   345
1005
16
1070
   347
1005
16
1070
   346
1005
16
1070
   344
1005
0
1070
   343
1005
0
1070
   172
1070
     1
1070
    76
1070
     0
1070
    75
1070
     0
1070
   282
1070
     0
1070
   281
1070
     0
1070
    71
1070
     0
1070
    74
1070
     0
1070
   279
1070
     0
1070
   173
1070
     1
1070
   340
1005
113
1070
   271
1070
     2
1070
   272
1070
     2
1070
    77
1070
     1
1070
    73
1070
     1
1070
   171
1070
     3
1070
   274
1070
     4
1070
   177
1070
    35
1070
   176
1070
    35
1070
   178
1070
    35
1070
    48
1040
-0.1
1070
    41
1040
3.5
1070
   147
1040
1.75
1070
    42
1040
1.5875
1070
    44
1040
2.0
1070
   140
1040
3.5
1002
}
1001
ACAD_DSTYLE_DIM_LINETYPE
1070
   380
1005
16
1001
ACAD_DSTYLE_DIM_EXT1_LINETYPE
1070
   381
1005
16
1001
ACAD_DSTYLE_DIM_EXT2_LINETYPE
1070
   382
1005
16
0
DIMENSION
5
15C
100
AcDbEntity
8
SK2
62
256
6
ByLayer
370
13
48
1
60
0
100
AcDbDimension
2
_U2
10
112
20
16.509119
30
0
11
72.075
21
16.509119
31
0
70
32
71
1
72
1
41
1
210
0
220
0
230
1
3
Standard
100
AcDbAlignedDimension
13
32.15
23
4.9
33
0
14
112
24
0
34
0
50
0
100
AcDbRotatedDimension
1001
ACAD
1000
DSTYLE
1002
{
1070
   371
1070
    13
1070
   372
1070
    13
1070
   170
1070
     0
1070
   144
1040
1.0
1070
   277
1070
     2
1070
   278
1070
    44
1070
   146
1040
1.0
1070
   345
1005
16
1070
   347
1005
16
1070
   346
1005
16
1070
   344
1005
0
1070
   343
1005
0
1070
   172
1070
     1
1070
    76
1070
     0
1070
    75
1070
     0
1070
   282
1070
     0
1070
   281
1070
     0
1070
    71
1070
     0
1070
    74
1070
     0
1070
   279
1070
     0
1070
   173
1070
     1
1070
   340
1005
113
1070
   271
1070
     2
1070
   272
1070
     2
1070
    77
1070
     1
1070
    73
1070
     1
1070
   171
1070
     3
1070
   274
1070
     4
1070
   177
1070
    35
1070
   176
1070
    35
1070
   178
1070
    35
1070
    48
1040
-0.1
1070
    41
1040
3.5
1070
   147
1040
1.75
1070
    42
1040
1.5875
1070
    44
1040
2.0
1070
   140
1040
3.5
1002
}
1001
ACAD_DSTYLE_DIM_LINETYPE
1070
   380
1005
16
1001
ACAD_DSTYLE_DIM_EXT1_LINETYPE
1070
   381
1005
16
1001
ACAD_DSTYLE_DIM_EXT2_LINETYPE
1070
   382
1005
16
0
DIMENSION
5
174
100
AcDbEntity
8
SK2
62
256
6
ByLayer
370
13
48
1
60
0
100
AcDbDimension
2
_U3
10
110.5461
20
-17.702503
30
0
11
129.333333
21
-17.702503
31
0
70
32
71
1
72
1
41
1
210
0
220
0
230
1
3
Standard
100
AcDbAlignedDimension
13
112
23
0
33
0
14
110.5461
24
-4.9
34
0
50
0
100
AcDbRotatedDimension
1001
ACAD
1000
DSTYLE
1002
{
1070
   371
1070
    13
1070
   372
1070
    13
1070
   170
1070
     0
1070
   144
1040
1.0
1070
   277
1070
     2
1070
   278
1070
    44
1070
   146
1040
1.0
1070
   345
1005
16
1070
   347
1005
16
1070
   346
1005
16
1070
   344
1005
0
1070
   343
1005
0
1070
   172
1070
     1
1070
    76
1070
     0
1070
    75
1070
     0
1070
   282
1070
     0
1070
   281
1070
     0
1070
    71
1070
     0
1070
    74
1070
     0
1070
   279
1070
     0
1070
   173
1070
     1
1070
   340
1005
113
1070
   271
1070
     2
1070
   272
1070
     2
1070
    77
1070
     1
1070
    73
1070
     1
1070
   171
1070
     3
1070
   274
1070
     4
1070
   177
1070
    35
1070
   176
1070
    35
1070
   178
1070
    35
1070
    48
1040
-0.1
1070
    41
1040
3.5
1070
   147
1040
1.75
1070
    42
1040
1.5875
1070
    44
1040
2.0
1070
   140
1040
3.5
1002
}
1001
ACAD_DSTYLE_DIM_LINETYPE
1070
   380
1005
16
1001
ACAD_DSTYLE_DIM_EXT1_LINETYPE
1070
   381
1005
16
1001
ACAD_DSTYLE_DIM_EXT2_LINETYPE
1070
   382
1005
16
0
DIMENSION
5
18E
100
AcDbEntity
8
SK2
62
256
6
ByLayer
370
13
48
1
60
0
100
AcDbDimension
2
_U4
10
110.5461
20
-23.343428
30
0
11
35.27305
21
-23.343428
31
0
70
32
71
1
72
1
41
1
210
0
220
0
230
1
3
Standard
100
AcDbAlignedDimension
13
-40
23
-5
33
0
14
110.5461
24
-4.9
34
0
50
0
100
AcDbRotatedDimension
1001
ACAD
1000
DSTYLE
1002
{
1070
   371
1070
    13
1070
   372
1070
    13
1070
   170
1070
     0
1070
   144
1040
1.0
1070
   277
1070
     2
1070
   278
1070
    44
1070
   146
1040
1.0
1070
   345
1005
16
1070
   347
1005
16
1070
   346
1005
16
1070
   344
1005
0
1070
   343
1005
0
1070
   172
1070
     1
1070
    76
1070
     0
1070
    75
1070
     0
1070
   282
1070
     0
1070
   281
1070
     0
1070
    71
1070
     0
1070
    74
1070
     0
1070
   279
1070
     0
1070
   173
1070
     1
1070
   340
1005
113
1070
   271
1070
     2
1070
   272
1070
     2
1070
    77
1070
     1
1070
    73
1070
     1
1070
   171
1070
     3
1070
   274
1070
     4
1070
   177
1070
    35
1070
   176
1070
    35
1070
   178
1070
    35
1070
    48
1040
-0.1
1070
    41
1040
3.5
1070
   147
1040
1.75
1070
    42
1040
1.5875
1070
    44
1040
2.0
1070
   140
1040
3.5
1002
}
1001
ACAD_DSTYLE_DIM_LINETYPE
1070
   380
1005
16
1001
ACAD_DSTYLE_DIM_EXT1_LINETYPE
1070
   381
1005
16
1001
ACAD_DSTYLE_DIM_EXT2_LINETYPE
1070
   382
1005
16
0
ENDSEC
0
SECTION
2
OBJECTS
0
DICTIONARY
5
216
330
0
100
AcDbDictionary
280
0
281
1
3
ACAD_GROUP
350
217
3
ACAD_MLINESTYLE
350
218
0
DICTIONARY
5
217
330
0
100
AcDbDictionary
280
0
281
1
0
DICTIONARY
5
218
330
0
100
AcDbDictionary
280
0
281
1
3
Standard
350
18
0
MLINESTYLE
5
18
330
218
100
AcDbMlineStyle
2
Standard
70
0
3

62
256
51
90
52
90
71
2
49
-0.5
62
256
6
ByLayer
49
0.5
62
256
6
ByLayer
0
RASTERVARIABLES
5
204
330

100
AcDbRasterVariables
90
0
70
1
71
1
72
1
0
ENDSEC
0
EOF
