0
SECTION
2
HEADER
9
$ACADVER
1
AC1015
9
$DWGCODEPAGE
3
ANSI_1252
9
$HANDSEED
5
226
9
$ANGBASE
50
0
9
$ANGDIR
70
0
9
$ATTMODE
70
1
9
$AUNITS
70
0
9
$AUPREC
70
0
9
$CECOLOR
62
256
9
$CELTSCALE
40
1
9
$CELTYPE
6
ByLayer
9
$CELWEIGHT
370
18
9
$CLAYER
8
0
9
$CMLJUST
70
0
9
$CMLSCALE
40
1
9
$CMLSTYLE
2
Standard
9
$DIMSTYLE
2
Standard
9
$TEXTSIZE
40
0.2
9
$TEXTSTYLE
7
Standard
9
$LUNITS
70
2
9
$LUPREC
70
4
9
$EXTNAMES
290
1
9
$INSUNITS
70
4
9
$LTSCALE
40
1
9
$LWDISPLAY
290
1
9
$PDMODE
70
0
9
$PDSIZE
40
0
9
$PLINEGEN
70
0
0
ENDSEC
0
SECTION
2
CLASSES
0
CLASS
1
RASTERVARIABLES
2
AcDbRasterVariables
3
ISM
90
0
280
0
281
0
0
ENDSEC
0
SECTION
2
TABLES
0
TABLE
2
VPORT
5
21c
100
AcDbSymbolTable
0
VPORT
5
1
100
AcDbSymbolTableRecord
100
AcDbViewportTableRecord
2
*Active
70
0
10
0
20
0
11
1
21
1
12
-1
22
1
13
0
23
0
14
0.5
24
0.5
15
10
25
10
16
0
26
0
36
1
17
0
27
0
37
0
0
ENDTAB
0
TABLE
2
LTYPE
5
21d
100
AcDbSymbolTable
0
LTYPE
5
14
100
AcDbSymbolTableRecord
100
AcDbLinetypeTableRecord
70
0
2
ByBlock
3

72
65
73
0
40
0
0
LTYPE
5
15
100
AcDbSymbolTableRecord
100
AcDbLinetypeTableRecord
70
0
2
ByLayer
3

72
65
73
0
40
0
0
LTYPE
5
16
100
AcDbSymbolTableRecord
100
AcDbLinetypeTableRecord
70
0
2
Continuous
3
Solid line
72
65
73
0
40
0
0
LTYPE
5
6E
100
AcDbSymbolTableRecord
100
AcDbLinetypeTableRecord
70
0
2
CENTER
3
____ _ ____ _ ____ _ ____
72
65
73
4
40
47.5
49
22
74
0
49
-8.5
74
0
49
8.5
74
0
49
-8.5
74
0
0
LTYPE
5
6F
100
AcDbSymbolTableRecord
100
AcDbLinetypeTableRecord
70
0
2
DASHED
3
__ __ __ __ __ __ __ __ __
72
65
73
2
40
25.72
49
12.86
74
0
49
-12.86
74
0
0
ENDTAB
0
TABLE
2
LAYER
5
21e
100
AcDbSymbolTable
0
LAYER
5
10
100
AcDbSymbolTableRecord
100
AcDbLayerTableRecord
2
0
70
0
62
7
6
Continuous
290
1
370
-3
390
0
0
LAYER
5
71
100
AcDbSymbolTableRecord
100
AcDbLayerTableRecord
2
80
70
0
62
-6
6
Continuous
290
1
370
-3
390
0
0
LAYER
5
73
100
AcDbSymbolTableRecord
100
AcDbLayerTableRecord
2
81
70
0
62
-3
6
Continuous
290
1
370
-3
390
0
0
LAYER
5
75
100
AcDbSymbolTableRecord
100
AcDbLayerTableRecord
2
1
70
0
62
4
6
Continuous
290
1
370
-3
390
0
0
LAYER
5
8C
100
AcDbSymbolTableRecord
100
AcDbLayerTableRecord
2
4
70
0
62
-2
6
CENTER
290
1
370
-3
390
0
0
LAYER
5
AB
100
AcDbSymbolTableRecord
100
AcDbLayerTableRecord
2
2
70
0
62
7
6
Continuous
290
1
370
-3
390
0
0
LAYER
5
131
100
AcDbSymbolTableRecord
100
AcDbLayerTableRecord
2
Defpoints
70
0
62
7
6
Continuous
290
0
370
-3
390
0
0
LAYER
5
208
100
AcDbSymbolTableRecord
100
AcDbLayerTableRecord
2
SK1
70
0
62
4
6
Continuous
290
1
370
-3
390
0
0
LAYER
5
209
100
AcDbSymbolTableRecord
100
AcDbLayerTableRecord
2
SK4
70
0
62
2
6
CENTER
290
1
370
-3
390
0
0
LAYER
5
20a
100
AcDbSymbolTableRecord
100
AcDbLayerTableRecord
2
SK2
70
0
62
7
6
Continuous
290
1
370
-3
390
0
0
LAYER
5
20b
100
AcDbSymbolTableRecord
100
AcDbLayerTableRecord
2
SK6
70
0
62
5
6
Continuous
290
1
370
-3
390
0
0
ENDTAB
0
TABLE
2
STYLE
5
21f
100
AcDbSymbolTable
0
STYLE
5
11
100
AcDbSymbolTableRecord
100
AcDbTextStyleTableRecord
2
Standard
3
txt
70
0
71
0
40
0
41
1
42
0
50
0
0
STYLE
5
116
100
AcDbSymbolTableRecord
100
AcDbTextStyleTableRecord
2
iso_b_vert
3
simplex.shx
70
0
71
0
40
0
41
1
42
0
50
0
0
STYLE
5
117
100
AcDbSymbolTableRecord
100
AcDbTextStyleTableRecord
2
DWGDirectTextStyle
3
simplex
70
0
71
0
40
0
41
1
42
0
50
0
0
ENDTAB
0
TABLE
2
DIMSTYLE
5
220
100
AcDbSymbolTable
100
AcDbDimStyleTable
0
DIMSTYLE
105
27
100
AcDbSymbolTableRecord
100
AcDbDimStyleTableRecord
2
Standard
70
0
3
<>
41
0.18
42
0.0625
44
0.18
140
0.18
147
0.09
73
0
74
0
77
1
271
2
275
0
278
52
280
0
340
11
0
ENDTAB
0
TABLE
2
VIEW
5
221
100
AcDbSymbolTable
0
ENDTAB
0
TABLE
2
UCS
5
222
100
AcDbSymbolTable
0
ENDTAB
0
TABLE
2
APPID
5
223
100
AcDbSymbolTable
0
APPID
5
12
100
AcDbSymbolTableRecord
100
AcDbRegAppTableRecord
2
ACAD
70
0
0
APPID
5
12D
100
AcDbSymbolTableRecord
100
AcDbRegAppTableRecord
2
ACAD_DSTYLE_DIMBREAK
70
0
0
APPID
5
1C7
100
AcDbSymbolTableRecord
100
AcDbRegAppTableRecord
2
ACAD_DSTYLE_DIM_LINETYPE
70
0
0
APPID
5
1C8
100
AcDbSymbolTableRecord
100
AcDbRegAppTableRecord
2
ACAD_DSTYLE_DIM_EXT1_LINETYPE
70
0
0
APPID
5
1C9
100
AcDbSymbolTableRecord
100
AcDbRegAppTableRecord
2
ACAD_DSTYLE_DIM_EXT2_LINETYPE
70
0
0
APPID
5
204
100
AcDbSymbolTableRecord
100
AcDbRegAppTableRecord
2
ACAD_MLEADERVER
70
0
0
ENDTAB
0
TABLE
2
BLOCK_RECORD
5
224
100
AcDbSymbolTable
0
BLOCK_RECORD
5
1F
100
AcDbSymbolTableRecord
100
AcDbBlockTableRecord
2
*Model_Space
340
0
70
0
0
BLOCK_RECORD
5
1B
100
AcDbSymbolTableRecord
100
AcDbBlockTableRecord
2
*Paper_Space
340
0
70
0
0
BLOCK_RECORD
5
23
100
AcDbSymbolTableRecord
100
AcDbBlockTableRecord
2
*Paper_Space0
340
0
70
0
0
BLOCK_RECORD
5
132
100
AcDbSymbolTableRecord
100
AcDbBlockTableRecord
2
*D1
340
0
70
0
0
BLOCK_RECORD
5
13E
100
AcDbSymbolTableRecord
100
AcDbBlockTableRecord
2
_U0
340
0
70
0
0
BLOCK_RECORD
5
14A
100
AcDbSymbolTableRecord
100
AcDbBlockTableRecord
2
*D3
340
0
70
0
0
BLOCK_RECORD
5
156
100
AcDbSymbolTableRecord
100
AcDbBlockTableRecord
2
_U1
340
0
70
0
0
BLOCK_RECORD
5
162
100
AcDbSymbolTableRecord
100
AcDbBlockTableRecord
2
*D5
340
0
70
0
0
BLOCK_RECORD
5
16E
100
AcDbSymbolTableRecord
100
AcDbBlockTableRecord
2
_U2
340
0
70
0
0
BLOCK_RECORD
5
17A
100
AcDbSymbolTableRecord
100
AcDbBlockTableRecord
2
*D7
340
0
70
0
0
BLOCK_RECORD
5
188
100
AcDbSymbolTableRecord
100
AcDbBlockTableRecord
2
_U3
340
0
70
0
0
BLOCK_RECORD
5
194
100
AcDbSymbolTableRecord
100
AcDbBlockTableRecord
2
*D9
340
0
70
0
0
BLOCK_RECORD
5
1A0
100
AcDbSymbolTableRecord
100
AcDbBlockTableRecord
2
_U4
340
0
70
0
0
ENDTAB
0
ENDSEC
0
SECTION
2
BLOCKS
0
BLOCK
5
20
100
AcDbEntity
8
0
100
AcDbBlockBegin
2
*Model_Space
70
0
10
0
20
0
30
0
3
*Model_Space
0
ENDBLK
5
21
100
AcDbEntity
8
0
100
AcDbBlockEnd
0
BLOCK
5
1C
100
AcDbEntity
8
0
100
AcDbBlockBegin
2
*Paper_Space
70
0
10
0
20
0
30
0
3
*Paper_Space
0
ENDBLK
5
1D
100
AcDbEntity
8
0
100
AcDbBlockEnd
0
BLOCK
5
24
100
AcDbEntity
8
0
100
AcDbBlockBegin
2
*Paper_Space0
70
0
10
0
20
0
30
0
3
*Paper_Space0
0
ENDBLK
5
25
100
AcDbEntity
8
0
100
AcDbBlockEnd
0
BLOCK
5
133
100
AcDbEntity
8
0
100
AcDbBlockBegin
2
*D1
70
1
10
0
20
0
30
0
3
*D1
0
LINE
5
135
100
AcDbEntity
8
0
62
256
6
ByLayer
370
-2
48
1
60
0
100
AcDbLine
10
0
20
-1.5875
30
0
11
0
21
-16.963398
31
0
39
0
210
0
220
0
230
1
0
LINE
5
136
100
AcDbEntity
8
0
62
256
6
ByLayer
370
-2
48
1
60
0
100
AcDbLine
10
110.5913
20
-6.3375
30
0
11
110.5913
21
-16.963398
31
0
39
0
210
0
220
0
230
1
0
LINE
5
137
100
AcDbEntity
8
0
62
256
6
ByLayer
370
-2
48
1
60
0
100
AcDbLine
10
3.5
20
-14.963398
30
0
11
107.0913
21
-14.963398
31
0
39
0
210
0
220
0
230
1
0
SOLID
5
138
100
AcDbEntity
8
0
62
256
6
ByLayer
370
-1
48
1
60
0
100
AcDbTrace
10
3.5
20
-14.380065
30
0
11
3.5
21
-15.546732
31
0
12
0
22
-14.963398
32
0
13
0
23
-14.963398
33
0
39
0
210
0
220
0
230
1
0
SOLID
5
139
100
AcDbEntity
8
0
62
256
6
ByLayer
370
-1
48
1
60
0
100
AcDbTrace
10
107.0913
20
-15.546732
30
0
11
107.0913
21
-14.380065
31
0
12
110.5913
22
-14.963398
32
0
13
110.5913
23
-14.963398
33
0
39
0
210
0
220
0
230
1
0
MTEXT
5
13A
100
AcDbEntity
8
0
62
256
6
ByLayer
370
18
48
1
60
0
100
AcDbMText
10
55.29565
20
-7.963398
30
0
210
0
220
0
230
1
1
\A1;110.59
40
3.5
41
0
44
1
50
0
71
5
72
5
7
iso_b_vert
0
POINT
5
13B
100
AcDbEntity
8
Defpoints
62
0
6
ByLayer
370
-1
48
1
60
0
100
AcDbPoint
10
0
20
0
30
0
39
0
210
0
220
0
230
1
50
360
0
POINT
5
13C
100
AcDbEntity
8
Defpoints
62
0
6
ByLayer
370
-1
48
1
60
0
100
AcDbPoint
10
110.5913
20
-4.75
30
0
39
0
210
0
220
0
230
1
50
360
0
POINT
5
13D
100
AcDbEntity
8
Defpoints
62
0
6
ByLayer
370
-1
48
1
60
0
100
AcDbPoint
10
110.5913
20
-14.963398
30
0
39
0
210
0
220
0
230
1
50
360
0
ENDBLK
5
134
100
AcDbEntity
8
0
100
AcDbBlockEnd
0
BLOCK
5
145
100
AcDbEntity
8
0
100
AcDbBlockBegin
2
_U0
70
0
10
0
20
0
30
0
3
_U0
0
MTEXT
5
13F
100
AcDbEntity
8
SK2
62
256
6
ByLayer
370
13
48
1
60
0
100
AcDbMText
10
49.725485
20
-13.930765
30
0
210
0
220
0
230
1
1
\W0.6501;110,59
40
3.5
41
0
44
1.084337
50
0
71
7
72
5
7
iso_b_vert
0
LINE
5
140
100
AcDbEntity
8
SK2
62
256
6
ByLayer
370
13
48
1
60
0
100
AcDbLine
10
0
20
-1.5875
30
0
11
0
21
-16.963398
31
0
39
0
210
0
220
0
230
1
0
LINE
5
141
100
AcDbEntity
8
SK2
62
256
6
ByLayer
370
13
48
1
60
0
100
AcDbLine
10
110.5913
20
-6.3375
30
0
11
110.5913
21
-16.963398
31
0
39
0
210
0
220
0
230
1
0
LINE
5
142
100
AcDbEntity
8
SK2
62
256
6
ByLayer
370
13
48
1
60
0
100
AcDbLine
10
0
20
-14.963398
30
0
11
110.5913
21
-14.963398
31
0
39
0
210
0
220
0
230
1
0
SOLID
5
143
100
AcDbEntity
8
SK2
62
256
6
ByLayer
370
18
48
1
60
0
100
AcDbTrace
10
0
20
-14.963398
30
0
11
3.499998
21
-14.502615
31
0
12
3.500002
22
-15.424182
32
0
13
3.500002
23
-15.424182
33
0
39
0
210
0
220
0
230
1
0
SOLID
5
144
100
AcDbEntity
8
SK2
62
256
6
ByLayer
370
18
48
1
60
0
100
AcDbTrace
10
110.5913
20
-14.963398
30
0
11
107.091302
21
-15.424182
31
0
12
107.091298
22
-14.502615
32
0
13
107.091298
23
-14.502615
33
0
39
0
210
0
220
0
230
1
0
ENDBLK
5
146
100
AcDbEntity
8
0
100
AcDbBlockEnd
0
BLOCK
5
14B
100
AcDbEntity
8
0
100
AcDbBlockBegin
2
*D3
70
1
10
0
20
0
30
0
3
*D3
0
LINE
5
14D
100
AcDbEntity
8
0
62
256
6
ByLayer
370
-2
48
1
60
0
100
AcDbLine
10
-40
20
-6.5875
30
0
11
-40
21
-35.692985
31
0
39
0
210
0
220
0
230
1
0
LINE
5
14E
100
AcDbEntity
8
0
62
256
6
ByLayer
370
-2
48
1
60
0
100
AcDbLine
10
112
20
-1.5875
30
0
11
112
21
-35.692985
31
0
39
0
210
0
220
0
230
1
0
LINE
5
14F
100
AcDbEntity
8
0
62
256
6
ByLayer
370
-2
48
1
60
0
100
AcDbLine
10
-36.5
20
-33.692985
30
0
11
108.5
21
-33.692985
31
0
39
0
210
0
220
0
230
1
0
SOLID
5
150
100
AcDbEntity
8
0
62
256
6
ByLayer
370
-1
48
1
60
0
100
AcDbTrace
10
-36.5
20
-33.109652
30
0
11
-36.5
21
-34.276319
31
0
12
-40
22
-33.692985
32
0
13
-40
23
-33.692985
33
0
39
0
210
0
220
0
230
1
0
SOLID
5
151
100
AcDbEntity
8
0
62
256
6
ByLayer
370
-1
48
1
60
0
100
AcDbTrace
10
108.5
20
-34.276319
30
0
11
108.5
21
-33.109652
31
0
12
112
22
-33.692985
32
0
13
112
23
-33.692985
33
0
39
0
210
0
220
0
230
1
0
MTEXT
5
152
100
AcDbEntity
8
0
62
256
6
ByLayer
370
18
48
1
60
0
100
AcDbMText
10
36
20
-26.692985
30
0
210
0
220
0
230
1
1
\A1;152.00
40
3.5
41
0
44
1
50
0
71
5
72
5
7
iso_b_vert
0
POINT
5
153
100
AcDbEntity
8
Defpoints
62
0
6
ByLayer
370
-1
48
1
60
0
100
AcDbPoint
10
-40
20
-5
30
0
39
0
210
0
220
0
230
1
50
360
0
POINT
5
154
100
AcDbEntity
8
Defpoints
62
0
6
ByLayer
370
-1
48
1
60
0
100
AcDbPoint
10
112
20
0
30
0
39
0
210
0
220
0
230
1
50
360
0
POINT
5
155
100
AcDbEntity
8
Defpoints
62
0
6
ByLayer
370
-1
48
1
60
0
100
AcDbPoint
10
112
20
-33.692985
30
0
39
0
210
0
220
0
230
1
50
360
0
ENDBLK
5
14C
100
AcDbEntity
8
0
100
AcDbBlockEnd
0
BLOCK
5
15D
100
AcDbEntity
8
0
100
AcDbBlockBegin
2
_U1
70
0
10
0
20
0
30
0
3
_U1
0
MTEXT
5
157
100
AcDbEntity
8
SK2
62
256
6
ByLayer
370
13
48
1
60
0
100
AcDbMText
10
29.992401
20
-32.660352
30
0
210
0
220
0
230
1
1
\W0.6930;152,00
40
3.5
41
0
44
1.084337
50
0
71
7
72
5
7
iso_b_vert
0
LINE
5
158
100
AcDbEntity
8
SK2
62
256
6
ByLayer
370
13
48
1
60
0
100
AcDbLine
10
-40
20
-6.5875
30
0
11
-40
21
-35.692985
31
0
39
0
210
0
220
0
230
1
0
LINE
5
159
100
AcDbEntity
8
SK2
62
256
6
ByLayer
370
13
48
1
60
0
100
AcDbLine
10
112
20
-1.5875
30
0
11
112
21
-35.692985
31
0
39
0
210
0
220
0
230
1
0
LINE
5
15A
100
AcDbEntity
8
SK2
62
256
6
ByLayer
370
13
48
1
60
0
100
AcDbLine
10
-40
20
-33.692985
30
0
11
112
21
-33.692985
31
0
39
0
210
0
220
0
230
1
0
SOLID
5
15B
100
AcDbEntity
8
SK2
62
256
6
ByLayer
370
18
48
1
60
0
100
AcDbTrace
10
-40
20
-33.692985
30
0
11
-36.500002
21
-33.232202
31
0
12
-36.499998
22
-34.153769
32
0
13
-36.499998
23
-34.153769
33
0
39
0
210
0
220
0
230
1
0
SOLID
5
15C
100
AcDbEntity
8
SK2
62
256
6
ByLayer
370
18
48
1
60
0
100
AcDbTrace
10
112
20
-33.692985
30
0
11
108.500002
21
-34.153769
31
0
12
108.499998
22
-33.232202
32
0
13
108.499998
23
-33.232202
33
0
39
0
210
0
220
0
230
1
0
ENDBLK
5
15E
100
AcDbEntity
8
0
100
AcDbBlockEnd
0
BLOCK
5
163
100
AcDbEntity
8
0
100
AcDbBlockBegin
2
*D5
70
1
10
0
20
0
30
0
3
*D5
0
LINE
5
165
100
AcDbEntity
8
0
62
256
6
ByLayer
370
-2
48
1
60
0
100
AcDbLine
10
34.59
20
6.3375
30
0
11
34.59
21
18.359119
31
0
39
0
210
0
220
0
230
1
0
LINE
5
166
100
AcDbEntity
8
0
62
256
6
ByLayer
370
-2
48
1
60
0
100
AcDbLine
10
112
20
1.5875
30
0
11
112
21
18.359119
31
0
39
0
210
0
220
0
230
1
0
LINE
5
167
100
AcDbEntity
8
0
62
256
6
ByLayer
370
-2
48
1
60
0
100
AcDbLine
10
38.09
20
16.359119
30
0
11
108.5
21
16.359119
31
0
39
0
210
0
220
0
230
1
0
SOLID
5
168
100
AcDbEntity
8
0
62
256
6
ByLayer
370
-1
48
1
60
0
100
AcDbTrace
10
38.09
20
16.942453
30
0
11
38.09
21
15.775786
31
0
12
34.59
22
16.359119
32
0
13
34.59
23
16.359119
33
0
39
0
210
0
220
0
230
1
0
SOLID
5
169
100
AcDbEntity
8
0
62
256
6
ByLayer
370
-1
48
1
60
0
100
AcDbTrace
10
108.5
20
15.775786
30
0
11
108.5
21
16.942453
31
0
12
112
22
16.359119
32
0
13
112
23
16.359119
33
0
39
0
210
0
220
0
230
1
0
MTEXT
5
16A
100
AcDbEntity
8
0
62
256
6
ByLayer
370
18
48
1
60
0
100
AcDbMText
10
73.295
20
23.359119
30
0
210
0
220
0
230
1
1
\A1;77.41
40
3.5
41
0
44
1
50
0
71
5
72
5
7
iso_b_vert
0
POINT
5
16B
100
AcDbEntity
8
Defpoints
62
0
6
ByLayer
370
-1
48
1
60
0
100
AcDbPoint
10
34.59
20
4.75
30
0
39
0
210
0
220
0
230
1
50
360
0
POINT
5
16C
100
AcDbEntity
8
Defpoints
62
0
6
ByLayer
370
-1
48
1
60
0
100
AcDbPoint
10
112
20
0
30
0
39
0
210
0
220
0
230
1
50
360
0
POINT
5
16D
100
AcDbEntity
8
Defpoints
62
0
6
ByLayer
370
-1
48
1
60
0
100
AcDbPoint
10
112
20
16.359119
30
0
39
0
210
0
220
0
230
1
50
360
0
ENDBLK
5
164
100
AcDbEntity
8
0
100
AcDbBlockEnd
0
BLOCK
5
175
100
AcDbEntity
8
0
100
AcDbBlockBegin
2
_U2
70
0
10
0
20
0
30
0
3
_U2
0
MTEXT
5
16F
100
AcDbEntity
8
SK2
62
256
6
ByLayer
370
13
48
1
60
0
100
AcDbMText
10
68.410868
20
17.391753
30
0
210
0
220
0
230
1
1
\W0.7494;77,41
40
3.5
41
0
44
1.084337
50
0
71
7
72
5
7
iso_b_vert
0
LINE
5
170
100
AcDbEntity
8
SK2
62
256
6
ByLayer
370
13
48
1
60
0
100
AcDbLine
10
34.59
20
6.3375
30
0
11
34.59
21
18.359119
31
0
39
0
210
0
220
0
230
1
0
LINE
5
171
100
AcDbEntity
8
SK2
62
256
6
ByLayer
370
13
48
1
60
0
100
AcDbLine
10
112
20
1.5875
30
0
11
112
21
18.359119
31
0
39
0
210
0
220
0
230
1
0
LINE
5
172
100
AcDbEntity
8
SK2
62
256
6
ByLayer
370
13
48
1
60
0
100
AcDbLine
10
34.59
20
16.359119
30
0
11
112
21
16.359119
31
0
39
0
210
0
220
0
230
1
0
SOLID
5
173
100
AcDbEntity
8
SK2
62
256
6
ByLayer
370
18
48
1
60
0
100
AcDbTrace
10
34.59
20
16.359119
30
0
11
38.089998
21
16.819903
31
0
12
38.090002
22
15.898335
32
0
13
38.090002
23
15.898335
33
0
39
0
210
0
220
0
230
1
0
SOLID
5
174
100
AcDbEntity
8
SK2
62
256
6
ByLayer
370
18
48
1
60
0
100
AcDbTrace
10
112
20
16.359119
30
0
11
108.500002
21
15.898335
31
0
12
108.499998
22
16.819903
32
0
13
108.499998
23
16.819903
33
0
39
0
210
0
220
0
230
1
0
ENDBLK
5
176
100
AcDbEntity
8
0
100
AcDbBlockEnd
0
BLOCK
5
17B
100
AcDbEntity
8
0
100
AcDbBlockBegin
2
*D7
70
1
10
0
20
0
30
0
3
*D7
0
LINE
5
17D
100
AcDbEntity
8
0
62
256
6
ByLayer
370
-2
48
1
60
0
100
AcDbLine
10
112
20
-1.5875
30
0
11
112
21
-19.552503
31
0
39
0
210
0
220
0
230
1
0
LINE
5
17E
100
AcDbEntity
8
0
62
256
6
ByLayer
370
-2
48
1
60
0
100
AcDbLine
10
110.5913
20
-6.3375
30
0
11
110.5913
21
-19.552503
31
0
39
0
210
0
220
0
230
1
0
LINE
5
17F
100
AcDbEntity
8
0
62
256
6
ByLayer
370
-2
48
1
60
0
100
AcDbLine
10
112
20
-17.552503
30
0
11
138.666667
21
-17.552503
31
0
39
0
210
0
220
0
230
1
0
LINE
5
180
100
AcDbEntity
8
0
62
256
6
ByLayer
370
-2
48
1
60
0
100
AcDbLine
10
115.5
20
-17.552503
30
0
11
119
21
-17.552503
31
0
39
0
210
0
220
0
230
1
0
LINE
5
181
100
AcDbEntity
8
0
62
256
6
ByLayer
370
-2
48
1
60
0
100
AcDbLine
10
107.0913
20
-17.552503
30
0
11
103.5913
21
-17.552503
31
0
39
0
210
0
220
0
230
1
0
SOLID
5
182
100
AcDbEntity
8
0
62
256
6
ByLayer
370
-1
48
1
60
0
100
AcDbTrace
10
115.5
20
-16.96917
30
0
11
115.5
21
-18.135837
31
0
12
112
22
-17.552503
32
0
13
112
23
-17.552503
33
0
39
0
210
0
220
0
230
1
0
SOLID
5
183
100
AcDbEntity
8
0
62
256
6
ByLayer
370
-1
48
1
60
0
100
AcDbTrace
10
107.0913
20
-18.135837
30
0
11
107.0913
21
-16.96917
31
0
12
110.5913
22
-17.552503
32
0
13
110.5913
23
-17.552503
33
0
39
0
210
0
220
0
230
1
0
MTEXT
5
184
100
AcDbEntity
8
0
62
256
6
ByLayer
370
18
48
1
60
0
100
AcDbMText
10
128.833333
20
-10.552503
30
0
210
0
220
0
230
1
1
\A1;1.41
40
3.5
41
0
44
1
50
0
71
5
72
5
7
iso_b_vert
0
POINT
5
185
100
AcDbEntity
8
Defpoints
62
0
6
ByLayer
370
-1
48
1
60
0
100
AcDbPoint
10
112
20
0
30
0
39
0
210
0
220
0
230
1
50
360
0
POINT
5
186
100
AcDbEntity
8
Defpoints
62
0
6
ByLayer
370
-1
48
1
60
0
100
AcDbPoint
10
110.5913
20
-4.75
30
0
39
0
210
0
220
0
230
1
50
360
0
POINT
5
187
100
AcDbEntity
8
Defpoints
62
0
6
ByLayer
370
-1
48
1
60
0
100
AcDbPoint
10
110.5913
20
-17.552503
30
0
39
0
210
0
220
0
230
1
50
360
0
ENDBLK
5
17C
100
AcDbEntity
8
0
100
AcDbBlockEnd
0
BLOCK
5
18F
100
AcDbEntity
8
0
100
AcDbBlockBegin
2
_U3
70
0
10
0
20
0
30
0
3
_U3
0
MTEXT
5
189
100
AcDbEntity
8
SK2
62
256
6
ByLayer
370
13
48
1
60
0
100
AcDbMText
10
118.842459
20
-16.51987
30
0
210
0
220
0
230
1
1
\W0.6509;1,41
40
3.5
41
0
44
1.084337
50
0
71
7
72
5
7
iso_b_vert
0
LINE
5
18A
100
AcDbEntity
8
SK2
62
256
6
ByLayer
370
13
48
1
60
0
100
AcDbLine
10
112
20
-1.5875
30
0
11
112
21
-19.552503
31
0
39
0
210
0
220
0
230
1
0
LINE
5
18B
100
AcDbEntity
8
SK2
62
256
6
ByLayer
370
13
48
1
60
0
100
AcDbLine
10
110.5913
20
-6.3375
30
0
11
110.5913
21
-19.552503
31
0
39
0
210
0
220
0
230
1
0
LINE
5
18C
100
AcDbEntity
8
SK2
62
256
6
ByLayer
370
13
48
1
60
0
100
AcDbLine
10
101.8413
20
-17.552503
30
0
11
125.305891
21
-17.552503
31
0
39
0
210
0
220
0
230
1
0
SOLID
5
18D
100
AcDbEntity
8
SK2
62
256
6
ByLayer
370
18
48
1
60
0
100
AcDbTrace
10
112
20
-17.552503
30
0
11
115.499998
21
-17.091719
31
0
12
115.500002
22
-18.013287
32
0
13
115.500002
23
-18.013287
33
0
39
0
210
0
220
0
230
1
0
SOLID
5
18E
100
AcDbEntity
8
SK2
62
256
6
ByLayer
370
18
48
1
60
0
100
AcDbTrace
10
110.5913
20
-17.552503
30
0
11
107.091302
21
-18.013287
31
0
12
107.091298
22
-17.091719
32
0
13
107.091298
23
-17.091719
33
0
39
0
210
0
220
0
230
1
0
ENDBLK
5
190
100
AcDbEntity
8
0
100
AcDbBlockEnd
0
BLOCK
5
195
100
AcDbEntity
8
0
100
AcDbBlockBegin
2
*D9
70
1
10
0
20
0
30
0
3
*D9
0
LINE
5
197
100
AcDbEntity
8
0
62
256
6
ByLayer
370
-2
48
1
60
0
100
AcDbLine
10
-40
20
-6.5875
30
0
11
-40
21
-25.343428
31
0
39
0
210
0
220
0
230
1
0
LINE
5
198
100
AcDbEntity
8
0
62
256
6
ByLayer
370
-2
48
1
60
0
100
AcDbLine
10
110.5913
20
-6.3375
30
0
11
110.5913
21
-25.343428
31
0
39
0
210
0
220
0
230
1
0
LINE
5
199
100
AcDbEntity
8
0
62
256
6
ByLayer
370
-2
48
1
60
0
100
AcDbLine
10
-36.5
20
-23.343428
30
0
11
107.0913
21
-23.343428
31
0
39
0
210
0
220
0
230
1
0
SOLID
5
19A
100
AcDbEntity
8
0
62
256
6
ByLayer
370
-1
48
1
60
0
100
AcDbTrace
10
-36.5
20
-22.760095
30
0
11
-36.5
21
-23.926762
31
0
12
-40
22
-23.343428
32
0
13
-40
23
-23.343428
33
0
39
0
210
0
220
0
230
1
0
SOLID
5
19B
100
AcDbEntity
8
0
62
256
6
ByLayer
370
-1
48
1
60
0
100
AcDbTrace
10
107.0913
20
-23.926762
30
0
11
107.0913
21
-22.760095
31
0
12
110.5913
22
-23.343428
32
0
13
110.5913
23
-23.343428
33
0
39
0
210
0
220
0
230
1
0
MTEXT
5
19C
100
AcDbEntity
8
0
62
256
6
ByLayer
370
18
48
1
60
0
100
AcDbMText
10
35.29565
20
-16.343428
30
0
210
0
220
0
230
1
1
\A1;150.59
40
3.5
41
0
44
1
50
0
71
5
72
5
7
iso_b_vert
0
POINT
5
19D
100
AcDbEntity
8
Defpoints
62
0
6
ByLayer
370
-1
48
1
60
0
100
AcDbPoint
10
-40
20
-5
30
0
39
0
210
0
220
0
230
1
50
360
0
POINT
5
19E
100
AcDbEntity
8
Defpoints
62
0
6
ByLayer
370
-1
48
1
60
0
100
AcDbPoint
10
110.5913
20
-4.75
30
0
39
0
210
0
220
0
230
1
50
360
0
POINT
5
19F
100
AcDbEntity
8
Defpoints
62
0
6
ByLayer
370
-1
48
1
60
0
100
AcDbPoint
10
110.5913
20
-23.343428
30
0
39
0
210
0
220
0
230
1
50
360
0
ENDBLK
5
196
100
AcDbEntity
8
0
100
AcDbBlockEnd
0
BLOCK
5
1A7
100
AcDbEntity
8
0
100
AcDbBlockBegin
2
_U4
70
0
10
0
20
0
30
0
3
_U4
0
MTEXT
5
1A1
100
AcDbEntity
8
SK2
62
256
6
ByLayer
370
13
48
1
60
0
100
AcDbMText
10
29.288051
20
-22.310795
30
0
210
0
220
0
230
1
1
\W0.6996;150,59
40
3.5
41
0
44
1.084337
50
0
71
7
72
5
7
iso_b_vert
0
LINE
5
1A2
100
AcDbEntity
8
SK2
62
256
6
ByLayer
370
13
48
1
60
0
100
AcDbLine
10
-40
20
-6.5875
30
0
11
-40
21
-25.343428
31
0
39
0
210
0
220
0
230
1
0
LINE
5
1A3
100
AcDbEntity
8
SK2
62
256
6
ByLayer
370
13
48
1
60
0
100
AcDbLine
10
110.5913
20
-6.3375
30
0
11
110.5913
21
-25.343428
31
0
39
0
210
0
220
0
230
1
0
LINE
5
1A4
100
AcDbEntity
8
SK2
62
256
6
ByLayer
370
13
48
1
60
0
100
AcDbLine
10
-40
20
-23.343428
30
0
11
110.5913
21
-23.343428
31
0
39
0
210
0
220
0
230
1
0
SOLID
5
1A5
100
AcDbEntity
8
SK2
62
256
6
ByLayer
370
18
48
1
60
0
100
AcDbTrace
10
-40
20
-23.343428
30
0
11
-36.500002
21
-22.882645
31
0
12
-36.499998
22
-23.804212
32
0
13
-36.499998
23
-23.804212
33
0
39
0
210
0
220
0
230
1
0
SOLID
5
1A6
100
AcDbEntity
8
SK2
62
256
6
ByLayer
370
18
48
1
60
0
100
AcDbTrace
10
110.5913
20
-23.343428
30
0
11
107.091302
21
-23.804212
31
0
12
107.091298
22
-22.882645
32
0
13
107.091298
23
-22.882645
33
0
39
0
210
0
220
0
230
1
0
ENDBLK
5
1A8
100
AcDbEntity
8
0
100
AcDbBlockEnd
0
ENDSEC
0
SECTION
2
ENTITIES
0
ARC
5
B4
100
AcDbEntity
8
1
62
256
6
ByLayer
370
18
48
1
60
0
100
AcDbCircle
39
0
10
0.957919
20
-5.481558
30
0
40
0.800000000000003
210
0
220
0
230
1
100
AcDbArc
50
89.96419
51
126.776801
0
ARC
5
B5
100
AcDbEntity
8
1
62
256
6
ByLayer
370
18
48
1
60
0
100
AcDbCircle
39
0
10
0.957919
20
5.481558
30
0
40
0.800000000000003
210
0
220
0
230
1
100
AcDbArc
50
233.223199
51
270.03581
0
ARC
5
B6
100
AcDbEntity
8
1
62
256
6
ByLayer
370
18
48
1
60
0
100
AcDbCircle
39
0
10
0
20
-4.2
30
0
40
0.799999999999999
210
0
220
0
230
1
100
AcDbArc
50
270
51
306.776801
0
ARC
5
B7
100
AcDbEntity
8
1
62
256
6
ByLayer
370
18
48
1
60
0
100
AcDbCircle
39
0
10
0
20
4.2
30
0
40
0.799999999999999
210
0
220
0
230
1
100
AcDbArc
50
53.223199
51
90
0
ELLIPSE
5
B8
100
AcDbEntity
8
1
62
256
6
ByLayer
370
13
48
1
60
0
100
AcDbEllipse
10
8.170846
20
-1.04262
30
0
11
0.0411132747400789
21
0.0911575484540188
31
0
210
0
220
0
230
1
40
0.56152
41
1.61026671120263
42
2.88470489793701
0
ELLIPSE
5
B9
100
AcDbEntity
8
1
62
256
6
ByLayer
370
13
48
1
60
0
100
AcDbEllipse
10
8.250147
20
-1.084684
30
0
11
0.0514699183932411
21
0.0857370835787706
31
0
210
0
220
0
230
1
40
0.125198
41
1.36332427292851
42
2.91847371428112
0
POINT
5
70
100
AcDbEntity
8
80
62
256
6
ByLayer
370
18
48
1
60
0
100
AcDbPoint
10
0
20
0
30
0
39
0
210
0
220
0
230
1
50
360
0
POINT
5
72
100
AcDbEntity
8
81
62
256
6
ByLayer
370
18
48
1
60
0
100
AcDbPoint
10
112
20
0
30
0
39
0
210
0
220
0
230
1
50
360
0
POINT
5
74
100
AcDbEntity
8
1
62
256
6
ByLayer
370
18
48
1
60
1
100
AcDbPoint
10
110.5913
20
-4.75
30
0
39
0
210
0
220
0
230
1
50
360
0
POINT
5
76
100
AcDbEntity
8
1
62
256
6
ByLayer
370
18
48
1
60
1
100
AcDbPoint
10
-40
20
-5
30
0
39
0
210
0
220
0
230
1
50
360
0
POINT
5
77
100
AcDbEntity
8
1
62
256
6
ByLayer
370
18
48
1
60
1
100
AcDbPoint
10
34.59
20
4.75
30
0
39
0
210
0
220
0
230
1
50
360
0
POINT
5
78
100
AcDbEntity
8
1
62
256
6
ByLayer
370
18
48
1
60
1
100
AcDbPoint
10
110.5913
20
-4.75
30
0
39
0
210
0
220
0
230
1
50
360
0
POINT
5
79
100
AcDbEntity
8
1
62
256
6
ByLayer
370
18
48
1
60
1
100
AcDbPoint
10
-40
20
-5
30
0
39
0
210
0
220
0
230
1
50
360
0
POINT
5
7A
100
AcDbEntity
8
1
62
256
6
ByLayer
370
18
48
1
60
1
100
AcDbPoint
10
110.5913
20
-4.75
30
0
39
0
210
0
220
0
230
1
50
360
0
SPLINE
5
BA
100
AcDbEntity
8
SK1
62
256
6
ByLayer
370
18
48
1
60
0
100
AcDbSpline
70
4
71
3
72
8
73
4
40
0
40
0
40
0
40
0
40
1
40
1
40
1
40
1
41
1
10
-39.35
20
2.61390166454643
30
0
41
1
10
-39.5672415048354
20
2.52335116512228
30
0
41
1
10
-39.7840138771994
20
2.43261986032371
30
0
41
1
10
-40
20
2.34158553206089
30
0
0
SPLINE
5
BB
100
AcDbEntity
8
SK1
62
256
6
ByLayer
370
18
48
1
60
0
100
AcDbSpline
70
4
71
3
72
12
73
8
40
0
40
0
40
0
40
0
40
0.25
40
0.25
40
0.5
40
0.5
40
1
40
1
40
1
40
1
41
1
10
-39.25
20
2.57308952477519
30
0
41
1
10
-39.25
20
2.58691364350335
30
0
41
1
10
-39.254235624227
20
2.59794491079626
30
0
41
1
10
-39.2670201311554
20
2.61364822058596
30
0
41
1
10
-39.2754786511826
20
2.61854815314405
30
0
41
1
10
-39.3037388067419
20
2.62670122206939
30
0
41
1
10
-39.3264172660865
20
2.62373140833913
30
0
41
1
10
-39.35
20
2.61390166454649
30
0
0
SPLINE
5
BC
100
AcDbEntity
8
SK1
62
256
6
ByLayer
370
18
48
1
60
0
100
AcDbSpline
70
4
71
3
72
12
73
8
40
0
40
0
40
0
40
0
40
0.5
40
0.5
40
0.75
40
0.75
40
1
40
1
40
1
40
1
41
1
10
-39.35
20
0.785662854026896
30
0
41
1
10
-39.3264103729719
20
0.795495471004216
30
0
41
1
10
-39.3036886178189
20
0.813061273954986
30
0
41
1
10
-39.275599229617
20
0.848960377494222
30
0
41
1
10
-39.2670477807072
20
0.862887145668452
30
0
41
1
10
-39.2542670006876
20
0.893695839550844
30
0
41
1
10
-39.25
20
0.911051137993667
30
0
41
1
10
-39.25
20
0.927674595307622
30
0
0
SPLINE
5
BD
100
AcDbEntity
8
SK1
62
256
6
ByLayer
370
18
48
1
60
0
100
AcDbSpline
70
4
71
3
72
8
73
4
40
0
40
0
40
0
40
0
40
1
40
1
40
1
40
1
41
1
10
-40
20
0.513346721541382
30
0
41
1
10
-39.7840198164477
20
0.604378546516131
30
0
41
1
10
-39.567246550983
20
0.695110251269995
30
0
41
1
10
-39.35
20
0.785662854026924
30
0
0
SPLINE
5
BE
100
AcDbEntity
8
1
62
256
6
ByLayer
370
18
48
1
60
0
100
AcDbSpline
70
4
71
3
72
8
73
4
40
0
40
0
40
0
40
0
40
1
40
1
40
1
40
1
41
1
10
8.24997831717656
20
2.83064056820166
30
0
41
1
10
8.50695483443499
20
2.55047642984636
30
0
41
1
10
8.77906529590601
20
2.25338677078136
30
0
41
1
10
9.07161357429686
20
1.94746769868587
30
0
0
SPLINE
5
BF
100
AcDbEntity
8
1
62
256
6
ByLayer
370
18
48
1
60
0
100
AcDbSpline
70
4
71
3
72
8
73
4
40
0
40
0
40
0
40
0
40
1
40
1
40
1
40
1
41
1
10
110.306751455895
20
4.73798726642568
30
0
41
1
10
110.13255509549
20
4.74589174757361
30
0
41
1
10
109.958291763167
20
4.7497567068263
30
0
41
1
10
109.783853742194
20
4.74957426112709
30
0
0
SPLINE
5
C0
100
AcDbEntity
8
1
62
256
6
ByLayer
370
18
48
1
60
0
100
AcDbSpline
70
4
71
3
72
46
73
42
40
0
40
0
40
0
40
0
40
0.0474220356623446
40
0.0474220356623446
40
0.0788269880580624
40
0.0788269880580624
40
0.11023194045378
40
0.11023194045378
40
0.173041845245214
40
0.173041845245214
40
0.235851750036647
40
0.235851750036647
40
0.267256702432364
40
0.267256702432364
40
0.29866165482808
40
0.29866165482808
40
0.424281464410947
40
0.424281464410947
40
0.455686416806664
40
0.455686416806664
40
0.487091369202381
40
0.487091369202381
40
0.549901273993815
40
0.549901273993815
40
0.612711178785249
40
0.612711178785249
40
0.644116131180965
40
0.644116131180965
40
0.675521083576681
40
0.675521083576681
40
0.801140893159543
40
0.801140893159543
40
0.832545845555259
40
0.832545845555259
40
0.863950797950974
40
0.863950797950974
40
0.926760702742404
40
0.926760702742404
40
0.989570607533835
40
0.989570607533835
40
1
40
1
40
1
40
1
41
1
10
89.1778734422081
20
-4.48657896417552
30
0
41
1
10
88.7783353426985
20
-4.56922359126318
30
0
41
1
10
88.37907706834
20
-4.63173442443863
30
0
41
1
10
87.7132590977895
20
-4.70106674918236
30
0
41
1
10
87.4474209712442
20
-4.71954305579001
30
0
41
1
10
86.9136938678638
20
-4.73772326824781
30
0
41
1
10
86.6449157720633
20
-4.73736701033508
30
0
41
1
10
85.8424594931767
20
-4.70779480294445
30
0
41
1
10
85.3121095100151
20
-4.65043570446846
30
0
41
1
10
84.2532810884775
20
-4.46458739397207
30
0
41
1
10
83.7247190885458
20
-4.33613979337696
30
0
41
1
10
82.9278511681924
20
-4.09279830177789
30
0
41
1
10
82.6615363222898
20
-4.00324939898906
30
0
41
1
10
82.1266216177095
20
-3.80765835957499
30
0
41
1
10
81.8577602233913
20
-3.70146005886699
30
0
41
1
10
80.5227899770287
20
-3.13867479223518
30
0
41
1
10
79.4714792392254
20
-2.58131832557908
30
0
41
1
10
78.1412505132189
20
-1.79831744929177
30
0
41
1
10
77.874405280657
20
-1.63738350325485
30
0
41
1
10
77.3381329736097
20
-1.30807624216192
30
0
41
1
10
77.0701326654247
20
-1.14055096719073
30
0
41
1
10
76.2705343236981
20
-0.635080092917264
30
0
41
1
10
75.7412155427236
20
-0.292644773597487
30
0
41
1
10
74.682336593957
20
0.390963664178713
30
0
41
1
10
74.1530156564165
20
0.732513283998799
30
0
41
1
10
73.3533611150211
20
1.23524493873697
30
0
41
1
10
73.085411039241
20
1.40166782902895
30
0
41
1
10
72.5490159553457
20
1.72836897952112
30
0
41
1
10
72.2820593244757
20
1.88771426395345
30
0
41
1
10
70.9512876347343
20
2.66183223308769
30
0
41
1
10
69.8996891314827
20
3.20915354742556
30
0
41
1
10
68.5642087657836
20
3.75610432804567
30
0
41
1
10
68.2952463916062
20
3.85898220976699
30
0
41
1
10
67.7599773180136
20
4.04773330019799
30
0
41
1
10
67.4934673018595
20
4.13373772483629
30
0
41
1
10
66.6959770342829
20
4.36616057230205
30
0
41
1
10
66.1671761495602
20
4.48706552736789
30
0
41
1
10
65.1073802107424
20
4.65717821724925
30
0
41
1
10
64.5768291017148
20
4.70654228295527
30
0
41
1
10
63.9525084388386
20
4.72008308218793
30
0
41
1
10
63.8634598590317
20
4.72096229260072
30
0
41
1
10
63.7743842837495
20
4.72079647462624
30
0
0
SPLINE
5
C1
100
AcDbEntity
8
1
62
256
6
ByLayer
370
18
48
1
60
0
100
AcDbSpline
70
4
71
3
72
50
73
46
40
0
40
0
40
0
40
0
40
0.0598554085913699
40
0.0598554085913699
40
0.0912920849722153
40
0.0912920849722153
40
0.107010423162638
40
0.107010423162638
40
0.12272876135306
40
0.12272876135306
40
0.248475466876438
40
0.248475466876438
40
0.279912143257282
40
0.279912143257282
40
0.311348819638127
40
0.311348819638127
40
0.374222172399815
40
0.374222172399815
40
0.437095525161503
40
0.437095525161503
40
0.452813863351926
40
0.452813863351926
40
0.468532201542348
40
0.468532201542348
40
0.499968877923194
40
0.499968877923194
40
0.562842230684886
40
0.562842230684886
40
0.625715583446579
40
0.625715583446579
40
0.657152259827425
40
0.657152259827425
40
0.688588936208272
40
0.688588936208272
40
0.751462288969967
40
0.751462288969967
40
0.814335641731661
40
0.814335641731661
40
0.830053979922084
40
0.830053979922084
40
0.845772318112507
40
0.845772318112507
40
0.877208994493354
40
0.877208994493354
40
1
40
1
40
1
40
1
41
1
10
43.1996943333141
20
-4.45482228109194
30
0
41
1
10
42.6950652190929
20
-4.55950943270309
30
0
41
1
10
42.1906821864223
20
-4.63236425690064
30
0
41
1
10
41.4171789581086
20
-4.69257966296823
30
0
41
1
10
41.1500188515544
20
-4.70409208394906
30
0
41
1
10
40.7473655534263
20
-4.70714427912938
30
0
41
1
10
40.612837603644
20
-4.70578130451364
30
0
41
1
10
40.3448079124705
20
-4.69833985878216
30
0
41
1
10
40.2110813557853
20
-4.6922658303788
30
0
41
1
10
39.0096355662382
20
-4.61673107119697
30
0
41
1
10
37.9569177882232
20
-4.40131848280194
30
0
41
1
10
36.622641856362
20
-3.9654651439761
30
0
41
1
10
36.3545079212307
20
-3.8698156015048
30
0
41
1
10
35.8170760684201
20
-3.66275526269811
30
0
41
1
10
35.5497188721428
20
-3.55206804214345
30
0
41
1
10
34.7499610506305
20
-3.20078705864469
30
0
41
1
10
34.2200479318883
20
-2.94081170267575
30
0
41
1
10
33.1595301376881
20
-2.37869472935296
30
0
41
1
10
32.6288489253089
20
-2.07666086727878
30
0
41
1
10
31.9605657476546
20
-1.67842724532664
30
0
41
1
10
31.8266439802071
20
-1.59777234821831
30
0
41
1
10
31.5581534778158
20
-1.43459354168939
30
0
41
1
10
31.4235284196696
20
-1.35204254845988
30
0
41
1
10
31.0212174004644
20
-1.10341166054093
30
0
41
1
10
30.754327276736
20
-0.935643668082434
30
0
41
1
10
29.955587162161
20
-0.429500675805116
30
0
41
1
10
29.4256894652372
20
-0.0882507250338733
30
0
41
1
10
28.3648288376996
20
0.591983328480268
30
0
41
1
10
27.8334546421624
20
0.930316030450683
30
0
41
1
10
27.0298299785462
20
1.42698258336628
30
0
41
1
10
26.7602630595047
20
1.59091141896491
30
0
41
1
10
26.2248672095324
20
1.90950913414235
30
0
41
1
10
25.9583109621059
20
2.06474854635573
30
0
41
1
10
25.1602776297478
20
2.51598247839797
30
0
41
1
10
24.6306489280589
20
2.79782523108304
30
0
41
1
10
23.569027187038
20
3.31449223033849
30
0
41
1
10
23.0370554243467
20
3.54932856193523
30
0
41
1
10
22.365784722077
20
3.80723090939162
30
0
41
1
10
22.2311027275513
20
3.85707175085003
30
0
41
1
10
21.9627581330857
20
3.95245574522676
30
0
41
1
10
21.828891208199
20
3.99807673916047
30
0
41
1
10
21.4280137881
20
4.12864116866749
30
0
41
1
10
21.1617225943682
20
4.20728384954535
30
0
41
1
10
19.8576810523514
20
4.5509072618012
30
0
41
1
10
18.8270057306326
20
4.69374287441275
30
0
41
1
10
17.7769213583983
20
4.69206504725247
30
0
0
SPLINE
5
C2
100
AcDbEntity
8
1
62
256
6
ByLayer
370
18
48
1
60
0
100
AcDbSpline
70
4
71
3
72
18
73
14
40
0
40
0
40
0
40
0
40
0.250000000000004
40
0.250000000000004
40
0.375000000000006
40
0.375000000000006
40
0.500000000000008
40
0.500000000000008
40
0.750000000000006
40
0.750000000000006
40
0.875000000000003
40
0.875000000000003
40
1
40
1
40
1
40
1
41
1
10
110.31222684989
20
-4.48175016651263
30
0
41
1
10
110.216353908888
20
-4.46796455652418
30
0
41
1
10
110.127592328217
20
-4.43383461453951
30
0
41
1
10
110.006128664476
20
-4.34922900560053
30
0
41
1
10
109.967531551297
20
-4.31526892255823
30
0
41
1
10
109.896008856732
20
-4.2371323215859
30
0
41
1
10
109.862869853314
20
-4.19284714317774
30
0
41
1
10
109.771367989743
20
-4.04424525426313
30
0
41
1
10
109.72085033355
20
-3.92432133377852
30
0
41
1
10
109.662121394476
20
-3.71052115086374
30
0
41
1
10
109.645415436945
20
-3.63335943886733
30
0
41
1
10
109.618614103833
20
-3.47051184554499
30
0
41
1
10
109.60840304804
20
-3.38448411685769
30
0
41
1
10
109.601401332789
20
-3.29382397788743
30
0
0
SPLINE
5
C3
100
AcDbEntity
8
1
62
256
6
ByLayer
370
18
48
1
60
0
100
AcDbSpline
70
4
71
3
72
8
73
4
40
0
40
0
40
0
40
0
40
1
40
1
40
1
40
1
41
1
10
111.999941657399
20
0.0471451624615327
30
0
41
1
10
111.992044091154
20
0.0234179080886747
30
0
41
1
10
111.98191364417
20
-0.0007435007337335
30
0
41
1
10
111.971862494469
20
-0.0194328031070086
30
0
0
SPLINE
5
C4
100
AcDbEntity
8
1
62
256
6
ByLayer
370
18
48
1
60
0
100
AcDbSpline
70
4
71
3
72
8
73
4
40
0
40
0
40
0
40
0
40
1
40
1
40
1
40
1
41
1
10
111.971862494469
20
-0.019432803107037
30
0
41
1
10
111.934678549891
20
-0.0885733496471346
30
0
41
1
10
111.8976381616
20
-0.157842504996864
30
0
41
1
10
111.860742090434
20
-0.227239509428045
30
0
0
SPLINE
5
C5
100
AcDbEntity
8
1
62
256
6
ByLayer
370
18
48
1
60
0
100
AcDbSpline
70
4
71
3
72
8
73
4
40
0
40
0
40
0
40
0
40
1
40
1
40
1
40
1
41
1
10
110.465431421583
20
-4.6217328919823
30
0
41
1
10
110.405083113316
20
-4.68059250937864
30
0
41
1
10
110.352309813531
20
-4.71966949156786
30
0
41
1
10
110.306751455895
20
-4.73798726642568
30
0
0
SPLINE
5
C6
100
AcDbEntity
8
1
62
256
6
ByLayer
370
18
48
1
60
0
100
AcDbSpline
70
4
71
3
72
8
73
4
40
0
40
0
40
0
40
0
40
1
40
1
40
1
40
1
41
1
10
110.372798336953
20
-4.57330687383438
30
0
41
1
10
110.350796079588
20
-4.62829682139883
30
0
41
1
10
110.328779261837
20
-4.68318959962772
30
0
41
1
10
110.306751455895
20
-4.73798726642562
30
0
0
SPLINE
5
C7
100
AcDbEntity
8
1
62
256
6
ByLayer
370
18
48
1
60
0
100
AcDbSpline
70
4
71
3
72
14
73
10
40
0
40
0
40
0
40
0
40
0.25
40
0.25
40
0.5
40
0.5
40
0.75
40
0.75
40
1
40
1
40
1
40
1
41
1
10
110.389740169455
20
-4.48156128015023
30
0
41
1
10
110.39222022258
20
-4.48076051139404
30
0
41
1
10
110.394072121929
20
-4.48161066053711
30
0
41
1
10
110.396092569808
20
-4.48771280399313
30
0
41
1
10
110.396215082608
20
-4.49305097395506
30
0
41
1
10
110.393729515612
20
-4.509418992441
30
0
41
1
10
110.39105564492
20
-4.52050663092598
30
0
41
1
10
110.38319724445
20
-4.5459604053521
30
0
41
1
10
110.378123505387
20
-4.55999775158844
30
0
41
1
10
110.372798336954
20
-4.57330687383097
30
0
0
SPLINE
5
C8
100
AcDbEntity
8
1
62
256
6
ByLayer
370
18
48
1
60
0
100
AcDbSpline
70
4
71
3
72
31
73
27
40
0
40
0
40
0
40
0
40
0.0153139987690681
40
0.0153139987690681
40
0.26121339238739
40
0.26121339238739
40
0.384163089196551
40
0.384163089196551
40
0.507112786005712
40
0.537850210208003
40
0.537850210208003
40
0.553218922309148
40
0.553218922309148
40
0.56090327835972
40
0.56090327835972
40
0.568587634410292
40
0.568587634410292
40
0.630062482814873
40
0.630062482814873
40
0.753012179624035
40
0.753012179624035
40
0.875961876433195
40
0.875961876433195
40
0.998911573242357
40
0.998911573242357
40
1
40
1
40
1
40
1
41
1
10
9.07161357429683
20
2.33953702637768
30
0
41
1
10
9.07161357429686
20
2.32544595972655
30
0
41
1
10
9.07161357429686
20
2.31144394894344
30
0
41
1
10
9.07161357429686
20
2.07412158491039
30
0
41
1
10
9.07161357429686
20
1.87359753705155
30
0
41
1
10
9.07161357429686
20
1.60649449149406
30
0
41
1
10
9.07161357429686
20
1.52298896899271
30
0
41
1
10
9.07161357429686
20
1.36788788184299
30
0
41
1
10
9.07161357429683
20
1.27840798687384
30
0
41
1
10
9.07161357429686
20
1.19818938268921
30
0
41
1
10
9.07161357429686
20
1.17468031994835
30
0
41
1
10
9.07161357429686
20
1.16861220539943
30
0
41
1
10
9.07161357429686
20
1.16681664167524
30
0
41
1
10
9.07161357429689
20
1.16728131525372
30
0
41
1
10
9.07161357429689
20
1.17197652291165
30
0
41
1
10
9.07161357429692
20
1.17536286154694
30
0
41
1
10
9.07161357429692
20
1.2020493912442
30
0
41
1
10
9.07161357429686
20
1.22747307897086
30
0
41
1
10
9.07161357429686
20
1.3086943671486
30
0
41
1
10
9.07161357429686
20
1.36953695764825
30
0
41
1
10
9.07161357429686
20
1.50556564674747
30
0
41
1
10
9.07161357429686
20
1.58082961109312
30
0
41
1
10
9.07161357429686
20
1.74654044047426
30
0
41
1
10
9.07161357429686
20
1.83692034576816
30
0
41
1
10
9.07161357429686
20
1.93636244283161
30
0
41
1
10
9.07161357429686
20
1.93723567487868
30
0
41
1
10
9.07161357429686
20
1.93810954157325
30
0
0
SPLINE
5
C9
100
AcDbEntity
8
1
62
256
6
ByLayer
370
18
48
1
60
0
100
AcDbSpline
70
4
71
3
72
118
73
114
40
0
40
0
40
0
40
0
40
0.0076482909921134
40
0.0076482909921134
40
0.0201439139244955
40
0.0201439139244955
40
0.0451351597892597
40
0.0451351597892597
40
0.0701264056540239
40
0.0701264056540239
40
0.082622028586405
40
0.082622028586405
40
0.095117651518786
40
0.095117651518786
40
0.107613274451167
40
0.107613274451167
40
0.120108897383548
40
0.120108897383548
40
0.14510014324831
40
0.14510014324831
40
0.157595766180691
40
0.157595766180691
40
0.170091389113071
40
0.170091389113071
40
0.195082634977829
40
0.195082634977829
40
0.220073880842587
40
0.220073880842587
40
0.245065126707346
40
0.245065126707346
40
0.257560749639725
40
0.257560749639725
40
0.270056372572104
40
0.270056372572104
40
0.295047618436861
40
0.295047618436861
40
0.320038864301617
40
0.320038864301617
40
0.332534487233995
40
0.332534487233995
40
0.345030110166373
40
0.345030110166373
40
0.37002135603113
40
0.37002135603113
40
0.395012601895886
40
0.395012601895886
40
0.407508224828264
40
0.407508224828264
40
0.420003847760642
40
0.420003847760642
40
0.444995093625399
40
0.444995093625399
40
0.469986339490155
40
0.469986339490155
40
0.494977585354912
40
0.494977585354912
40
0.519968831219668
40
0.519968831219668
40
0.544960077084425
40
0.544960077084425
40
0.569951322949181
40
0.569951322949181
40
0.58244694588156
40
0.58244694588156
40
0.594942568813938
40
0.594942568813938
40
0.619933814678696
40
0.619933814678696
40
0.632429437611074
40
0.632429437611074
40
0.644925060543453
40
0.644925060543453
40
0.657420683475832
40
0.657420683475832
40
0.669916306408211
40
0.669916306408211
40
0.694907552272968
40
0.694907552272968
40
0.719898798137725
40
0.719898798137725
40
0.732394421070104
40
0.732394421070104
40
0.744890044002483
40
0.744890044002483
40
0.769881289867239
40
0.769881289867239
40
0.794872535731995
40
0.794872535731995
40
0.819863781596752
40
0.819863781596752
40
0.83235940452913
40
0.83235940452913
40
0.844855027461508
40
0.844855027461508
40
0.869846273326265
40
0.869846273326265
40
0.894837519191021
40
0.894837519191021
40
0.907333142123399
40
0.907333142123399
40
0.919828765055776
40
0.919828765055776
40
0.932324387988154
40
0.932324387988154
40
0.944820010920532
40
0.944820010920532
40
0.969811256785288
40
0.969811256785288
40
0.982306879717667
40
0.982306879717667
40
0.994802502650046
40
0.994802502650046
40
1
40
1
40
1
40
1
41
1
10
100.716673075741
20
-2.15851566686274
30
0
41
1
10
100.63732471225
20
-2.20102034501338
30
0
41
1
10
100.557848145206
20
-2.24314649296153
30
0
41
1
10
100.348399343595
20
-2.35296421445307
30
0
41
1
10
100.219063426469
20
-2.4203374619492
30
0
41
1
10
99.8322641327646
20
-2.61868125102112
30
0
41
1
10
99.5749923786261
20
-2.74416914583412
30
0
41
1
10
99.0615679524109
20
-2.98522506822334
30
0
41
1
10
98.8055087002457
20
-3.101019640375
30
0
41
1
10
98.4219575567683
20
-3.26534352942383
30
0
41
1
10
98.2940919729301
20
-3.31843230281572
30
0
41
1
10
98.0381540969494
20
-3.42107633726633
30
0
41
1
10
97.9098586053704
20
-3.47036807563532
30
0
41
1
10
97.6542578631287
20
-3.56721716450284
30
0
41
1
10
97.5266558910963
20
-3.61452283917922
30
0
41
1
10
97.2707625989007
20
-3.70538816347661
30
0
41
1
10
97.1426006116677
20
-3.74903955344683
30
0
41
1
10
96.7575760272201
20
-3.87447715355134
30
0
41
1
10
96.500456943323
20
-3.95074534313
30
0
41
1
10
96.113602527976
20
-4.05482608639474
30
0
41
1
10
95.9844836570562
20
-4.08798545905159
30
0
41
1
10
95.7254164366407
20
-4.1505664272284
30
0
41
1
10
95.595456363027
20
-4.17995295840549
30
0
41
1
10
95.2067889177633
20
-4.26152212771848
30
0
41
1
10
94.9502459751628
20
-4.30734088243764
30
0
41
1
10
94.436459496448
20
-4.38288697647005
30
0
41
1
10
94.1799344034925
20
-4.41339345896546
30
0
41
1
10
93.6681125571702
20
-4.45756040269652
30
0
41
1
10
93.4128907076274
20
-4.47055788894232
30
0
41
1
10
93.0289566985363
20
-4.478282822045
30
0
41
1
10
92.9005995163134
20
-4.47900038103606
30
0
41
1
10
92.6449549782618
20
-4.47642358516427
30
0
41
1
10
92.5172535324039
20
-4.4731521829591
30
0
41
1
10
92.1331111292069
20
-4.45707255391903
30
0
41
1
10
91.8760374183514
20
-4.43740233540936
30
0
41
1
10
91.3608143520009
20
-4.38169272787201
30
0
41
1
10
91.1021789457511
20
-4.34623451874916
30
0
41
1
10
90.7135093340844
20
-4.2806458590025
30
0
41
1
10
90.584166105971
20
-4.25671059688483
30
0
41
1
10
90.3258342954176
20
-4.20482758092871
30
0
41
1
10
90.1973191507235
20
-4.17666939799881
30
0
41
1
10
89.8122505404003
20
-4.08687661208887
30
0
41
1
10
89.5555315406135
20
-4.020704623239
30
0
41
1
10
89.0432586281606
20
-3.87360269472373
30
0
41
1
10
88.7878011623553
20
-3.79178901985205
30
0
41
1
10
88.4045598078217
20
-3.65919844547304
30
0
41
1
10
88.2766974636893
20
-3.61356251139117
30
0
41
1
10
88.0206452217402
20
-3.51949314825393
30
0
41
1
10
87.892225429768
20
-3.47126855662051
30
0
41
1
10
87.508595585093
20
-3.31947735530773
30
0
41
1
10
87.2524719125124
20
-3.21119461338762
30
0
41
1
10
86.7376323441128
20
-2.98399388144747
30
0
41
1
10
86.4795837275328
20
-2.86471472834865
30
0
41
1
10
85.9615478573303
20
-2.6141583241313
30
0
41
1
10
85.7032944300623
20
-2.48336035847675
30
0
41
1
10
85.1877394591586
20
-2.21648697686186
30
0
41
1
10
84.9320077179225
20
-2.07761949743593
30
0
41
1
10
84.4195212777496
20
-1.79601859855723
30
0
41
1
10
84.1637312454612
20
-1.65153231086967
30
0
41
1
10
83.6526134196771
20
-1.35680701814107
30
0
41
1
10
83.3973352845812
20
-1.20659599571394
30
0
41
1
10
83.01308420159
20
-0.97951197731723
30
0
41
1
10
82.8845930808076
20
-0.903818192832375
30
0
41
1
10
82.6286648037845
20
-0.749151226329644
30
0
41
1
10
82.5006514182674
20
-0.671145404865456
30
0
41
1
10
82.1154914653827
20
-0.437218716803926
30
0
41
1
10
81.8575193569012
20
-0.280863586224484
30
0
41
1
10
81.4695045134965
20
-0.0441355267810479
30
0
41
1
10
81.3397210746186
20
0.0351394634208475
30
0
41
1
10
81.0812919797744
20
0.193328235331791
30
0
41
1
10
80.9524571412885
20
0.272241141756865
30
0
41
1
10
80.6948332293708
20
0.428936876120503
30
0
41
1
10
80.5660895812393
20
0.506793986316438
30
0
41
1
10
80.3087598609895
20
0.661509153842388
30
0
41
1
10
80.1807524150819
20
0.739335938109917
30
0
41
1
10
79.7968594841775
20
0.970981746125119
30
0
41
1
10
79.5409323994175
20
1.12248071520932
30
0
41
1
10
79.0296917738483
20
1.42115401670861
30
0
41
1
10
78.7743080014633
20
1.56854497819225
30
0
41
1
10
78.3909317954184
20
1.78524067194027
30
0
41
1
10
78.2629844773172
20
1.85658730659964
30
0
41
1
10
78.0066817838842
20
1.99716785733088
30
0
41
1
10
77.8781021432724
20
2.06603207271132
30
0
41
1
10
77.4938548290971
20
2.27287154926807
30
0
41
1
10
77.2368509704796
20
2.40702240851178
30
0
41
1
10
76.720151584042
20
2.66616598184652
30
0
41
1
10
76.4604558905734
20
2.79199883048872
30
0
41
1
10
75.9450533223593
20
3.03022429045214
30
0
41
1
10
75.6880237109392
20
3.14367825927709
30
0
41
1
10
75.3025933954571
20
3.304140473426
30
0
41
1
10
75.1747887714419
20
3.35674926334633
30
0
41
1
10
74.9191753664884
20
3.45821095533407
30
0
41
1
10
74.7914024874577
20
3.50699481063987
30
0
41
1
10
74.4079335137162
20
3.6477058330288
30
0
41
1
10
74.152318455844
20
3.73524349277088
30
0
41
1
10
73.6411996508533
20
3.89757328128763
30
0
41
1
10
73.385768367147
20
3.97214292861207
30
0
41
1
10
73.0009054226822
20
4.07112539610415
30
0
41
1
10
72.8721611567142
20
4.10206101164229
30
0
41
1
10
72.6156410257649
20
4.16152967411065
30
0
41
1
10
72.4872145840998
20
4.18953453136714
30
0
41
1
10
72.2295845765399
20
4.24158037388236
30
0
41
1
10
72.1004040677763
20
4.26564070326174
30
0
41
1
10
71.8414486073207
20
4.30966952250554
30
0
41
1
10
71.7117389873696
20
4.32964074876514
30
0
41
1
10
71.3242144715321
20
4.38275621292786
30
0
41
1
10
71.0672048508757
20
4.41004195603102
30
0
41
1
10
70.6819878487922
20
4.43897365932889
30
0
41
1
10
70.5536420501108
20
4.44654365630521
30
0
41
1
10
70.2970485789479
20
4.45741167025153
30
0
41
1
10
70.169438348326
20
4.46079301645165
30
0
41
1
10
69.9886156249249
20
4.46269103418743
30
0
41
1
10
69.9354804397569
20
4.46291277897328
30
0
41
1
10
69.88233301837
20
4.4627971794047
30
0
0
SPLINE
5
CA
100
AcDbEntity
8
1
62
256
6
ByLayer
370
18
48
1
60
0
100
AcDbSpline
70
4
71
3
72
116
73
112
40
0
40
0
40
0
40
0
40
0.0029248579623729
40
0.0029248579623729
40
0.0281391838575549
40
0.0281391838575549
40
0.0533535097527373
40
0.0533535097527373
40
0.0659606727003281
40
0.0659606727003281
40
0.078567835647919
40
0.078567835647919
40
0.1037821615431
40
0.1037821615431
40
0.128996487438281
40
0.128996487438281
40
0.141603650385872
40
0.141603650385872
40
0.154210813333463
40
0.154210813333463
40
0.179425139228645
40
0.179425139228645
40
0.204639465123827
40
0.204639465123827
40
0.217246628071417
40
0.217246628071417
40
0.229853791019008
40
0.229853791019008
40
0.25506811691419
40
0.25506811691419
40
0.280282442809372
40
0.280282442809372
40
0.305496768704554
40
0.305496768704554
40
0.318103931652145
40
0.318103931652145
40
0.330711094599736
40
0.330711094599736
40
0.355925420494918
40
0.355925420494918
40
0.3811397463901
40
0.3811397463901
40
0.393746909337691
40
0.393746909337691
40
0.406354072285282
40
0.406354072285282
40
0.431568398180463
40
0.431568398180463
40
0.456782724075644
40
0.456782724075644
40
0.469389887023235
40
0.469389887023235
40
0.481997049970825
40
0.481997049970825
40
0.507211375866008
40
0.507211375866008
40
0.53242570176119
40
0.53242570176119
40
0.557640027656372
40
0.557640027656372
40
0.582854353551554
40
0.582854353551554
40
0.608068679446736
40
0.608068679446736
40
0.620675842394326
40
0.620675842394326
40
0.633283005341917
40
0.633283005341917
40
0.645890168289508
40
0.645890168289508
40
0.658497331237099
40
0.658497331237099
40
0.683711657132281
40
0.683711657132281
40
0.696318820079872
40
0.696318820079872
40
0.708925983027462
40
0.708925983027462
40
0.734140308922644
40
0.734140308922644
40
0.759354634817826
40
0.759354634817826
40
0.784568960713008
40
0.784568960713008
40
0.797176123660599
40
0.797176123660599
40
0.809783286608189
40
0.809783286608189
40
0.83499761250337
40
0.83499761250337
40
0.860211938398551
40
0.860211938398551
40
0.872819101346142
40
0.872819101346142
40
0.885426264293733
40
0.885426264293733
40
0.910640590188916
40
0.910640590188916
40
0.935854916084099
40
0.935854916084099
40
0.94846207903169
40
0.94846207903169
40
0.961069241979282
40
0.961069241979282
40
0.973676404926873
40
0.973676404926873
40
0.986283567874465
40
0.986283567874465
40
0.998890730822057
40
0.998890730822057
40
1
40
1
40
1
40
1
41
1
10
54.7169963669163
20
-2.14899934940377
30
0
41
1
10
54.6872865008948
20
-2.16480392165695
30
0
41
1
10
54.6575683210155
20
-2.18054654918328
30
0
41
1
10
54.3715714404245
20
-2.33140913352818
30
0
41
1
10
54.1150000835004
20
-2.46277671975554
30
0
41
1
10
53.6010520829282
20
-2.7175680338232
30
0
41
1
10
53.3436919630559
20
-2.840824516883
30
0
41
1
10
52.9551418933592
20
-3.01611736298352
30
0
41
1
10
52.8251399064618
20
-3.07316048697939
30
0
41
1
10
52.566016069409
20
-3.1859400785261
30
0
41
1
10
52.4366289317522
20
-3.2406585518429
30
0
41
1
10
52.0488452353829
20
-3.39963984350447
30
0
41
1
10
51.7908929502511
20
-3.49893951658009
30
0
41
1
10
51.2771708841378
20
-3.68235035149382
30
0
41
1
10
51.021136260259
20
-3.76776731871121
30
0
41
1
10
50.6365581072095
20
-3.88548301645787
30
0
41
1
10
50.5082570720893
20
-3.92295069596213
30
0
41
1
10
50.2517365070928
20
-3.99423295389954
30
0
41
1
10
50.1241802233588
20
-4.02839015270513
30
0
41
1
10
49.7404386318326
20
-4.12351527877962
30
0
41
1
10
49.483785108316
20
-4.17913768726518
30
0
41
1
10
48.9699541483488
20
-4.27679718428814
30
0
41
1
10
48.7127668895209
20
-4.31841130786083
30
0
41
1
10
48.3253223599122
20
-4.36711482111386
30
0
41
1
10
48.1958084572961
20
-4.38115599896693
30
0
41
1
10
47.9360589834784
20
-4.40564015862176
30
0
41
1
10
47.8058596275645
20
-4.41602973300365
30
0
41
1
10
47.4179391868657
20
-4.44131641856816
30
0
41
1
10
47.1597803457078
20
-4.45010324716182
30
0
41
1
10
46.6450538913957
20
-4.44903165140357
30
0
41
1
10
46.3885502266942
20
-4.43998432503309
30
0
41
1
10
45.8761945276859
20
-4.40722646334967
30
0
41
1
10
45.619784249657
20
-4.38350652610984
30
0
41
1
10
45.2351321521649
20
-4.33435918732255
30
0
41
1
10
45.1075596976418
20
-4.31541353472446
30
0
41
1
10
44.8515276404303
20
-4.27423652543598
30
0
41
1
10
44.7233116962744
20
-4.25192411792378
30
0
41
1
10
44.3380607995326
20
-4.17955694718154
30
0
41
1
10
44.0808281295113
20
-4.12405333366866
30
0
41
1
10
43.5650199907765
20
-3.99531563607863
30
0
41
1
10
43.3059051718318
20
-3.92211206584267
30
0
41
1
10
42.9160087629214
20
-3.80367823062142
30
0
41
1
10
42.7863553806601
20
-3.76254980407933
30
0
41
1
10
42.5282604831807
20
-3.67625580494837
30
0
41
1
10
42.3993571257749
20
-3.63153186318138
30
0
41
1
10
42.0129920483598
20
-3.49235747141785
30
0
41
1
10
41.7559573062823
20
-3.39293890207057
30
0
41
1
10
41.2429813270664
20
-3.18302448349721
30
0
41
1
10
40.9871973739719
20
-3.07183348445253
30
0
41
1
10
40.6027258836455
20
-2.89771690047613
30
0
41
1
10
40.474341138374
20
-2.83862712641817
30
0
41
1
10
40.2178823849651
20
-2.71745693522064
30
0
41
1
10
40.0901987198571
20
-2.65485214753534
30
0
41
1
10
39.7057889181402
20
-2.46474959515896
30
0
41
1
10
39.4485708518103
20
-2.33379229925407
30
0
41
1
10
38.933218670437
20
-2.06145787314443
30
0
41
1
10
38.675022666406
20
-1.92027948149635
30
0
41
1
10
38.1559035596317
20
-1.63116316055593
30
0
41
1
10
37.8957808658287
20
-1.48471229816113
30
0
41
1
10
37.3805829733243
20
-1.18429758510678
30
0
41
1
10
37.1232065066612
20
-1.03313543536854
30
0
41
1
10
36.6093765576148
20
-0.728190749620524
30
0
41
1
10
36.3531268847851
20
-0.574039132291574
30
0
41
1
10
35.969093774069
20
-0.341327046885709
30
0
41
1
10
35.8410369719101
20
-0.263689011518977
30
0
41
1
10
35.5846030396267
20
-0.108682853759063
30
0
41
1
10
35.4560800117268
20
-0.031560486491486
30
0
41
1
10
35.1995610482027
20
0.123844561639316
30
0
41
1
10
35.0717245244741
20
0.202400278975034
30
0
41
1
10
34.8151356718621
20
0.35827217287661
30
0
41
1
10
34.6865984489671
20
0.43595279249692
30
0
41
1
10
34.3002678121219
20
0.668242919734723
30
0
41
1
10
34.0421125428432
20
0.82264707021136
30
0
41
1
10
33.6535982489111
20
1.05293536097824
30
0
41
1
10
33.5237022206336
20
1.1296492689215
30
0
41
1
10
33.2642057014872
20
1.28112912762296
30
0
41
1
10
33.1346439953632
20
1.35592956926303
30
0
41
1
10
32.7464537188126
20
1.57741330459757
30
0
41
1
10
32.4897498488727
20
1.72366963570113
30
0
41
1
10
31.9757621857025
20
2.00646115051296
30
0
41
1
10
31.7190702898687
20
2.14388631880135
30
0
41
1
10
31.2066832341428
20
2.41042636411211
30
0
41
1
10
30.9509736404622
20
2.53971803401725
30
0
41
1
10
30.5661790152854
20
2.72576266429417
30
0
41
1
10
30.4375420238244
20
2.78619815174957
30
0
41
1
10
30.1810388273325
20
2.90576114014149
30
0
41
1
10
30.0530409358239
20
2.96469435652048
30
0
41
1
10
29.6677248453685
20
3.13607890766249
30
0
41
1
10
29.4096826459463
20
3.24399643933273
30
0
41
1
10
28.8923996106864
20
3.45012500873261
30
0
41
1
10
28.6323253284448
20
3.54795807456245
30
0
41
1
10
28.2440364505857
20
3.68233210526321
30
0
41
1
10
28.1147857183487
20
3.72505116577201
30
0
41
1
10
27.8564800052233
20
3.8068558390822
30
0
41
1
10
27.7278171965878
20
3.84643691162637
30
0
41
1
10
27.3424560113351
20
3.96027224737253
30
0
41
1
10
27.0855477908116
20
4.02858446132208
30
0
41
1
10
26.5727256435908
20
4.14863149670262
30
0
41
1
10
26.316783711762
20
4.20066962872406
30
0
41
1
10
25.9326713175104
20
4.26819707435763
30
0
41
1
10
25.8045114548949
20
4.28881462615752
30
0
41
1
10
25.5478165659368
20
4.3260905407611
30
0
41
1
10
25.4190569597974
20
4.34256287248553
30
0
41
1
10
25.1624621011631
20
4.37132498688783
30
0
41
1
10
25.0342436289719
20
4.38359486617293
30
0
41
1
10
24.7769668937736
20
4.40431585089911
30
0
41
1
10
24.6480190650095
20
4.41277172666295
30
0
41
1
10
24.389624898111
20
4.42596569641847
30
0
41
1
10
24.260251261685
20
4.4306797691977
30
0
41
1
10
24.1192536453339
20
4.43348060334466
30
0
41
1
10
24.1078472870321
20
4.43369010796897
30
0
41
1
10
24.0964379315853
20
4.4338824420212
30
0
0
SPLINE
5
CB
100
AcDbEntity
8
1
62
256
6
ByLayer
370
18
48
1
60
0
100
AcDbSpline
70
4
71
3
72
8
73
4
40
0
40
0
40
0
40
0
40
1
40
1
40
1
40
1
41
1
10
8.74132044794544
20
-2.29768819656067
30
0
41
1
10
8.5710253833422
20
-2.48046425806029
30
0
41
1
10
8.4076530652828
20
-2.65873844105624
30
0
41
1
10
8.24997831566478
20
-2.83064056984989
30
0
0
SPLINE
5
CC
100
AcDbEntity
8
1
62
256
6
ByLayer
370
18
48
1
60
0
100
AcDbSpline
70
4
71
3
72
14
73
10
40
0
40
0
40
0
40
0
40
0.25
40
0.25
40
0.5
40
0.5
40
0.75
40
0.75
40
1
40
1
40
1
40
1
41
1
10
110.230895145228
20
1.08264123021985
30
0
41
1
10
110.226913050155
20
1.09755381090349
30
0
41
1
10
110.225409665363
20
1.11325564672265
30
0
41
1
10
110.23050170668
20
1.14341825766434
30
0
41
1
10
110.237432359241
20
1.15791800053802
30
0
41
1
10
110.258923089292
20
1.18045789534463
30
0
41
1
10
110.272872435122
20
1.18823345485563
30
0
41
1
10
110.301929988729
20
1.19778535421165
30
0
41
1
10
110.317374142612
20
1.19982075773612
30
0
41
1
10
110.332749523237
20
1.19997774723561
30
0
0
SPLINE
5
CD
100
AcDbEntity
8
1
62
256
6
ByLayer
370
18
48
1
60
0
100
AcDbSpline
70
4
71
3
72
14
73
10
40
0
40
0
40
0
40
0
40
0.25
40
0.25
40
0.5
40
0.5
40
0.75
40
0.75
40
1
40
1
40
1
40
1
41
1
10
7.99999953046449
20
-0.949680306183069
30
0
41
1
10
7.99999953046449
20
-0.966463221463698
30
0
41
1
10
8.00253262028735
20
-0.983644137017762
30
0
41
1
10
8.01263011011335
20
-1.01673832009666
30
0
41
1
10
8.02007191424133
20
-1.03259810515385
30
0
41
1
10
8.03989890943336
20
-1.06291164145753
30
0
41
1
10
8.05251031573579
20
-1.07751487957751
30
0
41
1
10
8.08197197346595
20
-1.103522342525
30
0
41
1
10
8.09880213176803
20
-1.11506497270261
30
0
41
1
10
8.11807633869714
20
-1.12492075825406
30
0
0
SPLINE
5
CE
100
AcDbEntity
8
1
62
256
6
ByLayer
370
13
48
1
60
0
100
AcDbSpline
70
4
71
3
72
10
73
6
40
0
40
0
40
0
40
0
40
0.5
40
0.5
40
1
40
1
40
1
40
1
41
1
10
8.11807633869714
20
-1.02314912516718
30
0
41
1
10
8.13813406187546
20
-1.0273009886773
30
0
41
1
10
8.1598817604303
20
-1.03269523641444
30
0
41
1
10
8.20432688193665
20
-1.04532643704553
30
0
41
1
10
8.22704363694811
20
-1.05254267672942
30
0
41
1
10
8.25024496019819
20
-1.06071715199226
30
0
0
SPLINE
5
CF
100
AcDbEntity
8
1
62
256
6
ByLayer
370
18
48
1
60
0
100
AcDbSpline
70
4
71
3
72
10
73
6
40
0
40
0
40
0
40
0
40
0.5
40
0.5
40
1
40
1
40
1
40
1
41
1
10
107.796630855524
20
-2.0121547749859
30
0
41
1
10
108.076304804503
20
-2.26947744537122
30
0
41
1
10
108.369179415992
20
-2.50260684142066
30
0
41
1
10
108.976113975319
20
-2.93003859329897
30
0
41
1
10
109.286373884623
20
-3.12152412539049
30
0
41
1
10
109.601401332789
20
-3.29382397788743
30
0
0
SPLINE
5
D0
100
AcDbEntity
8
1
62
256
6
ByLayer
370
18
48
1
60
0
100
AcDbSpline
70
4
71
3
72
46
73
42
40
0
40
0
40
0
40
0
40
0.0338936982892567
40
0.0338936982892567
40
0.0677873965785133
40
0.0677873965785133
40
0.135574793157027
40
0.135574793157027
40
0.20336218973554
40
0.20336218973554
40
0.237255888024797
40
0.237255888024797
40
0.271149586314053
40
0.271149586314053
40
0.406724379471082
40
0.406724379471082
40
0.42367122861571
40
0.42367122861571
40
0.440618077760339
40
0.440618077760339
40
0.474511776049594
40
0.474511776049594
40
0.542299172628107
40
0.542299172628107
40
0.610086569206619
40
0.610086569206619
40
0.643980267495874
40
0.643980267495874
40
0.677873965785128
40
0.677873965785128
40
0.813448758942145
40
0.813448758942145
40
0.830395608086773
40
0.830395608086773
40
0.847342457231401
40
0.847342457231401
40
0.881236155520656
40
0.881236155520656
40
0.949023552099167
40
0.949023552099167
40
1
40
1
40
1
40
1
41
1
10
110.306751455895
20
-4.73798726642568
30
0
41
1
10
110.03956264234
20
-4.75011145165414
30
0
41
1
10
109.772400712489
20
-4.75272365706667
30
0
41
1
10
109.237355245134
20
-4.73894604338696
30
0
41
1
10
108.968843010839
20
-4.72247582631118
30
0
41
1
10
108.166910344427
20
-4.64507499251235
30
0
41
1
10
107.636738763637
20
-4.55635967220962
30
0
41
1
10
106.577558357428
20
-4.30973066671459
30
0
41
1
10
106.048500956047
20
-4.15187802478528
30
0
41
1
10
105.25049131363
20
-3.86636573429195
30
0
41
1
10
104.983705754188
20
-3.76310335049504
30
0
41
1
10
104.44764523567
20
-3.54089392843426
30
0
41
1
10
104.180381518414
20
-3.42274518001238
30
0
41
1
10
102.849994246526
20
-2.80199325953643
30
0
41
1
10
101.79991974002
20
-2.20763718733065
30
0
41
1
10
100.600939869937
20
-1.47397099734553
30
0
41
1
10
100.467474474751
20
-1.39154789151502
30
0
41
1
10
100.19994274707
20
-1.22503249814588
30
0
41
1
10
100.06566878256
20
-1.14079421139005
30
0
41
1
10
99.6640788411576
20
-0.887161567228105
30
0
41
1
10
99.3976146141394
20
-0.716720333397205
30
0
41
1
10
98.6005728401229
20
-0.203581883976057
30
0
41
1
10
98.072167335333
20
0.140648759695068
30
0
41
1
10
97.0141704083886
20
0.822293175684905
30
0
41
1
10
96.4845784301619
20
1.15970526787581
30
0
41
1
10
95.6837295401352
20
1.65196694927934
30
0
41
1
10
95.4149151538077
20
1.8141568948636
30
0
41
1
10
94.8806179068854
20
2.12862404662118
30
0
41
1
10
94.6145950562176
20
2.2812643675482
30
0
41
1
10
93.2876503947127
20
3.01861391969444
30
0
41
1
10
92.2363087531036
20
3.52613546784147
30
0
41
1
10
91.0322651224637
20
3.96432972362646
30
0
41
1
10
90.8979714159836
20
4.0112254779263
30
0
41
1
10
90.6302074028532
20
4.10063679330361
30
0
41
1
10
90.4966286588111
20
4.14319821287685
30
0
41
1
10
90.0966338437942
20
4.26440685911771
30
0
41
1
10
89.8309710247427
20
4.3365879772085
30
0
41
1
10
89.035563127121
20
4.52677234534636
30
0
41
1
10
88.5073621496778
20
4.61841745620552
30
0
41
1
10
87.5792599041664
20
4.71498896206197
30
0
41
1
10
87.1800394642362
20
4.73578531324097
30
0
41
1
10
86.7783448098651
20
4.73519476681037
30
0
0
SPLINE
5
D1
100
AcDbEntity
8
1
62
256
6
ByLayer
370
18
48
1
60
0
100
AcDbSpline
70
4
71
3
72
52
73
48
40
0
40
0
40
0
40
0
40
0.0206386060071662
40
0.0206386060071662
40
0.0835594331759572
40
0.0835594331759572
40
0.0992896399681539
40
0.0992896399681539
40
0.115019846760351
40
0.115019846760351
40
0.146480260344746
40
0.146480260344746
40
0.272321914682323
40
0.272321914682323
40
0.303782328266717
40
0.303782328266717
40
0.335242741851111
40
0.335242741851111
40
0.398163569019898
40
0.398163569019898
40
0.461084396188685
40
0.461084396188685
40
0.476814602980881
40
0.476814602980881
40
0.492544809773076
40
0.492544809773076
40
0.524005223357469
40
0.524005223357469
40
0.649846877695035
40
0.649846877695035
40
0.712767704863818
40
0.712767704863818
40
0.775688532032601
40
0.775688532032601
40
0.807148945616993
40
0.807148945616993
40
0.822879152409188
40
0.822879152409188
40
0.838609359201383
40
0.838609359201383
40
0.901530186370166
40
0.901530186370166
40
0.964451013538948
40
0.964451013538948
40
0.99591142712334
40
0.99591142712334
40
1
40
1
40
1
40
1
41
1
10
66.1590685376541
20
-4.47679973939529
30
0
41
1
10
65.9852847526524
20
-4.51237174531445
30
0
41
1
10
65.8116004851331
20
-4.54413174100355
30
0
41
1
10
65.1082402736536
20
-4.65706711877957
30
0
41
1
10
64.5786699913687
20
-4.70633372010607
30
0
41
1
10
63.9115750871446
20
-4.72101233372822
30
0
41
1
10
63.7779152872296
20
-4.7216065626094
30
0
41
1
10
63.510054746546
20
-4.71804575978197
30
0
41
1
10
63.3756432033437
20
-4.71387445348907
30
0
41
1
10
62.9736345858064
20
-4.69429076358014
30
0
41
1
10
62.7068017309689
20
-4.6718394541931
30
0
41
1
10
61.3764090672099
20
-4.51412727882411
30
0
41
1
10
60.3243477476986
20
-4.24262224767517
30
0
41
1
10
58.9875182640967
20
-3.74206969288136
30
0
41
1
10
58.718314853227
20
-3.63352825816537
30
0
41
1
10
58.1833457975762
20
-3.40360249838048
30
0
41
1
10
57.9169555512692
20
-3.2820984089428
30
0
41
1
10
57.1196191391741
20
-2.89994244217215
30
0
41
1
10
56.5907322989927
20
-2.62137591436087
30
0
41
1
10
55.5305591178821
20
-2.02692559983618
30
0
41
1
10
54.9994873262307
20
-1.71075158088354
30
0
41
1
10
54.3295476434296
20
-1.29817320610053
30
0
41
1
10
54.1950567642083
20
-1.2146439291424
30
0
41
1
10
53.9269212792604
20
-1.04693771006157
30
0
41
1
10
53.7931691020589
20
-0.962701838932844
30
0
41
1
10
53.3926363315619
20
-0.709197659963024
30
0
41
1
10
53.1265702364059
20
-0.539147271842353
30
0
41
1
10
51.7989229564312
20
0.31304998759893
30
0
41
1
10
50.7454006658319
20
1.00105978610844
30
0
41
1
10
49.1337222818085
20
1.97254086647715
30
0
41
1
10
48.6009425764381
20
2.2802047094294
30
0
41
1
10
47.5395588653258
20
2.85253366695847
30
0
41
1
10
47.010549888294
20
3.11756207184092
30
0
41
1
10
46.2140732820644
20
3.47663645642567
30
0
41
1
10
45.9480808327216
20
3.58990744288127
30
0
41
1
10
45.5476490746519
20
3.74930974772579
30
0
41
1
10
45.413936676772
20
3.80069850584334
30
0
41
1
10
45.1459408146164
20
3.89984751883424
30
0
41
1
10
45.0114330688217
20
3.94767054574174
30
0
41
1
10
44.3407500604817
20
4.17596220141718
30
0
41
1
10
43.8090907450115
20
4.324661939343
30
0
41
1
10
42.7482745636337
20
4.55169132562568
30
0
41
1
10
42.21902240951
20
4.62997535574868
30
0
41
1
10
41.4216792695359
20
4.69231965748986
30
0
41
1
10
41.1552811643479
20
4.7039044763616
30
0
41
1
10
40.8530397581959
20
4.70636052637545
30
0
41
1
10
40.8182462713918
20
4.70648259353695
30
0
41
1
10
40.7834284299322
20
4.70644450626978
30
0
0
SPLINE
5
D2
100
AcDbEntity
8
1
62
256
6
ByLayer
370
18
48
1
60
0
100
AcDbSpline
70
4
71
3
72
26
73
22
40
0
40
0
40
0
40
0
40
0.204559884607431
40
0.204559884607431
40
0.270846560890144
40
0.270846560890144
40
0.337133237172858
40
0.337133237172858
40
0.469706589738284
40
0.469706589738284
40
0.60227994230371
40
0.60227994230371
40
0.635423280445068
40
0.635423280445068
40
0.668566618586424
40
0.668566618586424
40
0.73485329486914
40
0.73485329486914
40
0.86742664743457
40
0.86742664743457
40
1
40
1
40
1
40
1
41
1
10
20.1726589034853
20
-4.44677007390627
30
0
41
1
10
19.3536977087866
20
-4.61436518318229
30
0
41
1
10
18.5372968466657
20
-4.69792777140054
30
0
41
1
10
17.4417476886474
20
-4.68976344743231
30
0
41
1
10
17.1722194770969
20
-4.67823183214898
30
0
41
1
10
16.6369862543678
20
-4.6366192000919
30
0
41
1
10
16.3704039188239
20
-4.60656357266899
30
0
41
1
10
15.57238164195
20
-4.48952973901743
30
0
41
1
10
15.0426960525737
20
-4.37567516805851
30
0
41
1
10
13.9805151820945
20
-4.08068932182135
30
0
41
1
10
13.4482985341321
20
-3.89934474355897
30
0
41
1
10
12.7765451067066
20
-3.6331014670028
30
0
41
1
10
12.6418938417556
20
-3.57787439748472
30
0
41
1
10
12.3736471965046
20
-3.46432319036853
30
0
41
1
10
12.2398257606217
20
-3.40590989408133
30
0
41
1
10
11.8390888665578
20
-3.22600573277637
30
0
41
1
10
11.5728928721671
20
-3.09986099763736
30
0
41
1
10
10.7758611418721
20
-2.70464826894875
30
0
41
1
10
10.2467051216944
20
-2.41864227427737
30
0
41
1
10
9.18518846128444
20
-1.81178966251863
30
0
41
1
10
8.65267463287947
20
-1.49120658271178
30
0
41
1
10
8.11518060136282
20
-1.1575950900264
30
0
0
SPLINE
5
D3
100
AcDbEntity
8
1
62
256
6
ByLayer
370
18
48
1
60
0
100
AcDbSpline
70
4
71
3
72
30
73
26
40
0
40
0
40
0
40
0
40
0.103412731624203
40
0.103412731624203
40
0.155119097436305
40
0.155119097436305
40
0.206825463248406
40
0.206825463248406
40
0.31023819487261
40
0.31023819487261
40
0.413650926496813
40
0.413650926496813
40
0.465357292308915
40
0.465357292308915
40
0.517063658121018
40
0.517063658121018
40
0.620476389745225
40
0.620476389745225
40
0.723889121369432
40
0.723889121369432
40
0.82730185299364
40
0.82730185299364
40
0.930714584617847
40
0.930714584617847
40
1
40
1
40
1
40
1
41
1
10
9.07161357429686
20
-2.33953702635245
30
0
41
1
10
9.33756707709682
20
-2.4892874778559
30
0
41
1
10
9.60325206913404
20
-2.63235282925797
30
0
41
1
10
10.0018514180091
20
-2.8369617623745
30
0
41
1
10
10.1346675790458
20
-2.90358729839988
30
0
41
1
10
10.3993859847315
20
-3.03468819092382
30
0
41
1
10
10.5310239094883
20
-3.09945683468496
30
0
41
1
10
10.927187134899
20
-3.28730700820805
30
0
41
1
10
11.1919440239726
20
-3.40528100234121
30
0
41
1
10
11.7202364645693
20
-3.62951812226282
30
0
41
1
10
11.9843315432691
20
-3.73509073851935
30
0
41
1
10
12.3823726547315
20
-3.88167989798427
30
0
41
1
10
12.5153180604389
20
-3.92864102286444
30
0
41
1
10
12.7815234367159
20
-4.0189281770287
30
0
41
1
10
12.9143749220671
20
-4.06258849882485
30
0
41
1
10
13.3141711649404
20
-4.18731018193972
30
0
41
1
10
13.5807528294463
20
-4.26113194015309
30
0
41
1
10
14.1105851235822
20
-4.39230958783793
30
0
41
1
10
14.3741517987823
20
-4.44944482486267
30
0
41
1
10
14.9016041175919
20
-4.54548289993744
30
0
41
1
10
15.1657738412106
20
-4.58445571658322
30
0
41
1
10
15.6909662037023
20
-4.64548190754724
30
0
41
1
10
15.9546884176821
20
-4.66670578151187
30
0
41
1
10
16.3955388084936
20
-4.68720661895867
30
0
41
1
10
16.5722882263765
20
-4.69137779865446
30
0
41
1
10
16.7494204185637
20
-4.69141655581092
30
0
0
SPLINE
5
D4
100
AcDbEntity
8
1
62
256
6
ByLayer
370
18
48
1
60
0
100
AcDbSpline
70
4
71
3
72
112
73
108
40
0
40
0
40
0
40
0
40
0.0117454359738786
40
0.0117454359738786
40
0.0245122229826636
40
0.0245122229826636
40
0.0372790099914485
40
0.0372790099914485
40
0.0628125840090194
40
0.0628125840090194
40
0.0883461580265902
40
0.0883461580265902
40
0.113879732044161
40
0.113879732044161
40
0.126646519052947
40
0.126646519052947
40
0.139413306061733
40
0.139413306061733
40
0.164946880079305
40
0.164946880079305
40
0.190480454096876
40
0.190480454096876
40
0.203247241105662
40
0.203247241105662
40
0.216014028114448
40
0.216014028114448
40
0.241547602132019
40
0.241547602132019
40
0.26708117614959
40
0.26708117614959
40
0.279847963158375
40
0.279847963158375
40
0.29261475016716
40
0.29261475016716
40
0.318148324184731
40
0.318148324184731
40
0.343681898202302
40
0.343681898202302
40
0.356448685211088
40
0.356448685211088
40
0.369215472219874
40
0.369215472219874
40
0.394749046237447
40
0.394749046237447
40
0.420282620255019
40
0.420282620255019
40
0.433049407263805
40
0.433049407263805
40
0.445816194272592
40
0.445816194272592
40
0.471349768290165
40
0.471349768290165
40
0.496883342307738
40
0.496883342307738
40
0.52241691632531
40
0.52241691632531
40
0.547950490342883
40
0.547950490342883
40
0.573484064360455
40
0.573484064360455
40
0.586250851369242
40
0.586250851369242
40
0.599017638378028
40
0.599017638378028
40
0.611784425386815
40
0.611784425386815
40
0.624551212395601
40
0.624551212395601
40
0.650084786413175
40
0.650084786413175
40
0.675618360430749
40
0.675618360430749
40
0.688385147439535
40
0.688385147439535
40
0.701151934448321
40
0.701151934448321
40
0.726685508465894
40
0.726685508465894
40
0.73945229547468
40
0.73945229547468
40
0.752219082483466
40
0.752219082483466
40
0.777752656501038
40
0.777752656501038
40
0.80328623051861
40
0.80328623051861
40
0.828819804536182
40
0.828819804536182
40
0.841586591544968
40
0.841586591544968
40
0.854353378553754
40
0.854353378553754
40
0.879886952571325
40
0.879886952571325
40
0.905420526588897
40
0.905420526588897
40
0.918187313597683
40
0.918187313597683
40
0.930954100606468
40
0.930954100606468
40
0.956487674624038
40
0.956487674624038
40
0.982021248641608
40
0.982021248641608
40
0.994788035650393
40
0.994788035650393
40
1
40
1
40
1
40
1
41
1
10
31.7209881092388
20
2.14786709377645
30
0
41
1
10
31.8433036916458
20
2.21795530873661
30
0
41
1
10
31.9653862529564
20
2.28696729421213
30
0
41
1
10
32.2199408559694
20
2.4284254479652
30
0
41
1
10
32.3524127268756
20
2.50062553367266
30
0
41
1
10
32.6170103465437
20
2.64230883130313
30
0
41
1
10
32.7492524197064
20
2.71164780912886
30
0
41
1
10
33.1437366886272
20
2.91778537300101
30
0
41
1
10
33.4070436849971
20
3.04842364383097
30
0
41
1
10
33.9336562851593
20
3.29731450610356
30
0
41
1
10
34.1961312176493
20
3.4164623223692
30
0
41
1
10
34.7225935981311
20
3.64046850333713
30
0
41
1
10
34.9868660762946
20
3.74511868512579
30
0
41
1
10
35.3837539112763
20
3.89205868231053
30
0
41
1
10
35.5156435514285
20
3.93978450743225
30
0
41
1
10
35.7808632679067
20
4.03063800229901
30
0
41
1
10
35.913931886223
20
4.07401767468309
30
0
41
1
10
36.3142833323489
20
4.19821743392512
30
0
41
1
10
36.5800031505494
20
4.27308679673331
30
0
41
1
10
37.1090923411486
20
4.40496643030301
30
0
41
1
10
37.3732674959136
20
4.46186560889137
30
0
41
1
10
37.7687902970411
20
4.53413289415963
30
0
41
1
10
37.9000717345416
20
4.55621495969757
30
0
41
1
10
38.1627078715053
20
4.59580173467887
30
0
41
1
10
38.2941767808551
20
4.61328199468483
30
0
41
1
10
38.6889666132759
20
4.65893814988158
30
0
41
1
10
38.9520761835721
20
4.68050588944951
30
0
41
1
10
39.4784524319675
20
4.70550903139352
30
0
41
1
10
39.7424080049009
20
4.7088531591782
30
0
41
1
10
40.1400392634545
20
4.70012033950951
30
0
41
1
10
40.2728542267128
20
4.69493382631944
30
0
41
1
10
40.5379605226045
20
4.67971115879962
30
0
41
1
10
40.6711954085682
20
4.66974847904302
30
0
41
1
10
41.070929920828
20
4.63306889934177
30
0
41
1
10
41.3365543119134
20
4.59964895264648
30
0
41
1
10
41.8648447488031
20
4.51474148836439
30
0
41
1
10
42.1282621821517
20
4.46348006349271
30
0
41
1
10
42.5235429917474
20
4.37432752826885
30
0
41
1
10
42.6553453450242
20
4.34259230322201
30
0
41
1
10
42.9182094169655
20
4.27455465200953
30
0
41
1
10
43.0491324383108
20
4.23812784419766
30
0
41
1
10
43.4433244992348
20
4.12361328575108
30
0
41
1
10
43.7070200910969
20
4.0397585257974
30
0
41
1
10
44.2338399910939
20
3.85502275797541
30
0
41
1
10
44.4975690569152
20
3.75454101003774
30
0
41
1
10
44.8955174475171
20
3.59334257164929
30
0
41
1
10
45.02850232573
20
3.53782008073739
30
0
41
1
10
45.2949331650889
20
3.42292081256039
30
0
41
1
10
45.4280107605732
20
3.3629770150572
30
0
41
1
10
45.8263517776379
20
3.17958080523979
30
0
41
1
10
46.0917796219127
20
3.05256099190686
30
0
41
1
10
46.6198083784068
20
2.78617658183566
30
0
41
1
10
46.882650981099
20
2.64703793913182
30
0
41
1
10
47.4089495852118
20
2.36083816009184
30
0
41
1
10
47.6725796194563
20
2.21409912050049
30
0
41
1
10
48.197196089031
20
1.90818755760159
30
0
41
1
10
48.4607807914554
20
1.75268689296158
30
0
41
1
10
48.988642217762
20
1.43399693311082
30
0
41
1
10
49.252471525867
20
1.2700634635477
30
0
41
1
10
49.6505685110365
20
1.02098028078274
30
0
41
1
10
49.7836615981673
20
0.937434662551851
30
0
41
1
10
50.0506002467265
20
0.769241940370193
30
0
41
1
10
50.183935198824
20
0.685197242744778
30
0
41
1
10
50.4490433306298
20
0.515252369924013
30
0
41
1
10
50.5810708877926
20
0.429746245470767
30
0
41
1
10
50.8454479831717
20
0.259874810246572
30
0
41
1
10
50.977623258899
20
0.175225986917326
30
0
41
1
10
51.3736730287911
20
-0.0785766999691759
30
0
41
1
10
51.6363776071739
20
-0.248684406675721
30
0
41
1
10
52.1619230221871
20
-0.586274114459854
30
0
41
1
10
52.4250835077255
20
-0.753265787085695
30
0
41
1
10
52.8199209877811
20
-1.00182331409687
30
0
41
1
10
52.9510008858506
20
-1.08520083552904
30
0
41
1
10
53.2140307465181
20
-1.25000136697835
30
0
41
1
10
53.3458632698703
20
-1.33160905614128
30
0
41
1
10
53.742214377735
20
-1.5742161241273
30
0
41
1
10
54.0068198546206
20
-1.7341695214277
30
0
41
1
10
54.405232496268
20
-1.96991855697587
30
0
41
1
10
54.5385955531411
20
-2.04778602941417
30
0
41
1
10
54.8048230086014
20
-2.20063744653047
30
0
41
1
10
54.9377535439048
20
-2.27566117227619
30
0
41
1
10
55.3356931872337
20
-2.49704834365673
30
0
41
1
10
55.5987502466947
20
-2.64116890388516
30
0
41
1
10
56.1259270557856
20
-2.91517624681333
30
0
41
1
10
56.3891437311766
20
-3.04634552340119
30
0
41
1
10
56.9142861671625
20
-3.2976411095014
30
0
41
1
10
57.1769548706542
20
-3.41686505945242
30
0
41
1
10
57.5720171588901
20
-3.58517041145407
30
0
41
1
10
57.7039730571462
20
-3.63943718758236
30
0
41
1
10
57.9669977933175
20
-3.74566658604058
30
0
41
1
10
58.0985509816039
20
-3.79712518064244
30
0
41
1
10
58.4947473410022
20
-3.94519223123388
30
0
41
1
10
58.7603139018131
20
-4.03615673721146
30
0
41
1
10
59.2924077828758
20
-4.20389146205892
30
0
41
1
10
59.5581378389414
20
-4.27948448076774
30
0
41
1
10
59.9554125133872
20
-4.37903755164285
30
0
41
1
10
60.0876855961082
20
-4.41000956863348
30
0
41
1
10
60.351654181152
20
-4.46771787465593
30
0
41
1
10
60.4828281178004
20
-4.49470083726925
30
0
41
1
10
60.8772539450732
20
-4.56833020038758
30
0
41
1
10
61.1407109520964
20
-4.60819519488942
30
0
41
1
10
61.6660312173676
20
-4.67063118934524
30
0
41
1
10
61.9283284465115
20
-4.69292693574576
30
0
41
1
10
62.3233115677344
20
-4.71258447220274
30
0
41
1
10
62.4551969867154
20
-4.71686068346531
30
0
41
1
10
62.6410912179264
20
-4.71968168330798
30
0
41
1
10
62.6949585973015
20
-4.72012055135272
30
0
41
1
10
62.7488199117421
20
-4.72017554186527
30
0
0
SPLINE
5
D5
100
AcDbEntity
8
1
62
256
6
ByLayer
370
18
48
1
60
0
100
AcDbSpline
70
4
71
3
72
114
73
110
40
0
40
0
40
0
40
0
40
0.0101430596166989
40
0.0101430596166989
40
0.035628556480484
40
0.035628556480484
40
0.0611140533442692
40
0.0611140533442692
40
0.0865995502080544
40
0.0865995502080544
40
0.112085047071839
40
0.112085047071839
40
0.137570543935624
40
0.137570543935624
40
0.150313292367518
40
0.150313292367518
40
0.163056040799411
40
0.163056040799411
40
0.175798789231304
40
0.175798789231304
40
0.188541537663197
40
0.188541537663197
40
0.214027034526983
40
0.214027034526983
40
0.239512531390769
40
0.239512531390769
40
0.252255279822662
40
0.252255279822662
40
0.264998028254555
40
0.264998028254555
40
0.277740776686448
40
0.277740776686448
40
0.290483525118342
40
0.290483525118342
40
0.315969021982128
40
0.315969021982128
40
0.328711770414021
40
0.328711770414021
40
0.341454518845914
40
0.341454518845914
40
0.366940015709698
40
0.366940015709698
40
0.392425512573482
40
0.392425512573482
40
0.405168261005375
40
0.405168261005375
40
0.417911009437268
40
0.417911009437268
40
0.430653757869161
40
0.430653757869161
40
0.443396506301054
40
0.443396506301054
40
0.468882003164841
40
0.468882003164841
40
0.481624751596735
40
0.481624751596735
40
0.494367500028628
40
0.494367500028628
40
0.519852996892415
40
0.519852996892415
40
0.545338493756201
40
0.545338493756201
40
0.570823990619987
40
0.570823990619987
40
0.596309487483773
40
0.596309487483773
40
0.621794984347559
40
0.621794984347559
40
0.634537732779453
40
0.634537732779453
40
0.647280481211346
40
0.647280481211346
40
0.660023229643239
40
0.660023229643239
40
0.672765978075132
40
0.672765978075132
40
0.698251474938918
40
0.698251474938918
40
0.723736971802704
40
0.723736971802704
40
0.736479720234597
40
0.736479720234597
40
0.74922246866649
40
0.74922246866649
40
0.774707965530275
40
0.774707965530275
40
0.800193462394059
40
0.800193462394059
40
0.812936210825951
40
0.812936210825951
40
0.825678959257843
40
0.825678959257843
40
0.851164456121629
40
0.851164456121629
40
0.876649952985416
40
0.876649952985416
40
0.889392701417309
40
0.889392701417309
40
0.902135449849202
40
0.902135449849202
40
0.92762094671299
40
0.92762094671299
40
0.953106443576778
40
0.953106443576778
40
0.965849192008671
40
0.965849192008671
40
0.978591940440564
40
0.978591940440564
40
1
40
1
40
1
40
1
41
1
10
77.7163748744596
20
2.15315840358377
30
0
41
1
10
77.8220728467313
20
2.21401937681352
30
0
41
1
10
77.9273623301384
20
2.27442084739542
30
0
41
1
10
78.2969272486296
20
2.48328505121495
30
0
41
1
10
78.5613542525844
20
2.62607505246444
30
0
41
1
10
79.0878330241391
20
2.90219957518789
30
0
41
1
10
79.3500242016228
20
3.03524416101905
30
0
41
1
10
79.8753391407849
20
3.2876863011802
30
0
41
1
10
80.1388208319071
20
3.40680677537364
30
0
41
1
10
80.6631226487522
20
3.63533840446232
30
0
41
1
10
80.926672659148
20
3.7418173645616
30
0
41
1
10
81.4550761986275
20
3.94084373017645
30
0
41
1
10
81.7193282904686
20
4.03385844620828
30
0
41
1
10
82.118289454911
20
4.16112865416923
30
0
41
1
10
82.2515251648218
20
4.20145346599375
30
0
41
1
10
82.5171723835361
20
4.27758127265091
30
0
41
1
10
82.6498478300874
20
4.31340722399776
30
0
41
1
10
82.9140399474306
20
4.38116482259258
30
0
41
1
10
83.045459780116
20
4.4131177802652
30
0
41
1
10
83.3088487641342
20
4.47208598033649
30
0
41
1
10
83.4405729804344
20
4.49926623124978
30
0
41
1
10
83.835498335116
20
4.57419546251256
30
0
41
1
10
84.097688593919
20
4.61562431714307
30
0
41
1
10
84.6223705951829
20
4.68033313892315
30
0
41
1
10
84.8852500032749
20
4.70357909330221
30
0
41
1
10
85.2800435881918
20
4.7249474521432
30
0
41
1
10
85.4112368185797
20
4.7298543343592
30
0
41
1
10
85.6743279259611
20
4.7349896916956
30
0
41
1
10
85.806239985138
20
4.73523953884475
30
0
41
1
10
86.0707486458638
20
4.73114559470886
30
0
41
1
10
86.2033142591679
20
4.72680744063027
30
0
41
1
10
86.4685691379542
20
4.71341828044501
30
0
41
1
10
86.6015165282212
20
4.70434780295631
30
0
41
1
10
87.0002162372937
20
4.67014040705499
30
0
41
1
10
87.2651094091634
20
4.63821196770078
30
0
41
1
10
87.6614895657299
20
4.57725968890304
30
0
41
1
10
87.7933351207236
20
4.55472414534262
30
0
41
1
10
88.0559252932848
20
4.50490697588805
30
0
41
1
10
88.187297063593
20
4.477909861981
30
0
41
1
10
88.5815779488804
20
4.39078310617958
30
0
41
1
10
88.8443894468553
20
4.32441687102983
30
0
41
1
10
89.3688999675927
20
4.17438507256341
30
0
41
1
10
89.6313519988979
20
4.09117768920913
30
0
41
1
10
90.0264627242669
20
3.95505573333233
30
0
41
1
10
90.1584450959706
20
3.90784895920208
30
0
41
1
10
90.421977422294
20
3.80879833537404
30
0
41
1
10
90.5535478230798
20
3.7569370872819
30
0
41
1
10
90.8180325175202
20
3.65018934295813
30
0
41
1
10
90.9507208369646
20
3.59510178161358
30
0
41
1
10
91.2167368192151
20
3.48123264910669
30
0
41
1
10
91.3500200583893
20
3.42226311551369
30
0
41
1
10
91.7479676486735
20
3.24058655960459
30
0
41
1
10
92.0119200608182
20
3.11314590558402
30
0
41
1
10
92.4076381719529
20
2.91489151215862
30
0
41
1
10
92.539446200636
20
2.84755384873313
30
0
41
1
10
92.8026521258813
20
2.71011788562447
30
0
41
1
10
92.933555763415
20
2.63937229233946
30
0
41
1
10
93.3269076225226
20
2.42457695688921
30
0
41
1
10
93.5899082281179
20
2.27794803457678
30
0
41
1
10
94.1148149409483
20
1.97432855769515
30
0
41
1
10
94.3770023595768
20
1.81765689509189
30
0
41
1
10
94.9037741584238
20
1.49877605687377
30
0
41
1
10
95.1684625795016
20
1.33681045109913
30
0
41
1
10
95.6971888915629
20
1.0024754195328
30
0
41
1
10
95.9643893155698
20
0.833628928640934
30
0
41
1
10
96.4946172489809
20
0.494505333615564
30
0
41
1
10
96.7579549849777
20
0.323212132772312
30
0
41
1
10
97.1527857553324
20
0.0676261349034917
30
0
41
1
10
97.2843677958697
20
-0.0173441274168056
30
0
41
1
10
97.5474195351293
20
-0.186931077766531
30
0
41
1
10
97.6790227646882
20
-0.271339240936072
30
0
41
1
10
97.9410956994198
20
-0.441401193130645
30
0
41
1
10
98.0718626535288
20
-0.526585016537041
30
0
41
1
10
98.3341499110531
20
-0.69524428900263
30
0
41
1
10
98.4655049736616
20
-0.778979604068581
30
0
41
1
10
98.8597669041747
20
-1.02908899875726
30
0
41
1
10
99.1221736224966
20
-1.19543605382785
30
0
41
1
10
99.6489099611734
20
-1.52300131836381
30
0
41
1
10
99.9135613087161
20
-1.68373964874851
30
0
41
1
10
100.312004873562
20
-1.92095729027932
30
0
41
1
10
100.444728184168
20
-2.00031008503709
30
0
41
1
10
100.709997277505
20
-2.15550543231754
30
0
41
1
10
100.842520903577
20
-2.2316100353072
30
0
41
1
10
101.239669778037
20
-2.45571666699388
30
0
41
1
10
101.503098138684
20
-2.60058737647955
30
0
41
1
10
102.028595736404
20
-2.87952096970773
30
0
41
1
10
102.291247997165
20
-3.01285317155416
30
0
41
1
10
102.685247518183
20
-3.2036431753944
30
0
41
1
10
102.816363363717
20
-3.26596249810149
30
0
41
1
10
103.078154320547
20
-3.3879748121586
30
0
41
1
10
103.20930376812
20
-3.44713752839129
30
0
41
1
10
103.603441795443
20
-3.61925258472957
30
0
41
1
10
103.866771205774
20
-3.72722744547832
30
0
41
1
10
104.393906346528
20
-3.93000998847248
30
0
41
1
10
104.658466310762
20
-4.02406553330852
30
0
41
1
10
105.057778420568
20
-4.15319389013496
30
0
41
1
10
105.191061573849
20
-4.19408452404912
30
0
41
1
10
105.455623311096
20
-4.27229857777493
30
0
41
1
10
105.58750949615
20
-4.30929672105742
30
0
41
1
10
105.983455275188
20
-4.41311129267348
30
0
41
1
10
106.247191968113
20
-4.47327523079733
30
0
41
1
10
106.772226537632
20
-4.57682348454185
30
0
41
1
10
107.034215633632
20
-4.61976222433498
30
0
41
1
10
107.428048804349
20
-4.67050228333011
30
0
41
1
10
107.559401377813
20
-4.68517149839246
30
0
41
1
10
107.82203475803
20
-4.71006876260898
30
0
41
1
10
107.952785102158
20
-4.72038591164244
30
0
41
1
10
108.304482020494
20
-4.74168886990569
30
0
41
1
10
108.525974906627
20
-4.74855373179366
30
0
41
1
10
108.747720836146
20
-4.74892504832414
30
0
0
SPLINE
5
D6
100
AcDbEntity
8
1
62
256
6
ByLayer
370
18
48
1
60
0
100
AcDbSpline
70
4
71
3
72
16
73
12
40
0
40
0
40
0
40
0
40
0.293685798827914
40
0.293685798827914
40
0.587371597655829
40
0.587371597655829
40
0.73421449706978
40
0.73421449706978
40
0.881057396483732
40
0.881057396483732
40
1
40
1
40
1
40
1
41
1
10
110.389740169455
20
-4.4815612801502
30
0
41
1
10
109.855939343271
20
-4.49979867613914
30
0
41
1
10
109.325290278921
20
-4.48212343809067
30
0
41
1
10
108.264661074503
20
-4.37704820638194
30
0
41
1
10
107.734683966591
20
-4.28964116695676
30
0
41
1
10
106.934873384542
20
-4.10775073006425
30
0
41
1
10
106.66663294229
20
-4.03842356472038
30
0
41
1
10
106.132514195817
20
-3.8845186840839
30
0
41
1
10
105.866636894132
20
-3.79999226545536
30
0
41
1
10
105.386723736774
20
-3.63426541098733
30
0
41
1
10
105.172420124784
20
-3.5554977599011
30
0
41
1
10
104.958367606014
20
-3.47238243569788
30
0
0
SPLINE
5
D7
100
AcDbEntity
8
1
62
256
6
ByLayer
370
13
48
1
60
0
100
AcDbSpline
70
4
71
3
72
24
73
20
40
0
40
0
40
0
40
0
40
0.0973495811914155
40
0.0973495811914155
40
0.260962263313546
40
0.260962263313546
40
0.301865433844075
40
0.301865433844075
40
0.342768604374604
40
0.342768604374604
40
0.424574945435657
40
0.424574945435657
40
0.751800309679867
40
0.751800309679867
40
0.83360665074092
40
0.83360665074092
40
0.915412991801972
40
0.915412991801972
40
1
40
1
40
1
40
1
41
1
10
104.958367165499
20
-3.47238226464845
30
0
41
1
10
104.643894449558
20
-3.35027436418287
30
0
41
1
10
104.32996368458
20
-3.21878259062797
30
0
41
1
10
103.488061328353
20
-2.8433085578265
30
0
41
1
10
102.959785527246
20
-2.58371304980878
30
0
41
1
10
102.294728030698
20
-2.23393288345792
30
0
41
1
10
102.161476120569
20
-2.16271587156518
30
0
41
1
10
101.894369459672
20
-2.01789398885663
30
0
41
1
10
101.760296418143
20
-1.94416572402065
30
0
41
1
10
101.359107069476
20
-1.72077093654954
30
0
41
1
10
101.092861605905
20
-1.56882666556189
30
0
41
1
10
99.7654914515061
20
-0.797702357672364
30
0
41
1
10
98.7163782162797
20
-0.143673866596998
30
0
41
1
10
97.387290953935
20
0.664570105628343
30
0
41
1
10
97.1204846553096
20
0.825901996257272
30
0
41
1
10
96.5847008068152
20
1.14569225160236
30
0
41
1
10
96.318019270509
20
1.30278489571637
30
0
41
1
10
95.7773112507099
20
1.61559495268514
30
0
41
1
10
95.5032916639196
20
1.77099200314476
30
0
41
1
10
95.2296659749618
20
1.92212906008714
30
0
0
SPLINE
5
D8
100
AcDbEntity
8
1
62
256
6
ByLayer
370
18
48
1
60
0
100
AcDbSpline
70
4
71
3
72
16
73
12
40
0
40
0
40
0
40
0
40
0.0425122496751439
40
0.0425122496751439
40
0.128216053275008
40
0.128216053275008
40
0.299623660474736
40
0.299623660474736
40
0.985254089273644
40
0.985254089273644
40
1
40
1
40
1
40
1
41
1
10
63.9735738170402
20
-4.45978291205975
30
0
41
1
10
63.9070543801291
20
-4.4597099840332
30
0
41
1
10
63.8405309389651
20
-4.45908554222456
30
0
41
1
10
63.6402235817754
20
-4.45555161750536
30
0
41
1
10
63.5066435821101
20
-4.4509829182671
30
0
41
1
10
63.1065613272357
20
-4.43069008464488
30
0
41
1
10
62.840700012303
20
-4.40835437250865
30
0
41
1
10
61.5136848363182
20
-4.25371967905889
30
0
41
1
10
60.4599903846316
20
-3.99288967210242
30
0
41
1
10
59.3636881555333
20
-3.60081882807177
30
0
41
1
10
59.340610103607
20
-3.59251137161024
30
0
41
1
10
59.3175355992002
20
-3.58415158933576
30
0
0
SPLINE
5
D9
100
AcDbEntity
8
1
62
256
6
ByLayer
370
13
48
1
60
0
100
AcDbSpline
70
4
71
3
72
24
73
20
40
0
40
0
40
0
40
0
40
0.153338873657657
40
0.153338873657657
40
0.233454413683643
40
0.233454413683643
40
0.313569953709631
40
0.313569953709631
40
0.634032113813586
40
0.634032113813586
40
0.674089883826581
40
0.674089883826581
40
0.714147653839576
40
0.714147653839576
40
0.794263193865567
40
0.794263193865567
40
0.954494273917544
40
0.954494273917544
40
1
40
1
40
1
40
1
41
1
10
59.3175355988862
20
-3.58415158922202
30
0
41
1
10
58.8041704543187
20
-3.39816185958517
30
0
41
1
10
58.2925612622626
20
-3.18627187868094
30
0
41
1
10
57.5122853549293
20
-2.83038327362959
30
0
41
1
10
57.2436945017104
20
-2.70191058705709
30
0
41
1
10
56.7081046233435
20
-2.4352913108288
30
0
41
1
10
56.4413567620175
20
-2.2974086878497
30
0
41
1
10
55.1106543845827
20
-1.58854389950733
30
0
41
1
10
54.0564594257725
20
-0.958467781744275
30
0
41
1
10
52.8512526599967
20
-0.227341636659815
30
0
41
1
10
52.7168969099998
20
-0.145668522679813
30
0
41
1
10
52.4489985100464
20
0.0172733705096562
30
0
41
1
10
52.3153463885723
20
0.0986103033407346
30
0
41
1
10
51.9150662368455
20
0.341864657435394
30
0
41
1
10
51.6491205468508
20
0.503040321466983
30
0
41
1
10
50.8528712424176
20
0.981785203446407
30
0
41
1
10
50.324064102025
20
1.29435852329553
30
0
41
1
10
49.6434507078969
20
1.68058167627032
30
0
41
1
10
49.4928047875727
20
1.76504603782013
30
0
41
1
10
49.3419753953013
20
1.84842358910976
30
0
0
SPLINE
5
DA
100
AcDbEntity
8
1
62
256
6
ByLayer
370
18
48
1
60
0
100
AcDbSpline
70
4
71
3
72
16
73
12
40
0
40
0
40
0
40
0
40
0.0280162906682009
40
0.0280162906682009
40
0.35761866090322
40
0.35761866090322
40
0.522419846020733
40
0.522419846020733
40
0.687221031138243
40
0.687221031138243
40
1
40
1
40
1
40
1
41
1
10
17.9856368080042
20
-4.43100796085395
30
0
41
1
10
17.9405243328621
20
-4.43100378805943
30
0
41
1
10
17.8954211035407
20
-4.43074703461039
30
0
41
1
10
17.3197848358398
20
-4.42425056364573
30
0
41
1
10
16.7903671433471
20
-4.3834852760543
30
0
41
1
10
15.9927765066442
20
-4.27066412136784
30
0
41
1
10
15.7263527982399
20
-4.22448023564399
30
0
41
1
10
15.1915247424013
20
-4.11500851211491
30
0
41
1
10
14.922293122711
20
-4.05148367748524
30
0
41
1
10
14.1460282105037
20
-3.84506912283732
30
0
41
1
10
13.6415418242516
20
-3.68223693006988
30
0
41
1
10
13.1380366065084
20
-3.49499631676349
30
0
0
SPLINE
5
DB
100
AcDbEntity
8
1
62
256
6
ByLayer
370
13
48
1
60
0
100
AcDbSpline
70
4
71
3
72
14
73
10
40
0
40
0
40
0
40
0
40
0.344486265021046
40
0.344486265021046
40
0.508364698765785
40
0.508364698765785
40
0.672243132510523
40
0.672243132510523
40
1
40
1
40
1
40
1
41
1
10
13.1380375457511
20
-3.49499666604365
30
0
41
1
10
12.5803680753641
20
-3.28761379731239
30
0
41
1
10
12.0239022271869
20
-3.0502886049926
30
0
41
1
10
11.1986220436471
20
-2.66236896029613
30
0
41
1
10
10.9319859509333
20
-2.53151009004998
30
0
41
1
10
10.3967299438522
20
-2.2591121125696
30
0
41
1
10
10.1276007883841
20
-2.11729357706875
30
0
41
1
10
9.32259628759164
20
-1.6813126465031
30
0
41
1
10
8.78727607831752
20
-1.37600698940005
30
0
41
1
10
8.25024496019813
20
-1.06071715199224
30
0
0
SPLINE
5
DC
100
AcDbEntity
8
1
62
256
6
ByLayer
370
18
48
1
60
0
100
AcDbSpline
70
4
71
3
72
8
73
4
40
0
40
0
40
0
40
0
40
1
40
1
40
1
40
1
41
1
10
7.99999953046449
20
-3.20392010261043
30
0
41
1
10
7.99999953046449
20
-3.20548214342
30
0
41
1
10
7.99999953046449
20
-3.20704576073138
30
0
41
1
10
7.99999953046449
20
-3.20861095761685
30
0
0
SPLINE
5
DD
100
AcDbEntity
8
1
62
256
6
ByLayer
370
18
48
1
60
0
100
AcDbSpline
70
4
71
3
72
110
73
106
40
0
40
0
40
0
40
0
40
0.0258572031498284
40
0.0258572031498284
40
0.0387858047247426
40
0.0387858047247426
40
0.0517144062996568
40
0.0517144062996568
40
0.0775716094494853
40
0.0775716094494853
40
0.103428812599314
40
0.103428812599314
40
0.116357414174228
40
0.116357414174228
40
0.129286015749142
40
0.129286015749142
40
0.155143218898971
40
0.155143218898971
40
0.1810004220488
40
0.1810004220488
40
0.206857625198629
40
0.206857625198629
40
0.232714828348458
40
0.232714828348458
40
0.258572031498287
40
0.258572031498287
40
0.271500633073201
40
0.271500633073201
40
0.284429234648116
40
0.284429234648116
40
0.29735783622303
40
0.29735783622303
40
0.310286437797945
40
0.310286437797945
40
0.336143640947773
40
0.336143640947773
40
0.362000844097602
40
0.362000844097602
40
0.374929445672517
40
0.374929445672517
40
0.387858047247431
40
0.387858047247431
40
0.41371525039726
40
0.41371525039726
40
0.439572453547089
40
0.439572453547089
40
0.452501055122004
40
0.452501055122004
40
0.465429656696919
40
0.465429656696919
40
0.491286859846749
40
0.491286859846749
40
0.517144062996578
40
0.517144062996578
40
0.530072664571493
40
0.530072664571493
40
0.543001266146409
40
0.543001266146409
40
0.568858469296238
40
0.568858469296238
40
0.594715672446068
40
0.594715672446068
40
0.607644274020982
40
0.607644274020982
40
0.620572875595897
40
0.620572875595897
40
0.646430078745726
40
0.646430078745726
40
0.672287281895556
40
0.672287281895556
40
0.685215883470471
40
0.685215883470471
40
0.698144485045386
40
0.698144485045386
40
0.724001688195216
40
0.724001688195216
40
0.736930289770131
40
0.736930289770131
40
0.749858891345045
40
0.749858891345045
40
0.76278749291996
40
0.76278749291996
40
0.775716094494875
40
0.775716094494875
40
0.801573297644704
40
0.801573297644704
40
0.827430500794534
40
0.827430500794534
40
0.853287703944363
40
0.853287703944363
40
0.866216305519277
40
0.866216305519277
40
0.879144907094191
40
0.879144907094191
40
0.905002110244021
40
0.905002110244021
40
0.93085931339385
40
0.93085931339385
40
0.943787914968764
40
0.943787914968764
40
0.956716516543678
40
0.956716516543678
40
0.982573719693506
40
0.982573719693506
40
1
40
1
40
1
40
1
41
1
10
9.07161357429686
20
2.33953702635245
30
0
41
1
10
9.33756707709682
20
2.48928747785593
30
0
41
1
10
9.60325206913404
20
2.632352829258
30
0
41
1
10
10.0018514180091
20
2.83696176237453
30
0
41
1
10
10.1346675790458
20
2.90358729839994
30
0
41
1
10
10.3993859847315
20
3.03468819092379
30
0
41
1
10
10.5310239094883
20
3.09945683468499
30
0
41
1
10
10.927187134899
20
3.28730700820805
30
0
41
1
10
11.1919440239727
20
3.40528100234124
30
0
41
1
10
11.7202364645693
20
3.62951812226285
30
0
41
1
10
11.9843315432691
20
3.73509073851935
30
0
41
1
10
12.3823726547315
20
3.88167989798427
30
0
41
1
10
12.5153180604389
20
3.92864102286447
30
0
41
1
10
12.7815234367159
20
4.0189281770287
30
0
41
1
10
12.9143749220671
20
4.06258849882485
30
0
41
1
10
13.3141711649404
20
4.18731018193972
30
0
41
1
10
13.5807528294463
20
4.26113194015312
30
0
41
1
10
14.1105851235822
20
4.39230958783793
30
0
41
1
10
14.3741517987823
20
4.4494448248627
30
0
41
1
10
14.901604117592
20
4.54548289993744
30
0
41
1
10
15.1657738412106
20
4.58445571658322
30
0
41
1
10
15.6909662037023
20
4.64548190754724
30
0
41
1
10
15.9546884176821
20
4.66670578151187
30
0
41
1
10
16.4826563657081
20
4.6912578411339
30
0
41
1
10
16.7463796966364
20
4.69450344459773
30
0
41
1
10
17.1440663754919
20
4.68543321776968
30
0
41
1
10
17.2769822153837
20
4.68010605310656
30
0
41
1
10
17.543506166251
20
4.66483548105856
30
0
41
1
10
17.6774259944304
20
4.65489963330876
30
0
41
1
10
17.9436667542243
20
4.6302729012319
30
0
41
1
10
18.0761249529905
20
4.61556546161484
30
0
41
1
10
18.341368257109
20
4.58189982529086
30
0
41
1
10
18.4739413383912
20
4.56289934689269
30
0
41
1
10
18.8711176869937
20
4.49938899726368
30
0
41
1
10
19.134454715977
20
4.44800793689328
30
0
41
1
10
19.6609365106217
20
4.32845926336333
30
0
41
1
10
19.9244235087792
20
4.2605707372087
30
0
41
1
10
20.3195786681802
20
4.1464417917673
30
0
41
1
10
20.4507467734517
20
4.10593062287873
30
0
41
1
10
20.7138279051496
20
4.02129051056593
30
0
41
1
10
20.8456521709522
20
3.97711552970671
30
0
41
1
10
21.2418853357966
20
3.83902630314404
30
0
41
1
10
21.5063028712112
20
3.73887688016808
30
0
41
1
10
22.036793447652
20
3.52292969165637
30
0
41
1
10
22.3043399686699
20
3.40737586981459
30
0
41
1
10
22.7037870369604
20
3.22538631305318
30
0
41
1
10
22.8364482918594
20
3.16299632182154
30
0
41
1
10
23.1008306994225
20
3.03477316068216
30
0
41
1
10
23.2330093740901
20
2.96949909980978
30
0
41
1
10
23.6294497378681
20
2.77021659396553
30
0
41
1
10
23.8932453520923
20
2.63229619462297
30
0
41
1
10
24.419244754427
20
2.34554410953652
30
0
41
1
10
24.6821936472749
20
2.19769065712825
30
0
41
1
10
25.0774710470041
20
1.97058968219059
30
0
41
1
10
25.2094645312509
20
1.89414572343836
30
0
41
1
10
25.4724981511499
20
1.73765164303276
30
0
41
1
10
25.6040074458129
20
1.65827462688097
30
0
41
1
10
25.9999774924654
20
1.41895589244791
30
0
41
1
10
26.265254503231
20
1.25694589770183
30
0
41
1
10
26.7964502694884
20
0.924745233499067
30
0
41
1
10
27.0635730829022
20
0.755307673979218
30
0
41
1
10
27.4623106686527
20
0.502452376403681
30
0
41
1
10
27.5950341297535
20
0.418164484553302
30
0
41
1
10
27.8598267395224
20
0.249131388131929
30
0
41
1
10
27.9913754119971
20
0.163551666758224
30
0
41
1
10
28.3868180590562
20
-0.0910068221706126
30
0
41
1
10
28.6507990896183
20
-0.258970136145877
30
0
41
1
10
29.1768671378493
20
-0.595575976715509
30
0
41
1
10
29.4393962797695
20
-0.763500694466671
30
0
41
1
10
29.8345036896634
20
-1.01158232282845
30
0
41
1
10
29.9663917243053
20
-1.09369621945425
30
0
41
1
10
30.2303267622721
20
-1.25709289926493
30
0
41
1
10
30.3621058162592
20
-1.33878858272465
30
0
41
1
10
30.7577024397615
20
-1.58256981211903
30
0
41
1
10
31.0232705273093
20
-1.74107660360809
30
0
41
1
10
31.4226386363933
20
-1.97545685183872
30
0
41
1
10
31.5560771699568
20
-2.053173662691
30
0
41
1
10
31.8220709387958
20
-2.20594382061463
30
0
41
1
10
31.9547797238215
20
-2.28107315593533
30
0
41
1
10
32.2199408559694
20
-2.42842544796523
30
0
41
1
10
32.3524127268756
20
-2.50062553367269
30
0
41
1
10
32.6170103465438
20
-2.64230883130313
30
0
41
1
10
32.7492524197064
20
-2.71164780912883
30
0
41
1
10
33.1437366886271
20
-2.91778537300107
30
0
41
1
10
33.4070436849971
20
-3.04842364383097
30
0
41
1
10
33.9336562851593
20
-3.29731450610356
30
0
41
1
10
34.1961312176493
20
-3.4164623223692
30
0
41
1
10
34.7225935981311
20
-3.64046850333713
30
0
41
1
10
34.9868660762945
20
-3.74511868512582
30
0
41
1
10
35.3837539112763
20
-3.89205868231051
30
0
41
1
10
35.5156435514285
20
-3.93978450743225
30
0
41
1
10
35.7808632679068
20
-4.03063800229901
30
0
41
1
10
35.913931886223
20
-4.07401767468309
30
0
41
1
10
36.3142833323488
20
-4.19821743392512
30
0
41
1
10
36.5800031505494
20
-4.27308679673331
30
0
41
1
10
37.1090923411486
20
-4.40496643030301
30
0
41
1
10
37.3732674959136
20
-4.4618656088914
30
0
41
1
10
37.7687902970412
20
-4.53413289415963
30
0
41
1
10
37.9000717345416
20
-4.55621495969757
30
0
41
1
10
38.1627078715052
20
-4.59580173467887
30
0
41
1
10
38.2941767808552
20
-4.61328199468483
30
0
41
1
10
38.688966613276
20
-4.65893814988161
30
0
41
1
10
38.9520761835721
20
-4.68050588944951
30
0
41
1
10
39.3926380940619
20
-4.70143280630163
30
0
41
1
10
39.5703604549005
20
-4.70569884947278
30
0
41
1
10
39.7485429604188
20
-4.7058029683424
30
0
0
SPLINE
5
DE
100
AcDbEntity
8
1
62
256
6
ByLayer
370
18
48
1
60
0
100
AcDbSpline
70
4
71
3
72
108
73
104
40
0
40
0
40
0
40
0
40
0.0111235958569848
40
0.0111235958569848
40
0.0366364030637431
40
0.0366364030637431
40
0.0621492102705012
40
0.0621492102705012
40
0.0876620174772594
40
0.0876620174772594
40
0.100418421080639
40
0.100418421080639
40
0.113174824684019
40
0.113174824684019
40
0.138687631890778
40
0.138687631890778
40
0.164200439097537
40
0.164200439097537
40
0.176956842700917
40
0.176956842700917
40
0.189713246304296
40
0.189713246304296
40
0.215226053511056
40
0.215226053511056
40
0.240738860717815
40
0.240738860717815
40
0.253495264321195
40
0.253495264321195
40
0.266251667924574
40
0.266251667924574
40
0.291764475131332
40
0.291764475131332
40
0.31727728233809
40
0.31727728233809
40
0.33003368594147
40
0.33003368594147
40
0.342790089544849
40
0.342790089544849
40
0.368302896751606
40
0.368302896751606
40
0.393815703958364
40
0.393815703958364
40
0.419328511165121
40
0.419328511165121
40
0.4320849147685
40
0.4320849147685
40
0.444841318371879
40
0.444841318371879
40
0.470354125578637
40
0.470354125578637
40
0.495866932785394
40
0.495866932785394
40
0.521379739992152
40
0.521379739992152
40
0.54689254719891
40
0.54689254719891
40
0.572405354405667
40
0.572405354405667
40
0.585161758009046
40
0.585161758009046
40
0.597918161612425
40
0.597918161612425
40
0.623430968819182
40
0.623430968819182
40
0.64894377602594
40
0.64894377602594
40
0.661700179629319
40
0.661700179629319
40
0.674456583232697
40
0.674456583232697
40
0.699969390439455
40
0.699969390439455
40
0.725482197646212
40
0.725482197646212
40
0.738238601249592
40
0.738238601249592
40
0.750995004852971
40
0.750995004852971
40
0.776507812059729
40
0.776507812059729
40
0.802020619266487
40
0.802020619266487
40
0.827533426473245
40
0.827533426473245
40
0.853046233680003
40
0.853046233680003
40
0.878559040886762
40
0.878559040886762
40
0.891315444490141
40
0.891315444490141
40
0.90407184809352
40
0.90407184809352
40
0.916828251696899
40
0.916828251696899
40
0.929584655300278
40
0.929584655300278
40
0.955097462507037
40
0.955097462507037
40
0.980610269713795
40
0.980610269713795
40
0.993366673317174
40
0.993366673317174
40
1
40
1
40
1
40
1
41
1
10
54.722815363803
20
2.15349045151021
30
0
41
1
10
54.8388483245337
20
2.21982326088252
30
0
41
1
10
54.9547321781246
20
2.28510695599454
30
0
41
1
10
55.3356931872337
20
2.49704834365676
30
0
41
1
10
55.5987502466947
20
2.64116890388516
30
0
41
1
10
56.1259270557856
20
2.91517624681336
30
0
41
1
10
56.3891437311766
20
3.04634552340124
30
0
41
1
10
56.9142861671625
20
3.2976411095014
30
0
41
1
10
57.1769548706543
20
3.41686505945242
30
0
41
1
10
57.5720171588901
20
3.5851704114541
30
0
41
1
10
57.7039730571462
20
3.63943718758239
30
0
41
1
10
57.9669977933175
20
3.74566658604061
30
0
41
1
10
58.098550981604
20
3.79712518064244
30
0
41
1
10
58.4947473410022
20
3.94519223123388
30
0
41
1
10
58.7603139018131
20
4.03615673721146
30
0
41
1
10
59.2924077828759
20
4.20389146205892
30
0
41
1
10
59.5581378389414
20
4.27948448076776
30
0
41
1
10
59.9554125133872
20
4.37903755164285
30
0
41
1
10
60.0876855961083
20
4.41000956863348
30
0
41
1
10
60.351654181152
20
4.46771787465596
30
0
41
1
10
60.4828281178004
20
4.49470083726925
30
0
41
1
10
60.8772539450732
20
4.56833020038761
30
0
41
1
10
61.1407109520964
20
4.60819519488942
30
0
41
1
10
61.6660312173676
20
4.67063118934524
30
0
41
1
10
61.9283284465115
20
4.69292693574576
30
0
41
1
10
62.3233115677344
20
4.71258447220274
30
0
41
1
10
62.4551969867154
20
4.71686068346531
30
0
41
1
10
62.7192055386692
20
4.72086709118796
30
0
41
1
10
62.8510743566524
20
4.72059667977538
30
0
41
1
10
63.2470024396371
20
4.71274636115078
30
0
41
1
10
63.5133224341079
20
4.6982901131139
30
0
41
1
10
64.0460670807141
20
4.65067225512482
30
0
41
1
10
64.3105514835241
20
4.617518454818
30
0
41
1
10
64.7068607414552
20
4.55481279244648
30
0
41
1
10
64.8388940625075
20
4.53176666775155
30
0
41
1
10
65.1026985686535
20
4.4814008861014
30
0
41
1
10
65.2345992295275
20
4.45415950281688
30
0
41
1
10
65.6281554482394
20
4.36502496316987
30
0
41
1
10
65.89091852173
20
4.29747471636946
30
0
41
1
10
66.4168848430437
20
4.14637002640367
30
0
41
1
10
66.6791918920632
20
4.06209322738641
30
0
41
1
10
67.2055915869062
20
3.87825752757726
30
0
41
1
10
67.4699595916869
20
3.77904931097467
30
0
41
1
10
67.8673421851697
20
3.61830047134032
30
0
41
1
10
67.9994237413969
20
3.56215614623721
30
0
41
1
10
68.2650881976917
20
3.44704433558985
30
0
41
1
10
68.3985414122967
20
3.38777367958821
30
0
41
1
10
68.7976332504066
20
3.20595956414596
30
0
41
1
10
69.0619803906611
20
3.07811538219425
30
0
41
1
10
69.5892641906826
20
2.81166132335582
30
0
41
1
10
69.8526839351488
20
2.67368708437752
30
0
41
1
10
70.3789090958959
20
2.38824037891595
30
0
41
1
10
70.6404511532489
20
2.23900011770297
30
0
41
1
10
71.1662731692546
20
1.93555606675491
30
0
41
1
10
71.4293239280623
20
1.77969112767727
30
0
41
1
10
71.9558062955711
20
1.45963538677057
30
0
41
1
10
72.219946970196
20
1.29649552975658
30
0
41
1
10
72.6181510641297
20
1.04808551378568
30
0
41
1
10
72.7512454191855
20
0.964718895857658
30
0
41
1
10
73.0169175213474
20
0.794778597239429
30
0
41
1
10
73.1497129306811
20
0.709752156059324
30
0
41
1
10
73.5476397159621
20
0.455292058642414
30
0
41
1
10
73.8122907168745
20
0.285845710849799
30
0
41
1
10
74.3389022363153
20
-0.0549713874220288
30
0
41
1
10
74.6016069772364
20
-0.225145345991422
30
0
41
1
10
74.9961053110906
20
-0.477972855150995
30
0
41
1
10
75.1276617418179
20
-0.561871128051308
30
0
41
1
10
75.3902971446217
20
-0.729833920079415
30
0
41
1
10
75.521053803853
20
-0.814396092748353
30
0
41
1
10
75.9149124374012
20
-1.06473378220943
30
0
41
1
10
76.1786040539099
20
-1.22873490820973
30
0
41
1
10
76.7057595301283
20
-1.55472555080917
30
0
41
1
10
76.9697810010178
20
-1.71584491134567
30
0
41
1
10
77.3684453016353
20
-1.9517084093076
30
0
41
1
10
77.5019380354627
20
-2.02956350488421
30
0
41
1
10
77.7680958373938
20
-2.18299555611011
30
0
41
1
10
77.9003964948647
20
-2.25918077066481
30
0
41
1
10
78.2969272486296
20
-2.48328505121498
30
0
41
1
10
78.5613542525843
20
-2.62607505246444
30
0
41
1
10
79.0878330241391
20
-2.90219957518789
30
0
41
1
10
79.3500242016228
20
-3.03524416101905
30
0
41
1
10
79.8753391407849
20
-3.28768630118023
30
0
41
1
10
80.1388208319071
20
-3.40680677537367
30
0
41
1
10
80.6631226487523
20
-3.63533840446234
30
0
41
1
10
80.926672659148
20
-3.74181736456163
30
0
41
1
10
81.4550761986275
20
-3.94084373017648
30
0
41
1
10
81.7193282904687
20
-4.03385844620828
30
0
41
1
10
82.118289454911
20
-4.16112865416926
30
0
41
1
10
82.2515251648219
20
-4.20145346599375
30
0
41
1
10
82.5171723835361
20
-4.27758127265091
30
0
41
1
10
82.6498478300875
20
-4.31340722399776
30
0
41
1
10
82.9140399474306
20
-4.38116482259261
30
0
41
1
10
83.0454597801161
20
-4.4131177802652
30
0
41
1
10
83.3088487641342
20
-4.47208598033649
30
0
41
1
10
83.4405729804344
20
-4.49926623124978
30
0
41
1
10
83.835498335116
20
-4.57419546251259
30
0
41
1
10
84.0976885939191
20
-4.61562431714307
30
0
41
1
10
84.622370595183
20
-4.68033313892315
30
0
41
1
10
84.885250003275
20
-4.70357909330221
30
0
41
1
10
85.2800435881917
20
-4.7249474521432
30
0
41
1
10
85.4112368185797
20
-4.7298543343592
30
0
41
1
10
85.6111860272843
20
-4.73375720529259
30
0
41
1
10
85.6796887852863
20
-4.73446565651798
30
0
41
1
10
85.7482872387449
20
-4.73455032119713
30
0
0
SPLINE
5
DF
100
AcDbEntity
8
1
62
256
6
ByLayer
370
18
48
1
60
0
100
AcDbSpline
70
4
71
3
72
40
73
36
40
0
40
0
40
0
40
0
40
0.0269218378160753
40
0.0269218378160753
40
0.108011684664733
40
0.108011684664733
40
0.189101531513391
40
0.189101531513391
40
0.229646454937721
40
0.229646454937721
40
0.27019137836205
40
0.27019137836205
40
0.351281225210714
40
0.351281225210714
40
0.432371072059379
40
0.432371072059379
40
0.47291599548371
40
0.47291599548371
40
0.513460918908042
40
0.513460918908042
40
0.5945507657567
40
0.5945507657567
40
0.675640612605358
40
0.675640612605358
40
0.71618553602969
40
0.71618553602969
40
0.756730459454022
40
0.756730459454022
40
0.83782030630268
40
0.83782030630268
40
0.918910153151338
40
0.918910153151338
40
0.959455076575669
40
0.959455076575669
40
1
40
1
40
1
40
1
41
1
10
100.711019573036
20
2.15562391919718
30
0
41
1
10
100.799037216774
20
2.20648936871333
30
0
41
1
10
100.887001549234
20
2.25670996209618
30
0
41
1
10
101.239669778038
20
2.45571666699391
30
0
41
1
10
101.503098138684
20
2.60058737647961
30
0
41
1
10
102.028595736404
20
2.87952096970778
30
0
41
1
10
102.291247997165
20
3.01285317155418
30
0
41
1
10
102.685247518183
20
3.20364317539443
30
0
41
1
10
102.816363363717
20
3.26596249810152
30
0
41
1
10
103.078154320547
20
3.3879748121586
30
0
41
1
10
103.20930376812
20
3.44713752839132
30
0
41
1
10
103.603441795443
20
3.61925258472959
30
0
41
1
10
103.866771205775
20
3.72722744547835
30
0
41
1
10
104.393906346528
20
3.93000998847251
30
0
41
1
10
104.658466310762
20
4.02406553330854
30
0
41
1
10
105.057778420568
20
4.15319389013496
30
0
41
1
10
105.191061573849
20
4.19408452404915
30
0
41
1
10
105.455623311096
20
4.27229857777493
30
0
41
1
10
105.58750949615
20
4.30929672105742
30
0
41
1
10
105.983455275188
20
4.41311129267351
30
0
41
1
10
106.247191968113
20
4.47327523079736
30
0
41
1
10
106.772226537632
20
4.57682348454185
30
0
41
1
10
107.034215633632
20
4.61976222433498
30
0
41
1
10
107.428048804349
20
4.67050228333014
30
0
41
1
10
107.559401377813
20
4.68517149839246
30
0
41
1
10
107.82203475803
20
4.71006876260898
30
0
41
1
10
107.952785102158
20
4.72038591164244
30
0
41
1
10
108.346472890374
20
4.74423233759575
30
0
41
1
10
108.610384374096
20
4.75093332664446
30
0
41
1
10
109.138507704699
20
4.74592768191107
30
0
41
1
10
109.403581422465
20
4.7340311623758
30
0
41
1
10
109.802505713766
20
4.70225531569574
30
0
41
1
10
109.935424881465
20
4.68938388318347
30
0
41
1
10
110.20093646264
20
4.65908126623546
30
0
41
1
10
110.333294966453
20
4.64157731288895
30
0
41
1
10
110.465431421585
20
4.62173289198037
30
0
0
SPLINE
5
E0
100
AcDbEntity
8
1
62
256
6
ByLayer
370
18
48
1
60
0
100
AcDbSpline
70
4
71
3
72
8
73
4
40
0
40
0
40
0
40
0
40
1
40
1
40
1
40
1
41
1
10
110.465431421583
20
4.6217328919823
30
0
41
1
10
110.405083113316
20
4.68059250937864
30
0
41
1
10
110.352309813531
20
4.71966949156786
30
0
41
1
10
110.306751455895
20
4.73798726642568
30
0
0
SPLINE
5
E1
100
AcDbEntity
8
1
62
256
6
ByLayer
370
18
48
1
60
0
100
AcDbSpline
70
4
71
3
72
14
73
10
40
0
40
0
40
0
40
0
40
0.25
40
0.25
40
0.5
40
0.5
40
0.75
40
0.75
40
1
40
1
40
1
40
1
41
1
10
8.11518060136262
20
-1.15759509002629
30
0
41
1
10
8.0974447463924
20
-1.14658680955483
30
0
41
1
10
8.08149721858211
20
-1.13366430689877
30
0
41
1
10
8.05306316468091
20
-1.1040903894399
30
0
41
1
10
8.04063346968928
20
-1.08735515234261
30
0
41
1
10
8.0207084447207
20
-1.05188289282944
30
0
41
1
10
8.01292992927651
20
-1.03265696880078
30
0
41
1
10
8.00261391284104
20
-0.993191082472322
30
0
41
1
10
7.99999953046446
20
-0.9730215766551
30
0
41
1
10
7.99999953046449
20
-0.952400551733234
30
0
0
SPLINE
5
E2
100
AcDbEntity
8
1
62
256
6
ByLayer
370
18
48
1
60
0
100
AcDbSpline
70
4
71
3
72
12
73
8
40
0
40
0
40
0
40
0
40
0.25
40
0.25
40
0.5
40
0.5
40
1
40
1
40
1
40
1
41
1
10
110.332749523237
20
1.19997774723302
30
0
41
1
10
110.456946016453
20
1.20124584886875
30
0
41
1
10
110.581029503808
20
1.20319743675933
30
0
41
1
10
110.829199582738
20
1.20708183747899
30
0
41
1
10
110.953255367929
20
1.20920097462422
30
0
41
1
10
111.325152723406
20
1.21719141069502
30
0
41
1
10
111.572216597968
20
1.22588228971838
30
0
41
1
10
111.817815062086
20
1.23869704828306
30
0
0
SPLINE
5
E3
100
AcDbEntity
8
1
62
256
6
ByLayer
370
18
48
1
60
0
100
AcDbSpline
70
4
71
3
72
16
73
12
40
0
40
0
40
0
40
0
40
0.25
40
0.25
40
0.5
40
0.5
40
0.75
40
0.75
40
0.875
40
0.875
40
1
40
1
40
1
40
1
41
1
10
8.24997831452012
20
-2.83064057109806
30
0
41
1
10
8.22527949839912
20
-2.85756802194317
30
0
41
1
10
8.20040784532694
20
-2.88599381822888
30
0
41
1
10
8.15028015779154
20
-2.94661128245926
30
0
41
1
10
8.12469466788573
20
-2.97918961188074
30
0
41
1
10
8.07507699855282
20
-3.04795363407723
30
0
41
1
10
8.05061870888784
20
-3.08467210437504
30
0
41
1
10
8.02146590247693
20
-3.13795527443577
30
0
41
1
10
8.01331685880683
20
-3.15505894012116
30
0
41
1
10
8.00260842327413
20
-3.18379132952992
30
0
41
1
10
7.99999953046446
20
-3.19554094224498
30
0
41
1
10
7.99999953046446
20
-3.20392010261045
30
0
0
SPLINE
5
E4
100
AcDbEntity
8
1
62
256
6
ByLayer
370
18
48
1
60
0
100
AcDbSpline
70
4
71
3
72
24
73
20
40
0
40
0
40
0
40
0
40
0.083942239312627
40
0.083942239312627
40
0.167884478625254
40
0.167884478625254
40
0.335768957250511
40
0.335768957250511
40
0.503653435875768
40
0.503653435875768
40
0.587595675188396
40
0.587595675188396
40
0.671537914501024
40
0.671537914501024
40
0.839422393126281
40
0.839422393126281
40
0.923364632438909
40
0.923364632438909
40
1
40
1
40
1
40
1
41
1
10
7.99999953046449
20
3.20861095761685
30
0
41
1
10
7.93550614658349
20
3.28044645735787
30
0
41
1
10
7.87195849945675
20
3.35091760594531
30
0
41
1
10
7.74658289019118
20
3.48878003211593
30
0
41
1
10
7.68496217062568
20
3.55593660762784
30
0
41
1
10
7.50500346772805
20
3.74951467619758
30
0
41
1
10
7.390722346898
20
3.86895858222195
30
0
41
1
10
7.171920250228
20
4.0870699271228
30
0
41
1
10
7.06739462486246
20
4.18575249803288
30
0
41
1
10
6.91732737728935
20
4.31648750615116
30
0
41
1
10
6.86843206760048
20
4.35717740584673
30
0
41
1
10
6.77289585766533
20
4.43237474807285
30
0
41
1
10
6.72617335821525
20
4.46691729571057
30
0
41
1
10
6.59175710822978
20
4.55908052811316
30
0
41
1
10
6.50896951787493
20
4.6059530604567
30
0
41
1
10
6.39547625824798
20
4.65336007275587
30
0
41
1
10
6.35944078551523
20
4.6653322434602
30
0
41
1
10
6.29420704315697
20
4.68055121484301
30
0
41
1
10
6.26460750564326
20
4.68446529205315
30
0
41
1
10
6.23694824181831
20
4.68482703023315
30
0
0
SPLINE
5
E5
100
AcDbEntity
8
1
62
256
6
ByLayer
370
18
48
1
60
0
100
AcDbSpline
70
4
71
3
72
8
73
4
40
0
40
0
40
0
40
0
40
1
40
1
40
1
40
1
41
1
10
8.74566601741847
20
2.28038367603372
30
0
41
1
10
8.85480718676183
20
2.29737962885898
30
0
41
1
10
8.96345511170657
20
2.31712342513387
30
0
41
1
10
9.07161357429686
20
2.33953702635245
30
0
0
SPLINE
5
E6
100
AcDbEntity
8
1
62
256
6
ByLayer
370
18
48
1
60
0
100
AcDbSpline
70
4
71
3
72
20
73
16
40
0
40
0
40
0
40
0
40
0.124999999999996
40
0.124999999999996
40
0.249999999999993
40
0.249999999999993
40
0.374999999999989
40
0.374999999999989
40
0.499999999999985
40
0.499999999999985
40
0.62499999999998
40
0.62499999999998
40
0.749999999999976
40
0.749999999999976
40
1
40
1
40
1
40
1
41
1
10
111.341902121603
20
-1.65274060811254
30
0
41
1
10
111.339746943143
20
-1.67766178760863
30
0
41
1
10
111.335522424711
20
-1.70607755238012
30
0
41
1
10
111.322895247809
20
-1.76996618111269
30
0
41
1
10
111.314455244969
20
-1.8053744578996
30
0
41
1
10
111.29436732479
20
-1.87918821539714
30
0
41
1
10
111.282451500584
20
-1.91856814350052
30
0
41
1
10
111.256506641705
20
-1.99748045901939
30
0
41
1
10
111.242299759638
20
-2.03762518955605
30
0
41
1
10
111.212398304309
20
-2.11709021887143
30
0
41
1
10
111.196934283947
20
-2.15584279117346
30
0
41
1
10
111.165122005337
20
-2.23159787855531
30
0
41
1
10
111.148864471434
20
-2.26834258119916
30
0
41
1
10
111.10064755918
20
-2.37220230193793
30
0
41
1
10
111.068463505368
20
-2.43470020006339
30
0
41
1
10
111.038225588224
20
-2.48708502639204
30
0
0
SPLINE
5
E7
100
AcDbEntity
8
1
62
256
6
ByLayer
370
18
48
1
60
0
100
AcDbSpline
70
4
71
3
72
88
73
84
40
0
40
0
40
0
40
0
40
0.0341110740631102
40
0.0341110740631102
40
0.0511666110946656
40
0.0511666110946656
40
0.0682221481262211
40
0.0682221481262211
40
0.102333222189332
40
0.102333222189332
40
0.136444296252443
40
0.136444296252443
40
0.153499833283998
40
0.153499833283998
40
0.170555370315553
40
0.170555370315553
40
0.204666444378663
40
0.204666444378663
40
0.238777518441774
40
0.238777518441774
40
0.272888592504884
40
0.272888592504884
40
0.289944129536439
40
0.289944129536439
40
0.306999666567994
40
0.306999666567994
40
0.341110740631104
40
0.341110740631104
40
0.375221814694215
40
0.375221814694215
40
0.392277351725769
40
0.392277351725769
40
0.409332888757324
40
0.409332888757324
40
0.443443962820433
40
0.443443962820433
40
0.477555036883542
40
0.477555036883542
40
0.494610573915097
40
0.494610573915097
40
0.511666110946651
40
0.511666110946651
40
0.545777185009762
40
0.545777185009762
40
0.579888259072872
40
0.579888259072872
40
0.613999333135982
40
0.613999333135982
40
0.631054870167537
40
0.631054870167537
40
0.648110407199092
40
0.648110407199092
40
0.682221481262202
40
0.682221481262202
40
0.699277018293758
40
0.699277018293758
40
0.716332555325314
40
0.716332555325314
40
0.73338809235687
40
0.73338809235687
40
0.750443629388426
40
0.750443629388426
40
0.784554703451536
40
0.784554703451536
40
0.818665777514646
40
0.818665777514646
40
0.827193546030423
40
0.827193546030423
40
0.835721314546199
40
0.835721314546199
40
0.852776851577752
40
0.852776851577752
40
0.88688792564086
40
0.88688792564086
40
0.920998999703967
40
0.920998999703967
40
0.938054536735522
40
0.938054536735522
40
0.955110073767076
40
0.955110073767076
40
0.989221147830185
40
0.989221147830185
40
1
40
1
40
1
40
1
41
1
10
9.07161357429683
20
1.94746769868587
30
0
41
1
10
9.33262590353195
20
1.807554600983
30
0
41
1
10
9.59225156773743
20
1.66432678595751
30
0
41
1
10
9.97905185439163
20
1.44355935720287
30
0
41
1
10
10.1076081372341
20
1.36908121225508
30
0
41
1
10
10.3645869388115
20
1.21935151049027
30
0
41
1
10
10.4936169359207
20
1.14509829322546
30
0
41
1
10
10.8795627918894
20
0.919713833080777
30
0
41
1
10
11.1358188219429
20
0.766738745694596
30
0
41
1
10
11.6487453354636
20
0.459329446195397
30
0
41
1
10
11.9054088172807
20
0.304881896301225
30
0
41
1
10
12.2907975537809
20
0.0723400694534746
30
0
41
1
10
12.4192311032896
20
-0.0054775302290011
30
0
41
1
10
12.6761284259833
20
-0.161578322688143
30
0
41
1
10
12.804521421947
20
-0.239986631790202
30
0
41
1
10
13.1919714610013
20
-0.472125216206962
30
0
41
1
10
13.4505334109709
20
-0.627523760664559
30
0
41
1
10
13.9694756049256
20
-0.937344920256947
30
0
41
1
10
14.2296075621519
20
-1.09109181761377
30
0
41
1
10
14.746861411713
20
-1.39080106116688
30
0
41
1
10
15.0042316775618
20
-1.53815461607505
30
0
41
1
10
15.389206202647
20
-1.75494606669102
30
0
41
1
10
15.5180711062954
20
-1.82536857819988
30
0
41
1
10
15.7749726229434
20
-1.96559097262394
30
0
41
1
10
15.9032260240737
20
-2.03502290227507
30
0
41
1
10
16.2876033829899
20
-2.24042791822402
30
0
41
1
10
16.5437670704235
20
-2.37304623283873
30
0
41
1
10
17.0569240832393
20
-2.62922440505781
30
0
41
1
10
17.3138898432491
20
-2.75282139916595
30
0
41
1
10
17.6993816592
20
-2.93157363981606
30
0
41
1
10
17.8279833699653
20
-2.98989619005823
30
0
41
1
10
18.0865422690445
20
-3.10267733298173
30
0
41
1
10
18.2159467763869
20
-3.15783815646012
30
0
41
1
10
18.6045737515843
20
-3.3195973154335
30
0
41
1
10
18.8648203842764
20
-3.42264540569892
30
0
41
1
10
19.3827013768874
20
-3.61391174919771
30
0
41
1
10
19.6409733101702
20
-3.70214258240293
30
0
41
1
10
20.0267079637715
20
-3.82432532840068
30
0
41
1
10
20.1549138025953
20
-3.86347747686975
30
0
41
1
10
20.4114277690483
20
-3.93789043975912
30
0
41
1
10
20.5401995125087
20
-3.97282159712648
30
0
41
1
10
20.9253131824608
20
-4.07268591848862
30
0
41
1
10
21.1812649122534
20
-4.1318021202018
30
0
41
1
10
21.6940678537378
20
-4.23468469275636
30
0
41
1
10
21.9508149207829
20
-4.27886124142361
30
0
41
1
10
22.4650959111217
20
-4.35089639139531
30
0
41
1
10
22.7219546524505
20
-4.37871999445426
30
0
41
1
10
23.1104488792329
20
-4.40831049543428
30
0
41
1
10
23.2400768933495
20
-4.41625539654569
30
0
41
1
10
23.4995972886171
20
-4.42834968117222
30
0
41
1
10
23.6295168362571
20
-4.43255679490082
30
0
41
1
10
24.0180310476393
20
-4.43811151941216
30
0
41
1
10
24.2760750379651
20
-4.43204486784543
30
0
41
1
10
24.662363611558
20
-4.41188623074839
30
0
41
1
10
24.7909111517416
20
-4.40332181826085
30
0
41
1
10
25.0474805510726
20
-4.38238530545138
30
0
41
1
10
25.1753556371494
20
-4.3699984003847
30
0
41
1
10
25.4315421369278
20
-4.34103230346596
30
0
41
1
10
25.5600890932675
20
-4.32443148984061
30
0
41
1
10
25.8164780856473
20
-4.28694156347637
30
0
41
1
10
25.9445268672727
20
-4.26622534737001
30
0
41
1
10
26.3284598433106
20
-4.19837565297806
30
0
41
1
10
26.5844607838381
20
-4.14614192092125
30
0
41
1
10
27.0978181425423
20
-4.02544222015095
30
0
41
1
10
27.3551737864366
20
-3.95676197167501
30
0
41
1
10
27.677101969831
20
-3.86134829736133
30
0
41
1
10
27.7414559699782
20
-3.84175428903217
30
0
41
1
10
27.8705510192888
20
-3.80201567293238
30
0
41
1
10
27.9353491165219
20
-3.78193683901034
30
0
41
1
10
28.1296816500168
20
-3.72019430675968
30
0
41
1
10
28.2594905497719
20
-3.67713441991299
30
0
41
1
10
28.6489289315045
20
-3.5418818434004
30
0
41
1
10
28.9070518901856
20
-3.44448745320955
30
0
41
1
10
29.4223703420831
20
-3.23872849848806
30
0
41
1
10
29.679596282585
20
-3.13098947999532
30
0
41
1
10
30.0639678593164
20
-2.9597323205744
30
0
41
1
10
30.1916733046449
20
-2.90079491799918
30
0
41
1
10
30.4478498250882
20
-2.78140331588634
30
0
41
1
10
30.5762944320066
20
-2.7209401993496
30
0
41
1
10
30.9607186467295
20
-2.53486161603186
30
0
41
1
10
31.2163554434197
20
-2.40550038886053
30
0
41
1
10
31.5536717930047
20
-2.22988940085685
30
0
41
1
10
31.6347375323737
20
-2.18729925331326
30
0
41
1
10
31.7158658231433
20
-2.14429027888826
30
0
0
SPLINE
5
E8
100
AcDbEntity
8
1
62
256
6
ByLayer
370
18
48
1
60
0
100
AcDbSpline
70
4
71
3
72
116
73
112
40
0
40
0
40
0
40
0
40
0.0125162703830474
40
0.0125162703830474
40
0.0250325407660945
40
0.0250325407660945
40
0.0375488111491421
40
0.0375488111491421
40
0.0500650815321896
40
0.0500650815321896
40
0.0750976222982834
40
0.0750976222982834
40
0.100130163064377
40
0.100130163064377
40
0.112646433447424
40
0.112646433447424
40
0.125162703830471
40
0.125162703830471
40
0.150195244596565
40
0.150195244596565
40
0.175227785362659
40
0.175227785362659
40
0.187744055745705
40
0.187744055745705
40
0.200260326128752
40
0.200260326128752
40
0.225292866894845
40
0.225292866894845
40
0.250325407660939
40
0.250325407660939
40
0.262841678043986
40
0.262841678043986
40
0.275357948427033
40
0.275357948427033
40
0.300390489193126
40
0.300390489193126
40
0.325423029959219
40
0.325423029959219
40
0.337939300342264
40
0.337939300342264
40
0.35045557072531
40
0.35045557072531
40
0.362971841108356
40
0.362971841108356
40
0.375488111491402
40
0.375488111491402
40
0.400520652257494
40
0.400520652257494
40
0.425553193023585
40
0.425553193023585
40
0.438069463406632
40
0.438069463406632
40
0.450585733789678
40
0.450585733789678
40
0.47561827455577
40
0.47561827455577
40
0.500650815321863
40
0.500650815321863
40
0.51316708570491
40
0.51316708570491
40
0.525683356087956
40
0.525683356087956
40
0.550715896854048
40
0.550715896854048
40
0.57574843762014
40
0.57574843762014
40
0.588264708003186
40
0.588264708003186
40
0.600780978386231
40
0.600780978386231
40
0.625813519152322
40
0.625813519152322
40
0.650846059918414
40
0.650846059918414
40
0.675878600684504
40
0.675878600684504
40
0.68839487106755
40
0.68839487106755
40
0.700911141450595
40
0.700911141450595
40
0.725943682216687
40
0.725943682216687
40
0.750976222982778
40
0.750976222982778
40
0.763492493365824
40
0.763492493365824
40
0.776008763748869
40
0.776008763748869
40
0.801041304514959
40
0.801041304514959
40
0.826073845281049
40
0.826073845281049
40
0.838590115664094
40
0.838590115664094
40
0.85110638604714
40
0.85110638604714
40
0.876138926813231
40
0.876138926813231
40
0.901171467579321
40
0.901171467579321
40
0.926204008345413
40
0.926204008345413
40
0.951236549111504
40
0.951236549111504
40
0.963752819494549
40
0.963752819494549
40
0.976269089877594
40
0.976269089877594
40
0.98878536026064
40
0.98878536026064
40
1
40
1
40
1
40
1
41
1
10
46.9014268407279
20
4.44956534268019
30
0
41
1
10
47.0304280565111
20
4.44984562190979
30
0
41
1
10
47.1597404776181
20
4.44776053652953
30
0
41
1
10
47.4186610855213
20
4.4392408574025
30
0
41
1
10
47.5484827220993
20
4.43282081538297
30
0
41
1
10
47.8072686264898
20
4.41592383615523
30
0
41
1
10
47.936847952312
20
4.40556791671708
30
0
41
1
10
48.195456239125
20
4.3811870688663
30
0
41
1
10
48.3244455258008
20
4.36720937488789
30
0
41
1
10
48.7104837558799
20
4.31872939988557
30
0
41
1
10
48.9669669497051
20
4.27729740043051
30
0
41
1
10
49.479776486733
20
4.17996619246725
30
0
41
1
10
49.7361068249486
20
4.12448801676211
30
0
41
1
10
50.1196604969861
20
4.02955976399022
30
0
41
1
10
50.24720442163
20
3.99545601023351
30
0
41
1
10
50.5038068399968
20
3.92422240337942
30
0
41
1
10
50.6322186302692
20
3.88677168630673
30
0
41
1
10
51.0172453913898
20
3.76903557353913
30
0
41
1
10
51.2737585549311
20
3.68351930761179
30
0
41
1
10
51.7888216621297
20
3.49972781802418
30
0
41
1
10
52.0476805227412
20
3.40011650061876
30
0
41
1
10
52.4371379416815
20
3.24045029329102
30
0
41
1
10
52.566585960941
20
3.18569279267632
30
0
41
1
10
52.8247551649047
20
3.073327188664
30
0
41
1
10
52.9541415531759
20
3.01655671735773
30
0
41
1
10
53.3412665111553
20
2.84194243670174
30
0
41
1
10
53.5979089859097
20
2.71908532449066
30
0
41
1
10
54.1108139419812
20
2.4648923413825
30
0
41
1
10
54.3670529592563
20
2.33373575508281
30
0
41
1
10
54.7512542671439
20
2.13115512884755
30
0
41
1
10
54.8792044481328
20
2.06246257770252
30
0
41
1
10
55.134999395691
20
1.9226620784635
30
0
41
1
10
55.2626521014317
20
1.85129658700944
30
0
41
1
10
55.6478656324986
20
1.63775102543329
30
0
41
1
10
55.9046448549417
20
1.49163188562244
30
0
41
1
10
56.418936091573
20
1.19258681197411
30
0
41
1
10
56.677000242105
20
1.04027655541489
30
0
41
1
10
57.066132597199
20
0.808716853646871
30
0
41
1
10
57.1962335862823
20
0.730928530712134
30
0
41
1
10
57.4552817604923
20
0.574755656563525
30
0
41
1
10
57.5844241419888
20
0.496301031683316
30
0
41
1
10
57.8420712159156
20
0.3389785341557
30
0
41
1
10
57.9712825761139
20
0.26131717953686
30
0
41
1
10
58.228926007538
20
0.105325179630086
30
0
41
1
10
58.3574783423883
20
0.0272032717402055
30
0
41
1
10
58.7424372212909
20
-0.207393423136352
30
0
41
1
10
58.9985284275977
20
-0.363545670018993
30
0
41
1
10
59.5108030553003
20
-0.673384911873683
30
0
41
1
10
59.7670862056506
20
-0.826761131891573
30
0
41
1
10
60.1510038424665
20
-1.05578424219311
30
0
41
1
10
60.2788073191708
20
-1.13208083287478
30
0
41
1
10
60.5358654142728
20
-1.28175763852627
30
0
41
1
10
60.6644031873841
20
-1.35632041977604
30
0
41
1
10
61.0501309908669
20
-1.57888026508334
30
0
41
1
10
61.30754166054
20
-1.72549298574276
30
0
41
1
10
61.8252038324536
20
-2.01154574952216
30
0
41
1
10
62.0858389301173
20
-2.15121501055725
30
0
41
1
10
62.4735824693249
20
-2.3548503202432
30
0
41
1
10
62.6024385178696
20
-2.42168665360916
30
0
41
1
10
62.8596744327025
20
-2.55270889055134
30
0
41
1
10
62.9887583033972
20
-2.61596148268867
30
0
41
1
10
63.3747493382782
20
-2.80304972722379
30
0
41
1
10
63.630897405472
20
-2.92356091825994
30
0
41
1
10
64.1432438886628
20
-3.15292384205975
30
0
41
1
10
64.3994483662742
20
-3.26133984682332
30
0
41
1
10
64.7839370072447
20
-3.41486983536396
30
0
41
1
10
64.9120347132237
20
-3.46466843948426
30
0
41
1
10
65.1681746322096
20
-3.56147516148397
30
0
41
1
10
65.2961571325617
20
-3.60852157679238
30
0
41
1
10
65.682206935797
20
-3.74317338060692
30
0
41
1
10
65.9396769140644
20
-3.82665361866847
30
0
41
1
10
66.4563237660699
20
-3.97928731874796
30
0
41
1
10
66.716547849602
20
-4.04852286527824
30
0
41
1
10
67.2348693464219
20
-4.17197763436783
30
0
41
1
10
67.4925916325781
20
-4.22591325837254
30
0
41
1
10
67.8778373752531
20
-4.2942244707782
30
0
41
1
10
68.0067560328876
20
-4.31465745954051
30
0
41
1
10
68.263711394503
20
-4.35203089828195
30
0
41
1
10
68.3919644975755
20
-4.36883961627063
30
0
41
1
10
68.7761951998651
20
-4.41334368021808
30
0
41
1
10
69.0320719162125
20
-4.4346327610094
30
0
41
1
10
69.5445057488622
20
-4.46014785571671
30
0
41
1
10
69.8010171410172
20
-4.46498024024217
30
0
41
1
10
70.1854620012892
20
-4.46044974788771
30
0
41
1
10
70.3136399244106
20
-4.45688524783216
30
0
41
1
10
70.571316313045
20
-4.4455936583978
30
0
41
1
10
70.7002522893446
20
-4.43779051567088
30
0
41
1
10
71.0873783154245
20
-4.40810488945283
30
0
41
1
10
71.3464369249443
20
-4.38020109882345
30
0
41
1
10
71.8650952833908
20
-4.30808451323455
30
0
41
1
10
72.1235548634439
20
-4.26344560758307
30
0
41
1
10
72.509405076141
20
-4.18479857135995
30
0
41
1
10
72.6376311521004
20
-4.15657634926242
30
0
41
1
10
72.8940443318489
20
-4.09681556871863
30
0
41
1
10
73.0227431797903
20
-4.0657200946506
30
0
41
1
10
73.4075158058785
20
-3.9660687467082
30
0
41
1
10
73.6630900899763
20
-3.89098916791502
30
0
41
1
10
74.1748751231994
20
-3.72767789336265
30
0
41
1
10
74.4309943235656
20
-3.6396755752518
30
0
41
1
10
74.9435370005464
20
-3.45069679639801
30
0
41
1
10
75.1993844767649
20
-3.34751549899684
30
0
41
1
10
75.7152990182474
20
-3.13187217733506
30
0
41
1
10
75.9734519142636
20
-3.0174737111245
30
0
41
1
10
76.3620901013127
20
-2.83724248221563
30
0
41
1
10
76.4917710951387
20
-2.77576090376661
30
0
41
1
10
76.7502564058856
20
-2.6503607131317
30
0
41
1
10
76.8792818067774
20
-2.58651001209378
30
0
41
1
10
77.137000470542
20
-2.45690766364623
30
0
41
1
10
77.2656182106682
20
-2.39102926701341
30
0
41
1
10
77.5089185424172
20
-2.26397245997396
30
0
41
1
10
77.6235738950625
20
-2.20290061099706
30
0
41
1
10
77.7382525383454
20
-2.14129053426862
30
0
0
SPLINE
5
E9
100
AcDbEntity
8
1
62
256
6
ByLayer
370
18
48
1
60
0
100
AcDbSpline
70
4
71
3
72
66
73
62
40
0
40
0
40
0
40
0
40
0.0103097924839067
40
0.0103097924839067
40
0.0623987507742341
40
0.0623987507742341
40
0.114487709064562
40
0.114487709064562
40
0.140532188209726
40
0.140532188209726
40
0.153554427782306
40
0.153554427782306
40
0.166576667354885
40
0.166576667354885
40
0.218665625645205
40
0.218665625645205
40
0.270754583935525
40
0.270754583935525
40
0.296799063080684
40
0.296799063080684
40
0.322843542225844
40
0.322843542225844
40
0.348888021371004
40
0.348888021371004
40
0.374932500516164
40
0.374932500516164
40
0.427021458806479
40
0.427021458806479
40
0.479110417096795
40
0.479110417096795
40
0.492132656669374
40
0.492132656669374
40
0.505154896241953
40
0.505154896241953
40
0.531199375387111
40
0.531199375387111
40
0.583288333677426
40
0.583288333677426
40
0.635377291967741
40
0.635377291967741
40
0.661421771112899
40
0.661421771112899
40
0.687466250258056
40
0.687466250258056
40
0.739555208548371
40
0.739555208548371
40
0.791644166838687
40
0.791644166838687
40
0.817688645983846
40
0.817688645983846
40
0.830710885556428
40
0.830710885556428
40
0.843733125129011
40
0.843733125129011
40
0.895822083419342
40
0.895822083419342
40
0.947911041709673
40
0.947911041709673
40
0.973955520854837
40
0.973955520854837
40
1
40
1
40
1
40
1
41
1
10
93.0232315673046
20
4.47771386230753
30
0
41
1
10
93.0738576132119
20
4.47721424835041
30
0
41
1
10
93.1244825569224
20
4.47641683808374
30
0
41
1
10
93.4305750817202
20
4.46984480089836
30
0
41
1
10
93.6855374327059
20
4.45641904792311
30
0
41
1
10
94.1972222669827
20
4.4115138793147
30
0
41
1
10
94.4538569616079
20
4.38066521741882
30
0
41
1
10
94.8395206621541
20
4.32343565453309
30
0
41
1
10
94.9681258984148
20
4.30250976322804
30
0
41
1
10
95.1612975825287
20
4.26775869047171
30
0
41
1
10
95.225693047082
20
4.25552259536065
30
0
41
1
10
95.3549467555767
20
4.2300563266225
30
0
41
1
10
95.4199043136055
20
4.2168822369851
30
0
41
1
10
95.7437681731334
20
4.14840817534901
30
0
41
1
10
96.0011795329966
20
4.08532713970146
30
0
41
1
10
96.5145817019957
20
3.9466751795847
30
0
41
1
10
96.7706750695554
20
3.8704398705955
30
0
41
1
10
97.1544448435758
20
3.74505719546832
30
0
41
1
10
97.2822285562924
20
3.70141631092048
30
0
41
1
10
97.5374585672113
20
3.61057821317951
30
0
41
1
10
97.6647445453021
20
3.56326462907171
30
0
41
1
10
97.9199337298431
20
3.46652773524389
30
0
41
1
10
98.0480027364847
20
3.41721284791564
30
0
41
1
10
98.303613930723
20
3.31452040398591
30
0
41
1
10
98.4313605696755
20
3.26139076882723
30
0
41
1
10
98.814711400685
20
3.09691682225127
30
0
41
1
10
99.0708332240175
20
2.98098195951607
30
0
41
1
10
99.5846820434782
20
2.73950877307891
30
0
41
1
10
99.8423095757011
20
2.6136872361194
30
0
41
1
10
100.165363709761
20
2.44783031899453
30
0
41
1
10
100.229961081919
20
2.41418975046167
30
0
41
1
10
100.359226334262
20
2.34693834194695
30
0
41
1
10
100.423988083151
20
2.31336100602869
30
0
41
1
10
100.617857486473
20
2.21161631014979
30
0
41
1
10
100.746773058449
20
2.14276062280626
30
0
41
1
10
101.132581112199
20
1.93320237616962
30
0
41
1
10
101.388705666714
20
1.78975736866136
30
0
41
1
10
101.900633202864
20
1.4983347482038
30
0
41
1
10
102.156480524435
20
1.35047455609603
30
0
41
1
10
102.539270086009
20
1.12406908765143
30
0
41
1
10
102.666548927943
20
1.04757014553979
30
0
41
1
10
102.921882389863
20
0.894750531868596
30
0
41
1
10
103.05005832607
20
0.818636415256094
30
0
41
1
10
103.43387361681
20
0.587568579328661
30
0
41
1
10
103.6894936338
20
0.431010260514029
30
0
41
1
10
104.202739376201
20
0.117047854171801
30
0
41
1
10
104.460329628332
20
-0.0404271638265072
30
0
41
1
10
104.848041421832
20
-0.277664802133216
30
0
41
1
10
104.977601467308
20
-0.357106444011549
30
0
41
1
10
105.171162400958
20
-0.475856311307922
30
0
41
1
10
105.235530931991
20
-0.515489969233698
30
0
41
1
10
105.364498814828
20
-0.593947368549181
30
0
41
1
10
105.429104823798
20
-0.632762429873623
30
0
41
1
10
105.751464757734
20
-0.826960119902196
30
0
41
1
10
106.00789230524
20
-0.981500811882938
30
0
41
1
10
106.519783589072
20
-1.28557273050984
30
0
41
1
10
106.7753949959
20
-1.43491077638123
30
0
41
1
10
107.158758801823
20
-1.65432428828618
30
0
41
1
10
107.286453542684
20
-1.72682425326528
30
0
41
1
10
107.541612202145
20
-1.87058480663643
30
0
41
1
10
107.668899748601
20
-1.94210509695887
30
0
41
1
10
107.796630855524
20
-2.01215477498622
30
0
0
SPLINE
5
EA
100
AcDbEntity
8
1
62
256
6
ByLayer
370
18
48
1
60
0
100
AcDbSpline
70
4
71
3
72
14
73
10
40
0
40
0
40
0
40
0
40
0.289600825798989
40
0.289600825798989
40
0.434401238698484
40
0.434401238698484
40
0.579201651597978
40
0.579201651597978
40
1
40
1
40
1
40
1
41
1
10
8.197577533008
20
-1.16686959266568
30
0
41
1
10
8.73511088072667
20
-1.48794182460938
30
0
41
1
10
9.27080493838696
20
-1.79807962644517
30
0
41
1
10
10.0763531303894
20
-2.23985719140114
30
0
41
1
10
10.3456714654457
20
-2.38336530166725
30
0
41
1
10
10.8812022104877
20
-2.65854804050946
30
0
41
1
10
11.1479352372976
20
-2.79052233871988
30
0
41
1
10
12.1874457192442
20
-3.2822311137044
30
0
41
1
10
12.9553369002288
20
-3.59704807387084
30
0
41
1
10
13.728639651225
20
-3.84922548508189
30
0
0
SPLINE
5
EB
100
AcDbEntity
8
1
62
256
6
ByLayer
370
13
48
1
60
0
100
AcDbSpline
70
4
71
3
72
16
73
12
40
0
40
0
40
0
40
0
40
0.159328660703076
40
0.159328660703076
40
0.304975052871614
40
0.304975052871614
40
0.450621445040152
40
0.450621445040152
40
0.741914229377229
40
0.741914229377229
40
1
40
1
40
1
40
1
41
1
10
13.7286401721367
20
-3.8492256549535
30
0
41
1
10
14.019738361833
20
-3.94415403762369
30
0
41
1
10
14.3116033890849
20
-4.03020619051765
30
0
41
1
10
14.8728507466288
20
-4.17674298971787
30
0
41
1
10
15.1422824574934
20
-4.23875666254992
30
0
41
1
10
15.6773627694997
20
-4.34471177005514
30
0
41
1
10
15.9438688007844
20
-4.38889095816987
30
0
41
1
10
16.7416985053941
20
-4.4949690716918
30
0
41
1
10
17.2711967429682
20
-4.53032828153891
30
0
41
1
10
18.2720653152491
20
-4.52985525070781
30
0
41
1
10
18.743059698093
20
-4.50160436941539
30
0
41
1
10
19.2172959906308
20
-4.44491439926301
30
0
0
SPLINE
5
EC
100
AcDbEntity
8
1
62
256
6
ByLayer
370
18
48
1
60
0
100
AcDbSpline
70
4
71
3
72
18
73
14
40
0
40
0
40
0
40
0
40
0.0441302018499588
40
0.0441302018499588
40
0.110994063927558
40
0.110994063927558
40
0.645904960548357
40
0.645904960548357
40
0.779632684703556
40
0.779632684703556
40
0.913360408858755
40
0.913360408858755
40
1
40
1
40
1
40
1
41
1
10
52.2815774578897
20
0.0039698484856387
30
0
41
1
10
52.3698016230553
20
-0.050891116471746
30
0
41
1
10
52.4581390604871
20
-0.10582900326358
30
0
41
1
10
52.680660324956
20
-0.244112467727092
30
0
41
1
10
52.8150931835791
20
-0.327560372901928
30
0
41
1
10
54.0207349849809
20
-1.07402781561382
30
0
41
1
10
55.0749361253066
20
-1.71396274342337
30
0
41
1
10
56.4062315798103
20
-2.43034155116274
30
0
41
1
10
56.6731293523096
20
-2.56948241436442
30
0
41
1
10
57.2091212147774
20
-2.83810356180314
30
0
41
1
10
57.4778350998888
20
-2.96727317755656
30
0
41
1
10
57.9193023603912
20
-3.16921093852551
30
0
41
1
10
58.0927884423806
20
-3.24598824111936
30
0
41
1
10
58.2662802229695
20
-3.3199865873739
30
0
0
SPLINE
5
ED
100
AcDbEntity
8
1
62
256
6
ByLayer
370
13
48
1
60
0
100
AcDbSpline
70
4
71
3
72
18
73
14
40
0
40
0
40
0
40
0
40
0.154103827912389
40
0.154103827912389
40
0.609992420475304
40
0.609992420475304
40
0.72396456861603
40
0.72396456861603
40
0.780950642686393
40
0.780950642686393
40
0.837936716756756
40
0.837936716756756
40
1
40
1
40
1
40
1
41
1
10
58.2662811437514
20
-3.31998698010906
30
0
41
1
10
58.6283562414909
20
-3.47442054922954
30
0
41
1
10
58.990456160235
20
-3.6167503313377
30
0
41
1
10
60.4269866816305
20
-4.12638228888665
30
0
41
1
10
61.4806364282952
20
-4.37976706620427
30
0
41
1
10
62.8081266735339
20
-4.52046568607199
30
0
41
1
10
63.0741157491572
20
-4.53978875470932
30
0
41
1
10
63.4744358866613
20
-4.5552210477025
30
0
41
1
10
63.6081031546643
20
-4.55811371989608
30
0
41
1
10
63.8760940259756
20
-4.55935463689102
30
0
41
1
10
64.0105017094741
20
-4.55768300364392
30
0
41
1
10
64.5251863102001
20
-4.54243467085163
30
0
41
1
10
64.9034888594912
20
-4.51271427583143
30
0
41
1
10
65.280751684776
20
-4.46535630668359
30
0
0
SPLINE
5
EE
100
AcDbEntity
8
1
62
256
6
ByLayer
370
18
48
1
60
0
100
AcDbSpline
70
4
71
3
72
18
73
14
40
0
40
0
40
0
40
0
40
0.35674100815442
40
0.35674100815442
40
0.469277511738455
40
0.469277511738455
40
0.525545763530472
40
0.525545763530472
40
0.581814015322489
40
0.581814015322489
40
0.806887022490574
40
0.806887022490574
40
1
40
1
40
1
40
1
41
1
10
98.2930438650004
20
-0.0031869017397241
30
0
41
1
10
99.1320062289886
20
-0.528074467625629
30
0
41
1
10
99.965577787138
20
-1.04974781713909
30
0
41
1
10
101.073309679505
20
-1.70221331544926
30
0
41
1
10
101.339765778154
20
-1.85617481088252
30
0
41
1
10
101.741354590202
20
-2.08224740796513
30
0
41
1
10
101.875456104162
20
-2.15674369466731
30
0
41
1
10
102.142599587648
20
-2.30295255176853
30
0
41
1
10
102.275863264461
20
-2.37479169187668
30
0
41
1
10
102.940965377558
20
-2.72731591652823
30
0
41
1
10
103.469242859442
20
-2.98791456732968
30
0
41
1
10
104.450082289576
20
-3.42512316242727
30
0
41
1
10
104.902792882217
20
-3.60837254493779
30
0
41
1
10
105.357361226729
20
-3.77056815338685
30
0
0
SPLINE
5
EF
100
AcDbEntity
8
1
62
256
6
ByLayer
370
13
48
1
60
0
100
AcDbSpline
70
4
71
3
72
18
73
14
40
0
40
0
40
0
40
0
40
0.0451936879180211
40
0.0451936879180211
40
0.204328073265036
40
0.204328073265036
40
0.283895265938536
40
0.283895265938536
40
0.363462458612037
40
0.363462458612037
40
0.681731229306018
40
0.681731229306018
40
1
40
1
40
1
40
1
41
1
10
105.357361229082
20
-3.77056815422665
30
0
41
1
10
105.43259189358
20
-3.79741138592971
30
0
41
1
10
105.50787344183
20
-3.8236779555765
30
0
41
1
10
105.848506477569
20
-3.93977693479508
30
0
41
1
10
106.114576382701
20
-4.02288411573645
30
0
41
1
10
106.51554387479
20
-4.13576302274379
30
0
41
1
10
106.64970366221
20
-4.1714731518542
30
0
41
1
10
106.917303731448
20
-4.23849430818422
30
0
41
1
10
107.050832797062
20
-4.26983925473527
30
0
41
1
10
107.717429957332
20
-4.41566830484794
30
0
41
1
10
108.247415369521
20
-4.49745030987913
30
0
41
1
10
109.30811511943
20
-4.58946844047099
30
0
41
1
10
109.838812873012
20
-4.59971650800807
30
0
41
1
10
110.372798336947
20
-4.57330687383134
30
0
0
SPLINE
5
F0
100
AcDbEntity
8
1
62
256
6
ByLayer
370
18
48
1
60
0
100
AcDbSpline
70
4
71
3
72
44
73
40
40
0
40
0
40
0
40
0
40
0.0625000000000038
40
0.0625000000000038
40
0.125000000000008
40
0.125000000000008
40
0.187500000000011
40
0.187500000000011
40
0.250000000000015
40
0.250000000000015
40
0.312500000000019
40
0.312500000000019
40
0.343750000000016
40
0.343750000000016
40
0.375000000000013
40
0.375000000000013
40
0.5
40
0.5
40
0.531249999999999
40
0.531249999999999
40
0.562499999999997
40
0.562499999999997
40
0.624999999999994
40
0.624999999999994
40
0.749999999999988
40
0.749999999999988
40
0.812499999999985
40
0.812499999999985
40
0.820312499999984
40
0.820312499999984
40
0.828124999999984
40
0.828124999999984
40
0.843749999999985
40
0.843749999999985
40
0.859374999999986
40
0.859374999999986
40
0.874999999999986
40
0.874999999999986
40
1
40
1
40
1
40
1
41
1
10
107.796630855524
20
-2.01215477498599
30
0
41
1
10
107.897909939641
20
-2.0373239342903
30
0
41
1
10
107.998746522341
20
-2.05756558841512
30
0
41
1
10
108.199815302865
20
-2.09131872701391
30
0
41
1
10
108.299999069425
20
-2.10429090179625
30
0
41
1
10
108.499551082344
20
-2.12115396966834
30
0
41
1
10
108.598925224896
20
-2.1251105202231
30
0
41
1
10
108.796592105017
20
-2.1209815612425
30
0
41
1
10
108.895408308199
20
-2.11267227929119
30
0
41
1
10
109.087391850228
20
-2.08167468427399
30
0
41
1
10
109.180892609578
20
-2.05909655665303
30
0
41
1
10
109.316756071862
20
-2.0127598081547
30
0
41
1
10
109.36130924205
20
-1.99522638527074
30
0
41
1
10
109.448830213234
20
-1.95565399983121
30
0
41
1
10
109.491975159897
20
-1.93351788515457
30
0
41
1
10
109.701276531689
20
-1.81222162855451
30
0
41
1
10
109.846324932429
20
-1.68292802900612
30
0
41
1
10
110.000613972059
20
-1.48238671753006
30
0
41
1
10
110.030190753163
20
-1.44020536119766
30
0
41
1
10
110.085826008925
20
-1.35352439234001
30
0
41
1
10
110.112009485825
20
-1.30888382995855
30
0
41
1
10
110.186128811132
20
-1.1714368979035
30
0
41
1
10
110.229689951437
20
-1.07515015119049
30
0
41
1
10
110.345257507837
20
-0.774264215493304
30
0
41
1
10
110.4024000347
20
-0.557096983603884
30
0
41
1
10
110.469333396519
20
-0.223627480595638
30
0
41
1
10
110.488308680579
20
-0.110518364727739
30
0
41
1
10
110.507466617914
20
0.0172617025925206
30
0
41
1
10
110.509372208635
20
0.0315157011743565
30
0
41
1
10
110.510106844408
20
0.0607989870208314
30
0
41
1
10
110.509196506958
20
0.0757625987459392
30
0
41
1
10
110.504057781209
20
0.121260177052136
30
0
41
1
10
110.497034495069
20
0.152027516775632
30
0
41
1
10
110.48036388322
20
0.212179304322262
30
0
41
1
10
110.470693920627
20
0.242007095561917
30
0
41
1
10
110.452404350952
20
0.301857931149613
30
0
41
1
10
110.443338969396
20
0.331798109410187
30
0
41
1
10
110.362435152831
20
0.601386978935977
30
0
41
1
10
110.295198884008
20
0.841829628502751
30
0
41
1
10
110.230895145228
20
1.08264123021988
30
0
0
SPLINE
5
F1
100
AcDbEntity
8
1
62
256
6
ByLayer
370
13
48
1
60
0
100
AcDbSpline
70
4
71
3
72
8
73
4
40
0
40
0
40
0
40
0
40
1
40
1
40
1
40
1
41
1
10
8.11807633869714
20
-1.12492075825406
30
0
41
1
10
8.14266896812697
20
-1.13596110898155
30
0
41
1
10
8.16978381062236
20
-1.15026821803792
30
0
41
1
10
8.197577533008
20
-1.16686959266568
30
0
0
SPLINE
5
F2
100
AcDbEntity
8
1
62
256
6
ByLayer
370
18
48
1
60
0
100
AcDbSpline
70
4
71
3
72
10
73
6
40
0
40
0
40
0
40
0
40
0.5
40
0.5
40
1
40
1
40
1
40
1
41
1
10
111.974988985166
20
-0.160400831396203
30
0
41
1
10
111.976985498953
20
-0.144577355323833
30
0
41
1
10
111.980303312232
20
-0.126819240722199
30
0
41
1
10
111.98881509924
20
-0.0885512431758286
30
0
41
1
10
111.994027051429
20
-0.0680938813844421
30
0
41
1
10
111.999941657399
20
-0.0471451624616464
30
0
0
SPLINE
5
F3
100
AcDbEntity
8
1
62
256
6
ByLayer
370
18
48
1
60
0
100
AcDbSpline
70
4
71
3
72
8
73
4
40
0
40
0
40
0
40
0
40
1
40
1
40
1
40
1
41
1
10
111.038225588222
20
-2.48708502639482
30
0
41
1
10
110.796226008778
20
-3.15197340643422
30
0
41
1
10
110.554226429334
20
-3.81686178647368
30
0
41
1
10
110.31222684989
20
-4.48175016651328
30
0
0
SPLINE
5
F4
100
AcDbEntity
8
1
62
256
6
ByLayer
370
18
48
1
60
0
100
AcDbSpline
70
4
71
3
72
16
73
12
40
0
40
0
40
0
40
0
40
0.125000000000007
40
0.125000000000007
40
0.250000000000014
40
0.250000000000014
40
0.50000000000001
40
0.50000000000001
40
0.750000000000005
40
0.750000000000005
40
1
40
1
40
1
40
1
41
1
10
7.99999953046449
20
3.2039201026104
30
0
41
1
10
7.99999953046449
20
3.19556072662184
30
0
41
1
10
8.00256573440691
20
3.18393520893218
30
0
41
1
10
8.01325657075716
20
3.15519164451723
30
0
41
1
10
8.02137670914453
20
3.13813944385092
30
0
41
1
10
8.05035746093586
20
3.08510777166652
30
0
41
1
10
8.07509012744856
20
3.04794325641012
30
0
41
1
10
8.12448547611419
20
2.97947173967978
30
0
41
1
10
8.14987270805531
20
2.94711503764603
30
0
41
1
10
8.20033227598861
20
2.88607426441197
30
0
41
1
10
8.22527671536315
20
2.85757105609895
30
0
41
1
10
8.24997831451992
20
2.830640571098
30
0
0
SPLINE
5
F5
100
AcDbEntity
8
1
62
256
6
ByLayer
370
18
48
1
60
0
100
AcDbSpline
70
4
71
3
72
20
73
16
40
0
40
0
40
0
40
0
40
0.0139105974751325
40
0.0139105974751325
40
0.070936448953687
40
0.070936448953687
40
0.184988151910801
40
0.184988151910801
40
0.641194963739258
40
0.641194963739258
40
0.755246666696372
40
0.755246666696372
40
0.869298369653487
40
0.869298369653487
40
1
40
1
40
1
40
1
41
1
10
29.2943145759054
20
-0.0040866292832504
30
0
41
1
10
29.3270451161505
20
-0.0243775962496215
30
0
41
1
10
29.3597582068732
20
-0.0446549310312889
30
0
41
1
10
29.5264343427007
20
-0.147939923712471
30
0
41
1
10
29.6601787118219
20
-0.230699527924713
30
0
41
1
10
30.0606952731854
20
-0.47812745404218
30
0
41
1
10
30.3267246383515
20
-0.641995374105704
30
0
41
1
10
31.6542029394734
20
-1.45247129748341
30
0
41
1
10
32.7088602547862
20
-2.07064362427812
30
0
41
1
10
34.0518886128618
20
-2.75202752247887
30
0
41
1
10
34.3197755334775
20
-2.88268975074195
30
0
41
1
10
34.8532984352283
20
-3.13079190203703
30
0
41
1
10
35.1191691187759
20
-3.24844773302607
30
0
41
1
10
35.6887185597823
20
-3.48645152706217
30
0
41
1
10
35.9923116659674
20
-3.6046250583554
30
0
41
1
10
36.2959792239744
20
-3.71324495710945
30
0
0
SPLINE
5
F6
100
AcDbEntity
8
1
62
256
6
ByLayer
370
13
48
1
60
0
100
AcDbSpline
70
4
71
3
72
16
73
12
40
0
40
0
40
0
40
0
40
0.114325619099694
40
0.114325619099694
40
0.382063030948801
40
0.382063030948801
40
0.649800442797909
40
0.649800442797909
40
0.917537854647018
40
0.917537854647018
40
1
40
1
40
1
40
1
41
1
10
36.2959801663837
20
-3.71324529420306
30
0
41
1
10
36.5222797022857
20
-3.7941911428594
30
0
41
1
10
36.7486205857258
20
-3.86983133543845
30
0
41
1
10
37.5060332131389
20
-4.10401006883336
30
0
41
1
10
38.0386262999556
20
-4.23770765787714
30
0
41
1
10
39.1132335679864
20
-4.43679077562479
30
0
41
1
10
39.6454155136653
20
-4.5003547099748
30
0
41
1
10
40.7067409633375
20
-4.55607626091415
30
0
41
1
10
41.235737715305
20
-4.5481645694025
30
0
41
1
10
41.9299498043785
20
-4.49108300756095
30
0
41
1
10
42.0935942758917
20
-4.4742672506114
30
0
41
1
10
42.2575249571022
20
-4.45407613754713
30
0
0
SPLINE
5
F7
100
AcDbEntity
8
1
62
256
6
ByLayer
370
18
48
1
60
0
100
AcDbSpline
70
4
71
3
72
16
73
12
40
0
40
0
40
0
40
0
40
0.0017879953919827
40
0.0017879953919827
40
0.257215993973175
40
0.257215993973175
40
0.38492999326377
40
0.38492999326377
40
0.512643992554364
40
0.512643992554364
40
1
40
1
40
1
40
1
41
1
10
75.2999672025713
20
-0.0074252054874648
30
0
41
1
10
75.3036726365943
20
-0.0097355412625575
30
0
41
1
10
75.3073780372103
20
-0.0120458411325899
30
0
41
1
10
75.8404219410342
20
-0.344393620947699
30
0
41
1
10
76.3688412633167
20
-0.674079490915375
30
0
41
1
10
77.165592454753
20
-1.15912551875536
30
0
41
1
10
77.4318160074473
20
-1.31930230724967
30
0
41
1
10
77.9665248137788
20
-1.63504166943221
30
0
41
1
10
78.2353212033607
20
-1.79082069383631
30
0
41
1
10
79.5208771309645
20
-2.51726494974616
30
0
41
1
10
80.5245068842615
20
-3.0281419677961
30
0
41
1
10
81.5374228680862
20
-3.44408524663837
30
0
0
SPLINE
5
F8
100
AcDbEntity
8
1
62
256
6
ByLayer
370
13
48
1
60
0
100
AcDbSpline
70
4
71
3
72
26
73
22
40
0
40
0
40
0
40
0
40
0.0219157656605144
40
0.0219157656605144
40
0.141020077993884
40
0.141020077993884
40
0.200572234160565
40
0.200572234160565
40
0.260124390327246
40
0.260124390327246
40
0.498333014993969
40
0.498333014993969
40
0.736541639660699
40
0.736541639660699
40
0.855645951994063
40
0.855645951994063
40
0.915198108160744
40
0.915198108160744
40
0.974750264327426
40
0.974750264327426
40
1
40
1
40
1
40
1
41
1
10
81.5374228699201
20
-3.44408524739148
30
0
41
1
10
81.586265019278
20
-3.46414176152319
30
0
41
1
10
81.6351287601027
20
-3.48397754468425
30
0
41
1
10
81.9497058240485
20
-3.61017156659943
30
0
41
1
10
82.2160602310245
20
-3.71016544079564
30
0
41
1
10
82.6173520581636
20
-3.84933632521023
30
0
41
1
10
82.7516189710823
20
-3.89398949177451
30
0
41
1
10
83.0194051023648
20
-3.97909609045618
30
0
41
1
10
83.1529942683596
20
-4.01957790356835
30
0
41
1
10
83.8196685773542
20
-4.21152683053629
30
0
41
1
10
84.3491478577571
20
-4.33167520576788
30
0
41
1
10
85.4070403558541
20
-4.50273160679359
30
0
41
1
10
85.9356091616598
20
-4.55367471870406
30
0
41
1
10
86.7329357601112
20
-4.57598451709657
30
0
41
1
10
86.9994528837631
20
-4.57439626442365
30
0
41
1
10
87.4010581265555
20
-4.55823316540054
30
0
41
1
10
87.535308970618
20
-4.55053446704537
30
0
41
1
10
87.8028070590343
20
-4.5306438793225
30
0
41
1
10
87.9362626981812
20
-4.51844459101912
30
0
41
1
10
88.1259623435
20
-4.49791659776864
30
0
41
1
10
88.1824035250277
20
-4.4914080347362
30
0
41
1
10
88.2388069797737
20
-4.48450571246391
30
0
0
SPLINE
5
F9
100
AcDbEntity
8
1
62
256
6
ByLayer
370
18
48
1
60
0
100
AcDbSpline
70
4
71
3
72
44
73
40
40
0
40
0
40
0
40
0
40
0.0625000000000112
40
0.0625000000000112
40
0.125000000000022
40
0.125000000000022
40
0.187500000000034
40
0.187500000000034
40
0.250000000000045
40
0.250000000000045
40
0.312500000000056
40
0.312500000000056
40
0.375000000000067
40
0.375000000000067
40
0.437500000000078
40
0.437500000000078
40
0.468750000000078
40
0.468750000000078
40
0.500000000000077
40
0.500000000000077
40
0.562500000000076
40
0.562500000000076
40
0.593750000000072
40
0.593750000000072
40
0.625000000000068
40
0.625000000000068
40
0.656250000000064
40
0.656250000000064
40
0.68750000000006
40
0.68750000000006
40
0.750000000000048
40
0.750000000000048
40
0.812500000000036
40
0.812500000000036
40
0.875000000000024
40
0.875000000000024
40
0.937500000000012
40
0.937500000000012
40
1
40
1
40
1
40
1
41
1
10
111.341902121603
20
-1.65274060811049
30
0
41
1
10
111.333808935761
20
-1.61706083086565
30
0
41
1
10
111.320350850442
20
-1.59006731662842
30
0
41
1
10
111.28674508955
20
-1.55292049322077
30
0
41
1
10
111.266328436447
20
-1.54226986055429
30
0
41
1
10
111.22095440525
20
-1.53493369226783
30
0
41
1
10
111.196292551831
20
-1.53812772189252
30
0
41
1
10
111.143495689561
20
-1.55658420898089
30
0
41
1
10
111.115331715376
20
-1.57202463525829
30
0
41
1
10
111.057913122878
20
-1.61352963359596
30
0
41
1
10
111.028149202534
20
-1.63990009494933
30
0
41
1
10
110.967800564949
20
-1.70342024798799
30
0
41
1
10
110.937800349576
20
-1.73987217393602
30
0
41
1
10
110.878183826622
20
-1.82312181655772
30
0
41
1
10
110.84811759531
20
-1.87077242200928
30
0
41
1
10
110.805974095275
20
-1.94808236704782
30
0
41
1
10
110.792363545733
20
-1.97487914241384
30
0
41
1
10
110.766147094473
20
-2.03083172414259
30
0
41
1
10
110.753602585537
20
-2.05990968245561
30
0
41
1
10
110.719131048123
20
-2.14777439426828
30
0
41
1
10
110.699625825431
20
-2.20943590855853
30
0
41
1
10
110.679628108309
20
-2.29688100628866
30
0
41
1
10
110.674351164888
20
-2.32573016501317
30
0
41
1
10
110.667073714
20
-2.38070221305736
30
0
41
1
10
110.665084977303
20
-2.40647465162459
30
0
41
1
10
110.664206330096
20
-2.45480126227895
30
0
41
1
10
110.665360487282
20
-2.47737104557481
30
0
41
1
10
110.670478235361
20
-2.51769966062415
30
0
41
1
10
110.674431030948
20
-2.53574595680192
30
0
41
1
10
110.690107851138
20
-2.58390195943687
30
0
41
1
10
110.705209909673
20
-2.60689549771465
30
0
41
1
10
110.742099637696
20
-2.63754231202151
30
0
41
1
10
110.76339590066
20
-2.64488997762771
30
0
41
1
10
110.810728804307
20
-2.64632584283089
30
0
41
1
10
110.836687084996
20
-2.64020754163553
30
0
41
1
10
110.890872689541
20
-2.61607450165627
30
0
41
1
10
110.91967590763
20
-2.59777613391836
30
0
41
1
10
110.978188249709
20
-2.55047640888674
30
0
41
1
10
111.00794098771
20
-2.52158680594616
30
0
41
1
10
111.038225588222
20
-2.48708502639536
30
0
0
SPLINE
5
FA
100
AcDbEntity
8
1
62
256
6
ByLayer
370
18
48
1
60
0
100
AcDbSpline
70
4
71
3
72
8
73
4
40
0
40
0
40
0
40
0
40
1
40
1
40
1
40
1
41
1
10
7.99999953046449
20
-0.949680306183069
30
0
41
1
10
7.99999953046449
20
-0.95058710995076
30
0
41
1
10
7.99999953046449
20
-0.951493858429842
30
0
41
1
10
7.99999953046449
20
-0.952400551733234
30
0
0
SPLINE
5
FB
100
AcDbEntity
8
1
62
256
6
ByLayer
370
18
48
1
60
0
100
AcDbSpline
70
4
71
3
72
60
73
56
40
0
40
0
40
0
40
0
40
0.031249999999999
40
0.031249999999999
40
0.0624999999999981
40
0.0624999999999981
40
0.124999999999997
40
0.124999999999997
40
0.187499999999996
40
0.187499999999996
40
0.218749999999996
40
0.218749999999996
40
0.249999999999996
40
0.249999999999996
40
0.312499999999995
40
0.312499999999995
40
0.343749999999994
40
0.343749999999994
40
0.374999999999994
40
0.374999999999994
40
0.437499999999993
40
0.437499999999993
40
0.468749999999993
40
0.468749999999993
40
0.499999999999993
40
0.499999999999993
40
0.562499999999992
40
0.562499999999992
40
0.593749999999992
40
0.593749999999992
40
0.624999999999991
40
0.624999999999991
40
0.68749999999999
40
0.68749999999999
40
0.71874999999999
40
0.71874999999999
40
0.749999999999989
40
0.749999999999989
40
0.812499999999988
40
0.812499999999988
40
0.843749999999988
40
0.843749999999988
40
0.847656249999988
40
0.847656249999988
40
0.851562499999987
40
0.851562499999987
40
0.855468749999987
40
0.855468749999987
40
0.859374999999987
40
0.859374999999987
40
0.874999999999989
40
0.874999999999989
40
0.937499999999994
40
0.937499999999994
40
1
40
1
40
1
40
1
41
1
10
7.99999953046449
20
-3.20861095761685
30
0
41
1
10
7.93550614658349
20
-3.28044645735787
30
0
41
1
10
7.87195849945675
20
-3.35091760594531
30
0
41
1
10
7.74658289019118
20
-3.48878003211593
30
0
41
1
10
7.68496217062568
20
-3.55593660762784
30
0
41
1
10
7.50500346772802
20
-3.74951467619758
30
0
41
1
10
7.390722346898
20
-3.86895858222195
30
0
41
1
10
7.17192025022803
20
-4.0870699271228
30
0
41
1
10
7.06739462486246
20
-4.18575249803285
30
0
41
1
10
6.91732737728935
20
-4.31648750615113
30
0
41
1
10
6.86843206760051
20
-4.3571774058467
30
0
41
1
10
6.77289585766536
20
-4.43237474807285
30
0
41
1
10
6.72617335821525
20
-4.46691729571055
30
0
41
1
10
6.59175710822981
20
-4.55908052811313
30
0
41
1
10
6.50896951787493
20
-4.6059530604567
30
0
41
1
10
6.39547625824801
20
-4.65336007275585
30
0
41
1
10
6.35944078551523
20
-4.6653322434602
30
0
41
1
10
6.29123866793603
20
-4.68124373401955
30
0
41
1
10
6.25897705132908
20
-4.68518122824614
30
0
41
1
10
6.16931564157886
20
-4.68413787424944
30
0
41
1
10
6.11967812062261
20
-4.66649810705138
30
0
41
1
10
6.06274280934645
20
-4.61394453915494
30
0
41
1
10
6.04670656240137
20
-4.59205850713633
30
0
41
1
10
6.0212173052833
20
-4.53917123944424
30
0
41
1
10
6.01175202405872
20
-4.5079425486241
30
0
41
1
10
5.99493470515102
20
-4.40202885649009
30
0
41
1
10
5.99876784868763
20
-4.31513815280567
30
0
41
1
10
6.03012201609931
20
-4.16137247656059
30
0
41
1
10
6.04484715786981
20
-4.10619566114991
30
0
41
1
10
6.0836615547465
20
-3.98797903375603
30
0
41
1
10
6.10785903524405
20
-3.92482694287099
30
0
41
1
10
6.19329636804227
20
-3.72902982343859
30
0
41
1
10
6.26779382332774
20
-3.58856997822843
30
0
41
1
10
6.40595236621732
20
-3.36594968724032
30
0
41
1
10
6.45672998230935
20
-3.28935292610402
30
0
41
1
10
6.56551289595456
20
-3.13510818719979
30
0
41
1
10
6.62351488485413
20
-3.05739187259408
30
0
41
1
10
6.80780727474388
20
-2.82309167171286
30
0
41
1
10
6.94456438859444
20
-2.66514983738151
30
0
41
1
10
7.16812419823353
20
-2.42866123594027
30
0
41
1
10
7.24539975201242
20
-2.35022998492096
30
0
41
1
10
7.33509115947726
20
-2.26272018116646
30
0
41
1
10
7.34495938180092
20
-2.25289981060439
30
0
41
1
10
7.36511627104895
20
-2.23355724425085
30
0
41
1
10
7.37657035856665
20
-2.22510192522054
30
0
41
1
10
7.40406443210168
20
-2.2147991632512
30
0
41
1
10
7.41891427640093
20
-2.21323718007079
30
0
41
1
10
7.44864091363158
20
-2.21165727915411
30
0
41
1
10
7.46350729186526
20
-2.2109212268121
30
0
41
1
10
7.5378544276407
20
-2.20750974936533
30
0
41
1
10
7.59739715898829
20
-2.20563987642029
30
0
41
1
10
7.89494767896809
20
-2.20057298920264
30
0
41
1
10
8.13340215278055
20
-2.2102645700125
30
0
41
1
10
8.60591512454278
20
-2.25575109015068
30
0
41
1
10
8.83988770520904
20
-2.29151663943702
30
0
41
1
10
9.07161357429689
20
-2.33953702635245
30
0
0
SPLINE
5
FC
100
AcDbEntity
8
1
62
256
6
ByLayer
370
18
48
1
60
0
100
AcDbSpline
70
4
71
3
72
16
73
12
40
0
40
0
40
0
40
0
40
0.107218525262343
40
0.107218525262343
40
0.461075597690591
40
0.461075597690591
40
0.814932670118832
40
0.814932670118832
40
0.991861206332953
40
0.991861206332953
40
1
40
1
40
1
40
1
41
1
10
86.9754908342301
20
-4.47403092675185
30
0
41
1
10
86.8138991272668
20
-4.47391937002393
30
0
41
1
10
86.652669273189
20
-4.47053926109027
30
0
41
1
10
85.9604501182303
20
-4.44209517657356
30
0
41
1
10
85.4319921494958
20
-4.38510036467321
30
0
41
1
10
84.3743038689597
20
-4.20383656650893
30
0
41
1
10
83.8448440183138
20
-4.07955034877619
30
0
41
1
10
83.0450138226081
20
-3.84460012807619
30
0
41
1
10
82.7765630890914
20
-3.75787775205785
30
0
41
1
10
82.4969552894448
20
-3.65987930480176
30
0
41
1
10
82.4846612352684
20
-3.65555488475647
30
0
41
1
10
82.4723695235039
20
-3.65121582848585
30
0
0
SPLINE
5
FD
100
AcDbEntity
8
1
62
256
6
ByLayer
370
13
48
1
60
0
100
AcDbSpline
70
4
71
3
72
22
73
18
40
0
40
0
40
0
40
0
40
0.073838976365487
40
0.073838976365487
40
0.383436510092035
40
0.383436510092035
40
0.460835893523673
40
0.460835893523673
40
0.538235276955312
40
0.538235276955312
40
0.693034043818589
40
0.693034043818589
40
0.847832810681865
40
0.847832810681865
40
0.925232194113502
40
0.925232194113502
40
1
40
1
40
1
40
1
41
1
10
82.4723695235721
20
-3.65121582850995
30
0
41
1
10
82.2174527694103
20
-3.56122851333331
30
0
41
1
10
81.9635434925311
20
-3.464946120208
30
0
41
1
10
80.6480274101242
20
-2.93503788282143
30
0
41
1
10
79.5966500985586
20
-2.40566318946117
30
0
41
1
10
78.2623420226063
20
-1.66046698863741
30
0
41
1
10
77.9936916380386
20
-1.50683903549901
30
0
41
1
10
77.4593881977344
20
-1.19596631054301
30
0
41
1
10
77.193326671835
20
-1.03842329481313
30
0
41
1
10
76.3969672899835
20
-0.56188241904303
30
0
41
1
10
75.8686308159106
20
-0.238752986019563
30
0
41
1
10
74.8101510092218
20
0.406810790918001
30
0
41
1
10
74.2801877121454
20
0.729539178347153
30
0
41
1
10
73.4787658204741
20
1.2045773185159
30
0
41
1
10
73.2100412539691
20
1.36174514297841
30
0
41
1
10
72.6851718902221
20
1.66286559451876
30
0
41
1
10
72.4282148918928
20
1.80741543529942
30
0
41
1
10
72.1718045120784
20
1.94802203937365
30
0
0
SPLINE
5
FE
100
AcDbEntity
8
1
62
256
6
ByLayer
370
18
48
1
60
0
100
AcDbSpline
70
4
71
3
72
14
73
10
40
0
40
0
40
0
40
0
40
0.161130448774453
40
0.161130448774453
40
0.496811980277981
40
0.496811980277981
40
0.832493511781511
40
0.832493511781511
40
1
40
1
40
1
40
1
41
1
10
40.9797016580534
20
-4.44540982838961
30
0
41
1
10
40.7254160872958
20
-4.44529061360331
30
0
41
1
10
40.4711198320243
20
-4.4371134305166
30
0
41
1
10
39.6858868075036
20
-4.38708734315614
30
0
41
1
10
39.1538190311996
20
-4.31841996959602
30
0
41
1
10
38.079730828806
20
-4.11118418701849
30
0
41
1
10
37.5475141616456
20
-3.97449292037285
30
0
41
1
10
36.7521248480702
20
-3.72550081518059
30
0
41
1
10
36.4877361750976
20
-3.63526715788601
30
0
41
1
10
36.2233384259111
20
-3.5381124872309
30
0
0
SPLINE
5
FF
100
AcDbEntity
8
1
62
256
6
ByLayer
370
13
48
1
60
0
100
AcDbSpline
70
4
71
3
72
22
73
18
40
0
40
0
40
0
40
0
40
0.0805719187350689
40
0.0805719187350689
40
0.160983686713404
40
0.160983686713404
40
0.241395454691739
40
0.241395454691739
40
0.563042526605079
40
0.563042526605079
40
0.643454294583416
40
0.643454294583416
40
0.723866062561753
40
0.723866062561753
40
0.884689598518429
40
0.884689598518429
40
1
40
1
40
1
40
1
41
1
10
36.2233384246273
20
-3.53811248675916
30
0
41
1
10
35.9578854065673
20
-3.44057005067825
30
0
41
1
10
35.6924232396977
20
-3.33605124445037
30
0
41
1
10
35.1612036868132
20
-3.11414298139138
30
0
41
1
10
34.8954068696171
20
-2.99681314289731
30
0
41
1
10
34.3620498383212
20
-2.74992662216798
30
0
41
1
10
34.0942188865075
20
-2.62014612768624
30
0
41
1
10
32.7522007436059
20
-1.94483558226787
30
0
41
1
10
31.6975865854139
20
-1.33536017777311
30
0
41
1
10
30.3704202309473
20
-0.540052000787824
30
0
41
1
10
30.104468175174
20
-0.379430870964455
30
0
41
1
10
29.5706376451076
20
-0.0564710336155088
30
0
41
1
10
29.3022630084222
20
0.106432803149488
30
0
41
1
10
28.497618386371
20
0.593639360923362
30
0
41
1
10
27.9656656723675
20
0.91287911900659
30
0
41
1
10
27.0548329452471
20
1.44356801414122
30
0
41
1
10
26.6750840542594
20
1.65967694554448
30
0
41
1
10
26.2948107717989
20
1.86854015181217
30
0
0
SPLINE
5
100
100
AcDbEntity
8
1
62
256
6
ByLayer
370
18
48
1
60
0
100
AcDbSpline
70
4
71
3
72
8
73
4
40
0
40
0
40
0
40
0
40
1
40
1
40
1
40
1
41
1
10
110.465431421577
20
4.62173289199899
30
0
41
1
10
110.929435204839
20
3.50774966685734
30
0
41
1
10
111.386605773584
20
2.3823727767435
30
0
41
1
10
111.817815062091
20
1.23869704828513
30
0
0
SPLINE
5
101
100
AcDbEntity
8
1
62
256
6
ByLayer
370
18
48
1
60
0
100
AcDbSpline
70
4
71
3
72
8
73
4
40
0
40
0
40
0
40
0
40
1
40
1
40
1
40
1
41
1
10
111.860742090444
20
-0.227239509410083
30
0
41
1
10
111.687795434164
20
-0.702406542310285
30
0
41
1
10
111.514848777884
20
-1.17757357521046
30
0
41
1
10
111.341902121603
20
-1.65274060811066
30
0
0
SPLINE
5
102
100
AcDbEntity
8
1
62
256
6
ByLayer
370
18
48
1
60
0
100
AcDbSpline
70
4
71
3
72
8
73
4
40
0
40
0
40
0
40
0
40
1
40
1
40
1
40
1
41
1
10
110.31222684989
20
-4.48175016651265
30
0
41
1
10
110.323647485248
20
-4.4865147115473
30
0
41
1
10
110.335918580025
20
-4.48882581862276
30
0
41
1
10
110.349059784384
20
-4.48871045142144
30
0
0
SPLINE
5
103
100
AcDbEntity
8
1
62
256
6
ByLayer
370
18
48
1
60
0
100
AcDbSpline
70
4
71
3
72
8
73
4
40
0
40
0
40
0
40
0
40
1
40
1
40
1
40
1
41
1
10
111.817815062092
20
-1.23869704828309
30
0
41
1
10
111.87723616525
20
-0.879218443336498
30
0
41
1
10
111.929643830576
20
-0.519786262764057
30
0
41
1
10
111.974988985166
20
-0.160400831396345
30
0
0
SPLINE
5
104
100
AcDbEntity
8
1
62
256
6
ByLayer
370
18
48
1
60
0
100
AcDbSpline
70
4
71
3
72
20
73
16
40
0
40
0
40
0
40
0
40
0.25
40
0.25
40
0.3125
40
0.3125
40
0.375
40
0.375
40
0.5
40
0.5
40
0.75
40
0.75
40
0.875
40
0.875
40
1
40
1
40
1
40
1
41
1
10
7.99999953046449
20
3.20392010261037
30
0
41
1
10
7.99999953046449
20
2.93239202537544
30
0
41
1
10
7.99999953046446
20
2.63372379765047
30
0
41
1
10
7.99999953046449
20
2.22581724287886
30
0
41
1
10
7.99999953046446
20
2.14241402250062
30
0
41
1
10
7.99999953046446
20
1.97375185082467
30
0
41
1
10
7.99999953046449
20
1.88829234653471
30
0
41
1
10
7.99999953046449
20
1.62853815972812
30
0
41
1
10
7.99999953046444
20
1.45001584175873
30
0
41
1
10
7.99999953046446
20
0.910384345490598
30
0
41
1
10
7.99999953046449
20
0.54361904179305
30
0
41
1
10
7.99999953046446
20
-0.0170647842445817
30
0
41
1
10
7.99999953046449
20
-0.206064876360557
30
0
41
1
10
7.99999953046446
20
-0.579690090027128
30
0
41
1
10
7.99999953046449
20
-0.76529645254513
30
0
41
1
10
7.99999953046449
20
-0.949680306183069
30
0
0
SPLINE
5
105
100
AcDbEntity
8
1
62
256
6
ByLayer
370
18
48
1
60
0
100
AcDbSpline
70
4
71
3
72
8
73
4
40
0
40
0
40
0
40
0
40
1
40
1
40
1
40
1
41
1
10
110.465431421577
20
-4.62173289199899
30
0
41
1
10
110.929440770805
20
-3.50773630405112
30
0
41
1
10
111.386610844487
20
-2.38235932742995
30
0
41
1
10
111.817815062091
20
-1.23869704828519
30
0
0
SPLINE
5
106
100
AcDbEntity
8
1
62
256
6
ByLayer
370
13
48
1
60
0
100
AcDbSpline
70
4
71
3
72
8
73
4
40
0
40
0
40
0
40
0
40
1
40
1
40
1
40
1
41
1
10
8.11518060136265
20
-1.15759509002592
30
0
41
1
10
8.1161333939769
20
-1.14671377853304
30
0
41
1
10
8.11709858710395
20
-1.13582253240094
30
0
41
1
10
8.11807633869711
20
-1.12492075825404
30
0
0
SPLINE
5
107
100
AcDbEntity
8
1
62
256
6
ByLayer
370
18
48
1
60
0
100
AcDbSpline
70
4
71
3
72
8
73
4
40
0
40
0
40
0
40
0
40
1
40
1
40
1
40
1
41
1
10
111.999941657399
20
0.0471451624613053
30
0
41
1
10
112.000019447468
20
0.0157150805510469
30
0
41
1
10
112.000019447468
20
-0.0157150805503647
30
0
41
1
10
111.999941657399
20
-0.0471451624606232
30
0
0
SPLINE
5
108
100
AcDbEntity
8
1
62
256
6
ByLayer
370
13
48
1
60
0
100
AcDbSpline
70
4
71
3
72
18
73
14
40
0
40
0
40
0
40
0
40
0.25
40
0.25
40
0.5
40
0.5
40
0.625
40
0.625
40
0.75
40
0.75
40
0.875
40
0.875
40
1
40
1
40
1
40
1
41
1
10
8.25024496019816
20
-1.06071715199224
30
0
41
1
10
8.2502321030826
20
-0.723142451669361
30
0
41
1
10
8.25020780954048
20
-0.380123919977592
30
0
41
1
10
8.25014952895569
20
0.314892644136791
30
0
41
1
10
8.25011656474754
20
0.655951025812783
30
0
41
1
10
8.25007085404147
20
1.15819217759116
30
0
41
1
10
8.25005617386495
20
1.32456705545567
30
0
41
1
10
8.25002963952682
20
1.65160792018153
30
0
41
1
10
8.25001788237188
20
1.81105932820344
30
0
41
1
10
8.24999847240858
20
2.12184800012625
30
0
41
1
10
8.24999086614952
20
2.27283582360988
30
0
41
1
10
8.24998075767019
20
2.56095376707398
30
0
41
1
10
8.24997820173385
20
2.69885054879509
30
0
41
1
10
8.24997831452015
20
2.83064054864173
30
0
0
SPLINE
5
109
100
AcDbEntity
8
1
62
256
6
ByLayer
370
18
48
1
60
0
100
AcDbSpline
70
4
71
3
72
8
73
4
40
0
40
0
40
0
40
0
40
1
40
1
40
1
40
1
41
1
10
111.817815062092
20
1.23869704828303
30
0
41
1
10
111.877237211004
20
0.879212116859037
30
0
41
1
10
111.929644630436
20
0.519779923432537
30
0
41
1
10
111.974988985166
20
0.160400831396402
30
0
0
SPLINE
5
10A
100
AcDbEntity
8
1
62
256
6
ByLayer
370
13
48
1
60
0
100
AcDbSpline
70
4
71
3
72
14
73
10
40
0
40
0
40
0
40
0
40
0.25
40
0.25
40
0.5
40
0.5
40
0.75
40
0.75
40
1
40
1
40
1
40
1
41
1
10
7.99999953046446
20
-0.949680306183069
30
0
41
1
10
7.99999953046444
20
-0.956937534187631
30
0
41
1
10
8.00252667446415
20
-0.96431174279212
30
0
41
1
10
8.01260647372862
20
-0.978377311830286
30
0
41
1
10
8.0200390713413
20
-0.98505735057509
30
0
41
1
10
8.03986116005902
20
-0.99772391899856
30
0
41
1
10
8.05247980660886
20
-1.00377143986489
30
0
41
1
10
8.08196112910815
20
-1.01445974725746
30
0
41
1
10
8.098801439526
20
-1.01915930290085
30
0
41
1
10
8.11807633869714
20
-1.02314912516718
30
0
0
SPLINE
5
10B
100
AcDbEntity
8
1
62
256
6
ByLayer
370
18
48
1
60
0
100
AcDbSpline
70
4
71
3
72
10
73
6
40
0
40
0
40
0
40
0
40
0.5
40
0.5
40
1
40
1
40
1
40
1
41
1
10
111.974988985166
20
0.160400831396373
30
0
41
1
10
111.976985498953
20
0.144577355323946
30
0
41
1
10
111.980303312231
20
0.126819240722284
30
0
41
1
10
111.98881509924
20
0.0885512431757718
30
0
41
1
10
111.994027051429
20
0.0680938813843284
30
0
41
1
10
111.999941657399
20
0.0471451624614758
30
0
0
SPLINE
5
10C
100
AcDbEntity
8
1
62
256
6
ByLayer
370
18
48
1
60
0
100
AcDbSpline
70
4
71
3
72
18
73
14
40
0
40
0
40
0
40
0
40
0.130459513360208
40
0.236183795177806
40
0.310814892237822
40
0.382948770239472
40
0.452586582654067
40
0.526404065330306
40
0.617212911562509
40
0.742160317767265
40
0.873255621404936
40
0.985809180393275
40
1
40
1
40
1
40
1
41
1
10
46.9079718487706
20
4.44948099156244
30
0
41
1
10
46.7457688605109
20
4.44897674895111
30
0
41
1
10
46.4521164658823
20
4.44834603030856
30
0
41
1
10
46.065672108136
20
4.44828929456747
30
0
41
1
10
45.7517465094784
20
4.44852019078363
30
0
41
1
10
45.4826874117322
20
4.44871733812496
30
0
41
1
10
45.2146402489195
20
4.44824660124746
30
0
41
1
10
44.9233756752398
20
4.44750224519123
30
0
41
1
10
44.5633665435616
20
4.44737096746485
30
0
41
1
10
44.1321372421365
20
4.44763222572217
30
0
41
1
10
43.6738497669839
20
4.44724720174008
30
0
41
1
10
43.3532654469711
20
4.44676066614304
30
0
41
1
10
43.1957152737092
20
4.44666293810053
30
0
41
1
10
43.1780756191584
20
4.44665344832654
30
0
0
SPLINE
5
10D
100
AcDbEntity
8
1
62
256
6
ByLayer
370
18
48
1
60
0
100
AcDbSpline
70
4
71
3
72
15
73
11
40
0
40
0
40
0
40
0
40
0.0223046228693045
40
0.231618610536904
40
0.407887342795398
40
0.548813935567788
40
0.661789911567445
40
0.786620036388453
40
0.934650190868293
40
1
40
1
40
1
40
1
41
1
10
93.0141170677888
20
4.47782285109705
30
0
41
1
10
92.9854956616389
20
4.47774820630082
30
0
41
1
10
92.6883474771249
20
4.47700820908639
30
0
41
1
10
92.1582994500812
20
4.47906311750685
30
0
41
1
10
91.4956432442175
20
4.47663948927351
30
0
41
1
10
90.9378290235815
20
4.47595741693652
30
0
41
1
10
90.4560471129898
20
4.47707620171795
30
0
41
1
10
89.960090637382
20
4.47579513923819
30
0
41
1
10
89.5234720367345
20
4.47614520661563
30
0
41
1
10
89.2495951803292
20
4.47586930396565
30
0
41
1
10
89.1657675721888
20
4.47575545288169
30
0
0
SPLINE
5
10E
100
AcDbEntity
8
1
62
256
6
ByLayer
370
18
48
1
60
0
100
AcDbSpline
70
4
71
3
72
18
73
14
40
0
40
0
40
0
40
0
40
0.143551206341052
40
0.244833400463369
40
0.308404417197855
40
0.365591653141837
40
0.459528788425207
40
0.572150673812612
40
0.657807353522659
40
0.73003374835969
40
0.793306473495706
40
0.881800162476393
40
1
40
1
40
1
40
1
41
1
10
17.9411889189983
20
-4.43097626568311
30
0
41
1
10
18.2279406245198
20
-4.43113955493024
30
0
41
1
10
18.7169492587821
20
-4.43144006691358
30
0
41
1
10
19.3333234771097
20
-4.43173870806143
30
0
41
1
10
19.7764156161009
20
-4.43212570100866
30
0
41
1
10
20.2051913460552
20
-4.43234435030189
30
0
41
1
10
20.7322545744848
20
-4.43301616453479
30
0
41
1
10
21.3160664202017
20
-4.43308596523028
30
0
41
1
10
21.8565133953017
20
-4.4334216166786
30
0
41
1
10
22.2983756677066
20
-4.43401493315997
30
0
41
1
10
22.7458243362941
20
-4.43381307305643
30
0
41
1
10
23.2852715140774
20
-4.43386462387858
30
0
41
1
10
23.6982198336069
20
-4.43471762293376
30
0
41
1
10
23.9343697801017
20
-4.4354218471569
30
0
0
SPLINE
5
10F
100
AcDbEntity
8
1
62
256
6
ByLayer
370
18
48
1
60
0
100
AcDbSpline
70
4
71
3
72
17
73
13
40
0
40
0
40
0
40
0
40
0.0435396177326603
40
0.212591334921329
40
0.369267083036902
40
0.496471295768742
40
0.597166026251448
40
0.736013380745425
40
0.888770192422273
40
0.940156205297538
40
0.996414611706976
40
1
40
1
40
1
40
1
41
1
10
24.1014196156936
20
4.43347560708256
30
0
41
1
10
24.0454796974747
20
4.43334575581324
30
0
41
1
10
23.772215072582
20
4.43281388142751
30
0
41
1
10
23.2854928446415
20
4.43241902570412
30
0
41
1
10
22.7124706658857
20
4.43436020206235
30
0
41
1
10
22.2111706266094
20
4.43348016302843
30
0
41
1
10
21.7347164846401
20
4.43331224308255
30
0
41
1
10
21.2246109488017
20
4.43313047198822
30
0
41
1
10
20.7776796159419
20
4.43297763214815
30
0
41
1
10
20.4385600759268
20
4.43260953571539
30
0
41
1
10
20.2936900668759
20
4.43246954611712
30
0
41
1
10
20.215757884718
20
4.43240277009699
30
0
41
1
10
20.2110888131846
20
4.43239879911823
30
0
0
SPLINE
5
110
100
AcDbEntity
8
1
62
256
6
ByLayer
370
18
48
1
60
0
100
AcDbSpline
70
4
71
3
72
19
73
15
40
0
40
0
40
0
40
0
40
0.156771300718189
40
0.301716222564577
40
0.420668883440161
40
0.508346764807518
40
0.54649567979078
40
0.582092275777861
40
0.616475982078793
40
0.670763124047684
40
0.752239718908419
40
0.860854861030993
40
0.996636733955244
40
1
40
1
40
1
40
1
41
1
10
63.940866673418
20
-4.45975581187679
30
0
41
1
10
64.2513096831578
20
-4.45921464203201
30
0
41
1
10
64.8495979048836
20
-4.45867974196417
30
0
41
1
10
65.68979183404
20
-4.46102952053303
30
0
41
1
10
66.3877769917665
20
-4.46134529649038
30
0
41
1
10
66.8768802823547
20
-4.46142272514729
30
0
41
1
10
67.1989600876134
20
-4.46195956404122
30
0
41
1
10
67.4147664344244
20
-4.46220203188659
30
0
41
1
10
67.6627546609997
20
-4.46230922882239
30
0
41
1
10
68.0022729117489
20
-4.46227537204035
30
0
41
1
10
68.4899565687131
20
-4.46259049082585
30
0
41
1
10
69.1403004683185
20
-4.46344719848494
30
0
41
1
10
69.6347642914892
20
-4.46249788375363
30
0
41
1
10
69.9124305174678
20
-4.46279595044268
30
0
41
1
10
69.9191419575475
20
-4.46280325309104
30
0
0
SPLINE
5
111
100
AcDbEntity
8
1
62
256
6
ByLayer
370
18
48
1
60
0
100
AcDbSpline
70
4
71
3
72
16
73
12
40
0
40
0
40
0
40
0
40
0.170525988712859
40
0.31005551924785
40
0.396472835240089
40
0.479941846325064
40
0.588891078595149
40
0.723740667945429
40
0.860269780372246
40
0.970839129254372
40
1
40
1
40
1
40
1
41
1
10
69.8876674679027
20
4.46287801889494
30
0
41
1
10
69.6783072584238
20
4.46291819756163
30
0
41
1
10
69.2976305741566
20
4.46289304087131
30
0
41
1
10
68.8108761765375
20
4.46316693600915
30
0
41
1
10
68.4309243597409
20
4.46257546401731
30
0
41
1
10
68.0890217839957
20
4.46231371202157
30
0
41
1
10
67.6872456966979
20
4.46231813409355
30
0
41
1
10
67.2202996953492
20
4.46201110284665
30
0
41
1
10
66.7513506722433
20
4.46126480625995
30
0
41
1
10
66.4121682192436
20
4.46130349951895
30
0
41
1
10
66.2406092010916
20
4.46128690280307
30
0
41
1
10
66.2048062996778
20
4.4612812755295
30
0
0
SPLINE
5
112
100
AcDbEntity
8
1
62
256
6
ByLayer
370
18
48
1
60
0
100
AcDbSpline
70
4
71
3
72
20
73
16
40
0
40
0
40
0
40
0
40
0.144725606116966
40
0.2520423536385
40
0.321965905254057
40
0.378636452353691
40
0.450076868995208
40
0.533808850908055
40
0.614200283413004
40
0.687492611751867
40
0.745973328182168
40
0.805755961757803
40
0.852414259737806
40
0.918511573539179
40
1
40
1
40
1
40
1
41
1
10
40.9415613825201
20
-4.44540623294131
30
0
41
1
10
41.2293744863938
20
-4.44552225037418
30
0
41
1
10
41.7306146221114
20
-4.44575678288916
30
0
41
1
10
42.3708522425035
20
-4.44641162783179
30
0
41
1
10
42.8360939173549
20
-4.44658476479347
30
0
41
1
10
43.2297785749411
20
-4.4466050192209
30
0
41
1
10
43.6510823812976
20
-4.44719253332346
30
0
41
1
10
44.1195586239103
20
-4.44765498084834
30
0
41
1
10
44.5916917518325
20
-4.44732786128003
30
0
41
1
10
45.0136018138813
20
-4.44761311090676
30
0
41
1
10
45.3945569671092
20
-4.4487542644618
30
0
41
1
10
45.722540822177
20
-4.44854725206042
30
0
41
1
10
46.0656721602026
20
-4.44828733512733
30
0
41
1
10
46.4519712674717
20
-4.44834672856848
30
0
41
1
10
46.7454785036343
20
-4.44897635132233
30
0
41
1
10
46.9075363126908
20
-4.44948007706429
30
0
0
SPLINE
5
113
100
AcDbEntity
8
1
62
256
6
ByLayer
370
18
48
1
60
0
100
AcDbSpline
70
4
71
3
72
17
73
13
40
0
40
0
40
0
40
0
40
0.162781304412971
40
0.295879084104798
40
0.4075213556585
40
0.501330687307313
40
0.580437749112849
40
0.652032626825637
40
0.741340305634515
40
0.853044924438903
40
0.985690907281405
40
1
40
1
40
1
40
1
41
1
10
86.9403412075479
20
-4.47400515387261
30
0
41
1
10
87.2689943129338
20
-4.47356520446596
30
0
41
1
10
87.867018880981
20
-4.47330747389123
30
0
41
1
10
88.6967835321474
20
-4.47492321521813
30
0
41
1
10
89.3804062006357
20
-4.476259913001
30
0
41
1
10
89.9600906408247
20
-4.4757951375191
30
0
41
1
10
90.4560471044819
20
-4.4770762068467
30
0
41
1
10
90.9378290559429
20
-4.47595739793562
30
0
41
1
10
91.4956430727991
20
-4.47663959030157
30
0
41
1
10
92.1583003307116
20
-4.4790625988596
30
0
41
1
10
92.6887023815748
20
-4.47700825481854
30
0
41
1
10
92.9862017356805
20
-4.47774965353517
30
0
41
1
10
93.0151759081911
20
-4.47782531038607
30
0
0
SPLINE
5
114
100
AcDbEntity
8
1
62
256
6
ByLayer
370
18
48
1
60
0
100
AcDbSpline
70
4
71
1
72
4
73
2
40
0
40
0
40
1
40
1
41
1
10
109.940432031658
20
-4.48850312899484
30
0
41
1
10
110.351583339174
20
-4.48878025208458
30
0
0
LINE
5
7B
100
AcDbEntity
8
SK1
62
256
6
ByLayer
370
18
48
1
60
0
100
AcDbLine
10
0
20
-5
30
0
11
0
21
5
31
0
39
0
210
0
220
0
230
1
0
LINE
5
7D
100
AcDbEntity
8
SK1
62
256
6
ByLayer
370
13
48
1
60
0
100
AcDbLine
10
-39.35
20
2.613902
30
0
11
-39.35
21
0.78568
31
0
39
0
210
0
220
0
230
1
0
LINE
5
7E
100
AcDbEntity
8
SK1
62
256
6
ByLayer
370
18
48
1
60
0
100
AcDbLine
10
-38.66
20
5
30
0
11
-38.66
21
-5
31
0
39
0
210
0
220
0
230
1
0
LINE
5
7F
100
AcDbEntity
8
SK1
62
256
6
ByLayer
370
18
48
1
60
0
100
AcDbLine
10
-39.25
20
0.927675
30
0
11
-39.25
21
2.57309
31
0
39
0
210
0
220
0
230
1
0
LINE
5
80
100
AcDbEntity
8
SK1
62
256
6
ByLayer
370
18
48
1
60
0
100
AcDbLine
10
-40
20
3.66
30
0
11
-40
21
2.341586
31
0
39
0
210
0
220
0
230
1
0
LINE
5
81
100
AcDbEntity
8
SK1
62
256
6
ByLayer
370
18
48
1
60
0
100
AcDbLine
10
-40
20
0.513347
30
0
11
-40
21
-3.66
31
0
39
0
210
0
220
0
230
1
0
LINE
5
82
100
AcDbEntity
8
SK1
62
256
6
ByLayer
370
18
48
1
60
0
100
AcDbLine
10
-40
20
2.341586
30
0
11
-40
21
0.513358
31
0
39
0
210
0
220
0
230
1
0
LINE
5
83
100
AcDbEntity
8
1
62
256
6
ByLayer
370
18
48
1
60
0
100
AcDbLine
10
109.601401
20
-3.293824
30
0
11
111.860742
21
-0.22724
31
0
39
0
210
0
220
0
230
1
0
LINE
5
84
100
AcDbEntity
8
1
62
256
6
ByLayer
370
13
48
1
60
0
100
AcDbLine
10
0.958419
20
4.681558
30
0
11
0.958419
21
-4.681558
31
0
39
0
210
0
220
0
230
1
0
LINE
5
85
100
AcDbEntity
8
1
62
256
6
ByLayer
370
13
48
1
60
0
100
AcDbLine
10
0.478959
20
4.840779
30
0
11
0.478959
21
-4.840779
31
0
39
0
210
0
220
0
230
1
0
LINE
5
86
100
AcDbEntity
8
1
62
256
6
ByLayer
370
13
48
1
60
0
100
AcDbLine
10
110.230895
20
1.082641
30
0
11
111.971862
21
-0.019433
31
0
39
0
210
0
220
0
230
1
0
LINE
5
87
100
AcDbEntity
8
1
62
256
6
ByLayer
370
18
48
1
60
0
100
AcDbLine
10
8
20
-0.952401
30
0
11
8
21
3.208611
31
0
39
0
210
0
220
0
230
1
0
LINE
5
88
100
AcDbEntity
8
1
62
256
6
ByLayer
370
13
48
1
60
0
100
AcDbLine
10
110.33275
20
1.199978
30
0
11
111.974989
21
0.160401
31
0
39
0
210
0
220
0
230
1
0
LINE
5
89
100
AcDbEntity
8
1
62
256
6
ByLayer
370
18
48
1
60
0
100
AcDbLine
10
0
20
-5
30
0
11
0
21
5
31
0
39
0
210
0
220
0
230
1
0
LINE
5
8A
100
AcDbEntity
8
80
62
256
6
ByLayer
370
18
48
1
60
0
100
AcDbLine
10
0
20
0
30
0
11
-5
21
0
31
0
39
0
210
0
220
0
230
1
0
LINE
5
8B
100
AcDbEntity
8
4
62
256
6
ByLayer
370
18
48
0.05
60
0
100
AcDbLine
10
112
20
0
30
0
11
0
21
0
31
0
39
0
210
0
220
0
230
1
0
LINE
5
8D
100
AcDbEntity
8
SK4
62
256
6
ByLayer
370
18
48
0.05
60
0
100
AcDbLine
10
117
20
0
30
0
11
-45
21
0
31
0
39
0
210
0
220
0
230
1
0
LINE
5
8F
100
AcDbEntity
8
SK1
62
256
6
ByLayer
370
18
48
1
60
0
100
AcDbLine
10
-38.66
20
-5
30
0
11
0
21
-5
31
0
39
0
210
0
220
0
230
1
0
LINE
5
90
100
AcDbEntity
8
SK1
62
256
6
ByLayer
370
18
48
1
60
0
100
AcDbLine
10
0
20
5
30
0
11
-38.66
21
5
31
0
39
0
210
0
220
0
230
1
0
LINE
5
91
100
AcDbEntity
8
SK1
62
256
6
ByLayer
370
18
48
1
60
0
100
AcDbLine
10
-40
20
-3.66
30
0
11
-38.66
21
-5
31
0
39
0
210
0
220
0
230
1
0
LINE
5
92
100
AcDbEntity
8
SK1
62
256
6
ByLayer
370
18
48
1
60
0
100
AcDbLine
10
-38.66
20
5
30
0
11
-40
21
3.66
31
0
39
0
210
0
220
0
230
1
0
LINE
5
93
100
AcDbEntity
8
1
62
256
6
ByLayer
370
18
48
1
60
0
100
AcDbLine
10
0.958419
20
-4.681558
30
0
11
6.234071
21
-4.684856
31
0
39
0
210
0
220
0
230
1
0
LINE
5
94
100
AcDbEntity
8
1
62
256
6
ByLayer
370
18
48
1
60
0
100
AcDbLine
10
16.744912
20
-4.691425
30
0
11
17.787685
21
-4.692077
31
0
39
0
210
0
220
0
230
1
0
LINE
5
95
100
AcDbEntity
8
1
62
256
6
ByLayer
370
18
48
1
60
0
100
AcDbLine
10
39.747389
20
-4.705801
30
0
11
40.788035
21
-4.706452
31
0
39
0
210
0
220
0
230
1
0
LINE
5
96
100
AcDbEntity
8
1
62
256
6
ByLayer
370
18
48
1
60
0
100
AcDbLine
10
62.75269
20
-4.72018
30
0
11
63.787711
21
-4.720827
31
0
39
0
210
0
220
0
230
1
0
LINE
5
97
100
AcDbEntity
8
1
62
256
6
ByLayer
370
18
48
1
60
0
100
AcDbLine
10
85.755732
20
-4.734557
30
0
11
86.787584
21
-4.735202
31
0
39
0
210
0
220
0
230
1
0
LINE
5
98
100
AcDbEntity
8
1
62
256
6
ByLayer
370
18
48
1
60
0
100
AcDbLine
10
108.75889
20
-4.748934
30
0
11
109.78833
21
-4.749577
31
0
39
0
210
0
220
0
230
1
0
LINE
5
99
100
AcDbEntity
8
1
62
256
6
ByLayer
370
18
48
1
60
0
100
AcDbLine
10
109.78826
20
4.749577
30
0
11
108.75889
21
4.748934
31
0
39
0
210
0
220
0
230
1
0
LINE
5
9A
100
AcDbEntity
8
1
62
256
6
ByLayer
370
18
48
1
60
0
100
AcDbLine
10
86.787575
20
4.735202
30
0
11
85.755732
21
4.734557
31
0
39
0
210
0
220
0
230
1
0
LINE
5
9B
100
AcDbEntity
8
1
62
256
6
ByLayer
370
18
48
1
60
0
100
AcDbLine
10
63.787677
20
4.720827
30
0
11
62.75269
21
4.72018
31
0
39
0
210
0
220
0
230
1
0
LINE
5
9C
100
AcDbEntity
8
1
62
256
6
ByLayer
370
18
48
1
60
0
100
AcDbLine
10
40.787808
20
4.706452
30
0
11
39.747389
21
4.705801
31
0
39
0
210
0
220
0
230
1
0
LINE
5
9D
100
AcDbEntity
8
1
62
256
6
ByLayer
370
18
48
1
60
0
100
AcDbLine
10
17.787756
20
4.692077
30
0
11
16.744912
21
4.691425
31
0
39
0
210
0
220
0
230
1
0
LINE
5
9E
100
AcDbEntity
8
1
62
256
6
ByLayer
370
18
48
1
60
0
100
AcDbLine
10
6.234071
20
4.684856
30
0
11
0.958419
21
4.681558
31
0
39
0
210
0
220
0
230
1
0
LINE
5
9F
100
AcDbEntity
8
81
62
256
6
ByLayer
370
18
48
1
60
0
100
AcDbLine
10
112
20
0
30
0
11
117
21
0
31
0
39
0
210
0
220
0
230
1
0
LINE
5
A0
100
AcDbEntity
8
SK2
62
256
6
ByLayer
370
13
48
1
60
0
100
AcDbLine
10
-48.625163
20
-5
30
0
11
-48.625163
21
35.857173
31
0
39
0
210
0
220
0
230
1
0
LINE
5
A2
100
AcDbEntity
8
SK2
62
256
6
ByLayer
370
13
48
1
60
0
100
AcDbLine
10
-41.5875
20
5
30
0
11
-50.625163
21
5
31
0
39
0
210
0
220
0
230
1
0
LINE
5
A3
100
AcDbEntity
8
SK2
62
256
6
ByLayer
370
13
48
1
60
0
100
AcDbLine
10
-41.5875
20
-5
30
0
11
-50.625163
21
-5
31
0
39
0
210
0
220
0
230
1
0
LINE
5
A4
100
AcDbEntity
8
1
62
256
6
ByLayer
370
18
48
1
60
1
100
AcDbLine
10
-48.625163
20
5
30
0
11
-48.164379
21
1.500002
31
0
39
0
210
0
220
0
230
1
0
LINE
5
A5
100
AcDbEntity
8
1
62
256
6
ByLayer
370
18
48
1
60
1
100
AcDbLine
10
-48.164379
20
1.500002
30
0
11
-49.085946
21
1.499998
31
0
39
0
210
0
220
0
230
1
0
LINE
5
A6
100
AcDbEntity
8
1
62
256
6
ByLayer
370
18
48
1
60
1
100
AcDbLine
10
-49.085946
20
1.499998
30
0
11
-48.625163
21
5
31
0
39
0
210
0
220
0
230
1
0
LINE
5
A7
100
AcDbEntity
8
1
62
256
6
ByLayer
370
18
48
1
60
1
100
AcDbLine
10
-48.625163
20
-5
30
0
11
-49.085946
21
-1.500002
31
0
39
0
210
0
220
0
230
1
0
LINE
5
A8
100
AcDbEntity
8
1
62
256
6
ByLayer
370
18
48
1
60
1
100
AcDbLine
10
-49.085946
20
-1.500002
30
0
11
-48.164379
21
-1.499998
31
0
39
0
210
0
220
0
230
1
0
LINE
5
A9
100
AcDbEntity
8
1
62
256
6
ByLayer
370
18
48
1
60
1
100
AcDbLine
10
-48.164379
20
-1.499998
30
0
11
-48.625163
21
-5
31
0
39
0
210
0
220
0
230
1
0
LINE
5
AA
100
AcDbEntity
8
2
62
256
6
ByLayer
370
13
48
1
60
0
100
AcDbLine
10
124.083343
20
-4.75
30
0
11
124.083343
21
32.460193
31
0
39
0
210
0
220
0
230
1
0
LINE
5
AC
100
AcDbEntity
8
2
62
256
6
ByLayer
370
13
48
1
60
0
100
AcDbLine
10
112.1788
20
4.75
30
0
11
126.083343
21
4.75
31
0
39
0
210
0
220
0
230
1
0
LINE
5
AD
100
AcDbEntity
8
2
62
256
6
ByLayer
370
13
48
1
60
0
100
AcDbLine
10
112.1788
20
-4.75
30
0
11
126.083343
21
-4.75
31
0
39
0
210
0
220
0
230
1
0
LINE
5
AE
100
AcDbEntity
8
1
62
256
6
ByLayer
370
18
48
1
60
1
100
AcDbLine
10
124.083343
20
4.75
30
0
11
124.544126
21
1.250002
31
0
39
0
210
0
220
0
230
1
0
LINE
5
AF
100
AcDbEntity
8
1
62
256
6
ByLayer
370
18
48
1
60
1
100
AcDbLine
10
124.544126
20
1.250002
30
0
11
123.622559
21
1.249998
31
0
39
0
210
0
220
0
230
1
0
LINE
5
B0
100
AcDbEntity
8
1
62
256
6
ByLayer
370
18
48
1
60
1
100
AcDbLine
10
123.622559
20
1.249998
30
0
11
124.083343
21
4.75
31
0
39
0
210
0
220
0
230
1
0
LINE
5
B1
100
AcDbEntity
8
1
62
256
6
ByLayer
370
18
48
1
60
1
100
AcDbLine
10
124.083343
20
-4.75
30
0
11
123.622559
21
-1.250002
31
0
39
0
210
0
220
0
230
1
0
LINE
5
B2
100
AcDbEntity
8
1
62
256
6
ByLayer
370
18
48
1
60
1
100
AcDbLine
10
123.622559
20
-1.250002
30
0
11
124.544126
21
-1.249998
31
0
39
0
210
0
220
0
230
1
0
LINE
5
B3
100
AcDbEntity
8
1
62
256
6
ByLayer
370
18
48
1
60
1
100
AcDbLine
10
124.544126
20
-1.249998
30
0
11
124.083343
21
-4.75
31
0
39
0
210
0
220
0
230
1
0
LINE
5
11B
100
AcDbEntity
8
1
62
256
6
ByLayer
370
18
48
1
60
1
100
AcDbLine
10
-48.625163
20
5
30
0
11
-48.164379
21
1.500002
31
0
39
0
210
0
220
0
230
1
0
LINE
5
11C
100
AcDbEntity
8
1
62
256
6
ByLayer
370
18
48
1
60
1
100
AcDbLine
10
-48.164379
20
1.500002
30
0
11
-49.085946
21
1.499998
31
0
39
0
210
0
220
0
230
1
0
LINE
5
11D
100
AcDbEntity
8
1
62
256
6
ByLayer
370
18
48
1
60
1
100
AcDbLine
10
-49.085946
20
1.499998
30
0
11
-48.625163
21
5
31
0
39
0
210
0
220
0
230
1
0
LINE
5
11F
100
AcDbEntity
8
1
62
256
6
ByLayer
370
18
48
1
60
1
100
AcDbLine
10
-48.625163
20
-5
30
0
11
-49.085946
21
-1.500002
31
0
39
0
210
0
220
0
230
1
0
LINE
5
120
100
AcDbEntity
8
1
62
256
6
ByLayer
370
18
48
1
60
1
100
AcDbLine
10
-49.085946
20
-1.500002
30
0
11
-48.164379
21
-1.499998
31
0
39
0
210
0
220
0
230
1
0
LINE
5
121
100
AcDbEntity
8
1
62
256
6
ByLayer
370
18
48
1
60
1
100
AcDbLine
10
-48.164379
20
-1.499998
30
0
11
-48.625163
21
-5
31
0
39
0
210
0
220
0
230
1
0
LINE
5
125
100
AcDbEntity
8
1
62
256
6
ByLayer
370
18
48
1
60
1
100
AcDbLine
10
124.083343
20
4.75
30
0
11
124.544126
21
1.250002
31
0
39
0
210
0
220
0
230
1
0
LINE
5
126
100
AcDbEntity
8
1
62
256
6
ByLayer
370
18
48
1
60
1
100
AcDbLine
10
124.544126
20
1.250002
30
0
11
123.622559
21
1.249998
31
0
39
0
210
0
220
0
230
1
0
LINE
5
127
100
AcDbEntity
8
1
62
256
6
ByLayer
370
18
48
1
60
1
100
AcDbLine
10
123.622559
20
1.249998
30
0
11
124.083343
21
4.75
31
0
39
0
210
0
220
0
230
1
0
LINE
5
129
100
AcDbEntity
8
1
62
256
6
ByLayer
370
18
48
1
60
1
100
AcDbLine
10
124.083343
20
-4.75
30
0
11
123.622559
21
-1.250002
31
0
39
0
210
0
220
0
230
1
0
LINE
5
12A
100
AcDbEntity
8
1
62
256
6
ByLayer
370
18
48
1
60
1
100
AcDbLine
10
123.622559
20
-1.250002
30
0
11
124.544126
21
-1.249998
31
0
39
0
210
0
220
0
230
1
0
LINE
5
12B
100
AcDbEntity
8
1
62
256
6
ByLayer
370
18
48
1
60
1
100
AcDbLine
10
124.544126
20
-1.249998
30
0
11
124.083343
21
-4.75
31
0
39
0
210
0
220
0
230
1
0
MTEXT
5
115
100
AcDbEntity
8
SK6
62
256
6
ByLayer
370
13
48
1
60
0
100
AcDbMText
10
7.29224
20
37.290328
30
0
210
0
220
0
230
1
1
\W0.7563;462.1-0950-071A1-XM X2BM
40
3.5
41
0
44
1.084337
50
0
71
7
72
5
7
iso_b_vert
0
MTEXT
5
119
100
AcDbEntity
8
SK2
62
256
6
ByLayer
370
18
48
1
60
0
100
AcDbMText
10
-50.189796
20
18.409024
30
0
210
0
220
0
230
1
1
%%c
40
3.5
41
0
44
1.084337
50
90
71
7
72
5
7
iso_b_vert
0
MTEXT
5
11A
100
AcDbEntity
8
SK2
62
256
6
ByLayer
370
18
48
1
60
0
100
AcDbMText
10
-50.189796
20
23.63168
30
0
210
0
220
0
230
1
1
\W0.6930;10,000
40
3.5
41
0
44
1.084337
50
90
71
7
72
5
7
iso_b_vert
0
MTEXT
5
123
100
AcDbEntity
8
2
62
256
6
ByLayer
370
18
48
1
60
0
100
AcDbMText
10
122.518709
20
16.75211
30
0
210
0
220
0
230
1
1
%%c
40
3.5
41
0
44
1.084337
50
90
71
7
72
5
7
iso_b_vert
0
MTEXT
5
124
100
AcDbEntity
8
2
62
256
6
ByLayer
370
18
48
1
60
0
100
AcDbMText
10
122.518709
20
21.974766
30
0
210
0
220
0
230
1
1
\W0.7317;9,500
40
3.5
41
0
44
1.084337
50
90
71
7
72
5
7
iso_b_vert
0
HATCH
5
11E
100
AcDbEntity
8
SK2
62
256
6
ByLayer
370
13
48
1
60
0
100
AcDbHatch
10
0
20
0
30
0
210
0
220
0
230
1
2
ANSI31
70
0
71
0
91
1
92
5
93
3
72
1
10
-48.6251625675374
20
5
11
-48.1643788259847
21
1.50000169255318
72
1
10
-48.1643788259847
20
1.50000169255318
11
-49.0859463090902
21
1.49999830744682
72
1
10
-49.0859463090902
20
1.49999830744682
11
-48.6251625675374
21
5
97
0
75
0
76
1
52
0
41
0.0062
77
0
78
1
53
45
43
0
44
0
45
-0.0139193969876572
46
0.0139193969876572
79
0
47
0
98
1
10
0
20
0
0
HATCH
5
122
100
AcDbEntity
8
SK2
62
256
6
ByLayer
370
13
48
1
60
0
100
AcDbHatch
10
0
20
0
30
0
210
0
220
0
230
1
2
ANSI31
70
0
71
0
91
1
92
5
93
3
72
1
10
-48.6251625675374
20
-5
11
-49.0859463090902
21
-1.50000169255318
72
1
10
-49.0859463090902
20
-1.50000169255318
11
-48.1643788259847
21
-1.49999830744682
72
1
10
-48.1643788259847
20
-1.49999830744682
11
-48.6251625675374
21
-5
97
0
75
0
76
1
52
0
41
0.0062
77
0
78
1
53
45
43
0
44
0
45
-0.0139193969876572
46
0.0139193969876572
79
0
47
0
98
1
10
0
20
0
0
HATCH
5
128
100
AcDbEntity
8
2
62
256
6
ByLayer
370
13
48
1
60
0
100
AcDbHatch
10
0
20
0
30
0
210
0
220
0
230
1
2
ANSI31
70
0
71
0
91
1
92
5
93
3
72
1
10
124.083342615295
20
4.75
11
124.544126356848
21
1.25000169255318
72
1
10
124.544126356848
20
1.25000169255318
11
123.622558873742
21
1.24999830744682
72
1
10
123.622558873742
20
1.24999830744682
11
124.083342615295
21
4.75
97
0
75
0
76
1
52
0
41
0.0062
77
0
78
1
53
45
43
0
44
0
45
-0.0139193969876572
46
0.0139193969876572
79
0
47
0
98
1
10
0
20
0
0
HATCH
5
12C
100
AcDbEntity
8
2
62
256
6
ByLayer
370
13
48
1
60
0
100
AcDbHatch
10
0
20
0
30
0
210
0
220
0
230
1
2
ANSI31
70
0
71
0
91
1
92
5
93
3
72
1
10
124.083342615295
20
-4.75
11
123.622558873742
21
-1.25000169255318
72
1
10
123.622558873742
20
-1.25000169255318
11
124.544126356848
21
-1.24999830744682
72
1
10
124.544126356848
20
-1.24999830744682
11
124.083342615295
21
-4.75
97
0
75
0
76
1
52
0
41
0.0062
77
0
78
1
53
45
43
0
44
0
45
-0.0139193969876572
46
0.0139193969876572
79
0
47
0
98
1
10
0
20
0
0
DIMENSION
5
12E
100
AcDbEntity
8
SK2
62
256
6
ByLayer
370
13
48
1
60
0
100
AcDbDimension
2
_U0
10
110.5913
20
-14.963398
30
0
11
55.29565
21
-14.963398
31
0
70
32
71
1
72
1
41
1
210
0
220
0
230
1
3
Standard
100
AcDbAlignedDimension
13
0
23
0
33
0
14
110.5913
24
-4.75
34
0
50
0
100
AcDbRotatedDimension
1001
ACAD
1000
DSTYLE
1002
{
1070
   371
1070
    13
1070
   372
1070
    13
1070
   170
1070
     0
1070
   144
1040
1.0
1070
   277
1070
     2
1070
   278
1070
    44
1070
   146
1040
1.0
1070
   345
1005
16
1070
   347
1005
16
1070
   346
1005
16
1070
   344
1005
0
1070
   343
1005
0
1070
   172
1070
     1
1070
    76
1070
     0
1070
    75
1070
     0
1070
   282
1070
     0
1070
   281
1070
     0
1070
    71
1070
     0
1070
    74
1070
     0
1070
   279
1070
     0
1070
   173
1070
     1
1070
   340
1005
116
1070
   271
1070
     2
1070
   272
1070
     2
1070
    77
1070
     1
1070
    73
1070
     1
1070
   171
1070
     3
1070
   274
1070
     4
1070
   177
1070
    35
1070
   176
1070
    35
1070
   178
1070
    35
1070
    48
1040
-0.1
1070
    41
1040
3.5
1070
   147
1040
1.75
1070
    42
1040
1.5875
1070
    44
1040
2.0
1070
   140
1040
3.5
1002
}
1001
ACAD_DSTYLE_DIM_LINETYPE
1070
   380
1005
16
1001
ACAD_DSTYLE_DIM_EXT1_LINETYPE
1070
   381
1005
16
1001
ACAD_DSTYLE_DIM_EXT2_LINETYPE
1070
   382
1005
16
0
DIMENSION
5
147
100
AcDbEntity
8
SK2
62
256
6
ByLayer
370
13
48
1
60
0
100
AcDbDimension
2
_U1
10
112
20
-33.692985
30
0
11
36
21
-33.692985
31
0
70
32
71
1
72
1
41
1
210
0
220
0
230
1
3
Standard
100
AcDbAlignedDimension
13
-40
23
-5
33
0
14
112
24
0
34
0
50
0
100
AcDbRotatedDimension
1001
ACAD
1000
DSTYLE
1002
{
1070
   371
1070
    13
1070
   372
1070
    13
1070
   170
1070
     0
1070
   144
1040
1.0
1070
   277
1070
     2
1070
   278
1070
    44
1070
   146
1040
1.0
1070
   345
1005
16
1070
   347
1005
16
1070
   346
1005
16
1070
   344
1005
0
1070
   343
1005
0
1070
   172
1070
     1
1070
    76
1070
     0
1070
    75
1070
     0
1070
   282
1070
     0
1070
   281
1070
     0
1070
    71
1070
     0
1070
    74
1070
     0
1070
   279
1070
     0
1070
   173
1070
     1
1070
   340
1005
116
1070
   271
1070
     2
1070
   272
1070
     2
1070
    77
1070
     1
1070
    73
1070
     1
1070
   171
1070
     3
1070
   274
1070
     4
1070
   177
1070
    35
1070
   176
1070
    35
1070
   178
1070
    35
1070
    48
1040
-0.1
1070
    41
1040
3.5
1070
   147
1040
1.75
1070
    42
1040
1.5875
1070
    44
1040
2.0
1070
   140
1040
3.5
1002
}
1001
ACAD_DSTYLE_DIM_LINETYPE
1070
   380
1005
16
1001
ACAD_DSTYLE_DIM_EXT1_LINETYPE
1070
   381
1005
16
1001
ACAD_DSTYLE_DIM_EXT2_LINETYPE
1070
   382
1005
16
0
DIMENSION
5
15F
100
AcDbEntity
8
SK2
62
256
6
ByLayer
370
13
48
1
60
0
100
AcDbDimension
2
_U2
10
112
20
16.359119
30
0
11
73.295
21
16.359119
31
0
70
32
71
1
72
1
41
1
210
0
220
0
230
1
3
Standard
100
AcDbAlignedDimension
13
34.59
23
4.75
33
0
14
112
24
0
34
0
50
0
100
AcDbRotatedDimension
1001
ACAD
1000
DSTYLE
1002
{
1070
   371
1070
    13
1070
   372
1070
    13
1070
   170
1070
     0
1070
   144
1040
1.0
1070
   277
1070
     2
1070
   278
1070
    44
1070
   146
1040
1.0
1070
   345
1005
16
1070
   347
1005
16
1070
   346
1005
16
1070
   344
1005
0
1070
   343
1005
0
1070
   172
1070
     1
1070
    76
1070
     0
1070
    75
1070
     0
1070
   282
1070
     0
1070
   281
1070
     0
1070
    71
1070
     0
1070
    74
1070
     0
1070
   279
1070
     0
1070
   173
1070
     1
1070
   340
1005
116
1070
   271
1070
     2
1070
   272
1070
     2
1070
    77
1070
     1
1070
    73
1070
     1
1070
   171
1070
     3
1070
   274
1070
     4
1070
   177
1070
    35
1070
   176
1070
    35
1070
   178
1070
    35
1070
    48
1040
-0.1
1070
    41
1040
3.5
1070
   147
1040
1.75
1070
    42
1040
1.5875
1070
    44
1040
2.0
1070
   140
1040
3.5
1002
}
1001
ACAD_DSTYLE_DIM_LINETYPE
1070
   380
1005
16
1001
ACAD_DSTYLE_DIM_EXT1_LINETYPE
1070
   381
1005
16
1001
ACAD_DSTYLE_DIM_EXT2_LINETYPE
1070
   382
1005
16
0
DIMENSION
5
177
100
AcDbEntity
8
SK2
62
256
6
ByLayer
370
13
48
1
60
0
100
AcDbDimension
2
_U3
10
110.5913
20
-17.552503
30
0
11
128.833333
21
-17.552503
31
0
70
32
71
1
72
1
41
1
210
0
220
0
230
1
3
Standard
100
AcDbAlignedDimension
13
112
23
0
33
0
14
110.5913
24
-4.75
34
0
50
0
100
AcDbRotatedDimension
1001
ACAD
1000
DSTYLE
1002
{
1070
   371
1070
    13
1070
   372
1070
    13
1070
   170
1070
     0
1070
   144
1040
1.0
1070
   277
1070
     2
1070
   278
1070
    44
1070
   146
1040
1.0
1070
   345
1005
16
1070
   347
1005
16
1070
   346
1005
16
1070
   344
1005
0
1070
   343
1005
0
1070
   172
1070
     1
1070
    76
1070
     0
1070
    75
1070
     0
1070
   282
1070
     0
1070
   281
1070
     0
1070
    71
1070
     0
1070
    74
1070
     0
1070
   279
1070
     0
1070
   173
1070
     1
1070
   340
1005
116
1070
   271
1070
     2
1070
   272
1070
     2
1070
    77
1070
     1
1070
    73
1070
     1
1070
   171
1070
     3
1070
   274
1070
     4
1070
   177
1070
    35
1070
   176
1070
    35
1070
   178
1070
    35
1070
    48
1040
-0.1
1070
    41
1040
3.5
1070
   147
1040
1.75
1070
    42
1040
1.5875
1070
    44
1040
2.0
1070
   140
1040
3.5
1002
}
1001
ACAD_DSTYLE_DIM_LINETYPE
1070
   380
1005
16
1001
ACAD_DSTYLE_DIM_EXT1_LINETYPE
1070
   381
1005
16
1001
ACAD_DSTYLE_DIM_EXT2_LINETYPE
1070
   382
1005
16
0
DIMENSION
5
191
100
AcDbEntity
8
SK2
62
256
6
ByLayer
370
13
48
1
60
0
100
AcDbDimension
2
_U4
10
110.5913
20
-23.343428
30
0
11
35.29565
21
-23.343428
31
0
70
32
71
1
72
1
41
1
210
0
220
0
230
1
3
Standard
100
AcDbAlignedDimension
13
-40
23
-5
33
0
14
110.5913
24
-4.75
34
0
50
0
100
AcDbRotatedDimension
1001
ACAD
1000
DSTYLE
1002
{
1070
   371
1070
    13
1070
   372
1070
    13
1070
   170
1070
     0
1070
   144
1040
1.0
1070
   277
1070
     2
1070
   278
1070
    44
1070
   146
1040
1.0
1070
   345
1005
16
1070
   347
1005
16
1070
   346
1005
16
1070
   344
1005
0
1070
   343
1005
0
1070
   172
1070
     1
1070
    76
1070
     0
1070
    75
1070
     0
1070
   282
1070
     0
1070
   281
1070
     0
1070
    71
1070
     0
1070
    74
1070
     0
1070
   279
1070
     0
1070
   173
1070
     1
1070
   340
1005
116
1070
   271
1070
     2
1070
   272
1070
     2
1070
    77
1070
     1
1070
    73
1070
     1
1070
   171
1070
     3
1070
   274
1070
     4
1070
   177
1070
    35
1070
   176
1070
    35
1070
   178
1070
    35
1070
    48
1040
-0.1
1070
    41
1040
3.5
1070
   147
1040
1.75
1070
    42
1040
1.5875
1070
    44
1040
2.0
1070
   140
1040
3.5
1002
}
1001
ACAD_DSTYLE_DIM_LINETYPE
1070
   380
1005
16
1001
ACAD_DSTYLE_DIM_EXT1_LINETYPE
1070
   381
1005
16
1001
ACAD_DSTYLE_DIM_EXT2_LINETYPE
1070
   382
1005
16
0
ENDSEC
0
SECTION
2
OBJECTS
0
DICTIONARY
5
219
330
0
100
AcDbDictionary
280
0
281
1
3
ACAD_GROUP
350
21a
3
ACAD_MLINESTYLE
350
21b
0
DICTIONARY
5
21a
330
0
100
AcDbDictionary
280
0
281
1
0
DICTIONARY
5
21b
330
0
100
AcDbDictionary
280
0
281
1
3
Standard
350
18
0
MLINESTYLE
5
18
330
21b
100
AcDbMlineStyle
2
Standard
70
0
3

62
256
51
90
52
90
71
2
49
-0.5
62
256
6
ByLayer
49
0.5
62
256
6
ByLayer
0
RASTERVARIABLES
5
207
330

100
AcDbRasterVariables
90
0
70
1
71
1
72
1
0
ENDSEC
0
EOF
