0
SECTION
2
HEADER
9
$ACADVER
1
AC1015
9
$DWGCODEPAGE
3
ANSI_1252
9
$HANDSEED
5
229
9
$ANGBASE
50
0
9
$ANGDIR
70
0
9
$ATTMODE
70
1
9
$AUNITS
70
0
9
$AUPREC
70
0
9
$CECOLOR
62
256
9
$CELTSCALE
40
1
9
$CELTYPE
6
ByLayer
9
$CELWEIGHT
370
18
9
$CLAYER
8
0
9
$CMLJUST
70
0
9
$CMLSCALE
40
1
9
$CMLSTYLE
2
Standard
9
$DIMSTYLE
2
Standard
9
$TEXTSIZE
40
0.2
9
$TEXTSTYLE
7
Standard
9
$LUNITS
70
2
9
$LUPREC
70
4
9
$EXTNAMES
290
1
9
$INSUNITS
70
4
9
$LTSCALE
40
1
9
$LWDISPLAY
290
1
9
$PDMODE
70
0
9
$PDSIZE
40
0
9
$PLINEGEN
70
0
0
ENDSEC
0
SECTION
2
CLASSES
0
CLASS
1
RASTERVARIABLES
2
AcDbRasterVariables
3
ISM
90
0
280
0
281
0
0
ENDSEC
0
SECTION
2
TABLES
0
TABLE
2
VPORT
5
21f
100
AcDbSymbolTable
0
VPORT
5
1
100
AcDbSymbolTableRecord
100
AcDbViewportTableRecord
2
*Active
70
0
10
0
20
0
11
1
21
1
12
-1
22
1
13
0
23
0
14
0.5
24
0.5
15
10
25
10
16
0
26
0
36
1
17
0
27
0
37
0
0
ENDTAB
0
TABLE
2
LTYPE
5
220
100
AcDbSymbolTable
0
LTYPE
5
14
100
AcDbSymbolTableRecord
100
AcDbLinetypeTableRecord
70
0
2
ByBlock
3

72
65
73
0
40
0
0
LTYPE
5
15
100
AcDbSymbolTableRecord
100
AcDbLinetypeTableRecord
70
0
2
ByLayer
3

72
65
73
0
40
0
0
LTYPE
5
16
100
AcDbSymbolTableRecord
100
AcDbLinetypeTableRecord
70
0
2
Continuous
3
Solid line
72
65
73
0
40
0
0
LTYPE
5
6E
100
AcDbSymbolTableRecord
100
AcDbLinetypeTableRecord
70
0
2
CENTER
3
____ _ ____ _ ____ _ ____
72
65
73
4
40
47.5
49
22
74
0
49
-8.5
74
0
49
8.5
74
0
49
-8.5
74
0
0
LTYPE
5
6F
100
AcDbSymbolTableRecord
100
AcDbLinetypeTableRecord
70
0
2
DASHED
3
__ __ __ __ __ __ __ __ __
72
65
73
2
40
25.72
49
12.86
74
0
49
-12.86
74
0
0
ENDTAB
0
TABLE
2
LAYER
5
221
100
AcDbSymbolTable
0
LAYER
5
10
100
AcDbSymbolTableRecord
100
AcDbLayerTableRecord
2
0
70
0
62
7
6
Continuous
290
1
370
-3
390
0
0
LAYER
5
71
100
AcDbSymbolTableRecord
100
AcDbLayerTableRecord
2
80
70
0
62
-6
6
Continuous
290
1
370
-3
390
0
0
LAYER
5
73
100
AcDbSymbolTableRecord
100
AcDbLayerTableRecord
2
81
70
0
62
-3
6
Continuous
290
1
370
-3
390
0
0
LAYER
5
75
100
AcDbSymbolTableRecord
100
AcDbLayerTableRecord
2
1
70
0
62
4
6
Continuous
290
1
370
-3
390
0
0
LAYER
5
8C
100
AcDbSymbolTableRecord
100
AcDbLayerTableRecord
2
4
70
0
62
-2
6
CENTER
290
1
370
-3
390
0
0
LAYER
5
AB
100
AcDbSymbolTableRecord
100
AcDbLayerTableRecord
2
2
70
0
62
7
6
Continuous
290
1
370
-3
390
0
0
LAYER
5
134
100
AcDbSymbolTableRecord
100
AcDbLayerTableRecord
2
Defpoints
70
0
62
7
6
Continuous
290
0
370
-3
390
0
0
LAYER
5
20b
100
AcDbSymbolTableRecord
100
AcDbLayerTableRecord
2
SK1
70
0
62
4
6
Continuous
290
1
370
-3
390
0
0
LAYER
5
20c
100
AcDbSymbolTableRecord
100
AcDbLayerTableRecord
2
SK4
70
0
62
2
6
CENTER
290
1
370
-3
390
0
0
LAYER
5
20d
100
AcDbSymbolTableRecord
100
AcDbLayerTableRecord
2
SK2
70
0
62
7
6
Continuous
290
1
370
-3
390
0
0
LAYER
5
20e
100
AcDbSymbolTableRecord
100
AcDbLayerTableRecord
2
SK6
70
0
62
5
6
Continuous
290
1
370
-3
390
0
0
ENDTAB
0
TABLE
2
STYLE
5
222
100
AcDbSymbolTable
0
STYLE
5
11
100
AcDbSymbolTableRecord
100
AcDbTextStyleTableRecord
2
Standard
3
txt
70
0
71
0
40
0
41
1
42
0
50
0
0
STYLE
5
119
100
AcDbSymbolTableRecord
100
AcDbTextStyleTableRecord
2
iso_b_vert
3
simplex.shx
70
0
71
0
40
0
41
1
42
0
50
0
0
STYLE
5
11A
100
AcDbSymbolTableRecord
100
AcDbTextStyleTableRecord
2
DWGDirectTextStyle
3
simplex
70
0
71
0
40
0
41
1
42
0
50
0
0
ENDTAB
0
TABLE
2
DIMSTYLE
5
223
100
AcDbSymbolTable
100
AcDbDimStyleTable
0
DIMSTYLE
105
27
100
AcDbSymbolTableRecord
100
AcDbDimStyleTableRecord
2
Standard
70
0
3
<>
41
0.18
42
0.0625
44
0.18
140
0.18
147
0.09
73
0
74
0
77
1
271
2
275
0
278
52
280
0
340
11
0
ENDTAB
0
TABLE
2
VIEW
5
224
100
AcDbSymbolTable
0
ENDTAB
0
TABLE
2
UCS
5
225
100
AcDbSymbolTable
0
ENDTAB
0
TABLE
2
APPID
5
226
100
AcDbSymbolTable
0
APPID
5
12
100
AcDbSymbolTableRecord
100
AcDbRegAppTableRecord
2
ACAD
70
0
0
APPID
5
130
100
AcDbSymbolTableRecord
100
AcDbRegAppTableRecord
2
ACAD_DSTYLE_DIMBREAK
70
0
0
APPID
5
1CA
100
AcDbSymbolTableRecord
100
AcDbRegAppTableRecord
2
ACAD_DSTYLE_DIM_LINETYPE
70
0
0
APPID
5
1CB
100
AcDbSymbolTableRecord
100
AcDbRegAppTableRecord
2
ACAD_DSTYLE_DIM_EXT1_LINETYPE
70
0
0
APPID
5
1CC
100
AcDbSymbolTableRecord
100
AcDbRegAppTableRecord
2
ACAD_DSTYLE_DIM_EXT2_LINETYPE
70
0
0
APPID
5
207
100
AcDbSymbolTableRecord
100
AcDbRegAppTableRecord
2
ACAD_MLEADERVER
70
0
0
ENDTAB
0
TABLE
2
BLOCK_RECORD
5
227
100
AcDbSymbolTable
0
BLOCK_RECORD
5
1F
100
AcDbSymbolTableRecord
100
AcDbBlockTableRecord
2
*Model_Space
340
0
70
0
0
BLOCK_RECORD
5
1B
100
AcDbSymbolTableRecord
100
AcDbBlockTableRecord
2
*Paper_Space
340
0
70
0
0
BLOCK_RECORD
5
23
100
AcDbSymbolTableRecord
100
AcDbBlockTableRecord
2
*Paper_Space0
340
0
70
0
0
BLOCK_RECORD
5
135
100
AcDbSymbolTableRecord
100
AcDbBlockTableRecord
2
*D1
340
0
70
0
0
BLOCK_RECORD
5
141
100
AcDbSymbolTableRecord
100
AcDbBlockTableRecord
2
_U0
340
0
70
0
0
BLOCK_RECORD
5
14D
100
AcDbSymbolTableRecord
100
AcDbBlockTableRecord
2
*D3
340
0
70
0
0
BLOCK_RECORD
5
159
100
AcDbSymbolTableRecord
100
AcDbBlockTableRecord
2
_U1
340
0
70
0
0
BLOCK_RECORD
5
165
100
AcDbSymbolTableRecord
100
AcDbBlockTableRecord
2
*D5
340
0
70
0
0
BLOCK_RECORD
5
171
100
AcDbSymbolTableRecord
100
AcDbBlockTableRecord
2
_U2
340
0
70
0
0
BLOCK_RECORD
5
17D
100
AcDbSymbolTableRecord
100
AcDbBlockTableRecord
2
*D7
340
0
70
0
0
BLOCK_RECORD
5
18B
100
AcDbSymbolTableRecord
100
AcDbBlockTableRecord
2
_U3
340
0
70
0
0
BLOCK_RECORD
5
197
100
AcDbSymbolTableRecord
100
AcDbBlockTableRecord
2
*D9
340
0
70
0
0
BLOCK_RECORD
5
1A3
100
AcDbSymbolTableRecord
100
AcDbBlockTableRecord
2
_U4
340
0
70
0
0
ENDTAB
0
ENDSEC
0
SECTION
2
BLOCKS
0
BLOCK
5
20
100
AcDbEntity
8
0
100
AcDbBlockBegin
2
*Model_Space
70
0
10
0
20
0
30
0
3
*Model_Space
0
ENDBLK
5
21
100
AcDbEntity
8
0
100
AcDbBlockEnd
0
BLOCK
5
1C
100
AcDbEntity
8
0
100
AcDbBlockBegin
2
*Paper_Space
70
0
10
0
20
0
30
0
3
*Paper_Space
0
ENDBLK
5
1D
100
AcDbEntity
8
0
100
AcDbBlockEnd
0
BLOCK
5
24
100
AcDbEntity
8
0
100
AcDbBlockBegin
2
*Paper_Space0
70
0
10
0
20
0
30
0
3
*Paper_Space0
0
ENDBLK
5
25
100
AcDbEntity
8
0
100
AcDbBlockEnd
0
BLOCK
5
136
100
AcDbEntity
8
0
100
AcDbBlockBegin
2
*D1
70
1
10
0
20
0
30
0
3
*D1
0
LINE
5
138
100
AcDbEntity
8
0
62
256
6
ByLayer
370
-2
48
1
60
0
100
AcDbLine
10
0
20
-1.5875
30
0
11
0
21
-16.886898
31
0
39
0
210
0
220
0
230
1
0
LINE
5
139
100
AcDbEntity
8
0
62
256
6
ByLayer
370
-2
48
1
60
0
100
AcDbLine
10
110.614
20
-6.261
30
0
11
110.614
21
-16.886898
31
0
39
0
210
0
220
0
230
1
0
LINE
5
13A
100
AcDbEntity
8
0
62
256
6
ByLayer
370
-2
48
1
60
0
100
AcDbLine
10
3.5
20
-14.886898
30
0
11
107.114
21
-14.886898
31
0
39
0
210
0
220
0
230
1
0
SOLID
5
13B
100
AcDbEntity
8
0
62
256
6
ByLayer
370
-1
48
1
60
0
100
AcDbTrace
10
3.5
20
-14.303565
30
0
11
3.5
21
-15.470232
31
0
12
0
22
-14.886898
32
0
13
0
23
-14.886898
33
0
39
0
210
0
220
0
230
1
0
SOLID
5
13C
100
AcDbEntity
8
0
62
256
6
ByLayer
370
-1
48
1
60
0
100
AcDbTrace
10
107.114
20
-15.470232
30
0
11
107.114
21
-14.303565
31
0
12
110.614
22
-14.886898
32
0
13
110.614
23
-14.886898
33
0
39
0
210
0
220
0
230
1
0
MTEXT
5
13D
100
AcDbEntity
8
0
62
256
6
ByLayer
370
18
48
1
60
0
100
AcDbMText
10
55.307
20
-7.886898
30
0
210
0
220
0
230
1
1
\A1;110.61
40
3.5
41
0
44
1
50
0
71
5
72
5
7
iso_b_vert
0
POINT
5
13E
100
AcDbEntity
8
Defpoints
62
0
6
ByLayer
370
-1
48
1
60
0
100
AcDbPoint
10
0
20
0
30
0
39
0
210
0
220
0
230
1
50
360
0
POINT
5
13F
100
AcDbEntity
8
Defpoints
62
0
6
ByLayer
370
-1
48
1
60
0
100
AcDbPoint
10
110.614
20
-4.6735
30
0
39
0
210
0
220
0
230
1
50
360
0
POINT
5
140
100
AcDbEntity
8
Defpoints
62
0
6
ByLayer
370
-1
48
1
60
0
100
AcDbPoint
10
110.614
20
-14.886898
30
0
39
0
210
0
220
0
230
1
50
360
0
ENDBLK
5
137
100
AcDbEntity
8
0
100
AcDbBlockEnd
0
BLOCK
5
148
100
AcDbEntity
8
0
100
AcDbBlockBegin
2
_U0
70
0
10
0
20
0
30
0
3
_U0
0
MTEXT
5
142
100
AcDbEntity
8
SK2
62
256
6
ByLayer
370
13
48
1
60
0
100
AcDbMText
10
50.174268
20
-13.854265
30
0
210
0
220
0
230
1
1
\W0.6303;110,61
40
3.5
41
0
44
1.084337
50
0
71
7
72
5
7
iso_b_vert
0
LINE
5
143
100
AcDbEntity
8
SK2
62
256
6
ByLayer
370
13
48
1
60
0
100
AcDbLine
10
0
20
-1.5875
30
0
11
0
21
-16.886898
31
0
39
0
210
0
220
0
230
1
0
LINE
5
144
100
AcDbEntity
8
SK2
62
256
6
ByLayer
370
13
48
1
60
0
100
AcDbLine
10
110.614
20
-6.261
30
0
11
110.614
21
-16.886898
31
0
39
0
210
0
220
0
230
1
0
LINE
5
145
100
AcDbEntity
8
SK2
62
256
6
ByLayer
370
13
48
1
60
0
100
AcDbLine
10
0
20
-14.886898
30
0
11
110.614
21
-14.886898
31
0
39
0
210
0
220
0
230
1
0
SOLID
5
146
100
AcDbEntity
8
SK2
62
256
6
ByLayer
370
18
48
1
60
0
100
AcDbTrace
10
0
20
-14.886898
30
0
11
3.499998
21
-14.426115
31
0
12
3.500002
22
-15.347682
32
0
13
3.500002
23
-15.347682
33
0
39
0
210
0
220
0
230
1
0
SOLID
5
147
100
AcDbEntity
8
SK2
62
256
6
ByLayer
370
18
48
1
60
0
100
AcDbTrace
10
110.614
20
-14.886898
30
0
11
107.114002
21
-15.347682
31
0
12
107.113998
22
-14.426115
32
0
13
107.113998
23
-14.426115
33
0
39
0
210
0
220
0
230
1
0
ENDBLK
5
149
100
AcDbEntity
8
0
100
AcDbBlockEnd
0
BLOCK
5
14E
100
AcDbEntity
8
0
100
AcDbBlockBegin
2
*D3
70
1
10
0
20
0
30
0
3
*D3
0
LINE
5
150
100
AcDbEntity
8
0
62
256
6
ByLayer
370
-2
48
1
60
0
100
AcDbLine
10
-40
20
-6.5875
30
0
11
-40
21
-35.692985
31
0
39
0
210
0
220
0
230
1
0
LINE
5
151
100
AcDbEntity
8
0
62
256
6
ByLayer
370
-2
48
1
60
0
100
AcDbLine
10
112
20
-1.5875
30
0
11
112
21
-35.692985
31
0
39
0
210
0
220
0
230
1
0
LINE
5
152
100
AcDbEntity
8
0
62
256
6
ByLayer
370
-2
48
1
60
0
100
AcDbLine
10
-36.5
20
-33.692985
30
0
11
108.5
21
-33.692985
31
0
39
0
210
0
220
0
230
1
0
SOLID
5
153
100
AcDbEntity
8
0
62
256
6
ByLayer
370
-1
48
1
60
0
100
AcDbTrace
10
-36.5
20
-33.109652
30
0
11
-36.5
21
-34.276319
31
0
12
-40
22
-33.692985
32
0
13
-40
23
-33.692985
33
0
39
0
210
0
220
0
230
1
0
SOLID
5
154
100
AcDbEntity
8
0
62
256
6
ByLayer
370
-1
48
1
60
0
100
AcDbTrace
10
108.5
20
-34.276319
30
0
11
108.5
21
-33.109652
31
0
12
112
22
-33.692985
32
0
13
112
23
-33.692985
33
0
39
0
210
0
220
0
230
1
0
MTEXT
5
155
100
AcDbEntity
8
0
62
256
6
ByLayer
370
18
48
1
60
0
100
AcDbMText
10
36
20
-26.692985
30
0
210
0
220
0
230
1
1
\A1;152.00
40
3.5
41
0
44
1
50
0
71
5
72
5
7
iso_b_vert
0
POINT
5
156
100
AcDbEntity
8
Defpoints
62
0
6
ByLayer
370
-1
48
1
60
0
100
AcDbPoint
10
-40
20
-5
30
0
39
0
210
0
220
0
230
1
50
360
0
POINT
5
157
100
AcDbEntity
8
Defpoints
62
0
6
ByLayer
370
-1
48
1
60
0
100
AcDbPoint
10
112
20
0
30
0
39
0
210
0
220
0
230
1
50
360
0
POINT
5
158
100
AcDbEntity
8
Defpoints
62
0
6
ByLayer
370
-1
48
1
60
0
100
AcDbPoint
10
112
20
-33.692985
30
0
39
0
210
0
220
0
230
1
50
360
0
ENDBLK
5
14F
100
AcDbEntity
8
0
100
AcDbBlockEnd
0
BLOCK
5
160
100
AcDbEntity
8
0
100
AcDbBlockBegin
2
_U1
70
0
10
0
20
0
30
0
3
_U1
0
MTEXT
5
15A
100
AcDbEntity
8
SK2
62
256
6
ByLayer
370
13
48
1
60
0
100
AcDbMText
10
29.992401
20
-32.660352
30
0
210
0
220
0
230
1
1
\W0.6930;152,00
40
3.5
41
0
44
1.084337
50
0
71
7
72
5
7
iso_b_vert
0
LINE
5
15B
100
AcDbEntity
8
SK2
62
256
6
ByLayer
370
13
48
1
60
0
100
AcDbLine
10
-40
20
-6.5875
30
0
11
-40
21
-35.692985
31
0
39
0
210
0
220
0
230
1
0
LINE
5
15C
100
AcDbEntity
8
SK2
62
256
6
ByLayer
370
13
48
1
60
0
100
AcDbLine
10
112
20
-1.5875
30
0
11
112
21
-35.692985
31
0
39
0
210
0
220
0
230
1
0
LINE
5
15D
100
AcDbEntity
8
SK2
62
256
6
ByLayer
370
13
48
1
60
0
100
AcDbLine
10
-40
20
-33.692985
30
0
11
112
21
-33.692985
31
0
39
0
210
0
220
0
230
1
0
SOLID
5
15E
100
AcDbEntity
8
SK2
62
256
6
ByLayer
370
18
48
1
60
0
100
AcDbTrace
10
-40
20
-33.692985
30
0
11
-36.500002
21
-33.232202
31
0
12
-36.499998
22
-34.153769
32
0
13
-36.499998
23
-34.153769
33
0
39
0
210
0
220
0
230
1
0
SOLID
5
15F
100
AcDbEntity
8
SK2
62
256
6
ByLayer
370
18
48
1
60
0
100
AcDbTrace
10
112
20
-33.692985
30
0
11
108.500002
21
-34.153769
31
0
12
108.499998
22
-33.232202
32
0
13
108.499998
23
-33.232202
33
0
39
0
210
0
220
0
230
1
0
ENDBLK
5
161
100
AcDbEntity
8
0
100
AcDbBlockEnd
0
BLOCK
5
166
100
AcDbEntity
8
0
100
AcDbBlockBegin
2
*D5
70
1
10
0
20
0
30
0
3
*D5
0
LINE
5
168
100
AcDbEntity
8
0
62
256
6
ByLayer
370
-2
48
1
60
0
100
AcDbLine
10
35.81
20
6.261
30
0
11
35.81
21
18.282619
31
0
39
0
210
0
220
0
230
1
0
LINE
5
169
100
AcDbEntity
8
0
62
256
6
ByLayer
370
-2
48
1
60
0
100
AcDbLine
10
112
20
1.5875
30
0
11
112
21
18.282619
31
0
39
0
210
0
220
0
230
1
0
LINE
5
16A
100
AcDbEntity
8
0
62
256
6
ByLayer
370
-2
48
1
60
0
100
AcDbLine
10
39.31
20
16.282619
30
0
11
108.5
21
16.282619
31
0
39
0
210
0
220
0
230
1
0
SOLID
5
16B
100
AcDbEntity
8
0
62
256
6
ByLayer
370
-1
48
1
60
0
100
AcDbTrace
10
39.31
20
16.865953
30
0
11
39.31
21
15.699286
31
0
12
35.81
22
16.282619
32
0
13
35.81
23
16.282619
33
0
39
0
210
0
220
0
230
1
0
SOLID
5
16C
100
AcDbEntity
8
0
62
256
6
ByLayer
370
-1
48
1
60
0
100
AcDbTrace
10
108.5
20
15.699286
30
0
11
108.5
21
16.865953
31
0
12
112
22
16.282619
32
0
13
112
23
16.282619
33
0
39
0
210
0
220
0
230
1
0
MTEXT
5
16D
100
AcDbEntity
8
0
62
256
6
ByLayer
370
18
48
1
60
0
100
AcDbMText
10
73.905
20
23.282619
30
0
210
0
220
0
230
1
1
\A1;76.19
40
3.5
41
0
44
1
50
0
71
5
72
5
7
iso_b_vert
0
POINT
5
16E
100
AcDbEntity
8
Defpoints
62
0
6
ByLayer
370
-1
48
1
60
0
100
AcDbPoint
10
35.81
20
4.6735
30
0
39
0
210
0
220
0
230
1
50
360
0
POINT
5
16F
100
AcDbEntity
8
Defpoints
62
0
6
ByLayer
370
-1
48
1
60
0
100
AcDbPoint
10
112
20
0
30
0
39
0
210
0
220
0
230
1
50
360
0
POINT
5
170
100
AcDbEntity
8
Defpoints
62
0
6
ByLayer
370
-1
48
1
60
0
100
AcDbPoint
10
112
20
16.282619
30
0
39
0
210
0
220
0
230
1
50
360
0
ENDBLK
5
167
100
AcDbEntity
8
0
100
AcDbBlockEnd
0
BLOCK
5
178
100
AcDbEntity
8
0
100
AcDbBlockBegin
2
_U2
70
0
10
0
20
0
30
0
3
_U2
0
MTEXT
5
172
100
AcDbEntity
8
SK2
62
256
6
ByLayer
370
13
48
1
60
0
100
AcDbMText
10
69.205135
20
17.315253
30
0
210
0
220
0
230
1
1
\W0.6791;76,19
40
3.5
41
0
44
1.084337
50
0
71
7
72
5
7
iso_b_vert
0
LINE
5
173
100
AcDbEntity
8
SK2
62
256
6
ByLayer
370
13
48
1
60
0
100
AcDbLine
10
35.81
20
6.261
30
0
11
35.81
21
18.282619
31
0
39
0
210
0
220
0
230
1
0
LINE
5
174
100
AcDbEntity
8
SK2
62
256
6
ByLayer
370
13
48
1
60
0
100
AcDbLine
10
112
20
1.5875
30
0
11
112
21
18.282619
31
0
39
0
210
0
220
0
230
1
0
LINE
5
175
100
AcDbEntity
8
SK2
62
256
6
ByLayer
370
13
48
1
60
0
100
AcDbLine
10
35.81
20
16.282619
30
0
11
112
21
16.282619
31
0
39
0
210
0
220
0
230
1
0
SOLID
5
176
100
AcDbEntity
8
SK2
62
256
6
ByLayer
370
18
48
1
60
0
100
AcDbTrace
10
35.81
20
16.282619
30
0
11
39.309998
21
16.743403
31
0
12
39.310002
22
15.821835
32
0
13
39.310002
23
15.821835
33
0
39
0
210
0
220
0
230
1
0
SOLID
5
177
100
AcDbEntity
8
SK2
62
256
6
ByLayer
370
18
48
1
60
0
100
AcDbTrace
10
112
20
16.282619
30
0
11
108.500002
21
15.821835
31
0
12
108.499998
22
16.743403
32
0
13
108.499998
23
16.743403
33
0
39
0
210
0
220
0
230
1
0
ENDBLK
5
179
100
AcDbEntity
8
0
100
AcDbBlockEnd
0
BLOCK
5
17E
100
AcDbEntity
8
0
100
AcDbBlockBegin
2
*D7
70
1
10
0
20
0
30
0
3
*D7
0
LINE
5
180
100
AcDbEntity
8
0
62
256
6
ByLayer
370
-2
48
1
60
0
100
AcDbLine
10
112
20
-1.5875
30
0
11
112
21
-19.476003
31
0
39
0
210
0
220
0
230
1
0
LINE
5
181
100
AcDbEntity
8
0
62
256
6
ByLayer
370
-2
48
1
60
0
100
AcDbLine
10
110.614
20
-6.261
30
0
11
110.614
21
-19.476003
31
0
39
0
210
0
220
0
230
1
0
LINE
5
182
100
AcDbEntity
8
0
62
256
6
ByLayer
370
-2
48
1
60
0
100
AcDbLine
10
112
20
-17.476003
30
0
11
139.5
21
-17.476003
31
0
39
0
210
0
220
0
230
1
0
LINE
5
183
100
AcDbEntity
8
0
62
256
6
ByLayer
370
-2
48
1
60
0
100
AcDbLine
10
115.5
20
-17.476003
30
0
11
119
21
-17.476003
31
0
39
0
210
0
220
0
230
1
0
LINE
5
184
100
AcDbEntity
8
0
62
256
6
ByLayer
370
-2
48
1
60
0
100
AcDbLine
10
107.114
20
-17.476003
30
0
11
103.614
21
-17.476003
31
0
39
0
210
0
220
0
230
1
0
SOLID
5
185
100
AcDbEntity
8
0
62
256
6
ByLayer
370
-1
48
1
60
0
100
AcDbTrace
10
115.5
20
-16.89267
30
0
11
115.5
21
-18.059337
31
0
12
112
22
-17.476003
32
0
13
112
23
-17.476003
33
0
39
0
210
0
220
0
230
1
0
SOLID
5
186
100
AcDbEntity
8
0
62
256
6
ByLayer
370
-1
48
1
60
0
100
AcDbTrace
10
107.114
20
-18.059337
30
0
11
107.114
21
-16.89267
31
0
12
110.614
22
-17.476003
32
0
13
110.614
23
-17.476003
33
0
39
0
210
0
220
0
230
1
0
MTEXT
5
187
100
AcDbEntity
8
0
62
256
6
ByLayer
370
18
48
1
60
0
100
AcDbMText
10
129.25
20
-10.476003
30
0
210
0
220
0
230
1
1
\A1;1.39
40
3.5
41
0
44
1
50
0
71
5
72
5
7
iso_b_vert
0
POINT
5
188
100
AcDbEntity
8
Defpoints
62
0
6
ByLayer
370
-1
48
1
60
0
100
AcDbPoint
10
112
20
0
30
0
39
0
210
0
220
0
230
1
50
360
0
POINT
5
189
100
AcDbEntity
8
Defpoints
62
0
6
ByLayer
370
-1
48
1
60
0
100
AcDbPoint
10
110.614
20
-4.6735
30
0
39
0
210
0
220
0
230
1
50
360
0
POINT
5
18A
100
AcDbEntity
8
Defpoints
62
0
6
ByLayer
370
-1
48
1
60
0
100
AcDbPoint
10
110.614
20
-17.476003
30
0
39
0
210
0
220
0
230
1
50
360
0
ENDBLK
5
17F
100
AcDbEntity
8
0
100
AcDbBlockEnd
0
BLOCK
5
192
100
AcDbEntity
8
0
100
AcDbBlockBegin
2
_U3
70
0
10
0
20
0
30
0
3
_U3
0
MTEXT
5
18C
100
AcDbEntity
8
SK2
62
256
6
ByLayer
370
13
48
1
60
0
100
AcDbMText
10
118.589293
20
-16.44337
30
0
210
0
220
0
230
1
1
\W0.6463;1,39
40
3.5
41
0
44
1.084337
50
0
71
7
72
5
7
iso_b_vert
0
LINE
5
18D
100
AcDbEntity
8
SK2
62
256
6
ByLayer
370
13
48
1
60
0
100
AcDbLine
10
112
20
-1.5875
30
0
11
112
21
-19.476003
31
0
39
0
210
0
220
0
230
1
0
LINE
5
18E
100
AcDbEntity
8
SK2
62
256
6
ByLayer
370
13
48
1
60
0
100
AcDbLine
10
110.614
20
-6.261
30
0
11
110.614
21
-19.476003
31
0
39
0
210
0
220
0
230
1
0
LINE
5
18F
100
AcDbEntity
8
SK2
62
256
6
ByLayer
370
13
48
1
60
0
100
AcDbLine
10
101.864
20
-17.476003
30
0
11
125.559058
21
-17.476003
31
0
39
0
210
0
220
0
230
1
0
SOLID
5
190
100
AcDbEntity
8
SK2
62
256
6
ByLayer
370
18
48
1
60
0
100
AcDbTrace
10
112
20
-17.476003
30
0
11
115.499998
21
-17.015219
31
0
12
115.500002
22
-17.936787
32
0
13
115.500002
23
-17.936787
33
0
39
0
210
0
220
0
230
1
0
SOLID
5
191
100
AcDbEntity
8
SK2
62
256
6
ByLayer
370
18
48
1
60
0
100
AcDbTrace
10
110.614
20
-17.476003
30
0
11
107.114002
21
-17.936787
31
0
12
107.113998
22
-17.015219
32
0
13
107.113998
23
-17.015219
33
0
39
0
210
0
220
0
230
1
0
ENDBLK
5
193
100
AcDbEntity
8
0
100
AcDbBlockEnd
0
BLOCK
5
198
100
AcDbEntity
8
0
100
AcDbBlockBegin
2
*D9
70
1
10
0
20
0
30
0
3
*D9
0
LINE
5
19A
100
AcDbEntity
8
0
62
256
6
ByLayer
370
-2
48
1
60
0
100
AcDbLine
10
-40
20
-6.5875
30
0
11
-40
21
-25.343428
31
0
39
0
210
0
220
0
230
1
0
LINE
5
19B
100
AcDbEntity
8
0
62
256
6
ByLayer
370
-2
48
1
60
0
100
AcDbLine
10
110.614
20
-6.261
30
0
11
110.614
21
-25.343428
31
0
39
0
210
0
220
0
230
1
0
LINE
5
19C
100
AcDbEntity
8
0
62
256
6
ByLayer
370
-2
48
1
60
0
100
AcDbLine
10
-36.5
20
-23.343428
30
0
11
107.114
21
-23.343428
31
0
39
0
210
0
220
0
230
1
0
SOLID
5
19D
100
AcDbEntity
8
0
62
256
6
ByLayer
370
-1
48
1
60
0
100
AcDbTrace
10
-36.5
20
-22.760095
30
0
11
-36.5
21
-23.926762
31
0
12
-40
22
-23.343428
32
0
13
-40
23
-23.343428
33
0
39
0
210
0
220
0
230
1
0
SOLID
5
19E
100
AcDbEntity
8
0
62
256
6
ByLayer
370
-1
48
1
60
0
100
AcDbTrace
10
107.114
20
-23.926762
30
0
11
107.114
21
-22.760095
31
0
12
110.614
22
-23.343428
32
0
13
110.614
23
-23.343428
33
0
39
0
210
0
220
0
230
1
0
MTEXT
5
19F
100
AcDbEntity
8
0
62
256
6
ByLayer
370
18
48
1
60
0
100
AcDbMText
10
35.307
20
-16.343428
30
0
210
0
220
0
230
1
1
\A1;150.61
40
3.5
41
0
44
1
50
0
71
5
72
5
7
iso_b_vert
0
POINT
5
1A0
100
AcDbEntity
8
Defpoints
62
0
6
ByLayer
370
-1
48
1
60
0
100
AcDbPoint
10
-40
20
-5
30
0
39
0
210
0
220
0
230
1
50
360
0
POINT
5
1A1
100
AcDbEntity
8
Defpoints
62
0
6
ByLayer
370
-1
48
1
60
0
100
AcDbPoint
10
110.614
20
-4.6735
30
0
39
0
210
0
220
0
230
1
50
360
0
POINT
5
1A2
100
AcDbEntity
8
Defpoints
62
0
6
ByLayer
370
-1
48
1
60
0
100
AcDbPoint
10
110.614
20
-23.343428
30
0
39
0
210
0
220
0
230
1
50
360
0
ENDBLK
5
199
100
AcDbEntity
8
0
100
AcDbBlockEnd
0
BLOCK
5
1AA
100
AcDbEntity
8
0
100
AcDbBlockBegin
2
_U4
70
0
10
0
20
0
30
0
3
_U4
0
MTEXT
5
1A4
100
AcDbEntity
8
SK2
62
256
6
ByLayer
370
13
48
1
60
0
100
AcDbMText
10
29.736835
20
-22.310795
30
0
210
0
220
0
230
1
1
\W0.6822;150,61
40
3.5
41
0
44
1.084337
50
0
71
7
72
5
7
iso_b_vert
0
LINE
5
1A5
100
AcDbEntity
8
SK2
62
256
6
ByLayer
370
13
48
1
60
0
100
AcDbLine
10
-40
20
-6.5875
30
0
11
-40
21
-25.343428
31
0
39
0
210
0
220
0
230
1
0
LINE
5
1A6
100
AcDbEntity
8
SK2
62
256
6
ByLayer
370
13
48
1
60
0
100
AcDbLine
10
110.614
20
-6.261
30
0
11
110.614
21
-25.343428
31
0
39
0
210
0
220
0
230
1
0
LINE
5
1A7
100
AcDbEntity
8
SK2
62
256
6
ByLayer
370
13
48
1
60
0
100
AcDbLine
10
-40
20
-23.343428
30
0
11
110.614
21
-23.343428
31
0
39
0
210
0
220
0
230
1
0
SOLID
5
1A8
100
AcDbEntity
8
SK2
62
256
6
ByLayer
370
18
48
1
60
0
100
AcDbTrace
10
-40
20
-23.343428
30
0
11
-36.500002
21
-22.882645
31
0
12
-36.499998
22
-23.804212
32
0
13
-36.499998
23
-23.804212
33
0
39
0
210
0
220
0
230
1
0
SOLID
5
1A9
100
AcDbEntity
8
SK2
62
256
6
ByLayer
370
18
48
1
60
0
100
AcDbTrace
10
110.614
20
-23.343428
30
0
11
107.114002
21
-23.804212
31
0
12
107.113998
22
-22.882645
32
0
13
107.113998
23
-22.882645
33
0
39
0
210
0
220
0
230
1
0
ENDBLK
5
1AB
100
AcDbEntity
8
0
100
AcDbBlockEnd
0
ENDSEC
0
SECTION
2
ENTITIES
0
ARC
5
B4
100
AcDbEntity
8
1
62
256
6
ByLayer
370
18
48
1
60
0
100
AcDbCircle
39
0
10
1.052487
20
-5.405102
30
0
40
0.800000000000002
210
0
220
0
230
1
100
AcDbArc
50
89.96419
51
131.132643
0
ARC
5
B5
100
AcDbEntity
8
1
62
256
6
ByLayer
370
18
48
1
60
0
100
AcDbCircle
39
0
10
1.052487
20
5.405102
30
0
40
0.800000000000002
210
0
220
0
230
1
100
AcDbArc
50
228.867357
51
270.03581
0
ARC
5
B6
100
AcDbEntity
8
1
62
256
6
ByLayer
370
18
48
1
60
0
100
AcDbCircle
39
0
10
0
20
-4.2
30
0
40
0.8
210
0
220
0
230
1
100
AcDbArc
50
270
51
311.132643
0
ARC
5
B7
100
AcDbEntity
8
1
62
256
6
ByLayer
370
18
48
1
60
0
100
AcDbCircle
39
0
10
0
20
4.2
30
0
40
0.8
210
0
220
0
230
1
100
AcDbArc
50
48.867357
51
90
0
ELLIPSE
5
B8
100
AcDbEntity
8
1
62
256
6
ByLayer
370
13
48
1
60
0
100
AcDbEllipse
10
8.171768
20
-1.010655
30
0
11
0.0407409850003341
21
0.0913245429290646
31
0
210
0
220
0
230
1
40
0.555176
41
1.60731934420307
42
2.8880774838486
0
ELLIPSE
5
B9
100
AcDbEntity
8
1
62
256
6
ByLayer
370
13
48
1
60
0
100
AcDbEllipse
10
8.250152
20
-1.051661
30
0
11
0.050895651164424
21
0.0860792233500586
31
0
210
0
220
0
230
1
40
0.121888
41
1.36555779648752
42
2.92031868085076
0
POINT
5
70
100
AcDbEntity
8
80
62
256
6
ByLayer
370
18
48
1
60
0
100
AcDbPoint
10
0
20
0
30
0
39
0
210
0
220
0
230
1
50
360
0
POINT
5
72
100
AcDbEntity
8
81
62
256
6
ByLayer
370
18
48
1
60
0
100
AcDbPoint
10
112
20
0
30
0
39
0
210
0
220
0
230
1
50
360
0
POINT
5
74
100
AcDbEntity
8
1
62
256
6
ByLayer
370
18
48
1
60
1
100
AcDbPoint
10
110.614
20
-4.6735
30
0
39
0
210
0
220
0
230
1
50
360
0
POINT
5
76
100
AcDbEntity
8
1
62
256
6
ByLayer
370
18
48
1
60
1
100
AcDbPoint
10
-40
20
-5
30
0
39
0
210
0
220
0
230
1
50
360
0
POINT
5
77
100
AcDbEntity
8
1
62
256
6
ByLayer
370
18
48
1
60
1
100
AcDbPoint
10
35.81
20
4.6735
30
0
39
0
210
0
220
0
230
1
50
360
0
POINT
5
78
100
AcDbEntity
8
1
62
256
6
ByLayer
370
18
48
1
60
1
100
AcDbPoint
10
110.614
20
-4.6735
30
0
39
0
210
0
220
0
230
1
50
360
0
POINT
5
79
100
AcDbEntity
8
1
62
256
6
ByLayer
370
18
48
1
60
1
100
AcDbPoint
10
-40
20
-5
30
0
39
0
210
0
220
0
230
1
50
360
0
POINT
5
7A
100
AcDbEntity
8
1
62
256
6
ByLayer
370
18
48
1
60
1
100
AcDbPoint
10
110.614
20
-4.6735
30
0
39
0
210
0
220
0
230
1
50
360
0
SPLINE
5
BA
100
AcDbEntity
8
SK1
62
256
6
ByLayer
370
18
48
1
60
0
100
AcDbSpline
70
4
71
3
72
8
73
4
40
0
40
0
40
0
40
0
40
1
40
1
40
1
40
1
41
1
10
-39.35
20
2.66848739636384
30
0
41
1
10
-39.5672415048354
20
2.57467660619247
30
0
41
1
10
-39.7840138771994
20
2.48067850070919
30
0
41
1
10
-40
20
2.38636646133489
30
0
0
SPLINE
5
BB
100
AcDbEntity
8
SK1
62
256
6
ByLayer
370
18
48
1
60
0
100
AcDbSpline
70
4
71
3
72
12
73
8
40
0
40
0
40
0
40
0
40
0.249999999999998
40
0.249999999999998
40
0.499999999999997
40
0.499999999999997
40
1
40
1
40
1
40
1
41
1
10
-39.25
20
2.63015864401856
30
0
41
1
10
-39.25
20
2.6438218156714
30
0
41
1
10
-39.254235624227
20
2.6546389866692
30
0
41
1
10
-39.2670201311554
20
2.66990096594901
30
0
41
1
10
-39.2754786511826
20
2.6745729071171
30
0
41
1
10
-39.3037388067419
20
2.68206146785624
30
0
41
1
10
-39.3264172660865
20
2.67867106225455
30
0
41
1
10
-39.35
20
2.66848739636387
30
0
0
SPLINE
5
BC
100
AcDbEntity
8
SK1
62
256
6
ByLayer
370
18
48
1
60
0
100
AcDbSpline
70
4
71
3
72
12
73
8
40
0
40
0
40
0
40
0
40
0.499999999999999
40
0.499999999999999
40
0.749999999999999
40
0.749999999999999
40
1
40
1
40
1
40
1
41
1
10
-39.35
20
0.853479194146729
30
0
41
1
10
-39.3264103729719
20
0.863665836671714
30
0
41
1
10
-39.3036886178189
20
0.881547657664214
30
0
41
1
10
-39.275599229617
20
0.917788658688096
30
0
41
1
10
-39.2670477807072
20
0.931809175971438
30
0
41
1
10
-39.2542670006876
20
0.962722353615987
30
0
41
1
10
-39.25
20
0.980087265152122
30
0
41
1
10
-39.25
20
0.996651262023192
30
0
0
SPLINE
5
BD
100
AcDbEntity
8
SK1
62
256
6
ByLayer
370
18
48
1
60
0
100
AcDbSpline
70
4
71
3
72
8
73
4
40
0
40
0
40
0
40
0
40
1
40
1
40
1
40
1
41
1
10
-40
20
0.571358259117801
30
0
41
1
10
-39.7840109264477
20
0.665671586961054
30
0
41
1
10
-39.5672389979866
20
0.759669486500911
30
0
41
1
10
-39.35
20
0.853479194146757
30
0
0
SPLINE
5
BE
100
AcDbEntity
8
1
62
256
6
ByLayer
370
18
48
1
60
0
100
AcDbSpline
70
4
71
3
72
10
73
6
40
0
40
0
40
0
40
0
40
0.5
40
0.5
40
1
40
1
40
1
40
1
41
1
10
111.974968952464
20
0.160420079504547
30
0
41
1
10
111.976968433104
20
0.14459293617125
30
0
41
1
10
111.980289372888
20
0.126830807907709
30
0
41
1
10
111.988807561673
20
0.0885543269007201
30
0
41
1
10
111.99402277773
20
0.0680925297719455
30
0
41
1
10
111.999940706521
20
0.0471392940727355
30
0
0
SPLINE
5
BF
100
AcDbEntity
8
1
62
256
6
ByLayer
370
18
48
1
60
0
100
AcDbSpline
70
4
71
3
72
8
73
4
40
0
40
0
40
0
40
0
40
1
40
1
40
1
40
1
41
1
10
111.999940706521
20
0.0471392940728208
30
0
41
1
10
111.992042776874
20
0.0234161169555307
30
0
41
1
10
111.981912616588
20
-0.0007403215573731
30
0
41
1
10
111.971862452364
20
-0.0194262095254203
30
0
0
SPLINE
5
C0
100
AcDbEntity
8
1
62
256
6
ByLayer
370
18
48
1
60
0
100
AcDbSpline
70
4
71
3
72
20
73
16
40
0
40
0
40
0
40
0
40
0.25
40
0.25
40
0.3125
40
0.3125
40
0.374999999999999
40
0.374999999999999
40
0.5
40
0.5
40
0.75
40
0.75
40
0.875
40
0.875
40
1
40
1
40
1
40
1
41
1
10
8.00000047073303
20
3.19259356520124
30
0
41
1
10
8.00000047073303
20
2.92590323813792
30
0
41
1
10
8.000000470733
20
2.63189596033581
30
0
41
1
10
8.000000470733
20
2.2297620806674
30
0
41
1
10
8.000000470733
20
2.14742474590818
30
0
41
1
10
8.000000470733
20
1.98079570194736
30
0
41
1
10
8.000000470733
20
1.8963428647815
30
0
41
1
10
8.000000470733
20
1.63958250388586
30
0
41
1
10
8.000000470733
20
1.46297775402093
30
0
41
1
10
8.000000470733
20
0.928486677219439
30
0
41
1
10
8.000000470733
20
0.564985504950272
30
0
41
1
10
8.00000047073297
20
0.008978771746456
30
0
41
1
10
8.00000047073303
20
-0.178580144015086
30
0
41
1
10
8.000000470733
20
-0.549449466835114
30
0
41
1
10
8.000000470733
20
-0.733720025170442
30
0
41
1
10
8.000000470733
20
-0.916810971402924
30
0
0
SPLINE
5
C1
100
AcDbEntity
8
1
62
256
6
ByLayer
370
18
48
1
60
0
100
AcDbSpline
70
4
71
3
72
82
73
78
40
0
40
0
40
0
40
0
40
0.0340389928962796
40
0.0340389928962796
40
0.0510584893444195
40
0.0510584893444195
40
0.0680779857925593
40
0.0680779857925593
40
0.10211697868884
40
0.10211697868884
40
0.13615597158512
40
0.13615597158512
40
0.15317546803326
40
0.15317546803326
40
0.1701949644814
40
0.1701949644814
40
0.20423395737768
40
0.20423395737768
40
0.23827295027396
40
0.23827295027396
40
0.272311943170239
40
0.272311943170239
40
0.289331439618379
40
0.289331439618379
40
0.30635093606652
40
0.30635093606652
40
0.3403899289628
40
0.3403899289628
40
0.37442892185908
40
0.37442892185908
40
0.39144841830722
40
0.39144841830722
40
0.40846791475536
40
0.40846791475536
40
0.44250690765164
40
0.44250690765164
40
0.476545900547919
40
0.476545900547919
40
0.493565396996059
40
0.493565396996059
40
0.510584893444199
40
0.510584893444199
40
0.544623886340479
40
0.544623886340479
40
0.578662879236758
40
0.578662879236758
40
0.612701872133038
40
0.612701872133038
40
0.646740865029318
40
0.646740865029318
40
0.680779857925598
40
0.680779857925598
40
0.697799354373737
40
0.697799354373737
40
0.714818850821876
40
0.714818850821876
40
0.731838347270015
40
0.731838347270015
40
0.748857843718155
40
0.748857843718155
40
0.782896836614433
40
0.782896836614433
40
0.816935829510712
40
0.816935829510712
40
0.85097482240699
40
0.85097482240699
40
0.885013815303268
40
0.885013815303268
40
0.919052808199547
40
0.919052808199547
40
0.936072304647687
40
0.936072304647687
40
0.953091801095826
40
0.953091801095826
40
0.987130793992106
40
0.987130793992106
40
1
40
1
40
1
40
1
41
1
10
9.06348901308576
20
1.96413771761297
30
0
41
1
10
9.32231660216527
20
1.82845019459933
30
0
41
1
10
9.58050632440825
20
1.68911794405807
30
0
41
1
10
9.96628711785792
20
1.47362096233553
30
0
41
1
10
10.0946942127681
20
1.40079973741444
30
0
41
1
10
10.3517216695689
20
1.25408676425164
30
0
41
1
10
10.4809362876578
20
1.18116364754937
30
0
41
1
10
10.8680062974804
20
0.959532228709008
30
0
41
1
10
11.1258645457989
20
0.808536506913299
30
0
41
1
10
11.6410190447202
20
0.505383922069882
30
0
41
1
10
11.8985917506676
20
0.353086279604298
30
0
41
1
10
12.2850461449876
20
0.123793694858705
30
0
41
1
10
12.4137895844714
20
0.0470707564467716
30
0
41
1
10
12.6712138236732
20
-0.106818195916304
30
0
41
1
10
12.7999269019914
20
-0.184102434814406
30
0
41
1
10
13.187427457606
20
-0.41272709163664
30
0
41
1
10
13.4449085935824
20
-0.565178992058947
30
0
41
1
10
13.9595073751938
20
-0.868007254012781
30
0
41
1
10
14.2168688004228
20
-1.01807742756293
30
0
41
1
10
14.7327515333255
20
-1.31325522602395
30
0
41
1
10
14.9906542717828
20
-1.45915472728112
30
0
41
1
10
15.3764165501057
20
-1.67394497780464
30
0
41
1
10
15.5056029789033
20
-1.7438081755628
30
0
41
1
10
15.763316527417
20
-1.88302526502974
30
0
41
1
10
15.8920554178852
20
-1.95202456445455
30
0
41
1
10
16.2781921315905
20
-2.15625696116922
30
0
41
1
10
16.5361889890537
20
-2.28847161247862
30
0
41
1
10
17.0519845629298
20
-2.54358108606905
30
0
41
1
10
17.3097090073598
20
-2.66648767247861
30
0
41
1
10
17.6953873294785
20
-2.84447843765639
30
0
41
1
10
17.8239325494424
20
-2.90253672655723
30
0
41
1
10
18.081965155853
20
-3.01483887376978
30
0
41
1
10
18.2109632847367
20
-3.06969422903344
30
0
41
1
10
18.597931153272
20
-3.23048855264526
30
0
41
1
10
18.8554496893685
20
-3.33244845828827
30
0
41
1
10
19.3704747564636
20
-3.52226976931513
30
0
41
1
10
19.6282274780156
20
-3.61007343336783
30
0
41
1
10
20.0144389041896
20
-3.73274348839047
30
0
41
1
10
20.1430030865099
20
-3.77219470014688
30
0
41
1
10
20.400675366484
20
-3.84756223130174
30
0
41
1
10
20.5300393846293
20
-3.88318542442261
30
0
41
1
10
20.9168140154327
20
-3.98473303785471
30
0
41
1
10
21.1738537271153
20
-4.0445862782617
30
0
41
1
10
21.688660266905
20
-4.14975276845354
30
0
41
1
10
21.9464050237253
20
-4.19511571290008
30
0
41
1
10
22.4622946222495
20
-4.26976110344356
30
0
41
1
10
22.7190012796073
20
-4.29883448707366
30
0
41
1
10
23.2346286144916
20
-4.34106137176349
30
0
41
1
10
23.4917797061096
20
-4.35510079168918
30
0
41
1
10
24.0066841894341
20
-4.36629821821967
30
0
41
1
10
24.2648716786961
20
-4.3623573517209
30
0
41
1
10
24.6514830036604
20
-4.34541430241211
30
0
41
1
10
24.7802375700813
20
-4.33793238796127
30
0
41
1
10
25.0374403730303
20
-4.31920703825128
30
0
41
1
10
25.1657096805723
20
-4.30794777496681
30
0
41
1
10
25.4230826642107
20
-4.28129345246231
30
0
41
1
10
25.5522582292751
20
-4.26580848617229
30
0
41
1
10
25.8102079406818
20
-4.23051799310505
30
0
41
1
10
25.9392211580644
20
-4.21086955616036
30
0
41
1
10
26.3257221887219
20
-4.14630431137195
30
0
41
1
10
26.5830395786875
20
-4.09631442919024
30
0
41
1
10
27.0980338444657
20
-3.98049479035115
30
0
41
1
10
27.3556519573846
20
-3.91435173436418
30
0
41
1
10
27.8704160143609
20
-3.76727767974583
30
0
41
1
10
28.1290392312245
20
-3.68848505925965
30
0
41
1
10
28.6439320018183
20
-3.51549761031978
30
0
41
1
10
28.9010020968942
20
-3.42162529550231
30
0
41
1
10
29.4161189665581
20
-3.22211733934051
30
0
41
1
10
29.6744126704409
20
-3.11703347239097
30
0
41
1
10
30.0605017199823
20
-2.94965946140047
30
0
41
1
10
30.1887683770232
20
-2.89196556621207
30
0
41
1
10
30.4463461873908
20
-2.77533045248705
30
0
41
1
10
30.5753384910188
20
-2.71600616759963
30
0
41
1
10
30.9616513857112
20
-2.53354441496271
30
0
41
1
10
31.2186482902137
20
-2.40659286622753
30
0
41
1
10
31.5738386560298
20
-2.2258925264359
30
0
41
1
10
31.671307301681
20
-2.17574765889825
30
0
41
1
10
31.7687586299466
20
-2.12505016902259
30
0
0
SPLINE
5
C2
100
AcDbEntity
8
1
62
256
6
ByLayer
370
18
48
1
60
0
100
AcDbSpline
70
4
71
3
72
110
73
106
40
0
40
0
40
0
40
0
40
0.0228148386214937
40
0.0228148386214937
40
0.0353505678761903
40
0.0353505678761903
40
0.047886297130887
40
0.047886297130887
40
0.0729577556402815
40
0.0729577556402815
40
0.098029214149676
40
0.098029214149676
40
0.110564943404374
40
0.110564943404374
40
0.123100672659071
40
0.123100672659071
40
0.148172131168467
40
0.148172131168467
40
0.173243589677862
40
0.173243589677862
40
0.18577931893256
40
0.18577931893256
40
0.198315048187257
40
0.198315048187257
40
0.223386506696651
40
0.223386506696651
40
0.248457965206046
40
0.248457965206046
40
0.27352942371544
40
0.27352942371544
40
0.298600882224835
40
0.298600882224835
40
0.323672340734229
40
0.323672340734229
40
0.336208069988927
40
0.336208069988927
40
0.348743799243624
40
0.348743799243624
40
0.361279528498321
40
0.361279528498321
40
0.373815257753018
40
0.373815257753018
40
0.398886716262413
40
0.398886716262413
40
0.423958174771807
40
0.423958174771807
40
0.436493904026504
40
0.436493904026504
40
0.449029633281202
40
0.449029633281202
40
0.474101091790597
40
0.474101091790597
40
0.499172550299992
40
0.499172550299992
40
0.51170827955469
40
0.51170827955469
40
0.524244008809388
40
0.524244008809388
40
0.549315467318783
40
0.549315467318783
40
0.574386925828179
40
0.574386925828179
40
0.599458384337574
40
0.599458384337574
40
0.62452984284697
40
0.62452984284697
40
0.649601301356365
40
0.649601301356365
40
0.662137030611063
40
0.662137030611063
40
0.67467275986576
40
0.67467275986576
40
0.687208489120458
40
0.687208489120458
40
0.699744218375156
40
0.699744218375156
40
0.724815676884551
40
0.724815676884551
40
0.749887135393947
40
0.749887135393947
40
0.774958593903342
40
0.774958593903342
40
0.800030052412738
40
0.800030052412738
40
0.825101510922133
40
0.825101510922133
40
0.83763724017683
40
0.83763724017683
40
0.850172969431528
40
0.850172969431528
40
0.875244427940922
40
0.875244427940922
40
0.900315886450317
40
0.900315886450317
40
0.912851615705014
40
0.912851615705014
40
0.925387344959711
40
0.925387344959711
40
0.950458803469106
40
0.950458803469106
40
0.9755302619785
40
0.9755302619785
40
0.988065991233197
40
0.988065991233197
40
1
40
1
40
1
40
1
41
1
10
46.9938238886719
20
4.37742020965885
30
0
41
1
10
47.228096314899
20
4.37754495975085
30
0
41
1
10
47.4620047734979
20
4.3701865922952
30
0
41
1
10
47.8240850552419
20
4.34885923473996
30
0
41
1
10
47.9531528828173
20
4.33946507990117
30
0
41
1
10
48.2108479647433
20
4.31695122067254
30
0
41
1
10
48.3396982355562
20
4.30391104702167
30
0
41
1
10
48.7259204549211
20
4.25823135712093
30
0
41
1
10
48.9829725160882
20
4.21877564205008
30
0
41
1
10
49.4974093531488
20
4.12540373873574
30
0
41
1
10
49.754733192107
20
4.07190358884625
30
0
41
1
10
50.1402239079261
20
3.97975403225561
30
0
41
1
10
50.2688065898696
20
3.94667708158454
30
0
41
1
10
50.5268368213921
20
3.87739360848227
30
0
41
1
10
50.6556843416421
20
3.84088703751186
30
0
41
1
10
51.0417480415941
20
3.72625615915319
30
0
41
1
10
51.2984979622099
20
3.64315924872423
30
0
41
1
10
51.8127892557759
20
3.46462980832695
30
0
41
1
10
52.0708216098213
20
3.36789001463333
30
0
41
1
10
52.4569281041352
20
3.21346769861728
30
0
41
1
10
52.5853636295055
20
3.16035398245785
30
0
41
1
10
52.8422331174841
20
3.05151288618319
30
0
41
1
10
52.9712549846349
20
2.9965486563068
30
0
41
1
10
53.3573354435696
20
2.82647219383608
30
0
41
1
10
53.6142134430768
20
2.70630838805434
30
0
41
1
10
54.129311177387
20
2.45688434323887
30
0
41
1
10
54.3871553277364
20
2.32791255239491
30
0
41
1
10
54.9016921507326
20
2.06206948532847
30
0
41
1
10
55.1578949391467
20
1.9234437562892
30
0
41
1
10
55.6734203182922
20
1.64324353859519
30
0
41
1
10
55.9311626705078
20
1.49896671295241
30
0
41
1
10
56.4456486152082
20
1.20552425766499
30
0
41
1
10
56.7027552093191
20
1.05664324863844
30
0
41
1
10
57.0887635877364
20
0.831065477839303
30
0
41
1
10
57.2174196482768
20
0.755398415155241
30
0
41
1
10
57.4745431229494
20
0.602943860836575
30
0
41
1
10
57.6029173675056
20
0.525990044201365
30
0
41
1
10
57.8602493794382
20
0.37207318212711
30
0
41
1
10
57.9894551920546
20
0.295912027220254
30
0
41
1
10
58.2469988574745
20
0.142413677666354
30
0
41
1
10
58.375597344328
20
0.0654349895104644
30
0
41
1
10
58.7610873002895
20
-0.165836456327583
30
0
41
1
10
59.0180165665747
20
-0.319907835218373
30
0
41
1
10
59.5326816874045
20
-0.626261548989419
30
0
41
1
10
59.7906673860628
20
-0.778547249634613
30
0
41
1
10
60.1759767217017
20
-1.00529826711599
30
0
41
1
10
60.3044452537634
20
-1.0802369903856
30
0
41
1
10
60.5619398839478
20
-1.22819593199355
30
0
41
1
10
60.6905673234895
20
-1.30188817824822
30
0
41
1
10
61.0761990433137
20
-1.52161767486112
30
0
41
1
10
61.3333091819405
20
-1.66598192799884
30
0
41
1
10
61.8484365009977
20
-1.94696849738469
30
0
41
1
10
62.1059438332577
20
-2.08330410150288
30
0
41
1
10
62.4912468332058
20
-2.28362530220878
30
0
41
1
10
62.6193927104944
20
-2.34971420708925
30
0
41
1
10
62.8764147545848
20
-2.47859832882739
30
0
41
1
10
63.0054559760017
20
-2.54121088184081
30
0
41
1
10
63.3918858991415
20
-2.72691909155117
30
0
41
1
10
63.6492346716154
20
-2.84696282442349
30
0
41
1
10
64.1634973118345
20
-3.07518285707377
30
0
41
1
10
64.4207086057953
20
-3.18307663870959
30
0
41
1
10
64.935066326576
20
-3.38729899564376
30
0
41
1
10
65.1919528225924
20
-3.48446497075844
30
0
41
1
10
65.707464424317
20
-3.66357525937139
30
0
41
1
10
65.9643168852166
20
-3.74665805591363
30
0
41
1
10
66.4781883259197
20
-3.89808500925767
30
0
41
1
10
66.7353437930333
20
-3.96652483109475
30
0
41
1
10
67.1216818774843
20
-4.0589894489764
30
0
41
1
10
67.250483629039
20
-4.08809493324657
30
0
41
1
10
67.5075300759423
20
-4.14220085153883
30
0
41
1
10
67.6356430875816
20
-4.16736463597974
30
0
41
1
10
67.8927430439618
20
-4.21326403884712
30
0
41
1
10
68.0215946814438
20
-4.23410873760926
30
0
41
1
10
68.2787753651733
20
-4.27233032877629
30
0
41
1
10
68.407249685841
20
-4.28961461639514
30
0
41
1
10
68.7926473596401
20
-4.3356352366601
30
0
41
1
10
69.0502156632375
20
-4.35807622610307
30
0
41
1
10
69.5649322244789
20
-4.38594288936
30
0
41
1
10
69.8220354744107
20
-4.39202816085665
30
0
41
1
10
70.3351390788641
20
-4.38866690643246
30
0
41
1
10
70.5929406587998
20
-4.37887924335277
30
0
41
1
10
71.107932487678
20
-4.34255383485635
30
0
41
1
10
71.3647765857002
20
-4.31663855987148
30
0
41
1
10
71.878725698977
20
-4.24909463433397
30
0
41
1
10
72.1359699208018
20
-4.20685389789472
30
0
41
1
10
72.5214385350921
20
-4.13158177601809
30
0
41
1
10
72.6496924242944
20
-4.10435437356836
30
0
41
1
10
72.9073444922255
20
-4.04710505002464
30
0
41
1
10
73.0362593904989
20
-4.01699537867782
30
0
41
1
10
73.4221474331209
20
-3.9205399469455
30
0
41
1
10
73.6786787105516
20
-3.84764945514817
30
0
41
1
10
74.1926776439918
20
-3.68871914119362
30
0
41
1
10
74.4502660808255
20
-3.60287541054072
30
0
41
1
10
74.8361339850904
20
-3.46430366603744
30
0
41
1
10
74.9645440909534
20
-3.41624762717714
30
0
41
1
10
75.2210858472353
20
-3.31646693636816
30
0
41
1
10
75.3496791704234
20
-3.26534374783324
30
0
41
1
10
75.7355462266696
20
-3.10790144706269
30
0
41
1
10
75.9921851003764
20
-2.99670039450294
30
0
41
1
10
76.5061896663787
20
-2.76420489375246
30
0
41
1
10
76.7637033622641
20
-2.64200287805946
30
0
41
1
10
77.1493185003438
20
-2.4524008500174
30
0
41
1
10
77.2777288037628
20
-2.38799447086447
30
0
41
1
10
77.5281379245557
20
-2.25995828908614
30
0
41
1
10
77.6499349417292
20
-2.19613910096103
30
0
41
1
10
77.7722805646362
20
-2.13219935444192
30
0
0
SPLINE
5
C3
100
AcDbEntity
8
1
62
256
6
ByLayer
370
18
48
1
60
0
100
AcDbSpline
70
4
71
3
72
60
73
56
40
0
40
0
40
0
40
0
40
0.0081435811468997
40
0.0081435811468997
40
0.034245065853551
40
0.034245065853551
40
0.060346550560203
40
0.060346550560203
40
0.112549519973506
40
0.112549519973506
40
0.13865100468016
40
0.13865100468016
40
0.164752489386814
40
0.164752489386814
40
0.216955458800126
40
0.216955458800126
40
0.269158428213439
40
0.269158428213439
40
0.295259912920097
40
0.295259912920097
40
0.321361397626755
40
0.321361397626755
40
0.373564367040071
40
0.373564367040071
40
0.425767336453387
40
0.425767336453387
40
0.477970305866703
40
0.477970305866703
40
0.504071790573363
40
0.504071790573363
40
0.530173275280023
40
0.530173275280023
40
0.582376244693347
40
0.582376244693347
40
0.634579214106671
40
0.634579214106671
40
0.660680698813334
40
0.660680698813334
40
0.686782183519996
40
0.686782183519996
40
0.738985152933325
40
0.738985152933325
40
0.791188122346653
40
0.791188122346653
40
0.817289607053319
40
0.817289607053319
40
0.843391091759986
40
0.843391091759986
40
0.895594061173323
40
0.895594061173323
40
0.94779703058666
40
0.94779703058666
40
0.973898515293329
40
0.973898515293329
40
1
40
1
40
1
40
1
41
1
10
93.0888085370412
20
4.40548369778963
30
0
41
1
10
93.1289452765585
20
4.405165959773
30
0
41
1
10
93.1690789838872
20
4.40467009838702
30
0
41
1
10
93.3378300232372
20
4.40185216534866
30
0
41
1
10
93.4663289759857
20
4.39794125343664
30
0
41
1
10
93.7230497234332
20
4.3854081273237
30
0
41
1
10
93.85139909188
20
4.3767851034232
30
0
41
1
10
94.236442162962
20
4.3448231264299
30
0
41
1
10
94.4933959084519
20
4.31525700032856
30
0
41
1
10
94.8784118698976
20
4.26037621410987
30
0
41
1
10
95.0066748178135
20
4.24014600046135
30
0
41
1
10
95.2633121893618
20
4.19535337757759
30
0
41
1
10
95.3922024871324
20
4.17120762864653
30
0
41
1
10
95.7778838789119
20
4.09242182061772
30
0
41
1
10
96.0341990795017
20
4.03145374204885
30
0
41
1
10
96.5472683871924
20
3.89720838080453
30
0
41
1
10
96.8041161821624
20
3.82303128127083
30
0
41
1
10
97.1899625482097
20
3.70016256087214
30
0
41
1
10
97.3183682261515
20
3.65732226656942
30
0
41
1
10
97.57484938064
20
3.56813021938299
30
0
41
1
10
97.7028341571793
20
3.52173041446559
30
0
41
1
10
98.0884213090245
20
3.38013254934199
30
0
41
1
10
98.3449438316566
20
3.27897208076527
30
0
41
1
10
98.8583658826353
20
3.06346019664929
30
0
41
1
10
99.115673295619
20
2.94971707249343
30
0
41
1
10
99.6294687591711
20
2.713584259491
30
0
41
1
10
99.8858303599619
20
2.59028907324012
30
0
41
1
10
100.270155236908
20
2.39674717866117
30
0
41
1
10
100.398966083787
20
2.33188609407315
30
0
41
1
10
100.656223351142
20
2.19930789463317
30
0
41
1
10
100.784918984578
20
2.13177229131594
30
0
41
1
10
101.170367391973
20
1.92606330370742
30
0
41
1
10
101.426933377095
20
1.78533746940659
30
0
41
1
10
101.940420274321
20
1.49863515581478
30
0
41
1
10
102.197333867179
20
1.35271331505592
30
0
41
1
10
102.582275635278
20
1.12864043166166
30
0
41
1
10
102.71059204049
20
1.05306237101442
30
0
41
1
10
102.967971669447
20
0.902865273124718
30
0
41
1
10
103.096494710472
20
0.82723123549809
30
0
41
1
10
103.481625235893
20
0.598838507779732
30
0
41
1
10
103.737812062512
20
0.444622611746354
30
0
41
1
10
104.251198744467
20
0.135851121347173
30
0
41
1
10
104.508741462357
20
-0.0188456299201221
30
0
41
1
10
104.89387819104
20
-0.251235129802097
30
0
41
1
10
105.022018935059
20
-0.328825381060142
30
0
41
1
10
105.278244806863
20
-0.483565708165941
30
0
41
1
10
105.406971221852
20
-0.559658438393058
30
0
41
1
10
105.792272836122
20
-0.788606959023895
30
0
41
1
10
106.048595591501
20
-0.941080316800111
30
0
41
1
10
106.562599310784
20
-1.24164501906273
30
0
41
1
10
106.819643804246
20
-1.38944182866336
30
0
41
1
10
107.20465923525
20
-1.60696505418872
30
0
41
1
10
107.332861421282
20
-1.67892120127263
30
0
41
1
10
107.589095043201
20
-1.82154307689331
30
0
41
1
10
107.717144845705
20
-1.89217429414026
30
0
41
1
10
107.845739140537
20
-1.96121494247865
30
0
0
SPLINE
5
C4
100
AcDbEntity
8
1
62
256
6
ByLayer
370
13
48
1
60
0
100
AcDbSpline
70
4
71
3
72
8
73
4
40
0
40
0
40
0
40
0
40
1
40
1
40
1
40
1
41
1
10
8.11675196855293
20
-1.12480647676802
30
0
41
1
10
8.11769368304371
20
-1.1143435039134
30
0
41
1
10
8.11864725577055
20
-1.10387078139763
30
0
41
1
10
8.1196128242706
20
-1.09338774901042
30
0
0
SPLINE
5
C5
100
AcDbEntity
8
1
62
256
6
ByLayer
370
18
48
1
60
0
100
AcDbSpline
70
4
71
3
72
8
73
4
40
0
40
0
40
0
40
0
40
1
40
1
40
1
40
1
41
1
10
110.398266469481
20
-4.50117069192825
30
0
41
1
10
110.376874722956
20
-4.55471641775907
30
0
41
1
10
110.355465772915
20
-4.60817795765914
30
0
41
1
10
110.334047333339
20
-4.66154632817987
30
0
0
SPLINE
5
C6
100
AcDbEntity
8
1
62
256
6
ByLayer
370
18
48
1
60
0
100
AcDbSpline
70
4
71
3
72
14
73
10
40
0
40
0
40
0
40
0
40
0.25
40
0.25
40
0.5
40
0.5
40
0.75
40
0.75
40
1
40
1
40
1
40
1
41
1
10
110.415282938185
20
-4.40941727649025
30
0
41
1
10
110.417755139719
20
-4.40862075655608
30
0
41
1
10
110.419593724591
20
-4.40948757313993
30
0
41
1
10
110.42157893038
20
-4.41564016805339
30
0
41
1
10
110.42167838123
20
-4.42101509203235
30
0
41
1
10
110.419152640592
20
-4.43743260249173
30
0
41
1
10
110.416465289315
20
-4.44852180418977
30
0
41
1
10
110.408624134209
20
-4.47389998521567
30
0
41
1
10
110.403572358827
20
-4.48788950911799
30
0
41
1
10
110.398266470064
20
-4.5011706904676
30
0
0
SPLINE
5
C7
100
AcDbEntity
8
1
62
256
6
ByLayer
370
18
48
1
60
0
100
AcDbSpline
70
4
71
3
72
8
73
4
40
0
40
0
40
0
40
0
40
1
40
1
40
1
40
1
41
1
10
110.489968120906
20
4.54717936529707
30
0
41
1
10
110.4306853736
20
4.60501282026613
30
0
41
1
10
110.37882913092
20
4.64345374624673
30
0
41
1
10
110.334047333339
20
4.66154632817987
30
0
0
SPLINE
5
C8
100
AcDbEntity
8
1
62
256
6
ByLayer
370
18
48
1
60
0
100
AcDbSpline
70
4
71
3
72
10
73
6
40
0
40
0
40
0
40
0
40
0.5
40
0.5
40
1
40
1
40
1
40
1
41
1
10
107.845739140537
20
-1.96121494247862
30
0
41
1
10
108.123492335434
20
-2.21852558122791
30
0
41
1
10
108.414663730657
20
-2.4513517896128
30
0
41
1
10
109.018439703589
20
-2.87789469457982
30
0
41
1
10
109.32722955266
20
-3.06876438782416
30
0
41
1
10
109.640812125311
20
-3.24032429893589
30
0
0
SPLINE
5
C9
100
AcDbEntity
8
1
62
256
6
ByLayer
370
18
48
1
60
0
100
AcDbSpline
70
4
71
3
72
10
73
6
40
0
40
0
40
0
40
0
40
0.150521587286689
40
0.150521587286689
40
1
40
1
40
1
40
1
41
1
10
9.06348901308576
20
2.28370520454442
30
0
41
1
10
9.06348901308576
20
2.26608835336373
30
0
41
1
10
9.06348901308576
20
2.24861860518254
30
0
41
1
10
9.06348901308576
20
2.1335286006931
30
0
41
1
10
9.06348901308576
20
2.04042480511873
30
0
41
1
10
9.06348901308576
20
1.95194020454443
30
0
0
SPLINE
5
CA
100
AcDbEntity
8
1
62
256
6
ByLayer
370
13
48
1
60
0
100
AcDbSpline
70
4
71
3
72
10
73
6
40
0
40
0
40
0
40
0
40
0.5
40
0.5
40
1
40
1
40
1
40
1
41
1
10
8.11961282427063
20
-0.991386485988556
30
0
41
1
10
8.13948840777741
20
-0.99547615284655
30
0
41
1
10
8.16099662605237
20
-1.00075467819477
30
0
41
1
10
8.2049081300606
20
-1.01307360257923
30
0
41
1
10
8.2273443116126
20
-1.02009829609497
30
0
41
1
10
8.25025241084902
20
-1.02804482931205
30
0
0
SPLINE
5
CB
100
AcDbEntity
8
1
62
256
6
ByLayer
370
18
48
1
60
0
100
AcDbSpline
70
4
71
3
72
8
73
4
40
0
40
0
40
0
40
0
40
1
40
1
40
1
40
1
41
1
10
8.000000470733
20
-3.19259356520124
30
0
41
1
10
8.000000470733
20
-3.19359355913738
30
0
41
1
10
8.000000470733
20
-3.19459413925821
30
0
41
1
10
8.000000470733
20
-3.19559530618469
30
0
0
SPLINE
5
CC
100
AcDbEntity
8
1
62
256
6
ByLayer
370
18
48
1
60
0
100
AcDbSpline
70
4
71
3
72
8
73
4
40
0
40
0
40
0
40
0
40
1
40
1
40
1
40
1
41
1
10
110.489968120905
20
-4.54717936529809
30
0
41
1
10
110.430685373599
20
-4.60501282026658
30
0
41
1
10
110.37882913092
20
-4.64345374624685
30
0
41
1
10
110.334047333339
20
-4.66154632817987
30
0
0
SPLINE
5
CD
100
AcDbEntity
8
1
62
256
6
ByLayer
370
18
48
1
60
0
100
AcDbSpline
70
4
71
3
72
8
73
4
40
0
40
0
40
0
40
0
40
1
40
1
40
1
40
1
41
1
10
111.971862452364
20
-0.0194262095254487
30
0
41
1
10
111.934678041813
20
-0.0885617693306813
30
0
41
1
10
111.897639514435
20
-0.157828033749411
30
0
41
1
10
111.860747656022
20
-0.227224218113037
30
0
0
SPLINE
5
CE
100
AcDbEntity
8
1
62
256
6
ByLayer
370
18
48
1
60
0
100
AcDbSpline
70
4
71
3
72
30
73
26
40
0
40
0
40
0
40
0
40
0.103009070180423
40
0.103009070180423
40
0.154513605270635
40
0.154513605270635
40
0.206018140360848
40
0.206018140360848
40
0.309027210541273
40
0.309027210541273
40
0.412036280721698
40
0.412036280721698
40
0.463540815811911
40
0.463540815811911
40
0.515045350902125
40
0.515045350902125
40
0.61805442108255
40
0.61805442108255
40
0.721063491262975
40
0.721063491262975
40
0.824072561443399
40
0.824072561443399
40
0.927081631623824
40
0.927081631623824
40
1
40
1
40
1
40
1
41
1
10
9.06348901308576
20
-2.28370520451583
30
0
41
1
10
9.32750391075507
20
-2.43028056865006
30
0
41
1
10
9.59184230633872
20
-2.5707561437377
30
0
41
1
10
9.98926438452418
20
-2.77218067463332
30
0
41
1
10
10.1218266983518
20
-2.83786248726224
30
0
41
1
10
10.3863620368967
20
-2.96724055258531
30
0
41
1
10
10.5180573550444
20
-3.03125400473357
30
0
41
1
10
10.9147832799091
20
-3.21716086798963
30
0
41
1
10
11.1806972324268
20
-3.33430608053365
30
0
41
1
10
11.7096850470236
20
-3.55636768311453
30
0
41
1
10
11.9736061801255
20
-3.66075393940707
30
0
41
1
10
12.3705746386941
20
-3.8055567437772
30
0
41
1
10
12.503027567866
20
-3.85192202229973
30
0
41
1
10
12.7679782799896
20
-3.94103606385031
30
0
41
1
10
12.9001455084406
20
-3.98412288963715
30
0
41
1
10
13.297001184964
20
-4.10709722170159
30
0
41
1
10
13.562120462291
20
-4.18021607677423
30
0
41
1
10
14.0909386697053
20
-4.31080762552037
30
0
41
1
10
14.3547720329849
20
-4.36804883483961
30
0
41
1
10
14.8842991706771
20
-4.46475786678985
30
0
41
1
10
15.1503882692384
20
-4.50427585497116
30
0
41
1
10
15.6781473189724
20
-4.56632531300542
30
0
41
1
10
15.9428273800367
20
-4.58808916694568
30
0
41
1
10
16.3947786917875
20
-4.61013944604534
30
0
41
1
10
16.5819450768284
20
-4.61479896801447
30
0
41
1
10
16.7692492028021
20
-4.61491368477505
30
0
0
SPLINE
5
CF
100
AcDbEntity
8
1
62
256
6
ByLayer
370
18
48
1
60
0
100
AcDbSpline
70
4
71
3
72
108
73
104
40
0
40
0
40
0
40
0
40
0.0099202214296678
40
0.0099202214296678
40
0.0354877449207261
40
0.0354877449207261
40
0.0610552684117844
40
0.0610552684117844
40
0.0866227919028427
40
0.0866227919028427
40
0.112190315393901
40
0.112190315393901
40
0.12497407713943
40
0.12497407713943
40
0.137757838884959
40
0.137757838884959
40
0.163325362376018
40
0.163325362376018
40
0.188892885867076
40
0.188892885867076
40
0.201676647612606
40
0.201676647612606
40
0.214460409358135
40
0.214460409358135
40
0.240027932849194
40
0.240027932849194
40
0.265595456340254
40
0.265595456340254
40
0.278379218085784
40
0.278379218085784
40
0.291162979831314
40
0.291162979831314
40
0.316730503322374
40
0.316730503322374
40
0.342298026813434
40
0.342298026813434
40
0.355081788558964
40
0.355081788558964
40
0.367865550304495
40
0.367865550304495
40
0.393433073795555
40
0.393433073795555
40
0.419000597286615
40
0.419000597286615
40
0.431784359032145
40
0.431784359032145
40
0.444568120777674
40
0.444568120777674
40
0.470135644268733
40
0.470135644268733
40
0.495703167759793
40
0.495703167759793
40
0.521270691250852
40
0.521270691250852
40
0.546838214741911
40
0.546838214741911
40
0.57240573823297
40
0.57240573823297
40
0.585189499978499
40
0.585189499978499
40
0.597973261724028
40
0.597973261724028
40
0.623540785215087
40
0.623540785215087
40
0.649108308706145
40
0.649108308706145
40
0.674675832197203
40
0.674675832197203
40
0.687459593942733
40
0.687459593942733
40
0.700243355688263
40
0.700243355688263
40
0.725810879179323
40
0.725810879179323
40
0.751378402670383
40
0.751378402670383
40
0.776945926161443
40
0.776945926161443
40
0.789729687906974
40
0.789729687906974
40
0.802513449652504
40
0.802513449652504
40
0.828080973143565
40
0.828080973143565
40
0.840864734889096
40
0.840864734889096
40
0.853648496634626
40
0.853648496634626
40
0.879216020125685
40
0.879216020125685
40
0.904783543616744
40
0.904783543616744
40
0.917567305362274
40
0.917567305362274
40
0.930351067107803
40
0.930351067107803
40
0.955918590598863
40
0.955918590598863
40
0.981486114089922
40
0.981486114089922
40
0.994269875835451
40
0.994269875835451
40
1
40
1
40
1
40
1
41
1
10
31.7692955443121
20
2.12651508071477
30
0
41
1
10
31.8717369170052
20
2.18415283661372
30
0
41
1
10
31.9742147766802
20
2.24115100541593
30
0
41
1
10
32.3412632140203
20
2.44230387395228
30
0
41
1
10
32.6072991529251
20
2.5818092958805
30
0
41
1
10
33.1349030022313
20
2.85401365654815
30
0
41
1
10
33.399321366321
20
2.98334347613053
30
0
41
1
10
33.9281966975739
20
3.2302679079375
30
0
41
1
10
34.1919756593655
20
3.34857603398103
30
0
41
1
10
34.7214670703469
20
3.57105587119889
30
0
41
1
10
34.9865469996592
20
3.67457060996134
30
0
41
1
10
35.3827628169569
20
3.81985914629675
30
0
41
1
10
35.5142992753452
20
3.86688002046441
30
0
41
1
10
35.7783297801106
20
3.95629976808536
30
0
41
1
10
35.9105669500769
20
3.99894314096988
30
0
41
1
10
36.3076377502477
20
4.12098420163389
30
0
41
1
10
36.5723211729886
20
4.19509098533467
30
0
41
1
10
37.1007468015245
20
4.32599576626376
30
0
41
1
10
37.365179728025
20
4.38271884287246
30
0
41
1
10
37.7618229446388
20
4.45507053596273
30
0
41
1
10
37.8935541380362
20
4.47725775180496
30
0
41
1
10
38.1575783191562
20
4.5170458306896
30
0
41
1
10
38.2899154650651
20
4.53467231450972
30
0
41
1
10
38.6874277413345
20
4.58081091844778
30
0
41
1
10
38.9516947318417
20
4.6027005831389
30
0
41
1
10
39.479528399127
20
4.62845276499795
30
0
41
1
10
39.7437411678232
20
4.63224793308115
30
0
41
1
10
40.1408248041396
20
4.62447082562892
30
0
41
1
10
40.2732481699061
20
4.61962751685647
30
0
41
1
10
40.5373199242365
20
4.60527469205698
30
0
41
1
10
40.6694468405968
20
4.59585088658051
30
0
41
1
10
41.0660369470284
20
4.56099406954635
30
0
41
1
10
41.3304242131454
20
4.52895379743697
30
0
41
1
10
41.8582751761828
20
4.44684588805575
30
0
41
1
10
42.122706102967
20
4.396962341343
30
0
41
1
10
42.5201389626464
20
4.30970627791137
30
0
41
1
10
42.6526647218107
20
4.27864768472247
30
0
41
1
10
42.9165736526816
20
4.21178490507972
30
0
41
1
10
43.0482237913452
20
4.17611783118539
30
0
41
1
10
43.4442310392898
20
4.06379277766385
30
0
41
1
10
43.7088809918457
20
3.98140462962968
30
0
41
1
10
44.2373710300335
20
3.79985484362567
30
0
41
1
10
44.5019080666278
20
3.70112829953783
30
0
41
1
10
44.8986174047535
20
3.54366681844505
30
0
41
1
10
45.0308624271662
20
3.4895321035975
30
0
41
1
10
45.2951508657458
20
3.3777430459713
30
0
41
1
10
45.4266782948936
20
3.31951553534512
30
0
41
1
10
45.8224401015119
20
3.14107844390182
30
0
41
1
10
46.0877445621736
20
3.01666118862485
30
0
41
1
10
46.6166747427137
20
2.75480028143167
30
0
41
1
10
46.8802930105394
20
2.61792695977798
30
0
41
1
10
47.4086640026751
20
2.33605914566016
30
0
41
1
10
47.6732673059322
20
2.19094166869615
30
0
41
1
10
48.2010695743015
20
1.88900505921524
30
0
41
1
10
48.4663473717624
20
1.73542843375989
30
0
41
1
10
48.9948484322076
20
1.42148567660746
30
0
41
1
10
49.2582454737388
20
1.26060294171742
30
0
41
1
10
49.6544552698018
20
1.01703595710558
30
0
41
1
10
49.786710722378
20
0.935478488227346
30
0
41
1
10
50.0514841449839
20
0.77146433412031
30
0
41
1
10
50.1842019833362
20
0.689188936084037
30
0
41
1
10
50.5799778244998
20
0.438916017844491
30
0
41
1
10
50.8440199576815
20
0.272120699549589
30
0
41
1
10
51.3725806234527
20
-0.0612018900114037
30
0
41
1
10
51.6361299740979
20
-0.229264879523271
30
0
41
1
10
52.1648556588299
20
-0.563307921211106
30
0
41
1
10
52.429968503971
20
-0.728620271161276
30
0
41
1
10
52.8262688448623
20
-0.974516958946992
30
0
41
1
10
52.9577019203467
20
-1.05697746103309
30
0
41
1
10
53.2214609485665
20
-1.21943522893372
30
0
41
1
10
53.3535410820709
20
-1.29981805882616
30
0
41
1
10
53.7501877802956
20
-1.53874856953359
30
0
41
1
10
54.0147219211498
20
-1.6964964144704
30
0
41
1
10
54.5429890849124
20
-2.00423693281383
30
0
41
1
10
54.8072231633326
20
-2.15354385251823
30
0
41
1
10
55.3357201454647
20
-2.44342560176881
30
0
41
1
10
55.5987480251208
20
-2.58561555461648
30
0
41
1
10
55.9957930677026
20
-2.78894120152884
30
0
41
1
10
56.1283507109459
20
-2.8552616973727
30
0
41
1
10
56.3926751065719
20
-2.98541741033148
30
0
41
1
10
56.5245879894915
20
-3.0492122658861
30
0
41
1
10
56.9202453808915
20
-3.23592092929641
30
0
41
1
10
57.1841597225263
20
-3.35388027373898
30
0
41
1
10
57.5808190913328
20
-3.52054327051644
30
0
41
1
10
57.7131823110975
20
-3.57438436512422
30
0
41
1
10
57.9770266108123
20
-3.67973452326353
30
0
41
1
10
58.1091484725607
20
-3.73044937217656
30
0
41
1
10
58.5055473432825
20
-3.87639259125109
30
0
41
1
10
58.7698907760107
20
-3.96583499959158
30
0
41
1
10
59.2973285077912
20
-4.13013842309337
30
0
41
1
10
59.5611700349994
20
-4.204344196904
30
0
41
1
10
59.9584080648529
20
-4.30292025952033
30
0
41
1
10
60.0909022938799
20
-4.33363323643343
30
0
41
1
10
60.3550465875269
20
-4.39106648425081
30
0
41
1
10
60.4865152270733
20
-4.41788709649941
30
0
41
1
10
60.8821864068637
20
-4.49111661097007
30
0
41
1
10
61.1466595458136
20
-4.53094736535516
30
0
41
1
10
61.6746154920726
20
-4.59349224002014
30
0
41
1
10
61.9389745245763
20
-4.61589700465146
30
0
41
1
10
62.3355130912424
20
-4.63573509706041
30
0
41
1
10
62.467699690304
20
-4.64008833382851
30
0
41
1
10
62.6589913271714
20
-4.64314447640072
30
0
41
1
10
62.718090597447
20
-4.64363816261079
30
0
41
1
10
62.7771495879598
20
-4.64367621818121
30
0
0
SPLINE
5
D0
100
AcDbEntity
8
1
62
256
6
ByLayer
370
18
48
1
60
0
100
AcDbSpline
70
4
71
3
72
108
73
104
40
0
40
0
40
0
40
0
40
0.0088291343242968
40
0.0088291343242968
40
0.034347131984546
40
0.034347131984546
40
0.0598651296447951
40
0.0598651296447951
40
0.0726241284749193
40
0.0726241284749193
40
0.0853831273050435
40
0.0853831273050435
40
0.110901124965292
40
0.110901124965292
40
0.13641912262554
40
0.13641912262554
40
0.149178121455664
40
0.149178121455664
40
0.161937120285788
40
0.161937120285788
40
0.187455117946036
40
0.187455117946036
40
0.212973115606284
40
0.212973115606284
40
0.238491113266532
40
0.238491113266532
40
0.251250112096656
40
0.251250112096656
40
0.26400911092678
40
0.26400911092678
40
0.289527108587029
40
0.289527108587029
40
0.315045106247277
40
0.315045106247277
40
0.327804105077401
40
0.327804105077401
40
0.340563103907525
40
0.340563103907525
40
0.366081101567775
40
0.366081101567775
40
0.391599099228025
40
0.391599099228025
40
0.40435809805815
40
0.40435809805815
40
0.417117096888274
40
0.417117096888274
40
0.442635094548522
40
0.442635094548522
40
0.46815309220877
40
0.46815309220877
40
0.480912091038895
40
0.480912091038895
40
0.49367108986902
40
0.49367108986902
40
0.51918908752927
40
0.51918908752927
40
0.54470708518952
40
0.54470708518952
40
0.557466084019647
40
0.557466084019647
40
0.570225082849773
40
0.570225082849773
40
0.595743080510023
40
0.595743080510023
40
0.621261078170273
40
0.621261078170273
40
0.646779075830523
40
0.646779075830523
40
0.672297073490774
40
0.672297073490774
40
0.697815071151024
40
0.697815071151024
40
0.723333068811274
40
0.723333068811274
40
0.736092067641399
40
0.736092067641399
40
0.748851066471524
40
0.748851066471524
40
0.774369064131774
40
0.774369064131774
40
0.799887061792023
40
0.799887061792023
40
0.812646060622148
40
0.812646060622148
40
0.825405059452273
40
0.825405059452273
40
0.850923057112525
40
0.850923057112525
40
0.876441054772777
40
0.876441054772777
40
0.889200053602905
40
0.889200053602905
40
0.901959052433032
40
0.901959052433032
40
0.927477050093287
40
0.927477050093287
40
0.952995047753543
40
0.952995047753543
40
0.965754046583671
40
0.965754046583671
40
0.978513045413799
40
0.978513045413799
40
1
40
1
40
1
40
1
41
1
10
77.7713801124461
20
2.13573909480175
30
0
41
1
10
77.8625936531903
20
2.18752272701971
30
0
41
1
10
77.9536155776995
20
2.23899155317344
30
0
41
1
10
78.3083631093426
20
2.43602174348081
30
0
41
1
10
78.5726631162263
20
2.57657043854454
30
0
41
1
10
79.1001810394188
20
2.84945330547654
30
0
41
1
10
79.3641925429292
20
2.98131908081138
30
0
41
1
10
79.7605688336264
20
3.16869046911833
30
0
41
1
10
79.8927043395125
20
3.22946162015546
30
0
41
1
10
80.1567838554089
20
3.34789845620281
30
0
41
1
10
80.288456059659
20
3.40585958090949
30
0
41
1
10
80.6832559427789
20
3.57489924473762
30
0
41
1
10
80.947577815548
20
3.67973368081573
30
0
41
1
10
81.4761582792532
20
3.87611613622221
30
0
41
1
10
81.739834729261
20
3.96742883307201
30
0
41
1
10
82.1355011034968
20
4.09165071090283
30
0
41
1
10
82.2674793653985
20
4.13097648033269
30
0
41
1
10
82.5314874887457
20
4.2055949944679
30
0
41
1
10
82.6636412104544
20
4.24081672873933
30
0
41
1
10
83.0584753759388
20
4.34142546111281
30
0
41
1
10
83.3230904072529
20
4.39976395119476
30
0
41
1
10
83.8516085012584
20
4.49890391411105
30
0
41
1
10
84.1147423254558
20
4.54006393604274
30
0
41
1
10
84.6419057839304
20
4.60423707208375
30
0
41
1
10
84.9062192415963
20
4.62729257421782
30
0
41
1
10
85.3027135454668
20
4.64854065222826
30
0
41
1
10
85.4342913683331
20
4.65340849798301
30
0
41
1
10
85.6980263369118
20
4.65847744029605
30
0
41
1
10
85.8299967692429
20
4.65872805911607
30
0
41
1
10
86.2259998761465
20
4.65274741908317
30
0
41
1
10
86.4893229183057
20
4.63970589644927
30
0
41
1
10
87.0166379202412
20
4.59547363251414
30
0
41
1
10
87.2814235062817
20
4.56438388086804
30
0
41
1
10
87.6776878236672
20
4.50468548681928
30
0
41
1
10
87.8092728111617
20
4.48243607506794
30
0
41
1
10
88.0724873271853
20
4.43360040356814
30
0
41
1
10
88.2042663235084
20
4.40709764500943
30
0
41
1
10
88.600050036339
20
4.32142025470756
30
0
41
1
10
88.8639371911217
20
4.25578182488223
30
0
41
1
10
89.3920235655933
20
4.10727397142449
30
0
41
1
10
89.6558745211361
20
4.0251771347003
30
0
41
1
10
90.0518035373552
20
3.89098480309491
30
0
41
1
10
90.1838136871402
20
3.84442640826561
30
0
41
1
10
90.4467760037742
20
3.74655805585908
30
0
41
1
10
90.5784683534851
20
3.69591150159084
30
0
41
1
10
90.9743074742228
20
3.53905519995786
30
0
41
1
10
91.2392096342244
20
3.42760567936233
30
0
41
1
10
91.7663932624889
20
3.19078961983354
30
0
41
1
10
92.0297209874486
20
3.06608982006387
30
0
41
1
10
92.4255996580343
20
2.87124853899601
30
0
41
1
10
92.5577030736672
20
2.80500897020971
30
0
41
1
10
92.8215170186382
20
2.66905592904129
30
0
41
1
10
92.9530521716432
20
2.59899263743887
30
0
41
1
10
93.3490833397103
20
2.38680704907964
30
0
41
1
10
93.6134030886609
20
2.24180691974678
30
0
41
1
10
94.1402746438916
20
1.9415293575008
30
0
41
1
10
94.4034054326512
20
1.78700774622627
30
0
41
1
10
94.7995261180031
20
1.55141157515803
30
0
41
1
10
94.9318235541573
20
1.47212276713174
30
0
41
1
10
95.1962050089939
20
1.31201393611974
30
0
41
1
10
95.3277759433275
20
1.23060698348848
30
0
41
1
10
95.7227746650627
20
0.985573299018597
30
0
41
1
10
95.9868755505716
20
0.821756911182007
30
0
41
1
10
96.5140715585582
20
0.489317888949785
30
0
41
1
10
96.7775770623487
20
0.320792501958607
30
0
41
1
10
97.3058776708043
20
-0.015203358665417
30
0
41
1
10
97.5703507414302
20
-0.18192587023745
30
0
41
1
10
98.0960991030003
20
-0.518861155256019
30
0
41
1
10
98.3600082432345
20
-0.68493203985139
30
0
41
1
10
98.8881662715603
20
-1.01501584678056
30
0
41
1
10
99.151909532151
20
-1.17977581471044
30
0
41
1
10
99.6791158894839
20
-1.50185531819412
30
0
41
1
10
99.943341512952
20
-1.65886505705916
30
0
41
1
10
100.338414645281
20
-1.89156966155639
30
0
41
1
10
100.469776034665
20
-1.96882462813178
30
0
41
1
10
100.733543685655
20
-2.12025916970478
30
0
41
1
10
100.865813874648
20
-2.19481059294759
30
0
41
1
10
101.262218896703
20
-2.41485391712095
30
0
41
1
10
101.525368448
20
-2.55780637927245
30
0
41
1
10
102.05203603052
20
-2.83265922183091
30
0
41
1
10
102.315912633251
20
-2.96415091466252
30
0
41
1
10
102.712116840274
20
-3.15305893191243
30
0
41
1
10
102.843812501651
20
-3.21525694537974
30
0
41
1
10
103.107372964337
20
-3.33566162900087
30
0
41
1
10
103.239237130372
20
-3.39399258271598
30
0
41
1
10
103.635002616807
20
-3.56356798202904
30
0
41
1
10
103.898348910531
20
-3.67015724603854
30
0
41
1
10
104.425056480985
20
-3.86921139474899
30
0
41
1
10
104.68939338808
20
-3.96122182673
30
0
41
1
10
105.085641510186
20
-4.08719370693879
30
0
41
1
10
105.217477275794
20
-4.12731020090894
30
0
41
1
10
105.480411670644
20
-4.20388477088289
30
0
41
1
10
105.612045862459
20
-4.23995946855524
30
0
41
1
10
106.00738152758
20
-4.34172244546284
30
0
41
1
10
106.271204676221
20
-4.40118323998067
30
0
41
1
10
106.798587290643
20
-4.50352956179734
30
0
41
1
10
107.062503460941
20
-4.54589767434737
30
0
41
1
10
107.458234870084
20
-4.59587091804787
30
0
41
1
10
107.59027118769
20
-4.61027889219309
30
0
41
1
10
107.853323301687
20
-4.63485389507335
30
0
41
1
10
107.984650867528
20
-4.64491504748335
30
0
41
1
10
108.338264158819
20
-4.66567728823901
30
0
41
1
10
108.561050120976
20
-4.67227755900441
30
0
41
1
10
108.783275772587
20
-4.67243628414684
30
0
0
SPLINE
5
D1
100
AcDbEntity
8
1
62
256
6
ByLayer
370
18
48
1
60
0
100
AcDbSpline
70
4
71
3
72
20
73
16
40
0
40
0
40
0
40
0
40
0.125000000000004
40
0.125000000000004
40
0.250000000000009
40
0.250000000000009
40
0.375000000000013
40
0.375000000000013
40
0.500000000000017
40
0.500000000000017
40
0.625000000000022
40
0.625000000000022
40
0.750000000000026
40
0.750000000000026
40
1
40
1
40
1
40
1
41
1
10
111.335550592507
20
-1.67019129088646
30
0
41
1
10
111.332260711055
20
-1.69525245189058
30
0
41
1
10
111.327294859069
20
-1.7229282701536
30
0
41
1
10
111.314070193727
20
-1.78342872915954
30
0
41
1
10
111.305711342163
20
-1.81651666862805
30
0
41
1
10
111.286580498278
20
-1.88443754121812
30
0
41
1
10
111.275628211271
20
-1.91997750782562
30
0
41
1
10
111.251739919649
20
-1.9920123620108
30
0
41
1
10
111.238993929602
20
-2.02798725636527
30
0
41
1
10
111.212076592843
20
-2.09987199959008
30
0
41
1
10
111.197948909216
20
-2.13562106330428
30
0
41
1
10
111.169439673402
20
-2.20444459245127
30
0
41
1
10
111.154849592522
20
-2.23804048566953
30
0
41
1
10
111.110887489857
20
-2.33486623252099
30
0
41
1
10
111.081943392593
20
-2.39291526148966
30
0
41
1
10
111.053940550806
20
-2.44390852155348
30
0
0
SPLINE
5
D2
100
AcDbEntity
8
1
62
256
6
ByLayer
370
18
48
1
60
0
100
AcDbSpline
70
4
71
3
72
42
73
38
40
0
40
0
40
0
40
0
40
0.0312500000000012
40
0.0312500000000012
40
0.0625000000000025
40
0.0625000000000025
40
0.125000000000005
40
0.125000000000005
40
0.187500000000007
40
0.187500000000007
40
0.25000000000001
40
0.25000000000001
40
0.312500000000012
40
0.312500000000012
40
0.375000000000015
40
0.375000000000015
40
0.437500000000017
40
0.437500000000017
40
0.500000000000019
40
0.500000000000019
40
0.562500000000022
40
0.562500000000022
40
0.59375000000002
40
0.59375000000002
40
0.625000000000018
40
0.625000000000018
40
0.687500000000015
40
0.687500000000015
40
0.750000000000012
40
0.750000000000012
40
0.812500000000009
40
0.812500000000009
40
0.875000000000006
40
0.875000000000006
40
0.937500000000003
40
0.937500000000003
40
1
40
1
40
1
40
1
41
1
10
111.335550592507
20
-1.67019129088362
30
0
41
1
10
111.332757088873
20
-1.64941440638279
30
0
41
1
10
111.3284829886
20
-1.63119334437917
30
0
41
1
10
111.317371554023
20
-1.5991759036591
30
0
41
1
10
111.310462515944
20
-1.58532583186979
30
0
41
1
10
111.286881140514
20
-1.55093412588056
30
0
41
1
10
111.267247370036
20
-1.5368848846395
30
0
41
1
10
111.222126076404
20
-1.52373078156876
30
0
41
1
10
111.197335341234
20
-1.52477641393574
30
0
41
1
10
111.143967763166
20
-1.53980900558054
30
0
41
1
10
111.115212970034
20
-1.55406412966224
30
0
41
1
10
111.056416590519
20
-1.59408415278
30
0
41
1
10
111.025897271114
20
-1.62007334925005
30
0
41
1
10
110.963701983396
20
-1.68377498688565
30
0
41
1
10
110.932742226508
20
-1.72067858434957
30
0
41
1
10
110.871126328395
20
-1.80561157840671
30
0
41
1
10
110.840023653592
20
-1.85450365440113
30
0
41
1
10
110.782000869713
20
-1.96063017579888
30
0
41
1
10
110.75430468408
20
-2.01934617246121
30
0
41
1
10
110.707291482936
20
-2.14039086700873
30
0
41
1
10
110.687601391633
20
-2.20399197443473
30
0
41
1
10
110.667997737106
20
-2.29383657129321
30
0
41
1
10
110.662953689151
20
-2.32356007337657
30
0
41
1
10
110.656460735655
20
-2.37916067329584
30
0
41
1
10
110.654932010653
20
-2.4052146775519
30
0
41
1
10
110.655286291326
20
-2.47835413887424
30
0
41
1
10
110.662204145527
20
-2.51847883647733
30
0
41
1
10
110.685945268181
20
-2.58016427375597
30
0
41
1
10
110.702733811678
20
-2.60182852816482
30
0
41
1
10
110.742475264108
20
-2.62860077642651
30
0
41
1
10
110.765274268432
20
-2.63390331382092
30
0
41
1
10
110.81597404685
20
-2.63042482245785
30
0
41
1
10
110.84309699259
20
-2.62165383979314
30
0
41
1
10
110.900278496476
20
-2.59150215695638
30
0
41
1
10
110.930451575349
20
-2.56990617188282
30
0
41
1
10
110.991317455373
20
-2.51571533577595
30
0
41
1
10
111.02251132627
20
-2.48277367105871
30
0
41
1
10
111.0539405508
20
-2.44390852156255
30
0
0
SPLINE
5
D3
100
AcDbEntity
8
1
62
256
6
ByLayer
370
18
48
1
60
0
100
AcDbSpline
70
4
71
3
72
8
73
4
40
0
40
0
40
0
40
0
40
1
40
1
40
1
40
1
41
1
10
8.25006184756091
20
2.82266087525917
30
0
41
1
10
8.50502634632335
20
2.55097298045811
30
0
41
1
10
8.77450035636537
20
2.26219372064972
30
0
41
1
10
9.06348901308584
20
1.96413771761289
30
0
0
SPLINE
5
D4
100
AcDbEntity
8
1
62
256
6
ByLayer
370
18
48
1
60
0
100
AcDbSpline
70
4
71
3
72
14
73
10
40
0
40
0
40
0
40
0
40
0.201369589966758
40
0.201369589966758
40
0.402739179933517
40
0.402739179933517
40
0.80547835986703
40
0.80547835986703
40
1
40
1
40
1
40
1
41
1
10
8.19819418238501
20
-1.13428017269649
30
0
41
1
10
8.46704941325407
20
-1.29243994433051
30
0
41
1
10
8.73562234162412
20
-1.44798156486746
30
0
41
1
10
9.27286389956774
20
-1.75281506216191
30
0
41
1
10
9.54195401225843
20
-1.90232468262755
30
0
41
1
10
10.3478316026362
20
-2.33789262138953
30
0
41
1
10
10.8802359594551
20
-2.60922908489502
30
0
41
1
10
11.6678821084357
20
-2.97698361009796
30
0
41
1
10
11.9240723012611
20
-3.09135697843217
30
0
41
1
10
12.1802962078486
20
-3.19988759427412
30
0
0
SPLINE
5
D5
100
AcDbEntity
8
1
62
256
6
ByLayer
370
13
48
1
60
0
100
AcDbSpline
70
4
71
3
72
22
73
18
40
0
40
0
40
0
40
0
40
0.115428355363875
40
0.115428355363875
40
0.227060362522856
40
0.227060362522856
40
0.282876366102348
40
0.282876366102348
40
0.338692369681839
40
0.338692369681839
40
0.785220398317782
40
0.785220398317782
40
0.896852405476766
40
0.896852405476766
40
0.952668409056259
40
0.952668409056259
40
1
40
1
40
1
40
1
41
1
10
12.1802955460208
20
-3.19988731393892
30
0
41
1
10
12.4545599123528
20
-3.31605946877067
30
0
41
1
10
12.7288629067159
20
-3.42553714225619
30
0
41
1
10
13.2694199789682
20
-3.62665600473633
30
0
41
1
10
13.5356270502112
20
-3.71876466283535
30
0
41
1
10
13.9363135531386
20
-3.84598735613923
30
0
41
1
10
14.0701071524891
20
-3.88656750073841
30
0
41
1
10
14.3382782035536
20
-3.96394344598332
30
0
41
1
10
14.4728727072414
20
-4.00079500811694
30
0
41
1
10
15.681641552535
20
-4.31335694664756
30
0
41
1
10
16.7367208644124
20
-4.4559979467449
30
0
41
1
10
18.06523504607
20
-4.458145838588
30
0
41
1
10
18.3314082423436
20
-4.44975723123676
30
0
41
1
10
18.7320867991729
20
-4.42385356596651
30
0
41
1
10
18.8658784747416
20
-4.41299361115017
30
0
41
1
10
19.1136575293864
20
-4.38879186916159
30
0
41
1
10
19.2277211067696
20
-4.37605858047178
30
0
41
1
10
19.3416465046634
20
-4.3617535345509
30
0
0
SPLINE
5
D6
100
AcDbEntity
8
1
62
256
6
ByLayer
370
18
48
1
60
0
100
AcDbSpline
70
4
71
3
72
18
73
14
40
0
40
0
40
0
40
0
40
0.042128282113904
40
0.042128282113904
40
0.109641568260009
40
0.109641568260009
40
0.64974785742884
40
0.64974785742884
40
0.784774429721046
40
0.784774429721046
40
0.919801002013253
40
0.919801002013253
40
1
40
1
40
1
40
1
41
1
10
52.2956519606162
20
0.0101816039521339
30
0
41
1
10
52.3790766828837
20
-0.0408708713233068
30
0
41
1
10
52.4626022383277
20
-0.0919919752394378
30
0
41
1
10
52.6802919927293
20
-0.225140585075223
30
0
41
1
10
52.8147277143767
20
-0.307282756860502
30
0
41
1
10
54.0205053765614
20
-1.04220290588754
30
0
41
1
10
55.0751719948893
20
-1.6729135054045
30
0
41
1
10
56.4066732789921
20
-2.3793680543686
30
0
41
1
10
56.6735968467126
20
-2.51660129613416
30
0
41
1
10
57.2095776361218
20
-2.78158963131597
30
0
41
1
10
57.4783073358122
20
-2.90906452445242
30
0
41
1
10
57.9053619700674
20
-3.10188806962523
30
0
41
1
10
58.0644060987617
20
-3.17157543044519
30
0
41
1
10
58.223445326697
20
-3.23898102985507
30
0
0
SPLINE
5
D7
100
AcDbEntity
8
1
62
256
6
ByLayer
370
13
48
1
60
0
100
AcDbSpline
70
4
71
3
72
20
73
16
40
0
40
0
40
0
40
0
40
0.159744679655315
40
0.159744679655315
40
0.273357033720693
40
0.273357033720693
40
0.386969387786071
40
0.386969387786071
40
0.614194095916825
40
0.614194095916825
40
0.84141880404758
40
0.84141880404758
40
0.955031158112958
40
0.955031158112958
40
1
40
1
40
1
40
1
41
1
10
58.2234453260822
20
-3.23898102959453
30
0
41
1
10
58.599937023854
20
-3.39854951400452
30
0
41
1
10
58.9764012575079
20
-3.54533088488816
30
0
41
1
10
59.622456251173
20
-3.7719506338656
30
0
41
1
10
59.8904957235665
20
-3.85861494023075
30
0
41
1
10
60.4266908337149
20
-4.0161365196536
30
0
41
1
10
60.6951423377968
20
-4.08703045644387
30
0
41
1
10
61.500106561354
20
-4.27449121231749
30
0
41
1
10
62.0316435374107
20
-4.36502203394838
30
0
41
1
10
63.0919294298986
20
-4.47608035011748
30
0
41
1
10
63.6203684549117
20
-4.49670296310546
30
0
41
1
10
64.4161080410585
20
-4.47470004947789
30
0
41
1
10
64.681777222807
20
-4.45850081743575
30
0
41
1
10
65.0537795701839
20
-4.42343692268307
30
0
41
1
10
65.159494481983
20
-4.41210062095973
30
0
41
1
10
65.2653616768238
20
-4.39937504963618
30
0
0
SPLINE
5
D8
100
AcDbEntity
8
1
62
256
6
ByLayer
370
18
48
1
60
0
100
AcDbSpline
70
4
71
3
72
22
73
18
40
0
40
0
40
0
40
0
40
0.0194805168714269
40
0.0194805168714269
40
0.135436216760933
40
0.135436216760933
40
0.367347616539936
40
0.367347616539936
40
0.599259016318937
40
0.599259016318937
40
0.715214716208443
40
0.715214716208443
40
0.773192566153196
40
0.773192566153196
40
0.83117041609795
40
0.83117041609795
40
1
40
1
40
1
40
1
41
1
10
98.3018812436112
20
0.0065412967314558
30
0
41
1
10
98.3466291349814
20
-0.021007578978697
30
0
41
1
10
98.3914019082551
20
-0.0485753381134657
30
0
41
1
10
98.7028635838979
20
-0.240351616932173
30
0
41
1
10
98.9713383349452
20
-0.405639036896645
30
0
41
1
10
99.7729948744565
20
-0.895645069847092
30
0
41
1
10
100.303001616265
20
-1.21468439537878
30
0
41
1
10
101.36063594508
20
-1.8278628757331
30
0
41
1
10
101.888219368789
20
-2.12204442996821
30
0
41
1
10
102.682761790265
20
-2.53706306923092
30
0
41
1
10
102.948161344164
20
-2.6710025510161
30
0
41
1
10
103.347766529352
20
-2.86428100177784
30
0
41
1
10
103.481217303539
20
-2.92743717268897
30
0
41
1
10
103.748721576536
20
-3.05104414048691
30
0
41
1
10
103.882895484484
20
-3.11154451581021
30
0
41
1
10
104.405853296396
20
-3.34113944610894
30
0
41
1
10
104.792655275345
20
-3.49748540058312
30
0
41
1
10
105.1782779688
20
-3.63827519802288
30
0
0
SPLINE
5
D9
100
AcDbEntity
8
1
62
256
6
ByLayer
370
13
48
1
60
0
100
AcDbSpline
70
4
71
3
72
14
73
10
40
0
40
0
40
0
40
0
40
0.388754709385477
40
0.388754709385477
40
0.541566032039107
40
0.541566032039107
40
0.694377354692739
40
0.694377354692739
40
1
40
1
40
1
40
1
41
1
10
105.178277029196
20
-3.63827485497623
30
0
41
1
10
105.852069673743
20
-3.88427476137977
30
0
41
1
10
106.522261951862
20
-4.08278166210008
30
0
41
1
10
107.460500714367
20
-4.28574254667402
30
0
41
1
10
107.725753602939
20
-4.33483741500717
30
0
41
1
10
108.258176621543
20
-4.41596965435292
30
0
41
1
10
108.525881154093
20
-4.44804558294112
30
0
41
1
10
109.329433049403
20
-4.51723531612564
30
0
41
1
10
109.863301432101
20
-4.52726747987344
30
0
41
1
10
110.398266466957
20
-4.50117069061918
30
0
0
SPLINE
5
DA
100
AcDbEntity
8
1
62
256
6
ByLayer
370
18
48
1
60
0
100
AcDbSpline
70
4
71
3
72
44
73
40
40
0
40
0
40
0
40
0
40
0.124999999999998
40
0.124999999999998
40
0.187499999999997
40
0.187499999999997
40
0.249999999999996
40
0.249999999999996
40
0.374999999999994
40
0.374999999999994
40
0.437499999999993
40
0.437499999999993
40
0.499999999999992
40
0.499999999999992
40
0.56249999999999
40
0.56249999999999
40
0.624999999999989
40
0.624999999999989
40
0.687499999999988
40
0.687499999999988
40
0.749999999999987
40
0.749999999999987
40
0.781249999999987
40
0.781249999999987
40
0.796874999999987
40
0.796874999999987
40
0.812499999999986
40
0.812499999999986
40
0.820312499999986
40
0.820312499999986
40
0.828124999999986
40
0.828124999999986
40
0.843749999999988
40
0.843749999999988
40
0.859374999999989
40
0.859374999999989
40
0.874999999999991
40
0.874999999999991
40
1
40
1
40
1
40
1
41
1
10
107.845739140537
20
-1.96121494247865
30
0
41
1
10
108.045178300949
20
-2.00706776076782
30
0
41
1
10
108.243179349909
20
-2.03946894531032
30
0
41
1
10
108.537331269857
20
-2.06141597639928
30
0
41
1
10
108.634888770311
20
-2.06411898428024
30
0
41
1
10
108.828723839292
20
-2.05755292689352
30
0
41
1
10
108.925601765844
20
-2.04825330057545
30
0
41
1
10
109.208923149017
20
-1.99954755771941
30
0
41
1
10
109.38736643582
20
-1.93940234699508
30
0
41
1
10
109.635189958081
20
-1.79657632001414
30
0
41
1
10
109.713031373178
20
-1.74099521354813
30
0
41
1
10
109.857202452177
20
-1.6153060693033
30
0
41
1
10
109.923865189348
20
-1.54500020169374
30
0
41
1
10
110.046681423947
20
-1.38992868381988
30
0
41
1
10
110.103128585068
20
-1.30462904250271
30
0
41
1
10
110.202955105834
20
-1.12574684695616
30
0
41
1
10
110.24657875328
20
-1.03153202455104
30
0
41
1
10
110.324239672309
20
-0.835826460055074
30
0
41
1
10
110.358385596037
20
-0.734418183359566
30
0
41
1
10
110.419208066699
20
-0.525932481748185
30
0
41
1
10
110.445850291345
20
-0.418751712540853
30
0
41
1
10
110.480901735205
20
-0.25602902328734
30
0
41
1
10
110.491785557368
20
-0.201393037254235
30
0
41
1
10
110.507042141376
20
-0.118911041025797
30
0
41
1
10
110.511949258273
20
-0.0913289309830532
30
0
41
1
10
110.521426040542
20
-0.0359980548355736
30
0
41
1
10
110.526319363607
20
-0.0084091324791018
30
0
41
1
10
110.532327130836
20
0.0336321888184443
30
0
41
1
10
110.53371473462
20
0.0480307199377705
30
0
41
1
10
110.533018922016
20
0.0782011105225706
30
0
41
1
10
110.531598979374
20
0.0931129751159006
30
0
41
1
10
110.52508246822
20
0.137483700218155
30
0
41
1
10
110.517567695644
20
0.166551576778772
30
0
41
1
10
110.500572137888
20
0.224369457896415
30
0
41
1
10
110.491459158944
20
0.253178930691462
30
0
41
1
10
110.47359408425
20
0.310856225176792
30
0
41
1
10
110.46494648335
20
0.339740941971115
30
0
41
1
10
110.387182250834
20
0.59971376926012
30
0
41
1
10
110.322513007298
20
0.831553361651913
30
0
41
1
10
110.260866628682
20
1.06367513021695
30
0
0
SPLINE
5
DB
100
AcDbEntity
8
1
62
256
6
ByLayer
370
18
48
1
60
0
100
AcDbSpline
70
4
71
3
72
8
73
4
40
0
40
0
40
0
40
0
40
1
40
1
40
1
40
1
41
1
10
110.334047333339
20
4.66154632817987
30
0
41
1
10
110.15876089926
20
4.66941596643449
30
0
41
1
10
109.983409428185
20
4.67326087121108
30
0
41
1
10
109.807885877295
20
4.6730738430025
30
0
0
SPLINE
5
DC
100
AcDbEntity
8
1
62
256
6
ByLayer
370
18
48
1
60
0
100
AcDbSpline
70
4
71
3
72
50
73
46
40
0
40
0
40
0
40
0
40
0.0467203778333115
40
0.0467203778333115
40
0.0781609793911049
40
0.0781609793911049
40
0.109601580948899
40
0.109601580948899
40
0.172482784064486
40
0.172482784064486
40
0.235363987180073
40
0.235363987180073
40
0.266804588737866
40
0.266804588737866
40
0.282524889516762
40
0.282524889516762
40
0.298245190295658
40
0.298245190295658
40
0.424007596526833
40
0.424007596526833
40
0.455448198084627
40
0.455448198084627
40
0.486888799642421
40
0.486888799642421
40
0.54977000275801
40
0.54977000275801
40
0.612651205873599
40
0.612651205873599
40
0.644091807431394
40
0.644091807431394
40
0.675532408989189
40
0.675532408989189
40
0.80129481522037
40
0.80129481522037
40
0.832735416778165
40
0.832735416778165
40
0.848455717557062
40
0.848455717557062
40
0.86417601833596
40
0.86417601833596
40
0.927057221451552
40
0.927057221451552
40
0.989938424567144
40
0.989938424567144
40
1
40
1
40
1
40
1
41
1
10
89.1831666492831
20
-4.41792362581697
30
0
41
1
10
88.7898503407233
20
-4.49736651447083
30
0
41
1
10
88.3970101632071
20
-4.55756762702123
30
0
41
1
10
87.7381823518674
20
-4.62507551548649
30
0
41
1
10
87.4727178502325
20
-4.6432367131807
30
0
41
1
10
86.9400179770628
20
-4.66115127828772
30
0
41
1
10
86.6724140426467
20
-4.66088787606645
30
0
41
1
10
85.8678110358429
20
-4.63187784247239
30
0
41
1
10
85.3365234625426
20
-4.57531703185455
30
0
41
1
10
84.2768971561856
20
-4.39229535122024
30
0
41
1
10
83.7485667244309
20
-4.26581137046685
30
0
41
1
10
82.9527755138731
20
-4.02681363237275
30
0
41
1
10
82.6869930137287
20
-3.93891424358023
30
0
41
1
10
82.2868983731726
20
-3.79502297749494
30
0
41
1
10
82.1532873808516
20
-3.74505995223942
30
0
41
1
10
81.8854447135172
20
-3.64120688982999
30
0
41
1
10
81.7510686427303
20
-3.58725235483743
30
0
41
1
10
80.5459370339699
20
-3.08757437726888
30
0
41
1
10
79.4938157761833
20
-2.53840540823251
30
0
41
1
10
78.1663547161421
20
-1.76967472986183
30
0
41
1
10
77.9002568939852
20
-1.61179290786532
30
0
41
1
10
77.3659053943663
20
-1.28900779805596
30
0
41
1
10
77.0968859427747
20
-1.12359293466668
30
0
41
1
10
76.2946394244892
20
-0.624672896789178
30
0
41
1
10
75.7643098467807
20
-0.287114465006169
30
0
41
1
10
74.7050092934796
20
0.38569573494334
30
0
41
1
10
74.1762748533936
20
0.721326304323753
30
0
41
1
10
73.3788679535626
20
1.21453418510842
30
0
41
1
10
73.1124242162487
20
1.37735074694081
30
0
41
1
10
72.5771953107738
20
1.69811903461453
30
0
41
1
10
72.3082158932949
20
1.85611148061196
30
0
41
1
10
70.9728179969346
20
2.62038257101261
30
0
41
1
10
69.9209722893227
20
3.15836631867242
30
0
41
1
10
68.5903622396993
20
3.69456022462626
30
0
41
1
10
68.3235210053214
20
3.79504928233655
30
0
41
1
10
67.9213782763516
20
3.9346592346237
30
0
41
1
10
67.7869631321303
20
3.97934680477169
30
0
41
1
10
67.5191468038496
20
4.06433232590723
30
0
41
1
10
67.3855273542189
20
4.10470855134568
30
0
41
1
10
66.7186013221448
20
4.29593435359951
30
0
41
1
10
66.1889281789531
20
4.4148915356696
30
0
41
1
10
65.1295196100171
20
4.58196383838512
30
0
41
1
10
64.600217543932
20
4.63023246970695
30
0
41
1
10
63.9819810954472
20
4.64349830562833
30
0
41
1
10
63.8966235423212
20
4.64438645078354
30
0
41
1
10
63.8111682810435
20
4.64432546191182
30
0
0
SPLINE
5
DD
100
AcDbEntity
8
1
62
256
6
ByLayer
370
18
48
1
60
0
100
AcDbSpline
70
4
71
3
72
42
73
38
40
0
40
0
40
0
40
0
40
0.122442523527023
40
0.122442523527023
40
0.153918759530258
40
0.153918759530258
40
0.185394995533492
40
0.185394995533492
40
0.248347467539959
40
0.248347467539959
40
0.311299939546427
40
0.311299939546427
40
0.374252411552894
40
0.374252411552894
40
0.437204883559361
40
0.437204883559361
40
0.468681119562594
40
0.468681119562594
40
0.48441923756421
40
0.48441923756421
40
0.500157355565827
40
0.500157355565827
40
0.626062299578766
40
0.626062299578766
40
0.657538535582001
40
0.657538535582001
40
0.689014771585235
40
0.689014771585235
40
0.751967243591703
40
0.751967243591703
40
0.814919715598171
40
0.814919715598171
40
0.846395951601405
40
0.846395951601405
40
0.87787218760464
40
0.87787218760464
40
1
40
1
40
1
40
1
41
1
10
43.2087689913415
20
-4.38553849547705
30
0
41
1
10
42.1757123472057
20
-4.59508684476114
30
0
41
1
10
41.1501090353667
20
-4.67225853131458
30
0
41
1
10
39.8368438935123
20
-4.5914157282553
30
0
41
1
10
39.5684226067724
20
-4.56555779377783
30
0
41
1
10
39.0345626783012
20
-4.49606806107181
30
0
41
1
10
38.7685775212325
20
-4.45239731471799
30
0
41
1
10
37.9719433297889
20
-4.29563263520015
30
0
41
1
10
37.4426818070641
20
-4.15676914660099
30
0
41
1
10
36.3805955945666
20
-3.81528530316589
30
0
41
1
10
35.847521598562
20
-3.61238687043865
30
0
41
1
10
34.7722341579402
20
-3.14791181884294
30
0
41
1
10
34.2397555096459
20
-2.8907075655832
30
0
41
1
10
33.177907864654
20
-2.33675324904851
30
0
41
1
10
32.6484408254219
20
-2.04014008156054
30
0
41
1
10
31.8513935479402
20
-1.57284565076566
30
0
41
1
10
31.5851535973119
20
-1.41347373766294
30
0
41
1
10
31.1843486168298
20
-1.16985233099015
30
0
41
1
10
31.0505240859075
20
-1.08785575005939
30
0
41
1
10
30.782338954862
20
-0.922395955931677
30
0
41
1
10
30.64775206362
20
-0.838829445397209
30
0
41
1
10
29.4398620386582
20
-0.0858569622432697
30
0
41
1
10
28.3852106374889
20
0.594506841178799
30
0
41
1
10
27.0555851344668
20
1.40286824740201
30
0
41
1
10
26.7890451435347
20
1.56235590083102
30
0
41
1
10
26.2539320475602
20
1.87567061772012
30
0
41
1
10
25.98454288661
20
2.03005474243972
30
0
41
1
10
25.1802474752466
20
2.4774219661831
30
0
41
1
10
24.6485843791527
20
2.75549000950414
30
0
41
1
10
23.5871881779614
20
3.2632489097133
30
0
41
1
10
23.0574767985697
20
3.49294834311277
30
0
41
1
10
22.2588415682422
20
3.79481815201717
30
0
41
1
10
21.9919940524997
20
3.88837065095399
30
0
41
1
10
21.4561169906236
20
4.06023331676928
30
0
41
1
10
21.186523697803
20
4.13862261027521
30
0
41
1
10
19.8797435747596
20
4.47719657359019
30
0
41
1
10
18.8566491528633
20
4.61524508951572
30
0
41
1
10
17.8235202164207
20
4.61557909210066
30
0
0
SPLINE
5
DE
100
AcDbEntity
8
1
62
256
6
ByLayer
370
18
48
1
60
0
100
AcDbSpline
70
4
71
3
72
14
73
10
40
0
40
0
40
0
40
0
40
0.25
40
0.25
40
0.5
40
0.5
40
0.75
40
0.75
40
1
40
1
40
1
40
1
41
1
10
110.260866628682
20
1.06367513021695
30
0
41
1
10
110.256907984401
20
1.07858091272095
30
0
41
1
10
110.255418850809
20
1.09426784932225
30
0
41
1
10
110.260465530719
20
1.12442205558276
30
0
41
1
10
110.267334075385
20
1.13894084914381
30
0
41
1
10
110.288651223224
20
1.16156072972373
30
0
41
1
10
110.302563845873
20
1.16943233016582
30
0
41
1
10
110.33156628452
20
1.17906073096296
30
0
41
1
10
110.347001666106
20
1.18109370568234
30
0
41
1
10
110.36237152045
20
1.18123288039425
30
0
0
SPLINE
5
DF
100
AcDbEntity
8
1
62
256
6
ByLayer
370
18
48
1
60
0
100
AcDbSpline
70
4
71
3
72
8
73
4
40
0
40
0
40
0
40
0
40
1
40
1
40
1
40
1
41
1
10
110.338583055536
20
-4.40933708664468
30
0
41
1
10
110.349974618022
20
-4.4141816688672
30
0
41
1
10
110.362230755902
20
-4.41653225202433
30
0
41
1
10
110.375371882539
20
-4.4164163815654
30
0
0
SPLINE
5
E0
100
AcDbEntity
8
1
62
256
6
ByLayer
370
13
48
1
60
0
100
AcDbSpline
70
4
71
3
72
18
73
14
40
0
40
0
40
0
40
0
40
0.25
40
0.25
40
0.5
40
0.5
40
0.625
40
0.625
40
0.75
40
0.75
40
0.875
40
0.875
40
1
40
1
40
1
40
1
41
1
10
8.25025241084904
20
-1.02804482931205
30
0
41
1
10
8.25024688096107
20
-0.692883963433701
30
0
41
1
10
8.250230000866
20
-0.352230725453069
30
0
41
1
10
8.25018648705159
20
0.336986577814827
30
0
41
1
10
8.25016062761492
20
0.675009073367562
30
0
41
1
10
8.25012497220126
20
1.17248096529104
30
0
41
1
10
8.25011354678728
20
1.33733389945451
30
0
41
1
10
8.25009327571979
20
1.66063805331188
30
0
41
1
10
8.25008448335015
20
1.81819099468999
30
0
41
1
10
8.25007064412657
20
2.12510668522077
30
0
41
1
10
8.25006564744913
20
2.27382034518405
30
0
41
1
10
8.25006026145215
20
2.55749281747623
30
0
41
1
10
8.25005983656766
20
2.69314761272298
30
0
41
1
10
8.250061844962
20
2.82266086220329
30
0
0
SPLINE
5
E1
100
AcDbEntity
8
1
62
256
6
ByLayer
370
18
48
1
60
0
100
AcDbSpline
70
4
71
3
72
16
73
12
40
0
40
0
40
0
40
0
40
0.25
40
0.25
40
0.5
40
0.5
40
0.750000000000001
40
0.750000000000001
40
0.875
40
0.875
40
1
40
1
40
1
40
1
41
1
10
8.25006184496652
20
-2.82266087801693
30
0
41
1
10
8.2252871956276
20
-2.84906052328381
30
0
41
1
10
8.2003384389711
20
-2.87699672282298
30
0
41
1
10
8.15005450578016
20
-2.93673432256028
30
0
41
1
10
8.12438475810788
20
-2.9689229895065
30
0
41
1
10
8.07468555315975
20
-3.03701332848701
30
0
41
1
10
8.05023850459776
20
-3.07343155007399
30
0
41
1
10
8.02124132233646
20
-3.12640670449133
30
0
41
1
10
8.01317205868827
20
-3.14342202882264
30
0
41
1
10
8.00257751441109
20
-3.17216189226943
30
0
41
1
10
8.00000047073274
20
-3.18400866552642
30
0
41
1
10
8.000000470733
20
-3.1925935652026
30
0
0
SPLINE
5
E2
100
AcDbEntity
8
1
62
256
6
ByLayer
370
18
48
1
60
0
100
AcDbSpline
70
4
71
3
72
104
73
100
40
0
40
0
40
0
40
0
40
0.0258371559911454
40
0.0258371559911454
40
0.0387557339867181
40
0.0387557339867181
40
0.0516743119822908
40
0.0516743119822908
40
0.0775114679734367
40
0.0775114679734367
40
0.103348623964582
40
0.103348623964582
40
0.116267201960156
40
0.116267201960156
40
0.129185779955729
40
0.129185779955729
40
0.155022935946875
40
0.155022935946875
40
0.180860091938022
40
0.180860091938022
40
0.206697247929168
40
0.206697247929168
40
0.232534403920314
40
0.232534403920314
40
0.258371559911461
40
0.258371559911461
40
0.284208715902607
40
0.284208715902607
40
0.297127293898181
40
0.297127293898181
40
0.310045871893754
40
0.310045871893754
40
0.3358830278849
40
0.3358830278849
40
0.361720183876047
40
0.361720183876047
40
0.37463876187162
40
0.37463876187162
40
0.387557339867193
40
0.387557339867193
40
0.413394495858339
40
0.413394495858339
40
0.439231651849485
40
0.439231651849485
40
0.452150229845057
40
0.452150229845057
40
0.46506880784063
40
0.46506880784063
40
0.490905963831775
40
0.490905963831775
40
0.516743119822921
40
0.516743119822921
40
0.529661697818493
40
0.529661697818493
40
0.542580275814065
40
0.542580275814065
40
0.56841743180521
40
0.56841743180521
40
0.594254587796354
40
0.594254587796354
40
0.607173165791926
40
0.607173165791926
40
0.620091743787499
40
0.620091743787499
40
0.645928899778642
40
0.645928899778642
40
0.671766055769785
40
0.671766055769785
40
0.684684633765358
40
0.684684633765358
40
0.69760321176093
40
0.69760321176093
40
0.723440367752074
40
0.723440367752074
40
0.749277523743219
40
0.749277523743219
40
0.775114679734363
40
0.775114679734363
40
0.800951835725508
40
0.800951835725508
40
0.826788991716652
40
0.826788991716652
40
0.852626147707797
40
0.852626147707797
40
0.865544725703369
40
0.865544725703369
40
0.878463303698942
40
0.878463303698942
40
0.904300459690088
40
0.904300459690088
40
0.930137615681233
40
0.930137615681233
40
0.943056193676806
40
0.943056193676806
40
0.955974771672378
40
0.955974771672378
40
0.981811927663524
40
0.981811927663524
40
1
40
1
40
1
40
1
41
1
10
9.06348901308576
20
2.28370520451583
30
0
41
1
10
9.32750391075504
20
2.43028056865006
30
0
41
1
10
9.59184230633875
20
2.5707561437377
30
0
41
1
10
9.98926438452418
20
2.77218067463332
30
0
41
1
10
10.1218266983518
20
2.83786248726224
30
0
41
1
10
10.3863620368967
20
2.96724055258534
30
0
41
1
10
10.5180573550443
20
3.03125400473357
30
0
41
1
10
10.9147832799091
20
3.21716086798966
30
0
41
1
10
11.1806972324268
20
3.33430608053365
30
0
41
1
10
11.7096850470236
20
3.55636768311453
30
0
41
1
10
11.9736061801255
20
3.66075393940707
30
0
41
1
10
12.3705746386941
20
3.80555674377723
30
0
41
1
10
12.503027567866
20
3.85192202229973
30
0
41
1
10
12.7679782799896
20
3.94103606385031
30
0
41
1
10
12.9001455084406
20
3.98412288963718
30
0
41
1
10
13.297001184964
20
4.10709722170159
30
0
41
1
10
13.562120462291
20
4.18021607677423
30
0
41
1
10
14.0909386697053
20
4.31080762552037
30
0
41
1
10
14.354772032985
20
4.36804883483961
30
0
41
1
10
14.8842991706771
20
4.46475786678985
30
0
41
1
10
15.1503882692384
20
4.50427585497116
30
0
41
1
10
15.6781473189724
20
4.56632531300542
30
0
41
1
10
15.9428273800368
20
4.58808916694568
30
0
41
1
10
16.4720806309479
20
4.61391093489627
30
0
41
1
10
16.7363913478349
20
4.61788171084052
30
0
41
1
10
17.266050129104
20
4.60757694247118
30
0
41
1
10
17.5312959545066
20
4.59353511383802
30
0
41
1
10
17.9274714285011
20
4.5588225757383
30
0
41
1
10
18.0591706513795
20
4.54490951863963
30
0
41
1
10
18.3234768914768
20
4.51284238733771
30
0
41
1
10
18.4558726948778
20
4.49465009349794
30
0
41
1
10
18.8533922818315
20
4.43351582420635
30
0
41
1
10
19.1180960023455
20
4.383635987508
30
0
41
1
10
19.6467273942976
20
4.26725060217592
30
0
41
1
10
19.9113620542593
20
4.20097658741636
30
0
41
1
10
20.3083223564165
20
4.08928162934276
30
0
41
1
10
20.440109016741
20
4.04958714783973
30
0
41
1
10
20.7045002904712
20
3.96661269232885
30
0
41
1
10
20.8370767756971
20
3.92324190899151
30
0
41
1
10
21.2346464780958
20
3.7878873135648
30
0
41
1
10
21.4989102611332
20
3.68993363913199
30
0
41
1
10
22.0270919504995
20
3.47960358607065
30
0
41
1
10
22.2916039616582
20
3.36784673768108
30
0
41
1
10
22.6891476769328
20
3.19058117708573
30
0
41
1
10
22.8216146071449
20
3.12957357814329
30
0
41
1
10
23.0857665511542
20
3.00417287675555
30
0
41
1
10
23.2179473224988
20
2.94026026667928
30
0
41
1
10
23.6147390037901
20
2.74490008782197
30
0
41
1
10
23.8792139564509
20
2.60936876807639
30
0
41
1
10
24.4075453136919
20
2.32694212187369
30
0
41
1
10
24.6725056359394
20
2.18082137662355
30
0
41
1
10
25.0699783290235
20
1.95666522449065
30
0
41
1
10
25.202536466467
20
1.88126660872842
30
0
41
1
10
25.4663470137113
20
1.72698698352255
30
0
41
1
10
25.5981848547486
20
1.64895327901064
30
0
41
1
10
25.9945326896857
20
1.41374159526563
30
0
41
1
10
26.2593832009015
20
1.25475352908967
30
0
41
1
10
26.7884876038002
20
0.929553465069461
30
0
41
1
10
27.0530213659523
20
0.764684868808189
30
0
41
1
10
27.4499179149807
20
0.517273236493196
30
0
41
1
10
27.5822490074607
20
0.434658058095323
30
0
41
1
10
27.8466443439519
20
0.268613371635922
30
0
41
1
10
27.9782270617206
20
0.184417546374732
30
0
41
1
10
28.3744670038921
20
-0.0663975282350009
30
0
41
1
10
28.640164081822
20
-0.232747654773902
30
0
41
1
10
29.1690803070909
20
-0.565865453753133
30
0
41
1
10
29.43284028497
20
-0.731897229626895
30
0
41
1
10
29.8294557420408
20
-0.976999882795496
30
0
41
1
10
29.9617809915993
20
-1.05811256196242
30
0
41
1
10
30.2264575095614
20
-1.21949431431031
30
0
41
1
10
30.3584796108925
20
-1.30026833913618
30
0
41
1
10
30.754952023599
20
-1.54072895915044
30
0
41
1
10
31.0201626997225
20
-1.69657973644883
30
0
41
1
10
31.5487724668181
20
-2.002434057253
30
0
41
1
10
31.8123753083496
20
-2.15245842431409
30
0
41
1
10
32.3412632140203
20
-2.44230387395231
30
0
41
1
10
32.6072991529251
20
-2.5818092958805
30
0
41
1
10
33.1349030022313
20
-2.8540136565482
30
0
41
1
10
33.3993213663211
20
-2.98334347613053
30
0
41
1
10
33.9281966975739
20
-3.23026790793753
30
0
41
1
10
34.1919756593655
20
-3.34857603398103
30
0
41
1
10
34.7214670703469
20
-3.57105587119892
30
0
41
1
10
34.9865469996592
20
-3.67457060996131
30
0
41
1
10
35.3827628169569
20
-3.81985914629678
30
0
41
1
10
35.5142992753453
20
-3.86688002046441
30
0
41
1
10
35.7783297801107
20
-3.95629976808536
30
0
41
1
10
35.9105669500769
20
-3.99894314096988
30
0
41
1
10
36.3076377502477
20
-4.12098420163392
30
0
41
1
10
36.5723211729887
20
-4.19509098533467
30
0
41
1
10
37.1007468015245
20
-4.32599576626376
30
0
41
1
10
37.365179728025
20
-4.38271884287246
30
0
41
1
10
37.7618229446388
20
-4.45507053596273
30
0
41
1
10
37.8935541380362
20
-4.47725775180496
30
0
41
1
10
38.1575783191562
20
-4.51704583068963
30
0
41
1
10
38.2899154650651
20
-4.53467231450972
30
0
41
1
10
38.6874277413345
20
-4.58081091844778
30
0
41
1
10
38.9516947318417
20
-4.60270058313893
30
0
41
1
10
39.4013958856607
20
-4.62464080145603
30
0
41
1
10
39.5873268552544
20
-4.62920491430518
30
0
41
1
10
39.7734790284455
20
-4.62930425116747
30
0
0
SPLINE
5
E3
100
AcDbEntity
8
1
62
256
6
ByLayer
370
18
48
1
60
0
100
AcDbSpline
70
4
71
3
72
114
73
110
40
0
40
0
40
0
40
0
40
0.0097065319064139
40
0.0097065319064139
40
0.0352493137641152
40
0.0352493137641152
40
0.0480207046929657
40
0.0480207046929657
40
0.0607920956218165
40
0.0607920956218165
40
0.0863348774795178
40
0.0863348774795178
40
0.0991062684083683
40
0.0991062684083683
40
0.111877659337219
40
0.111877659337219
40
0.13742044119492
40
0.13742044119492
40
0.162963223052622
40
0.162963223052622
40
0.175734613981472
40
0.175734613981472
40
0.188506004910323
40
0.188506004910323
40
0.214048786768024
40
0.214048786768024
40
0.239591568625726
40
0.239591568625726
40
0.252362959554575
40
0.252362959554575
40
0.265134350483426
40
0.265134350483426
40
0.290677132341126
40
0.290677132341126
40
0.316219914198826
40
0.316219914198826
40
0.341762696056527
40
0.341762696056527
40
0.367305477914227
40
0.367305477914227
40
0.392848259771928
40
0.392848259771928
40
0.405619650700777
40
0.405619650700777
40
0.418391041629627
40
0.418391041629627
40
0.431162432558477
40
0.431162432558477
40
0.443933823487327
40
0.443933823487327
40
0.469476605345025
40
0.469476605345025
40
0.495019387202723
40
0.495019387202723
40
0.507790778131572
40
0.507790778131572
40
0.520562169060422
40
0.520562169060422
40
0.546104950918121
40
0.546104950918121
40
0.571647732775821
40
0.571647732775821
40
0.58441912370467
40
0.58441912370467
40
0.59719051463352
40
0.59719051463352
40
0.60996190556237
40
0.60996190556237
40
0.622733296491219
40
0.622733296491219
40
0.648276078348917
40
0.648276078348917
40
0.661047469277766
40
0.661047469277766
40
0.673818860206615
40
0.673818860206615
40
0.699361642064313
40
0.699361642064313
40
0.724904423922011
40
0.724904423922011
40
0.73767581485086
40
0.73767581485086
40
0.75044720577971
40
0.75044720577971
40
0.775989987637408
40
0.775989987637408
40
0.801532769495106
40
0.801532769495106
40
0.814304160423955
40
0.814304160423955
40
0.827075551352804
40
0.827075551352804
40
0.852618333210501
40
0.852618333210501
40
0.878161115068199
40
0.878161115068199
40
0.890932505997047
40
0.890932505997047
40
0.903703896925896
40
0.903703896925896
40
0.929246678783592
40
0.929246678783592
40
0.954789460641289
40
0.954789460641289
40
0.980332242498985
40
0.980332242498985
40
0.993103633427834
40
0.993103633427834
40
1
40
1
40
1
40
1
41
1
10
54.770230813787
20
2.13134514737484
30
0
41
1
10
54.8706391966893
20
2.1876960511444
30
0
41
1
10
54.971054384892
20
2.24340563544823
30
0
41
1
10
55.3357201454647
20
2.44342560176884
30
0
41
1
10
55.5987480251209
20
2.58561555461651
30
0
41
1
10
55.9957930677026
20
2.78894120152887
30
0
41
1
10
56.1283507109459
20
2.85526169737272
30
0
41
1
10
56.3926751065719
20
2.98541741033151
30
0
41
1
10
56.5245879894916
20
3.04921226588613
30
0
41
1
10
56.9202453808916
20
3.23592092929647
30
0
41
1
10
57.1841597225264
20
3.35388027373904
30
0
41
1
10
57.580819091333
20
3.52054327051647
30
0
41
1
10
57.7131823110975
20
3.57438436512422
30
0
41
1
10
57.9770266108124
20
3.67973452326356
30
0
41
1
10
58.1091484725607
20
3.73044937217656
30
0
41
1
10
58.5055473432825
20
3.87639259125109
30
0
41
1
10
58.7698907760108
20
3.96583499959161
30
0
41
1
10
59.2973285077913
20
4.1301384230934
30
0
41
1
10
59.5611700349994
20
4.20434419690403
30
0
41
1
10
59.958408064853
20
4.30292025952033
30
0
41
1
10
60.0909022938799
20
4.33363323643343
30
0
41
1
10
60.3550465875269
20
4.39106648425084
30
0
41
1
10
60.4865152270733
20
4.41788709649941
30
0
41
1
10
60.8821864068637
20
4.49111661097007
30
0
41
1
10
61.1466595458136
20
4.53094736535516
30
0
41
1
10
61.6746154920727
20
4.59349224002014
30
0
41
1
10
61.9389745245763
20
4.61589700465146
30
0
41
1
10
62.3355130912425
20
4.63573509706043
30
0
41
1
10
62.467699690304
20
4.64008833382854
30
0
41
1
10
62.7318718604798
20
4.64430884147271
30
0
41
1
10
62.8634289561768
20
4.64416837115928
30
0
41
1
10
63.2587119476411
20
4.63688058978963
30
0
41
1
10
63.5234262267837
20
4.62305681966163
30
0
41
1
10
64.0524676715305
20
4.57721248686875
30
0
41
1
10
64.3159688250302
20
4.54516866359472
30
0
41
1
10
64.8439146468713
20
4.46391146782224
30
0
41
1
10
65.1085659122351
20
4.41496105688373
30
0
41
1
10
65.6355347871556
20
4.29827174489205
30
0
41
1
10
65.9006601447749
20
4.23183531213957
30
0
41
1
10
66.4291503229078
20
4.08285766378557
30
0
41
1
10
66.6923767594092
20
3.99980218195265
30
0
41
1
10
67.0881542074345
20
3.86424120751195
30
0
41
1
10
67.2202380599809
20
3.81724241546246
30
0
41
1
10
67.4846859170229
20
3.71961610982674
30
0
41
1
10
67.6172288780692
20
3.6690721387476
30
0
41
1
10
67.8813682843392
20
3.56356887386806
30
0
41
1
10
68.0129985576104
20
3.50876366822337
30
0
41
1
10
68.2769056744581
20
3.39664582935984
30
0
41
1
10
68.4089853668691
20
3.33914222938481
30
0
41
1
10
68.8051961434192
20
3.16191791464868
30
0
41
1
10
69.0685876520646
20
3.03663736389439
30
0
41
1
10
69.5965841552432
20
2.7747997104081
30
0
41
1
10
69.8616086109628
20
2.63866203964045
30
0
41
1
10
70.2579115277198
20
2.42728886172421
30
0
41
1
10
70.3893619441095
20
2.35486118938781
30
0
41
1
10
70.652849866776
20
2.20859698915112
30
0
41
1
10
70.7847754715025
20
2.13461979015796
30
0
41
1
10
71.1810006393889
20
1.9100709541176
30
0
41
1
10
71.4452608875676
20
1.75563785943973
30
0
41
1
10
71.9734261453471
20
1.43994616094196
30
0
41
1
10
72.2374582542046
20
1.27988148094951
30
0
41
1
10
72.6335963279638
20
1.03677148187967
30
0
41
1
10
72.7654314065992
20
0.954885300101466
30
0
41
1
10
73.0287213798913
20
0.789450852000499
30
0
41
1
10
73.1606289100349
20
0.706605935915604
30
0
41
1
10
73.4249219356118
20
0.540604555739577
30
0
41
1
10
73.5574343180066
20
0.457455870533465
30
0
41
1
10
73.821814694045
20
0.290415520865452
30
0
41
1
10
73.9537117837953
20
0.206500552822689
30
0
41
1
10
74.3492024479634
20
-0.0453536976553153
30
0
41
1
10
74.6128195639919
20
-0.213048382661611
30
0
41
1
10
75.0090806676172
20
-0.462863728666264
30
0
41
1
10
75.1413946363154
20
-0.545710286005431
30
0
41
1
10
75.4050716950754
20
-0.712760616012275
30
0
41
1
10
75.5370145753263
20
-0.796217797471286
30
0
41
1
10
75.9332284007457
20
-1.04358034470781
30
0
41
1
10
76.1975571079636
20
-1.20554886963657
30
0
41
1
10
76.7246614797825
20
-1.52656453157195
30
0
41
1
10
76.9881357148682
20
-1.68452353257831
30
0
41
1
10
77.3848120007945
20
-1.91532152149588
30
0
41
1
10
77.5172742181238
20
-1.99135698350656
30
0
41
1
10
77.7815988797918
20
-2.1415423199432
30
0
41
1
10
77.91302675259
20
-2.2164481294077
30
0
41
1
10
78.3083631093426
20
-2.43602174348084
30
0
41
1
10
78.5726631162263
20
-2.57657043854456
30
0
41
1
10
79.1001810394188
20
-2.84945330547657
30
0
41
1
10
79.3641925429292
20
-2.98131908081138
30
0
41
1
10
79.7605688336264
20
-3.16869046911833
30
0
41
1
10
79.8927043395125
20
-3.22946162015546
30
0
41
1
10
80.1567838554089
20
-3.34789845620284
30
0
41
1
10
80.288456059659
20
-3.40585958090949
30
0
41
1
10
80.6832559427788
20
-3.57489924473762
30
0
41
1
10
80.947577815548
20
-3.67973368081573
30
0
41
1
10
81.4761582792532
20
-3.87611613622221
30
0
41
1
10
81.739834729261
20
-3.96742883307203
30
0
41
1
10
82.1355011034968
20
-4.09165071090285
30
0
41
1
10
82.2674793653985
20
-4.13097648033272
30
0
41
1
10
82.5314874887458
20
-4.2055949944679
30
0
41
1
10
82.6636412104544
20
-4.24081672873936
30
0
41
1
10
83.0584753759388
20
-4.34142546111278
30
0
41
1
10
83.3230904072529
20
-4.39976395119476
30
0
41
1
10
83.8516085012585
20
-4.49890391411105
30
0
41
1
10
84.1147423254558
20
-4.54006393604274
30
0
41
1
10
84.6419057839304
20
-4.60423707208372
30
0
41
1
10
84.9062192415963
20
-4.62729257421782
30
0
41
1
10
85.3027135454668
20
-4.64854065222829
30
0
41
1
10
85.4342913683331
20
-4.65340849798301
30
0
41
1
10
85.637365388831
20
-4.65731154694436
30
0
41
1
10
85.7086019430821
20
-4.65801418904587
30
0
41
1
10
85.7798571245983
20
-4.65805714419082
30
0
0
SPLINE
5
E4
100
AcDbEntity
8
1
62
256
6
ByLayer
370
18
48
1
60
0
100
AcDbSpline
70
4
71
3
72
40
73
36
40
0
40
0
40
0
40
0
40
0.0235981292623635
40
0.0235981292623635
40
0.104964951823839
40
0.104964951823839
40
0.186331774385314
40
0.186331774385314
40
0.227015185666049
40
0.227015185666049
40
0.267698596946782
40
0.267698596946782
40
0.349065419508253
40
0.349065419508253
40
0.430432242069722
40
0.430432242069722
40
0.471115653350453
40
0.471115653350453
40
0.511799064631186
40
0.511799064631186
40
0.593165887192655
40
0.593165887192655
40
0.674532709754125
40
0.674532709754125
40
0.715216121034859
40
0.715216121034859
40
0.755899532315593
40
0.755899532315593
40
0.837266354877063
40
0.837266354877063
40
0.918633177438533
40
0.918633177438533
40
0.959316588719266
40
0.959316588719266
40
1
40
1
40
1
40
1
41
1
10
100.767982247615
20
2.13931624530261
30
0
41
1
10
100.844615419351
20
2.1826636688296
30
0
41
1
10
100.921304891602
20
2.22561350197463
30
0
41
1
10
101.262218896703
20
2.41485391712101
30
0
41
1
10
101.525368448
20
2.55780637927254
30
0
41
1
10
102.05203603052
20
2.83265922183094
30
0
41
1
10
102.315912633251
20
2.96415091466255
30
0
41
1
10
102.712116840274
20
3.15305893191245
30
0
41
1
10
102.843812501651
20
3.21525694537979
30
0
41
1
10
103.107372964337
20
3.3356616290009
30
0
41
1
10
103.239237130372
20
3.39399258271604
30
0
41
1
10
103.635002616807
20
3.56356798202907
30
0
41
1
10
103.898348910531
20
3.6701572460386
30
0
41
1
10
104.425056480985
20
3.86921139474902
30
0
41
1
10
104.68939338808
20
3.96122182673005
30
0
41
1
10
105.085641510186
20
4.08719370693882
30
0
41
1
10
105.217477275794
20
4.12731020090894
30
0
41
1
10
105.480411670644
20
4.20388477088292
30
0
41
1
10
105.612045862459
20
4.23995946855527
30
0
41
1
10
106.00738152758
20
4.34172244546286
30
0
41
1
10
106.271204676221
20
4.4011832399807
30
0
41
1
10
106.798587290643
20
4.50352956179737
30
0
41
1
10
107.062503460941
20
4.5458976743474
30
0
41
1
10
107.458234870084
20
4.59587091804787
30
0
41
1
10
107.59027118769
20
4.61027889219309
30
0
41
1
10
107.853323301687
20
4.63485389507335
30
0
41
1
10
107.984650867528
20
4.64491504748335
30
0
41
1
10
108.379887482644
20
4.6681211824353
30
0
41
1
10
108.644673605144
20
4.67452785006009
30
0
41
1
10
109.171882896145
20
4.66916291151463
30
0
41
1
10
109.435013680168
20
4.65732002419801
30
0
41
1
10
109.830683268766
20
4.62620583341641
30
0
41
1
10
109.962668650648
20
4.61361021025436
30
0
41
1
10
110.226613414022
20
4.58390313355309
30
0
41
1
10
110.358123697564
20
4.56660771833285
30
0
41
1
10
110.489968120907
20
4.54717936529559
30
0
0
SPLINE
5
E5
100
AcDbEntity
8
1
62
256
6
ByLayer
370
18
48
1
60
0
100
AcDbSpline
70
4
71
3
72
8
73
4
40
0
40
0
40
0
40
0
40
1
40
1
40
1
40
1
41
1
10
111.999940706521
20
0.0471392940726787
30
0
41
1
10
112.000019764425
20
0.0157131252853162
30
0
41
1
10
112.000019764425
20
-0.0157131252845488
30
0
41
1
10
111.999940706521
20
-0.0471392940719113
30
0
0
SPLINE
5
E6
100
AcDbEntity
8
1
62
256
6
ByLayer
370
18
48
1
60
0
100
AcDbSpline
70
4
71
3
72
16
73
12
40
0
40
0
40
0
40
0
40
0.507366561409085
40
0.507366561409085
40
0.604340500533416
40
0.604340500533416
40
0.701314439657748
40
0.701314439657748
40
0.895262317906413
40
0.895262317906413
40
1
40
1
40
1
40
1
41
1
10
87.0010133871268
20
-4.40178491067576
30
0
41
1
10
86.3092594565067
20
-4.4012206892819
30
0
41
1
10
85.6170238854356
20
-4.34167739820646
30
0
41
1
10
84.7832436003307
20
-4.20025510773363
30
0
41
1
10
84.6490653538733
20
-4.17536568770745
30
0
41
1
10
84.3816471941099
20
-4.12162033571093
30
0
41
1
10
84.2482117204668
20
-4.09274015732055
30
0
41
1
10
83.8485870464065
20
-4.00021843983029
30
0
41
1
10
83.5830896821604
20
-3.93068264354832
30
0
41
1
10
83.1749140041555
20
-3.81214603707858
30
0
41
1
10
83.0319273047509
20
-3.76841141619352
30
0
41
1
10
82.8890189014677
20
-3.722574788374
30
0
0
SPLINE
5
E7
100
AcDbEntity
8
1
62
256
6
ByLayer
370
13
48
1
60
0
100
AcDbSpline
70
4
71
3
72
24
73
20
40
0
40
0
40
0
40
0
40
0.110037179937805
40
0.110037179937805
40
0.260776145125729
40
0.260776145125729
40
0.298460886422709
40
0.298460886422709
40
0.33614562771969
40
0.33614562771969
40
0.411515110313647
40
0.411515110313647
40
0.712993040689478
40
0.712993040689478
40
0.788362523283436
40
0.788362523283436
40
0.863732005877394
40
0.863732005877394
40
1
40
1
40
1
40
1
41
1
10
82.8890189024068
20
-3.72257478867519
30
0
41
1
10
82.5026663737486
20
-3.59865557431976
30
0
41
1
10
82.1168861035665
20
-3.45937300274042
30
0
41
1
10
81.200861007488
20
-3.09598498996183
30
0
41
1
10
80.6700705997821
20
-2.85951872773146
30
0
41
1
10
80.000804866977
20
-2.53494964473202
30
0
41
1
10
79.8666311232927
20
-2.46856975707186
30
0
41
1
10
79.599225691739
20
-2.33392987565631
30
0
41
1
10
79.4657844038733
20
-2.26557340045332
30
0
41
1
10
79.0661385431443
20
-2.05757167999957
30
0
41
1
10
78.8006165005945
20
-1.9149879179646
30
0
41
1
10
77.4754244140445
20
-1.185952945531
30
0
41
1
10
76.4228145063475
20
-0.551475297317666
30
0
41
1
10
75.0834808054353
20
0.252131380648592
30
0
41
1
10
74.8156272688578
20
0.412658876601597
30
0
41
1
10
74.2828349902107
20
0.729759221524375
30
0
41
1
10
74.0173020582411
20
0.886610243204103
30
0
41
1
10
73.2729245584881
20
1.3204000648212
30
0
41
1
10
72.7952002116405
20
1.59221890296499
30
0
41
1
10
72.3165041382246
20
1.8524952909701
30
0
0
SPLINE
5
E8
100
AcDbEntity
8
1
62
256
6
ByLayer
370
18
48
1
60
0
100
AcDbSpline
70
4
71
3
72
18
73
14
40
0
40
0
40
0
40
0
40
0.174285097440884
40
0.174285097440884
40
0.528516174363334
40
0.528516174363334
40
0.617073943593948
40
0.617073943593948
40
0.705631712824564
40
0.705631712824564
40
0.882747251285791
40
0.882747251285791
40
1
40
1
40
1
40
1
41
1
10
40.9976348689068
20
-4.37311564996813
30
0
41
1
10
40.7369680506602
20
-4.37281011247643
30
0
41
1
10
40.4763665349779
20
-4.3641753412457
30
0
41
1
10
39.6851271045187
20
-4.312811767151
30
0
41
1
10
39.1536090956293
20
-4.24414253465366
30
0
41
1
10
38.4835130653314
20
-4.11561408848038
30
0
41
1
10
38.3491040799638
20
-4.08774511564815
30
0
41
1
10
38.0812236727146
20
-4.02812514250499
30
0
41
1
10
37.9475617522415
20
-3.99634028611217
30
0
41
1
10
37.5472447531433
20
-3.89522282834628
30
0
41
1
10
37.2812538988393
20
-3.82014346952209
30
0
41
1
10
36.8399652837399
20
-3.68339162251576
30
0
41
1
10
36.6644056934067
20
-3.62575887090765
30
0
41
1
10
36.4889424325226
20
-3.56509064754846
30
0
0
SPLINE
5
E9
100
AcDbEntity
8
1
62
256
6
ByLayer
370
13
48
1
60
0
100
AcDbSpline
70
4
71
3
72
26
73
22
40
0
40
0
40
0
40
0
40
0.264667965499934
40
0.264667965499934
40
0.304312809426375
40
0.304312809426375
40
0.343957653352816
40
0.343957653352816
40
0.423247341205701
40
0.423247341205701
40
0.581826716911467
40
0.581826716911467
40
0.740406092617233
40
0.740406092617233
40
0.780050936543674
40
0.780050936543674
40
0.819695780470114
40
0.819695780470114
40
0.898985468322996
40
0.898985468322996
40
1
40
1
40
1
40
1
41
1
10
36.4889424344735
20
-3.56509064822305
30
0
41
1
10
35.6042251779162
20
-3.25919057637904
30
0
41
1
10
34.721956960256
20
-2.87611796358371
30
0
41
1
10
33.6929389291432
20
-2.36554743588681
30
0
41
1
10
33.5585117465085
20
-2.29763413243717
30
0
41
1
10
33.2905938244031
20
-2.16007921890173
30
0
41
1
10
33.156902499187
20
-2.09034292010992
30
0
41
1
10
32.7564823479234
20
-1.87849761155442
30
0
41
1
10
32.4905121564206
20
-1.73361405437495
30
0
41
1
10
31.6940251744584
20
-1.29048865571934
30
0
41
1
10
31.1647168796106
20
-0.984031693191753
30
0
41
1
10
30.1039846040078
20
-0.358363351580266
30
0
41
1
10
29.5719638223436
20
-0.0400692390114443
30
0
41
1
10
28.9015619773277
20
0.359151032727794
30
0
41
1
10
28.767136972122
20
0.439043181517548
30
0
41
1
10
28.4992156744614
20
0.597665999380979
30
0
41
1
10
28.3655159815119
20
0.676521899597532
30
0
41
1
10
27.9650693104146
20
0.911534551258228
30
0
41
1
10
27.6990136165684
20
1.06621056200677
30
0
41
1
10
27.095158396324
20
1.41191964640237
30
0
41
1
10
26.7576025176459
20
1.60119116530063
30
0
41
1
10
26.4199676395095
20
1.78475647375495
30
0
0
SPLINE
5
EA
100
AcDbEntity
8
1
62
256
6
ByLayer
370
18
48
1
60
0
100
AcDbSpline
70
4
71
3
72
14
73
10
40
0
40
0
40
0
40
0
40
0.250000000000001
40
0.250000000000001
40
0.5
40
0.5
40
0.75
40
0.75
40
1
40
1
40
1
40
1
41
1
10
8.000000470733
20
-0.916810971402924
30
0
41
1
10
8.000000470733
20
-0.93378672925013
30
0
41
1
10
8.00256834940836
20
-0.951135628225273
30
0
41
1
10
8.01283994620849
20
-0.984625845351445
30
0
41
1
10
8.02041125439115
20
-1.00064022554264
30
0
41
1
10
8.04042655755768
20
-1.03107305229122
30
0
41
1
10
8.05312523157099
20
-1.04571698901154
30
0
41
1
10
8.08299423432334
20
-1.07191477806833
30
0
41
1
10
8.10005861042194
20
-1.08351807359747
30
0
41
1
10
8.11961282427063
20
-1.09338774901045
30
0
0
SPLINE
5
EB
100
AcDbEntity
8
1
62
256
6
ByLayer
370
18
48
1
60
0
100
AcDbSpline
70
4
71
3
72
8
73
4
40
0
40
0
40
0
40
0
40
1
40
1
40
1
40
1
41
1
10
8.78774700828336
20
-2.25152392096595
30
0
41
1
10
8.60088122338573
20
-2.44808811083829
30
0
41
1
10
8.42216596815194
20
-2.639268260069
30
0
41
1
10
8.2500618460374
20
-2.82266087688259
30
0
0
SPLINE
5
EC
100
AcDbEntity
8
1
62
256
6
ByLayer
370
18
48
1
60
0
100
AcDbSpline
70
4
71
3
72
8
73
4
40
0
40
0
40
0
40
0
40
1
40
1
40
1
40
1
41
1
10
111.821334033527
20
-1.21424300327695
30
0
41
1
10
111.879369972021
20
-0.862923338184999
30
0
41
1
10
111.930597377466
20
-0.511648925474702
30
0
41
1
10
111.974968952464
20
-0.16042007950449
30
0
0
SPLINE
5
ED
100
AcDbEntity
8
1
62
256
6
ByLayer
370
18
48
1
60
0
100
AcDbSpline
70
4
71
3
72
18
73
14
40
0
40
0
40
0
40
0
40
0.185814706325063
40
0.185814706325063
40
0.418373904332014
40
0.418373904332014
40
0.53465350333549
40
0.53465350333549
40
0.592793302837228
40
0.592793302837228
40
0.650933102338965
40
0.650933102338965
40
1
40
1
40
1
40
1
41
1
10
29.3146239610029
20
-0.0015129347407026
30
0
41
1
10
29.742029635838
20
-0.26214164646936
30
0
41
1
10
30.1669426218431
20
-0.521002362869581
30
0
41
1
10
31.1212695925564
20
-1.09472536495582
30
0
41
1
10
31.6506474097904
20
-1.40642793287546
30
0
41
1
10
32.4473815354902
20
-1.85605730604396
30
0
41
1
10
32.7134395742759
20
-2.00290891477326
30
0
41
1
10
33.1140722425361
20
-2.21731951348704
30
0
41
1
10
33.2478449687948
20
-2.2878514610029
30
0
41
1
10
33.5159452213919
20
-2.42688481727222
30
0
41
1
10
33.6504738434978
20
-2.49547994167739
30
0
41
1
10
34.5898559447984
20
-2.96552202332529
30
0
41
1
10
35.3845261308489
20
-3.31654544688752
30
0
41
1
10
36.1800294280826
20
-3.60409370297242
30
0
0
SPLINE
5
EE
100
AcDbEntity
8
1
62
256
6
ByLayer
370
13
48
1
60
0
100
AcDbSpline
70
4
71
3
72
20
73
16
40
0
40
0
40
0
40
0
40
0.131147884507047
40
0.131147884507047
40
0.262553386013477
40
0.262553386013477
40
0.328256136766691
40
0.328256136766691
40
0.393958887519907
40
0.393958887519907
40
0.656769890532773
40
0.656769890532773
40
0.919580893545639
40
0.919580893545639
40
1
40
1
40
1
40
1
41
1
10
36.1800284874599
20
-3.60409336296823
30
0
41
1
10
36.4445034622505
20
-3.69969237725235
30
0
41
1
10
36.7090705213895
20
-3.78827540049818
30
0
41
1
10
37.2397490247483
20
-3.95071868119175
30
0
41
1
10
37.5058381381869
20
-4.02456099411827
30
0
41
1
10
37.9063653791611
20
-4.12343669438661
30
0
41
1
10
38.0401076704634
20
-4.15441119947215
30
0
41
1
10
38.3081696834461
20
-4.21228408786916
30
0
41
1
10
38.4426753075083
20
-4.23921263450885
30
0
41
1
10
39.1130635387826
20
-4.36269327238719
30
0
41
1
10
39.6446789400733
20
-4.42630137860786
30
0
41
1
10
40.7055027377425
20
-4.48335156780593
30
0
41
1
10
41.2345721825726
20
-4.47672822114652
30
0
41
1
10
41.9281352885235
20
-4.42206150486069
30
0
41
1
10
42.0908345186781
20
-4.40596766400461
30
0
41
1
10
42.2538360759879
20
-4.38658545923417
30
0
0
SPLINE
5
EF
100
AcDbEntity
8
1
62
256
6
ByLayer
370
18
48
1
60
0
100
AcDbSpline
70
4
71
3
72
18
73
14
40
0
40
0
40
0
40
0
40
0.0007892426064757
40
0.0007892426064757
40
0.526968008097975
40
0.526968008097975
40
0.658512699470849
40
0.658512699470849
40
0.724285045157286
40
0.724285045157286
40
0.790057390843723
40
0.790057390843723
40
1
40
1
40
1
40
1
41
1
10
75.3184131139955
20
-0.0036936482861449
30
0
41
1
10
75.3200208936487
20
-0.0046802112268836
30
0
41
1
10
75.3216286268267
20
-0.0056667477198573
30
0
41
1
10
76.3950611579475
20
-0.664347217977934
30
0
41
1
10
77.4475132729927
20
-1.3101141759538
30
0
41
1
10
78.7732152491773
20
-2.04827607299751
30
0
41
1
10
79.0388662000419
20
-2.19245185226637
30
0
41
1
10
79.4387527023571
20
-2.40249056872005
30
0
41
1
10
79.5722822766334
20
-2.47146752418163
30
0
41
1
10
79.8398998708885
20
-2.60720737231279
30
0
41
1
10
79.9741917138624
20
-2.67406277470914
30
0
41
1
10
80.5354716326776
20
-2.94771336545543
30
0
41
1
10
80.9598268341837
20
-3.14060056505122
30
0
41
1
10
81.3829379660253
20
-3.31634759580098
30
0
0
SPLINE
5
F0
100
AcDbEntity
8
1
62
256
6
ByLayer
370
13
48
1
60
0
100
AcDbSpline
70
4
71
3
72
20
73
16
40
0
40
0
40
0
40
0
40
0.0463537854975528
40
0.0463537854975528
40
0.275816233212397
40
0.275816233212397
40
0.39054745706982
40
0.39054745706982
40
0.447913068998532
40
0.447913068998532
40
0.505278680927242
40
0.505278680927242
40
0.964203576356923
40
0.964203576356923
40
1
40
1
40
1
40
1
41
1
10
81.3829379644841
20
-3.31634759516078
30
0
41
1
10
81.4900481491463
20
-3.36083779053766
30
0
41
1
10
81.5970786082934
20
-3.40422956769302
30
0
41
1
10
82.2336337608044
20
-3.65572536257756
30
0
41
1
10
82.7617800463616
20
-3.83755031647439
30
0
41
1
10
83.5572262608449
20
-4.06399951538108
30
0
41
1
10
83.8228504379371
20
-4.13179824259808
30
0
41
1
10
84.2227199842647
20
-4.22132386887233
30
0
41
1
10
84.3562477350762
20
-4.24913993987221
30
0
41
1
10
84.6238898645223
20
-4.30061416886051
30
0
41
1
10
84.7581732626101
20
-4.32428989664808
30
0
41
1
10
85.9626301478174
20
-4.51699788664087
30
0
41
1
10
87.0146752760796
20
-4.54611775282598
30
0
41
1
10
88.1578788154802
20
-4.42614693645916
30
0
41
1
10
88.2406464877529
20
-4.41660856148971
30
0
41
1
10
88.3234779334059
20
-4.40621537004122
30
0
0
SPLINE
5
F1
100
AcDbEntity
8
1
62
256
6
ByLayer
370
18
48
1
60
0
100
AcDbSpline
70
4
71
3
72
18
73
14
40
0
40
0
40
0
40
0
40
0.250000000000001
40
0.250000000000001
40
0.375000000000002
40
0.375000000000002
40
0.500000000000002
40
0.500000000000002
40
0.750000000000003
40
0.750000000000003
40
0.875000000000002
40
0.875000000000002
40
1
40
1
40
1
40
1
41
1
10
110.338583055534
20
-4.40933708664392
30
0
41
1
10
110.244447418267
20
-4.39555981594194
30
0
41
1
10
110.157302415991
20
-4.36180507492611
30
0
41
1
10
110.038061848735
20
-4.27837477672563
30
0
41
1
10
110.000171965301
20
-4.24491093832907
30
0
41
1
10
109.929961016675
20
-4.16795680943844
30
0
41
1
10
109.897431103913
20
-4.12435991067341
30
0
41
1
10
109.807614704569
20
-3.97811696960889
30
0
41
1
10
109.758033077682
20
-3.86015480912951
30
0
41
1
10
109.700398100922
20
-3.64993997356183
30
0
41
1
10
109.684003060084
20
-3.57407937298029
30
0
41
1
10
109.657701444523
20
-3.41399133729976
30
0
41
1
10
109.647681706973
20
-3.32943016344436
30
0
41
1
10
109.640812125311
20
-3.24032429893589
30
0
0
SPLINE
5
F2
100
AcDbEntity
8
1
62
256
6
ByLayer
370
18
48
1
60
0
100
AcDbSpline
70
4
71
3
72
14
73
10
40
0
40
0
40
0
40
0
40
0.25
40
0.25
40
0.5
40
0.5
40
0.75
40
0.75
40
1
40
1
40
1
40
1
41
1
10
8.11675196855288
20
-1.12480647676838
30
0
41
1
10
8.09879700537357
20
-1.11383530860755
30
0
41
1
10
8.08264225875183
20
-1.10090687202086
30
0
41
1
10
8.0538184266066
20
-1.07123539521265
30
0
41
1
10
8.04121816004738
20
-1.05441980119343
30
0
41
1
10
8.02100807406563
20
-1.01872212046294
30
0
41
1
10
8.01311144861114
20
-0.999337140918584
30
0
41
1
10
8.00265376138779
20
-0.959588730069754
30
0
41
1
10
8.000000470733
20
-0.939262543196804
30
0
41
1
10
8.000000470733
20
-0.918467838157937
30
0
0
SPLINE
5
F3
100
AcDbEntity
8
1
62
256
6
ByLayer
370
18
48
1
60
0
100
AcDbSpline
70
4
71
3
72
8
73
4
40
0
40
0
40
0
40
0
40
1
40
1
40
1
40
1
41
1
10
111.053940550801
20
-2.44390852156204
30
0
41
1
10
110.815488052379
20
-3.09905137658947
30
0
41
1
10
110.577035553956
20
-3.75419423161702
30
0
41
1
10
110.338583055534
20
-4.4093370866448
30
0
0
SPLINE
5
F4
100
AcDbEntity
8
1
62
256
6
ByLayer
370
13
48
1
60
0
100
AcDbSpline
70
4
71
3
72
8
73
4
40
0
40
0
40
0
40
0
40
1
40
1
40
1
40
1
41
1
10
8.11961282427063
20
-1.09338774901045
30
0
41
1
10
8.14397265631834
20
-1.1042041047366
30
0
41
1
10
8.17073319496907
20
-1.11812566647947
30
0
41
1
10
8.19819418238501
20
-1.13428017269649
30
0
0
SPLINE
5
F5
100
AcDbEntity
8
1
62
256
6
ByLayer
370
18
48
1
60
0
100
AcDbSpline
70
4
71
3
72
16
73
12
40
0
40
0
40
0
40
0
40
0.125000000000008
40
0.125000000000008
40
0.250000000000016
40
0.250000000000016
40
0.500000000000011
40
0.500000000000011
40
0.750000000000005
40
0.750000000000005
40
1
40
1
40
1
40
1
41
1
10
8.00000047073675
20
3.19259356519146
30
0
41
1
10
8.00000047073667
20
3.18403061472711
30
0
41
1
10
8.00253298236953
20
3.17231473005745
30
0
41
1
10
8.01310804199125
20
3.14356397824088
30
0
41
1
10
8.02114610368238
20
3.12660462095746
30
0
41
1
10
8.04994817078756
20
3.07391463550931
30
0
41
1
10
8.07467926625247
20
3.03703050880685
30
0
41
1
10
8.1241830782169
20
2.96919076976826
30
0
41
1
10
8.14962038711093
20
2.93726218175434
30
0
41
1
10
8.20025752602066
20
2.87708084679687
30
0
41
1
10
8.22528386815873
20
2.84906406901155
30
0
41
1
10
8.25006184497107
20
2.82266087801889
30
0
0
SPLINE
5
F6
100
AcDbEntity
8
1
62
256
6
ByLayer
370
18
48
1
60
0
100
AcDbSpline
70
4
71
3
72
14
73
10
40
0
40
0
40
0
40
0
40
0.307030321388792
40
0.307030321388792
40
0.460545482083188
40
0.460545482083188
40
0.614060642777584
40
0.614060642777584
40
1
40
1
40
1
40
1
41
1
10
110.415282938185
20
-4.40941727649025
30
0
41
1
10
109.880565069506
20
-4.42734866097189
30
0
41
1
10
109.346867149101
20
-4.40987697075255
30
0
41
1
10
108.543651309027
20
-4.33091043294439
30
0
41
1
10
108.276276286871
20
-4.29584657360306
30
0
41
1
10
107.744218538896
20
-4.20924774781864
30
0
41
1
10
107.479096348209
20
-4.15767382009321
30
0
41
1
10
106.549135308919
20
-3.9486283728217
30
0
41
1
10
105.886836831582
20
-3.74909670340153
30
0
41
1
10
105.221103510309
20
-3.50489326116716
30
0
0
SPLINE
5
F7
100
AcDbEntity
8
1
62
256
6
ByLayer
370
13
48
1
60
0
100
AcDbSpline
70
4
71
3
72
26
73
22
40
0
40
0
40
0
40
0
40
0.121245749007537
40
0.121245749007537
40
0.162042153511471
40
0.162042153511471
40
0.202838558015405
40
0.202838558015405
40
0.28443136702328
40
0.28443136702328
40
0.44761698503903
40
0.44761698503903
40
0.610802603054779
40
0.610802603054779
40
0.651599007558717
40
0.651599007558717
40
0.692395412062654
40
0.692395412062654
40
0.773988221070535
40
0.773988221070535
40
1
40
1
40
1
40
1
41
1
10
105.221103774117
20
-3.50489335793708
30
0
41
1
10
104.82760160344
20
-3.36054940365003
30
0
41
1
10
104.432899379345
20
-3.200598181966
30
0
41
1
10
103.902003839925
20
-2.96743204752778
30
0
41
1
10
103.76791043572
20
-2.90701915191704
30
0
41
1
10
103.500646274752
20
-2.78377069536356
30
0
41
1
10
103.367301258853
20
-2.72086091066495
30
0
41
1
10
102.967974075279
20
-2.52852343740636
30
0
41
1
10
102.702705028898
20
-2.39548413797164
30
0
41
1
10
101.908441981983
20
-1.98395348710338
30
0
41
1
10
101.38092685119
20
-1.69310393489519
30
0
41
1
10
100.323399154917
20
-1.08855411324887
30
0
41
1
10
99.7933925484553
20
-0.77486809832655
30
0
41
1
10
99.1254580910804
20
-0.374505678175552
30
0
41
1
10
98.9913922071577
20
-0.293891936111095
30
0
41
1
10
98.723897668243
20
-0.132883768860665
30
0
41
1
10
98.590435382646
20
-0.0524653433544984
30
0
41
1
10
98.190730743415
20
0.188257180568769
30
0
41
1
10
97.9251395072698
20
0.347974424465605
30
0
41
1
10
96.9260845066143
20
0.94551205665249
30
0
41
1
10
96.196114849028
20
1.37441018989182
30
0
41
1
10
95.4614723259632
20
1.77884297828976
30
0
0
SPLINE
5
F8
100
AcDbEntity
8
1
62
256
6
ByLayer
370
18
48
1
60
0
100
AcDbSpline
70
4
71
3
72
14
73
10
40
0
40
0
40
0
40
0
40
0.302955956538127
40
0.302955956538127
40
0.642976289422753
40
0.642976289422753
40
0.982996622307379
40
0.982996622307379
40
1
40
1
40
1
40
1
41
1
10
64.0094979820969
20
-4.38755087860633
30
0
41
1
10
63.537317281829
20
-4.38745465805587
30
0
41
1
10
63.0663609062382
20
-4.36004177252235
30
0
41
1
10
62.0639905521572
20
-4.24449698033277
30
0
41
1
10
61.5325317491889
20
-4.14928976436559
30
0
41
1
10
60.4596317360156
20
-3.89210018787955
30
0
41
1
10
59.9242270078805
20
-3.73121456712818
30
0
41
1
10
59.3606433753074
20
-3.53196241314251
30
0
41
1
10
59.3338081963785
20
-3.52240328480707
30
0
41
1
10
59.3069782797722
20
-3.51277503265442
30
0
0
SPLINE
5
F9
100
AcDbEntity
8
1
62
256
6
ByLayer
370
13
48
1
60
0
100
AcDbSpline
70
4
71
3
72
24
73
20
40
0
40
0
40
0
40
0
40
0.152511483855892
40
0.152511483855892
40
0.232781272633929
40
0.232781272633929
40
0.313051061411967
40
0.313051061411967
40
0.634130216524114
40
0.634130216524114
40
0.674265110913132
40
0.674265110913132
40
0.714400005302148
40
0.714400005302148
40
0.794669794080184
40
0.794669794080184
40
0.955209371636254
40
0.955209371636254
40
1
40
1
40
1
40
1
41
1
10
59.3069782791657
20
-3.51277503243682
30
0
41
1
10
58.7972843746113
20
-3.32986498071062
30
0
41
1
10
58.2894896132181
20
-3.12200852521661
30
0
41
1
10
57.5128925524025
20
-2.77245094780949
30
0
41
1
10
57.2442901589466
20
-2.64569713730512
30
0
41
1
10
56.708700985136
20
-2.38274668036971
30
0
41
1
10
56.4419228493997
20
-2.2467896715975
30
0
41
1
10
55.1109964208119
20
-1.54793789520647
30
0
41
1
10
54.0563314973681
20
-0.927156360853445
30
0
41
1
10
52.8509986008596
20
-0.207638095383174
30
0
41
1
10
52.7166419378296
20
-0.127277430554784
30
0
41
1
10
52.4487458455492
20
0.0330271293818782
30
0
41
1
10
52.3150902384234
20
0.113041391806547
30
0
41
1
10
51.9147903081872
20
0.352316525262864
30
0
41
1
10
51.6488217814624
20
0.510830360594611
30
0
41
1
10
50.8525034513476
20
0.981576216331575
30
0
41
1
10
50.3236495780185
20
1.28879769581508
30
0
41
1
10
49.6457241870456
20
1.66670415988111
30
0
41
1
10
49.497746688449
20
1.74821431099244
30
0
41
1
10
49.3496015152986
20
1.82868159894943
30
0
0
SPLINE
5
FA
100
AcDbEntity
8
1
62
256
6
ByLayer
370
18
48
1
60
0
100
AcDbSpline
70
4
71
3
72
12
73
8
40
0
40
0
40
0
40
0
40
0.0394676878978816
40
0.0394676878978816
40
0.844930542258089
40
0.844930542258089
40
1
40
1
40
1
40
1
41
1
10
18.0040488752028
20
-4.35866272340465
30
0
41
1
10
17.9519472161637
20
-4.35863285678141
30
0
41
1
10
17.8998663757639
20
-4.35827163812291
30
0
41
1
10
16.7852826644734
20
-4.34345433185598
30
0
41
1
10
15.7302148052362
20
-4.19165020894121
30
0
41
1
10
14.4496648057368
20
-3.85439668834556
30
0
41
1
10
14.2428918139634
20
-3.79525553887726
30
0
41
1
10
14.036800196533
20
-3.73188603057679
30
0
0
SPLINE
5
FB
100
AcDbEntity
8
1
62
256
6
ByLayer
370
13
48
1
60
0
100
AcDbSpline
70
4
71
3
72
18
73
14
40
0
40
0
40
0
40
0
40
0.0318000183504188
40
0.0318000183504188
40
0.170114301443215
40
0.170114301443215
40
0.44674286762881
40
0.44674286762881
40
0.723371433814406
40
0.723371433814406
40
0.861685716907204
40
0.861685716907204
40
1
40
1
40
1
40
1
41
1
10
14.0368001950857
20
-3.73188603013176
30
0
41
1
10
13.9752711853587
20
-3.71296695354579
30
0
41
1
10
13.9138029086651
20
-3.69367099006936
30
0
41
1
10
13.5854056750872
20
-3.58849737734212
30
0
41
1
10
13.3192893915424
20
-3.4959425862352
30
0
41
1
10
12.5222286071246
20
-3.19872676862289
30
0
41
1
10
11.992642391138
20
-2.97452019066145
30
0
41
1
10
10.9306580984116
20
-2.48189061807389
30
0
41
1
10
10.3984068438235
20
-2.21330315096026
30
0
41
1
10
9.59301284123731
20
-1.78352024162493
30
0
41
1
10
9.32411100229834
20
-1.63620476940071
30
0
41
1
10
8.78724845339974
20
-1.33620722773702
30
0
41
1
10
8.51887942995558
20
-1.18331664635142
30
0
41
1
10
8.25025241084904
20
-1.02804482931208
30
0
0
SPLINE
5
FC
100
AcDbEntity
8
1
62
256
6
ByLayer
370
18
48
1
60
0
100
AcDbSpline
70
4
71
3
72
114
73
110
40
0
40
0
40
0
40
0
40
0.0077092813576137
40
0.0077092813576137
40
0.0202243037549676
40
0.0202243037549676
40
0.0452543485496754
40
0.0452543485496754
40
0.0702843933443833
40
0.0702843933443833
40
0.0953144381390912
40
0.0953144381390912
40
0.107829460536445
40
0.107829460536445
40
0.120344482933799
40
0.120344482933799
40
0.145374527728509
40
0.145374527728509
40
0.170404572523219
40
0.170404572523219
40
0.182919594920574
40
0.182919594920574
40
0.195434617317929
40
0.195434617317929
40
0.220464662112636
40
0.220464662112636
40
0.23297968450999
40
0.23297968450999
40
0.245494706907344
40
0.245494706907344
40
0.258009729304698
40
0.258009729304698
40
0.270524751702052
40
0.270524751702052
40
0.29555479649676
40
0.29555479649676
40
0.320584841291468
40
0.320584841291468
40
0.333099863688822
40
0.333099863688822
40
0.345614886086176
40
0.345614886086176
40
0.370644930880882
40
0.370644930880882
40
0.395674975675587
40
0.395674975675587
40
0.420705020470293
40
0.420705020470293
40
0.433220042867645
40
0.433220042867645
40
0.445735065264997
40
0.445735065264997
40
0.470765110059701
40
0.470765110059701
40
0.495795154854405
40
0.495795154854405
40
0.508310177251757
40
0.508310177251757
40
0.520825199649109
40
0.520825199649109
40
0.545855244443813
40
0.545855244443813
40
0.570885289238516
40
0.570885289238516
40
0.583400311635869
40
0.583400311635869
40
0.595915334033221
40
0.595915334033221
40
0.620945378827926
40
0.620945378827926
40
0.633460401225279
40
0.633460401225279
40
0.645975423622632
40
0.645975423622632
40
0.671005468417338
40
0.671005468417338
40
0.696035513212044
40
0.696035513212044
40
0.72106555800675
40
0.72106555800675
40
0.746095602801455
40
0.746095602801455
40
0.758610625198809
40
0.758610625198809
40
0.771125647596163
40
0.771125647596163
40
0.796155692390869
40
0.796155692390869
40
0.821185737185576
40
0.821185737185576
40
0.83370075958293
40
0.83370075958293
40
0.846215781980283
40
0.846215781980283
40
0.87124582677499
40
0.87124582677499
40
0.896275871569697
40
0.896275871569697
40
0.90879089396705
40
0.90879089396705
40
0.921305916364404
40
0.921305916364404
40
0.94633596115911
40
0.94633596115911
40
0.971366005953817
40
0.971366005953817
40
0.996396050748524
40
0.996396050748524
40
1
40
1
40
1
40
1
41
1
10
100.764351009829
20
-2.14223169932552
30
0
41
1
10
100.68522661047
20
-2.18390791387094
30
0
41
1
10
100.606044606198
20
-2.22517067900535
30
0
41
1
10
100.398148170369
20
-2.33230263554577
30
0
41
1
10
100.269073091948
20
-2.39729770374868
30
0
41
1
10
99.8841220645683
20
-2.5911381314788
30
0
41
1
10
99.6276208764585
20
-2.71445509229775
30
0
41
1
10
99.1140279800665
20
-2.95045151478772
30
0
41
1
10
98.8573461770753
20
-3.06390552120189
30
0
41
1
10
98.3436554343235
20
-3.27949551790999
30
0
41
1
10
98.0864553775546
20
-3.38088615354491
30
0
41
1
10
97.7006833718286
20
-3.52250421493593
30
0
41
1
10
97.5726976678285
20
-3.56889779468875
30
0
41
1
10
97.3163206947015
20
-3.65801467147361
30
0
41
1
10
97.1880301491407
20
-3.70079518877057
30
0
41
1
10
96.8027311856258
20
-3.82343741189595
30
0
41
1
10
96.5453555473592
20
-3.89774836620518
30
0
41
1
10
96.031489782331
20
-4.03212278892201
30
0
41
1
10
95.774985749889
20
-4.09307407282773
30
0
41
1
10
95.3894202885638
20
-4.17174535349272
30
0
41
1
10
95.2606765746551
20
-4.19583907522525
30
0
41
1
10
95.0043130838661
20
-4.24053201815852
30
0
41
1
10
94.8760011885443
20
-4.26074558630361
30
0
41
1
10
94.4903701103304
20
-4.31563600848662
30
0
41
1
10
94.2328706554401
20
-4.34519914027271
30
0
41
1
10
93.8476308042304
20
-4.37705726473126
30
0
41
1
10
93.7192794212967
20
-4.38563674958513
30
0
41
1
10
93.4626958855361
20
-4.39807276043777
30
0
41
1
10
93.3343946975911
20
-4.40193997091933
30
0
41
1
10
93.0773455178218
20
-4.40617069261953
30
0
41
1
10
92.9486281781327
20
-4.40649997630214
30
0
41
1
10
92.690879938348
20
-4.40330558895263
30
0
41
1
10
92.5626768092893
20
-4.3997435335439
30
0
41
1
10
92.1776320031213
20
-4.38282407293619
30
0
41
1
10
91.920713765711
20
-4.36252610913755
30
0
41
1
10
91.4071016245051
20
-4.30620110683117
30
0
41
1
10
91.1502999473349
20
-4.27089950381011
30
0
41
1
10
90.7644978915405
20
-4.2057559009873
30
0
41
1
10
90.6359158471363
20
-4.18202577979983
30
0
41
1
10
90.3787263380414
20
-4.13053495952653
30
0
41
1
10
90.2500350562564
20
-4.10290772523351
30
0
41
1
10
89.8656659259439
20
-4.01365104510043
30
0
41
1
10
89.6088938532183
20
-3.94771564010895
30
0
41
1
10
89.0945532468471
20
-3.80146101769827
30
0
41
1
10
88.8372281834121
20
-3.72002330059902
30
0
41
1
10
88.3238582093197
20
-3.54393362480437
30
0
41
1
10
88.0669929923313
20
-3.45039608465407
30
0
41
1
10
87.6811215985736
20
-3.30093288847641
30
0
41
1
10
87.5531197570389
20
-3.24875670165264
30
0
41
1
10
87.2963479735009
20
-3.14176356325348
30
0
41
1
10
87.1676913358252
20
-3.0867572775004
30
0
41
1
10
86.7817504472314
20
-2.91820204352015
30
0
41
1
10
86.524768705706
20
-2.80087737879782
30
0
41
1
10
86.0112521698372
20
-2.55591706631924
30
0
41
1
10
85.7547508096453
20
-2.42747341022042
30
0
41
1
10
85.3685070842428
20
-2.22984739519126
30
0
41
1
10
85.2395161331959
20
-2.16310319993167
30
0
41
1
10
84.9827901174252
20
-2.02653364932968
30
0
41
1
10
84.8544069733677
20
-1.95753797938522
30
0
41
1
10
84.4690915815488
20
-1.7484080824639
30
0
41
1
10
84.2121399358062
20
-1.60548731843659
30
0
41
1
10
83.6983066527287
20
-1.31350964107136
30
0
41
1
10
83.4411611257744
20
-1.16439835630342
30
0
41
1
10
83.0551978106034
20
-0.939457304908558
30
0
41
1
10
82.9264728635145
20
-0.864314124489738
30
0
41
1
10
82.6692825430762
20
-0.71291139902263
30
0
41
1
10
82.5413955215299
20
-0.635706356646182
30
0
41
1
10
82.15660921842
20
-0.405191042153604
30
0
41
1
10
81.8993677646058
20
-0.251692372999031
30
0
41
1
10
81.5133458840696
20
-0.020066908651728
30
0
41
1
10
81.3846748109109
20
0.0572373277902045
30
0
41
1
10
81.1277749883365
20
0.211748948469108
30
0
41
1
10
80.9995289993258
20
0.289057858419937
30
0
41
1
10
80.6144769582587
20
0.519825148371723
30
0
41
1
10
80.3568545724284
20
0.671326834865795
30
0
41
1
10
79.8438280788556
20
0.976100992863735
30
0
41
1
10
79.5862994576578
20
1.12630094938797
30
0
41
1
10
79.0721293497641
20
1.42105509733239
30
0
41
1
10
78.8153853194392
20
1.56636648241943
30
0
41
1
10
78.3019908879186
20
1.85130804535223
30
0
41
1
10
78.0446368899828
20
1.98990671216961
30
0
41
1
10
77.6582516095108
20
2.19177141101827
30
0
41
1
10
77.5301592839887
20
2.25895150737421
30
0
41
1
10
77.2733600231102
20
2.39020060685218
30
0
41
1
10
77.1448909452967
20
2.45460511992945
30
0
41
1
10
76.7592843051606
20
2.64411964140675
30
0
41
1
10
76.5023501315524
20
2.76599247664638
30
0
41
1
10
75.988264767312
20
2.9984219953289
30
0
41
1
10
75.730896070786
20
3.10987673603475
30
0
41
1
10
75.3447160944327
20
3.26732871814227
30
0
41
1
10
75.2160985349789
20
3.31845276973681
30
0
41
1
10
74.9595939524635
20
3.41812509951524
30
0
41
1
10
74.8312719108944
20
3.466093974128
30
0
41
1
10
74.4458697190106
20
3.60436323188299
30
0
41
1
10
74.1881676426129
20
3.69019681038108
30
0
41
1
10
73.6735295738544
20
3.84915685063746
30
0
41
1
10
73.4169171773986
20
3.92195252786263
30
0
41
1
10
73.0313085116823
20
4.01817870009543
30
0
41
1
10
72.902538055301
20
4.04820063894323
30
0
41
1
10
72.6453379698328
20
4.10529329508924
30
0
41
1
10
72.5172323117114
20
4.13244611173951
30
0
41
1
10
72.1315921611919
20
4.207620651886
30
0
41
1
10
71.8738254203213
20
4.24984312543711
30
0
41
1
10
71.3599072461589
20
4.31717200005514
30
0
41
1
10
71.1033507335502
20
4.3429632038459
30
0
41
1
10
70.5892990670386
20
4.37904852557838
30
0
41
1
10
70.3310085042851
20
4.3887843839837
30
0
41
1
10
70.0372639090096
20
4.39060433287446
30
0
41
1
10
70.0002858270062
20
4.39067229009717
30
0
41
1
10
69.9633020629892
20
4.39057896509561
30
0
0
SPLINE
5
FD
100
AcDbEntity
8
1
62
256
6
ByLayer
370
18
48
1
60
0
100
AcDbSpline
70
4
71
3
72
112
73
108
40
0
40
0
40
0
40
0
40
0.0041377380565324
40
0.0041377380565324
40
0.029369877423986
40
0.029369877423986
40
0.0546020167914397
40
0.0546020167914397
40
0.0672180864751665
40
0.0672180864751665
40
0.0798341561588929
40
0.0798341561588929
40
0.105066295526347
40
0.105066295526347
40
0.1302984348938
40
0.1302984348938
40
0.142914504577527
40
0.142914504577527
40
0.155530574261255
40
0.155530574261255
40
0.180762713628708
40
0.180762713628708
40
0.205994852996162
40
0.205994852996162
40
0.218610922679888
40
0.218610922679888
40
0.231226992363615
40
0.231226992363615
40
0.25645913173107
40
0.25645913173107
40
0.281691271098525
40
0.281691271098525
40
0.306923410465979
40
0.306923410465979
40
0.319539480149707
40
0.319539480149707
40
0.332155549833434
40
0.332155549833434
40
0.357387689200888
40
0.357387689200888
40
0.382619828568343
40
0.382619828568343
40
0.39523589825207
40
0.39523589825207
40
0.407851967935796
40
0.407851967935796
40
0.43308410730325
40
0.43308410730325
40
0.458316246670704
40
0.458316246670704
40
0.470932316354431
40
0.470932316354431
40
0.483548386038157
40
0.483548386038157
40
0.508780525405611
40
0.508780525405611
40
0.534012664773064
40
0.534012664773064
40
0.546628734456792
40
0.546628734456792
40
0.559244804140519
40
0.559244804140519
40
0.584476943507972
40
0.584476943507972
40
0.609709082875426
40
0.609709082875426
40
0.634941222242879
40
0.634941222242879
40
0.647557291926606
40
0.647557291926606
40
0.660173361610332
40
0.660173361610332
40
0.685405500977786
40
0.685405500977786
40
0.710637640345239
40
0.710637640345239
40
0.723253710028967
40
0.723253710028967
40
0.735869779712694
40
0.735869779712694
40
0.761101919080148
40
0.761101919080148
40
0.786334058447603
40
0.786334058447603
40
0.79895012813133
40
0.79895012813133
40
0.811566197815057
40
0.811566197815057
40
0.836798337182512
40
0.836798337182512
40
0.862030476549967
40
0.862030476549967
40
0.887262615917421
40
0.887262615917421
40
0.912494755284876
40
0.912494755284876
40
0.937726894652331
40
0.937726894652331
40
0.950342964336058
40
0.950342964336058
40
0.962959034019785
40
0.962959034019785
40
0.975575103703512
40
0.975575103703512
40
0.988191173387239
40
0.988191173387239
40
1
40
1
40
1
40
1
41
1
10
54.7692126150505
20
-2.13004646681941
30
0
41
1
10
54.7270766555731
20
-2.15212553618264
30
0
41
1
10
54.6849314820998
20
-2.17406550886133
30
0
41
1
10
54.3856417917836
20
-2.32867323205951
30
0
41
1
10
54.1284170718009
20
-2.4573242954674
30
0
41
1
10
53.6138669625608
20
-2.70646914376152
30
0
41
1
10
53.3564007904044
20
-2.82689979618144
30
0
41
1
10
52.9702334904961
20
-2.99699066561507
30
0
41
1
10
52.8412452097059
20
-3.05193490872352
30
0
41
1
10
52.5845574126517
20
-3.16069214494306
30
0
41
1
10
52.4562680777528
20
-3.21373548139897
30
0
41
1
10
52.070787956898
20
-3.36789584014849
30
0
41
1
10
51.8130384556463
20
-3.46454530054822
30
0
41
1
10
51.2980249590558
20
-3.643321445993
30
0
41
1
10
51.0411558442752
20
-3.72644096253603
30
0
41
1
10
50.6552501473006
20
-3.84101146327726
30
0
41
1
10
50.5265129987633
20
-3.87748207231317
30
0
41
1
10
50.2688309157703
20
-3.94666903359842
30
0
41
1
10
50.1404795599118
20
-3.9796906142283
30
0
41
1
10
49.7548375965517
20
-4.07188323747943
30
0
41
1
10
49.4967655461251
20
-4.12553670781185
30
0
41
1
10
48.9819090187276
20
-4.21895250055877
30
0
41
1
10
48.7248818916729
20
-4.25837082952981
30
0
41
1
10
48.3391188185767
20
-4.30397122168739
30
0
41
1
10
48.2103808799273
20
-4.31699736618114
30
0
41
1
10
47.9525019637551
20
-4.33951658703367
30
0
41
1
10
47.8231455313483
20
-4.34892562463835
30
0
41
1
10
47.4374265957354
20
-4.37161205938187
30
0
41
1
10
47.1802327753274
20
-4.37896034800636
30
0
41
1
10
46.6654979607417
20
-4.37534476859358
30
0
41
1
10
46.40825874428
20
-4.36509268208741
30
0
41
1
10
45.8932457341578
20
-4.32999171200481
30
0
41
1
10
45.6354995062948
20
-4.30502683568906
30
0
41
1
10
45.2489449007057
20
-4.25446530236357
30
0
41
1
10
45.1207554567087
20
-4.23508723563185
30
0
41
1
10
44.8638570802912
20
-4.19298414123938
30
0
41
1
10
44.7352691118642
20
-4.17023431493121
30
0
41
1
10
44.3490186936515
20
-4.09668265012806
30
0
41
1
10
44.0909289194549
20
-4.04046441889213
30
0
41
1
10
43.5762264055191
20
-3.91139926400109
30
0
41
1
10
43.3194349771471
20
-3.83863512813809
30
0
41
1
10
42.9331183236211
20
-3.72126964029641
30
0
41
1
10
42.8041351832114
20
-3.68068830495579
30
0
41
1
10
42.5472197300025
20
-3.59500292928587
30
0
41
1
10
42.4186103341873
20
-3.5505224984924
30
0
41
1
10
42.0321187015969
20
-3.41187255522939
30
0
41
1
10
41.7745451038145
20
-3.31287965921561
30
0
41
1
10
41.2600623491461
20
-3.10378274724016
30
0
41
1
10
41.0032242537249
20
-2.99302214617384
30
0
41
1
10
40.6168476220797
20
-2.81932534096458
30
0
41
1
10
40.4878048818697
20
-2.76022057208922
30
0
41
1
10
40.2296552684445
20
-2.63965691320792
30
0
41
1
10
40.1013268109855
20
-2.57737122757496
30
0
41
1
10
39.7156323011268
20
-2.38830331296933
30
0
41
1
10
39.4581724743534
20
-2.25847163233019
30
0
41
1
10
38.9435739634561
20
-1.98952721692589
30
0
41
1
10
38.6861716256898
20
-1.85049811946325
30
0
41
1
10
38.2997515503547
20
-1.63776687067593
30
0
41
1
10
38.170926425536
20
-1.56631724936537
30
0
41
1
10
37.9132130046493
20
-1.42235701102371
30
0
41
1
10
37.7843356642127
20
-1.34982676734711
30
0
41
1
10
37.3991629992408
20
-1.12814702461824
30
0
41
1
10
37.1418411218677
20
-0.97893819355744
30
0
41
1
10
36.6263488774235
20
-0.677565194344197
30
0
41
1
10
36.3685438674244
20
-0.524870760440194
30
0
41
1
10
35.8542619619466
20
-0.218037612164181
30
0
41
1
10
35.5968266388157
20
-0.0648604919937554
30
0
41
1
10
35.2102889854827
20
0.164621650347385
30
0
41
1
10
35.0820357499334
20
0.242175642134754
30
0
41
1
10
34.8246604531065
20
0.395959984856262
30
0
41
1
10
34.6957308456642
20
0.472598203781502
30
0
41
1
10
34.3092152676447
20
0.700998098186375
30
0
41
1
10
34.0518719364962
20
0.852074786330974
30
0
41
1
10
33.5374666941059
20
1.15124361767164
30
0
41
1
10
33.2803717179119
20
1.29920441263238
30
0
41
1
10
32.8932842734804
20
1.51594744543112
30
0
41
1
10
32.764219076332
20
1.58760271262233
30
0
41
1
10
32.5071008431645
20
1.73037038721398
30
0
41
1
10
32.3785117148733
20
1.80079327312325
30
0
41
1
10
31.9925035665278
20
2.00898420510134
30
0
41
1
10
31.7349860937928
20
2.14389714791719
30
0
41
1
10
31.2200994566312
20
2.40586741042145
30
0
41
1
10
30.9624560446139
20
2.53315626209067
30
0
41
1
10
30.575789445251
20
2.71579721112741
30
0
41
1
10
30.4467398068711
20
2.77515181351001
30
0
41
1
10
30.1891666506603
20
2.8917856228243
30
0
41
1
10
30.0609670228668
20
2.94945256738794
30
0
41
1
10
29.6752785086261
20
3.11666844534489
30
0
41
1
10
29.4174773611576
20
3.22157639577767
30
0
41
1
10
28.9016216502715
20
3.42140011079968
30
0
41
1
10
28.6444249758937
20
3.51531943359962
30
0
41
1
10
28.1298117252151
20
3.68823804848483
30
0
41
1
10
27.8718419278277
20
3.76683977324097
30
0
41
1
10
27.3574899855157
20
3.91385690194721
30
0
41
1
10
27.0992909871354
20
3.98018539423677
30
0
41
1
10
26.5842397400499
20
4.0960710629364
30
0
41
1
10
26.3271601983637
20
4.14602643960183
30
0
41
1
10
25.9413549354217
20
4.21053172490844
30
0
41
1
10
25.8126454724329
20
4.23015776118683
30
0
41
1
10
25.5548320908086
20
4.26548258668566
30
0
41
1
10
25.4254736156888
20
4.28102422285221
30
0
41
1
10
25.1678221030667
20
4.30775024681941
30
0
41
1
10
25.0394987424256
20
4.31903677411708
30
0
41
1
10
24.7822895511908
20
4.33780307931016
30
0
41
1
10
24.6535900406134
20
4.34530033848654
30
0
41
1
10
24.4043086477723
20
4.35626647882711
30
0
41
1
10
24.2838125464104
20
4.35996326599152
30
0
41
1
10
24.1633170108595
20
4.36182958886866
30
0
0
SPLINE
5
FE
100
AcDbEntity
8
1
62
256
6
ByLayer
370
18
48
1
60
0
100
AcDbSpline
70
4
71
3
72
10
73
6
40
0
40
0
40
0
40
0
40
0.5
40
0.5
40
1
40
1
40
1
40
1
41
1
10
110.36237152045
20
1.18123288039206
30
0
41
1
10
110.606410187325
20
1.18344266133178
30
0
41
1
10
110.850530832551
20
1.18572145239884
30
0
41
1
10
111.337391758261
20
1.19492592074488
30
0
41
1
10
111.57986512823
20
1.20284431465046
30
0
41
1
10
111.821334033523
20
1.21424300327695
30
0
0
SPLINE
5
FF
100
AcDbEntity
8
1
62
256
6
ByLayer
370
18
48
1
60
0
100
AcDbSpline
70
4
71
3
72
8
73
4
40
0
40
0
40
0
40
0
40
1
40
1
40
1
40
1
41
1
10
8.000000470733
20
-0.916810971402924
30
0
41
1
10
8.000000470733
20
-0.917363281654758
30
0
41
1
10
8.000000470733
20
-0.91791557056419
30
0
41
1
10
8.000000470733
20
-0.918467838157937
30
0
0
SPLINE
5
100
100
AcDbEntity
8
1
62
256
6
ByLayer
370
18
48
1
60
0
100
AcDbSpline
70
4
71
3
72
20
73
16
40
0
40
0
40
0
40
0
40
0.170075836524682
40
0.170075836524682
40
0.255113754787023
40
0.255113754787023
40
0.340151673049364
40
0.340151673049364
40
0.680303346098725
40
0.680303346098725
40
0.765341264361065
40
0.765341264361065
40
0.850379182623405
40
0.850379182623405
40
1
40
1
40
1
40
1
41
1
10
8.000000470733
20
3.19559530618469
30
0
41
1
10
7.87191029011899
20
3.33463453750824
30
0
41
1
10
7.74854029723036
20
3.46700933600874
30
0
41
1
10
7.56946475632705
20
3.6538717225099
30
0
41
1
10
7.51077277429818
20
3.71420639584301
30
0
41
1
10
7.39524105512149
20
3.83063275029434
30
0
41
1
10
7.33819127275649
20
3.88692465075078
30
0
41
1
10
7.06015145151389
20
4.15409209995798
30
0
41
1
10
6.86118450060863
20
4.3218183488481
30
0
41
1
10
6.63858309618075
20
4.46608535640883
30
0
41
1
10
6.59541666189605
20
4.49162409913251
30
0
41
1
10
6.51193305178401
20
4.53564244238243
30
0
41
1
10
6.47146095013696
20
4.55416513617408
30
0
41
1
10
6.36577609663939
20
4.5941796113992
30
0
41
1
10
6.30470565921109
20
4.60756033270678
30
0
41
1
10
6.25060870913188
20
4.60831577979158
30
0
0
SPLINE
5
101
100
AcDbEntity
8
1
62
256
6
ByLayer
370
18
48
1
60
0
100
AcDbSpline
70
4
71
3
72
8
73
4
40
0
40
0
40
0
40
0
40
1
40
1
40
1
40
1
41
1
10
8.79335048398266
20
2.23304507023559
30
0
41
1
10
8.8837143409838
20
2.24807215434498
30
0
41
1
10
8.97375992870587
20
2.26497332394968
30
0
41
1
10
9.06348901308584
20
2.28370520451585
30
0
0
SPLINE
5
102
100
AcDbEntity
8
1
62
256
6
ByLayer
370
18
48
1
60
0
100
AcDbSpline
70
4
71
3
72
60
73
56
40
0
40
0
40
0
40
0
40
0.0625000000000024
40
0.0625000000000024
40
0.0937500000000035
40
0.0937500000000035
40
0.125000000000005
40
0.125000000000005
40
0.250000000000008
40
0.250000000000008
40
0.281250000000009
40
0.281250000000009
40
0.31250000000001
40
0.31250000000001
40
0.375000000000011
40
0.375000000000011
40
0.406250000000012
40
0.406250000000012
40
0.437500000000013
40
0.437500000000013
40
0.500000000000015
40
0.500000000000015
40
0.531250000000016
40
0.531250000000016
40
0.562500000000016
40
0.562500000000016
40
0.625000000000018
40
0.625000000000018
40
0.656250000000019
40
0.656250000000019
40
0.68750000000002
40
0.68750000000002
40
0.71875000000002
40
0.71875000000002
40
0.750000000000021
40
0.750000000000021
40
0.812500000000022
40
0.812500000000022
40
0.828125000000022
40
0.828125000000022
40
0.843750000000023
40
0.843750000000023
40
0.845703125000023
40
0.845703125000023
40
0.847656250000023
40
0.847656250000023
40
0.851562500000023
40
0.851562500000023
40
0.859375000000021
40
0.859375000000021
40
0.87500000000002
40
0.87500000000002
40
0.93750000000001
40
0.93750000000001
40
1
40
1
40
1
40
1
41
1
10
8.000000470733
20
-3.19559530618469
30
0
41
1
10
7.87191029011871
20
-3.33463453750855
30
0
41
1
10
7.74854029722979
20
-3.46700933600934
30
0
41
1
10
7.56946475632611
20
-3.65387172251084
30
0
41
1
10
7.5107727742971
20
-3.71420639584409
30
0
41
1
10
7.39524105512024
20
-3.83063275029562
30
0
41
1
10
7.33819127275513
20
-3.88692465075218
30
0
41
1
10
7.06015145151201
20
-4.15409209995968
30
0
41
1
10
6.86118450060644
20
-4.32181834884986
30
0
41
1
10
6.63858309617831
20
-4.4660853564103
30
0
41
1
10
6.59541666189358
20
-4.49162409913393
30
0
41
1
10
6.51193305178145
20
-4.53564244238368
30
0
41
1
10
6.4714609501344
20
-4.55416513617521
30
0
41
1
10
6.35656363030319
20
-4.59766764202743
30
0
41
1
10
6.28812552349029
20
-4.61099218580881
30
0
41
1
10
6.19915858406426
20
-4.60637858065482
30
0
41
1
10
6.17180289483636
20
-4.60072384617882
30
0
41
1
10
6.12220060342395
20
-4.58075186958001
30
0
41
1
10
6.09986844298342
20
-4.56632321854468
30
0
41
1
10
6.04252965133836
20
-4.51011085520909
30
0
41
1
10
6.01682675041474
20
-4.45563779828004
30
0
41
1
10
6.00042609497916
20
-4.34790915167446
30
0
41
1
10
5.9986759367562
20
-4.3076436591295
30
0
41
1
10
6.00353515084311
20
-4.21805206305723
30
0
41
1
10
6.01014242363837
20
-4.16931803021669
30
0
41
1
10
6.04272595153932
20
-4.01296082502117
30
0
41
1
10
6.08143097786038
20
-3.8948063335132
30
0
41
1
10
6.16779992918632
20
-3.69842123747003
30
0
41
1
10
6.20156318353653
20
-3.62936130645932
30
0
41
1
10
6.2773380685131
20
-3.48826326021791
30
0
41
1
10
6.31940068914099
20
-3.41598713034699
30
0
41
1
10
6.41169233694171
20
-3.2685360160616
30
0
41
1
10
6.46193029457845
20
-3.19336254889291
30
0
41
1
10
6.57047517265787
20
-3.04058510465339
30
0
41
1
10
6.62903686056444
20
-2.96266477401477
30
0
41
1
10
6.81458986969787
20
-2.72855537743612
30
0
41
1
10
6.95110146630688
20
-2.57224900996454
30
0
41
1
10
7.13611672601928
20
-2.37796424437639
30
0
41
1
10
7.17385624612407
20
-2.33914499204442
30
0
41
1
10
7.25068276063845
20
-2.2617077207758
30
0
41
1
10
7.28950728870549
20
-2.22294866250701
30
0
41
1
10
7.33433779546675
20
-2.17997217917929
30
0
41
1
10
7.33938686917566
20
-2.17525045917586
30
0
41
1
10
7.351155101632
20
-2.16723809834193
30
0
41
1
10
7.35759322007152
20
-2.16396066644017
30
0
41
1
10
7.37784342972208
20
-2.15625488461211
30
0
41
1
10
7.392861625997
20
-2.15471958381892
30
0
41
1
10
7.43675728088294
20
-2.15224860512137
30
0
41
1
10
7.46606806550648
20
-2.15119991389926
30
0
41
1
10
7.55397667416688
20
-2.14775071486452
30
0
41
1
10
7.61259768071943
20
-2.14628281248619
30
0
41
1
10
7.90563420277556
20
-2.14307315066361
30
0
41
1
10
8.14050755277583
20
-2.15378830574764
30
0
41
1
10
8.60509726114191
20
-2.20027645792001
30
0
41
1
10
8.83531645053935
20
-2.23607180649739
30
0
41
1
10
9.06348901308576
20
-2.28370520451583
30
0
0
SPLINE
5
103
100
AcDbEntity
8
1
62
256
6
ByLayer
370
18
48
1
60
0
100
AcDbSpline
70
4
71
3
72
10
73
6
40
0
40
0
40
0
40
0
40
0.5
40
0.5
40
1
40
1
40
1
40
1
41
1
10
110.489968120897
20
-4.54717936532063
30
0
41
1
10
110.7182351596
20
-3.99787858913774
30
0
41
1
10
110.944828264994
20
-3.44602351384344
30
0
41
1
10
111.390158706396
20
-2.33561624705266
30
0
41
1
10
111.608899324683
20
-1.77706206449219
30
0
41
1
10
111.821334033527
20
-1.21424300327868
30
0
0
SPLINE
5
104
100
AcDbEntity
8
1
62
256
6
ByLayer
370
18
48
1
60
0
100
AcDbSpline
70
4
71
3
72
10
73
6
40
0
40
0
40
0
40
0
40
0.5
40
0.5
40
1
40
1
40
1
40
1
41
1
10
111.974968952464
20
-0.160420079504348
30
0
41
1
10
111.976968433104
20
-0.144592936171108
30
0
41
1
10
111.980289372888
20
-0.126830807907623
30
0
41
1
10
111.988807561673
20
-0.0885543269007485
30
0
41
1
10
111.99402277773
20
-0.0680925297720592
30
0
41
1
10
111.999940706521
20
-0.0471392940729345
30
0
0
SPLINE
5
105
100
AcDbEntity
8
1
62
256
6
ByLayer
370
18
48
1
60
0
100
AcDbSpline
70
4
71
3
72
8
73
4
40
0
40
0
40
0
40
0
40
1
40
1
40
1
40
1
41
1
10
111.860747656024
20
-0.227224218109029
30
0
41
1
10
111.685681968186
20
-0.708213242367123
30
0
41
1
10
111.510616280347
20
-1.18920226662519
30
0
41
1
10
111.335550592508
20
-1.67019129088325
30
0
0
SPLINE
5
106
100
AcDbEntity
8
1
62
256
6
ByLayer
370
18
48
1
60
0
100
AcDbSpline
70
4
71
3
72
44
73
40
40
0
40
0
40
0
40
0
40
0.0338982948326442
40
0.0338982948326442
40
0.0677965896652884
40
0.0677965896652884
40
0.135593179330574
40
0.135593179330574
40
0.20338976899586
40
0.20338976899586
40
0.237288063828502
40
0.237288063828502
40
0.271186358661144
40
0.271186358661144
40
0.406779537991706
40
0.406779537991706
40
0.440677832824346
40
0.440677832824346
40
0.474576127656986
40
0.474576127656986
40
0.542372717322267
40
0.542372717322267
40
0.610169306987548
40
0.610169306987548
40
0.62711845440387
40
0.62711845440387
40
0.644067601820191
40
0.644067601820191
40
0.677965896652834
40
0.677965896652834
40
0.813559075983406
40
0.813559075983406
40
0.847457370816048
40
0.847457370816048
40
0.881355665648689
40
0.881355665648689
40
0.949152255313973
40
0.949152255313973
40
1
40
1
40
1
40
1
41
1
10
110.334047333339
20
-4.66154632817987
30
0
41
1
10
110.066943767596
20
-4.67353817712106
30
0
41
1
10
109.799868173204
20
-4.67617653903247
30
0
41
1
10
109.265017238215
20
-4.66277059422836
30
0
41
1
10
108.996625476521
20
-4.64664965852623
30
0
41
1
10
108.194901332841
20
-4.57074866825474
30
0
41
1
10
107.664770669266
20
-4.48363975853746
30
0
41
1
10
106.605712779147
20
-4.2413260458855
30
0
41
1
10
106.076770417419
20
-4.08614793428234
30
0
41
1
10
105.278957831503
20
-3.80558019255776
30
0
41
1
10
105.012264639719
20
-3.70410632012857
30
0
41
1
10
104.476476384777
20
-3.48574773805987
30
0
41
1
10
104.20921555842
20
-3.36957605405652
30
0
41
1
10
102.87912609409
20
-2.75929714188069
30
0
41
1
10
101.829223702774
20
-2.17495291788063
30
0
41
1
10
100.498282089594
20
-1.37379893858323
30
0
41
1
10
100.230653231582
20
-1.20970606253721
30
0
41
1
10
99.6949981398816
20
-0.87688053573612
30
0
41
1
10
99.4284285997118
20
-0.709190419316201
30
0
41
1
10
98.6312469437894
20
-0.204261294202667
30
0
41
1
10
98.1028575379016
20
0.134346792712023
30
0
41
1
10
97.0453810484507
20
0.804704247875094
30
0
41
1
10
96.5162820041247
20
1.13643300530029
30
0
41
1
10
95.8499264906275
20
1.5395608850657
30
0
41
1
10
95.7164094206879
20
1.61961455304427
30
0
41
1
10
95.4487559706547
20
1.778375032908
30
0
41
1
10
95.314547389537
20
1.85711599541489
30
0
41
1
10
94.9134333686025
20
2.08950567982953
30
0
41
1
10
94.6471874401797
20
2.23984636181086
30
0
41
1
10
93.3196021177711
20
2.96612526686729
30
0
41
1
10
92.2688174051123
20
3.46547445479305
30
0
41
1
10
90.9340089324983
20
3.94441622264327
30
0
41
1
10
90.6652564334231
20
4.03306064726587
30
0
41
1
10
90.1311775140053
20
4.19271663956033
30
0
41
1
10
89.8652320892327
20
4.26401100415475
30
0
41
1
10
89.0692910469754
20
4.45186799085485
30
0
41
1
10
88.5411473575161
20
4.54239714959357
30
0
41
1
10
87.6150666477939
20
4.63798592318292
30
0
41
1
10
87.2176003681666
20
4.65875507851908
30
0
41
1
10
86.8180103948661
20
4.65870606715345
30
0
0
SPLINE
5
107
100
AcDbEntity
8
1
62
256
6
ByLayer
370
18
48
1
60
0
100
AcDbSpline
70
4
71
3
72
50
73
46
40
0
40
0
40
0
40
0
40
0.0216972503366423
40
0.0216972503366423
40
0.0845863555638664
40
0.0845863555638664
40
0.116030908177478
40
0.116030908177478
40
0.14747546079109
40
0.14747546079109
40
0.210364566018315
40
0.210364566018315
40
0.241809118631928
40
0.241809118631928
40
0.27325367124554
40
0.27325367124554
40
0.304698223859153
40
0.304698223859153
40
0.336142776472766
40
0.336142776472766
40
0.399031881699989
40
0.399031881699989
40
0.524810092154438
40
0.524810092154438
40
0.556254644768051
40
0.556254644768051
40
0.571976921074857
40
0.571976921074857
40
0.587699197381663
40
0.587699197381663
40
0.650588302608892
40
0.650588302608892
40
0.71347740783612
40
0.71347740783612
40
0.744921960449734
40
0.744921960449734
40
0.776366513063348
40
0.776366513063348
40
0.902144723517806
40
0.902144723517806
40
0.93358927613142
40
0.93358927613142
40
0.965033828745035
40
0.965033828745035
40
1
40
1
40
1
40
1
41
1
10
66.2282749988104
20
-4.39516001964876
30
0
41
1
10
66.0452125686272
20
-4.43269818522964
30
0
41
1
10
65.8623960380803
20
-4.46605583035122
30
0
41
1
10
65.1500174721393
20
-4.57962210165263
30
0
41
1
10
64.6215095084989
20
-4.62870226411968
30
0
41
1
10
63.8244172587465
20
-4.64738201056565
30
0
41
1
10
63.5581272893846
20
-4.64446623023085
30
0
41
1
10
63.0233094050192
20
-4.61997248686669
30
0
41
1
10
62.7543898395517
20
-4.5983266099062
30
0
41
1
10
61.9506195828572
20
-4.50604359596787
30
0
41
1
10
61.4164655555642
20
-4.40798440742478
30
0
41
1
10
60.6118153258932
20
-4.20867019062445
30
0
41
1
10
60.3432122123941
20
-4.13351762252464
30
0
41
1
10
59.8076086643634
20
-3.96727978820144
30
0
41
1
10
59.5401383021155
20
-3.87612164784801
30
0
41
1
10
59.0048106215342
20
-3.67866770344705
30
0
41
1
10
58.7370009941989
20
-3.57233307101137
30
0
41
1
10
58.2002427546468
20
-3.34514950072628
30
0
41
1
10
57.9320056271718
20
-3.22466312595964
30
0
41
1
10
57.1286833514862
20
-2.84535374825796
30
0
41
1
10
56.5938330859078
20
-2.56776470502692
30
0
41
1
10
54.983152122336
20
-1.67736647068202
30
0
41
1
10
53.9298535595716
20
-1.02240398741512
30
0
41
1
10
52.6026246985437
20
-0.184145480660362
30
0
41
1
10
52.3367021846219
20
-0.0154264368166821
30
0
41
1
10
51.9363159349414
20
0.238015741775399
30
0
41
1
10
51.8026045153675
20
0.322558605234462
30
0
41
1
10
51.5345934115847
20
0.491631636160065
30
0
41
1
10
51.4001415564687
20
0.576248956543481
30
0
41
1
10
50.7302606726631
20
0.996127422297889
30
0
41
1
10
50.1991000856614
20
1.32360216060548
30
0
41
1
10
49.1390531600097
20
1.95133966010747
30
0
41
1
10
48.6101581593943
20
2.25158689740417
30
0
41
1
10
47.8131887005794
20
2.67375901508814
30
0
41
1
10
47.5469220316996
20
2.80977487665129
30
0
41
1
10
47.0123141523374
20
3.07111406383635
30
0
41
1
10
46.7431559549953
20
3.1967524401629
30
0
41
1
10
45.4051155918338
20
3.7878241951702
30
0
41
1
10
44.3523024341574
20
4.14638903264421
30
0
41
1
10
43.0227721926448
20
4.42473873294276
30
0
41
1
10
42.7561569606546
20
4.47188420315427
30
0
41
1
10
42.2206677018143
20
4.54841806415519
30
0
41
1
10
41.9515292777964
20
4.57777446141822
30
0
41
1
10
41.3870560442377
20
4.61985412686542
30
0
41
1
10
41.0911089967265
20
4.63054337314921
30
0
41
1
10
40.7958023948935
20
4.62993371726401
30
0
0
SPLINE
5
108
100
AcDbEntity
8
1
62
256
6
ByLayer
370
18
48
1
60
0
100
AcDbSpline
70
4
71
3
72
26
73
22
40
0
40
0
40
0
40
0
40
0.0755418513126073
40
0.0755418513126073
40
0.14157457621885
40
0.14157457621885
40
0.207607301125093
40
0.207607301125093
40
0.471738200750062
40
0.471738200750062
40
0.537770925656305
40
0.537770925656305
40
0.603803650562546
40
0.603803650562546
40
0.735869100375031
40
0.735869100375031
40
0.867934550187516
40
0.867934550187516
40
0.933967275093757
40
0.933967275093757
40
1
40
1
40
1
40
1
41
1
10
20.2376711825356
20
-4.36602174766998
30
0
41
1
10
19.9336560626932
20
-4.42821712844716
30
0
41
1
10
19.6289380555548
20
-4.47924926592989
30
0
41
1
10
19.055206680368
20
-4.55299297928033
30
0
41
1
10
18.7857529953981
20
-4.57849511940879
30
0
41
1
10
18.24993771683
20
-4.61068114855644
30
0
41
1
10
17.9831766645832
20
-4.61747708832112
30
0
41
1
10
16.6525695610349
20
-4.60572200690316
30
0
41
1
10
15.5985276224232
20
-4.45027927780797
30
0
41
1
10
14.2585958383704
20
-4.08325600577092
30
0
41
1
10
13.9891329446742
20
-4.00098190703864
30
0
41
1
10
13.4539668270262
20
-3.82184103234317
30
0
41
1
10
13.1874253141565
20
-3.72478739779592
30
0
41
1
10
12.3894704374962
20
-3.41293452610756
30
0
41
1
10
11.8597730606565
20
-3.17741645507689
30
0
41
1
10
10.798013828276
20
-2.65938379219477
30
0
41
1
10
10.2661116149738
20
-2.3766489231345
30
0
41
1
10
9.46099826998287
20
-1.92353887146072
30
0
41
1
10
9.1916783068861
20
-1.76784406648159
30
0
41
1
10
8.65428512444106
20
-1.45078767891505
30
0
41
1
10
8.38565554633647
20
-1.28911683159626
30
0
41
1
10
8.11675196855293
20
-1.12480647676841
30
0
0
SPLINE
5
109
100
AcDbEntity
8
1
62
256
6
ByLayer
370
18
48
1
60
0
100
AcDbSpline
70
4
71
3
72
8
73
4
40
0
40
0
40
0
40
0
40
1
40
1
40
1
40
1
41
1
10
111.821334033527
20
1.21424300327692
30
0
41
1
10
111.879371002974
20
0.862917097326743
30
0
41
1
10
111.930598167477
20
0.51164267203805
30
0
41
1
10
111.974968952464
20
0.160420079504576
30
0
0
SPLINE
5
10A
100
AcDbEntity
8
1
62
256
6
ByLayer
370
18
48
1
60
0
100
AcDbSpline
70
4
71
3
72
10
73
6
40
0
40
0
40
0
40
0
40
0.5
40
0.5
40
1
40
1
40
1
40
1
41
1
10
110.489968120901
20
4.54717936531017
30
0
41
1
10
110.71823425694
20
3.99788076129462
30
0
41
1
10
110.944826940508
20
3.44602676578532
30
0
41
1
10
111.390157418749
20
2.33561950832268
30
0
41
1
10
111.608898498002
20
1.77706425467986
30
0
41
1
10
111.821334033527
20
1.21424300327871
30
0
0
SPLINE
5
10B
100
AcDbEntity
8
1
62
256
6
ByLayer
370
13
48
1
60
0
100
AcDbSpline
70
4
71
3
72
14
73
10
40
0
40
0
40
0
40
0
40
0.25
40
0.25
40
0.5
40
0.5
40
0.75
40
0.75
40
1
40
1
40
1
40
1
41
1
10
8.00000047073297
20
-0.916810971402924
30
0
41
1
10
8.00000047073297
20
-0.924207633860135
30
0
41
1
10
8.00255964684226
20
-0.931707117816643
30
0
41
1
10
8.01282092368399
20
-0.946056485670169
30
0
41
1
10
8.02037924010165
20
-0.952845298721115
30
0
41
1
10
8.04038845531946
20
-0.965653212390691
30
0
41
1
10
8.05309379241072
20
-0.971761252462642
30
0
41
1
10
8.08298192524711
20
-0.9826047582944
30
0
41
1
10
8.10005672187157
20
-0.987362556636072
30
0
41
1
10
8.11961282427063
20
-0.991386485988556
30
0
0
SPLINE
5
10C
100
AcDbEntity
8
1
62
256
6
ByLayer
370
18
48
1
60
0
100
AcDbSpline
70
4
71
3
72
21
73
17
40
0
40
0
40
0
40
0
40
0.128805469985635
40
0.229230421771725
40
0.301286440890301
40
0.352209221568829
40
0.408402495784237
40
0.472310019639337
40
0.543326212789088
40
0.609090433030622
40
0.681103015852282
40
0.739713349917819
40
0.801560663299118
40
0.85108381811369
40
0.920114535967836
40
1
40
1
40
1
40
1
41
1
10
40.9676614307886
20
-4.37311978550397
30
0
41
1
10
41.2249270347724
20
-4.37322896228608
30
0
41
1
10
41.6827767685697
20
-4.37345953263647
30
0
41
1
10
42.2844555137873
20
-4.37402589783011
30
0
41
1
10
42.7307306938231
20
-4.37426590231669
30
0
41
1
10
43.0884138639521
20
-4.37433536995547
30
0
41
1
10
43.4299420301836
20
-4.37448515482063
30
0
41
1
10
43.8116576346695
20
-4.37520311693476
30
0
41
1
10
44.2124933729437
20
-4.37527461343157
30
0
41
1
10
44.6294911051291
20
-4.37509712073083
30
0
41
1
10
45.0217145338686
20
-4.37535293718651
30
0
41
1
10
45.4061372841498
20
-4.37647541759219
30
0
41
1
10
45.7456385102966
20
-4.37626212544561
30
0
41
1
10
46.1059522615804
20
-4.37600314957194
30
0
41
1
10
46.5022944123295
20
-4.37618921344571
30
0
41
1
10
46.7997232050196
20
-4.37674995369014
30
0
41
1
10
46.9592775211557
20
-4.37717384852459
30
0
0
SPLINE
5
10D
100
AcDbEntity
8
1
62
256
6
ByLayer
370
18
48
1
60
0
100
AcDbSpline
70
4
71
3
72
8
73
4
40
0
40
0
40
0
40
0
40
1
40
1
40
1
40
1
41
1
10
46.9671836250405
20
-4.37719495376078
30
0
41
1
10
46.9751209292544
20
-4.37721624344104
30
0
41
1
10
46.9830582331829
20
-4.37723783780967
30
0
41
1
10
46.9909955368448
20
-4.37725973710093
30
0
0
SPLINE
5
10E
100
AcDbEntity
8
1
62
256
6
ByLayer
370
18
48
1
60
0
100
AcDbSpline
70
4
71
3
72
15
73
11
40
0
40
0
40
0
40
0
40
0.0289996438705694
40
0.24069384591971
40
0.415086482887178
40
0.554448349155613
40
0.665834216438978
40
0.787612325040145
40
0.931779544865022
40
1
40
1
40
1
40
1
41
1
10
93.0868743884803
20
4.40554001121589
30
0
41
1
10
93.0491930699448
20
4.40544154184568
30
0
41
1
10
92.7365122168669
20
4.40466927221101
30
0
41
1
10
92.1917435420896
20
4.40705268380452
30
0
41
1
10
91.5192614191266
20
4.40428833989262
30
0
41
1
10
90.9623653276767
20
4.40393638748731
30
0
41
1
10
90.4814389202421
20
4.40470868727769
30
0
41
1
10
89.9905750012344
20
4.4035087518327
30
0
41
1
10
89.5542152787555
20
4.40382049728549
30
0
41
1
10
89.278322611894
20
4.40355882911047
30
0
41
1
10
89.1897490202427
20
4.40344532652441
30
0
0
SPLINE
5
10F
100
AcDbEntity
8
1
62
256
6
ByLayer
370
18
48
1
60
0
100
AcDbSpline
70
4
71
3
72
18
73
14
40
0
40
0
40
0
40
0
40
0.135955238888248
40
0.246179699274245
40
0.32525555394881
40
0.400036706252414
40
0.47052621558358
40
0.543658493151039
40
0.632581447456145
40
0.753903255791973
40
0.881398802308602
40
0.992989240156251
40
1
40
1
40
1
40
1
41
1
10
46.9907933642447
20
4.37725934486215
30
0
41
1
10
46.8207337816519
20
4.37679016937548
30
0
41
1
10
46.5127997604266
20
4.37619339492232
30
0
41
1
10
46.1059521946841
20
4.37600492906293
30
0
41
1
10
45.7756256479255
20
4.37623608690458
30
0
41
1
10
45.4950006548205
20
4.37643581319549
30
0
41
1
10
45.2218110453184
20
4.37596913214563
30
0
41
1
10
44.9309313652334
20
4.37524452272132
30
0
41
1
10
44.5764890072909
20
4.37511283671077
30
0
41
1
10
44.1540459248256
20
4.37533408452268
30
0
41
1
10
43.7032270165615
20
4.37501093901443
30
0
41
1
10
43.3953866813494
20
4.3745245597807
30
0
41
1
10
43.2470757758045
20
4.3744158126062
30
0
41
1
10
43.2383089503272
20
4.37440978571126
30
0
0
SPLINE
5
110
100
AcDbEntity
8
1
62
256
6
ByLayer
370
18
48
1
60
0
100
AcDbSpline
70
4
71
2
72
6
73
3
40
0
40
0
40
0
40
1
40
1
40
1
41
1
10
98.3088938544903
20
0.0022274908566828
30
0
41
1
10
98.3088745687213
20
0.0022386520816724
30
0
41
1
10
98.3088552830598
20
0.002250237350836
30
0
0
SPLINE
5
111
100
AcDbEntity
8
1
62
256
6
ByLayer
370
18
48
1
60
0
100
AcDbSpline
70
4
71
1
72
4
73
2
40
0
40
0
40
1
40
1
41
1
10
29.3097738803211
20
0.0013814069932323
30
0
41
1
10
29.3097659839923
20
0.0013916371959795
30
0
0
SPLINE
5
112
100
AcDbEntity
8
1
62
256
6
ByLayer
370
18
48
1
60
0
100
AcDbSpline
70
4
71
3
72
20
73
16
40
0
40
0
40
0
40
0
40
0.127887200947643
40
0.219828582990956
40
0.286029537870873
40
0.341030038831221
40
0.395912023271524
40
0.457396005127301
40
0.533709477862041
40
0.630757370164876
40
0.712387351657385
40
0.777836082280819
40
0.867988215931524
40
0.994600582252135
40
1
40
1
40
1
40
1
41
1
10
17.9670913768259
20
-4.35864028884023
30
0
41
1
10
18.2244136626808
20
-4.35878124095922
30
0
41
1
10
18.6667304227979
20
-4.35904907345065
30
0
41
1
10
19.2423852687363
20
-4.35936608377301
30
0
41
1
10
19.6711726000243
20
-4.35974652342162
30
0
41
1
10
20.02488857263
20
-4.35989366282087
30
0
41
1
10
20.3699299163177
20
-4.360141882774
30
0
41
1
10
20.7577602563415
20
-4.36081131911487
30
0
41
1
10
21.2304940138408
20
-4.36080362727449
30
0
41
1
10
21.7437801599148
20
-4.36098717065661
30
0
41
1
10
22.2352033403457
20
-4.3617254538554
30
0
41
1
10
22.7127323017547
20
-4.36168043664307
30
0
41
1
10
23.2808228035446
20
-4.36138024459049
30
0
41
1
10
23.7280295025009
20
-4.36330122610019
30
0
41
1
10
23.9937527951762
20
-4.36322097137335
30
0
41
1
10
24.0046211401848
20
-4.36321728500033
30
0
0
SPLINE
5
113
100
AcDbEntity
8
1
62
256
6
ByLayer
370
18
48
1
60
0
100
AcDbSpline
70
4
71
3
72
20
73
16
40
0
40
0
40
0
40
0
40
0.124252698017508
40
0.242864925390049
40
0.351883210064306
40
0.437841499763145
40
0.503267837372615
40
0.540796965985216
40
0.576719600724872
40
0.6123403701672
40
0.667883193133177
40
0.750256671109298
40
0.859412811374526
40
0.995385338094449
40
1
40
1
40
1
40
1
41
1
10
63.9671393919503
20
-4.38750381015691
30
0
41
1
10
64.214647084997
20
-4.38717928529471
30
0
41
1
10
64.6995739481867
20
-4.38694336840427
30
0
41
1
10
65.4119914080499
20
-4.38715106787879
30
0
41
1
10
66.0383628252138
20
-4.38926839849429
30
0
41
1
10
66.5627762783024
20
-4.38898080987121
30
0
41
1
10
66.9435712702365
20
-4.38923978859563
30
0
41
1
10
67.2234380555134
20
-4.38969363439972
30
0
41
1
10
67.4432612073119
20
-4.38993207237152
30
0
41
1
10
67.6993735743239
20
-4.39003264045638
30
0
41
1
10
68.0490674699464
20
-4.38998742172933
30
0
41
1
10
68.5469817610533
20
-4.39038532622851
30
0
41
1
10
69.2070097260256
20
-4.39104681332174
30
0
41
1
10
69.7103353577872
20
-4.39030914022842
30
0
41
1
10
69.9936417928462
20
-4.39059564032655
30
0
41
1
10
70.0029410852429
20
-4.39060521638874
30
0
0
SPLINE
5
114
100
AcDbEntity
8
1
62
256
6
ByLayer
370
18
48
1
60
0
100
AcDbSpline
70
4
71
3
72
16
73
12
40
0
40
0
40
0
40
0
40
0.0539026433761968
40
0.227714838589405
40
0.384955933200771
40
0.516521438670094
40
0.625682583083388
40
0.780450346500761
40
0.932147637708334
40
0.980213315805308
40
1
40
1
40
1
40
1
41
1
10
24.1610919834398
20
4.36166812893126
30
0
41
1
10
24.0913691208875
20
4.36153737418567
30
0
41
1
10
23.796753546739
20
4.36107831536583
30
0
41
1
10
23.2894742775425
20
4.36044686493386
30
0
41
1
10
22.6990327055167
20
4.36204697211284
30
0
41
1
10
22.1782520813936
20
4.36127485342095
30
0
41
1
10
21.6632006725297
20
4.36098999997893
30
0
41
1
10
21.1204226065558
20
4.36085090055161
30
0
41
1
10
20.6573434105358
20
4.36063367088457
30
0
41
1
10
20.370578950521
20
4.36019345428033
30
0
41
1
10
20.2819658614525
20
4.36009571245776
30
0
41
1
10
20.2561257985814
20
4.36006993041474
30
0
0
SPLINE
5
115
100
AcDbEntity
8
1
62
256
6
ByLayer
370
18
48
1
60
0
100
AcDbSpline
70
4
71
3
72
16
73
12
40
0
40
0
40
0
40
0
40
0.177827895397249
40
0.31761250475001
40
0.403523146128948
40
0.48501456130359
40
0.591398964211112
40
0.723156511363348
40
0.856583460692146
40
0.964574718217675
40
1
40
1
40
1
40
1
41
1
10
69.9648003099425
20
4.39064222015011
30
0
41
1
10
69.7410763413152
20
4.39064080285971
30
0
41
1
10
69.3414724211068
20
4.39055852117312
30
0
41
1
10
68.8338062180995
20
4.39086660504418
30
0
41
1
10
68.4472351919421
20
4.39027364541832
30
0
41
1
10
68.1034169043321
20
4.39003700802729
30
0
41
1
10
67.7012872940601
20
4.3900324156248
30
0
41
1
10
67.2338099837419
20
4.38972226301186
30
0
41
1
10
66.7642877837397
20
4.38898659840791
30
0
41
1
10
66.4159821318291
20
4.38903128986038
30
0
41
1
10
66.2355356358703
20
4.38901420862322
30
0
41
1
10
66.1909641046786
20
4.38900645448945
30
0
0
SPLINE
5
116
100
AcDbEntity
8
1
62
256
6
ByLayer
370
18
48
1
60
0
100
AcDbSpline
70
4
71
1
72
4
73
2
40
0
40
0
40
1
40
1
41
1
10
109.966972060505
20
-4.41621213824894
30
0
41
1
10
110.377889593645
20
-4.41649036705988
30
0
0
SPLINE
5
117
100
AcDbEntity
8
1
62
256
6
ByLayer
370
18
48
1
60
0
100
AcDbSpline
70
4
71
3
72
17
73
13
40
0
40
0
40
0
40
0
40
0.161600411755546
40
0.295214520640571
40
0.406672035490626
40
0.498510923490601
40
0.576087269143232
40
0.64704344218164
40
0.735821174412838
40
0.846914569201156
40
0.98177019156437
40
1
40
1
40
1
40
1
41
1
10
86.9668045325508
20
-4.40174407144204
30
0
41
1
10
87.2954190289385
20
-4.40135653009543
30
0
41
1
10
87.8963226623493
20
-4.4011428523437
30
0
41
1
10
88.7296247148187
20
-4.40269302982756
30
0
41
1
10
89.414827333409
20
-4.40392007843425
30
0
41
1
10
89.9905749988127
20
-4.40350875414285
30
0
41
1
10
90.4814389292138
20
-4.4047086803462
30
0
41
1
10
90.9623652947755
20
-4.40393641353481
30
0
41
1
10
91.5192615950779
20
-4.40428820117478
30
0
41
1
10
92.1917426294132
20
-4.40705340379054
30
0
41
1
10
92.7360124742905
20
-4.40466939831609
30
0
41
1
10
93.0481978129621
20
-4.40543965941319
30
0
41
1
10
93.0853818695645
20
-4.40553666793525
30
0
0
LINE
5
7B
100
AcDbEntity
8
SK1
62
256
6
ByLayer
370
13
48
1
60
0
100
AcDbLine
10
-39.35
20
2.668487
30
0
11
-39.35
21
0.853519
31
0
39
0
210
0
220
0
230
1
0
LINE
5
7D
100
AcDbEntity
8
SK1
62
256
6
ByLayer
370
18
48
1
60
0
100
AcDbLine
10
-40
20
3.66
30
0
11
-40
21
2.386366
31
0
39
0
210
0
220
0
230
1
0
LINE
5
7E
100
AcDbEntity
8
SK1
62
256
6
ByLayer
370
18
48
1
60
0
100
AcDbLine
10
-39.25
20
0.996651
30
0
11
-39.25
21
2.630159
31
0
39
0
210
0
220
0
230
1
0
LINE
5
7F
100
AcDbEntity
8
SK1
62
256
6
ByLayer
370
18
48
1
60
0
100
AcDbLine
10
0
20
-5
30
0
11
0
21
5
31
0
39
0
210
0
220
0
230
1
0
LINE
5
80
100
AcDbEntity
8
SK1
62
256
6
ByLayer
370
18
48
1
60
0
100
AcDbLine
10
-40
20
2.386366
30
0
11
-40
21
0.571386
31
0
39
0
210
0
220
0
230
1
0
LINE
5
81
100
AcDbEntity
8
SK1
62
256
6
ByLayer
370
18
48
1
60
0
100
AcDbLine
10
-40
20
0.571358
30
0
11
-40
21
-3.66
31
0
39
0
210
0
220
0
230
1
0
LINE
5
82
100
AcDbEntity
8
SK1
62
256
6
ByLayer
370
18
48
1
60
0
100
AcDbLine
10
-38.66
20
5
30
0
11
-38.66
21
-5
31
0
39
0
210
0
220
0
230
1
0
LINE
5
83
100
AcDbEntity
8
1
62
256
6
ByLayer
370
18
48
1
60
0
100
AcDbLine
10
109.640812
20
-3.240324
30
0
11
111.860748
21
-0.227224
31
0
39
0
210
0
220
0
230
1
0
LINE
5
84
100
AcDbEntity
8
1
62
256
6
ByLayer
370
18
48
1
60
0
100
AcDbLine
10
8
20
-0.918468
30
0
11
8
21
3.195595
31
0
39
0
210
0
220
0
230
1
0
LINE
5
85
100
AcDbEntity
8
1
62
256
6
ByLayer
370
13
48
1
60
0
100
AcDbLine
10
110.362372
20
1.181233
30
0
11
111.974969
21
0.16042
31
0
39
0
210
0
220
0
230
1
0
LINE
5
86
100
AcDbEntity
8
1
62
256
6
ByLayer
370
13
48
1
60
0
100
AcDbLine
10
0.526244
20
4.802551
30
0
11
0.526244
21
-4.802551
31
0
39
0
210
0
220
0
230
1
0
LINE
5
87
100
AcDbEntity
8
1
62
256
6
ByLayer
370
13
48
1
60
0
100
AcDbLine
10
110.260867
20
1.063675
30
0
11
111.971862
21
-0.019426
31
0
39
0
210
0
220
0
230
1
0
LINE
5
88
100
AcDbEntity
8
1
62
256
6
ByLayer
370
18
48
1
60
0
100
AcDbLine
10
0
20
-5
30
0
11
0
21
5
31
0
39
0
210
0
220
0
230
1
0
LINE
5
89
100
AcDbEntity
8
1
62
256
6
ByLayer
370
13
48
1
60
0
100
AcDbLine
10
1.052987
20
4.605102
30
0
11
1.052987
21
-4.605102
31
0
39
0
210
0
220
0
230
1
0
LINE
5
8A
100
AcDbEntity
8
80
62
256
6
ByLayer
370
18
48
1
60
0
100
AcDbLine
10
0
20
0
30
0
11
-5
21
0
31
0
39
0
210
0
220
0
230
1
0
LINE
5
8B
100
AcDbEntity
8
4
62
256
6
ByLayer
370
18
48
0.05
60
0
100
AcDbLine
10
112
20
0
30
0
11
0
21
0
31
0
39
0
210
0
220
0
230
1
0
LINE
5
8D
100
AcDbEntity
8
SK4
62
256
6
ByLayer
370
18
48
0.05
60
0
100
AcDbLine
10
117
20
0
30
0
11
-45
21
0
31
0
39
0
210
0
220
0
230
1
0
LINE
5
8F
100
AcDbEntity
8
SK1
62
256
6
ByLayer
370
18
48
1
60
0
100
AcDbLine
10
-38.66
20
-5
30
0
11
0
21
-5
31
0
39
0
210
0
220
0
230
1
0
LINE
5
90
100
AcDbEntity
8
SK1
62
256
6
ByLayer
370
18
48
1
60
0
100
AcDbLine
10
0
20
5
30
0
11
-38.66
21
5
31
0
39
0
210
0
220
0
230
1
0
LINE
5
91
100
AcDbEntity
8
SK1
62
256
6
ByLayer
370
18
48
1
60
0
100
AcDbLine
10
-40
20
-3.66
30
0
11
-38.66
21
-5
31
0
39
0
210
0
220
0
230
1
0
LINE
5
92
100
AcDbEntity
8
SK1
62
256
6
ByLayer
370
18
48
1
60
0
100
AcDbLine
10
-38.66
20
5
30
0
11
-40
21
3.66
31
0
39
0
210
0
220
0
230
1
0
LINE
5
93
100
AcDbEntity
8
1
62
256
6
ByLayer
370
18
48
1
60
0
100
AcDbLine
10
1.052987
20
-4.605102
30
0
11
6.24902
21
-4.60835
31
0
39
0
210
0
220
0
230
1
0
LINE
5
94
100
AcDbEntity
8
1
62
256
6
ByLayer
370
18
48
1
60
0
100
AcDbLine
10
16.768241
20
-4.614924
30
0
11
17.812174
21
-4.615577
31
0
39
0
210
0
220
0
230
1
0
LINE
5
95
100
AcDbEntity
8
1
62
256
6
ByLayer
370
18
48
1
60
0
100
AcDbLine
10
39.772624
20
-4.629302
30
0
11
40.812544
21
-4.629952
31
0
39
0
210
0
220
0
230
1
0
LINE
5
96
100
AcDbEntity
8
1
62
256
6
ByLayer
370
18
48
1
60
0
100
AcDbLine
10
62.777648
20
-4.64368
30
0
11
63.812483
21
-4.644327
31
0
39
0
210
0
220
0
230
1
0
LINE
5
97
100
AcDbEntity
8
1
62
256
6
ByLayer
370
18
48
1
60
0
100
AcDbLine
10
85.781311
20
-4.658057
30
0
11
86.811858
21
-4.658701
31
0
39
0
210
0
220
0
230
1
0
LINE
5
98
100
AcDbEntity
8
1
62
256
6
ByLayer
370
18
48
1
60
0
100
AcDbLine
10
108.784369
20
-4.672434
30
0
11
109.812662
21
-4.673077
31
0
39
0
210
0
220
0
230
1
0
LINE
5
99
100
AcDbEntity
8
1
62
256
6
ByLayer
370
18
48
1
60
0
100
AcDbLine
10
109.81259
20
4.673077
30
0
11
108.784369
21
4.672434
31
0
39
0
210
0
220
0
230
1
0
LINE
5
9A
100
AcDbEntity
8
1
62
256
6
ByLayer
370
18
48
1
60
0
100
AcDbLine
10
86.812114
20
4.658702
30
0
11
85.781311
21
4.658057
31
0
39
0
210
0
220
0
230
1
0
LINE
5
9B
100
AcDbEntity
8
1
62
256
6
ByLayer
370
18
48
1
60
0
100
AcDbLine
10
63.812256
20
4.644327
30
0
11
62.777648
21
4.64368
31
0
39
0
210
0
220
0
230
1
0
LINE
5
9C
100
AcDbEntity
8
1
62
256
6
ByLayer
370
18
48
1
60
0
100
AcDbLine
10
40.812602
20
4.629952
30
0
11
39.772624
21
4.629302
31
0
39
0
210
0
220
0
230
1
0
LINE
5
9D
100
AcDbEntity
8
1
62
256
6
ByLayer
370
18
48
1
60
0
100
AcDbLine
10
17.812427
20
4.615577
30
0
11
16.768241
21
4.614924
31
0
39
0
210
0
220
0
230
1
0
LINE
5
9E
100
AcDbEntity
8
1
62
256
6
ByLayer
370
18
48
1
60
0
100
AcDbLine
10
6.24902
20
4.60835
30
0
11
1.052987
21
4.605102
31
0
39
0
210
0
220
0
230
1
0
LINE
5
9F
100
AcDbEntity
8
81
62
256
6
ByLayer
370
18
48
1
60
0
100
AcDbLine
10
112
20
0
30
0
11
117
21
0
31
0
39
0
210
0
220
0
230
1
0
LINE
5
A0
100
AcDbEntity
8
SK2
62
256
6
ByLayer
370
13
48
1
60
0
100
AcDbLine
10
-48.625163
20
-5
30
0
11
-48.625163
21
35.857173
31
0
39
0
210
0
220
0
230
1
0
LINE
5
A2
100
AcDbEntity
8
SK2
62
256
6
ByLayer
370
13
48
1
60
0
100
AcDbLine
10
-41.5875
20
5
30
0
11
-50.625163
21
5
31
0
39
0
210
0
220
0
230
1
0
LINE
5
A3
100
AcDbEntity
8
SK2
62
256
6
ByLayer
370
13
48
1
60
0
100
AcDbLine
10
-41.5875
20
-5
30
0
11
-50.625163
21
-5
31
0
39
0
210
0
220
0
230
1
0
LINE
5
A4
100
AcDbEntity
8
1
62
256
6
ByLayer
370
18
48
1
60
1
100
AcDbLine
10
-48.625163
20
5
30
0
11
-48.164379
21
1.500002
31
0
39
0
210
0
220
0
230
1
0
LINE
5
A5
100
AcDbEntity
8
1
62
256
6
ByLayer
370
18
48
1
60
1
100
AcDbLine
10
-48.164379
20
1.500002
30
0
11
-49.085946
21
1.499998
31
0
39
0
210
0
220
0
230
1
0
LINE
5
A6
100
AcDbEntity
8
1
62
256
6
ByLayer
370
18
48
1
60
1
100
AcDbLine
10
-49.085946
20
1.499998
30
0
11
-48.625163
21
5
31
0
39
0
210
0
220
0
230
1
0
LINE
5
A7
100
AcDbEntity
8
1
62
256
6
ByLayer
370
18
48
1
60
1
100
AcDbLine
10
-48.625163
20
-5
30
0
11
-49.085946
21
-1.500002
31
0
39
0
210
0
220
0
230
1
0
LINE
5
A8
100
AcDbEntity
8
1
62
256
6
ByLayer
370
18
48
1
60
1
100
AcDbLine
10
-49.085946
20
-1.500002
30
0
11
-48.164379
21
-1.499998
31
0
39
0
210
0
220
0
230
1
0
LINE
5
A9
100
AcDbEntity
8
1
62
256
6
ByLayer
370
18
48
1
60
1
100
AcDbLine
10
-48.164379
20
-1.499998
30
0
11
-48.625163
21
-5
31
0
39
0
210
0
220
0
230
1
0
LINE
5
AA
100
AcDbEntity
8
2
62
256
6
ByLayer
370
13
48
1
60
0
100
AcDbLine
10
124.083343
20
-4.6735
30
0
11
124.083343
21
32.752227
31
0
39
0
210
0
220
0
230
1
0
LINE
5
AC
100
AcDbEntity
8
2
62
256
6
ByLayer
370
13
48
1
60
0
100
AcDbLine
10
112.2015
20
4.6735
30
0
11
126.083343
21
4.6735
31
0
39
0
210
0
220
0
230
1
0
LINE
5
AD
100
AcDbEntity
8
2
62
256
6
ByLayer
370
13
48
1
60
0
100
AcDbLine
10
112.2015
20
-4.6735
30
0
11
126.083343
21
-4.6735
31
0
39
0
210
0
220
0
230
1
0
LINE
5
AE
100
AcDbEntity
8
1
62
256
6
ByLayer
370
18
48
1
60
1
100
AcDbLine
10
124.083343
20
4.6735
30
0
11
124.544126
21
1.173502
31
0
39
0
210
0
220
0
230
1
0
LINE
5
AF
100
AcDbEntity
8
1
62
256
6
ByLayer
370
18
48
1
60
1
100
AcDbLine
10
124.544126
20
1.173502
30
0
11
123.622559
21
1.173498
31
0
39
0
210
0
220
0
230
1
0
LINE
5
B0
100
AcDbEntity
8
1
62
256
6
ByLayer
370
18
48
1
60
1
100
AcDbLine
10
123.622559
20
1.173498
30
0
11
124.083343
21
4.6735
31
0
39
0
210
0
220
0
230
1
0
LINE
5
B1
100
AcDbEntity
8
1
62
256
6
ByLayer
370
18
48
1
60
1
100
AcDbLine
10
124.083343
20
-4.6735
30
0
11
123.622559
21
-1.173502
31
0
39
0
210
0
220
0
230
1
0
LINE
5
B2
100
AcDbEntity
8
1
62
256
6
ByLayer
370
18
48
1
60
1
100
AcDbLine
10
123.622559
20
-1.173502
30
0
11
124.544126
21
-1.173498
31
0
39
0
210
0
220
0
230
1
0
LINE
5
B3
100
AcDbEntity
8
1
62
256
6
ByLayer
370
18
48
1
60
1
100
AcDbLine
10
124.544126
20
-1.173498
30
0
11
124.083343
21
-4.6735
31
0
39
0
210
0
220
0
230
1
0
LINE
5
11E
100
AcDbEntity
8
1
62
256
6
ByLayer
370
18
48
1
60
1
100
AcDbLine
10
-48.625163
20
5
30
0
11
-48.164379
21
1.500002
31
0
39
0
210
0
220
0
230
1
0
LINE
5
11F
100
AcDbEntity
8
1
62
256
6
ByLayer
370
18
48
1
60
1
100
AcDbLine
10
-48.164379
20
1.500002
30
0
11
-49.085946
21
1.499998
31
0
39
0
210
0
220
0
230
1
0
LINE
5
120
100
AcDbEntity
8
1
62
256
6
ByLayer
370
18
48
1
60
1
100
AcDbLine
10
-49.085946
20
1.499998
30
0
11
-48.625163
21
5
31
0
39
0
210
0
220
0
230
1
0
LINE
5
122
100
AcDbEntity
8
1
62
256
6
ByLayer
370
18
48
1
60
1
100
AcDbLine
10
-48.625163
20
-5
30
0
11
-49.085946
21
-1.500002
31
0
39
0
210
0
220
0
230
1
0
LINE
5
123
100
AcDbEntity
8
1
62
256
6
ByLayer
370
18
48
1
60
1
100
AcDbLine
10
-49.085946
20
-1.500002
30
0
11
-48.164379
21
-1.499998
31
0
39
0
210
0
220
0
230
1
0
LINE
5
124
100
AcDbEntity
8
1
62
256
6
ByLayer
370
18
48
1
60
1
100
AcDbLine
10
-48.164379
20
-1.499998
30
0
11
-48.625163
21
-5
31
0
39
0
210
0
220
0
230
1
0
LINE
5
128
100
AcDbEntity
8
1
62
256
6
ByLayer
370
18
48
1
60
1
100
AcDbLine
10
124.083343
20
4.6735
30
0
11
124.544126
21
1.173502
31
0
39
0
210
0
220
0
230
1
0
LINE
5
129
100
AcDbEntity
8
1
62
256
6
ByLayer
370
18
48
1
60
1
100
AcDbLine
10
124.544126
20
1.173502
30
0
11
123.622559
21
1.173498
31
0
39
0
210
0
220
0
230
1
0
LINE
5
12A
100
AcDbEntity
8
1
62
256
6
ByLayer
370
18
48
1
60
1
100
AcDbLine
10
123.622559
20
1.173498
30
0
11
124.083343
21
4.6735
31
0
39
0
210
0
220
0
230
1
0
LINE
5
12C
100
AcDbEntity
8
1
62
256
6
ByLayer
370
18
48
1
60
1
100
AcDbLine
10
124.083343
20
-4.6735
30
0
11
123.622559
21
-1.173502
31
0
39
0
210
0
220
0
230
1
0
LINE
5
12D
100
AcDbEntity
8
1
62
256
6
ByLayer
370
18
48
1
60
1
100
AcDbLine
10
123.622559
20
-1.173502
30
0
11
124.544126
21
-1.173498
31
0
39
0
210
0
220
0
230
1
0
LINE
5
12E
100
AcDbEntity
8
1
62
256
6
ByLayer
370
18
48
1
60
1
100
AcDbLine
10
124.544126
20
-1.173498
30
0
11
124.083343
21
-4.6735
31
0
39
0
210
0
220
0
230
1
0
MTEXT
5
118
100
AcDbEntity
8
SK6
62
256
6
ByLayer
370
13
48
1
60
0
100
AcDbMText
10
6.854807
20
37.213828
30
0
210
0
220
0
230
1
1
\W0.7670;462.1-0935-070A1-XM X2BM
40
3.5
41
0
44
1.084337
50
0
71
7
72
5
7
iso_b_vert
0
MTEXT
5
11C
100
AcDbEntity
8
SK2
62
256
6
ByLayer
370
18
48
1
60
0
100
AcDbMText
10
-50.189796
20
18.409024
30
0
210
0
220
0
230
1
1
%%c
40
3.5
41
0
44
1.084337
50
90
71
7
72
5
7
iso_b_vert
0
MTEXT
5
11D
100
AcDbEntity
8
SK2
62
256
6
ByLayer
370
18
48
1
60
0
100
AcDbMText
10
-50.189796
20
23.63168
30
0
210
0
220
0
230
1
1
\W0.6930;10,000
40
3.5
41
0
44
1.084337
50
90
71
7
72
5
7
iso_b_vert
0
MTEXT
5
126
100
AcDbEntity
8
2
62
256
6
ByLayer
370
18
48
1
60
0
100
AcDbMText
10
122.518709
20
16.67561
30
0
210
0
220
0
230
1
1
%%c
40
3.5
41
0
44
1.084337
50
90
71
7
72
5
7
iso_b_vert
0
MTEXT
5
127
100
AcDbEntity
8
2
62
256
6
ByLayer
370
18
48
1
60
0
100
AcDbMText
10
122.518709
20
21.898266
30
0
210
0
220
0
230
1
1
\W0.7581;9,347
40
3.5
41
0
44
1.084337
50
90
71
7
72
5
7
iso_b_vert
0
HATCH
5
121
100
AcDbEntity
8
SK2
62
256
6
ByLayer
370
13
48
1
60
0
100
AcDbHatch
10
0
20
0
30
0
210
0
220
0
230
1
2
ANSI31
70
0
71
0
91
1
92
5
93
3
72
1
10
-48.6251625675374
20
5
11
-48.1643788259847
21
1.50000169255318
72
1
10
-48.1643788259847
20
1.50000169255318
11
-49.0859463090902
21
1.49999830744682
72
1
10
-49.0859463090902
20
1.49999830744682
11
-48.6251625675374
21
5
97
0
75
0
76
1
52
0
41
0.0062
77
0
78
1
53
45
43
0
44
0
45
-0.0139193969876572
46
0.0139193969876572
79
0
47
0
98
1
10
0
20
0
0
HATCH
5
125
100
AcDbEntity
8
SK2
62
256
6
ByLayer
370
13
48
1
60
0
100
AcDbHatch
10
0
20
0
30
0
210
0
220
0
230
1
2
ANSI31
70
0
71
0
91
1
92
5
93
3
72
1
10
-48.6251625675374
20
-5
11
-49.0859463090902
21
-1.50000169255318
72
1
10
-49.0859463090902
20
-1.50000169255318
11
-48.1643788259847
21
-1.49999830744682
72
1
10
-48.1643788259847
20
-1.49999830744682
11
-48.6251625675374
21
-5
97
0
75
0
76
1
52
0
41
0.0062
77
0
78
1
53
45
43
0
44
0
45
-0.0139193969876572
46
0.0139193969876572
79
0
47
0
98
1
10
0
20
0
0
HATCH
5
12B
100
AcDbEntity
8
2
62
256
6
ByLayer
370
13
48
1
60
0
100
AcDbHatch
10
0
20
0
30
0
210
0
220
0
230
1
2
ANSI31
70
0
71
0
91
1
92
5
93
3
72
1
10
124.083342615295
20
4.67350000000002
11
124.544126356848
21
1.1735016925532
72
1
10
124.544126356848
20
1.1735016925532
11
123.622558873742
21
1.17349830744684
72
1
10
123.622558873742
20
1.17349830744684
11
124.083342615295
21
4.67350000000002
97
0
75
0
76
1
52
0
41
0.0062
77
0
78
1
53
45
43
0
44
0
45
-0.0139193969876572
46
0.0139193969876572
79
0
47
0
98
1
10
0
20
0
0
HATCH
5
12F
100
AcDbEntity
8
2
62
256
6
ByLayer
370
13
48
1
60
0
100
AcDbHatch
10
0
20
0
30
0
210
0
220
0
230
1
2
ANSI31
70
0
71
0
91
1
92
5
93
3
72
1
10
124.083342615295
20
-4.67349999999999
11
123.622558873742
21
-1.17350169255317
72
1
10
123.622558873742
20
-1.17350169255317
11
124.544126356848
21
-1.17349830744681
72
1
10
124.544126356848
20
-1.17349830744681
11
124.083342615295
21
-4.67349999999999
97
0
75
0
76
1
52
0
41
0.0062
77
0
78
1
53
45
43
0
44
0
45
-0.0139193969876572
46
0.0139193969876572
79
0
47
0
98
1
10
0
20
0
0
DIMENSION
5
131
100
AcDbEntity
8
SK2
62
256
6
ByLayer
370
13
48
1
60
0
100
AcDbDimension
2
_U0
10
110.614
20
-14.886898
30
0
11
55.307
21
-14.886898
31
0
70
32
71
1
72
1
41
1
210
0
220
0
230
1
3
Standard
100
AcDbAlignedDimension
13
0
23
0
33
0
14
110.614
24
-4.6735
34
0
50
0
100
AcDbRotatedDimension
1001
ACAD
1000
DSTYLE
1002
{
1070
   371
1070
    13
1070
   372
1070
    13
1070
   170
1070
     0
1070
   144
1040
1.0
1070
   277
1070
     2
1070
   278
1070
    44
1070
   146
1040
1.0
1070
   345
1005
16
1070
   347
1005
16
1070
   346
1005
16
1070
   344
1005
0
1070
   343
1005
0
1070
   172
1070
     1
1070
    76
1070
     0
1070
    75
1070
     0
1070
   282
1070
     0
1070
   281
1070
     0
1070
    71
1070
     0
1070
    74
1070
     0
1070
   279
1070
     0
1070
   173
1070
     1
1070
   340
1005
119
1070
   271
1070
     2
1070
   272
1070
     2
1070
    77
1070
     1
1070
    73
1070
     1
1070
   171
1070
     3
1070
   274
1070
     4
1070
   177
1070
    35
1070
   176
1070
    35
1070
   178
1070
    35
1070
    48
1040
-0.1
1070
    41
1040
3.5
1070
   147
1040
1.75
1070
    42
1040
1.5875
1070
    44
1040
2.0
1070
   140
1040
3.5
1002
}
1001
ACAD_DSTYLE_DIM_LINETYPE
1070
   380
1005
16
1001
ACAD_DSTYLE_DIM_EXT1_LINETYPE
1070
   381
1005
16
1001
ACAD_DSTYLE_DIM_EXT2_LINETYPE
1070
   382
1005
16
0
DIMENSION
5
14A
100
AcDbEntity
8
SK2
62
256
6
ByLayer
370
13
48
1
60
0
100
AcDbDimension
2
_U1
10
112
20
-33.692985
30
0
11
36
21
-33.692985
31
0
70
32
71
1
72
1
41
1
210
0
220
0
230
1
3
Standard
100
AcDbAlignedDimension
13
-40
23
-5
33
0
14
112
24
0
34
0
50
0
100
AcDbRotatedDimension
1001
ACAD
1000
DSTYLE
1002
{
1070
   371
1070
    13
1070
   372
1070
    13
1070
   170
1070
     0
1070
   144
1040
1.0
1070
   277
1070
     2
1070
   278
1070
    44
1070
   146
1040
1.0
1070
   345
1005
16
1070
   347
1005
16
1070
   346
1005
16
1070
   344
1005
0
1070
   343
1005
0
1070
   172
1070
     1
1070
    76
1070
     0
1070
    75
1070
     0
1070
   282
1070
     0
1070
   281
1070
     0
1070
    71
1070
     0
1070
    74
1070
     0
1070
   279
1070
     0
1070
   173
1070
     1
1070
   340
1005
119
1070
   271
1070
     2
1070
   272
1070
     2
1070
    77
1070
     1
1070
    73
1070
     1
1070
   171
1070
     3
1070
   274
1070
     4
1070
   177
1070
    35
1070
   176
1070
    35
1070
   178
1070
    35
1070
    48
1040
-0.1
1070
    41
1040
3.5
1070
   147
1040
1.75
1070
    42
1040
1.5875
1070
    44
1040
2.0
1070
   140
1040
3.5
1002
}
1001
ACAD_DSTYLE_DIM_LINETYPE
1070
   380
1005
16
1001
ACAD_DSTYLE_DIM_EXT1_LINETYPE
1070
   381
1005
16
1001
ACAD_DSTYLE_DIM_EXT2_LINETYPE
1070
   382
1005
16
0
DIMENSION
5
162
100
AcDbEntity
8
SK2
62
256
6
ByLayer
370
13
48
1
60
0
100
AcDbDimension
2
_U2
10
112
20
16.282619
30
0
11
73.905
21
16.282619
31
0
70
32
71
1
72
1
41
1
210
0
220
0
230
1
3
Standard
100
AcDbAlignedDimension
13
35.81
23
4.6735
33
0
14
112
24
0
34
0
50
0
100
AcDbRotatedDimension
1001
ACAD
1000
DSTYLE
1002
{
1070
   371
1070
    13
1070
   372
1070
    13
1070
   170
1070
     0
1070
   144
1040
1.0
1070
   277
1070
     2
1070
   278
1070
    44
1070
   146
1040
1.0
1070
   345
1005
16
1070
   347
1005
16
1070
   346
1005
16
1070
   344
1005
0
1070
   343
1005
0
1070
   172
1070
     1
1070
    76
1070
     0
1070
    75
1070
     0
1070
   282
1070
     0
1070
   281
1070
     0
1070
    71
1070
     0
1070
    74
1070
     0
1070
   279
1070
     0
1070
   173
1070
     1
1070
   340
1005
119
1070
   271
1070
     2
1070
   272
1070
     2
1070
    77
1070
     1
1070
    73
1070
     1
1070
   171
1070
     3
1070
   274
1070
     4
1070
   177
1070
    35
1070
   176
1070
    35
1070
   178
1070
    35
1070
    48
1040
-0.1
1070
    41
1040
3.5
1070
   147
1040
1.75
1070
    42
1040
1.5875
1070
    44
1040
2.0
1070
   140
1040
3.5
1002
}
1001
ACAD_DSTYLE_DIM_LINETYPE
1070
   380
1005
16
1001
ACAD_DSTYLE_DIM_EXT1_LINETYPE
1070
   381
1005
16
1001
ACAD_DSTYLE_DIM_EXT2_LINETYPE
1070
   382
1005
16
0
DIMENSION
5
17A
100
AcDbEntity
8
SK2
62
256
6
ByLayer
370
13
48
1
60
0
100
AcDbDimension
2
_U3
10
110.614
20
-17.476003
30
0
11
129.25
21
-17.476003
31
0
70
32
71
1
72
1
41
1
210
0
220
0
230
1
3
Standard
100
AcDbAlignedDimension
13
112
23
0
33
0
14
110.614
24
-4.6735
34
0
50
0
100
AcDbRotatedDimension
1001
ACAD
1000
DSTYLE
1002
{
1070
   371
1070
    13
1070
   372
1070
    13
1070
   170
1070
     0
1070
   144
1040
1.0
1070
   277
1070
     2
1070
   278
1070
    44
1070
   146
1040
1.0
1070
   345
1005
16
1070
   347
1005
16
1070
   346
1005
16
1070
   344
1005
0
1070
   343
1005
0
1070
   172
1070
     1
1070
    76
1070
     0
1070
    75
1070
     0
1070
   282
1070
     0
1070
   281
1070
     0
1070
    71
1070
     0
1070
    74
1070
     0
1070
   279
1070
     0
1070
   173
1070
     1
1070
   340
1005
119
1070
   271
1070
     2
1070
   272
1070
     2
1070
    77
1070
     1
1070
    73
1070
     1
1070
   171
1070
     3
1070
   274
1070
     4
1070
   177
1070
    35
1070
   176
1070
    35
1070
   178
1070
    35
1070
    48
1040
-0.1
1070
    41
1040
3.5
1070
   147
1040
1.75
1070
    42
1040
1.5875
1070
    44
1040
2.0
1070
   140
1040
3.5
1002
}
1001
ACAD_DSTYLE_DIM_LINETYPE
1070
   380
1005
16
1001
ACAD_DSTYLE_DIM_EXT1_LINETYPE
1070
   381
1005
16
1001
ACAD_DSTYLE_DIM_EXT2_LINETYPE
1070
   382
1005
16
0
DIMENSION
5
194
100
AcDbEntity
8
SK2
62
256
6
ByLayer
370
13
48
1
60
0
100
AcDbDimension
2
_U4
10
110.614
20
-23.343428
30
0
11
35.307
21
-23.343428
31
0
70
32
71
1
72
1
41
1
210
0
220
0
230
1
3
Standard
100
AcDbAlignedDimension
13
-40
23
-5
33
0
14
110.614
24
-4.6735
34
0
50
0
100
AcDbRotatedDimension
1001
ACAD
1000
DSTYLE
1002
{
1070
   371
1070
    13
1070
   372
1070
    13
1070
   170
1070
     0
1070
   144
1040
1.0
1070
   277
1070
     2
1070
   278
1070
    44
1070
   146
1040
1.0
1070
   345
1005
16
1070
   347
1005
16
1070
   346
1005
16
1070
   344
1005
0
1070
   343
1005
0
1070
   172
1070
     1
1070
    76
1070
     0
1070
    75
1070
     0
1070
   282
1070
     0
1070
   281
1070
     0
1070
    71
1070
     0
1070
    74
1070
     0
1070
   279
1070
     0
1070
   173
1070
     1
1070
   340
1005
119
1070
   271
1070
     2
1070
   272
1070
     2
1070
    77
1070
     1
1070
    73
1070
     1
1070
   171
1070
     3
1070
   274
1070
     4
1070
   177
1070
    35
1070
   176
1070
    35
1070
   178
1070
    35
1070
    48
1040
-0.1
1070
    41
1040
3.5
1070
   147
1040
1.75
1070
    42
1040
1.5875
1070
    44
1040
2.0
1070
   140
1040
3.5
1002
}
1001
ACAD_DSTYLE_DIM_LINETYPE
1070
   380
1005
16
1001
ACAD_DSTYLE_DIM_EXT1_LINETYPE
1070
   381
1005
16
1001
ACAD_DSTYLE_DIM_EXT2_LINETYPE
1070
   382
1005
16
0
ENDSEC
0
SECTION
2
OBJECTS
0
DICTIONARY
5
21c
330
0
100
AcDbDictionary
280
0
281
1
3
ACAD_GROUP
350
21d
3
ACAD_MLINESTYLE
350
21e
0
DICTIONARY
5
21d
330
0
100
AcDbDictionary
280
0
281
1
0
DICTIONARY
5
21e
330
0
100
AcDbDictionary
280
0
281
1
3
Standard
350
18
0
MLINESTYLE
5
18
330
21e
100
AcDbMlineStyle
2
Standard
70
0
3

62
256
51
90
52
90
71
2
49
-0.5
62
256
6
ByLayer
49
0.5
62
256
6
ByLayer
0
RASTERVARIABLES
5
20a
330

100
AcDbRasterVariables
90
0
70
1
71
1
72
1
0
ENDSEC
0
EOF
