0
SECTION
2
HEADER
9
$ACADVER
1
AC1015
9
$DWGCODEPAGE
3
ANSI_1252
9
$HANDSEED
5
219
9
$ANGBASE
50
0
9
$ANGDIR
70
0
9
$ATTMODE
70
1
9
$AUNITS
70
0
9
$AUPREC
70
0
9
$CECOLOR
62
256
9
$CELTSCALE
40
1
9
$CELTYPE
6
ByLayer
9
$CELWEIGHT
370
18
9
$CLAYER
8
0
9
$CMLJUST
70
0
9
$CMLSCALE
40
1
9
$CMLSTYLE
2
Standard
9
$DIMSTYLE
2
Standard
9
$TEXTSIZE
40
0.2
9
$TEXTSTYLE
7
Standard
9
$LUNITS
70
2
9
$LUPREC
70
4
9
$EXTNAMES
290
1
9
$INSUNITS
70
4
9
$LTSCALE
40
1
9
$LWDISPLAY
290
1
9
$PDMODE
70
0
9
$PDSIZE
40
0
9
$PLINEGEN
70
0
0
ENDSEC
0
SECTION
2
CLASSES
0
CLASS
1
RASTERVARIABLES
2
AcDbRasterVariables
3
ISM
90
0
280
0
281
0
0
ENDSEC
0
SECTION
2
TABLES
0
TABLE
2
VPORT
5
20f
100
AcDbSymbolTable
0
VPORT
5
1
100
AcDbSymbolTableRecord
100
AcDbViewportTableRecord
2
*Active
70
0
10
0
20
0
11
1
21
1
12
-1
22
1
13
0
23
0
14
0.5
24
0.5
15
10
25
10
16
0
26
0
36
1
17
0
27
0
37
0
0
ENDTAB
0
TABLE
2
LTYPE
5
210
100
AcDbSymbolTable
0
LTYPE
5
14
100
AcDbSymbolTableRecord
100
AcDbLinetypeTableRecord
70
0
2
ByBlock
3

72
65
73
0
40
0
0
LTYPE
5
15
100
AcDbSymbolTableRecord
100
AcDbLinetypeTableRecord
70
0
2
ByLayer
3

72
65
73
0
40
0
0
LTYPE
5
16
100
AcDbSymbolTableRecord
100
AcDbLinetypeTableRecord
70
0
2
Continuous
3
Solid line
72
65
73
0
40
0
0
LTYPE
5
6E
100
AcDbSymbolTableRecord
100
AcDbLinetypeTableRecord
70
0
2
CENTER
3
____ _ ____ _ ____ _ ____
72
65
73
4
40
47.5
49
22
74
0
49
-8.5
74
0
49
8.5
74
0
49
-8.5
74
0
0
LTYPE
5
6F
100
AcDbSymbolTableRecord
100
AcDbLinetypeTableRecord
70
0
2
DASHED
3
__ __ __ __ __ __ __ __ __
72
65
73
2
40
25.72
49
12.86
74
0
49
-12.86
74
0
0
ENDTAB
0
TABLE
2
LAYER
5
211
100
AcDbSymbolTable
0
LAYER
5
10
100
AcDbSymbolTableRecord
100
AcDbLayerTableRecord
2
0
70
0
62
7
6
Continuous
290
1
370
-3
390
0
0
LAYER
5
71
100
AcDbSymbolTableRecord
100
AcDbLayerTableRecord
2
80
70
0
62
-6
6
Continuous
290
1
370
-3
390
0
0
LAYER
5
73
100
AcDbSymbolTableRecord
100
AcDbLayerTableRecord
2
81
70
0
62
-3
6
Continuous
290
1
370
-3
390
0
0
LAYER
5
75
100
AcDbSymbolTableRecord
100
AcDbLayerTableRecord
2
1
70
0
62
4
6
Continuous
290
1
370
-3
390
0
0
LAYER
5
8C
100
AcDbSymbolTableRecord
100
AcDbLayerTableRecord
2
4
70
0
62
-2
6
CENTER
290
1
370
-3
390
0
0
LAYER
5
A9
100
AcDbSymbolTableRecord
100
AcDbLayerTableRecord
2
2
70
0
62
7
6
Continuous
290
1
370
-3
390
0
0
LAYER
5
124
100
AcDbSymbolTableRecord
100
AcDbLayerTableRecord
2
Defpoints
70
0
62
7
6
Continuous
290
0
370
-3
390
0
0
LAYER
5
1fb
100
AcDbSymbolTableRecord
100
AcDbLayerTableRecord
2
SK1
70
0
62
4
6
Continuous
290
1
370
-3
390
0
0
LAYER
5
1fc
100
AcDbSymbolTableRecord
100
AcDbLayerTableRecord
2
SK4
70
0
62
2
6
CENTER
290
1
370
-3
390
0
0
LAYER
5
1fd
100
AcDbSymbolTableRecord
100
AcDbLayerTableRecord
2
SK2
70
0
62
7
6
Continuous
290
1
370
-3
390
0
0
LAYER
5
1fe
100
AcDbSymbolTableRecord
100
AcDbLayerTableRecord
2
SK6
70
0
62
5
6
Continuous
290
1
370
-3
390
0
0
ENDTAB
0
TABLE
2
STYLE
5
212
100
AcDbSymbolTable
0
STYLE
5
11
100
AcDbSymbolTableRecord
100
AcDbTextStyleTableRecord
2
Standard
3
txt
70
0
71
0
40
0
41
1
42
0
50
0
0
STYLE
5
109
100
AcDbSymbolTableRecord
100
AcDbTextStyleTableRecord
2
iso_b_vert
3
simplex.shx
70
0
71
0
40
0
41
1
42
0
50
0
0
STYLE
5
10A
100
AcDbSymbolTableRecord
100
AcDbTextStyleTableRecord
2
DWGDirectTextStyle
3
simplex
70
0
71
0
40
0
41
1
42
0
50
0
0
ENDTAB
0
TABLE
2
DIMSTYLE
5
213
100
AcDbSymbolTable
100
AcDbDimStyleTable
0
DIMSTYLE
105
27
100
AcDbSymbolTableRecord
100
AcDbDimStyleTableRecord
2
Standard
70
0
3
<>
41
0.18
42
0.0625
44
0.18
140
0.18
147
0.09
73
0
74
0
77
1
271
2
275
0
278
52
280
0
340
11
0
ENDTAB
0
TABLE
2
VIEW
5
214
100
AcDbSymbolTable
0
ENDTAB
0
TABLE
2
UCS
5
215
100
AcDbSymbolTable
0
ENDTAB
0
TABLE
2
APPID
5
216
100
AcDbSymbolTable
0
APPID
5
12
100
AcDbSymbolTableRecord
100
AcDbRegAppTableRecord
2
ACAD
70
0
0
APPID
5
120
100
AcDbSymbolTableRecord
100
AcDbRegAppTableRecord
2
ACAD_DSTYLE_DIMBREAK
70
0
0
APPID
5
1BA
100
AcDbSymbolTableRecord
100
AcDbRegAppTableRecord
2
ACAD_DSTYLE_DIM_LINETYPE
70
0
0
APPID
5
1BB
100
AcDbSymbolTableRecord
100
AcDbRegAppTableRecord
2
ACAD_DSTYLE_DIM_EXT1_LINETYPE
70
0
0
APPID
5
1BC
100
AcDbSymbolTableRecord
100
AcDbRegAppTableRecord
2
ACAD_DSTYLE_DIM_EXT2_LINETYPE
70
0
0
APPID
5
1F7
100
AcDbSymbolTableRecord
100
AcDbRegAppTableRecord
2
ACAD_MLEADERVER
70
0
0
ENDTAB
0
TABLE
2
BLOCK_RECORD
5
217
100
AcDbSymbolTable
0
BLOCK_RECORD
5
1F
100
AcDbSymbolTableRecord
100
AcDbBlockTableRecord
2
*Model_Space
340
0
70
0
0
BLOCK_RECORD
5
1B
100
AcDbSymbolTableRecord
100
AcDbBlockTableRecord
2
*Paper_Space
340
0
70
0
0
BLOCK_RECORD
5
23
100
AcDbSymbolTableRecord
100
AcDbBlockTableRecord
2
*Paper_Space0
340
0
70
0
0
BLOCK_RECORD
5
125
100
AcDbSymbolTableRecord
100
AcDbBlockTableRecord
2
*D1
340
0
70
0
0
BLOCK_RECORD
5
131
100
AcDbSymbolTableRecord
100
AcDbBlockTableRecord
2
_U0
340
0
70
0
0
BLOCK_RECORD
5
13D
100
AcDbSymbolTableRecord
100
AcDbBlockTableRecord
2
*D3
340
0
70
0
0
BLOCK_RECORD
5
149
100
AcDbSymbolTableRecord
100
AcDbBlockTableRecord
2
_U1
340
0
70
0
0
BLOCK_RECORD
5
155
100
AcDbSymbolTableRecord
100
AcDbBlockTableRecord
2
*D5
340
0
70
0
0
BLOCK_RECORD
5
161
100
AcDbSymbolTableRecord
100
AcDbBlockTableRecord
2
_U2
340
0
70
0
0
BLOCK_RECORD
5
16D
100
AcDbSymbolTableRecord
100
AcDbBlockTableRecord
2
*D7
340
0
70
0
0
BLOCK_RECORD
5
17B
100
AcDbSymbolTableRecord
100
AcDbBlockTableRecord
2
_U3
340
0
70
0
0
BLOCK_RECORD
5
187
100
AcDbSymbolTableRecord
100
AcDbBlockTableRecord
2
*D9
340
0
70
0
0
BLOCK_RECORD
5
193
100
AcDbSymbolTableRecord
100
AcDbBlockTableRecord
2
_U4
340
0
70
0
0
ENDTAB
0
ENDSEC
0
SECTION
2
BLOCKS
0
BLOCK
5
20
100
AcDbEntity
8
0
100
AcDbBlockBegin
2
*Model_Space
70
0
10
0
20
0
30
0
3
*Model_Space
0
ENDBLK
5
21
100
AcDbEntity
8
0
100
AcDbBlockEnd
0
BLOCK
5
1C
100
AcDbEntity
8
0
100
AcDbBlockBegin
2
*Paper_Space
70
0
10
0
20
0
30
0
3
*Paper_Space
0
ENDBLK
5
1D
100
AcDbEntity
8
0
100
AcDbBlockEnd
0
BLOCK
5
24
100
AcDbEntity
8
0
100
AcDbBlockBegin
2
*Paper_Space0
70
0
10
0
20
0
30
0
3
*Paper_Space0
0
ENDBLK
5
25
100
AcDbEntity
8
0
100
AcDbBlockEnd
0
BLOCK
5
126
100
AcDbEntity
8
0
100
AcDbBlockBegin
2
*D1
70
1
10
0
20
0
30
0
3
*D1
0
LINE
5
128
100
AcDbEntity
8
0
62
256
6
ByLayer
370
-2
48
1
60
0
100
AcDbLine
10
0
20
-1.5875
30
0
11
0
21
-14.740898
31
0
39
0
210
0
220
0
230
1
0
LINE
5
129
100
AcDbEntity
8
0
62
256
6
ByLayer
370
-2
48
1
60
0
100
AcDbLine
10
67.2605
20
-4.115
30
0
11
67.2605
21
-14.740898
31
0
39
0
210
0
220
0
230
1
0
LINE
5
12A
100
AcDbEntity
8
0
62
256
6
ByLayer
370
-2
48
1
60
0
100
AcDbLine
10
3.5
20
-12.740898
30
0
11
63.7605
21
-12.740898
31
0
39
0
210
0
220
0
230
1
0
SOLID
5
12B
100
AcDbEntity
8
0
62
256
6
ByLayer
370
-1
48
1
60
0
100
AcDbTrace
10
3.5
20
-12.157565
30
0
11
3.5
21
-13.324232
31
0
12
0
22
-12.740898
32
0
13
0
23
-12.740898
33
0
39
0
210
0
220
0
230
1
0
SOLID
5
12C
100
AcDbEntity
8
0
62
256
6
ByLayer
370
-1
48
1
60
0
100
AcDbTrace
10
63.7605
20
-13.324232
30
0
11
63.7605
21
-12.157565
31
0
12
67.2605
22
-12.740898
32
0
13
67.2605
23
-12.740898
33
0
39
0
210
0
220
0
230
1
0
MTEXT
5
12D
100
AcDbEntity
8
0
62
256
6
ByLayer
370
18
48
1
60
0
100
AcDbMText
10
33.63025
20
-5.740898
30
0
210
0
220
0
230
1
1
\A1;67.26
40
3.5
41
0
44
1
50
0
71
5
72
5
7
iso_b_vert
0
POINT
5
12E
100
AcDbEntity
8
Defpoints
62
0
6
ByLayer
370
-1
48
1
60
0
100
AcDbPoint
10
0
20
0
30
0
39
0
210
0
220
0
230
1
50
360
0
POINT
5
12F
100
AcDbEntity
8
Defpoints
62
0
6
ByLayer
370
-1
48
1
60
0
100
AcDbPoint
10
67.2605
20
-2.5275
30
0
39
0
210
0
220
0
230
1
50
360
0
POINT
5
130
100
AcDbEntity
8
Defpoints
62
0
6
ByLayer
370
-1
48
1
60
0
100
AcDbPoint
10
67.2605
20
-12.740898
30
0
39
0
210
0
220
0
230
1
50
360
0
ENDBLK
5
127
100
AcDbEntity
8
0
100
AcDbBlockEnd
0
BLOCK
5
138
100
AcDbEntity
8
0
100
AcDbBlockBegin
2
_U0
70
0
10
0
20
0
30
0
3
_U0
0
MTEXT
5
132
100
AcDbEntity
8
SK2
62
256
6
ByLayer
370
13
48
1
60
0
100
AcDbMText
10
28.492951
20
-11.708265
30
0
210
0
220
0
230
1
1
\W0.7317;67,26
40
3.5
41
0
44
1.084337
50
0
71
7
72
5
7
iso_b_vert
0
LINE
5
133
100
AcDbEntity
8
SK2
62
256
6
ByLayer
370
13
48
1
60
0
100
AcDbLine
10
0
20
-1.5875
30
0
11
0
21
-14.740898
31
0
39
0
210
0
220
0
230
1
0
LINE
5
134
100
AcDbEntity
8
SK2
62
256
6
ByLayer
370
13
48
1
60
0
100
AcDbLine
10
67.2605
20
-4.115
30
0
11
67.2605
21
-14.740898
31
0
39
0
210
0
220
0
230
1
0
LINE
5
135
100
AcDbEntity
8
SK2
62
256
6
ByLayer
370
13
48
1
60
0
100
AcDbLine
10
0
20
-12.740898
30
0
11
67.2605
21
-12.740898
31
0
39
0
210
0
220
0
230
1
0
SOLID
5
136
100
AcDbEntity
8
SK2
62
256
6
ByLayer
370
18
48
1
60
0
100
AcDbTrace
10
0
20
-12.740898
30
0
11
3.499998
21
-12.280115
31
0
12
3.500002
22
-13.201682
32
0
13
3.500002
23
-13.201682
33
0
39
0
210
0
220
0
230
1
0
SOLID
5
137
100
AcDbEntity
8
SK2
62
256
6
ByLayer
370
18
48
1
60
0
100
AcDbTrace
10
67.2605
20
-12.740898
30
0
11
63.760502
21
-13.201682
31
0
12
63.760498
22
-12.280115
32
0
13
63.760498
23
-12.280115
33
0
39
0
210
0
220
0
230
1
0
ENDBLK
5
139
100
AcDbEntity
8
0
100
AcDbBlockEnd
0
BLOCK
5
13E
100
AcDbEntity
8
0
100
AcDbBlockBegin
2
*D3
70
1
10
0
20
0
30
0
3
*D3
0
LINE
5
140
100
AcDbEntity
8
0
62
256
6
ByLayer
370
-2
48
1
60
0
100
AcDbLine
10
-36
20
-4.5875
30
0
11
-36
21
-33.692985
31
0
39
0
210
0
220
0
230
1
0
LINE
5
141
100
AcDbEntity
8
0
62
256
6
ByLayer
370
-2
48
1
60
0
100
AcDbLine
10
68
20
-1.5875
30
0
11
68
21
-33.692985
31
0
39
0
210
0
220
0
230
1
0
LINE
5
142
100
AcDbEntity
8
0
62
256
6
ByLayer
370
-2
48
1
60
0
100
AcDbLine
10
-32.5
20
-31.692985
30
0
11
64.5
21
-31.692985
31
0
39
0
210
0
220
0
230
1
0
SOLID
5
143
100
AcDbEntity
8
0
62
256
6
ByLayer
370
-1
48
1
60
0
100
AcDbTrace
10
-32.5
20
-31.109652
30
0
11
-32.5
21
-32.276319
31
0
12
-36
22
-31.692985
32
0
13
-36
23
-31.692985
33
0
39
0
210
0
220
0
230
1
0
SOLID
5
144
100
AcDbEntity
8
0
62
256
6
ByLayer
370
-1
48
1
60
0
100
AcDbTrace
10
64.5
20
-32.276319
30
0
11
64.5
21
-31.109652
31
0
12
68
22
-31.692985
32
0
13
68
23
-31.692985
33
0
39
0
210
0
220
0
230
1
0
MTEXT
5
145
100
AcDbEntity
8
0
62
256
6
ByLayer
370
18
48
1
60
0
100
AcDbMText
10
16
20
-24.692985
30
0
210
0
220
0
230
1
1
\A1;104.00
40
3.5
41
0
44
1
50
0
71
5
72
5
7
iso_b_vert
0
POINT
5
146
100
AcDbEntity
8
Defpoints
62
0
6
ByLayer
370
-1
48
1
60
0
100
AcDbPoint
10
-36
20
-3
30
0
39
0
210
0
220
0
230
1
50
360
0
POINT
5
147
100
AcDbEntity
8
Defpoints
62
0
6
ByLayer
370
-1
48
1
60
0
100
AcDbPoint
10
68
20
0
30
0
39
0
210
0
220
0
230
1
50
360
0
POINT
5
148
100
AcDbEntity
8
Defpoints
62
0
6
ByLayer
370
-1
48
1
60
0
100
AcDbPoint
10
68
20
-31.692985
30
0
39
0
210
0
220
0
230
1
50
360
0
ENDBLK
5
13F
100
AcDbEntity
8
0
100
AcDbBlockEnd
0
BLOCK
5
150
100
AcDbEntity
8
0
100
AcDbBlockBegin
2
_U1
70
0
10
0
20
0
30
0
3
_U1
0
MTEXT
5
14A
100
AcDbEntity
8
SK2
62
256
6
ByLayer
370
13
48
1
60
0
100
AcDbMText
10
9.808135
20
-30.660352
30
0
210
0
220
0
230
1
1
\W0.7145;104,00
40
3.5
41
0
44
1.084337
50
0
71
7
72
5
7
iso_b_vert
0
LINE
5
14B
100
AcDbEntity
8
SK2
62
256
6
ByLayer
370
13
48
1
60
0
100
AcDbLine
10
-36
20
-4.5875
30
0
11
-36
21
-33.692985
31
0
39
0
210
0
220
0
230
1
0
LINE
5
14C
100
AcDbEntity
8
SK2
62
256
6
ByLayer
370
13
48
1
60
0
100
AcDbLine
10
68
20
-1.5875
30
0
11
68
21
-33.692985
31
0
39
0
210
0
220
0
230
1
0
LINE
5
14D
100
AcDbEntity
8
SK2
62
256
6
ByLayer
370
13
48
1
60
0
100
AcDbLine
10
-36
20
-31.692985
30
0
11
68
21
-31.692985
31
0
39
0
210
0
220
0
230
1
0
SOLID
5
14E
100
AcDbEntity
8
SK2
62
256
6
ByLayer
370
18
48
1
60
0
100
AcDbTrace
10
-36
20
-31.692985
30
0
11
-32.500002
21
-31.232202
31
0
12
-32.499998
22
-32.153769
32
0
13
-32.499998
23
-32.153769
33
0
39
0
210
0
220
0
230
1
0
SOLID
5
14F
100
AcDbEntity
8
SK2
62
256
6
ByLayer
370
18
48
1
60
0
100
AcDbTrace
10
68
20
-31.692985
30
0
11
64.500002
21
-32.153769
31
0
12
64.499998
22
-31.232202
32
0
13
64.499998
23
-31.232202
33
0
39
0
210
0
220
0
230
1
0
ENDBLK
5
151
100
AcDbEntity
8
0
100
AcDbBlockEnd
0
BLOCK
5
156
100
AcDbEntity
8
0
100
AcDbBlockBegin
2
*D5
70
1
10
0
20
0
30
0
3
*D5
0
LINE
5
158
100
AcDbEntity
8
0
62
256
6
ByLayer
370
-2
48
1
60
0
100
AcDbLine
10
26.78
20
4.115
30
0
11
26.78
21
16.136619
31
0
39
0
210
0
220
0
230
1
0
LINE
5
159
100
AcDbEntity
8
0
62
256
6
ByLayer
370
-2
48
1
60
0
100
AcDbLine
10
68
20
1.5875
30
0
11
68
21
16.136619
31
0
39
0
210
0
220
0
230
1
0
LINE
5
15A
100
AcDbEntity
8
0
62
256
6
ByLayer
370
-2
48
1
60
0
100
AcDbLine
10
30.28
20
14.136619
30
0
11
64.5
21
14.136619
31
0
39
0
210
0
220
0
230
1
0
SOLID
5
15B
100
AcDbEntity
8
0
62
256
6
ByLayer
370
-1
48
1
60
0
100
AcDbTrace
10
30.28
20
14.719953
30
0
11
30.28
21
13.553286
31
0
12
26.78
22
14.136619
32
0
13
26.78
23
14.136619
33
0
39
0
210
0
220
0
230
1
0
SOLID
5
15C
100
AcDbEntity
8
0
62
256
6
ByLayer
370
-1
48
1
60
0
100
AcDbTrace
10
64.5
20
13.553286
30
0
11
64.5
21
14.719953
31
0
12
68
22
14.136619
32
0
13
68
23
14.136619
33
0
39
0
210
0
220
0
230
1
0
MTEXT
5
15D
100
AcDbEntity
8
0
62
256
6
ByLayer
370
18
48
1
60
0
100
AcDbMText
10
47.39
20
21.136619
30
0
210
0
220
0
230
1
1
\A1;41.22
40
3.5
41
0
44
1
50
0
71
5
72
5
7
iso_b_vert
0
POINT
5
15E
100
AcDbEntity
8
Defpoints
62
0
6
ByLayer
370
-1
48
1
60
0
100
AcDbPoint
10
26.78
20
2.5275
30
0
39
0
210
0
220
0
230
1
50
360
0
POINT
5
15F
100
AcDbEntity
8
Defpoints
62
0
6
ByLayer
370
-1
48
1
60
0
100
AcDbPoint
10
68
20
0
30
0
39
0
210
0
220
0
230
1
50
360
0
POINT
5
160
100
AcDbEntity
8
Defpoints
62
0
6
ByLayer
370
-1
48
1
60
0
100
AcDbPoint
10
68
20
14.136619
30
0
39
0
210
0
220
0
230
1
50
360
0
ENDBLK
5
157
100
AcDbEntity
8
0
100
AcDbBlockEnd
0
BLOCK
5
168
100
AcDbEntity
8
0
100
AcDbBlockBegin
2
_U2
70
0
10
0
20
0
30
0
3
_U2
0
MTEXT
5
162
100
AcDbEntity
8
SK2
62
256
6
ByLayer
370
13
48
1
60
0
100
AcDbMText
10
42.505868
20
15.169253
30
0
210
0
220
0
230
1
1
\W0.6977;41,22
40
3.5
41
0
44
1.084337
50
0
71
7
72
5
7
iso_b_vert
0
LINE
5
163
100
AcDbEntity
8
SK2
62
256
6
ByLayer
370
13
48
1
60
0
100
AcDbLine
10
26.78
20
4.115
30
0
11
26.78
21
16.136619
31
0
39
0
210
0
220
0
230
1
0
LINE
5
164
100
AcDbEntity
8
SK2
62
256
6
ByLayer
370
13
48
1
60
0
100
AcDbLine
10
68
20
1.5875
30
0
11
68
21
16.136619
31
0
39
0
210
0
220
0
230
1
0
LINE
5
165
100
AcDbEntity
8
SK2
62
256
6
ByLayer
370
13
48
1
60
0
100
AcDbLine
10
26.78
20
14.136619
30
0
11
68
21
14.136619
31
0
39
0
210
0
220
0
230
1
0
SOLID
5
166
100
AcDbEntity
8
SK2
62
256
6
ByLayer
370
18
48
1
60
0
100
AcDbTrace
10
26.78
20
14.136619
30
0
11
30.279998
21
14.597403
31
0
12
30.280002
22
13.675835
32
0
13
30.280002
23
13.675835
33
0
39
0
210
0
220
0
230
1
0
SOLID
5
167
100
AcDbEntity
8
SK2
62
256
6
ByLayer
370
18
48
1
60
0
100
AcDbTrace
10
68
20
14.136619
30
0
11
64.500002
21
13.675835
31
0
12
64.499998
22
14.597403
32
0
13
64.499998
23
14.597403
33
0
39
0
210
0
220
0
230
1
0
ENDBLK
5
169
100
AcDbEntity
8
0
100
AcDbBlockEnd
0
BLOCK
5
16E
100
AcDbEntity
8
0
100
AcDbBlockBegin
2
*D7
70
1
10
0
20
0
30
0
3
*D7
0
LINE
5
170
100
AcDbEntity
8
0
62
256
6
ByLayer
370
-2
48
1
60
0
100
AcDbLine
10
68
20
-1.5875
30
0
11
68
21
-17.330003
31
0
39
0
210
0
220
0
230
1
0
LINE
5
171
100
AcDbEntity
8
0
62
256
6
ByLayer
370
-2
48
1
60
0
100
AcDbLine
10
67.2605
20
-4.115
30
0
11
67.2605
21
-17.330003
31
0
39
0
210
0
220
0
230
1
0
LINE
5
172
100
AcDbEntity
8
0
62
256
6
ByLayer
370
-2
48
1
60
0
100
AcDbLine
10
68
20
-15.330003
30
0
11
96.333333
21
-15.330003
31
0
39
0
210
0
220
0
230
1
0
LINE
5
173
100
AcDbEntity
8
0
62
256
6
ByLayer
370
-2
48
1
60
0
100
AcDbLine
10
71.5
20
-15.330003
30
0
11
75
21
-15.330003
31
0
39
0
210
0
220
0
230
1
0
LINE
5
174
100
AcDbEntity
8
0
62
256
6
ByLayer
370
-2
48
1
60
0
100
AcDbLine
10
63.7605
20
-15.330003
30
0
11
60.2605
21
-15.330003
31
0
39
0
210
0
220
0
230
1
0
SOLID
5
175
100
AcDbEntity
8
0
62
256
6
ByLayer
370
-1
48
1
60
0
100
AcDbTrace
10
71.5
20
-14.74667
30
0
11
71.5
21
-15.913337
31
0
12
68
22
-15.330003
32
0
13
68
23
-15.330003
33
0
39
0
210
0
220
0
230
1
0
SOLID
5
176
100
AcDbEntity
8
0
62
256
6
ByLayer
370
-1
48
1
60
0
100
AcDbTrace
10
63.7605
20
-15.913337
30
0
11
63.7605
21
-14.74667
31
0
12
67.2605
22
-15.330003
32
0
13
67.2605
23
-15.330003
33
0
39
0
210
0
220
0
230
1
0
MTEXT
5
177
100
AcDbEntity
8
0
62
256
6
ByLayer
370
18
48
1
60
0
100
AcDbMText
10
85.666667
20
-8.330003
30
0
210
0
220
0
230
1
1
\A1;0.74
40
3.5
41
0
44
1
50
0
71
5
72
5
7
iso_b_vert
0
POINT
5
178
100
AcDbEntity
8
Defpoints
62
0
6
ByLayer
370
-1
48
1
60
0
100
AcDbPoint
10
68
20
0
30
0
39
0
210
0
220
0
230
1
50
360
0
POINT
5
179
100
AcDbEntity
8
Defpoints
62
0
6
ByLayer
370
-1
48
1
60
0
100
AcDbPoint
10
67.2605
20
-2.5275
30
0
39
0
210
0
220
0
230
1
50
360
0
POINT
5
17A
100
AcDbEntity
8
Defpoints
62
0
6
ByLayer
370
-1
48
1
60
0
100
AcDbPoint
10
67.2605
20
-15.330003
30
0
39
0
210
0
220
0
230
1
50
360
0
ENDBLK
5
16F
100
AcDbEntity
8
0
100
AcDbBlockEnd
0
BLOCK
5
182
100
AcDbEntity
8
0
100
AcDbBlockBegin
2
_U3
70
0
10
0
20
0
30
0
3
_U3
0
MTEXT
5
17C
100
AcDbEntity
8
SK2
62
256
6
ByLayer
370
13
48
1
60
0
100
AcDbMText
10
73.967593
20
-14.29737
30
0
210
0
220
0
230
1
1
\W0.7383;0,74
40
3.5
41
0
44
1.084337
50
0
71
7
72
5
7
iso_b_vert
0
LINE
5
17D
100
AcDbEntity
8
SK2
62
256
6
ByLayer
370
13
48
1
60
0
100
AcDbLine
10
68
20
-1.5875
30
0
11
68
21
-17.330003
31
0
39
0
210
0
220
0
230
1
0
LINE
5
17E
100
AcDbEntity
8
SK2
62
256
6
ByLayer
370
13
48
1
60
0
100
AcDbLine
10
67.2605
20
-4.115
30
0
11
67.2605
21
-17.330003
31
0
39
0
210
0
220
0
230
1
0
LINE
5
17F
100
AcDbEntity
8
SK2
62
256
6
ByLayer
370
13
48
1
60
0
100
AcDbLine
10
58.5105
20
-15.330003
30
0
11
82.180758
21
-15.330003
31
0
39
0
210
0
220
0
230
1
0
SOLID
5
180
100
AcDbEntity
8
SK2
62
256
6
ByLayer
370
18
48
1
60
0
100
AcDbTrace
10
68
20
-15.330003
30
0
11
71.499998
21
-14.869219
31
0
12
71.500002
22
-15.790787
32
0
13
71.500002
23
-15.790787
33
0
39
0
210
0
220
0
230
1
0
SOLID
5
181
100
AcDbEntity
8
SK2
62
256
6
ByLayer
370
18
48
1
60
0
100
AcDbTrace
10
67.2605
20
-15.330003
30
0
11
63.760502
21
-15.790787
31
0
12
63.760498
22
-14.869219
32
0
13
63.760498
23
-14.869219
33
0
39
0
210
0
220
0
230
1
0
ENDBLK
5
183
100
AcDbEntity
8
0
100
AcDbBlockEnd
0
BLOCK
5
188
100
AcDbEntity
8
0
100
AcDbBlockBegin
2
*D9
70
1
10
0
20
0
30
0
3
*D9
0
LINE
5
18A
100
AcDbEntity
8
0
62
256
6
ByLayer
370
-2
48
1
60
0
100
AcDbLine
10
-36
20
-4.5875
30
0
11
-36
21
-23.343428
31
0
39
0
210
0
220
0
230
1
0
LINE
5
18B
100
AcDbEntity
8
0
62
256
6
ByLayer
370
-2
48
1
60
0
100
AcDbLine
10
67.2605
20
-4.115
30
0
11
67.2605
21
-23.343428
31
0
39
0
210
0
220
0
230
1
0
LINE
5
18C
100
AcDbEntity
8
0
62
256
6
ByLayer
370
-2
48
1
60
0
100
AcDbLine
10
-32.5
20
-21.343428
30
0
11
63.7605
21
-21.343428
31
0
39
0
210
0
220
0
230
1
0
SOLID
5
18D
100
AcDbEntity
8
0
62
256
6
ByLayer
370
-1
48
1
60
0
100
AcDbTrace
10
-32.5
20
-20.760095
30
0
11
-32.5
21
-21.926762
31
0
12
-36
22
-21.343428
32
0
13
-36
23
-21.343428
33
0
39
0
210
0
220
0
230
1
0
SOLID
5
18E
100
AcDbEntity
8
0
62
256
6
ByLayer
370
-1
48
1
60
0
100
AcDbTrace
10
63.7605
20
-21.926762
30
0
11
63.7605
21
-20.760095
31
0
12
67.2605
22
-21.343428
32
0
13
67.2605
23
-21.343428
33
0
39
0
210
0
220
0
230
1
0
MTEXT
5
18F
100
AcDbEntity
8
0
62
256
6
ByLayer
370
18
48
1
60
0
100
AcDbMText
10
15.63025
20
-14.343428
30
0
210
0
220
0
230
1
1
\A1;103.26
40
3.5
41
0
44
1
50
0
71
5
72
5
7
iso_b_vert
0
POINT
5
190
100
AcDbEntity
8
Defpoints
62
0
6
ByLayer
370
-1
48
1
60
0
100
AcDbPoint
10
-36
20
-3
30
0
39
0
210
0
220
0
230
1
50
360
0
POINT
5
191
100
AcDbEntity
8
Defpoints
62
0
6
ByLayer
370
-1
48
1
60
0
100
AcDbPoint
10
67.2605
20
-2.5275
30
0
39
0
210
0
220
0
230
1
50
360
0
POINT
5
192
100
AcDbEntity
8
Defpoints
62
0
6
ByLayer
370
-1
48
1
60
0
100
AcDbPoint
10
67.2605
20
-21.343428
30
0
39
0
210
0
220
0
230
1
50
360
0
ENDBLK
5
189
100
AcDbEntity
8
0
100
AcDbBlockEnd
0
BLOCK
5
19A
100
AcDbEntity
8
0
100
AcDbBlockBegin
2
_U4
70
0
10
0
20
0
30
0
3
_U4
0
MTEXT
5
194
100
AcDbEntity
8
SK2
62
256
6
ByLayer
370
13
48
1
60
0
100
AcDbMText
10
9.622651
20
-20.310795
30
0
210
0
220
0
230
1
1
\W0.6930;103,26
40
3.5
41
0
44
1.084337
50
0
71
7
72
5
7
iso_b_vert
0
LINE
5
195
100
AcDbEntity
8
SK2
62
256
6
ByLayer
370
13
48
1
60
0
100
AcDbLine
10
-36
20
-4.5875
30
0
11
-36
21
-23.343428
31
0
39
0
210
0
220
0
230
1
0
LINE
5
196
100
AcDbEntity
8
SK2
62
256
6
ByLayer
370
13
48
1
60
0
100
AcDbLine
10
67.2605
20
-4.115
30
0
11
67.2605
21
-23.343428
31
0
39
0
210
0
220
0
230
1
0
LINE
5
197
100
AcDbEntity
8
SK2
62
256
6
ByLayer
370
13
48
1
60
0
100
AcDbLine
10
-36
20
-21.343428
30
0
11
67.2605
21
-21.343428
31
0
39
0
210
0
220
0
230
1
0
SOLID
5
198
100
AcDbEntity
8
SK2
62
256
6
ByLayer
370
18
48
1
60
0
100
AcDbTrace
10
-36
20
-21.343428
30
0
11
-32.500002
21
-20.882645
31
0
12
-32.499998
22
-21.804212
32
0
13
-32.499998
23
-21.804212
33
0
39
0
210
0
220
0
230
1
0
SOLID
5
199
100
AcDbEntity
8
SK2
62
256
6
ByLayer
370
18
48
1
60
0
100
AcDbTrace
10
67.2605
20
-21.343428
30
0
11
63.760502
21
-21.804212
31
0
12
63.760498
22
-20.882645
32
0
13
63.760498
23
-20.882645
33
0
39
0
210
0
220
0
230
1
0
ENDBLK
5
19B
100
AcDbEntity
8
0
100
AcDbBlockEnd
0
ENDSEC
0
SECTION
2
ENTITIES
0
ARC
5
B2
100
AcDbEntity
8
1
62
256
6
ByLayer
370
18
48
1
60
0
100
AcDbCircle
39
0
10
1.174778
20
-3.28623
30
0
40
0.8
210
0
220
0
230
1
100
AcDbArc
50
89.96419
51
137.242734
0
ARC
5
B3
100
AcDbEntity
8
1
62
256
6
ByLayer
370
18
48
1
60
0
100
AcDbCircle
39
0
10
1.174778
20
3.28623
30
0
40
0.8
210
0
220
0
230
1
100
AcDbArc
50
222.757266
51
270.03581
0
ARC
5
B4
100
AcDbEntity
8
1
62
256
6
ByLayer
370
18
48
1
60
0
100
AcDbCircle
39
0
10
0
20
-2.2
30
0
40
0.8
210
0
220
0
230
1
100
AcDbArc
50
270
51
317.242734
0
ARC
5
B5
100
AcDbEntity
8
1
62
256
6
ByLayer
370
18
48
1
60
0
100
AcDbCircle
39
0
10
0
20
2.2
30
0
40
0.8
210
0
220
0
230
1
100
AcDbArc
50
42.757266
51
90
0
ELLIPSE
5
B6
100
AcDbEntity
8
1
62
256
6
ByLayer
370
13
48
1
60
0
100
AcDbEllipse
10
8.185801
20
0.613908
30
0
11
-0.0488523592021977
21
-0.0872550686228568
31
0
210
0
220
0
230
1
40
0.28841
41
-1.1536607671671
42
0.125307751454293
0
ELLIPSE
5
B7
100
AcDbEntity
8
1
62
256
6
ByLayer
370
13
48
1
60
0
100
AcDbEllipse
10
8.250209
20
0.581406
30
0
11
0.0415853740409063
21
0.0909431507364789
31
0
210
0
220
0
230
1
40
0.102127
41
2.95814167264492
42
-1.78727310549092
0
POINT
5
70
100
AcDbEntity
8
80
62
256
6
ByLayer
370
18
48
1
60
0
100
AcDbPoint
10
0
20
0
30
0
39
0
210
0
220
0
230
1
50
360
0
POINT
5
72
100
AcDbEntity
8
81
62
256
6
ByLayer
370
18
48
1
60
0
100
AcDbPoint
10
68
20
0
30
0
39
0
210
0
220
0
230
1
50
360
0
POINT
5
74
100
AcDbEntity
8
1
62
256
6
ByLayer
370
18
48
1
60
1
100
AcDbPoint
10
67.2605
20
-2.5275
30
0
39
0
210
0
220
0
230
1
50
360
0
POINT
5
76
100
AcDbEntity
8
1
62
256
6
ByLayer
370
18
48
1
60
1
100
AcDbPoint
10
-36
20
-3
30
0
39
0
210
0
220
0
230
1
50
360
0
POINT
5
77
100
AcDbEntity
8
1
62
256
6
ByLayer
370
18
48
1
60
1
100
AcDbPoint
10
26.78
20
2.5275
30
0
39
0
210
0
220
0
230
1
50
360
0
POINT
5
78
100
AcDbEntity
8
1
62
256
6
ByLayer
370
18
48
1
60
1
100
AcDbPoint
10
67.2605
20
-2.5275
30
0
39
0
210
0
220
0
230
1
50
360
0
POINT
5
79
100
AcDbEntity
8
1
62
256
6
ByLayer
370
18
48
1
60
1
100
AcDbPoint
10
-36
20
-3
30
0
39
0
210
0
220
0
230
1
50
360
0
POINT
5
7A
100
AcDbEntity
8
1
62
256
6
ByLayer
370
18
48
1
60
1
100
AcDbPoint
10
67.2605
20
-2.5275
30
0
39
0
210
0
220
0
230
1
50
360
0
SPLINE
5
B8
100
AcDbEntity
8
SK1
62
256
6
ByLayer
370
18
48
1
60
0
100
AcDbSpline
70
4
71
3
72
8
73
4
40
0
40
0
40
0
40
0
40
1
40
1
40
1
40
1
41
1
10
-36
20
-1.07335977814799
30
0
41
1
10
-35.9170409540387
20
-1.08885395031032
30
0
41
1
10
-35.8336564822172
20
-1.10428751517668
30
0
41
1
10
-35.7499999999999
20
-1.1196749005853
30
0
0
SPLINE
5
B9
100
AcDbEntity
8
SK1
62
256
6
ByLayer
370
18
48
1
60
0
100
AcDbSpline
70
4
71
3
72
8
73
4
40
0
40
0
40
0
40
0
40
1
40
1
40
1
40
1
41
1
10
-35.75
20
-0.35743960623725
30
0
41
1
10
-35.8336569988072
20
-0.372827086665012
30
0
41
1
10
-35.9170320718252
20
-0.388258897590674
30
0
41
1
10
-36
20
-0.403754728674528
30
0
0
SPLINE
5
BA
100
AcDbEntity
8
SK1
62
256
6
ByLayer
370
18
48
1
60
0
100
AcDbSpline
70
4
71
3
72
8
73
4
40
0
40
0
40
0
40
0
40
1
40
1
40
1
40
1
41
1
10
-35.75
20
0.357439606237278
30
0
41
1
10
-35.8336569988072
20
0.372827086665069
30
0
41
1
10
-35.9170320718252
20
0.388258897590731
30
0
41
1
10
-36
20
0.403754728674585
30
0
0
SPLINE
5
BB
100
AcDbEntity
8
SK1
62
256
6
ByLayer
370
18
48
1
60
0
100
AcDbSpline
70
4
71
3
72
12
73
8
40
0
40
0
40
0
40
0
40
0.500000000000002
40
0.500000000000002
40
0.750000000000001
40
0.750000000000001
40
1
40
1
40
1
40
1
41
1
10
-35.75
20
-1.11967490058541
30
0
41
1
10
-35.7259913046562
20
-1.12409094867425
30
0
41
1
10
-35.7033433879313
20
-1.12065256926621
30
0
41
1
10
-35.6754686754417
20
-1.10345352558471
30
0
41
1
10
-35.667025596347
20
-1.09548800867768
30
0
41
1
10
-35.6543350076412
20
-1.07429584644365
30
0
41
1
10
-35.65
20
-1.06064528292521
30
0
41
1
10
-35.65
20
-1.04482119648944
30
0
0
SPLINE
5
BC
100
AcDbEntity
8
SK1
62
256
6
ByLayer
370
18
48
1
60
0
100
AcDbSpline
70
4
71
3
72
12
73
8
40
0
40
0
40
0
40
0
40
0.25
40
0.25
40
0.5
40
0.5
40
1
40
1
40
1
40
1
41
1
10
-35.65
20
0.235344709423458
30
0
41
1
10
-35.65
20
0.252838933740947
30
0
41
1
10
-35.6543403470552
20
0.269613534393955
30
0
41
1
10
-35.6670034572333
20
0.298018769039715
30
0
41
1
10
-35.6754069618006
20
0.310149065437599
30
0
41
1
10
-35.7033744297257
20
0.34032871519085
30
0
41
1
10
-35.7260009806424
20
0.353025337904597
30
0
41
1
10
-35.7500000000001
20
0.357439606237392
30
0
0
SPLINE
5
BD
100
AcDbEntity
8
SK1
62
256
6
ByLayer
370
18
48
1
60
0
100
AcDbSpline
70
4
71
3
72
12
73
8
40
0
40
0
40
0
40
0
40
0.249999999999999
40
0.249999999999999
40
0.499999999999998
40
0.499999999999998
40
1
40
1
40
1
40
1
41
1
10
-35.65
20
-0.235344709423401
30
0
41
1
10
-35.65
20
-0.25283893374089
30
0
41
1
10
-35.6543403470552
20
-0.269613534393898
30
0
41
1
10
-35.6670034572333
20
-0.298018769039686
30
0
41
1
10
-35.6754069618006
20
-0.310149065437571
30
0
41
1
10
-35.7033744297257
20
-0.340328715190793
30
0
41
1
10
-35.7260009806424
20
-0.35302533790454
30
0
41
1
10
-35.7500000000001
20
-0.357439606237335
30
0
0
SPLINE
5
BE
100
AcDbEntity
8
1
62
256
6
ByLayer
370
18
48
1
60
0
100
AcDbSpline
70
4
71
3
72
8
73
4
40
0
40
0
40
0
40
0
40
1
40
1
40
1
40
1
41
1
10
67.9999429325676
20
0.0339189346378248
30
0
41
1
10
67.9953238891609
20
0.0212899099908839
30
0
41
1
10
67.9898596306258
20
0.0089039883399096
30
0
41
1
10
67.9844751266768
20
-0.0010695056695056
30
0
0
SPLINE
5
BF
100
AcDbEntity
8
1
62
256
6
ByLayer
370
18
48
1
60
0
100
AcDbSpline
70
4
71
3
72
8
73
4
40
0
40
0
40
0
40
0
40
1
40
1
40
1
40
1
41
1
10
67.9793849531358
20
0.12176557261995
30
0
41
1
10
67.9825367193395
20
0.0975999611796112
30
0
41
1
10
67.990088776522
20
0.0665724626665281
30
0
41
1
10
67.9999429325677
20
0.0339189346378248
30
0
0
SPLINE
5
C0
100
AcDbEntity
8
1
62
256
6
ByLayer
370
18
48
1
60
0
100
AcDbSpline
70
4
71
3
72
14
73
10
40
0
40
0
40
0
40
0
40
0.25
40
0.25
40
0.5
40
0.5
40
0.75
40
0.75
40
1
40
1
40
1
40
1
41
1
10
67.5820202813756
20
-1.02409507665243
30
0
41
1
10
67.575061262549
20
-1.05208263573235
30
0
41
1
10
67.5667209023489
20
-1.0813559609187
30
0
41
1
10
67.5475448791195
20
-1.14228337361814
30
0
41
1
10
67.5367665574669
20
-1.1736677848761
30
0
41
1
10
67.5140898425549
20
-1.23525585755718
30
0
41
1
10
67.5019449083247
20
-1.26612438471219
30
0
41
1
10
67.4774835532131
20
-1.32484494895255
30
0
41
1
10
67.4649872996253
20
-1.35317014158315
30
0
41
1
10
67.4524676980793
20
-1.38003787387305
30
0
0
SPLINE
5
C1
100
AcDbEntity
8
1
62
256
6
ByLayer
370
18
48
1
60
0
100
AcDbSpline
70
4
71
3
72
10
73
6
40
0
40
0
40
0
40
0
40
0.5
40
0.5
40
1
40
1
40
1
40
1
41
1
10
67.2071655786164
20
-2.42966024744266
30
0
41
1
10
67.3212263756579
20
-2.14531365329768
30
0
41
1
10
67.4353782294768
20
-1.86085887177498
30
0
41
1
10
67.6629507672065
20
-1.29120616412086
30
0
41
1
10
67.7763995862395
20
-1.0060135892123
30
0
41
1
10
67.8890657386979
20
-0.720514507976048
30
0
0
SPLINE
5
C2
100
AcDbEntity
8
1
62
256
6
ByLayer
370
18
48
1
60
0
100
AcDbSpline
70
4
71
3
72
16
73
12
40
0
40
0
40
0
40
0
40
0.25
40
0.25
40
0.5
40
0.5
40
0.625
40
0.625
40
0.75
40
0.75
40
1
40
1
40
1
40
1
41
1
10
67.5820202813582
20
-1.02409507669421
30
0
41
1
10
67.5890399602133
20
-0.961982994395811
30
0
41
1
10
67.5835385729603
20
-0.912694866947334
30
0
41
1
10
67.5547705058329
20
-0.848055789720604
30
0
41
1
10
67.5321943877288
20
-0.832401853394629
30
0
41
1
10
67.492017094093
20
-0.829088174906303
30
0
41
1
10
67.4774017883954
20
-0.831389015424634
30
0
41
1
10
67.4470057070781
20
-0.84204844818268
30
0
41
1
10
67.4311076376583
20
-0.850379241730536
30
0
41
1
10
67.3813127231399
20
-0.884377511763518
30
0
41
1
10
67.3468560112629
20
-0.917748834826625
30
0
41
1
10
67.3117905432938
20
-0.962307130544673
30
0
0
SPLINE
5
C3
100
AcDbEntity
8
1
62
256
6
ByLayer
370
18
48
1
60
0
100
AcDbSpline
70
4
71
3
72
14
73
10
40
0
40
0
40
0
40
0
40
0.25
40
0.25
40
0.5
40
0.5
40
0.75
40
0.75
40
1
40
1
40
1
40
1
41
1
10
8.22939578178892
20
2.29991951413268
30
0
41
1
10
8.21044560678044
20
2.30494098901642
30
0
41
1
10
8.19163388844711
20
2.31177767305843
30
0
41
1
10
8.15433945274626
20
2.32952241387383
30
0
41
1
10
8.13564577545679
20
2.34057791214542
30
0
41
1
10
8.09990758171389
20
2.36721577846728
30
0
41
1
10
8.08275050776825
20
2.38284125896291
30
0
41
1
10
8.05137646269421
20
2.41934194510691
30
0
41
1
10
8.03742931158666
20
2.43998609392119
30
0
41
1
10
8.0263936406121
20
2.46251314889741
30
0
0
SPLINE
5
C4
100
AcDbEntity
8
1
62
256
6
ByLayer
370
18
48
1
60
0
100
AcDbSpline
70
4
71
3
72
36
73
32
40
0
40
0
40
0
40
0
40
0.108968033815713
40
0.108968033815713
40
0.16345205072357
40
0.16345205072357
40
0.217936067631426
40
0.217936067631426
40
0.326904101447139
40
0.326904101447139
40
0.381388118354996
40
0.381388118354996
40
0.435872135262852
40
0.435872135262852
40
0.544840169078564
40
0.544840169078564
40
0.599324185986419
40
0.599324185986419
40
0.653808202894275
40
0.653808202894275
40
0.70829221980213
40
0.70829221980213
40
0.762776236709986
40
0.762776236709986
40
0.871744270525697
40
0.871744270525697
40
0.926228287433552
40
0.926228287433552
40
0.980712304341408
40
0.980712304341408
40
1
40
1
40
1
40
1
41
1
10
8.2293957817889
20
0.139088795867878
30
0
41
1
10
8.53656660999633
20
-0.0105440994591959
30
0
41
1
10
8.84450933201265
20
-0.156702997734044
30
0
41
1
10
9.30597889470761
20
-0.374313095097506
30
0
41
1
10
9.45973426868068
20
-0.446559257877624
30
0
41
1
10
9.76682469281596
20
-0.591032668496609
30
0
41
1
10
9.92002689702099
20
-0.663523306878005
30
0
41
1
10
10.3817597388504
20
-0.875300188336126
30
0
41
1
10
10.6906329847862
20
-1.01064056210191
30
0
41
1
10
11.1516014470095
20
-1.20676813357585
30
0
41
1
10
11.3047724823055
20
-1.2714187609549
30
0
41
1
10
11.6114398167988
20
-1.39681500553272
30
0
41
1
10
11.7651830971416
20
-1.45714489450663
30
0
41
1
10
12.2272844584512
20
-1.63182907494573
30
0
41
1
10
12.5363293195072
20
-1.74031691606669
30
0
41
1
10
12.9962888490643
20
-1.89094579106859
30
0
41
1
10
13.1495558776342
20
-1.93859432589261
30
0
41
1
10
13.4568922117786
20
-2.02774217050362
30
0
41
1
10
13.6107845296713
20
-2.06949904647087
30
0
41
1
10
13.9185944830741
20
-2.14791261561902
30
0
41
1
10
14.0725816061849
20
-2.18448536425956
30
0
41
1
10
14.3805487498503
20
-2.25237604204148
30
0
41
1
10
14.5338431113901
20
-2.28375122294727
30
0
41
1
10
14.9947060629984
20
-2.36735772761486
30
0
41
1
10
15.3025189081823
20
-2.41018424503528
30
0
41
1
10
15.7635695694599
20
-2.45625857077741
30
0
41
1
10
15.9169786146778
20
-2.46858410237999
30
0
41
1
10
16.2241902932728
20
-2.48660373370322
30
0
41
1
10
16.3783787907203
20
-2.49223119177719
30
0
41
1
10
16.5868986639039
20
-2.49545859496905
30
0
41
1
10
16.6414056877697
20
-2.49590250717688
30
0
41
1
10
16.6958976395658
20
-2.49594325970185
30
0
0
SPLINE
5
C5
100
AcDbEntity
8
1
62
256
6
ByLayer
370
18
48
1
60
0
100
AcDbSpline
70
4
71
3
72
78
73
74
40
0
40
0
40
0
40
0
40
0.0179001688286056
40
0.0179001688286056
40
0.0612426914888383
40
0.0612426914888383
40
0.0829139528189556
40
0.0829139528189556
40
0.104585214149073
40
0.104585214149073
40
0.147927736809309
40
0.147927736809309
40
0.169598998139427
40
0.169598998139427
40
0.191270259469545
40
0.191270259469545
40
0.212941520799663
40
0.212941520799663
40
0.234612782129781
40
0.234612782129781
40
0.277955304790017
40
0.277955304790017
40
0.299626566120135
40
0.299626566120135
40
0.321297827450253
40
0.321297827450253
40
0.36464035011049
40
0.36464035011049
40
0.386311611440608
40
0.386311611440608
40
0.407982872770726
40
0.407982872770726
40
0.429654134100844
40
0.429654134100844
40
0.451325395430962
40
0.451325395430962
40
0.494667918091197
40
0.494667918091197
40
0.516339179421315
40
0.516339179421315
40
0.538010440751433
40
0.538010440751433
40
0.581352963411667
40
0.581352963411667
40
0.603024224741784
40
0.603024224741784
40
0.624695486071901
40
0.624695486071901
40
0.646366747402019
40
0.646366747402019
40
0.668038008732136
40
0.668038008732136
40
0.711380531392372
40
0.711380531392372
40
0.733051792722491
40
0.733051792722491
40
0.75472305405261
40
0.75472305405261
40
0.798065576712846
40
0.798065576712846
40
0.819736838042963
40
0.819736838042963
40
0.841408099373081
40
0.841408099373081
40
0.884750622033318
40
0.884750622033318
40
0.928093144693554
40
0.928093144693554
40
0.949764406023672
40
0.949764406023672
40
0.971435667353791
40
0.971435667353791
40
1
40
1
40
1
40
1
41
1
10
28.1414559291016
20
1.46970667567177
30
0
41
1
10
28.2680968872954
20
1.51932135316227
30
0
41
1
10
28.3944796393113
20
1.56802696861521
30
0
41
1
10
28.827760072655
20
1.72856082567557
30
0
41
1
10
29.1366167483867
20
1.83199638309378
30
0
41
1
10
29.5982398853008
20
1.97359608897955
30
0
41
1
10
29.7517937527607
20
2.01842658699633
30
0
41
1
10
30.0580054895095
20
2.10345830065287
30
0
41
1
10
30.2113252812647
20
2.14286142455367
30
0
41
1
10
30.6721479871193
20
2.25187665397914
30
0
41
1
10
30.9803217106056
20
2.31300711902296
30
0
41
1
10
31.4415099263016
20
2.38748212790242
30
0
41
1
10
31.5946303835689
20
2.4093558047222
30
0
41
1
10
31.9016780692322
20
2.44608514630812
30
0
41
1
10
32.0553918553788
20
2.46112810162324
30
0
41
1
10
32.3627125803627
20
2.48492519473964
30
0
41
1
10
32.5163287209716
20
2.49366183910956
30
0
41
1
10
32.8234629815734
20
2.50468646530553
30
0
41
1
10
32.9766742197914
20
2.50697273770243
30
0
41
1
10
33.4376121336198
20
2.50372171952358
30
0
41
1
10
33.7458103168374
20
2.48850148905069
30
0
41
1
10
34.2064882114218
20
2.44652631948412
30
0
41
1
10
34.3599203236034
20
2.42933187795924
30
0
41
1
10
34.6661372376697
20
2.38807243155077
30
0
41
1
10
34.8194797539104
20
2.364302278601
30
0
41
1
10
35.281051501134
20
2.28448291078618
30
0
41
1
10
35.5896830293033
20
2.21961113800287
30
0
41
1
10
36.0496866223905
20
2.1041343824383
30
0
41
1
10
36.2024991972577
20
2.06230459518136
30
0
41
1
10
36.5092169734012
20
1.97448956483535
30
0
41
1
10
36.6629337056161
20
1.92833625641939
30
0
41
1
10
36.9706219043971
20
1.83104382552756
30
0
41
1
10
37.1247123770367
20
1.77982123514465
30
0
41
1
10
37.4324788242917
20
1.67245482535384
30
0
41
1
10
37.5857265737374
20
1.61593525400053
30
0
41
1
10
38.0453864669431
20
1.44064444232339
30
0
41
1
10
38.3528535607255
20
1.31821850495854
30
0
41
1
10
38.813795503703
20
1.1234670560238
30
0
41
1
10
38.9674870011326
20
1.05683539834948
30
0
41
1
10
39.274555182228
20
0.91920852910539
30
0
41
1
10
39.428047438367
20
0.849092539203639
30
0
41
1
10
39.8890159743076
20
0.638431346664589
30
0
41
1
10
40.1964251228415
20
0.495564234770001
30
0
41
1
10
40.6564916227846
20
0.275153691524338
30
0
41
1
10
40.8094373000039
20
0.200156354788021
30
0
41
1
10
41.1166538226086
20
0.0515732216592255
30
0
41
1
10
41.2708680912463
20
-0.022333622869553
30
0
41
1
10
41.5786557421487
20
-0.169576042388314
30
0
41
1
10
41.7323377362048
20
-0.24306456805067
30
0
41
1
10
42.0392940552919
20
-0.389731583924316
30
0
41
1
10
42.1923662881122
20
-0.463325136469109
30
0
41
1
10
42.6515260405472
20
-0.682438494951128
30
0
41
1
10
42.9597345660443
20
-0.822866841434319
30
0
41
1
10
43.4215009520179
20
-1.02796138845665
30
0
41
1
10
43.5751527424943
20
-1.09510695139858
30
0
41
1
10
43.8815108479543
20
-1.22762573488799
30
0
41
1
10
44.0344457522398
20
-1.29254482328497
30
0
41
1
10
44.4946770480027
20
-1.47953727935899
30
0
41
1
10
44.8022896444867
20
-1.5959839622389
30
0
41
1
10
45.2636625056678
20
-1.76017929063414
30
0
41
1
10
45.4168193476981
20
-1.8133776975242
30
0
41
1
10
45.7235449350049
20
-1.91349796125772
30
0
41
1
10
45.8771074819008
20
-1.96060110654554
30
0
41
1
10
46.3378349659472
20
-2.09406061268191
30
0
41
1
10
46.6448013697354
20
-2.17290871847788
30
0
41
1
10
47.2580413049266
20
-2.3094595994568
30
0
41
1
10
47.5665601562388
20
-2.36451460553764
30
0
41
1
10
48.0283174574463
20
-2.42908883625213
30
0
41
1
10
48.1823478373628
20
-2.44755424705309
30
0
41
1
10
48.489191345613
20
-2.47821757727434
30
0
41
1
10
48.6421542475101
20
-2.49033351002848
30
0
41
1
10
48.9977251046419
20
-2.51047601362365
30
0
41
1
10
49.2001419467978
20
-2.51627195610769
30
0
41
1
10
49.4025437784609
20
-2.51640391658452
30
0
0
SPLINE
5
C6
100
AcDbEntity
8
1
62
256
6
ByLayer
370
18
48
1
60
0
100
AcDbSpline
70
4
71
3
72
30
73
26
40
0
40
0
40
0
40
0
40
0.0602872563639835
40
0.0602872563639835
40
0.132572852028294
40
0.132572852028294
40
0.204858447692603
40
0.204858447692603
40
0.277144043356913
40
0.277144043356913
40
0.421715234685532
40
0.421715234685532
40
0.49400083034984
40
0.49400083034984
40
0.566286426014147
40
0.566286426014147
40
0.710857617342762
40
0.710857617342762
40
0.783143213007072
40
0.783143213007072
40
0.855428808671381
40
0.855428808671381
40
0.927714404335691
40
0.927714404335691
40
1
40
1
40
1
40
1
41
1
10
60.842400640651
20
1.48026108353423
30
0
41
1
10
60.9699528757371
20
1.53094744786955
30
0
41
1
10
61.0975177456564
20
1.58018649888805
30
0
41
1
10
61.3787475252523
20
1.68424367227073
30
0
41
1
10
61.5323619455135
20
1.7385554341387
30
0
41
1
10
61.8396978474556
20
1.84302276892018
30
0
41
1
10
61.99364671181
20
1.89312652303542
30
0
41
1
10
62.3007251551987
20
1.98877157530995
30
0
41
1
10
62.4535548842149
20
2.03459761841032
30
0
41
1
10
62.9131383819224
20
2.16205225004251
30
0
41
1
10
63.2202899975718
20
2.23488433169888
30
0
41
1
10
63.6805903062028
20
2.32775357662169
30
0
41
1
10
63.8338313871221
20
2.3560231746431
30
0
41
1
10
64.1406235016968
20
2.40639880641948
30
0
41
1
10
64.2941260763301
20
2.42812638292682
30
0
41
1
10
64.7547014244541
20
2.48357885423763
30
0
41
1
10
65.061571829297
20
2.50786657498767
30
0
41
1
10
65.5204515249457
20
2.52497041719681
30
0
41
1
10
65.6733222174371
20
2.52733785823264
30
0
41
1
10
65.9804167667521
20
2.52543884761698
30
0
41
1
10
66.1345415012894
20
2.52121619953232
30
0
41
1
10
66.4419297938067
20
2.5062978340157
30
0
41
1
10
66.5953757510713
20
2.49560531724765
30
0
41
1
10
66.9016731976617
20
2.46762579292874
30
0
41
1
10
67.0542142437243
20
2.4501530950327
30
0
41
1
10
67.207165578624
20
2.42966024742364
30
0
0
SPLINE
5
C7
100
AcDbEntity
8
1
62
256
6
ByLayer
370
18
48
1
60
0
100
AcDbSpline
70
4
71
3
72
8
73
4
40
0
40
0
40
0
40
0
40
1
40
1
40
1
40
1
41
1
10
8.25071372972738
20
2.29707456752428
30
0
41
1
10
8.2436259602849
20
2.29774414850704
30
0
41
1
10
8.23650876824436
20
2.29869149456187
30
0
41
1
10
8.22939578178892
20
2.29991951413268
30
0
0
SPLINE
5
C8
100
AcDbEntity
8
1
62
256
6
ByLayer
370
18
48
1
60
0
100
AcDbSpline
70
4
71
3
72
8
73
4
40
0
40
0
40
0
40
0
40
1
40
1
40
1
40
1
41
1
10
8.14206905188837
20
0.531572165001649
30
0
41
1
10
8.11841488779339
20
0.542629710121417
30
0
41
1
10
8.09711745239298
20
0.556932032461674
30
0
41
1
10
8.07814905352845
20
0.574401610272474
30
0
0
SPLINE
5
C9
100
AcDbEntity
8
1
62
256
6
ByLayer
370
18
48
1
60
0
100
AcDbSpline
70
4
71
3
72
8
73
4
40
0
40
0
40
0
40
0
40
1
40
1
40
1
40
1
41
1
10
8.22939578178892
20
-2.2999195141326
30
0
41
1
10
8.23650876824425
20
-2.29869149456184
30
0
41
1
10
8.24362596028766
20
-2.29774414850712
30
0
41
1
10
8.25071372972999
20
-2.29707456752448
30
0
0
SPLINE
5
CA
100
AcDbEntity
8
1
62
256
6
ByLayer
370
18
48
1
60
0
100
AcDbSpline
70
4
71
3
72
8
73
4
40
0
40
0
40
0
40
0
40
1
40
1
40
1
40
1
41
1
10
67.2071655786233
20
2.42966024742438
30
0
41
1
10
67.1733582091198
20
2.46626412614126
30
0
41
1
10
67.14354899586
20
2.49275430535823
30
0
41
1
10
67.1174797738651
20
2.50891210427622
30
0
0
SPLINE
5
CB
100
AcDbEntity
8
1
62
256
6
ByLayer
370
13
48
1
60
0
100
AcDbSpline
70
4
71
3
72
20
73
16
40
0
40
0
40
0
40
0
40
0.125
40
0.125
40
0.25
40
0.25
40
0.5
40
0.5
40
0.624999999999999
40
0.624999999999999
40
0.75
40
0.75
40
0.875
40
0.875
40
1
40
1
40
1
40
1
41
1
10
8.25034769000499
20
0.557724400360399
30
0
41
1
10
8.25037721120904
20
0.664584485672009
30
0
41
1
10
8.25040210032753
20
0.768728879763216
30
0
41
1
10
8.25044514415478
20
0.971699271501251
30
0
41
1
10
8.25046338884204
20
1.07114996965302
30
0
41
1
10
8.25051066328137
20
1.35600861009783
30
0
41
1
10
8.25053251354063
20
1.52773566904992
30
0
41
1
10
8.2505648157553
20
1.75782576155186
30
0
41
1
10
8.25057537675491
20
1.82914646237359
30
0
41
1
10
8.25059767210976
20
1.95922538416255
30
0
41
1
10
8.25060945989554
20
2.01817002443301
30
0
41
1
10
8.25063501572384
20
2.12150018484345
30
0
41
1
10
8.25064884369328
20
2.16629671545249
30
0
41
1
10
8.25067923121887
20
2.24218563051912
30
0
41
1
10
8.25069586874747
20
2.27336982755366
30
0
41
1
10
8.25071372972451
20
2.29707456752504
30
0
0
SPLINE
5
CC
100
AcDbEntity
8
1
62
256
6
ByLayer
370
18
48
1
60
0
100
AcDbSpline
70
4
71
3
72
80
73
76
40
0
40
0
40
0
40
0
40
0.0033473089857291
40
0.0033473089857291
40
0.0457220010344303
40
0.0457220010344303
40
0.066909347058781
40
0.066909347058781
40
0.0880966930831315
40
0.0880966930831315
40
0.130471385131831
40
0.130471385131831
40
0.151658731156181
40
0.151658731156181
40
0.172846077180531
40
0.172846077180531
40
0.215220769229229
40
0.215220769229229
40
0.236408115253577
40
0.236408115253577
40
0.257595461277926
40
0.257595461277926
40
0.299970153326626
40
0.299970153326626
40
0.321157499350976
40
0.321157499350976
40
0.342344845375326
40
0.342344845375326
40
0.363532191399676
40
0.363532191399676
40
0.384719537424025
40
0.384719537424025
40
0.405906883448375
40
0.405906883448375
40
0.427094229472725
40
0.427094229472725
40
0.448281575497074
40
0.448281575497074
40
0.469468921521424
40
0.469468921521424
40
0.490656267545774
40
0.490656267545774
40
0.511843613570124
40
0.511843613570124
40
0.533030959594474
40
0.533030959594474
40
0.554218305618823
40
0.554218305618823
40
0.596592997667521
40
0.596592997667521
40
0.638967689716219
40
0.638967689716219
40
0.660155035740569
40
0.660155035740569
40
0.681342381764919
40
0.681342381764919
40
0.72371707381362
40
0.72371707381362
40
0.766091765862321
40
0.766091765862321
40
0.808466457911022
40
0.808466457911022
40
0.829653803935374
40
0.829653803935374
40
0.850841149959725
40
0.850841149959725
40
0.893215842008428
40
0.893215842008428
40
0.935590534057131
40
0.935590534057131
40
0.956777880081482
40
0.956777880081482
40
0.977965226105834
40
0.977965226105834
40
1
40
1
40
1
40
1
41
1
10
60.8345762602571
20
-1.48369375659954
30
0
41
1
10
60.811175296781
20
-1.49210133054379
30
0
41
1
10
60.7877828810521
20
-1.50046680917956
30
0
41
1
10
60.468387416892
20
-1.61415455338943
30
0
41
1
10
60.1722589568874
20
-1.71154301190955
30
0
41
1
10
59.7272120502628
20
-1.84391118687054
30
0
41
1
10
59.5787021928384
20
-1.88601051656775
30
0
41
1
10
59.2813510084316
20
-1.96602039454629
30
0
41
1
10
59.1330643915072
20
-2.00400496443996
30
0
41
1
10
58.6883680978821
20
-2.10987627722216
30
0
41
1
10
58.3921332610227
20
-2.16967393836134
30
0
41
1
10
57.9475381993307
20
-2.24212734390835
30
0
41
1
10
57.7991993917386
20
-2.26372092183817
30
0
41
1
10
57.5027502761237
20
-2.302308900003
30
0
41
1
10
57.354142259496
20
-2.31898451528451
30
0
41
1
10
56.9085923863697
20
-2.36026124331579
30
0
41
1
10
56.6121822398497
20
-2.37589379852776
30
0
41
1
10
56.1678553554143
20
-2.38133858009607
30
0
41
1
10
56.0199698612311
20
-2.38031093211129
30
0
41
1
10
55.7237521573788
20
-2.37221226647958
30
0
41
1
10
55.5754428574811
20
-2.36520771536851
30
0
41
1
10
55.1298710014881
20
-2.33582093566344
30
0
41
1
10
54.8324405463248
20
-2.30579469645377
30
0
41
1
10
54.3883343382453
20
-2.2438489370318
30
0
41
1
10
54.2402764150444
20
-2.22049513589133
30
0
41
1
10
53.9439810861768
20
-2.16805196400401
30
0
41
1
10
53.7957888365601
20
-2.13842555031763
30
0
41
1
10
53.499078295355
20
-2.07459578403979
30
0
41
1
10
53.350510355182
20
-2.04074467667442
30
0
41
1
10
53.0532341534124
20
-1.96793538104973
30
0
41
1
10
52.905055231035
20
-1.92881082645386
30
0
41
1
10
52.6086386204989
20
-1.84635009995316
30
0
41
1
10
52.460452896205
20
-1.80298373066671
30
0
41
1
10
52.1641142624027
20
-1.71199572272582
30
0
41
1
10
52.0160267850864
20
-1.66356411769129
30
0
41
1
10
51.7196366453374
20
-1.56328147994915
30
0
41
1
10
51.571342947514
20
-1.51165611620351
30
0
41
1
10
51.2748270649579
20
-1.40425446663477
30
0
41
1
10
51.1261821119583
20
-1.34893374678492
30
0
41
1
10
50.8292406896753
20
-1.2355689654691
30
0
41
1
10
50.6809090088411
20
-1.17745884108254
30
0
41
1
10
50.3844454413403
20
-1.05847335990586
30
0
41
1
10
50.2363691983888
20
-0.997202822453488
30
0
41
1
10
49.9403109908714
20
-0.871796652932773
30
0
41
1
10
49.792437036041
20
-0.807929152719396
30
0
41
1
10
49.4961222933584
20
-0.679263997936971
30
0
41
1
10
49.3477605951186
20
-0.614289480287169
30
0
41
1
10
48.9021017164874
20
-0.41717298531816
30
0
41
1
10
48.6051756590648
20
-0.283440163153386
30
0
41
1
10
48.0137216579932
20
-0.0119123011494651
30
0
41
1
10
47.7176956563127
20
0.123355742573153
30
0
41
1
10
47.2728364806104
20
0.324700424879097
30
0
41
1
10
47.1242915563004
20
0.391531401455723
30
0
41
1
10
46.8273218313146
20
0.524392867423728
30
0
41
1
10
46.67927791767
20
0.590748744232656
30
0
41
1
10
46.2349310349129
20
0.786062709843833
30
0
41
1
10
45.9389316672744
20
0.912320012190008
30
0
41
1
10
45.346569295181
20
1.15444660695229
30
0
41
1
10
45.0499455664608
20
1.2719222510772
30
0
41
1
10
44.4565294687955
20
1.49196079268498
30
0
41
1
10
44.16036560121
20
1.59473291678523
30
0
41
1
10
43.7164019431408
20
1.73616894433653
30
0
41
1
10
43.5686333231791
20
1.7816535620421
30
0
41
1
10
43.2724182044601
20
1.86802532293032
30
0
41
1
10
43.1241028781685
20
1.90906400518432
30
0
41
1
10
42.6785732239761
20
2.02539970148052
30
0
41
1
10
42.3820935277335
20
2.09305655548977
30
0
41
1
10
41.7909046234724
20
2.20523517195454
30
0
41
1
10
41.4948442003829
20
2.25181405939148
30
0
41
1
10
41.0500333952014
20
2.3057496431974
30
0
41
1
10
40.9014754711838
20
2.32111365481381
30
0
41
1
10
40.6047940702674
20
2.34581168599888
30
0
41
1
10
40.4569309375351
20
2.35517666705408
30
0
41
1
10
40.1551065661045
20
2.3676260857803
30
0
41
1
10
40.0012485684657
20
2.37104818590007
30
0
41
1
10
39.847371165978
20
2.37127628604628
30
0
0
SPLINE
5
CD
100
AcDbEntity
8
1
62
256
6
ByLayer
370
18
48
1
60
0
100
AcDbSpline
70
4
71
3
72
76
73
72
40
0
40
0
40
0
40
0
40
0.01464620102306
40
0.01464620102306
40
0.0594350100674716
40
0.0594350100674716
40
0.0818294145896761
40
0.0818294145896761
40
0.104223819111881
40
0.104223819111881
40
0.149012628156289
40
0.149012628156289
40
0.171407032678492
40
0.171407032678492
40
0.193801437200696
40
0.193801437200696
40
0.2161958417229
40
0.2161958417229
40
0.238590246245104
40
0.238590246245104
40
0.260984650767308
40
0.260984650767308
40
0.283379055289511
40
0.283379055289511
40
0.328167864333918
40
0.328167864333918
40
0.372956673378325
40
0.372956673378325
40
0.395351077900528
40
0.395351077900528
40
0.417745482422732
40
0.417745482422732
40
0.440139886944934
40
0.440139886944934
40
0.462534291467138
40
0.462534291467138
40
0.484928695989341
40
0.484928695989341
40
0.507323100511544
40
0.507323100511544
40
0.529717505033747
40
0.529717505033747
40
0.55211190955595
40
0.55211190955595
40
0.574506314078153
40
0.574506314078153
40
0.596900718600356
40
0.596900718600356
40
0.61929512312256
40
0.61929512312256
40
0.641689527644763
40
0.641689527644763
40
0.686478336689169
40
0.686478336689169
40
0.708872741211371
40
0.708872741211371
40
0.731267145733574
40
0.731267145733574
40
0.776055954777978
40
0.776055954777978
40
0.820844763822383
40
0.820844763822383
40
0.843239168344585
40
0.843239168344585
40
0.865633572866787
40
0.865633572866787
40
0.910422381911191
40
0.910422381911191
40
0.955211190955596
40
0.955211190955596
40
1
40
1
40
1
40
1
41
1
10
28.1531751999942
20
-1.46813213958086
30
0
41
1
10
28.0562237121116
20
-1.50277149313322
30
0
41
1
10
27.959287593612
20
-1.53664995053754
30
0
41
1
10
27.5657923125678
20
-1.67056180354936
30
0
41
1
10
27.2692740422555
20
-1.76394755141058
30
0
41
1
10
26.824048752909
20
-1.88895209579093
30
0
41
1
10
26.6756213384185
20
-1.9284285676126
30
0
41
1
10
26.3784734248114
20
-2.00306285243048
30
0
41
1
10
26.229932048531
20
-2.03808808765322
30
0
41
1
10
25.7845308212392
20
-2.13579556434922
30
0
41
1
10
25.4876966008896
20
-2.19115342498449
30
0
41
1
10
25.0432449193759
20
-2.25607525934461
30
0
41
1
10
24.8949470284355
20
-2.27460553757308
30
0
41
1
10
24.5977728999473
20
-2.30687124908016
30
0
41
1
10
24.44887306815
20
-2.32053189162542
30
0
41
1
10
24.1516157075329
20
-2.34226903889734
30
0
41
1
10
24.003124497414
20
-2.35035286195773
30
0
41
1
10
23.7063918680703
20
-2.36074889298041
30
0
41
1
10
23.558327049102
20
-2.36307657820066
30
0
41
1
10
23.26195732631
20
-2.36129346697797
30
0
41
1
10
23.1136596343493
20
-2.35715146903965
30
0
41
1
10
22.8167386358271
20
-2.34358347140952
30
0
41
1
10
22.6681278895205
20
-2.3342492225926
30
0
41
1
10
22.2216816667952
20
-2.29705995478511
30
0
41
1
10
21.9253267182874
20
-2.26045386206096
30
0
41
1
10
21.3319431172932
20
-2.16845796218405
30
0
41
1
10
21.0352205654895
20
-2.11213465309459
30
0
41
1
10
20.5895026862981
20
-2.0094223317584
30
0
41
1
10
20.440901585831
20
-1.97141080452474
30
0
41
1
10
20.1435521066428
20
-1.89339299918206
30
0
41
1
10
19.9948777833085
20
-1.85264391453404
30
0
41
1
10
19.6976770454867
20
-1.76682400627823
30
0
41
1
10
19.5491329101387
20
-1.72185252237514
30
0
41
1
10
19.2520545946908
20
-1.62784206841479
30
0
41
1
10
19.1035159038566
20
-1.57897051532029
30
0
41
1
10
18.8067039130408
20
-1.47546913434326
30
0
41
1
10
18.6581081723712
20
-1.4214356018241
30
0
41
1
10
18.3603257881885
20
-1.3110363233516
30
0
41
1
10
18.2113725557948
20
-1.25450627388167
30
0
41
1
10
17.9139975046691
20
-1.13811727498702
30
0
41
1
10
17.7654400507664
20
-1.07840262166056
30
0
41
1
10
17.4684038931593
20
-0.956911459517897
30
0
41
1
10
17.3201387129835
20
-0.894649712993669
30
0
41
1
10
17.0231677476074
20
-0.768740855004012
30
0
41
1
10
16.8745362351682
20
-0.704970888396872
30
0
41
1
10
16.576984575364
20
-0.575719776544645
30
0
41
1
10
16.4278772167894
20
-0.510272614339215
30
0
41
1
10
16.1302006977807
20
-0.37784928640454
30
0
41
1
10
15.9817421956302
20
-0.310727584425621
30
0
41
1
10
15.6849869158046
20
-0.176064283697059
30
0
41
1
10
15.5365417552012
20
-0.108842495046872
30
0
41
1
10
15.0910109791442
20
0.0925234043489525
30
0
41
1
10
14.793848255491
20
0.226633416232119
30
0
41
1
10
14.3473375379764
20
0.426417362071987
30
0
41
1
10
14.1986213378905
20
0.49314965895806
30
0
41
1
10
13.9012468404227
20
0.624125870165898
30
0
41
1
10
13.7525836751322
20
0.688686615638318
30
0
41
1
10
13.3067561520057
20
0.879563859793933
30
0
41
1
10
13.0096590055911
20
1.00296486849623
30
0
41
1
10
12.4153773208723
20
1.24032922769302
30
0
41
1
10
12.1169892967483
20
1.35287784453064
30
0
41
1
10
11.6707692698702
20
1.51107586762976
30
0
41
1
10
11.5221182045029
20
1.56199636381075
30
0
41
1
10
11.2250229934739
20
1.66006639699683
30
0
41
1
10
11.0767430286809
20
1.70745709067637
30
0
41
1
10
10.6310059579806
20
1.8417935704064
30
0
41
1
10
10.3326558230771
20
1.92232292342803
30
0
41
1
10
9.73714265313302
20
2.06514683487785
30
0
41
1
10
9.44051262542376
20
2.12739385051683
30
0
41
1
10
8.84643842023104
20
2.22922770781287
30
0
41
1
10
8.54893077621222
20
2.2689020282379
30
0
41
1
10
8.25071372972448
20
2.29707456752507
30
0
0
SPLINE
5
CE
100
AcDbEntity
8
1
62
256
6
ByLayer
370
18
48
1
60
0
100
AcDbSpline
70
4
71
3
72
22
73
18
40
0
40
0
40
0
40
0
40
0.125
40
0.125
40
0.25
40
0.25
40
0.375
40
0.375
40
0.499999999999999
40
0.499999999999999
40
0.624999999999999
40
0.624999999999999
40
0.6875
40
0.6875
40
0.75
40
0.75
40
1
40
1
40
1
40
1
41
1
10
8.02616907006552
20
0.682826105230504
30
0
41
1
10
8.02618666175971
20
0.797470279875427
30
0
41
1
10
8.02620175658845
20
0.909368633979796
30
0
41
1
10
8.02622823415018
20
1.12762222724194
30
0
41
1
10
8.02623941293064
20
1.23227015032737
30
0
41
1
10
8.02625905664945
20
1.43174770824808
30
0
41
1
10
8.02626754209615
20
1.52678579121741
30
0
41
1
10
8.02628317910268
20
1.70730714492197
30
0
41
1
10
8.02629034999234
20
1.79298050312059
30
0
41
1
10
8.02630414809795
20
1.94926161961749
30
0
41
1
10
8.02631083759789
20
2.02061836910715
30
0
41
1
10
8.02632130922208
20
2.11753792353502
30
0
41
1
10
8.02632487039412
20
2.14815220003231
30
0
41
1
10
8.02633223533891
20
2.20592800704299
30
0
41
1
10
8.02633605417034
20
2.23317280978384
30
0
41
1
10
8.02635568060003
20
2.3587099539136
30
0
41
1
10
8.02637341504158
20
2.42684082961364
30
0
41
1
10
8.02639364061153
20
2.46251314889741
30
0
0
SPLINE
5
CF
100
AcDbEntity
8
1
62
256
6
ByLayer
370
18
48
1
60
0
100
AcDbSpline
70
4
71
3
72
8
73
4
40
0
40
0
40
0
40
0
40
1
40
1
40
1
40
1
41
1
10
67.2071655786225
20
-2.4296602474252
30
0
41
1
10
67.1733582091193
20
-2.46626412614165
30
0
41
1
10
67.1435489958598
20
-2.49275430535835
30
0
41
1
10
67.1174797738651
20
-2.50891210427619
30
0
0
SPLINE
5
D0
100
AcDbEntity
8
1
62
256
6
ByLayer
370
18
48
1
60
0
100
AcDbSpline
70
4
71
3
72
8
73
4
40
0
40
0
40
0
40
0
40
1
40
1
40
1
40
1
41
1
10
67.8890657386978
20
-0.720514507976276
30
0
41
1
10
67.9232409024312
20
-0.520910167448989
30
0
41
1
10
67.9533574142772
20
-0.32132713593225
30
0
41
1
10
67.9793849531358
20
-0.12176557261995
30
0
0
SPLINE
5
D1
100
AcDbEntity
8
1
62
256
6
ByLayer
370
18
48
1
60
0
100
AcDbSpline
70
4
71
3
72
16
73
12
40
0
40
0
40
0
40
0
40
0.251382571734804
40
0.251382571734804
40
0.502765143469608
40
0.502765143469608
40
0.754147715204413
40
0.754147715204413
40
0.879839001071815
40
0.879839001071815
40
1
40
1
40
1
40
1
41
1
10
8.25071372972448
20
-2.29707456752499
30
0
41
1
10
8.54909591022144
20
-2.26888642804181
30
0
41
1
10
8.84676327520009
20
-2.22918407510011
30
0
41
1
10
9.44114795475667
20
-2.12727287273691
30
0
41
1
10
9.73792978008282
20
-2.06497756473729
30
0
41
1
10
10.3337403056294
20
-1.9220432578326
30
0
41
1
10
10.6322718593175
20
-1.84144270127945
30
0
41
1
10
11.0782108022604
20
-1.70699929928622
30
0
41
1
10
11.2265492328556
20
-1.65957417400983
30
0
41
1
10
11.5172095663567
20
-1.56360549307985
30
0
41
1
10
11.6593556119615
20
-1.51497676112916
30
0
41
1
10
11.8015764802613
20
-1.46469225548549
30
0
0
SPLINE
5
D2
100
AcDbEntity
8
1
62
256
6
ByLayer
370
18
48
1
60
0
100
AcDbSpline
70
4
71
3
72
78
73
74
40
0
40
0
40
0
40
0
40
0.0177362310630155
40
0.0177362310630155
40
0.0389011575035217
40
0.0389011575035217
40
0.0600660839440278
40
0.0600660839440278
40
0.081231010384534
40
0.081231010384534
40
0.123560863265547
40
0.123560863265547
40
0.144725789706053
40
0.144725789706053
40
0.16589071614656
40
0.16589071614656
40
0.208220569027573
40
0.208220569027573
40
0.22938549546808
40
0.22938549546808
40
0.250550421908588
40
0.250550421908588
40
0.292880274789601
40
0.292880274789601
40
0.314045201230106
40
0.314045201230106
40
0.335210127670612
40
0.335210127670612
40
0.356375054111118
40
0.356375054111118
40
0.377539980551623
40
0.377539980551623
40
0.419869833432633
40
0.419869833432633
40
0.462199686313643
40
0.462199686313643
40
0.504529539194653
40
0.504529539194653
40
0.525694465635158
40
0.525694465635158
40
0.546859392075663
40
0.546859392075663
40
0.589189244956671
40
0.589189244956671
40
0.631519097837679
40
0.631519097837679
40
0.652684024278183
40
0.652684024278183
40
0.673848950718687
40
0.673848950718687
40
0.716178803599694
40
0.716178803599694
40
0.737343730040197
40
0.737343730040197
40
0.7585086564807
40
0.7585086564807
40
0.779673582921203
40
0.779673582921203
40
0.800838509361707
40
0.800838509361707
40
0.82200343580221
40
0.82200343580221
40
0.843168362242714
40
0.843168362242714
40
0.88549821512372
40
0.88549821512372
40
0.927828068004727
40
0.927828068004727
40
0.94899299444523
40
0.94899299444523
40
0.970157920885733
40
0.970157920885733
40
1
40
1
40
1
40
1
41
1
10
23.4894426950411
20
2.36235704746548
30
0
41
1
10
23.6137057348762
20
2.3621511002915
30
0
41
1
10
23.7379000801606
20
2.35972403689095
30
0
41
1
10
24.0106788067525
20
2.3499884860492
30
0
41
1
10
24.1591636924564
20
2.34180779445086
30
0
41
1
10
24.4563125594689
20
2.31989247186351
30
0
41
1
10
24.6049985022138
20
2.30616802410245
30
0
41
1
10
24.9025358937485
20
2.27369612811236
30
0
41
1
10
25.0511193010849
20
2.25503218278027
30
0
41
1
10
25.4960903664347
20
2.18970405330327
30
0
41
1
10
25.7930131813866
20
2.13411544509097
30
0
41
1
10
26.2382454951517
20
2.03617016811214
30
0
41
1
10
26.3866777467157
20
2.00108180874218
30
0
41
1
10
26.6835127364572
20
1.92636242916373
30
0
41
1
10
26.8320713589251
20
1.88678801516704
30
0
41
1
10
27.2779682561596
20
1.76132213815185
30
0
41
1
10
27.574655670079
20
1.66769940497056
30
0
41
1
10
28.01936654676
20
1.51612381300487
30
0
41
1
10
28.1674613755779
20
1.46354112872987
30
0
41
1
10
28.4637938791321
20
1.35527443395759
30
0
41
1
10
28.6122231201062
20
1.30007553741657
30
0
41
1
10
29.0579050779834
20
1.12875444509339
30
0
41
1
10
29.3553023094297
20
1.00773210221226
30
0
41
1
10
29.7997837202987
20
0.819466564033291
30
0
41
1
10
29.9478559859546
20
0.755643143376659
30
0
41
1
10
30.2443100631996
20
0.627140315020171
30
0
41
1
10
30.3924823865732
20
0.562176108839452
30
0
41
1
10
30.6891776490037
20
0.430573558408696
30
0
41
1
10
30.8377336301914
20
0.36405104182208
30
0
41
1
10
31.135115274562
20
0.229848062008784
30
0
41
1
10
31.2834193530693
20
0.162099055729755
30
0
41
1
10
31.728397321824
20
-0.0404008765928836
30
0
41
1
10
32.025090534643
20
-0.174536960286275
30
0
41
1
10
32.6181505136386
20
-0.44209543742349
30
0
41
1
10
32.9149330616674
20
-0.575719208101447
30
0
41
1
10
33.5091556031239
20
-0.833914767596724
30
0
41
1
10
33.8057264569269
20
-0.95823401627257
30
0
41
1
10
34.2502854718088
20
-1.13795858772699
30
0
41
1
10
34.3982715767476
20
-1.19699738725899
30
0
41
1
10
34.6947820150201
20
-1.3117297007305
30
0
41
1
10
34.8431572539671
20
-1.36792305698631
30
0
41
1
10
35.2887337964143
20
-1.53157282082464
30
0
41
1
10
35.5856636169106
20
-1.6318462367378
30
0
41
1
10
36.1777757475592
20
-1.81600691645818
30
0
41
1
10
36.4740544602566
20
-1.89953460588299
30
0
41
1
10
36.9189118628299
20
-2.01243928453502
30
0
41
1
10
37.0674386631208
20
-2.04754802384343
30
0
41
1
10
37.3643683630179
20
-2.1126858749661
30
0
41
1
10
37.5124015711398
20
-2.14320729597458
30
0
41
1
10
37.9568543235776
20
-2.22604097504262
30
0
41
1
10
38.2530232055424
20
-2.26867648888577
30
0
41
1
10
38.6976082432298
20
-2.31601461024991
30
0
41
1
10
38.8458528210443
20
-2.32895664025608
30
0
41
1
10
39.1423465954271
20
-2.35029720463305
30
0
41
1
10
39.2908479095233
20
-2.35877607809587
30
0
41
1
10
39.5874955088788
20
-2.36963552655732
30
0
41
1
10
39.7356745036674
20
-2.37168470484954
30
0
41
1
10
40.0318535979376
20
-2.37011245232958
30
0
41
1
10
40.1798388230596
20
-2.36685303185186
30
0
41
1
10
40.4756785511302
20
-2.35412285598719
30
0
41
1
10
40.6234280004263
20
-2.34448883334429
30
0
41
1
10
40.9197312207617
20
-2.31933528417295
30
0
41
1
10
41.0680992539838
20
-2.3037629957027
30
0
41
1
10
41.5137608196193
20
-2.24907214956315
30
0
41
1
10
41.8103229996886
20
-2.20199850030207
30
0
41
1
10
42.4017657082463
20
-2.08884531134549
30
0
41
1
10
42.6979226332032
20
-2.02073539827998
30
0
41
1
10
43.14300796217
20
-1.90391412915955
30
0
41
1
10
43.2916474970024
20
-1.86260070647836
30
0
41
1
10
43.588362121688
20
-1.77569296245787
30
0
41
1
10
43.7363342298524
20
-1.72998488386901
30
0
41
1
10
44.0933019465624
20
-1.61583488133641
30
0
41
1
10
44.3020891144836
20
-1.54486768040769
30
0
41
1
10
44.5109460928269
20
-1.47019249400211
30
0
0
SPLINE
5
D3
100
AcDbEntity
8
1
62
256
6
ByLayer
370
18
48
1
60
0
100
AcDbSpline
70
4
71
3
72
36
73
32
40
0
40
0
40
0
40
0
40
0.0176857911367116
40
0.0176857911367116
40
0.115917212023041
40
0.115917212023041
40
0.165032922466207
40
0.165032922466207
40
0.214148632909374
40
0.214148632909374
40
0.312380053795707
40
0.312380053795707
40
0.36149576423887
40
0.36149576423887
40
0.410611474682035
40
0.410611474682035
40
0.508842895568364
40
0.508842895568364
40
0.607074316454693
40
0.607074316454693
40
0.705305737341022
40
0.705305737341022
40
0.803537158227351
40
0.803537158227351
40
0.852652868670513
40
0.852652868670513
40
0.901768579113676
40
0.901768579113676
40
0.950884289556838
40
0.950884289556838
40
1
40
1
40
1
40
1
41
1
10
56.1689257819065
20
2.38038741951843
30
0
41
1
10
56.2221814975432
20
2.38041827165765
30
0
41
1
10
56.2754392172959
20
2.38007298165564
30
0
41
1
10
56.6246469394402
20
2.37540119282531
30
0
41
1
10
56.9205660141519
20
2.35943792048423
30
0
41
1
10
57.3650672387438
20
2.31782111098849
30
0
41
1
10
57.5134068864164
20
2.30103874704739
30
0
41
1
10
57.8097982667245
20
2.26221556027534
30
0
41
1
10
57.9580787662045
20
2.24052975596945
30
0
41
1
10
58.4023533058603
20
2.16775497570086
30
0
41
1
10
58.6981997662325
20
2.10775217181128
30
0
41
1
10
59.1420450105218
20
2.00175344343464
30
0
41
1
10
59.2900027987084
20
1.96377034210502
30
0
41
1
10
59.5866611878884
20
1.88378652553064
30
0
41
1
10
59.7352253425486
20
1.84160066763806
30
0
41
1
10
60.1799536012666
20
1.70910277536876
30
0
41
1
10
60.4757092511011
20
1.61163417756026
30
0
41
1
10
61.066796590889
20
1.40106496752412
30
0
41
1
10
61.3633008919414
20
1.28919873186047
30
0
41
1
10
61.9572368038679
20
1.05255026235446
30
0
41
1
10
62.2529021738023
20
0.928060149721802
30
0
41
1
10
62.8447653500601
20
0.67347458404015
30
0
41
1
10
63.1407328149758
20
0.542356195168594
30
0
41
1
10
63.5855341495033
20
0.341553560062891
30
0
41
1
10
63.7339566704686
20
0.273708306280554
30
0
41
1
10
64.0303585923753
20
0.13784730807356
30
0
41
1
10
64.1786310051821
20
0.0702689856016718
30
0
41
1
10
64.4748168711712
20
-0.0652943426619004
30
0
41
1
10
64.6227974063769
20
-0.133125263510266
30
0
41
1
10
64.9187892692927
20
-0.26822378681527
30
0
41
1
10
65.0667919024833
20
-0.335515599932933
30
0
41
1
10
65.2148185597131
20
-0.4025361016798
30
0
0
SPLINE
5
D4
100
AcDbEntity
8
1
62
256
6
ByLayer
370
18
48
1
60
0
100
AcDbSpline
70
4
71
3
72
8
73
4
40
0
40
0
40
0
40
0
40
1
40
1
40
1
40
1
41
1
10
67.2830951232694
20
-1.00125518610579
30
0
41
1
10
67.2909676093157
20
-0.986417389537706
30
0
41
1
10
67.3008369388531
20
-0.973571126079719
30
0
41
1
10
67.3117905432958
20
-0.962307130546264
30
0
0
SPLINE
5
D5
100
AcDbEntity
8
1
62
256
6
ByLayer
370
18
48
1
60
0
100
AcDbSpline
70
4
71
3
72
8
73
4
40
0
40
0
40
0
40
0
40
1
40
1
40
1
40
1
41
1
10
8.02639364061213
20
2.46251314889741
30
0
41
1
10
7.89546858997431
20
2.48052699901615
30
0
41
1
10
7.76739233241719
20
2.490149362317
30
0
41
1
10
7.64198692255641
20
2.49032599705743
30
0
0
SPLINE
5
D6
100
AcDbEntity
8
1
62
256
6
ByLayer
370
18
48
1
60
0
100
AcDbSpline
70
4
71
3
72
27
73
23
40
0
40
0
40
0
40
0
40
0.124999999999988
40
0.124999999999988
40
0.249999999999977
40
0.249999999999977
40
0.499999999999964
40
0.499999999999964
40
0.624999999999958
40
0.624999999999958
40
0.749999999999951
40
0.749999999999951
40
0.812499999999952
40
0.812499999999952
40
0.820312499999954
40
0.820312499999954
40
0.828124999999956
40
0.828124999999956
40
0.843749999999959
40
0.843749999999959
40
0.874999999999966
40
1
40
1
40
1
40
1
41
1
10
65.2148185597133
20
-0.402536101679573
30
0
41
1
10
65.3189556731498
20
-0.424684775891222
30
0
41
1
10
65.4230001059805
20
-0.441631137341602
30
0
41
1
10
65.6308412352126
20
-0.461618012559825
30
0
41
1
10
65.7348109022937
20
-0.46501216091454
30
0
41
1
10
66.0387842869399
20
-0.453054301111365
30
0
41
1
10
66.2333534875517
20
-0.416316439196834
30
0
41
1
10
66.5096491065558
20
-0.305818391550076
30
0
41
1
10
66.5988956202066
20
-0.25958643820826
30
0
41
1
10
66.7667150154821
20
-0.14939881943792
30
0
41
1
10
66.845664882373
20
-0.0852448359289326
30
0
41
1
10
66.9551066512577
20
0.023051464130134
30
0
41
1
10
66.9901070947419
20
0.0612068087597777
30
0
41
1
10
67.0277252481631
20
0.106243911446
30
0
41
1
10
67.0321085596983
20
0.111014352717831
30
0
41
1
10
67.0393590768605
20
0.122296053108414
30
0
41
1
10
67.0421169409871
20
0.128700953446611
30
0
41
1
10
67.0463746620599
20
0.150535714352657
30
0
41
1
10
67.0435777739094
20
0.166830926740062
30
0
41
1
10
67.034851320042
20
0.214150358697083
30
0
41
1
10
67.0052953056088
20
0.371879848064594
30
0
41
1
10
66.9736025145874
20
0.529500363593314
30
0
41
1
10
66.9472126082273
20
0.655542513978531
30
0
0
SPLINE
5
D7
100
AcDbEntity
8
1
62
256
6
ByLayer
370
18
48
1
60
0
100
AcDbSpline
70
4
71
3
72
8
73
4
40
0
40
0
40
0
40
0
40
1
40
1
40
1
40
1
41
1
10
67.9999429325677
20
0.0339189346378248
30
0
41
1
10
68.0000190224765
20
0.0113063115458658
30
0
41
1
10
68.0000190224765
20
-0.0113063115460932
30
0
41
1
10
67.9999429325677
20
-0.0339189346380522
30
0
0
SPLINE
5
D8
100
AcDbEntity
8
1
62
256
6
ByLayer
370
18
48
1
60
0
100
AcDbSpline
70
4
71
3
72
24
73
20
40
0
40
0
40
0
40
0
40
0.155036008645547
40
0.155036008645547
40
0.213189109026848
40
0.213189109026848
40
0.271342209408148
40
0.271342209408148
40
0.387648410170749
40
0.387648410170749
40
0.620260811695951
40
0.620260811695951
40
0.678413912077251
40
0.678413912077251
40
0.736567012458551
40
0.736567012458551
40
0.852873213221155
40
0.852873213221155
40
1
40
1
40
1
40
1
41
1
10
21.7151726301789
20
1.67331547057006
30
0
41
1
10
22.1265959479351
20
1.53113307029693
30
0
41
1
10
22.5374235773692
20
1.37348035932416
30
0
41
1
10
23.1044263535328
20
1.14002420555261
30
0
41
1
10
23.2592461807569
20
1.07469204765749
30
0
41
1
10
23.5675582456765
20
0.941856971711758
30
0
41
1
10
23.7212954681041
20
0.874262878245389
30
0
41
1
10
24.1816366220382
20
0.668777859913831
30
0
41
1
10
24.4873547257874
20
0.528154255509747
30
0
41
1
10
25.4033284718609
20
0.10042513241379
30
0
41
1
10
26.0127840892953
20
-0.191739707299121
30
0
41
1
10
26.7810267536978
20
-0.548515076540781
30
0
41
1
10
26.93500565224
20
-0.61942967611995
30
0
41
1
10
27.2439164638925
20
-0.759734551001486
30
0
41
1
10
27.3988568727566
20
-0.829138398669983
30
0
41
1
10
27.861432873525
20
-1.03291559415106
30
0
41
1
10
28.1681359132023
20
-1.16343426794799
30
0
41
1
10
28.8608894578187
20
-1.44341733582459
30
0
41
1
10
29.246661869605
20
-1.58838330383568
30
0
41
1
10
29.6328365121365
20
-1.71939575259916
30
0
0
SPLINE
5
D9
100
AcDbEntity
8
1
62
256
6
ByLayer
370
13
48
1
60
0
100
AcDbSpline
70
4
71
3
72
20
73
16
40
0
40
0
40
0
40
0
40
0.122378365624376
40
0.122378365624376
40
0.28887845812318
40
0.28887845812318
40
0.372128504372585
40
0.372128504372585
40
0.45537855062199
40
0.45537855062199
40
0.788378735619615
40
0.788378735619615
40
0.954878828118431
40
0.954878828118431
40
1
40
1
40
1
40
1
41
1
10
29.6328365121969
20
-1.7193957526197
30
0
41
1
10
29.8572169763943
20
-1.79551839463508
30
0
41
1
10
30.0817332337349
20
-1.86693032703457
30
0
41
1
10
30.6127413691873
20
-2.02320040541869
30
0
41
1
10
30.9198398870838
20
-2.10331002420011
30
0
41
1
10
31.3830863882209
20
-2.20699459074032
30
0
41
1
10
31.5380164125634
20
-2.23881834015677
30
0
41
1
10
31.8464078981987
20
-2.29622570646873
30
0
41
1
10
32.0001850309231
20
-2.3218836932659
30
0
41
1
10
32.7675260058869
20
-2.43458106027012
30
0
41
1
10
33.3764976596172
20
-2.47475764026205
30
0
41
1
10
34.2928298070043
20
-2.45862466589634
30
0
41
1
10
34.5987631647519
20
-2.44062094139363
30
0
41
1
10
34.9893207001535
20
-2.40138098916216
30
0
41
1
10
35.0726974844163
20
-2.39207292323482
30
0
41
1
10
35.1561927012785
20
-2.38182665507634
30
0
0
SPLINE
5
DA
100
AcDbEntity
8
1
62
256
6
ByLayer
370
18
48
1
60
0
100
AcDbSpline
70
4
71
3
72
20
73
16
40
0
40
0
40
0
40
0
40
0.0286460765044835
40
0.0286460765044835
40
0.23778529267696
40
0.23778529267696
40
0.342354900763199
40
0.342354900763199
40
0.446924508849439
40
0.446924508849439
40
0.656063725021915
40
0.656063725021915
40
0.865202941194391
40
0.865202941194391
40
1
40
1
40
1
40
1
41
1
10
54.0055280393171
20
1.82481170415511
30
0
41
1
10
54.0896522009626
20
1.79775764394574
30
0
41
1
10
54.1736734282622
20
1.77002611657255
30
0
41
1
10
54.8702220843722
20
1.53451561809246
30
0
41
1
10
55.4781437506717
20
1.29218611288016
30
0
41
1
10
56.3936818463241
20
0.895210192689916
30
0
41
1
10
56.6994973583914
20
0.757383206637286
30
0
41
1
10
57.3140063686326
20
0.473805213686404
30
0
41
1
10
57.6238410066657
20
0.327500813693462
30
0
41
1
10
58.5464420993129
20
-0.111306767718901
30
0
41
1
10
59.1555197398218
20
-0.40433631308764
30
0
41
1
10
60.3747304348433
20
-0.963957384237887
30
0
41
1
10
60.9852048196191
20
-1.22981892617648
30
0
41
1
10
62.0016648516967
20
-1.62129298438478
30
0
41
1
10
62.3982592170589
20
-1.76121344019578
30
0
41
1
10
62.7949627203878
20
-1.88479939262299
30
0
0
SPLINE
5
DB
100
AcDbEntity
8
1
62
256
6
ByLayer
370
13
48
1
60
0
100
AcDbSpline
70
4
71
3
72
14
73
10
40
0
40
0
40
0
40
0
40
0.150911592066399
40
0.150911592066399
40
0.363183694049798
40
0.363183694049798
40
0.575455796033195
40
0.575455796033195
40
1
40
1
40
1
40
1
41
1
10
62.7949627192312
20
-1.88479939226264
30
0
41
1
10
63.0137493499317
20
-1.95295849323739
30
0
41
1
10
63.2325691766004
20
-2.01614920712927
30
0
41
1
10
63.7600238158243
20
-2.1551258495077
30
0
41
1
10
64.0694632052314
20
-2.22563265856419
30
0
41
1
10
64.6840669555492
20
-2.34179435291534
30
0
41
1
10
64.9901643345787
20
-2.3876135752287
30
0
41
1
10
65.9075975953376
20
-2.48750093826183
30
0
41
1
10
66.5179865657537
20
-2.5041162299274
30
0
41
1
10
67.1335353404811
20
-2.46767462655333
30
0
0
SPLINE
5
DC
100
AcDbEntity
8
1
62
256
6
ByLayer
370
18
48
1
60
0
100
AcDbSpline
70
4
71
3
72
28
73
24
40
0
40
0
40
0
40
0
40
0.124999999999988
40
0.124999999999988
40
0.187499999999988
40
0.187499999999988
40
0.249999999999988
40
0.249999999999988
40
0.312499999999988
40
0.312499999999988
40
0.374999999999988
40
0.374999999999988
40
0.499999999999988
40
0.499999999999988
40
0.624999999999988
40
0.624999999999988
40
0.749999999999987
40
0.749999999999987
40
0.874999999999987
40
0.874999999999987
40
0.937499999999993
40
0.937499999999993
40
1
40
1
40
1
40
1
41
1
10
67.2830951232693
20
-1.00125518610579
30
0
41
1
10
67.2545320988797
20
-1.04257854696968
30
0
41
1
10
67.2262931706707
20
-1.09148951887491
30
0
41
1
10
67.1892081844622
20
-1.17168093103314
30
0
41
1
10
67.1775092464406
20
-1.20008212131725
30
0
41
1
10
67.157237255589
20
-1.25671819087825
30
0
41
1
10
67.1485204208525
20
-1.28516919852026
30
0
41
1
10
67.1343305406815
20
-1.34237515115891
30
0
41
1
10
67.1292180773581
20
-1.36973328137628
30
0
41
1
10
67.1229659131381
20
-1.4214696663642
30
0
41
1
10
67.1218952228433
20
-1.44575105929076
30
0
41
1
10
67.1245721800314
20
-1.51011418669881
30
0
41
1
10
67.1342251336001
20
-1.54275647215167
30
0
41
1
10
67.1637424192279
20
-1.58498284068082
30
0
41
1
10
67.1835808342759
20
-1.59512812930455
30
0
41
1
10
67.2287605861661
20
-1.59669381166225
30
0
41
1
10
67.2544938671334
20
-1.58810196376521
30
0
41
1
10
67.3084366078
20
-1.55497881737367
30
0
41
1
10
67.3373194073903
20
-1.52999603673277
30
0
41
1
10
67.3804482034303
20
-1.4821457898214
30
0
41
1
10
67.3948845182474
20
-1.46440635646144
30
0
41
1
10
67.423891173103
20
-1.42493381310331
30
0
41
1
10
67.4384751356887
20
-1.40312414998181
30
0
41
1
10
67.4524676981104
20
-1.38003787380626
30
0
0
SPLINE
5
DD
100
AcDbEntity
8
1
62
256
6
ByLayer
370
18
48
1
60
0
100
AcDbSpline
70
4
71
3
72
10
73
6
40
0
40
0
40
0
40
0
40
0.5
40
0.5
40
1
40
1
40
1
40
1
41
1
10
67.2071655786204
20
2.42966024743254
30
0
41
1
10
67.3212616736695
20
2.14522565751264
30
0
41
1
10
67.4354310891438
20
1.86072685265495
30
0
41
1
10
67.6629828468093
20
1.29112556571334
30
0
41
1
10
67.7763891627237
20
1.00604000268353
30
0
41
1
10
67.8890657386979
20
0.720514507976105
30
0
0
SPLINE
5
DE
100
AcDbEntity
8
1
62
256
6
ByLayer
370
18
48
1
60
0
100
AcDbSpline
70
4
71
3
72
14
73
10
40
0
40
0
40
0
40
0
40
0.25
40
0.25
40
0.5
40
0.5
40
0.75
40
0.75
40
1
40
1
40
1
40
1
41
1
10
8.02639364060801
20
-2.46251314890569
30
0
41
1
10
8.03744852991809
20
-2.43994686364408
30
0
41
1
10
8.05144735072574
20
-2.4192325011027
30
0
41
1
10
8.08296992749092
20
-2.38261320746687
30
0
41
1
10
8.0999632006407
20
-2.36716487029992
30
0
41
1
10
8.13576725528318
20
-2.34049686463192
30
0
41
1
10
8.15440917139688
20
-2.32948602701822
30
0
41
1
10
8.19164818501449
20
-2.3117740926246
30
0
41
1
10
8.21044615236846
20
-2.30494084444476
30
0
41
1
10
8.22939578178892
20
-2.2999195141326
30
0
0
SPLINE
5
DF
100
AcDbEntity
8
1
62
256
6
ByLayer
370
18
48
1
60
0
100
AcDbSpline
70
4
71
3
72
18
73
14
40
0
40
0
40
0
40
0
40
0.124999999999997
40
0.124999999999997
40
0.249999999999993
40
0.249999999999993
40
0.37499999999999
40
0.37499999999999
40
0.499999999999987
40
0.499999999999987
40
0.749999999999993
40
0.749999999999993
40
1
40
1
40
1
40
1
41
1
10
65.2148185597133
20
-0.402536101679573
30
0
41
1
10
65.2650007389789
20
-0.478237264501814
30
0
41
1
10
65.3181275245243
20
-0.551029466845733
30
0
41
1
10
65.4283107164007
20
-0.690469349048556
30
0
41
1
10
65.4855337575919
20
-0.757354482963791
30
0
41
1
10
65.6036324922137
20
-0.886266749021104
30
0
41
1
10
65.6645111707226
20
-0.948289911030059
30
0
41
1
10
65.789509778219
20
-1.06802539472227
30
0
41
1
10
65.8538420646534
20
-1.12590984723676
30
0
41
1
10
66.0495623222373
20
-1.29225157880282
30
0
41
1
10
66.1833119435834
20
-1.39332133551898
30
0
41
1
10
66.4560405924197
20
-1.57974642770884
30
0
41
1
10
66.5950413443118
20
-1.66503648112339
30
0
41
1
10
66.7363763713066
20
-1.74331201295391
30
0
0
SPLINE
5
E0
100
AcDbEntity
8
1
62
256
6
ByLayer
370
13
48
1
60
0
100
AcDbSpline
70
4
71
3
72
10
73
6
40
0
40
0
40
0
40
0
40
0.5
40
0.5
40
1
40
1
40
1
40
1
41
1
10
8.02616907006546
20
0.682826105230276
30
0
41
1
10
8.03809054354605
20
0.663500811069781
30
0
41
1
10
8.05370427669172
20
0.645876176540526
30
0
41
1
10
8.09343017706391
20
0.61436806747983
30
0
41
1
10
8.11646422715148
20
0.601345098843439
30
0
41
1
10
8.14300138820536
20
0.591438920882638
30
0
0
SPLINE
5
E1
100
AcDbEntity
8
1
62
256
6
ByLayer
370
18
48
1
60
0
100
AcDbSpline
70
4
71
3
72
10
73
6
40
0
40
0
40
0
40
0
40
0.5
40
0.5
40
1
40
1
40
1
40
1
41
1
10
67.0217396414357
20
0.727977993330825
30
0
41
1
10
67.166386592433
20
0.726152559747135
30
0
41
1
10
67.3110056501307
20
0.724502290732744
30
0
41
1
10
67.6001760754234
20
0.721626833557195
30
0
41
1
10
67.7447077182677
20
0.720525513046283
30
0
41
1
10
67.8890657386979
20
0.72051450797639
30
0
0
SPLINE
5
E2
100
AcDbEntity
8
1
62
256
6
ByLayer
370
18
48
1
60
0
100
AcDbSpline
70
4
71
3
72
14
73
10
40
0
40
0
40
0
40
0
40
0.483560003123374
40
0.483560003123374
40
0.725340004685065
40
0.725340004685065
40
0.967120006246757
40
0.967120006246757
40
1
40
1
40
1
40
1
41
1
10
67.1496358115601
20
-2.38028711270189
30
0
41
1
10
66.5342919093153
20
-2.40349256116002
30
0
41
1
10
65.9238138734862
20
-2.37588076897572
30
0
41
1
10
65.0063851550181
20
-2.26305848241697
30
0
41
1
10
64.7002914027443
20
-2.21349362487089
30
0
41
1
10
64.085782622024
20
-2.09128756593984
30
0
41
1
10
63.7766075390887
20
-2.01852646203386
30
0
41
1
10
63.4267113057682
20
-1.92451625489827
30
0
41
1
10
63.3848344498143
20
-1.91307616447312
30
0
41
1
10
63.3429656405767
20
-1.90145353110376
30
0
0
SPLINE
5
E3
100
AcDbEntity
8
1
62
256
6
ByLayer
370
13
48
1
60
0
100
AcDbSpline
70
4
71
3
72
18
73
14
40
0
40
0
40
0
40
0
40
0.200430920780611
40
0.200430920780611
40
0.415484555120454
40
0.415484555120454
40
0.630538189460297
40
0.630538189460297
40
0.738065006630221
40
0.738065006630221
40
0.845591823800144
40
0.845591823800144
40
1
40
1
40
1
40
1
41
1
10
63.3429656892374
20
-1.90145354461177
30
0
41
1
10
62.7690776277836
20
-1.74214425035103
30
0
41
1
10
62.1967013578021
20
-1.54853937108382
30
0
41
1
10
61.0040183957961
20
-1.09443804558035
30
0
41
1
10
60.393697850857
20
-0.834280255487442
30
0
41
1
10
59.1744820514413
20
-0.291081246523987
30
0
41
1
10
58.565325404991
20
-0.0085737892304394
30
0
41
1
10
57.6429919990275
20
0.411011211409516
30
0
41
1
10
57.3335356898697
20
0.550332703598542
30
0
41
1
10
56.7195025468472
20
0.819428859608735
30
0
41
1
10
56.4138022986575
20
0.949701320832816
30
0
41
1
10
55.6705131561611
20
1.25315520750394
30
0
41
1
10
55.2334874374416
20
1.42015371336828
30
0
41
1
10
54.7951259813988
20
1.57069977447935
30
0
0
SPLINE
5
E4
100
AcDbEntity
8
1
62
256
6
ByLayer
370
18
48
1
60
0
100
AcDbSpline
70
4
71
3
72
14
73
10
40
0
40
0
40
0
40
0
40
0.595080854218579
40
0.595080854218579
40
0.74505086256171
40
0.74505086256171
40
0.895020870904844
40
0.895020870904844
40
1
40
1
40
1
40
1
41
1
10
34.00330140503
20
-2.36747409809772
30
0
41
1
10
33.3974697543503
20
-2.36625167269247
30
0
41
1
10
32.7932696587415
20
-2.31676355876815
30
0
41
1
10
32.0311040081302
20
-2.19653742072953
30
0
41
1
10
31.8774046295671
20
-2.16938782678096
30
0
41
1
10
31.5692259898752
20
-2.10934339571534
30
0
41
1
10
31.4144598058617
20
-2.07637818838433
30
0
41
1
10
31.1522326119608
20
-2.01598510832784
30
0
41
1
10
31.044454739695
20
-1.98984791186101
30
0
41
1
10
30.9368448885717
20
-1.96249248304002
30
0
0
SPLINE
5
E5
100
AcDbEntity
8
1
62
256
6
ByLayer
370
13
48
1
60
0
100
AcDbSpline
70
4
71
3
72
26
73
22
40
0
40
0
40
0
40
0
40
0.0673436465904471
40
0.0673436465904471
40
0.274554662747567
40
0.274554662747567
40
0.378160170826126
40
0.378160170826126
40
0.429962924865406
40
0.429962924865406
40
0.481765678904686
40
0.481765678904686
40
0.688976695061795
40
0.688976695061795
40
0.792582203140351
40
0.792582203140351
40
0.844384957179629
40
0.844384957179629
40
0.896187711218907
40
0.896187711218907
40
1
40
1
40
1
40
1
41
1
10
30.9368458582024
20
-1.96249272952923
30
0
41
1
10
30.7369990277278
20
-1.91168981348275
30
0
41
1
10
30.5377316988374
20
-1.85668523996648
30
0
41
1
10
29.7269116952422
20
-1.616643401131
30
0
41
1
10
29.1181004714723
20
-1.39947686223601
30
0
41
1
10
28.200668963491
20
-1.03544256122729
30
0
41
1
10
27.8940915319295
20
-0.907861375470105
30
0
41
1
10
27.4318570547824
20
-0.709516304507702
30
0
41
1
10
27.2770795882168
20
-0.642107501079323
30
0
41
1
10
26.9684868166076
20
-0.506120702251337
30
0
41
1
10
26.8146220255928
20
-0.437527305247755
30
0
41
1
10
26.0468343647146
20
-0.0929696069202066
30
0
41
1
10
25.4374670368493
20
0.187646567896365
30
0
41
1
10
24.5215593059493
20
0.595314753787193
30
0
41
1
10
24.2159138351025
20
0.728940631992685
30
0
41
1
10
23.7557791250318
20
0.923407482528489
30
0
41
1
10
23.6021267295751
20
0.987241599022695
30
0
41
1
10
23.2940262797301
20
1.11238689830134
30
0
41
1
10
23.1393460165875
20
1.17377539906849
30
0
41
1
10
22.675201345719
20
1.35312418757908
30
0
41
1
10
22.3663598550872
20
1.46584786660185
30
0
41
1
10
22.0574762313878
20
1.57029458471197
30
0
0
SPLINE
5
E6
100
AcDbEntity
8
1
62
256
6
ByLayer
370
18
48
1
60
0
100
AcDbSpline
70
4
71
3
72
8
73
4
40
0
40
0
40
0
40
0
40
1
40
1
40
1
40
1
41
1
10
67.1335353404829
20
-2.46767462655396
30
0
41
1
10
67.1281874399291
20
-2.48142489025327
30
0
41
1
10
67.1228354833502
20
-2.49517082305337
30
0
41
1
10
67.1174797738651
20
-2.50891210427622
30
0
0
SPLINE
5
E7
100
AcDbEntity
8
1
62
256
6
ByLayer
370
18
48
1
60
0
100
AcDbSpline
70
4
71
3
72
8
73
4
40
0
40
0
40
0
40
0
40
1
40
1
40
1
40
1
41
1
10
67.9793849531358
20
-0.121765572619836
30
0
41
1
10
67.9825367193395
20
-0.0975999611796396
30
0
41
1
10
67.9900887765219
20
-0.0665724626667554
30
0
41
1
10
67.9999429325676
20
-0.0339189346382511
30
0
0
SPLINE
5
E8
100
AcDbEntity
8
1
62
256
6
ByLayer
370
18
48
1
60
0
100
AcDbSpline
70
4
71
3
72
8
73
4
40
0
40
0
40
0
40
0
40
1
40
1
40
1
40
1
41
1
10
67.8903017745834
20
-0.177098635221597
30
0
41
1
10
67.7875412768423
20
-0.459430782379343
30
0
41
1
10
67.6847807791011
20
-0.741762929537117
30
0
41
1
10
67.58202028136
20
-1.02409507669492
30
0
0
SPLINE
5
E9
100
AcDbEntity
8
1
62
256
6
ByLayer
370
18
48
1
60
0
100
AcDbSpline
70
4
71
3
72
18
73
14
40
0
40
0
40
0
40
0
40
0.249999999999994
40
0.249999999999994
40
0.374999999999994
40
0.374999999999994
40
0.499999999999994
40
0.499999999999994
40
0.749999999999995
40
0.749999999999995
40
0.874999999999998
40
0.874999999999998
40
1
40
1
40
1
40
1
41
1
10
67.0885340698997
20
-2.37993729950347
30
0
41
1
10
67.0406095545545
20
-2.36917024102542
30
0
41
1
10
66.9963674377527
20
-2.34821117937497
30
0
41
1
10
66.9360107879559
20
-2.30014795345022
30
0
41
1
10
66.9168467014216
20
-2.28124337150703
30
0
41
1
10
66.8813589827885
20
-2.23838589760138
30
0
41
1
10
66.8649418447872
20
-2.21438338101805
30
0
41
1
10
66.8196841012465
20
-2.13462829035896
30
0
41
1
10
66.7948050899752
20
-2.07119040173978
30
0
41
1
10
66.7660080428978
20
-1.95950230094266
30
0
41
1
10
66.757823013265
20
-1.91932075458291
30
0
41
1
10
66.744718379569
20
-1.83469442409699
30
0
41
1
10
66.7397520316738
20
-1.79013146316586
30
0
41
1
10
66.7363763713066
20
-1.74331201295391
30
0
0
SPLINE
5
EA
100
AcDbEntity
8
1
62
256
6
ByLayer
370
18
48
1
60
0
100
AcDbSpline
70
4
71
3
72
14
73
10
40
0
40
0
40
0
40
0
40
0.25
40
0.25
40
0.5
40
0.5
40
0.75
40
0.75
40
1
40
1
40
1
40
1
41
1
10
67.1496358115405
20
-2.38028711270263
30
0
41
1
10
67.1521376189652
20
-2.37916853653289
30
0
41
1
10
67.1539640626121
20
-2.37983851413415
30
0
41
1
10
67.1558309336016
20
-2.38586458549358
30
0
41
1
10
67.1557914069135
20
-2.39123165910542
30
0
41
1
10
67.1531855180032
20
-2.40710366595565
30
0
41
1
10
67.1505707500392
20
-2.41766593901542
30
0
41
1
10
67.1432072478316
20
-2.44162724781242
30
0
41
1
10
67.1385461435048
20
-2.45479109175324
30
0
41
1
10
67.1335353404831
20
-2.46767462655325
30
0
0
SPLINE
5
EB
100
AcDbEntity
8
1
62
256
6
ByLayer
370
18
48
1
60
0
100
AcDbSpline
70
4
71
3
72
38
73
34
40
0
40
0
40
0
40
0
40
0.05421523946847
40
0.05421523946847
40
0.0813228592027039
40
0.0813228592027039
40
0.108430478936938
40
0.108430478936938
40
0.216860957873878
40
0.216860957873878
40
0.325291436810818
40
0.325291436810818
40
0.352399056545053
40
0.352399056545053
40
0.379506676279288
40
0.379506676279288
40
0.433721915747756
40
0.433721915747756
40
0.54215239468469
40
0.54215239468469
40
0.596367634153158
40
0.596367634153158
40
0.650582873621625
40
0.650582873621625
40
0.759013352558563
40
0.759013352558563
40
0.813228592027031
40
0.813228592027031
40
0.867443831495499
40
0.867443831495499
40
0.975874310432437
40
0.975874310432437
40
1
40
1
40
1
40
1
41
1
10
67.1174797738651
20
-2.50891210427619
30
0
41
1
10
66.8088714709074
20
-2.5268965312568
30
0
41
1
10
66.5006512447595
20
-2.53148876848749
30
0
41
1
10
66.0376602074247
20
-2.51842617581241
30
0
41
1
10
65.8832180675618
20
-2.51074645210977
30
0
41
1
10
65.5739086452443
20
-2.48874954239463
30
0
41
1
10
65.4189242692546
20
-2.47440795154412
30
0
41
1
10
64.6473258312695
20
-2.38681001287486
30
0
41
1
10
64.0369061862607
20
-2.26560500136554
30
0
41
1
10
62.8152850387984
20
-1.93610405678649
30
0
41
1
10
62.2042408780364
20
-1.72758394864027
30
0
41
1
10
61.4308143221209
20
-1.42411986511394
30
0
41
1
10
61.27598049764
20
-1.36142824436729
30
0
41
1
10
60.9676788153455
20
-1.23317156073767
30
0
41
1
10
60.8139466691428
20
-1.1674837412919
30
0
41
1
10
60.3536219322735
20
-0.966513747974744
30
0
41
1
10
60.0478793194068
20
-0.827369237679335
30
0
41
1
10
59.1316355990281
20
-0.399426624112948
30
0
41
1
10
58.5216723065986
20
-0.101021245883544
30
0
41
1
10
57.5979879548062
20
0.345330786123213
30
0
41
1
10
57.2874473801052
20
0.494217900244109
30
0
41
1
10
56.6711930965551
20
0.782827983808716
30
0
41
1
10
56.3646078493101
20
0.922996065970324
30
0
41
1
10
55.4469429073714
20
1.32634908211202
30
0
41
1
10
54.8378221004687
20
1.57202172280785
30
0
41
1
10
53.9171356067986
20
1.88639953152801
30
0
41
1
10
53.6089446462141
20
1.98247826640079
30
0
41
1
10
52.9896091024505
20
2.1533821808176
30
0
41
1
10
52.6818617324535
20
2.22722656155781
30
0
41
1
10
51.7616046763035
20
2.41221632424609
30
0
41
1
10
51.1525476258233
20
2.48699547264087
30
0
41
1
10
50.4040416463988
20
2.51453779548766
30
0
41
1
10
50.2676933233786
20
2.51697797791272
30
0
41
1
10
50.1311290437843
20
2.51681965498773
30
0
0
SPLINE
5
EC
100
AcDbEntity
8
1
62
256
6
ByLayer
370
18
48
1
60
0
100
AcDbSpline
70
4
71
3
72
40
73
36
40
0
40
0
40
0
40
0
40
0.0826974137859913
40
0.0826974137859913
40
0.133871893451182
40
0.133871893451182
40
0.159459133283778
40
0.159459133283778
40
0.185046373116375
40
0.185046373116375
40
0.287395332446759
40
0.287395332446759
40
0.338569812111952
40
0.338569812111952
40
0.364157051944549
40
0.364157051944549
40
0.389744291777145
40
0.389744291777145
40
0.49209325110753
40
0.49209325110753
40
0.594442210437913
40
0.594442210437913
40
0.620029450270509
40
0.620029450270509
40
0.645616690103105
40
0.645616690103105
40
0.696791169768296
40
0.696791169768296
40
0.799140129098677
40
0.799140129098677
40
0.850314608763868
40
0.850314608763868
40
0.901489088429059
40
0.901489088429059
40
1
40
1
40
1
40
1
41
1
10
35.4423765979904
20
-2.3818234695446
30
0
41
1
10
34.9478854381897
20
-2.45602883162735
30
0
41
1
10
34.45466207372
20
-2.49774943914483
30
0
41
1
10
33.6524192045541
20
-2.51004667548904
30
0
41
1
10
33.344798889034
20
-2.50169593264008
30
0
41
1
10
32.8806405810714
20
-2.46924511301216
30
0
41
1
10
32.7254402387117
20
-2.45507700135156
30
0
41
1
10
32.4165238608504
20
-2.42043131191798
30
0
41
1
10
32.2624769851946
20
-2.39993888074648
30
0
41
1
10
31.4937653775467
20
-2.28218249706532
30
0
41
1
10
30.88348996351
20
-2.13916552070705
30
0
41
1
10
29.9654063723114
20
-1.86215411704754
30
0
41
1
10
29.6587635000992
20
-1.75962943385761
30
0
41
1
10
29.1966315129148
20
-1.59221251677545
30
0
41
1
10
29.0422375101593
20
-1.53411750784008
30
0
41
1
10
28.7325607215153
20
-1.41357436246634
30
0
41
1
10
28.5774451677875
20
-1.35117335116632
30
0
41
1
10
27.8054859739417
20
-1.03215722255709
30
0
41
1
10
27.19419837358
20
-0.753088341723043
30
0
41
1
10
25.970931440862
20
-0.174686379024735
30
0
41
1
10
25.3585547410337
20
0.123813289283106
30
0
41
1
10
24.5838279154216
20
0.490945500964244
30
0
41
1
10
24.4288028867119
20
0.563812442655404
30
0
41
1
10
24.1200419021626
20
0.707225443024754
30
0
41
1
10
23.9660565584605
20
0.777890868368019
30
0
41
1
10
23.5049906401437
20
0.986210748360236
30
0
41
1
10
23.1987436962654
20
1.12006910109591
30
0
41
1
10
22.2808605280285
20
1.50192100148192
30
0
41
1
10
21.6699762458817
20
1.72992966314663
30
0
41
1
10
20.7447170232339
20
2.01388667990264
30
0
41
1
10
20.4336960495419
20
2.09911820212028
30
0
41
1
10
19.8164206061734
20
2.24520808577748
30
0
41
1
10
19.5092798490437
20
2.30631774698537
30
0
41
1
10
18.6127081272411
20
2.44884866539195
30
0
41
1
10
18.0253751599791
20
2.49688500768164
30
0
41
1
10
17.4342159403686
20
2.4963909935189
30
0
0
SPLINE
5
ED
100
AcDbEntity
8
1
62
256
6
ByLayer
370
18
48
1
60
0
100
AcDbSpline
70
4
71
3
72
8
73
4
40
0
40
0
40
0
40
0
40
1
40
1
40
1
40
1
41
1
10
67.1174797738651
20
2.50891210427619
30
0
41
1
10
66.906210525054
20
2.52122401015194
30
0
41
1
10
66.695008200459
20
2.52726619895552
30
0
41
1
10
66.4836069675196
20
2.52704770087632
30
0
0
SPLINE
5
EE
100
AcDbEntity
8
1
62
256
6
ByLayer
370
18
48
1
60
0
100
AcDbSpline
70
4
71
3
72
36
73
32
40
0
40
0
40
0
40
0
40
0.0707468556281413
40
0.0707468556281413
40
0.121827172606014
40
0.121827172606014
40
0.14736733109495
40
0.14736733109495
40
0.172907489583886
40
0.172907489583886
40
0.275068123539637
40
0.275068123539637
40
0.326148440517513
40
0.326148440517513
40
0.377228757495389
40
0.377228757495389
40
0.479389391451139
40
0.479389391451139
40
0.58155002540689
40
0.58155002540689
40
0.68371065936264
40
0.68371065936264
40
0.78587129331839
40
0.78587129331839
40
0.836951610296265
40
0.836951610296265
40
0.888031927274139
40
0.888031927274139
40
0.990192561229887
40
0.990192561229887
40
1
40
1
40
1
40
1
41
1
10
51.8109191804024
20
-2.38866953606006
30
0
41
1
10
51.3876880237779
20
-2.45314819362275
30
0
41
1
10
50.9650074594233
20
-2.49389395257373
30
0
41
1
10
50.2337089176551
20
-2.52080710265261
30
0
41
1
10
49.9262544270092
20
-2.51906745716522
30
0
41
1
10
49.4621380077077
20
-2.49638792579998
30
0
41
1
10
49.3070995540181
20
-2.48547889035265
30
0
41
1
10
48.9984762807146
20
-2.45725529584467
30
0
41
1
10
48.8445713917753
20
-2.43992900736453
30
0
41
1
10
48.0765760865154
20
-2.33769023583136
30
0
41
1
10
47.4671040542987
20
-2.20574047498755
30
0
41
1
10
46.5491846790029
20
-1.94383087624803
30
0
41
1
10
46.2426214846987
20
-1.84587341564298
30
0
41
1
10
45.6266055392548
20
-1.63063521388469
30
0
41
1
10
45.3159841542847
20
-1.51271342506641
30
0
41
1
10
44.3906975250264
20
-1.13965600673797
30
0
41
1
10
43.7800320098884
20
-0.864655558080216
30
0
41
1
10
42.5573605383793
20
-0.289923759705886
30
0
41
1
10
41.9452210218593
20
0.0095383904542814
30
0
41
1
10
40.7052912718589
20
0.603305762752427
30
0
41
1
10
40.0927593156992
20
0.889660474307306
30
0
41
1
10
38.8698157909552
20
1.41347468047374
30
0
41
1
10
38.2590865874381
20
1.65089789741958
30
0
41
1
10
37.3337353379673
20
1.95162290087231
30
0
41
1
10
37.022925647002
20
2.04275215902845
30
0
41
1
10
36.4064584859901
20
2.20088458490142
30
0
41
1
10
36.0997426334679
20
2.26841331574292
30
0
41
1
10
35.1813021282969
20
2.43434673136889
30
0
41
1
10
34.5713206551642
20
2.49609227163589
30
0
41
1
10
33.8977838415519
20
2.50627273608521
30
0
41
1
10
33.8387463652183
20
2.50668152360711
30
0
41
1
10
33.77965928369
20
2.50660525633324
30
0
0
SPLINE
5
EF
100
AcDbEntity
8
1
62
256
6
ByLayer
370
18
48
1
60
0
100
AcDbSpline
70
4
71
3
72
26
73
22
40
0
40
0
40
0
40
0
40
0.159169117161327
40
0.159169117161327
40
0.201210661303261
40
0.201210661303261
40
0.243252205445195
40
0.243252205445195
40
0.327335293729062
40
0.327335293729062
40
0.495501470296797
40
0.495501470296797
40
0.579584558580665
40
0.579584558580665
40
0.621626102722599
40
0.621626102722599
40
0.663667646864532
40
0.663667646864532
40
0.831833823432266
40
0.831833823432266
40
1
40
1
40
1
40
1
41
1
10
19.1011215495511
20
-2.37075469464696
30
0
41
1
10
18.5215609736816
20
-2.45776012773595
30
0
41
1
10
17.943436757785
20
-2.50054324103579
30
0
41
1
10
17.2065290074836
20
-2.49489836046328
30
0
41
1
10
17.0522138021967
20
-2.49043596396751
30
0
41
1
10
16.7426681792031
20
-2.47489179906654
30
0
41
1
10
16.5872328468389
20
-2.46377960901464
30
0
41
1
10
16.1230396418071
20
-2.4208794036339
30
0
41
1
10
15.8155075190654
20
-2.3793591644839
30
0
41
1
10
14.8951747291331
20
-2.21890761299198
30
0
41
1
10
14.2846699927443
20
-2.06420842845893
30
0
41
1
10
13.3637512380704
20
-1.77150100243264
30
0
41
1
10
13.0558420640633
20
-1.66392771164527
30
0
41
1
10
12.5912382434018
20
-1.48929923505548
30
0
41
1
10
12.4358119450502
20
-1.42881972862858
30
0
41
1
10
12.1266422210929
20
-1.30476249546769
30
0
41
1
10
11.9725544122731
20
-1.24107489975793
30
0
41
1
10
11.2038122266573
20
-0.915949273678336
30
0
41
1
10
10.5943765963697
20
-0.634199190021263
30
0
41
1
10
9.37358266346899
20
-0.054812246517173
30
0
41
1
10
8.76178309265271
20
0.241876196900961
30
0
41
1
10
8.14206905188641
20
0.531572165002558
30
0
0
SPLINE
5
F0
100
AcDbEntity
8
1
62
256
6
ByLayer
370
13
48
1
60
0
100
AcDbSpline
70
4
71
3
72
8
73
4
40
0
40
0
40
0
40
0
40
1
40
1
40
1
40
1
41
1
10
8.25034769000501
20
0.557724400360399
30
0
41
1
10
8.21316108695999
20
0.567505377881815
30
0
41
1
10
8.17687965997325
20
0.578792346200459
30
0
41
1
10
8.14300138820536
20
0.591438920882638
30
0
0
SPLINE
5
F1
100
AcDbEntity
8
1
62
256
6
ByLayer
370
18
48
1
60
0
100
AcDbSpline
70
4
71
3
72
8
73
4
40
0
40
0
40
0
40
0
40
1
40
1
40
1
40
1
41
1
10
8.07814905352848
20
0.574401610272474
30
0
41
1
10
8.0969727253574
20
0.554820127368458
30
0
41
1
10
8.11845084053522
20
0.538393777860534
30
0
41
1
10
8.14300138820533
20
0.525601761273833
30
0
0
SPLINE
5
F2
100
AcDbEntity
8
1
62
256
6
ByLayer
370
18
48
1
60
0
100
AcDbSpline
70
4
71
3
72
8
73
4
40
0
40
0
40
0
40
0
40
1
40
1
40
1
40
1
41
1
10
67.9844751266768
20
-0.001069505669534
30
0
41
1
10
67.9528904209716
20
-0.0595725499844946
30
0
41
1
10
67.9214991281999
20
-0.118248769493278
30
0
41
1
10
67.8903017745707
20
-0.177098635252889
30
0
0
SPLINE
5
F3
100
AcDbEntity
8
1
62
256
6
ByLayer
370
18
48
1
60
0
100
AcDbSpline
70
4
71
3
72
8
73
4
40
0
40
0
40
0
40
0
40
1
40
1
40
1
40
1
41
1
10
67.0885340699027
20
-2.37993729949821
30
0
41
1
10
67.0973023306888
20
-2.38595022425605
30
0
41
1
10
67.1071716066673
20
-2.38875285622234
30
0
41
1
10
67.1181829564164
20
-2.38839673242126
30
0
0
SPLINE
5
F4
100
AcDbEntity
8
1
62
256
6
ByLayer
370
18
48
1
60
0
100
AcDbSpline
70
4
71
3
72
31
73
27
40
0
40
0
40
0
40
0
40
0.126459976926627
40
0.126459976926627
40
0.266102358093723
40
0.266102358093723
40
0.405744739260817
40
0.405744739260817
40
0.475565929844365
40
0.510476525136139
40
0.527931822782026
40
0.536659471604969
40
0.536659471604969
40
0.545387120427913
40
0.545387120427913
40
0.554114769250856
40
0.554114769250856
40
0.5628424180738
40
0.580297715719687
40
0.615208311011461
40
0.615208311011461
40
0.685029501595009
40
0.685029501595009
40
0.9643142639292
40
0.9643142639292
40
1
40
1
40
1
40
1
41
1
10
8.2293957817889
20
0.139088795867878
30
0
41
1
10
8.2293957817889
20
0.101896498715803
30
0
41
1
10
8.2293957817889
20
0.0582824742928949
30
0
41
1
10
8.2293957817889
20
-0.0457551232497053
30
0
41
1
10
8.22939578178892
20
-0.107581735046836
30
0
41
1
10
8.22939578178892
20
-0.245234877296895
30
0
41
1
10
8.22939578178892
20
-0.321170851289423
30
0
41
1
10
8.22939578178892
20
-0.444330260922811
30
0
41
1
10
8.2293957817889
20
-0.508286135243225
30
0
41
1
10
8.22939578179069
20
-0.587041240669663
30
0
41
1
10
8.22939578178836
20
-0.627455866027049
30
0
41
1
10
8.2293957817889
20
-0.64499897797819
30
0
41
1
10
8.2293957817889
20
-0.65674389185213
30
0
41
1
10
8.22939578178892
20
-0.663579623969611
30
0
41
1
10
8.22939578178892
20
-0.680023433722738
30
0
41
1
10
8.22939578178892
20
-0.68941209174011
30
0
41
1
10
8.22939578178892
20
-0.709618962211295
30
0
41
1
10
8.22939578178892
20
-0.739949655986464
30
0
41
1
10
8.2293957817889
20
-0.810864374541353
30
0
41
1
10
8.22939578178892
20
-0.871895060381803
30
0
41
1
10
8.22939578178892
20
-0.994288987936301
30
0
41
1
10
8.22939578178892
20
-1.07634331854837
30
0
41
1
10
8.22939578178892
20
-1.48867459066958
30
0
41
1
10
8.22939578178892
20
-1.82544928770261
30
0
41
1
10
8.22939578178892
20
-2.21202855175312
30
0
41
1
10
8.22939578178892
20
-2.25592469155052
30
0
41
1
10
8.22939578178892
20
-2.29991951413089
30
0
0
SPLINE
5
F5
100
AcDbEntity
8
1
62
256
6
ByLayer
370
18
48
1
60
0
100
AcDbSpline
70
4
71
3
72
80
73
76
40
0
40
0
40
0
40
0
40
0.0058579353561098
40
0.0058579353561098
40
0.0492493789173684
40
0.0492493789173684
40
0.0709451006979976
40
0.0709451006979976
40
0.0926408224786269
40
0.0926408224786269
40
0.114336544259256
40
0.114336544259256
40
0.136032266039885
40
0.136032266039885
40
0.179423709601144
40
0.179423709601144
40
0.201119431381773
40
0.201119431381773
40
0.222815153162402
40
0.222815153162402
40
0.266206596723659
40
0.266206596723659
40
0.287902318504287
40
0.287902318504287
40
0.309598040284916
40
0.309598040284916
40
0.331293762065544
40
0.331293762065544
40
0.352989483846173
40
0.352989483846173
40
0.396380927407429
40
0.396380927407429
40
0.418076649188058
40
0.418076649188058
40
0.439772370968686
40
0.439772370968686
40
0.483163814529942
40
0.483163814529942
40
0.50485953631057
40
0.50485953631057
40
0.526555258091198
40
0.526555258091198
40
0.548250979871826
40
0.548250979871826
40
0.569946701652454
40
0.569946701652454
40
0.61333814521371
40
0.61333814521371
40
0.656729588774966
40
0.656729588774966
40
0.700121032336222
40
0.700121032336222
40
0.721816754116849
40
0.721816754116849
40
0.743512475897476
40
0.743512475897476
40
0.765208197678103
40
0.765208197678103
40
0.78690391945873
40
0.78690391945873
40
0.830295363019984
40
0.830295363019984
40
0.85199108480061
40
0.85199108480061
40
0.873686806581236
40
0.873686806581236
40
0.917078250142486
40
0.917078250142486
40
0.938773971923112
40
0.938773971923112
40
0.960469693703737
40
0.960469693703737
40
0.982165415484363
40
0.982165415484363
40
1
40
1
40
1
40
1
41
1
10
11.7945134699092
20
1.4677425694212
30
0
41
1
10
11.836058533105
20
1.4837760884748
30
0
41
1
10
11.8776271193764
20
1.49965113559122
30
0
41
1
10
12.2272844584512
20
1.63182907494573
30
0
41
1
10
12.5363293195073
20
1.74031691606669
30
0
41
1
10
12.9962888490643
20
1.89094579106859
30
0
41
1
10
13.1495558776342
20
1.93859432589258
30
0
41
1
10
13.4568922117786
20
2.02774217050362
30
0
41
1
10
13.6107845296713
20
2.06949904647087
30
0
41
1
10
13.918594483074
20
2.14791261561902
30
0
41
1
10
14.0725816061849
20
2.18448536425956
30
0
41
1
10
14.3805487498503
20
2.25237604204148
30
0
41
1
10
14.5338431113901
20
2.28375122294727
30
0
41
1
10
14.9947060629984
20
2.36735772761486
30
0
41
1
10
15.3025189081823
20
2.41018424503528
30
0
41
1
10
15.7635695694599
20
2.45625857077741
30
0
41
1
10
15.9169786146778
20
2.46858410237999
30
0
41
1
10
16.2241902932728
20
2.48660373370322
30
0
41
1
10
16.3783787907203
20
2.49223119177719
30
0
41
1
10
16.8403851574259
20
2.49938197697475
30
0
41
1
10
17.1480470134003
20
2.49138523424134
30
0
41
1
10
17.607850948917
20
2.45936141254171
30
0
41
1
10
17.761090413241
20
2.44534295042902
30
0
41
1
10
18.0687836783484
20
2.4112992421208
30
0
41
1
10
18.2231877782422
20
2.39119906551659
30
0
41
1
10
18.5314305045421
20
2.34478890461301
30
0
41
1
10
18.685302132864
20
2.31852219609718
30
0
41
1
10
18.9924069575117
20
2.25966232772106
30
0
41
1
10
19.1453589871433
20
2.22677058995572
30
0
41
1
10
19.6055727592866
20
2.12059731137322
30
0
41
1
10
19.9136118328269
20
2.03964799969822
30
0
41
1
10
20.3759254758145
20
1.90122270836437
30
0
41
1
10
20.5295536506704
20
1.85219058626632
30
0
41
1
10
20.8361934459491
20
1.74899572875191
30
0
41
1
10
20.9897383670182
20
1.69557326142419
30
0
41
1
10
21.4508249872285
20
1.52979846955665
30
0
41
1
10
21.7585213318674
20
1.41156633489638
30
0
41
1
10
22.2193930395255
20
1.22016770029154
30
0
41
1
10
22.3730443769366
20
1.15417626076024
30
0
41
1
10
22.6809737277405
20
1.02127748672478
30
0
41
1
10
22.8351501515579
20
0.953920990318267
30
0
41
1
10
23.1434387946806
20
0.816492842078304
30
0
41
1
10
23.2976967887649
20
0.746466383422529
30
0
41
1
10
23.6052615402505
20
0.604060071006444
30
0
41
1
10
23.7583416135207
20
0.531001980196578
30
0
41
1
10
24.2185015996449
20
0.312459112606916
30
0
41
1
10
24.5262203434532
20
0.167085079185512
30
0
41
1
10
25.1413318006599
20
-0.127582008766211
30
0
41
1
10
25.4484286827179
20
-0.278307218103123
30
0
41
1
10
26.0634805889972
20
-0.568102860575209
30
0
41
1
10
26.3709992635747
20
-0.709749543495661
30
0
41
1
10
26.8311313201174
20
-0.9194754918814
30
0
41
1
10
26.9843240268408
20
-0.988888602692356
30
0
41
1
10
27.2921785340564
20
-1.12315887525733
30
0
41
1
10
27.4464174188278
20
-1.18839051985128
30
0
41
1
10
27.7541984165987
20
-1.31569279239395
30
0
41
1
10
27.9078967282353
20
-1.37775244439524
30
0
41
1
10
28.2148573066576
20
-1.49872018474053
30
0
41
1
10
28.3677998746976
20
-1.55814190298724
30
0
41
1
10
28.8277600726551
20
-1.72856082567557
30
0
41
1
10
29.1366167483867
20
-1.83199638309378
30
0
41
1
10
29.5982398853008
20
-1.97359608897955
30
0
41
1
10
29.7517937527607
20
-2.0184265869963
30
0
41
1
10
30.0580054895095
20
-2.10345830065287
30
0
41
1
10
30.2113252812647
20
-2.14286142455367
30
0
41
1
10
30.6721479871193
20
-2.25187665397914
30
0
41
1
10
30.9803217106056
20
-2.31300711902296
30
0
41
1
10
31.4415099263017
20
-2.38748212790242
30
0
41
1
10
31.5946303835689
20
-2.4093558047222
30
0
41
1
10
31.9016780692322
20
-2.44608514630812
30
0
41
1
10
32.0553918553788
20
-2.46112810162324
30
0
41
1
10
32.3627125803627
20
-2.48492519473964
30
0
41
1
10
32.5163287209716
20
-2.49366183910956
30
0
41
1
10
32.7961329957137
20
-2.50370545173362
30
0
41
1
10
32.9221296506581
20
-2.50605679575705
30
0
41
1
10
33.0483249907925
20
-2.50614824857095
30
0
0
SPLINE
5
F6
100
AcDbEntity
8
1
62
256
6
ByLayer
370
18
48
1
60
0
100
AcDbSpline
70
4
71
3
72
76
73
72
40
0
40
0
40
0
40
0
40
0.0290560989857189
40
0.0290560989857189
40
0.0507077029412111
40
0.0507077029412111
40
0.0723593068967036
40
0.0723593068967036
40
0.115662514807688
40
0.115662514807688
40
0.158965722718672
40
0.158965722718672
40
0.180617326674164
40
0.180617326674164
40
0.202268930629657
40
0.202268930629657
40
0.245572138540641
40
0.245572138540641
40
0.267223742496132
40
0.267223742496132
40
0.288875346451623
40
0.288875346451623
40
0.332178554362608
40
0.332178554362608
40
0.375481762273592
40
0.375481762273592
40
0.397133366229083
40
0.397133366229083
40
0.418784970184574
40
0.418784970184574
40
0.462088178095557
40
0.462088178095557
40
0.483739782051049
40
0.483739782051049
40
0.50539138600654
40
0.50539138600654
40
0.548694593917522
40
0.548694593917522
40
0.570346197873015
40
0.570346197873015
40
0.591997801828507
40
0.591997801828507
40
0.613649405783999
40
0.613649405783999
40
0.635301009739491
40
0.635301009739491
40
0.678604217650474
40
0.678604217650474
40
0.700255821605967
40
0.700255821605967
40
0.721907425561459
40
0.721907425561459
40
0.765210633472443
40
0.765210633472443
40
0.786862237427934
40
0.786862237427934
40
0.808513841383426
40
0.808513841383426
40
0.830165445338917
40
0.830165445338917
40
0.851817049294408
40
0.851817049294408
40
0.895120257205391
40
0.895120257205391
40
0.916771861160882
40
0.916771861160882
40
0.938423465116373
40
0.938423465116373
40
0.981726673027355
40
0.981726673027355
40
1
40
1
40
1
40
1
41
1
10
44.4909237082085
20
1.47529588428523
30
0
41
1
10
44.6970878371427
20
1.55540519945558
30
0
41
1
10
44.9034866031034
20
1.63199836458179
30
0
41
1
10
45.2636625056678
20
1.76017929063411
30
0
41
1
10
45.4168193476981
20
1.8133776975242
30
0
41
1
10
45.7235449350049
20
1.91349796125772
30
0
41
1
10
45.8771074819008
20
1.96060110654551
30
0
41
1
10
46.3378349659473
20
2.09406061268191
30
0
41
1
10
46.6448013697354
20
2.17290871847788
30
0
41
1
10
47.2580413049266
20
2.3094595994568
30
0
41
1
10
47.5665601562388
20
2.36451460553764
30
0
41
1
10
48.0283174574462
20
2.42908883625211
30
0
41
1
10
48.1823478373628
20
2.44755424705309
30
0
41
1
10
48.4891913456131
20
2.47821757727434
30
0
41
1
10
48.6421542475101
20
2.49033351002851
30
0
41
1
10
49.102326111104
20
2.51640148841008
30
0
41
1
10
49.4096521149496
20
2.52075493995631
30
0
41
1
10
49.8701396993741
20
2.50771195934652
30
0
41
1
10
50.0233975982155
20
2.4999539078313
30
0
41
1
10
50.3305555009077
20
2.4779373041535
30
0
41
1
10
50.4842494021339
20
2.46377505879286
30
0
41
1
10
50.9451995296959
20
2.41202411771582
30
0
41
1
10
51.2521484913788
20
2.36518425169001
30
0
41
1
10
51.8641986135796
20
2.2447308040731
30
0
41
1
10
52.1728035668446
20
2.1734197417959
30
0
41
1
10
52.6338057034248
20
2.05011306449362
30
0
41
1
10
52.787279574641
20
2.00630326072326
30
0
41
1
10
53.0935495444866
20
1.91277907929535
30
0
41
1
10
53.2462779683324
20
1.86292232821103
30
0
41
1
10
53.706250223096
20
1.70830313228095
30
0
41
1
10
54.0147728925099
20
1.59692942598878
30
0
41
1
10
54.4755626444977
20
1.41643428452011
30
0
41
1
10
54.6284979904709
20
1.35357812584229
30
0
41
1
10
54.9346630074158
20
1.22525341399751
30
0
41
1
10
55.0880280302795
20
1.16005428302637
30
0
41
1
10
55.5485585854206
20
0.960769158823865
30
0
41
1
10
55.8563372182862
20
0.822527792186122
30
0
41
1
10
56.3163044125403
20
0.605244869522323
30
0
41
1
10
56.4695695373416
20
0.532350935208854
30
0
41
1
10
56.7765344584056
20
0.386780922817707
30
0
41
1
10
56.9300968863748
20
0.313826749361311
30
0
41
1
10
57.2369932624156
20
0.16678683927617
30
0
41
1
10
57.3904019560304
20
0.0928548709366908
30
0
41
1
10
57.6969206572703
20
-0.0563080395590134
30
0
41
1
10
57.8498518348292
20
-0.131918946688103
30
0
41
1
10
58.3108740003145
20
-0.355119828932061
30
0
41
1
10
58.6185863184845
20
-0.50035390973747
30
0
41
1
10
59.0785032896775
20
-0.715614045986285
30
0
41
1
10
59.2313683350083
20
-0.78734431202534
30
0
41
1
10
59.5374217689317
20
-0.928314472115545
30
0
41
1
10
59.6908916999445
20
-0.997014827517063
30
0
41
1
10
60.1522906521562
20
-1.19851720833327
30
0
41
1
10
60.4603508119114
20
-1.32694556947914
30
0
41
1
10
60.9191899109642
20
-1.51127236680102
30
0
41
1
10
61.0720653980202
20
-1.57076893523322
30
0
41
1
10
61.3787475252523
20
-1.68424367227073
30
0
41
1
10
61.5323619455135
20
-1.7385554341387
30
0
41
1
10
61.8396978474556
20
-1.84302276892018
30
0
41
1
10
61.99364671181
20
-1.89312652303542
30
0
41
1
10
62.3007251551987
20
-1.98877157530995
30
0
41
1
10
62.4535548842148
20
-2.03459761841032
30
0
41
1
10
62.9131383819224
20
-2.16205225004251
30
0
41
1
10
63.2202899975718
20
-2.23488433169888
30
0
41
1
10
63.6805903062028
20
-2.32775357662169
30
0
41
1
10
63.8338313871221
20
-2.3560231746431
30
0
41
1
10
64.1406235016968
20
-2.40639880641948
30
0
41
1
10
64.2941260763301
20
-2.42812638292682
30
0
41
1
10
64.7547014244541
20
-2.48357885423763
30
0
41
1
10
65.0615718292969
20
-2.50786657498767
30
0
41
1
10
65.496585352923
20
-2.52408085236255
30
0
41
1
10
65.6256155391222
20
-2.52651791712916
30
0
41
1
10
65.7550425383735
20
-2.52659048619714
30
0
0
SPLINE
5
F7
100
AcDbEntity
8
1
62
256
6
ByLayer
370
18
48
1
60
0
100
AcDbSpline
70
4
71
3
72
8
73
4
40
0
40
0
40
0
40
0
40
1
40
1
40
1
40
1
41
1
10
67.8890657386978
20
0.720514507976276
30
0
41
1
10
67.923241879579
20
0.520904460294446
30
0
41
1
10
67.9533581602713
20
0.321321416154433
30
0
41
1
10
67.9793849531358
20
0.12176557261995
30
0
0
SPLINE
5
F8
100
AcDbEntity
8
1
62
256
6
ByLayer
370
18
48
1
60
0
100
AcDbSpline
70
4
71
3
72
12
73
8
40
0
40
0
40
0
40
0
40
0.250000000000064
40
0.250000000000064
40
0.500000000000129
40
0.500000000000129
40
1
40
1
40
1
40
1
41
1
10
66.9472126082273
20
0.65554251397856
30
0
41
1
10
66.9451321104425
20
0.665479283404693
30
0
41
1
10
66.9449947386228
20
0.675892349017488
30
0
41
1
10
66.9505187375434
20
0.695305356716403
30
0
41
1
10
66.9564121048849
20
0.7042729034888
30
0
41
1
10
66.9799939033538
20
0.724088612908787
30
0
41
1
10
67.0013484963097
20
0.728235328042928
30
0
41
1
10
67.0217396414354
20
0.727977993333241
30
0
0
SPLINE
5
F9
100
AcDbEntity
8
1
62
256
6
ByLayer
370
18
48
1
60
0
100
AcDbSpline
70
4
71
3
72
14
73
10
40
0
40
0
40
0
40
0
40
0.207722299079671
40
0.207722299079671
40
0.48358509355313
40
0.48358509355313
40
0.75944788802659
40
0.75944788802659
40
1
40
1
40
1
40
1
41
1
10
50.3765202797403
20
-2.37805340162851
30
0
41
1
10
50.1462611561074
20
-2.37801799388851
30
0
41
1
10
49.9155323479624
20
-2.37097691925965
30
0
41
1
10
49.3764240893652
20
-2.33818985152496
30
0
41
1
10
49.0669705815264
20
-2.30703778185833
30
0
41
1
10
48.4506055036328
20
-2.2210219395993
30
0
41
1
10
48.142896169829
20
-2.16612504358625
30
0
41
1
10
47.5661019326603
20
-2.04247231804894
30
0
41
1
10
47.29641705237
20
-1.97616008972562
30
0
41
1
10
47.0276967428385
20
-1.90254603916048
30
0
0
SPLINE
5
FA
100
AcDbEntity
8
1
62
256
6
ByLayer
370
13
48
1
60
0
100
AcDbSpline
70
4
71
3
72
22
73
18
40
0
40
0
40
0
40
0
40
0.0140815027716557
40
0.0140815027716557
40
0.234103458504533
40
0.234103458504533
40
0.454125414237411
40
0.454125414237411
40
0.509130903170629
40
0.509130903170629
40
0.564136392103848
40
0.564136392103848
40
0.67414736997028
40
0.67414736997028
40
0.894169325703145
40
0.894169325703145
40
1
40
1
40
1
40
1
41
1
10
47.0276967426561
20
-1.90254603911055
30
0
41
1
10
46.9882512460495
20
-1.89174022102048
30
0
41
1
10
46.9488265333871
20
-1.88077706800812
30
0
41
1
10
46.293844177546
20
-1.69597438307426
30
0
41
1
10
45.6841832462215
20
-1.48488850107466
30
0
41
1
10
44.4642033431223
20
-1.01058050350178
30
0
41
1
10
43.8536048699448
20
-0.74783233986517
30
0
41
1
10
43.0819763893922
20
-0.402700767905941
30
0
41
1
10
42.9274908395442
20
-0.332996723623523
30
0
41
1
10
42.6197669338707
20
-0.193514356310487
30
0
41
1
10
42.4662712822541
20
-0.123619738115309
30
0
41
1
10
42.0065771509232
20
0.0858097601693544
30
0
41
1
10
41.7012210922866
20
0.225205976179382
30
0
41
1
10
40.786036351141
20
0.637509196172857
30
0
41
1
10
40.1770137670037
20
0.904217913624478
30
0
41
1
10
39.2672564568914
20
1.26644462351837
30
0
41
1
10
38.9698417258991
20
1.379224102862
30
0
41
1
10
38.6727834388043
20
1.4846228193542
30
0
0
SPLINE
5
FB
100
AcDbEntity
8
1
62
256
6
ByLayer
370
18
48
1
60
0
100
AcDbSpline
70
4
71
3
72
14
73
10
40
0
40
0
40
0
40
0
40
0.058747362033659
40
0.058747362033659
40
0.32218236852959
40
0.32218236852959
40
0.585617375025521
40
0.585617375025521
40
1
40
1
40
1
40
1
41
1
10
17.6617251765203
20
-2.35728159323528
30
0
41
1
10
17.5932540900385
20
-2.35718511097207
30
0
41
1
10
17.5247256657022
20
-2.35647829491106
30
0
41
1
10
17.1485394119295
20
-2.34923633920855
30
0
41
1
10
16.8385428623814
20
-2.33088679316259
30
0
41
1
10
16.2227694314983
20
-2.26991623306375
30
0
41
1
10
15.9163886848676
20
-2.22738834834101
30
0
41
1
10
15.1297719274062
20
-2.08957466765037
30
0
41
1
10
14.6502600107799
20
-1.9777405926634
30
0
41
1
10
14.1693106339235
20
-1.84187508186372
30
0
0
SPLINE
5
FC
100
AcDbEntity
8
1
62
256
6
ByLayer
370
13
48
1
60
0
100
AcDbSpline
70
4
71
3
72
18
73
14
40
0
40
0
40
0
40
0
40
0.0664388156847646
40
0.0664388156847646
40
0.222032346403971
40
0.222032346403971
40
0.377625877123177
40
0.377625877123177
40
0.688812938561589
40
0.688812938561589
40
0.844406469280796
40
0.844406469280796
40
1
40
1
40
1
40
1
41
1
10
14.1693106334422
20
-1.84187508172772
30
0
41
1
10
14.0387531828055
20
-1.80499333164116
30
0
41
1
10
13.908089806692
20
-1.76634072122545
30
0
41
1
10
13.4708822837298
20
-1.63148658935054
30
0
41
1
10
13.1635614844825
20
-1.52777387558712
30
0
41
1
10
12.5453162775763
20
-1.30415933886738
30
0
41
1
10
12.2370266546046
20
-1.1850818389882
30
0
41
1
10
11.3169231826051
20
-0.813047794051926
30
0
41
1
10
10.7074842437511
20
-0.545168954337157
30
0
41
1
10
9.79056714296306
20
-0.132941319864955
30
0
41
1
10
9.48440634347523
20
0.0060551032156866
30
0
41
1
10
8.86933673516779
20
0.283410680404387
30
0
41
1
10
8.55973022921137
20
0.422051374794364
30
0
41
1
10
8.25034769000501
20
0.557724400360399
30
0
0
SPLINE
5
FD
100
AcDbEntity
8
1
62
256
6
ByLayer
370
18
48
1
60
0
100
AcDbSpline
70
4
71
3
72
56
73
52
40
0
40
0
40
0
40
0
40
0.125000000000019
40
0.125000000000019
40
0.18750000000003
40
0.18750000000003
40
0.218750000000035
40
0.218750000000035
40
0.25000000000004
40
0.25000000000004
40
0.312500000000051
40
0.312500000000051
40
0.343750000000056
40
0.343750000000056
40
0.375000000000061
40
0.375000000000061
40
0.437500000000072
40
0.437500000000072
40
0.500000000000082
40
0.500000000000082
40
0.531250000000087
40
0.531250000000087
40
0.562500000000092
40
0.593750000000098
40
0.593750000000098
40
0.625000000000103
40
0.625000000000103
40
0.656250000000108
40
0.656250000000108
40
0.687500000000113
40
0.687500000000113
40
0.750000000000124
40
0.750000000000124
40
0.757812500000125
40
0.757812500000125
40
0.761718750000125
40
0.761718750000125
40
0.765625000000125
40
0.765625000000125
40
0.769531250000124
40
0.769531250000124
40
0.773437500000124
40
0.773437500000124
40
0.781250000000121
40
0.812500000000103
40
0.812500000000103
40
0.875000000000068
40
0.875000000000068
40
0.937500000000034
40
0.937500000000034
40
1
40
1
40
1
40
1
41
1
10
8.02639364061204
20
-2.46251314889741
30
0
41
1
10
7.80849169095291
20
-2.49249406578548
30
0
41
1
10
7.59848084292673
20
-2.49923072678823
30
0
41
1
10
7.29407069085249
20
-2.46717901493238
30
0
41
1
10
7.19438507060207
20
-2.44942141595382
30
0
41
1
10
7.04762789397432
20
-2.41038636084525
30
0
41
1
10
6.99916204404028
20
-2.39527491559861
30
0
41
1
10
6.90448324370249
20
-2.36100232597857
30
0
41
1
10
6.85810875695867
20
-2.34180421044763
30
0
41
1
10
6.72199274858133
20
-2.2776651769658
30
0
41
1
10
6.63521885866896
20
-2.2262496218631
30
0
41
1
10
6.5120257977392
20
-2.13373929198335
30
0
41
1
10
6.47197336174116
20
-2.10016626465023
30
0
41
1
10
6.3954015541905
20
-2.0280473162139
30
0
41
1
10
6.35892047383976
20
-1.98957657089139
30
0
41
1
10
6.25536051580406
20
-1.86639459330541
30
0
41
1
10
6.19403086408605
20
-1.77405483580009
30
0
41
1
10
6.09166666419554
20
-1.56358499181184
30
0
41
1
10
6.05241436706604
20
-1.44890497203571
30
0
41
1
10
6.0157134550461
20
-1.26148177274132
30
0
41
1
10
6.00718682427799
20
-1.19579291809632
30
0
41
1
10
5.99887163244904
20
-1.06248930107876
30
0
41
1
10
5.9990803931847
20
-0.926996599527769
30
0
41
1
10
6.01674417666482
20
-0.787279708077108
30
0
41
1
10
6.04356863657426
20
-0.645480018544816
30
0
41
1
10
6.06151319276751
20
-0.574176720368541
30
0
41
1
10
6.10517407866988
20
-0.434211274362355
30
0
41
1
10
6.13098244648097
20
-0.365033053171089
30
0
41
1
10
6.19010973053227
20
-0.22824928660151
30
0
41
1
10
6.2235628561163
20
-0.160456973024026
30
0
41
1
10
6.33277359429539
20
0.0372794771147085
30
0
41
1
10
6.41793064077757
20
0.16280699823534
30
0
41
1
10
6.52288039376339
20
0.295402553020239
30
0
41
1
10
6.53467168592005
20
0.310020953257094
30
0
41
1
10
6.55254853679412
20
0.331781881463002
30
0
41
1
10
6.55853886834035
20
0.339007396567581
30
0
41
1
10
6.57057864965662
20
0.353399715083839
30
0
41
1
10
6.57623040986658
20
0.361021118852875
30
0
41
1
10
6.59128404743751
20
0.37205145589931
30
0
41
1
10
6.60050862253047
20
0.374958173768249
30
0
41
1
10
6.61909538132298
20
0.377251265435063
30
0
41
1
10
6.62845109694726
20
0.37724924803112
30
0
41
1
10
6.65645343311957
20
0.378437311871863
30
0
41
1
10
6.74984137865673
20
0.381741814925135
30
0
41
1
10
6.84322635752798
20
0.38180332234171
30
0
41
1
10
7.06734507609031
20
0.375912974452945
30
0
41
1
10
7.21578313229736
20
0.363968236700885
30
0
41
1
10
7.50978494101417
20
0.325115170028141
30
0
41
1
10
7.65552191532458
20
0.29817143017695
30
0
41
1
10
7.94454701267677
20
0.229544898561784
30
0
41
1
10
8.08817372865545
20
0.187830041196577
30
0
41
1
10
8.22939578178892
20
0.139088795867849
30
0
0
SPLINE
5
FE
100
AcDbEntity
8
1
62
256
6
ByLayer
370
18
48
1
60
0
100
AcDbSpline
70
4
71
3
72
24
73
20
40
0
40
0
40
0
40
0
40
0.0862441281281464
40
0.0862441281281464
40
0.172488256256293
40
0.172488256256293
40
0.344976512512586
40
0.344976512512586
40
0.431220640640732
40
0.431220640640732
40
0.517464768768879
40
0.517464768768879
40
0.689953025025171
40
0.689953025025171
40
0.776197153153319
40
0.776197153153319
40
0.862441281281466
40
0.862441281281466
40
1
40
1
40
1
40
1
41
1
10
8.20762692089767
20
0.492763585407772
30
0
41
1
10
8.51733956251039
20
0.350047970019233
30
0
41
1
10
8.82727413627345
20
0.204749138131859
30
0
41
1
10
9.44274398987412
20
-0.0848054647205174
30
0
41
1
10
9.74901676340556
20
-0.229382008753618
30
0
41
1
10
10.6661330280855
20
-0.656760234339743
30
0
41
1
10
11.2755520257106
20
-0.932543588075504
30
0
41
1
10
12.1960914574376
20
-1.31272631689254
30
0
41
1
10
12.5046330086385
20
-1.43396075730911
30
0
41
1
10
13.1234889575825
20
-1.6604164931953
30
0
41
1
10
13.431005354021
20
-1.76478984391926
30
0
41
1
10
14.3505077445784
20
-2.04809041290372
30
0
41
1
10
14.9597015317994
20
-2.19682156000803
30
0
41
1
10
15.8770980429834
20
-2.34917178840115
30
0
41
1
10
16.1835561494605
20
-2.38824616654767
30
0
41
1
10
16.7998462222497
20
-2.44103776791872
30
0
41
1
10
17.1102324437676
20
-2.45473890216229
30
0
41
1
10
17.9089237861013
20
-2.45660648109882
30
0
41
1
10
18.3961602299862
20
-2.4249067150127
30
0
41
1
10
18.883272477598
20
-2.36217940530162
30
0
0
SPLINE
5
FF
100
AcDbEntity
8
1
62
256
6
ByLayer
370
18
48
1
60
0
100
AcDbSpline
70
4
71
3
72
34
73
30
40
0
40
0
40
0
40
0
40
0.0500911606085193
40
0.0500911606085193
40
0.117690538380431
40
0.117690538380431
40
0.252889293924255
40
0.252889293924255
40
0.320488671696167
40
0.320488671696167
40
0.354288360582121
40
0.354288360582121
40
0.388088049468076
40
0.388088049468076
40
0.523286805011895
40
0.523286805011895
40
0.658485560555714
40
0.658485560555714
40
0.692285249441668
40
0.692285249441668
40
0.726084938327622
40
0.726084938327622
40
0.79368431609953
40
0.79368431609953
40
0.861283693871438
40
0.861283693871438
40
0.928883071643346
40
0.928883071643346
40
1
40
1
40
1
40
1
41
1
10
37.9236765412474
20
1.72877617861616
30
0
41
1
10
38.1527374371488
20
1.6513191038124
30
0
41
1
10
38.3816159680379
20
1.56891169657405
30
0
41
1
10
38.9197142805853
20
1.36500129561006
30
0
41
1
10
39.2292092197113
20
1.23979030147183
30
0
41
1
10
40.1509733677124
20
0.849336736242662
30
0
41
1
10
40.7599547113568
20
0.568084336826189
30
0
41
1
10
41.6752749300012
20
0.136379670457671
30
0
41
1
10
41.9806845315255
20
-0.0091634969025449
30
0
41
1
10
42.4406302152009
20
-0.227045707018988
30
0
41
1
10
42.5942383159189
20
-0.299625226394568
30
0
41
1
10
42.9022477549246
20
-0.44422844475173
30
0
41
1
10
43.056949109605
20
-0.516391265529251
30
0
41
1
10
43.8291067840928
20
-0.872837389472238
30
0
41
1
10
44.4396766901206
20
-1.14186433130845
30
0
41
1
10
45.6597096962859
20
-1.62330383378892
30
0
41
1
10
46.2694228160782
20
-1.83510979800687
30
0
41
1
10
47.039617703006
20
-2.04968982093052
30
0
41
1
10
47.1943033090773
20
-2.09016204708624
30
0
41
1
10
47.5032790089392
20
-2.16537403364714
30
0
41
1
10
47.6575454985664
20
-2.20011794976279
30
0
41
1
10
48.1200403107581
20
-2.29543552635229
30
0
41
1
10
48.4279401539887
20
-2.34711526916112
30
0
41
1
10
49.0448557562754
20
-2.4253763659585
30
0
41
1
10
49.3546628597974
20
-2.45203423549637
30
0
41
1
10
49.9699732735681
20
-2.47922365144583
30
0
41
1
10
50.2760031797203
20
-2.47975424796797
30
0
41
1
10
50.9028108306584
20
-2.45467944750646
30
0
41
1
10
51.2233130549697
20
-2.42766582935826
30
0
41
1
10
51.5440479811098
20
-2.38705554347217
30
0
0
SPLINE
5
100
100
AcDbEntity
8
1
62
256
6
ByLayer
370
18
48
1
60
0
100
AcDbSpline
70
4
71
3
72
8
73
4
40
0
40
0
40
0
40
0
40
1
40
1
40
1
40
1
41
1
10
67.4524676981106
20
-1.38003787380629
30
0
41
1
10
67.3311564887069
20
-1.71333768237216
30
0
41
1
10
67.2098452793032
20
-2.04663749093805
30
0
41
1
10
67.0885340698995
20
-2.37993729950409
30
0
0
SPLINE
5
101
100
AcDbEntity
8
1
62
256
6
ByLayer
370
18
48
1
60
0
100
AcDbSpline
70
4
71
3
72
19
73
15
40
0
40
0
40
0
40
0
40
0.0917448739554781
40
0.156220101499868
40
0.237158707070534
40
0.327965462905551
40
0.412791084209458
40
0.482057979362707
40
0.598718610770344
40
0.736784806044326
40
0.792747909498476
40
0.83842494045646
40
0.900119578926894
40
1
40
1
40
1
40
1
41
1
10
17.6390426562043
20
-2.35728439330705
30
0
41
1
10
17.8172209216174
20
-2.35743798550754
30
0
41
1
10
18.1206168375531
20
-2.35774894666875
30
0
41
1
10
18.5810756164719
20
-2.35825172911601
30
0
41
1
10
19.0400009311088
20
-2.35908903459091
30
0
41
1
10
19.5384301261532
20
-2.35896062128091
30
0
41
1
10
20.0141955275134
20
-2.35851978992653
30
0
41
1
10
20.5401767435185
20
-2.35917175135404
30
0
41
1
10
21.1695956069133
20
-2.36170641759756
30
0
41
1
10
21.7731658786021
20
-2.35973893744551
30
0
41
1
10
22.2388413324625
20
-2.3602813981158
30
0
41
1
10
22.5561391063647
20
-2.36103105725212
30
0
41
1
10
22.9587713238793
20
-2.36115809571004
30
0
41
1
10
23.2726481160795
20
-2.36183050875187
30
0
41
1
10
23.4666739876421
20
-2.36230263484447
30
0
0
SPLINE
5
102
100
AcDbEntity
8
1
62
256
6
ByLayer
370
18
48
1
60
0
100
AcDbSpline
70
4
71
2
72
6
73
3
40
0
40
0
40
0
40
1
40
1
40
1
41
1
10
66.6956295992611
20
-2.38826773644269
30
0
41
1
10
66.9083105798775
20
-2.38572684938669
30
0
41
1
10
67.1210577737053
20
-2.3884544901704
30
0
0
SPLINE
5
103
100
AcDbEntity
8
1
62
256
6
ByLayer
370
18
48
1
60
0
100
AcDbSpline
70
4
71
3
72
16
73
12
40
0
40
0
40
0
40
0
40
0.151304449762868
40
0.279335735802538
40
0.403989282482731
40
0.514061507989439
40
0.622531572031017
40
0.743870741405331
40
0.86587370559432
40
0.977399007908665
40
1
40
1
40
1
40
1
41
1
10
39.867687425012
20
2.37110028631784
30
0
41
1
10
39.6461171557798
20
2.36994975862911
30
0
41
1
10
39.2369424271888
20
2.36865916115019
30
0
41
1
10
38.6455814931596
20
2.36955595613722
30
0
41
1
10
38.1130569778464
20
2.37121566462818
30
0
41
1
10
37.6095537652606
20
2.37031591846105
30
0
41
1
10
37.1108837236728
20
2.36946285251204
30
0
41
1
10
36.5946097506283
20
2.36842189362693
30
0
41
1
10
36.0742081435718
20
2.36843939489225
30
0
41
1
10
35.6982578886423
20
2.36884665764859
30
0
41
1
10
35.5016118379719
20
2.36887761093445
30
0
41
1
10
35.4684796818563
20
2.36887617511417
30
0
0
SPLINE
5
104
100
AcDbEntity
8
1
62
256
6
ByLayer
370
18
48
1
60
0
100
AcDbSpline
70
4
71
3
72
17
73
13
40
0
40
0
40
0
40
0
40
0.130060638465192
40
0.220838595206503
40
0.315590322632408
40
0.426441518965487
40
0.512177821218554
40
0.585000003807906
40
0.656096465908264
40
0.76302611536986
40
0.89397831267775
40
1
40
1
40
1
40
1
41
1
10
56.1630730531234
20
2.38036288500763
30
0
41
1
10
55.9742046610178
20
2.37999042664356
30
0
41
1
10
55.6534864273289
20
2.37950194755857
30
0
41
1
10
55.1950512554776
20
2.37869902548246
30
0
41
1
10
54.7645629435335
20
2.37909219888874
30
0
41
1
10
54.3413057856062
20
2.37985266147683
30
0
41
1
10
53.9499315576182
20
2.37997325679927
30
0
41
1
10
53.6163066187817
20
2.37856281295669
30
0
41
1
10
53.2518924382756
20
2.3787083168464
30
0
41
1
10
52.8030335963348
20
2.37901943829462
30
0
41
1
10
52.3034361196204
20
2.37921318802341
30
0
41
1
10
51.9591786206683
20
2.3783593231019
30
0
41
1
10
51.8051580714713
20
2.37818410766334
30
0
0
SPLINE
5
105
100
AcDbEntity
8
1
62
256
6
ByLayer
370
18
48
1
60
0
100
AcDbSpline
70
4
71
3
72
19
73
15
40
0
40
0
40
0
40
0
40
0.115538432939926
40
0.197423718272825
40
0.247506277909671
40
0.304799415530173
40
0.371150938206545
40
0.435976276765914
40
0.571310142471681
40
0.692294007797767
40
0.770648294486673
40
0.863612383506009
40
0.967774177010906
40
1
40
1
40
1
40
1
41
1
10
23.4662964047508
20
2.36230057428014
30
0
41
1
10
23.2983996996968
20
2.36190336591611
30
0
41
1
10
23.0115067647681
20
2.36132874158506
30
0
41
1
10
22.6518149208935
20
2.36103931551366
30
0
41
1
10
22.3767812700193
20
2.36067568443465
30
0
41
1
10
22.1243146344851
20
2.36004131142658
30
0
41
1
10
21.8504217374501
20
2.36004278882504
30
0
41
1
10
21.4631169583347
20
2.3605654141256
30
0
41
1
10
20.9964173406526
20
2.36135129802449
30
0
41
1
10
20.5100576572962
20
2.35914481493296
30
0
41
1
10
20.0852764807073
20
2.35854571014966
30
0
41
1
10
19.6849324202306
20
2.35883699481135
30
0
41
1
10
19.351642044626
20
2.35904547304898
30
0
41
1
10
19.153420070387
20
2.35895181012455
30
0
41
1
10
19.1065846855439
20
2.35892033939808
30
0
0
SPLINE
5
106
100
AcDbEntity
8
1
62
256
6
ByLayer
370
18
48
1
60
0
100
AcDbSpline
70
4
71
3
72
20
73
16
40
0
40
0
40
0
40
0
40
0.0992689303917299
40
0.164347135790588
40
0.203622805904916
40
0.241205527940876
40
0.279626108854057
40
0.320780057269413
40
0.426482287520288
40
0.534018119677442
40
0.615209586298727
40
0.697601440782876
40
0.790909801384185
40
0.886741384732909
40
1
40
1
40
1
40
1
41
1
10
33.9903275678725
20
-2.36748153416417
30
0
41
1
10
34.1848377753641
20
-2.36745992035463
30
0
41
1
10
34.5068644311376
20
-2.36760876379972
30
0
41
1
10
34.9061280235135
20
-2.3681505579988
30
0
41
1
10
35.1841269143911
20
-2.36871967977106
30
0
41
1
10
35.4098253433436
20
-2.36890601953823
30
0
41
1
10
35.6393397369876
20
-2.36885425518588
30
0
41
1
10
36.0026051809978
20
-2.368589228514
30
0
41
1
10
36.5008537969557
20
-2.36819989339037
30
0
41
1
10
37.0781345608776
20
-2.36941192295816
30
0
41
1
10
37.6095541876402
20
-2.37031470267272
30
0
41
1
10
38.1130667516121
20
-2.37121606155236
30
0
41
1
10
38.6455943794275
20
-2.36955573401212
30
0
41
1
10
39.2369668442042
20
-2.3686594239658
30
0
41
1
10
39.6461468817768
20
-2.36994984950493
30
0
41
1
10
39.8677263973058
20
-2.37110031373166
30
0
0
SPLINE
5
107
100
AcDbEntity
8
1
62
256
6
ByLayer
370
18
48
1
60
0
100
AcDbSpline
70
4
71
3
72
22
73
18
40
0
40
0
40
0
40
0
40
0.0804715615295106
40
0.135360366290392
40
0.171457792757299
40
0.209192425123147
40
0.250067949267872
40
0.295468790422733
40
0.412842617936057
40
0.508982288292954
40
0.561146636276046
40
0.614462339094795
40
0.67645247813445
40
0.757216593797384
40
0.831570319011752
40
0.900440738687104
40
1
40
1
40
1
40
1
41
1
10
50.3405548146833
20
-2.37801882655913
30
0
41
1
10
50.4967243997955
20
-2.37816520391877
30
0
41
1
10
50.7594176626941
20
-2.37831641528723
30
0
41
1
10
51.0921745767968
20
-2.3782888087857
30
0
41
1
10
51.3419855115015
20
-2.37818672674368
30
0
41
1
10
51.5646016435272
20
-2.37809442849866
30
0
41
1
10
51.8052754028978
20
-2.37806168234465
30
0
41
1
10
52.2005066024636
20
-2.37900086738623
30
0
41
1
10
52.7029934977829
20
-2.37911648266831
30
0
41
1
10
53.2186020410435
20
-2.37872474737733
30
0
41
1
10
53.6098940124072
20
-2.37855604677452
30
0
41
1
10
53.9349090472952
20
-2.37991589457403
30
0
41
1
10
54.3154272623282
20
-2.3798912443493
30
0
41
1
10
54.7367912340001
20
-2.37914798174356
30
0
41
1
10
55.1714441763511
20
-2.37867683890559
30
0
41
1
10
55.6425680335087
20
-2.37947457293956
30
0
41
1
10
55.9693507846042
20
-2.37997272441817
30
0
41
1
10
56.1624987718577
20
-2.38036172063104
30
0
0
LINE
5
7B
100
AcDbEntity
8
SK1
62
256
6
ByLayer
370
13
48
1
60
0
100
AcDbLine
10
-35.75
20
-0.35744
30
0
11
-35.75
21
-1.119675
31
0
39
0
210
0
220
0
230
1
0
LINE
5
7D
100
AcDbEntity
8
SK1
62
256
6
ByLayer
370
18
48
1
60
0
100
AcDbLine
10
-36
20
2.065
30
0
11
-36
21
0.403755
31
0
39
0
210
0
220
0
230
1
0
LINE
5
7E
100
AcDbEntity
8
SK1
62
256
6
ByLayer
370
18
48
1
60
0
100
AcDbLine
10
-35.065
20
3
30
0
11
-35.065
21
-3
31
0
39
0
210
0
220
0
230
1
0
LINE
5
7F
100
AcDbEntity
8
SK1
62
256
6
ByLayer
370
18
48
1
60
0
100
AcDbLine
10
-35.65
20
-1.044821
30
0
11
-35.65
21
0.235345
31
0
39
0
210
0
220
0
230
1
0
LINE
5
80
100
AcDbEntity
8
SK1
62
256
6
ByLayer
370
18
48
1
60
0
100
AcDbLine
10
-36
20
-0.403755
30
0
11
-36
21
-1.07336
31
0
39
0
210
0
220
0
230
1
0
LINE
5
81
100
AcDbEntity
8
SK1
62
256
6
ByLayer
370
18
48
1
60
0
100
AcDbLine
10
-36
20
-2.065
30
0
11
-36
21
-1.07336
31
0
39
0
210
0
220
0
230
1
0
LINE
5
82
100
AcDbEntity
8
SK1
62
256
6
ByLayer
370
18
48
1
60
0
100
AcDbLine
10
0
20
-3
30
0
11
0
21
3
31
0
39
0
210
0
220
0
230
1
0
LINE
5
83
100
AcDbEntity
8
1
62
256
6
ByLayer
370
18
48
1
60
0
100
AcDbLine
10
0
20
-3
30
0
11
0
21
3
31
0
39
0
210
0
220
0
230
1
0
LINE
5
84
100
AcDbEntity
8
1
62
256
6
ByLayer
370
13
48
1
60
0
100
AcDbLine
10
1.175278
20
2.48623
30
0
11
1.175278
21
-2.48623
31
0
39
0
210
0
220
0
230
1
0
LINE
5
85
100
AcDbEntity
8
1
62
256
6
ByLayer
370
18
48
1
60
0
100
AcDbLine
10
67.311791
20
-0.962307
30
0
11
67.890302
21
-0.177099
31
0
39
0
210
0
220
0
230
1
0
LINE
5
86
100
AcDbEntity
8
1
62
256
6
ByLayer
370
13
48
1
60
0
100
AcDbLine
10
67.02174
20
0.727978
30
0
11
67.979385
21
0.121766
31
0
39
0
210
0
220
0
230
1
0
LINE
5
87
100
AcDbEntity
8
1
62
256
6
ByLayer
370
13
48
1
60
0
100
AcDbLine
10
66.947213
20
0.655543
30
0
11
67.984475
21
-0.00107
31
0
39
0
210
0
220
0
230
1
0
LINE
5
88
100
AcDbEntity
8
1
62
256
6
ByLayer
370
13
48
1
60
0
100
AcDbLine
10
0.587389
20
2.743115
30
0
11
0.587389
21
-2.743115
31
0
39
0
210
0
220
0
230
1
0
LINE
5
89
100
AcDbEntity
8
1
62
256
6
ByLayer
370
18
48
1
60
0
100
AcDbLine
10
66.736376
20
-1.743312
30
0
11
67.283095
21
-1.001255
31
0
39
0
210
0
220
0
230
1
0
LINE
5
8A
100
AcDbEntity
8
80
62
256
6
ByLayer
370
18
48
1
60
0
100
AcDbLine
10
0
20
0
30
0
11
-5
21
0
31
0
39
0
210
0
220
0
230
1
0
LINE
5
8B
100
AcDbEntity
8
4
62
256
6
ByLayer
370
18
48
0.05
60
0
100
AcDbLine
10
68
20
0
30
0
11
0
21
0
31
0
39
0
210
0
220
0
230
1
0
LINE
5
8D
100
AcDbEntity
8
SK4
62
256
6
ByLayer
370
18
48
0.05
60
0
100
AcDbLine
10
73
20
0
30
0
11
-41
21
0
31
0
39
0
210
0
220
0
230
1
0
LINE
5
8F
100
AcDbEntity
8
SK1
62
256
6
ByLayer
370
18
48
1
60
0
100
AcDbLine
10
-36
20
-2.065
30
0
11
-35.065
21
-3
31
0
39
0
210
0
220
0
230
1
0
LINE
5
90
100
AcDbEntity
8
SK1
62
256
6
ByLayer
370
18
48
1
60
0
100
AcDbLine
10
-35.065
20
3
30
0
11
-36
21
2.065
31
0
39
0
210
0
220
0
230
1
0
LINE
5
91
100
AcDbEntity
8
SK1
62
256
6
ByLayer
370
18
48
1
60
0
100
AcDbLine
10
-35.065
20
-3
30
0
11
0
21
-3
31
0
39
0
210
0
220
0
230
1
0
LINE
5
92
100
AcDbEntity
8
SK1
62
256
6
ByLayer
370
18
48
1
60
0
100
AcDbLine
10
0
20
3
30
0
11
-35.065
21
3
31
0
39
0
210
0
220
0
230
1
0
LINE
5
93
100
AcDbEntity
8
1
62
256
6
ByLayer
370
18
48
1
60
0
100
AcDbLine
10
17.436843
20
2.496394
30
0
11
16.695952
21
2.495931
31
0
39
0
210
0
220
0
230
1
0
LINE
5
94
100
AcDbEntity
8
1
62
256
6
ByLayer
370
18
48
1
60
0
100
AcDbLine
10
1.175278
20
-2.48623
30
0
11
7.641111
21
-2.490271
31
0
39
0
210
0
220
0
230
1
0
LINE
5
95
100
AcDbEntity
8
1
62
256
6
ByLayer
370
18
48
1
60
0
100
AcDbLine
10
16.695952
20
-2.495931
30
0
11
17.43689
21
-2.496394
31
0
39
0
210
0
220
0
230
1
0
LINE
5
96
100
AcDbEntity
8
1
62
256
6
ByLayer
370
18
48
1
60
0
100
AcDbLine
10
33.048087
20
-2.506151
30
0
11
33.787028
21
-2.506613
31
0
39
0
210
0
220
0
230
1
0
LINE
5
97
100
AcDbEntity
8
1
62
256
6
ByLayer
370
18
48
1
60
0
100
AcDbLine
10
49.401593
20
-2.516372
30
0
11
50.137022
21
-2.516831
31
0
39
0
210
0
220
0
230
1
0
LINE
5
98
100
AcDbEntity
8
1
62
256
6
ByLayer
370
18
48
1
60
0
100
AcDbLine
10
65.755967
20
-2.526593
30
0
11
66.487544
21
-2.52705
31
0
39
0
210
0
220
0
230
1
0
LINE
5
99
100
AcDbEntity
8
1
62
256
6
ByLayer
370
18
48
1
60
0
100
AcDbLine
10
66.48724
20
2.52705
30
0
11
65.755967
21
2.526593
31
0
39
0
210
0
220
0
230
1
0
LINE
5
9A
100
AcDbEntity
8
1
62
256
6
ByLayer
370
18
48
1
60
0
100
AcDbLine
10
50.137011
20
2.516831
30
0
11
49.401593
21
2.516372
31
0
39
0
210
0
220
0
230
1
0
LINE
5
9B
100
AcDbEntity
8
1
62
256
6
ByLayer
370
18
48
1
60
0
100
AcDbLine
10
33.786909
20
2.506613
30
0
11
33.048087
21
2.506151
31
0
39
0
210
0
220
0
230
1
0
LINE
5
9C
100
AcDbEntity
8
1
62
256
6
ByLayer
370
18
48
1
60
0
100
AcDbLine
10
7.640854
20
2.490271
30
0
11
1.175278
21
2.48623
31
0
39
0
210
0
220
0
230
1
0
LINE
5
9D
100
AcDbEntity
8
81
62
256
6
ByLayer
370
18
48
1
60
0
100
AcDbLine
10
68
20
0
30
0
11
73
21
0
31
0
39
0
210
0
220
0
230
1
0
LINE
5
9E
100
AcDbEntity
8
SK2
62
256
6
ByLayer
370
13
48
1
60
0
100
AcDbLine
10
-44.625163
20
32.117107
30
0
11
-44.625163
21
-11.75
31
0
39
0
210
0
220
0
230
1
0
LINE
5
A0
100
AcDbEntity
8
SK2
62
256
6
ByLayer
370
13
48
1
60
0
100
AcDbLine
10
-37.5875
20
3
30
0
11
-46.625163
21
3
31
0
39
0
210
0
220
0
230
1
0
LINE
5
A1
100
AcDbEntity
8
SK2
62
256
6
ByLayer
370
13
48
1
60
0
100
AcDbLine
10
-37.5875
20
-3
30
0
11
-46.625163
21
-3
31
0
39
0
210
0
220
0
230
1
0
LINE
5
A2
100
AcDbEntity
8
1
62
256
6
ByLayer
370
18
48
1
60
1
100
AcDbLine
10
-44.625163
20
3
30
0
11
-45.085946
21
6.499998
31
0
39
0
210
0
220
0
230
1
0
LINE
5
A3
100
AcDbEntity
8
1
62
256
6
ByLayer
370
18
48
1
60
1
100
AcDbLine
10
-45.085946
20
6.499998
30
0
11
-44.164379
21
6.500002
31
0
39
0
210
0
220
0
230
1
0
LINE
5
A4
100
AcDbEntity
8
1
62
256
6
ByLayer
370
18
48
1
60
1
100
AcDbLine
10
-44.164379
20
6.500002
30
0
11
-44.625163
21
3
31
0
39
0
210
0
220
0
230
1
0
LINE
5
A5
100
AcDbEntity
8
1
62
256
6
ByLayer
370
18
48
1
60
1
100
AcDbLine
10
-44.625163
20
-3
30
0
11
-44.164379
21
-6.499998
31
0
39
0
210
0
220
0
230
1
0
LINE
5
A6
100
AcDbEntity
8
1
62
256
6
ByLayer
370
18
48
1
60
1
100
AcDbLine
10
-44.164379
20
-6.499998
30
0
11
-45.085946
21
-6.500002
31
0
39
0
210
0
220
0
230
1
0
LINE
5
A7
100
AcDbEntity
8
1
62
256
6
ByLayer
370
18
48
1
60
1
100
AcDbLine
10
-45.085946
20
-6.500002
30
0
11
-44.625163
21
-3
31
0
39
0
210
0
220
0
230
1
0
LINE
5
A8
100
AcDbEntity
8
2
62
256
6
ByLayer
370
13
48
1
60
0
100
AcDbLine
10
80.083343
20
30.237693
30
0
11
80.083343
21
-11.2775
31
0
39
0
210
0
220
0
230
1
0
LINE
5
AA
100
AcDbEntity
8
2
62
256
6
ByLayer
370
13
48
1
60
0
100
AcDbLine
10
68.848
20
2.5275
30
0
11
82.083343
21
2.5275
31
0
39
0
210
0
220
0
230
1
0
LINE
5
AB
100
AcDbEntity
8
2
62
256
6
ByLayer
370
13
48
1
60
0
100
AcDbLine
10
68.848
20
-2.5275
30
0
11
82.083343
21
-2.5275
31
0
39
0
210
0
220
0
230
1
0
LINE
5
AC
100
AcDbEntity
8
1
62
256
6
ByLayer
370
18
48
1
60
1
100
AcDbLine
10
80.083343
20
2.5275
30
0
11
79.622559
21
6.027498
31
0
39
0
210
0
220
0
230
1
0
LINE
5
AD
100
AcDbEntity
8
1
62
256
6
ByLayer
370
18
48
1
60
1
100
AcDbLine
10
79.622559
20
6.027498
30
0
11
80.544126
21
6.027502
31
0
39
0
210
0
220
0
230
1
0
LINE
5
AE
100
AcDbEntity
8
1
62
256
6
ByLayer
370
18
48
1
60
1
100
AcDbLine
10
80.544126
20
6.027502
30
0
11
80.083343
21
2.5275
31
0
39
0
210
0
220
0
230
1
0
LINE
5
AF
100
AcDbEntity
8
1
62
256
6
ByLayer
370
18
48
1
60
1
100
AcDbLine
10
80.083343
20
-2.5275
30
0
11
80.544126
21
-6.027498
31
0
39
0
210
0
220
0
230
1
0
LINE
5
B0
100
AcDbEntity
8
1
62
256
6
ByLayer
370
18
48
1
60
1
100
AcDbLine
10
80.544126
20
-6.027498
30
0
11
79.622559
21
-6.027502
31
0
39
0
210
0
220
0
230
1
0
LINE
5
B1
100
AcDbEntity
8
1
62
256
6
ByLayer
370
18
48
1
60
1
100
AcDbLine
10
79.622559
20
-6.027502
30
0
11
80.083343
21
-2.5275
31
0
39
0
210
0
220
0
230
1
0
LINE
5
10E
100
AcDbEntity
8
1
62
256
6
ByLayer
370
18
48
1
60
1
100
AcDbLine
10
-44.625163
20
3
30
0
11
-45.085946
21
6.499998
31
0
39
0
210
0
220
0
230
1
0
LINE
5
10F
100
AcDbEntity
8
1
62
256
6
ByLayer
370
18
48
1
60
1
100
AcDbLine
10
-45.085946
20
6.499998
30
0
11
-44.164379
21
6.500002
31
0
39
0
210
0
220
0
230
1
0
LINE
5
110
100
AcDbEntity
8
1
62
256
6
ByLayer
370
18
48
1
60
1
100
AcDbLine
10
-44.164379
20
6.500002
30
0
11
-44.625163
21
3
31
0
39
0
210
0
220
0
230
1
0
LINE
5
112
100
AcDbEntity
8
1
62
256
6
ByLayer
370
18
48
1
60
1
100
AcDbLine
10
-44.625163
20
-3
30
0
11
-44.164379
21
-6.499998
31
0
39
0
210
0
220
0
230
1
0
LINE
5
113
100
AcDbEntity
8
1
62
256
6
ByLayer
370
18
48
1
60
1
100
AcDbLine
10
-44.164379
20
-6.499998
30
0
11
-45.085946
21
-6.500002
31
0
39
0
210
0
220
0
230
1
0
LINE
5
114
100
AcDbEntity
8
1
62
256
6
ByLayer
370
18
48
1
60
1
100
AcDbLine
10
-45.085946
20
-6.500002
30
0
11
-44.625163
21
-3
31
0
39
0
210
0
220
0
230
1
0
LINE
5
118
100
AcDbEntity
8
1
62
256
6
ByLayer
370
18
48
1
60
1
100
AcDbLine
10
80.083343
20
2.5275
30
0
11
79.622559
21
6.027498
31
0
39
0
210
0
220
0
230
1
0
LINE
5
119
100
AcDbEntity
8
1
62
256
6
ByLayer
370
18
48
1
60
1
100
AcDbLine
10
79.622559
20
6.027498
30
0
11
80.544126
21
6.027502
31
0
39
0
210
0
220
0
230
1
0
LINE
5
11A
100
AcDbEntity
8
1
62
256
6
ByLayer
370
18
48
1
60
1
100
AcDbLine
10
80.544126
20
6.027502
30
0
11
80.083343
21
2.5275
31
0
39
0
210
0
220
0
230
1
0
LINE
5
11C
100
AcDbEntity
8
1
62
256
6
ByLayer
370
18
48
1
60
1
100
AcDbLine
10
80.083343
20
-2.5275
30
0
11
80.544126
21
-6.027498
31
0
39
0
210
0
220
0
230
1
0
LINE
5
11D
100
AcDbEntity
8
1
62
256
6
ByLayer
370
18
48
1
60
1
100
AcDbLine
10
80.544126
20
-6.027498
30
0
11
79.622559
21
-6.027502
31
0
39
0
210
0
220
0
230
1
0
LINE
5
11E
100
AcDbEntity
8
1
62
256
6
ByLayer
370
18
48
1
60
1
100
AcDbLine
10
79.622559
20
-6.027502
30
0
11
80.083343
21
-2.5275
31
0
39
0
210
0
220
0
230
1
0
MTEXT
5
108
100
AcDbEntity
8
SK6
62
256
6
ByLayer
370
13
48
1
60
0
100
AcDbMText
10
-13.145193
20
35.067828
30
0
210
0
220
0
230
1
1
\W0.7670;462.1-0506-038A1-XM X2BM
40
3.5
41
0
44
1.084337
50
0
71
7
72
5
7
iso_b_vert
0
MTEXT
5
10C
100
AcDbEntity
8
SK2
62
256
6
ByLayer
370
18
48
1
60
0
100
AcDbMText
10
-46.189796
20
16.409024
30
0
210
0
220
0
230
1
1
%%c
40
3.5
41
0
44
1.084337
50
90
71
7
72
5
7
iso_b_vert
0
MTEXT
5
10D
100
AcDbEntity
8
SK2
62
256
6
ByLayer
370
18
48
1
60
0
100
AcDbMText
10
-46.189796
20
21.63168
30
0
210
0
220
0
230
1
1
\W0.7317;6,000
40
3.5
41
0
44
1.084337
50
90
71
7
72
5
7
iso_b_vert
0
MTEXT
5
116
100
AcDbEntity
8
2
62
256
6
ByLayer
370
18
48
1
60
0
100
AcDbMText
10
78.518709
20
14.52961
30
0
210
0
220
0
230
1
1
%%c
40
3.5
41
0
44
1.084337
50
90
71
7
72
5
7
iso_b_vert
0
MTEXT
5
117
100
AcDbEntity
8
2
62
256
6
ByLayer
370
18
48
1
60
0
100
AcDbMText
10
78.518709
20
19.752266
30
0
210
0
220
0
230
1
1
\W0.7317;5,055
40
3.5
41
0
44
1.084337
50
90
71
7
72
5
7
iso_b_vert
0
HATCH
5
111
100
AcDbEntity
8
SK2
62
256
6
ByLayer
370
13
48
1
60
0
100
AcDbHatch
10
0
20
0
30
0
210
0
220
0
230
1
2
ANSI31
70
0
71
0
91
1
92
5
93
3
72
1
10
-44.6251625675374
20
3
11
-45.0859463090902
21
6.49999830744682
72
1
10
-45.0859463090902
20
6.49999830744682
11
-44.1643788259847
21
6.50000169255318
72
1
10
-44.1643788259847
20
6.50000169255318
11
-44.6251625675374
21
3
97
0
75
0
76
1
52
0
41
0.0062
77
0
78
1
53
45
43
0
44
0
45
-0.0139193969876572
46
0.0139193969876572
79
0
47
0
98
1
10
0
20
0
0
HATCH
5
115
100
AcDbEntity
8
SK2
62
256
6
ByLayer
370
13
48
1
60
0
100
AcDbHatch
10
0
20
0
30
0
210
0
220
0
230
1
2
ANSI31
70
0
71
0
91
1
92
5
93
3
72
1
10
-44.6251625675374
20
-3
11
-44.1643788259847
21
-6.49999830744682
72
1
10
-44.1643788259847
20
-6.49999830744682
11
-45.0859463090902
21
-6.50000169255318
72
1
10
-45.0859463090902
20
-6.50000169255318
11
-44.6251625675374
21
-3
97
0
75
0
76
1
52
0
41
0.0062
77
0
78
1
53
45
43
0
44
0
45
-0.0139193969876572
46
0.0139193969876572
79
0
47
0
98
1
10
0
20
0
0
HATCH
5
11B
100
AcDbEntity
8
2
62
256
6
ByLayer
370
13
48
1
60
0
100
AcDbHatch
10
0
20
0
30
0
210
0
220
0
230
1
2
ANSI31
70
0
71
0
91
1
92
5
93
3
72
1
10
80.083342615295
20
2.5275
11
79.6225588737422
21
6.02749830744682
72
1
10
79.6225588737422
20
6.02749830744682
11
80.5441263568477
21
6.02750169255319
72
1
10
80.5441263568477
20
6.02750169255319
11
80.083342615295
21
2.5275
97
0
75
0
76
1
52
0
41
0.0062
77
0
78
1
53
45
43
0
44
0
45
-0.0139193969876572
46
0.0139193969876572
79
0
47
0
98
1
10
0
20
0
0
HATCH
5
11F
100
AcDbEntity
8
2
62
256
6
ByLayer
370
13
48
1
60
0
100
AcDbHatch
10
0
20
0
30
0
210
0
220
0
230
1
2
ANSI31
70
0
71
0
91
1
92
5
93
3
72
1
10
80.083342615295
20
-2.5275
11
80.5441263568477
21
-6.02749830744682
72
1
10
80.5441263568477
20
-6.02749830744682
11
79.6225588737422
21
-6.02750169255319
72
1
10
79.6225588737422
20
-6.02750169255319
11
80.083342615295
21
-2.5275
97
0
75
0
76
1
52
0
41
0.0062
77
0
78
1
53
45
43
0
44
0
45
-0.0139193969876572
46
0.0139193969876572
79
0
47
0
98
1
10
0
20
0
0
DIMENSION
5
121
100
AcDbEntity
8
SK2
62
256
6
ByLayer
370
13
48
1
60
0
100
AcDbDimension
2
_U0
10
67.2605
20
-12.740898
30
0
11
33.63025
21
-12.740898
31
0
70
32
71
1
72
1
41
1
210
0
220
0
230
1
3
Standard
100
AcDbAlignedDimension
13
0
23
0
33
0
14
67.2605
24
-2.5275
34
0
50
0
100
AcDbRotatedDimension
1001
ACAD
1000
DSTYLE
1002
{
1070
   371
1070
    13
1070
   372
1070
    13
1070
   170
1070
     0
1070
   144
1040
1.0
1070
   277
1070
     2
1070
   278
1070
    44
1070
   146
1040
1.0
1070
   345
1005
16
1070
   347
1005
16
1070
   346
1005
16
1070
   344
1005
0
1070
   343
1005
0
1070
   172
1070
     1
1070
    76
1070
     0
1070
    75
1070
     0
1070
   282
1070
     0
1070
   281
1070
     0
1070
    71
1070
     0
1070
    74
1070
     0
1070
   279
1070
     0
1070
   173
1070
     1
1070
   340
1005
109
1070
   271
1070
     2
1070
   272
1070
     2
1070
    77
1070
     1
1070
    73
1070
     1
1070
   171
1070
     3
1070
   274
1070
     4
1070
   177
1070
    35
1070
   176
1070
    35
1070
   178
1070
    35
1070
    48
1040
-0.1
1070
    41
1040
3.5
1070
   147
1040
1.75
1070
    42
1040
1.5875
1070
    44
1040
2.0
1070
   140
1040
3.5
1002
}
1001
ACAD_DSTYLE_DIM_LINETYPE
1070
   380
1005
16
1001
ACAD_DSTYLE_DIM_EXT1_LINETYPE
1070
   381
1005
16
1001
ACAD_DSTYLE_DIM_EXT2_LINETYPE
1070
   382
1005
16
0
DIMENSION
5
13A
100
AcDbEntity
8
SK2
62
256
6
ByLayer
370
13
48
1
60
0
100
AcDbDimension
2
_U1
10
68
20
-31.692985
30
0
11
16
21
-31.692985
31
0
70
32
71
1
72
1
41
1
210
0
220
0
230
1
3
Standard
100
AcDbAlignedDimension
13
-36
23
-3
33
0
14
68
24
0
34
0
50
0
100
AcDbRotatedDimension
1001
ACAD
1000
DSTYLE
1002
{
1070
   371
1070
    13
1070
   372
1070
    13
1070
   170
1070
     0
1070
   144
1040
1.0
1070
   277
1070
     2
1070
   278
1070
    44
1070
   146
1040
1.0
1070
   345
1005
16
1070
   347
1005
16
1070
   346
1005
16
1070
   344
1005
0
1070
   343
1005
0
1070
   172
1070
     1
1070
    76
1070
     0
1070
    75
1070
     0
1070
   282
1070
     0
1070
   281
1070
     0
1070
    71
1070
     0
1070
    74
1070
     0
1070
   279
1070
     0
1070
   173
1070
     1
1070
   340
1005
109
1070
   271
1070
     2
1070
   272
1070
     2
1070
    77
1070
     1
1070
    73
1070
     1
1070
   171
1070
     3
1070
   274
1070
     4
1070
   177
1070
    35
1070
   176
1070
    35
1070
   178
1070
    35
1070
    48
1040
-0.1
1070
    41
1040
3.5
1070
   147
1040
1.75
1070
    42
1040
1.5875
1070
    44
1040
2.0
1070
   140
1040
3.5
1002
}
1001
ACAD_DSTYLE_DIM_LINETYPE
1070
   380
1005
16
1001
ACAD_DSTYLE_DIM_EXT1_LINETYPE
1070
   381
1005
16
1001
ACAD_DSTYLE_DIM_EXT2_LINETYPE
1070
   382
1005
16
0
DIMENSION
5
152
100
AcDbEntity
8
SK2
62
256
6
ByLayer
370
13
48
1
60
0
100
AcDbDimension
2
_U2
10
68
20
14.136619
30
0
11
47.39
21
14.136619
31
0
70
32
71
1
72
1
41
1
210
0
220
0
230
1
3
Standard
100
AcDbAlignedDimension
13
26.78
23
2.5275
33
0
14
68
24
0
34
0
50
0
100
AcDbRotatedDimension
1001
ACAD
1000
DSTYLE
1002
{
1070
   371
1070
    13
1070
   372
1070
    13
1070
   170
1070
     0
1070
   144
1040
1.0
1070
   277
1070
     2
1070
   278
1070
    44
1070
   146
1040
1.0
1070
   345
1005
16
1070
   347
1005
16
1070
   346
1005
16
1070
   344
1005
0
1070
   343
1005
0
1070
   172
1070
     1
1070
    76
1070
     0
1070
    75
1070
     0
1070
   282
1070
     0
1070
   281
1070
     0
1070
    71
1070
     0
1070
    74
1070
     0
1070
   279
1070
     0
1070
   173
1070
     1
1070
   340
1005
109
1070
   271
1070
     2
1070
   272
1070
     2
1070
    77
1070
     1
1070
    73
1070
     1
1070
   171
1070
     3
1070
   274
1070
     4
1070
   177
1070
    35
1070
   176
1070
    35
1070
   178
1070
    35
1070
    48
1040
-0.1
1070
    41
1040
3.5
1070
   147
1040
1.75
1070
    42
1040
1.5875
1070
    44
1040
2.0
1070
   140
1040
3.5
1002
}
1001
ACAD_DSTYLE_DIM_LINETYPE
1070
   380
1005
16
1001
ACAD_DSTYLE_DIM_EXT1_LINETYPE
1070
   381
1005
16
1001
ACAD_DSTYLE_DIM_EXT2_LINETYPE
1070
   382
1005
16
0
DIMENSION
5
16A
100
AcDbEntity
8
SK2
62
256
6
ByLayer
370
13
48
1
60
0
100
AcDbDimension
2
_U3
10
67.2605
20
-15.330003
30
0
11
85.666667
21
-15.330003
31
0
70
32
71
1
72
1
41
1
210
0
220
0
230
1
3
Standard
100
AcDbAlignedDimension
13
68
23
0
33
0
14
67.2605
24
-2.5275
34
0
50
0
100
AcDbRotatedDimension
1001
ACAD
1000
DSTYLE
1002
{
1070
   371
1070
    13
1070
   372
1070
    13
1070
   170
1070
     0
1070
   144
1040
1.0
1070
   277
1070
     2
1070
   278
1070
    44
1070
   146
1040
1.0
1070
   345
1005
16
1070
   347
1005
16
1070
   346
1005
16
1070
   344
1005
0
1070
   343
1005
0
1070
   172
1070
     1
1070
    76
1070
     0
1070
    75
1070
     0
1070
   282
1070
     0
1070
   281
1070
     0
1070
    71
1070
     0
1070
    74
1070
     0
1070
   279
1070
     0
1070
   173
1070
     1
1070
   340
1005
109
1070
   271
1070
     2
1070
   272
1070
     2
1070
    77
1070
     1
1070
    73
1070
     1
1070
   171
1070
     3
1070
   274
1070
     4
1070
   177
1070
    35
1070
   176
1070
    35
1070
   178
1070
    35
1070
    48
1040
-0.1
1070
    41
1040
3.5
1070
   147
1040
1.75
1070
    42
1040
1.5875
1070
    44
1040
2.0
1070
   140
1040
3.5
1002
}
1001
ACAD_DSTYLE_DIM_LINETYPE
1070
   380
1005
16
1001
ACAD_DSTYLE_DIM_EXT1_LINETYPE
1070
   381
1005
16
1001
ACAD_DSTYLE_DIM_EXT2_LINETYPE
1070
   382
1005
16
0
DIMENSION
5
184
100
AcDbEntity
8
SK2
62
256
6
ByLayer
370
13
48
1
60
0
100
AcDbDimension
2
_U4
10
67.2605
20
-21.343428
30
0
11
15.63025
21
-21.343428
31
0
70
32
71
1
72
1
41
1
210
0
220
0
230
1
3
Standard
100
AcDbAlignedDimension
13
-36
23
-3
33
0
14
67.2605
24
-2.5275
34
0
50
0
100
AcDbRotatedDimension
1001
ACAD
1000
DSTYLE
1002
{
1070
   371
1070
    13
1070
   372
1070
    13
1070
   170
1070
     0
1070
   144
1040
1.0
1070
   277
1070
     2
1070
   278
1070
    44
1070
   146
1040
1.0
1070
   345
1005
16
1070
   347
1005
16
1070
   346
1005
16
1070
   344
1005
0
1070
   343
1005
0
1070
   172
1070
     1
1070
    76
1070
     0
1070
    75
1070
     0
1070
   282
1070
     0
1070
   281
1070
     0
1070
    71
1070
     0
1070
    74
1070
     0
1070
   279
1070
     0
1070
   173
1070
     1
1070
   340
1005
109
1070
   271
1070
     2
1070
   272
1070
     2
1070
    77
1070
     1
1070
    73
1070
     1
1070
   171
1070
     3
1070
   274
1070
     4
1070
   177
1070
    35
1070
   176
1070
    35
1070
   178
1070
    35
1070
    48
1040
-0.1
1070
    41
1040
3.5
1070
   147
1040
1.75
1070
    42
1040
1.5875
1070
    44
1040
2.0
1070
   140
1040
3.5
1002
}
1001
ACAD_DSTYLE_DIM_LINETYPE
1070
   380
1005
16
1001
ACAD_DSTYLE_DIM_EXT1_LINETYPE
1070
   381
1005
16
1001
ACAD_DSTYLE_DIM_EXT2_LINETYPE
1070
   382
1005
16
0
ENDSEC
0
SECTION
2
OBJECTS
0
DICTIONARY
5
20c
330
0
100
AcDbDictionary
280
0
281
1
3
ACAD_GROUP
350
20d
3
ACAD_MLINESTYLE
350
20e
0
DICTIONARY
5
20d
330
0
100
AcDbDictionary
280
0
281
1
0
DICTIONARY
5
20e
330
0
100
AcDbDictionary
280
0
281
1
3
Standard
350
18
0
MLINESTYLE
5
18
330
20e
100
AcDbMlineStyle
2
Standard
70
0
3

62
256
51
90
52
90
71
2
49
-0.5
62
256
6
ByLayer
49
0.5
62
256
6
ByLayer
0
RASTERVARIABLES
5
1fa
330

100
AcDbRasterVariables
90
0
70
1
71
1
72
1
0
ENDSEC
0
EOF
