0
SECTION
2
HEADER
9
$ACADVER
1
AC1015
9
$DWGCODEPAGE
3
ANSI_1252
9
$HANDSEED
5
226
9
$ANGBASE
50
0
9
$ANGDIR
70
0
9
$ATTMODE
70
1
9
$AUNITS
70
0
9
$AUPREC
70
0
9
$CECOLOR
62
256
9
$CELTSCALE
40
1
9
$CELTYPE
6
ByLayer
9
$CELWEIGHT
370
18
9
$CLAYER
8
0
9
$CMLJUST
70
0
9
$CMLSCALE
40
1
9
$CMLSTYLE
2
Standard
9
$DIMSTYLE
2
Standard
9
$TEXTSIZE
40
0.2
9
$TEXTSTYLE
7
Standard
9
$LUNITS
70
2
9
$LUPREC
70
4
9
$EXTNAMES
290
1
9
$INSUNITS
70
4
9
$LTSCALE
40
1
9
$LWDISPLAY
290
1
9
$PDMODE
70
0
9
$PDSIZE
40
0
9
$PLINEGEN
70
0
0
ENDSEC
0
SECTION
2
CLASSES
0
CLASS
1
RASTERVARIABLES
2
AcDbRasterVariables
3
ISM
90
0
280
0
281
0
0
ENDSEC
0
SECTION
2
TABLES
0
TABLE
2
VPORT
5
21c
100
AcDbSymbolTable
0
VPORT
5
1
100
AcDbSymbolTableRecord
100
AcDbViewportTableRecord
2
*Active
70
0
10
0
20
0
11
1
21
1
12
-1
22
1
13
0
23
0
14
0.5
24
0.5
15
10
25
10
16
0
26
0
36
1
17
0
27
0
37
0
0
ENDTAB
0
TABLE
2
LTYPE
5
21d
100
AcDbSymbolTable
0
LTYPE
5
14
100
AcDbSymbolTableRecord
100
AcDbLinetypeTableRecord
70
0
2
ByBlock
3

72
65
73
0
40
0
0
LTYPE
5
15
100
AcDbSymbolTableRecord
100
AcDbLinetypeTableRecord
70
0
2
ByLayer
3

72
65
73
0
40
0
0
LTYPE
5
16
100
AcDbSymbolTableRecord
100
AcDbLinetypeTableRecord
70
0
2
Continuous
3
Solid line
72
65
73
0
40
0
0
LTYPE
5
6E
100
AcDbSymbolTableRecord
100
AcDbLinetypeTableRecord
70
0
2
CENTER
3
____ _ ____ _ ____ _ ____
72
65
73
4
40
47.5
49
22
74
0
49
-8.5
74
0
49
8.5
74
0
49
-8.5
74
0
0
LTYPE
5
6F
100
AcDbSymbolTableRecord
100
AcDbLinetypeTableRecord
70
0
2
DASHED
3
__ __ __ __ __ __ __ __ __
72
65
73
2
40
25.72
49
12.86
74
0
49
-12.86
74
0
0
ENDTAB
0
TABLE
2
LAYER
5
21e
100
AcDbSymbolTable
0
LAYER
5
10
100
AcDbSymbolTableRecord
100
AcDbLayerTableRecord
2
0
70
0
62
7
6
Continuous
290
1
370
-3
390
0
0
LAYER
5
71
100
AcDbSymbolTableRecord
100
AcDbLayerTableRecord
2
80
70
0
62
-6
6
Continuous
290
1
370
-3
390
0
0
LAYER
5
73
100
AcDbSymbolTableRecord
100
AcDbLayerTableRecord
2
81
70
0
62
-3
6
Continuous
290
1
370
-3
390
0
0
LAYER
5
75
100
AcDbSymbolTableRecord
100
AcDbLayerTableRecord
2
1
70
0
62
4
6
Continuous
290
1
370
-3
390
0
0
LAYER
5
8B
100
AcDbSymbolTableRecord
100
AcDbLayerTableRecord
2
4
70
0
62
-2
6
CENTER
290
1
370
-3
390
0
0
LAYER
5
AA
100
AcDbSymbolTableRecord
100
AcDbLayerTableRecord
2
2
70
0
62
7
6
Continuous
290
1
370
-3
390
0
0
LAYER
5
131
100
AcDbSymbolTableRecord
100
AcDbLayerTableRecord
2
Defpoints
70
0
62
7
6
Continuous
290
0
370
-3
390
0
0
LAYER
5
208
100
AcDbSymbolTableRecord
100
AcDbLayerTableRecord
2
SK1
70
0
62
4
6
Continuous
290
1
370
-3
390
0
0
LAYER
5
209
100
AcDbSymbolTableRecord
100
AcDbLayerTableRecord
2
SK4
70
0
62
2
6
CENTER
290
1
370
-3
390
0
0
LAYER
5
20a
100
AcDbSymbolTableRecord
100
AcDbLayerTableRecord
2
SK2
70
0
62
7
6
Continuous
290
1
370
-3
390
0
0
LAYER
5
20b
100
AcDbSymbolTableRecord
100
AcDbLayerTableRecord
2
SK6
70
0
62
5
6
Continuous
290
1
370
-3
390
0
0
ENDTAB
0
TABLE
2
STYLE
5
21f
100
AcDbSymbolTable
0
STYLE
5
11
100
AcDbSymbolTableRecord
100
AcDbTextStyleTableRecord
2
Standard
3
txt
70
0
71
0
40
0
41
1
42
0
50
0
0
STYLE
5
116
100
AcDbSymbolTableRecord
100
AcDbTextStyleTableRecord
2
iso_b_vert
3
simplex.shx
70
0
71
0
40
0
41
1
42
0
50
0
0
STYLE
5
117
100
AcDbSymbolTableRecord
100
AcDbTextStyleTableRecord
2
DWGDirectTextStyle
3
simplex
70
0
71
0
40
0
41
1
42
0
50
0
0
ENDTAB
0
TABLE
2
DIMSTYLE
5
220
100
AcDbSymbolTable
100
AcDbDimStyleTable
0
DIMSTYLE
105
27
100
AcDbSymbolTableRecord
100
AcDbDimStyleTableRecord
2
Standard
70
0
3
<>
41
0.18
42
0.0625
44
0.18
140
0.18
147
0.09
73
0
74
0
77
1
271
2
275
0
278
52
280
0
340
11
0
ENDTAB
0
TABLE
2
VIEW
5
221
100
AcDbSymbolTable
0
ENDTAB
0
TABLE
2
UCS
5
222
100
AcDbSymbolTable
0
ENDTAB
0
TABLE
2
APPID
5
223
100
AcDbSymbolTable
0
APPID
5
12
100
AcDbSymbolTableRecord
100
AcDbRegAppTableRecord
2
ACAD
70
0
0
APPID
5
12D
100
AcDbSymbolTableRecord
100
AcDbRegAppTableRecord
2
ACAD_DSTYLE_DIMBREAK
70
0
0
APPID
5
1C7
100
AcDbSymbolTableRecord
100
AcDbRegAppTableRecord
2
ACAD_DSTYLE_DIM_LINETYPE
70
0
0
APPID
5
1C8
100
AcDbSymbolTableRecord
100
AcDbRegAppTableRecord
2
ACAD_DSTYLE_DIM_EXT1_LINETYPE
70
0
0
APPID
5
1C9
100
AcDbSymbolTableRecord
100
AcDbRegAppTableRecord
2
ACAD_DSTYLE_DIM_EXT2_LINETYPE
70
0
0
APPID
5
204
100
AcDbSymbolTableRecord
100
AcDbRegAppTableRecord
2
ACAD_MLEADERVER
70
0
0
ENDTAB
0
TABLE
2
BLOCK_RECORD
5
224
100
AcDbSymbolTable
0
BLOCK_RECORD
5
1F
100
AcDbSymbolTableRecord
100
AcDbBlockTableRecord
2
*Model_Space
340
0
70
0
0
BLOCK_RECORD
5
1B
100
AcDbSymbolTableRecord
100
AcDbBlockTableRecord
2
*Paper_Space
340
0
70
0
0
BLOCK_RECORD
5
23
100
AcDbSymbolTableRecord
100
AcDbBlockTableRecord
2
*Paper_Space0
340
0
70
0
0
BLOCK_RECORD
5
132
100
AcDbSymbolTableRecord
100
AcDbBlockTableRecord
2
*D1
340
0
70
0
0
BLOCK_RECORD
5
13E
100
AcDbSymbolTableRecord
100
AcDbBlockTableRecord
2
_U0
340
0
70
0
0
BLOCK_RECORD
5
14A
100
AcDbSymbolTableRecord
100
AcDbBlockTableRecord
2
*D3
340
0
70
0
0
BLOCK_RECORD
5
156
100
AcDbSymbolTableRecord
100
AcDbBlockTableRecord
2
_U1
340
0
70
0
0
BLOCK_RECORD
5
162
100
AcDbSymbolTableRecord
100
AcDbBlockTableRecord
2
*D5
340
0
70
0
0
BLOCK_RECORD
5
16E
100
AcDbSymbolTableRecord
100
AcDbBlockTableRecord
2
_U2
340
0
70
0
0
BLOCK_RECORD
5
17A
100
AcDbSymbolTableRecord
100
AcDbBlockTableRecord
2
*D7
340
0
70
0
0
BLOCK_RECORD
5
188
100
AcDbSymbolTableRecord
100
AcDbBlockTableRecord
2
_U3
340
0
70
0
0
BLOCK_RECORD
5
194
100
AcDbSymbolTableRecord
100
AcDbBlockTableRecord
2
*D9
340
0
70
0
0
BLOCK_RECORD
5
1A0
100
AcDbSymbolTableRecord
100
AcDbBlockTableRecord
2
_U4
340
0
70
0
0
ENDTAB
0
ENDSEC
0
SECTION
2
BLOCKS
0
BLOCK
5
20
100
AcDbEntity
8
0
100
AcDbBlockBegin
2
*Model_Space
70
0
10
0
20
0
30
0
3
*Model_Space
0
ENDBLK
5
21
100
AcDbEntity
8
0
100
AcDbBlockEnd
0
BLOCK
5
1C
100
AcDbEntity
8
0
100
AcDbBlockBegin
2
*Paper_Space
70
0
10
0
20
0
30
0
3
*Paper_Space
0
ENDBLK
5
1D
100
AcDbEntity
8
0
100
AcDbBlockEnd
0
BLOCK
5
24
100
AcDbEntity
8
0
100
AcDbBlockBegin
2
*Paper_Space0
70
0
10
0
20
0
30
0
3
*Paper_Space0
0
ENDBLK
5
25
100
AcDbEntity
8
0
100
AcDbBlockEnd
0
BLOCK
5
133
100
AcDbEntity
8
0
100
AcDbBlockBegin
2
*D1
70
1
10
0
20
0
30
0
3
*D1
0
LINE
5
135
100
AcDbEntity
8
0
62
256
6
ByLayer
370
-2
48
1
60
0
100
AcDbLine
10
0
20
-1.5875
30
0
11
0
21
-16.713398
31
0
39
0
210
0
220
0
230
1
0
LINE
5
136
100
AcDbEntity
8
0
62
256
6
ByLayer
370
-2
48
1
60
0
100
AcDbLine
10
110.6667
20
-6.0875
30
0
11
110.6667
21
-16.713398
31
0
39
0
210
0
220
0
230
1
0
LINE
5
137
100
AcDbEntity
8
0
62
256
6
ByLayer
370
-2
48
1
60
0
100
AcDbLine
10
3.5
20
-14.713398
30
0
11
107.1667
21
-14.713398
31
0
39
0
210
0
220
0
230
1
0
SOLID
5
138
100
AcDbEntity
8
0
62
256
6
ByLayer
370
-1
48
1
60
0
100
AcDbTrace
10
3.5
20
-14.130065
30
0
11
3.5
21
-15.296732
31
0
12
0
22
-14.713398
32
0
13
0
23
-14.713398
33
0
39
0
210
0
220
0
230
1
0
SOLID
5
139
100
AcDbEntity
8
0
62
256
6
ByLayer
370
-1
48
1
60
0
100
AcDbTrace
10
107.1667
20
-15.296732
30
0
11
107.1667
21
-14.130065
31
0
12
110.6667
22
-14.713398
32
0
13
110.6667
23
-14.713398
33
0
39
0
210
0
220
0
230
1
0
MTEXT
5
13A
100
AcDbEntity
8
0
62
256
6
ByLayer
370
18
48
1
60
0
100
AcDbMText
10
55.33335
20
-7.713398
30
0
210
0
220
0
230
1
1
\A1;110.67
40
3.5
41
0
44
1
50
0
71
5
72
5
7
iso_b_vert
0
POINT
5
13B
100
AcDbEntity
8
Defpoints
62
0
6
ByLayer
370
-1
48
1
60
0
100
AcDbPoint
10
0
20
0
30
0
39
0
210
0
220
0
230
1
50
360
0
POINT
5
13C
100
AcDbEntity
8
Defpoints
62
0
6
ByLayer
370
-1
48
1
60
0
100
AcDbPoint
10
110.6667
20
-4.5
30
0
39
0
210
0
220
0
230
1
50
360
0
POINT
5
13D
100
AcDbEntity
8
Defpoints
62
0
6
ByLayer
370
-1
48
1
60
0
100
AcDbPoint
10
110.6667
20
-14.713398
30
0
39
0
210
0
220
0
230
1
50
360
0
ENDBLK
5
134
100
AcDbEntity
8
0
100
AcDbBlockEnd
0
BLOCK
5
145
100
AcDbEntity
8
0
100
AcDbBlockBegin
2
_U0
70
0
10
0
20
0
30
0
3
_U0
0
MTEXT
5
13F
100
AcDbEntity
8
SK2
62
256
6
ByLayer
370
13
48
1
60
0
100
AcDbMText
10
49.763185
20
-13.680765
30
0
210
0
220
0
230
1
1
\W0.6440;110,67
40
3.5
41
0
44
1.084337
50
0
71
7
72
5
7
iso_b_vert
0
LINE
5
140
100
AcDbEntity
8
SK2
62
256
6
ByLayer
370
13
48
1
60
0
100
AcDbLine
10
0
20
-1.5875
30
0
11
0
21
-16.713398
31
0
39
0
210
0
220
0
230
1
0
LINE
5
141
100
AcDbEntity
8
SK2
62
256
6
ByLayer
370
13
48
1
60
0
100
AcDbLine
10
110.6667
20
-6.0875
30
0
11
110.6667
21
-16.713398
31
0
39
0
210
0
220
0
230
1
0
LINE
5
142
100
AcDbEntity
8
SK2
62
256
6
ByLayer
370
13
48
1
60
0
100
AcDbLine
10
0
20
-14.713398
30
0
11
110.6667
21
-14.713398
31
0
39
0
210
0
220
0
230
1
0
SOLID
5
143
100
AcDbEntity
8
SK2
62
256
6
ByLayer
370
18
48
1
60
0
100
AcDbTrace
10
0
20
-14.713398
30
0
11
3.499998
21
-14.252615
31
0
12
3.500002
22
-15.174182
32
0
13
3.500002
23
-15.174182
33
0
39
0
210
0
220
0
230
1
0
SOLID
5
144
100
AcDbEntity
8
SK2
62
256
6
ByLayer
370
18
48
1
60
0
100
AcDbTrace
10
110.6667
20
-14.713398
30
0
11
107.166702
21
-15.174182
31
0
12
107.166698
22
-14.252615
32
0
13
107.166698
23
-14.252615
33
0
39
0
210
0
220
0
230
1
0
ENDBLK
5
146
100
AcDbEntity
8
0
100
AcDbBlockEnd
0
BLOCK
5
14B
100
AcDbEntity
8
0
100
AcDbBlockBegin
2
*D3
70
1
10
0
20
0
30
0
3
*D3
0
LINE
5
14D
100
AcDbEntity
8
0
62
256
6
ByLayer
370
-2
48
1
60
0
100
AcDbLine
10
-40
20
-6.5875
30
0
11
-40
21
-35.692985
31
0
39
0
210
0
220
0
230
1
0
LINE
5
14E
100
AcDbEntity
8
0
62
256
6
ByLayer
370
-2
48
1
60
0
100
AcDbLine
10
112
20
-1.5875
30
0
11
112
21
-35.692985
31
0
39
0
210
0
220
0
230
1
0
LINE
5
14F
100
AcDbEntity
8
0
62
256
6
ByLayer
370
-2
48
1
60
0
100
AcDbLine
10
-36.5
20
-33.692985
30
0
11
108.5
21
-33.692985
31
0
39
0
210
0
220
0
230
1
0
SOLID
5
150
100
AcDbEntity
8
0
62
256
6
ByLayer
370
-1
48
1
60
0
100
AcDbTrace
10
-36.5
20
-33.109652
30
0
11
-36.5
21
-34.276319
31
0
12
-40
22
-33.692985
32
0
13
-40
23
-33.692985
33
0
39
0
210
0
220
0
230
1
0
SOLID
5
151
100
AcDbEntity
8
0
62
256
6
ByLayer
370
-1
48
1
60
0
100
AcDbTrace
10
108.5
20
-34.276319
30
0
11
108.5
21
-33.109652
31
0
12
112
22
-33.692985
32
0
13
112
23
-33.692985
33
0
39
0
210
0
220
0
230
1
0
MTEXT
5
152
100
AcDbEntity
8
0
62
256
6
ByLayer
370
18
48
1
60
0
100
AcDbMText
10
36
20
-26.692985
30
0
210
0
220
0
230
1
1
\A1;152.00
40
3.5
41
0
44
1
50
0
71
5
72
5
7
iso_b_vert
0
POINT
5
153
100
AcDbEntity
8
Defpoints
62
0
6
ByLayer
370
-1
48
1
60
0
100
AcDbPoint
10
-40
20
-5
30
0
39
0
210
0
220
0
230
1
50
360
0
POINT
5
154
100
AcDbEntity
8
Defpoints
62
0
6
ByLayer
370
-1
48
1
60
0
100
AcDbPoint
10
112
20
0
30
0
39
0
210
0
220
0
230
1
50
360
0
POINT
5
155
100
AcDbEntity
8
Defpoints
62
0
6
ByLayer
370
-1
48
1
60
0
100
AcDbPoint
10
112
20
-33.692985
30
0
39
0
210
0
220
0
230
1
50
360
0
ENDBLK
5
14C
100
AcDbEntity
8
0
100
AcDbBlockEnd
0
BLOCK
5
15D
100
AcDbEntity
8
0
100
AcDbBlockBegin
2
_U1
70
0
10
0
20
0
30
0
3
_U1
0
MTEXT
5
157
100
AcDbEntity
8
SK2
62
256
6
ByLayer
370
13
48
1
60
0
100
AcDbMText
10
29.992401
20
-32.660352
30
0
210
0
220
0
230
1
1
\W0.6930;152,00
40
3.5
41
0
44
1.084337
50
0
71
7
72
5
7
iso_b_vert
0
LINE
5
158
100
AcDbEntity
8
SK2
62
256
6
ByLayer
370
13
48
1
60
0
100
AcDbLine
10
-40
20
-6.5875
30
0
11
-40
21
-35.692985
31
0
39
0
210
0
220
0
230
1
0
LINE
5
159
100
AcDbEntity
8
SK2
62
256
6
ByLayer
370
13
48
1
60
0
100
AcDbLine
10
112
20
-1.5875
30
0
11
112
21
-35.692985
31
0
39
0
210
0
220
0
230
1
0
LINE
5
15A
100
AcDbEntity
8
SK2
62
256
6
ByLayer
370
13
48
1
60
0
100
AcDbLine
10
-40
20
-33.692985
30
0
11
112
21
-33.692985
31
0
39
0
210
0
220
0
230
1
0
SOLID
5
15B
100
AcDbEntity
8
SK2
62
256
6
ByLayer
370
18
48
1
60
0
100
AcDbTrace
10
-40
20
-33.692985
30
0
11
-36.500002
21
-33.232202
31
0
12
-36.499998
22
-34.153769
32
0
13
-36.499998
23
-34.153769
33
0
39
0
210
0
220
0
230
1
0
SOLID
5
15C
100
AcDbEntity
8
SK2
62
256
6
ByLayer
370
18
48
1
60
0
100
AcDbTrace
10
112
20
-33.692985
30
0
11
108.500002
21
-34.153769
31
0
12
108.499998
22
-33.232202
32
0
13
108.499998
23
-33.232202
33
0
39
0
210
0
220
0
230
1
0
ENDBLK
5
15E
100
AcDbEntity
8
0
100
AcDbBlockEnd
0
BLOCK
5
163
100
AcDbEntity
8
0
100
AcDbBlockBegin
2
*D5
70
1
10
0
20
0
30
0
3
*D5
0
LINE
5
165
100
AcDbEntity
8
0
62
256
6
ByLayer
370
-2
48
1
60
0
100
AcDbLine
10
38.67
20
6.0875
30
0
11
38.67
21
18.109119
31
0
39
0
210
0
220
0
230
1
0
LINE
5
166
100
AcDbEntity
8
0
62
256
6
ByLayer
370
-2
48
1
60
0
100
AcDbLine
10
112
20
1.5875
30
0
11
112
21
18.109119
31
0
39
0
210
0
220
0
230
1
0
LINE
5
167
100
AcDbEntity
8
0
62
256
6
ByLayer
370
-2
48
1
60
0
100
AcDbLine
10
42.17
20
16.109119
30
0
11
108.5
21
16.109119
31
0
39
0
210
0
220
0
230
1
0
SOLID
5
168
100
AcDbEntity
8
0
62
256
6
ByLayer
370
-1
48
1
60
0
100
AcDbTrace
10
42.17
20
16.692453
30
0
11
42.17
21
15.525786
31
0
12
38.67
22
16.109119
32
0
13
38.67
23
16.109119
33
0
39
0
210
0
220
0
230
1
0
SOLID
5
169
100
AcDbEntity
8
0
62
256
6
ByLayer
370
-1
48
1
60
0
100
AcDbTrace
10
108.5
20
15.525786
30
0
11
108.5
21
16.692453
31
0
12
112
22
16.109119
32
0
13
112
23
16.109119
33
0
39
0
210
0
220
0
230
1
0
MTEXT
5
16A
100
AcDbEntity
8
0
62
256
6
ByLayer
370
18
48
1
60
0
100
AcDbMText
10
75.335
20
23.109119
30
0
210
0
220
0
230
1
1
\A1;73.33
40
3.5
41
0
44
1
50
0
71
5
72
5
7
iso_b_vert
0
POINT
5
16B
100
AcDbEntity
8
Defpoints
62
0
6
ByLayer
370
-1
48
1
60
0
100
AcDbPoint
10
38.67
20
4.5
30
0
39
0
210
0
220
0
230
1
50
360
0
POINT
5
16C
100
AcDbEntity
8
Defpoints
62
0
6
ByLayer
370
-1
48
1
60
0
100
AcDbPoint
10
112
20
0
30
0
39
0
210
0
220
0
230
1
50
360
0
POINT
5
16D
100
AcDbEntity
8
Defpoints
62
0
6
ByLayer
370
-1
48
1
60
0
100
AcDbPoint
10
112
20
16.109119
30
0
39
0
210
0
220
0
230
1
50
360
0
ENDBLK
5
164
100
AcDbEntity
8
0
100
AcDbBlockEnd
0
BLOCK
5
175
100
AcDbEntity
8
0
100
AcDbBlockBegin
2
_U2
70
0
10
0
20
0
30
0
3
_U2
0
MTEXT
5
16F
100
AcDbEntity
8
SK2
62
256
6
ByLayer
370
13
48
1
60
0
100
AcDbMText
10
70.197701
20
17.141753
30
0
210
0
220
0
230
1
1
\W0.7317;73,33
40
3.5
41
0
44
1.084337
50
0
71
7
72
5
7
iso_b_vert
0
LINE
5
170
100
AcDbEntity
8
SK2
62
256
6
ByLayer
370
13
48
1
60
0
100
AcDbLine
10
38.67
20
6.0875
30
0
11
38.67
21
18.109119
31
0
39
0
210
0
220
0
230
1
0
LINE
5
171
100
AcDbEntity
8
SK2
62
256
6
ByLayer
370
13
48
1
60
0
100
AcDbLine
10
112
20
1.5875
30
0
11
112
21
18.109119
31
0
39
0
210
0
220
0
230
1
0
LINE
5
172
100
AcDbEntity
8
SK2
62
256
6
ByLayer
370
13
48
1
60
0
100
AcDbLine
10
38.67
20
16.109119
30
0
11
112
21
16.109119
31
0
39
0
210
0
220
0
230
1
0
SOLID
5
173
100
AcDbEntity
8
SK2
62
256
6
ByLayer
370
18
48
1
60
0
100
AcDbTrace
10
38.67
20
16.109119
30
0
11
42.169998
21
16.569903
31
0
12
42.170002
22
15.648335
32
0
13
42.170002
23
15.648335
33
0
39
0
210
0
220
0
230
1
0
SOLID
5
174
100
AcDbEntity
8
SK2
62
256
6
ByLayer
370
18
48
1
60
0
100
AcDbTrace
10
112
20
16.109119
30
0
11
108.500002
21
15.648335
31
0
12
108.499998
22
16.569903
32
0
13
108.499998
23
16.569903
33
0
39
0
210
0
220
0
230
1
0
ENDBLK
5
176
100
AcDbEntity
8
0
100
AcDbBlockEnd
0
BLOCK
5
17B
100
AcDbEntity
8
0
100
AcDbBlockBegin
2
*D7
70
1
10
0
20
0
30
0
3
*D7
0
LINE
5
17D
100
AcDbEntity
8
0
62
256
6
ByLayer
370
-2
48
1
60
0
100
AcDbLine
10
112
20
-1.5875
30
0
11
112
21
-19.302503
31
0
39
0
210
0
220
0
230
1
0
LINE
5
17E
100
AcDbEntity
8
0
62
256
6
ByLayer
370
-2
48
1
60
0
100
AcDbLine
10
110.6667
20
-6.0875
30
0
11
110.6667
21
-19.302503
31
0
39
0
210
0
220
0
230
1
0
LINE
5
17F
100
AcDbEntity
8
0
62
256
6
ByLayer
370
-2
48
1
60
0
100
AcDbLine
10
112
20
-17.302503
30
0
11
139.666667
21
-17.302503
31
0
39
0
210
0
220
0
230
1
0
LINE
5
180
100
AcDbEntity
8
0
62
256
6
ByLayer
370
-2
48
1
60
0
100
AcDbLine
10
115.5
20
-17.302503
30
0
11
119
21
-17.302503
31
0
39
0
210
0
220
0
230
1
0
LINE
5
181
100
AcDbEntity
8
0
62
256
6
ByLayer
370
-2
48
1
60
0
100
AcDbLine
10
107.1667
20
-17.302503
30
0
11
103.6667
21
-17.302503
31
0
39
0
210
0
220
0
230
1
0
SOLID
5
182
100
AcDbEntity
8
0
62
256
6
ByLayer
370
-1
48
1
60
0
100
AcDbTrace
10
115.5
20
-16.71917
30
0
11
115.5
21
-17.885837
31
0
12
112
22
-17.302503
32
0
13
112
23
-17.302503
33
0
39
0
210
0
220
0
230
1
0
SOLID
5
183
100
AcDbEntity
8
0
62
256
6
ByLayer
370
-1
48
1
60
0
100
AcDbTrace
10
107.1667
20
-17.885837
30
0
11
107.1667
21
-16.71917
31
0
12
110.6667
22
-17.302503
32
0
13
110.6667
23
-17.302503
33
0
39
0
210
0
220
0
230
1
0
MTEXT
5
184
100
AcDbEntity
8
0
62
256
6
ByLayer
370
18
48
1
60
0
100
AcDbMText
10
129.333333
20
-10.302503
30
0
210
0
220
0
230
1
1
\A1;1.33
40
3.5
41
0
44
1
50
0
71
5
72
5
7
iso_b_vert
0
POINT
5
185
100
AcDbEntity
8
Defpoints
62
0
6
ByLayer
370
-1
48
1
60
0
100
AcDbPoint
10
112
20
0
30
0
39
0
210
0
220
0
230
1
50
360
0
POINT
5
186
100
AcDbEntity
8
Defpoints
62
0
6
ByLayer
370
-1
48
1
60
0
100
AcDbPoint
10
110.6667
20
-4.5
30
0
39
0
210
0
220
0
230
1
50
360
0
POINT
5
187
100
AcDbEntity
8
Defpoints
62
0
6
ByLayer
370
-1
48
1
60
0
100
AcDbPoint
10
110.6667
20
-17.302503
30
0
39
0
210
0
220
0
230
1
50
360
0
ENDBLK
5
17C
100
AcDbEntity
8
0
100
AcDbBlockEnd
0
BLOCK
5
18F
100
AcDbEntity
8
0
100
AcDbBlockBegin
2
_U3
70
0
10
0
20
0
30
0
3
_U3
0
MTEXT
5
189
100
AcDbEntity
8
SK2
62
256
6
ByLayer
370
13
48
1
60
0
100
AcDbMText
10
118.589293
20
-16.26987
30
0
210
0
220
0
230
1
1
\W0.6367;1,33
40
3.5
41
0
44
1.084337
50
0
71
7
72
5
7
iso_b_vert
0
LINE
5
18A
100
AcDbEntity
8
SK2
62
256
6
ByLayer
370
13
48
1
60
0
100
AcDbLine
10
112
20
-1.5875
30
0
11
112
21
-19.302503
31
0
39
0
210
0
220
0
230
1
0
LINE
5
18B
100
AcDbEntity
8
SK2
62
256
6
ByLayer
370
13
48
1
60
0
100
AcDbLine
10
110.6667
20
-6.0875
30
0
11
110.6667
21
-19.302503
31
0
39
0
210
0
220
0
230
1
0
LINE
5
18C
100
AcDbEntity
8
SK2
62
256
6
ByLayer
370
13
48
1
60
0
100
AcDbLine
10
101.9167
20
-17.302503
30
0
11
125.559058
21
-17.302503
31
0
39
0
210
0
220
0
230
1
0
SOLID
5
18D
100
AcDbEntity
8
SK2
62
256
6
ByLayer
370
18
48
1
60
0
100
AcDbTrace
10
112
20
-17.302503
30
0
11
115.499998
21
-16.841719
31
0
12
115.500002
22
-17.763287
32
0
13
115.500002
23
-17.763287
33
0
39
0
210
0
220
0
230
1
0
SOLID
5
18E
100
AcDbEntity
8
SK2
62
256
6
ByLayer
370
18
48
1
60
0
100
AcDbTrace
10
110.6667
20
-17.302503
30
0
11
107.166702
21
-17.763287
31
0
12
107.166698
22
-16.841719
32
0
13
107.166698
23
-16.841719
33
0
39
0
210
0
220
0
230
1
0
ENDBLK
5
190
100
AcDbEntity
8
0
100
AcDbBlockEnd
0
BLOCK
5
195
100
AcDbEntity
8
0
100
AcDbBlockBegin
2
*D9
70
1
10
0
20
0
30
0
3
*D9
0
LINE
5
197
100
AcDbEntity
8
0
62
256
6
ByLayer
370
-2
48
1
60
0
100
AcDbLine
10
-40
20
-6.5875
30
0
11
-40
21
-25.343428
31
0
39
0
210
0
220
0
230
1
0
LINE
5
198
100
AcDbEntity
8
0
62
256
6
ByLayer
370
-2
48
1
60
0
100
AcDbLine
10
110.6667
20
-6.0875
30
0
11
110.6667
21
-25.343428
31
0
39
0
210
0
220
0
230
1
0
LINE
5
199
100
AcDbEntity
8
0
62
256
6
ByLayer
370
-2
48
1
60
0
100
AcDbLine
10
-36.5
20
-23.343428
30
0
11
107.1667
21
-23.343428
31
0
39
0
210
0
220
0
230
1
0
SOLID
5
19A
100
AcDbEntity
8
0
62
256
6
ByLayer
370
-1
48
1
60
0
100
AcDbTrace
10
-36.5
20
-22.760095
30
0
11
-36.5
21
-23.926762
31
0
12
-40
22
-23.343428
32
0
13
-40
23
-23.343428
33
0
39
0
210
0
220
0
230
1
0
SOLID
5
19B
100
AcDbEntity
8
0
62
256
6
ByLayer
370
-1
48
1
60
0
100
AcDbTrace
10
107.1667
20
-23.926762
30
0
11
107.1667
21
-22.760095
31
0
12
110.6667
22
-23.343428
32
0
13
110.6667
23
-23.343428
33
0
39
0
210
0
220
0
230
1
0
MTEXT
5
19C
100
AcDbEntity
8
0
62
256
6
ByLayer
370
18
48
1
60
0
100
AcDbMText
10
35.33335
20
-16.343428
30
0
210
0
220
0
230
1
1
\A1;150.67
40
3.5
41
0
44
1
50
0
71
5
72
5
7
iso_b_vert
0
POINT
5
19D
100
AcDbEntity
8
Defpoints
62
0
6
ByLayer
370
-1
48
1
60
0
100
AcDbPoint
10
-40
20
-5
30
0
39
0
210
0
220
0
230
1
50
360
0
POINT
5
19E
100
AcDbEntity
8
Defpoints
62
0
6
ByLayer
370
-1
48
1
60
0
100
AcDbPoint
10
110.6667
20
-4.5
30
0
39
0
210
0
220
0
230
1
50
360
0
POINT
5
19F
100
AcDbEntity
8
Defpoints
62
0
6
ByLayer
370
-1
48
1
60
0
100
AcDbPoint
10
110.6667
20
-23.343428
30
0
39
0
210
0
220
0
230
1
50
360
0
ENDBLK
5
196
100
AcDbEntity
8
0
100
AcDbBlockEnd
0
BLOCK
5
1A7
100
AcDbEntity
8
0
100
AcDbBlockBegin
2
_U4
70
0
10
0
20
0
30
0
3
_U4
0
MTEXT
5
1A1
100
AcDbEntity
8
SK2
62
256
6
ByLayer
370
13
48
1
60
0
100
AcDbMText
10
29.325751
20
-22.310795
30
0
210
0
220
0
230
1
1
\W0.6930;150,67
40
3.5
41
0
44
1.084337
50
0
71
7
72
5
7
iso_b_vert
0
LINE
5
1A2
100
AcDbEntity
8
SK2
62
256
6
ByLayer
370
13
48
1
60
0
100
AcDbLine
10
-40
20
-6.5875
30
0
11
-40
21
-25.343428
31
0
39
0
210
0
220
0
230
1
0
LINE
5
1A3
100
AcDbEntity
8
SK2
62
256
6
ByLayer
370
13
48
1
60
0
100
AcDbLine
10
110.6667
20
-6.0875
30
0
11
110.6667
21
-25.343428
31
0
39
0
210
0
220
0
230
1
0
LINE
5
1A4
100
AcDbEntity
8
SK2
62
256
6
ByLayer
370
13
48
1
60
0
100
AcDbLine
10
-40
20
-23.343428
30
0
11
110.6667
21
-23.343428
31
0
39
0
210
0
220
0
230
1
0
SOLID
5
1A5
100
AcDbEntity
8
SK2
62
256
6
ByLayer
370
18
48
1
60
0
100
AcDbTrace
10
-40
20
-23.343428
30
0
11
-36.500002
21
-22.882645
31
0
12
-36.499998
22
-23.804212
32
0
13
-36.499998
23
-23.804212
33
0
39
0
210
0
220
0
230
1
0
SOLID
5
1A6
100
AcDbEntity
8
SK2
62
256
6
ByLayer
370
18
48
1
60
0
100
AcDbTrace
10
110.6667
20
-23.343428
30
0
11
107.166702
21
-23.804212
31
0
12
107.166698
22
-22.882645
32
0
13
107.166698
23
-22.882645
33
0
39
0
210
0
220
0
230
1
0
ENDBLK
5
1A8
100
AcDbEntity
8
0
100
AcDbBlockEnd
0
ENDSEC
0
SECTION
2
ENTITIES
0
ARC
5
B3
100
AcDbEntity
8
1
62
256
6
ByLayer
370
18
48
1
60
0
100
AcDbCircle
39
0
10
1.222967
20
-5.231674
30
0
40
0.799999999999999
210
0
220
0
230
1
100
AcDbArc
50
89.96419
51
139.849577
0
ARC
5
B4
100
AcDbEntity
8
1
62
256
6
ByLayer
370
18
48
1
60
0
100
AcDbCircle
39
0
10
1.222967
20
5.231674
30
0
40
0.799999999999999
210
0
220
0
230
1
100
AcDbArc
50
220.150423
51
270.03581
0
ARC
5
B5
100
AcDbEntity
8
1
62
256
6
ByLayer
370
18
48
1
60
0
100
AcDbCircle
39
0
10
0
20
-4.2
30
0
40
0.8
210
0
220
0
230
1
100
AcDbArc
50
270
51
319.849577
0
ARC
5
B6
100
AcDbEntity
8
1
62
256
6
ByLayer
370
18
48
1
60
0
100
AcDbCircle
39
0
10
0
20
4.2
30
0
40
0.8
210
0
220
0
230
1
100
AcDbArc
50
40.150423
51
90
0
ELLIPSE
5
B7
100
AcDbEntity
8
1
62
256
6
ByLayer
370
13
48
1
60
0
100
AcDbEllipse
10
8.173903
20
-0.936773
30
0
11
0.0399047005127462
21
0.0916930470482252
31
0
210
0
220
0
230
1
40
0.540188
41
1.6014576250866
42
2.89647976589295
0
ELLIPSE
5
B8
100
AcDbEntity
8
1
62
256
6
ByLayer
370
13
48
1
60
0
100
AcDbEllipse
10
8.25016
20
-0.975417
30
0
11
0.0495683322635712
21
0.0868503335434482
31
0
210
0
220
0
230
1
40
0.114089
41
1.37139365057722
42
2.92521905503857
0
POINT
5
70
100
AcDbEntity
8
80
62
256
6
ByLayer
370
18
48
1
60
0
100
AcDbPoint
10
0
20
0
30
0
39
0
210
0
220
0
230
1
50
360
0
POINT
5
72
100
AcDbEntity
8
81
62
256
6
ByLayer
370
18
48
1
60
0
100
AcDbPoint
10
112
20
0
30
0
39
0
210
0
220
0
230
1
50
360
0
POINT
5
74
100
AcDbEntity
8
1
62
256
6
ByLayer
370
18
48
1
60
1
100
AcDbPoint
10
110.6667
20
-4.5
30
0
39
0
210
0
220
0
230
1
50
360
0
POINT
5
76
100
AcDbEntity
8
1
62
256
6
ByLayer
370
18
48
1
60
1
100
AcDbPoint
10
-40
20
-5
30
0
39
0
210
0
220
0
230
1
50
360
0
POINT
5
77
100
AcDbEntity
8
1
62
256
6
ByLayer
370
18
48
1
60
1
100
AcDbPoint
10
38.67
20
4.5
30
0
39
0
210
0
220
0
230
1
50
360
0
POINT
5
78
100
AcDbEntity
8
1
62
256
6
ByLayer
370
18
48
1
60
1
100
AcDbPoint
10
110.6667
20
-4.5
30
0
39
0
210
0
220
0
230
1
50
360
0
POINT
5
79
100
AcDbEntity
8
1
62
256
6
ByLayer
370
18
48
1
60
1
100
AcDbPoint
10
-40
20
-5
30
0
39
0
210
0
220
0
230
1
50
360
0
POINT
5
7A
100
AcDbEntity
8
1
62
256
6
ByLayer
370
18
48
1
60
1
100
AcDbPoint
10
110.6667
20
-4.5
30
0
39
0
210
0
220
0
230
1
50
360
0
SPLINE
5
B9
100
AcDbEntity
8
SK1
62
256
6
ByLayer
370
18
48
1
60
0
100
AcDbSpline
70
4
71
3
72
12
73
8
40
0
40
0
40
0
40
0
40
0.500000000000002
40
0.500000000000002
40
0.750000000000001
40
0.750000000000001
40
1
40
1
40
1
40
1
41
1
10
-39.35
20
0.988988225846839
30
0
41
1
10
-39.3264103729719
20
0.99987782766334
30
0
41
1
10
-39.3036886178189
20
1.01838032112872
30
0
41
1
10
-39.275599229617
20
1.05527971573542
30
0
41
1
10
-39.2670477807072
20
1.06947759836132
30
0
41
1
10
-39.2542670006876
20
1.10057659036585
30
0
41
1
10
-39.25
20
1.11794733251628
30
0
41
1
10
-39.25
20
1.1343790858148
30
0
0
SPLINE
5
BA
100
AcDbEntity
8
SK1
62
256
6
ByLayer
370
18
48
1
60
0
100
AcDbSpline
70
4
71
3
72
8
73
4
40
0
40
0
40
0
40
0
40
1
40
1
40
1
40
1
41
1
10
-39.35
20
2.77602204986582
30
0
41
1
10
-39.5672415048354
20
2.67573756962131
30
0
41
1
10
-39.7840138771994
20
2.57525284781968
30
0
41
1
10
-40
20
2.47443252819357
30
0
0
SPLINE
5
BB
100
AcDbEntity
8
SK1
62
256
6
ByLayer
370
18
48
1
60
0
100
AcDbSpline
70
4
71
3
72
8
73
4
40
0
40
0
40
0
40
0
40
1
40
1
40
1
40
1
41
1
10
-40
20
0.687398704174626
30
0
41
1
10
-39.7840106695535
20
0.788220521100072
30
0
41
1
10
-39.5672387797449
20
0.888705003576916
30
0
41
1
10
-39.35
20
0.988988225846867
30
0
0
SPLINE
5
BC
100
AcDbEntity
8
SK1
62
256
6
ByLayer
370
18
48
1
60
0
100
AcDbSpline
70
4
71
3
72
12
73
8
40
0
40
0
40
0
40
0
40
0.25
40
0.25
40
0.5
40
0.5
40
1
40
1
40
1
40
1
41
1
10
-39.25
20
2.74270952743186
30
0
41
1
10
-39.25
20
2.7560389268948
30
0
41
1
10
-39.2542356242266
20
2.76641781319597
30
0
41
1
10
-39.2670201311553
20
2.78078178667889
30
0
41
1
10
-39.2754786511819
20
2.78499231017014
30
0
41
1
10
-39.3037388067415
20
2.79114076834378
30
0
41
1
10
-39.3264172660854
20
2.78690846963707
30
0
41
1
10
-39.35
20
2.77602204986587
30
0
0
SPLINE
5
BD
100
AcDbEntity
8
1
62
256
6
ByLayer
370
18
48
1
60
0
100
AcDbSpline
70
4
71
3
72
8
73
4
40
0
40
0
40
0
40
0
40
1
40
1
40
1
40
1
41
1
10
110.544319688981
20
-4.37935817320414
30
0
41
1
10
110.984582923446
20
-3.30608399165956
30
0
41
1
10
111.418884216259
20
-2.22769460285988
30
0
41
1
10
111.832623333606
20
-1.13867323161384
30
0
0
SPLINE
5
BE
100
AcDbEntity
8
1
62
256
6
ByLayer
370
18
48
1
60
0
100
AcDbSpline
70
4
71
3
72
8
73
4
40
0
40
0
40
0
40
0
40
1
40
1
40
1
40
1
41
1
10
8.25024741641471
20
2.92077616250239
30
0
41
1
10
8.60149571573001
20
2.59483000049954
30
0
41
1
10
8.97422888124399
20
2.23716942244838
30
0
41
1
10
9.37845223803896
20
1.86581429020552
30
0
0
SPLINE
5
BF
100
AcDbEntity
8
1
62
256
6
ByLayer
370
18
48
1
60
0
100
AcDbSpline
70
4
71
3
72
30
73
26
40
0
40
0
40
0
40
0
40
0.106224777525259
40
0.106224777525259
40
0.159337166287887
40
0.159337166287887
40
0.212449555050515
40
0.212449555050515
40
0.318674332575769
40
0.318674332575769
40
0.424899110101024
40
0.424899110101024
40
0.478011498863651
40
0.478011498863651
40
0.531123887626278
40
0.531123887626278
40
0.637348665151535
40
0.637348665151535
40
0.743573442676791
40
0.743573442676791
40
0.849798220202048
40
0.849798220202048
40
0.956022997727304
40
0.956022997727304
40
1
40
1
40
1
40
1
41
1
10
9.37845223803896
20
-2.32928333949047
30
0
41
1
10
9.64404914820707
20
-2.46808619841391
30
0
41
1
10
9.90913746693656
20
-2.60038672889098
30
0
41
1
10
10.3063226307261
20
-2.78931196032391
30
0
41
1
10
10.4385907645865
20
-2.85077526590601
30
0
41
1
10
10.7022634363142
20
-2.97146632243343
30
0
41
1
10
10.8334978615176
20
-3.03088434936077
30
0
41
1
10
11.2280164127684
20
-3.20309144359615
30
0
41
1
10
11.4913281411188
20
-3.31093183194327
30
0
41
1
10
12.0165572213016
20
-3.51502775044273
30
0
41
1
10
12.278949293288
20
-3.61067497429625
30
0
41
1
10
12.6739095203052
20
-3.74288076380688
30
0
41
1
10
12.8057381287295
20
-3.78513370980403
30
0
41
1
10
13.069554135205
20
-3.86616207913588
30
0
41
1
10
13.2012490361818
20
-3.90517531975823
30
0
41
1
10
13.5972346174666
20
-4.01631051618335
30
0
41
1
10
13.8629270606396
20
-4.08224784249532
30
0
41
1
10
14.3956945112824
20
-4.19909185509428
30
0
41
1
10
14.660535613089
20
-4.24927451456875
30
0
41
1
10
15.1894126932622
20
-4.33202972837853
30
0
41
1
10
15.4536408780963
20
-4.36474924748617
30
0
41
1
10
15.9787417466821
20
-4.41378998622528
30
0
41
1
10
16.2417770540357
20
-4.42951114151867
30
0
41
1
10
16.6134068323617
20
-4.43979518995385
30
0
41
1
10
16.7221008265045
20
-4.44134131003159
30
0
41
1
10
16.8307868587423
20
-4.4414176396044
30
0
0
SPLINE
5
C0
100
AcDbEntity
8
1
62
256
6
ByLayer
370
18
48
1
60
0
100
AcDbSpline
70
4
71
3
72
108
73
104
40
0
40
0
40
0
40
0
40
0.013148491726182
40
0.013148491726182
40
0.038729158660579
40
0.038729158660579
40
0.0515194921277774
40
0.0515194921277774
40
0.0643098255949759
40
0.0643098255949759
40
0.0898904925293728
40
0.0898904925293728
40
0.11547115946377
40
0.11547115946377
40
0.128261492930968
40
0.128261492930968
40
0.141051826398166
40
0.141051826398166
40
0.166632493332563
40
0.166632493332563
40
0.19221316026696
40
0.19221316026696
40
0.205003493734158
40
0.205003493734158
40
0.217793827201356
40
0.217793827201356
40
0.243374494135752
40
0.243374494135752
40
0.268955161070148
40
0.268955161070148
40
0.281745494537346
40
0.281745494537346
40
0.294535828004545
40
0.294535828004545
40
0.320116494938942
40
0.320116494938942
40
0.345697161873338
40
0.345697161873338
40
0.358487495340536
40
0.358487495340536
40
0.371277828807734
40
0.371277828807734
40
0.39685849574213
40
0.39685849574213
40
0.422439162676526
40
0.422439162676526
40
0.435229496143724
40
0.435229496143724
40
0.448019829610923
40
0.448019829610923
40
0.473600496545319
40
0.473600496545319
40
0.499181163479717
40
0.499181163479717
40
0.524761830414114
40
0.524761830414114
40
0.55034249734851
40
0.55034249734851
40
0.575923164282907
40
0.575923164282907
40
0.601503831217304
40
0.601503831217304
40
0.614294164684503
40
0.614294164684503
40
0.627084498151702
40
0.627084498151702
40
0.652665165086099
40
0.652665165086099
40
0.678245832020496
40
0.678245832020496
40
0.691036165487694
40
0.691036165487694
40
0.703826498954892
40
0.703826498954892
40
0.729407165889288
40
0.729407165889288
40
0.754987832823684
40
0.754987832823684
40
0.78056849975808
40
0.78056849975808
40
0.806149166692476
40
0.806149166692476
40
0.831729833626872
40
0.831729833626872
40
0.844520167094069
40
0.844520167094069
40
0.857310500561266
40
0.857310500561266
40
0.882891167495661
40
0.882891167495661
40
0.908471834430056
40
0.908471834430056
40
0.921262167897254
40
0.921262167897254
40
0.934052501364451
40
0.934052501364451
40
0.959633168298846
40
0.959633168298846
40
0.985213835233241
40
0.985213835233241
40
0.998004168700438
40
0.998004168700438
40
1
40
1
40
1
40
1
41
1
10
31.9208850415873
20
2.09447381513442
30
0
41
1
10
32.0560012355161
20
2.16718770442537
30
0
41
1
10
32.191241924533
20
2.23891374791413
30
0
41
1
10
32.5905371387046
20
2.44640366875075
30
0
41
1
10
32.8557622219224
20
2.57825297850778
30
0
41
1
10
33.2532822541455
20
2.77168232465363
30
0
41
1
10
33.3863669647734
20
2.83490580442137
30
0
41
1
10
33.65210729136
20
2.95766241203501
30
0
41
1
10
33.7848445513894
20
3.01727214822324
30
0
41
1
10
34.1821411334402
20
3.1915652658096
30
0
41
1
10
34.4453926036142
20
3.30212166930861
30
0
41
1
10
34.9715911785194
20
3.50866625920534
30
0
41
1
10
35.2347446396273
20
3.60454364892101
30
0
41
1
10
35.6284633100545
20
3.73847206061737
30
0
41
1
10
35.7592248924066
20
3.78172084445444
30
0
41
1
10
36.0215259962123
20
3.86385952823363
30
0
41
1
10
36.1528559828891
20
3.90295314945189
30
0
41
1
10
36.5471810875493
20
4.01453315128728
30
0
41
1
10
36.809841596155
20
4.08180244038462
30
0
41
1
10
37.336659853688
20
4.20037454049668
30
0
41
1
10
37.6012365594231
20
4.25147682384446
30
0
41
1
10
37.9995382445372
20
4.31592019564184
30
0
41
1
10
38.1324269040202
20
4.33552148479865
30
0
41
1
10
38.39791157052
20
4.37020683481219
30
0
41
1
10
38.530522752383
20
4.38528394780568
30
0
41
1
10
38.9279118302385
20
4.423935701066
30
0
41
1
10
39.1917311408903
20
4.4410713601861
30
0
41
1
10
39.7176825132062
20
4.45805758952881
30
0
41
1
10
39.9804482121028
20
4.45785970255915
30
0
41
1
10
40.3745231020694
20
4.44481553523039
30
0
41
1
10
40.5058227944374
20
4.43834551824585
30
0
41
1
10
40.7676806850338
20
4.42096906834317
30
0
41
1
10
40.8988026637679
20
4.41015675143049
30
0
41
1
10
41.2927353928491
20
4.37145730732271
30
0
41
1
10
41.5559144869572
20
4.33730104005099
30
0
41
1
10
42.0824352177252
20
4.2515985696925
30
0
41
1
10
42.3464700632048
20
4.20029850109913
30
0
41
1
10
42.7446492272266
20
4.11113312497534
30
0
41
1
10
42.877908559623
20
4.0793470125324
30
0
41
1
10
43.1436385299126
20
4.01138888559959
30
0
41
1
10
43.2758842153664
20
3.97523210519489
30
0
41
1
10
43.6729065122913
20
3.86196500116858
30
0
41
1
10
43.9372125909278
20
3.77956942256867
30
0
41
1
10
44.4632869512602
20
3.599640326089
30
0
41
1
10
44.7256065371377
20
3.50254315581736
30
0
41
1
10
45.119559814056
20
3.34796159382157
30
0
41
1
10
45.2508955368385
20
3.29488898984931
30
0
41
1
10
45.5134089864309
20
3.18543401259015
30
0
41
1
10
45.6442365456415
20
3.12863192461114
30
0
41
1
10
46.037526048471
20
2.95440266767878
30
0
41
1
10
46.3008083556523
20
2.83329102574766
30
0
41
1
10
46.8274414900977
20
2.57841951679129
30
0
41
1
10
47.091008168147
20
2.444843375348
30
0
41
1
10
47.6213024505315
20
2.16898130007738
30
0
41
1
10
47.8884512226834
20
2.02638420447482
30
0
41
1
10
48.4171299629776
20
1.73237727843266
30
0
41
1
10
48.6813564259057
20
1.58367677773555
30
0
41
1
10
49.207989060491
20
1.28046472232876
30
0
41
1
10
49.4700931198605
20
1.12544511003733
30
0
41
1
10
49.9948577506091
20
0.813415008130278
30
0
41
1
10
50.2578204248127
20
0.656927666025126
30
0
41
1
10
50.6508961434702
20
0.417775709165539
30
0
41
1
10
50.7818274432896
20
0.337537591077819
30
0
41
1
10
51.0444684445489
20
0.177637486839075
30
0
41
1
10
51.1760541771329
20
0.0977705646614879
30
0
41
1
10
51.5712382643929
20
-0.142198457566138
30
0
41
1
10
51.8346871740535
20
-0.303657185835505
30
0
41
1
10
52.3641817860886
20
-0.625161970311297
30
0
41
1
10
52.6311533465079
20
-0.785151000319189
30
0
41
1
10
53.0287166020377
20
-1.02165632655809
30
0
41
1
10
53.1604943708698
20
-1.1006771978125
30
0
41
1
10
53.4242363611798
20
-1.25629238771114
30
0
41
1
10
53.5560578016485
20
-1.33313533223944
30
0
41
1
10
53.9512675386631
20
-1.56101464258995
30
0
41
1
10
54.213745527864
20
-1.71044105307345
30
0
41
1
10
54.7380899262417
20
-2.00211785799777
30
0
41
1
10
55.0004777956596
20
-2.14359677301741
30
0
41
1
10
55.5255481976801
20
-2.41814343100339
30
0
41
1
10
55.7872573094946
20
-2.55254236671044
30
0
41
1
10
56.3136780313141
20
-2.80900581439028
30
0
41
1
10
56.5775671567903
20
-2.93225253300042
30
0
41
1
10
57.1064724815417
20
-3.16883173894195
30
0
41
1
10
57.3729716877765
20
-3.2815620770576
30
0
41
1
10
57.7708748476536
20
-3.43942181479838
30
0
41
1
10
57.9033364321599
20
-3.49018898447971
30
0
41
1
10
58.1668844180337
20
-3.58908504612128
30
0
41
1
10
58.2984791407519
20
-3.63666244559795
30
0
41
1
10
58.6933732752252
20
-3.77328050065736
30
0
41
1
10
58.9564358780377
20
-3.85661926250506
30
0
41
1
10
59.4807604568909
20
-4.00911024647317
30
0
41
1
10
59.7426694332776
20
-4.07766580432585
30
0
41
1
10
60.1363990068898
20
-4.16824427573599
30
0
41
1
10
60.2677302437701
20
-4.19644066512407
30
0
41
1
10
60.5303085571013
20
-4.24896222310247
30
0
41
1
10
60.6612031127997
20
-4.27345259515786
30
0
41
1
10
61.0553589374106
20
-4.34018546999761
30
0
41
1
10
61.3194539945295
20
-4.37616024351215
30
0
41
1
10
61.8482560088724
20
-4.43161635531513
30
0
41
1
10
62.1142132995764
20
-4.45085801421718
30
0
41
1
10
62.5121099261104
20
-4.46627123003992
30
0
41
1
10
62.6445474791564
20
-4.46920956613974
30
0
41
1
10
62.7973184344656
20
-4.4701017406336
30
0
41
1
10
62.8179261523016
20
-4.47016912290979
30
0
41
1
10
62.8385221454959
20
-4.47018343314133
30
0
0
SPLINE
5
C1
100
AcDbEntity
8
1
62
256
6
ByLayer
370
18
48
1
60
0
100
AcDbSpline
70
4
71
3
72
102
73
98
40
0
40
0
40
0
40
0
40
0.0082210821788608
40
0.0082210821788608
40
0.0337534285834647
40
0.0337534285834647
40
0.0592857749880691
40
0.0592857749880691
40
0.0848181213926731
40
0.0848181213926731
40
0.0975842945949752
40
0.0975842945949752
40
0.110350467797277
40
0.110350467797277
40
0.135882814201882
40
0.135882814201882
40
0.161415160606488
40
0.161415160606488
40
0.174181333808791
40
0.174181333808791
40
0.186947507011094
40
0.186947507011094
40
0.2124798534157
40
0.2124798534157
40
0.238012199820306
40
0.238012199820306
40
0.250778373022609
40
0.250778373022609
40
0.263544546224913
40
0.263544546224913
40
0.289076892629519
40
0.289076892629519
40
0.314609239034124
40
0.314609239034124
40
0.340141585438731
40
0.340141585438731
40
0.365673931843336
40
0.365673931843336
40
0.391206278247943
40
0.391206278247943
40
0.403972451450245
40
0.403972451450245
40
0.416738624652547
40
0.416738624652547
40
0.442270971057151
40
0.442270971057151
40
0.467803317461755
40
0.467803317461755
40
0.480569490664056
40
0.480569490664056
40
0.493335663866357
40
0.493335663866357
40
0.518868010270959
40
0.518868010270959
40
0.544400356675562
40
0.544400356675562
40
0.569932703080164
40
0.569932703080164
40
0.595465049484766
40
0.595465049484766
40
0.620997395889369
40
0.620997395889369
40
0.646529742293971
40
0.646529742293971
40
0.672062088698574
40
0.672062088698574
40
0.697594435103176
40
0.697594435103176
40
0.723126781507778
40
0.723126781507778
40
0.735892954710079
40
0.735892954710079
40
0.74865912791238
40
0.74865912791238
40
0.77419147431698
40
0.77419147431698
40
0.799723820721581
40
0.799723820721581
40
0.825256167126181
40
0.825256167126181
40
0.850788513530781
40
0.850788513530781
40
0.876320859935381
40
0.876320859935381
40
0.889087033137681
40
0.889087033137681
40
0.901853206339982
40
0.901853206339982
40
0.927385552744582
40
0.927385552744582
40
0.952917899149182
40
0.952917899149182
40
0.965684072351483
40
0.965684072351483
40
0.978450245553784
40
0.978450245553784
40
1
40
1
40
1
40
1
41
1
10
77.9273034886065
20
2.10731018149937
30
0
41
1
10
78.0117458215847
20
2.15310470014231
30
0
41
1
10
78.0960550570524
20
2.19857760385571
30
0
41
1
10
78.4424099125808
20
2.38283788177606
30
0
41
1
10
78.7049367159552
20
2.51651352528455
30
0
41
1
10
79.2289441101863
20
2.77549973647186
30
0
41
1
10
79.4906197459832
20
2.90046699633757
30
0
41
1
10
80.0159777870868
20
3.1378833047911
30
0
41
1
10
80.2796800858587
20
3.25040007753484
30
0
41
1
10
80.6748398710878
20
3.41190602844847
30
0
41
1
10
80.8069762796607
20
3.4639694049352
30
0
41
1
10
81.0720346275826
20
3.56462497805336
30
0
41
1
10
81.2052013871956
20
3.61325609976683
30
0
41
1
10
81.6034265190186
20
3.753815349337
30
0
41
1
10
81.8670966376638
20
3.84048328011585
30
0
41
1
10
82.3938403440238
20
3.99727085429075
30
0
41
1
10
82.6572032240659
20
4.06732277707664
30
0
41
1
10
83.0501637108918
20
4.16145421474738
30
0
41
1
10
83.1808671946378
20
4.19092528670271
30
0
41
1
10
83.4428135742842
20
4.24542573803939
30
0
41
1
10
83.573912529276
20
4.27055505583272
30
0
41
1
10
83.9672449955204
20
4.33982194605622
30
0
41
1
10
84.2289140973575
20
4.37805973586887
30
0
41
1
10
84.7536347518479
20
4.43738260395878
30
0
41
1
10
85.0169702276995
20
4.45847217433732
30
0
41
1
10
85.4129155433017
20
4.47727259993866
30
0
41
1
10
85.5446662725593
20
4.48141849736837
30
0
41
1
10
85.8092163835882
20
4.48523554387444
30
0
41
1
10
85.9421215018361
20
4.48492921412861
30
0
41
1
10
86.3405957869523
20
4.4774272921947
30
0
41
1
10
86.6047343933186
20
4.46363400463523
30
0
41
1
10
87.1311688449871
20
4.41878666625556
30
0
41
1
10
87.3940224190357
20
4.387901028578
30
0
41
1
10
87.9189857718513
20
4.30963204293096
30
0
41
1
10
88.1800954443872
20
4.26170802205235
30
0
41
1
10
88.7041537691408
20
4.1505477525665
30
0
41
1
10
88.9663709758114
20
4.08703025406476
30
0
41
1
10
89.4907079929889
20
3.94354433489326
30
0
41
1
10
89.7535244081442
20
3.86405570925891
30
0
41
1
10
90.1494300483705
20
3.73379201700089
30
0
41
1
10
90.2817251905004
20
3.68859228999918
30
0
41
1
10
90.5459959617864
20
3.59356414501579
30
0
41
1
10
90.6784405034559
20
3.54399436039199
30
0
41
1
10
91.0766273730793
20
3.39090952361252
30
0
41
1
10
91.3413745070267
20
3.28305034567538
30
0
41
1
10
91.8679265482554
20
3.05415897558683
30
0
41
1
10
92.1303482493083
20
2.93381150202003
30
0
41
1
10
92.5240687908557
20
2.74633987938836
30
0
41
1
10
92.6552595860004
20
2.68261393390799
30
0
41
1
10
92.9173371167268
20
2.55241806702142
30
0
41
1
10
93.0478427220503
20
2.4854178221095
30
0
41
1
10
93.4403150857623
20
2.28218961980042
30
0
41
1
10
93.7027845349137
20
2.14319973615244
30
0
41
1
10
94.227257680493
20
1.85515324961938
30
0
41
1
10
94.4895961401074
20
1.70652216467565
30
0
41
1
10
95.0169973587599
20
1.40386294497031
30
0
41
1
10
95.2819151764347
20
1.2494199093332
30
0
41
1
10
95.8121648509664
20
0.932116247452569
30
0
41
1
10
96.0769472712419
20
0.773591610108866
30
0
41
1
10
96.6040593068014
20
0.453755964420822
30
0
41
1
10
96.8662454947023
20
0.292215089721537
30
0
41
1
10
97.3907976427912
20
-0.0292395713512974
30
0
41
1
10
97.6534772389741
20
-0.188644647082356
30
0
41
1
10
98.176211188884
20
-0.510496926782963
30
0
41
1
10
98.4380902026117
20
-0.669917373496247
30
0
41
1
10
98.963058262872
20
-0.985462855186796
30
0
41
1
10
99.2252998487091
20
-1.14297251638214
30
0
41
1
10
99.7520861023382
20
-1.45287793519674
30
0
41
1
10
100.016840970579
20
-1.60494065406391
30
0
41
1
10
100.415290935077
20
-1.82985463759692
30
0
41
1
10
100.54733863387
20
-1.90455272929384
30
0
41
1
10
100.811568496075
20
-2.05061395287888
30
0
41
1
10
100.943581900471
20
-2.12228477836862
30
0
41
1
10
101.339177853776
20
-2.33353925823184
30
0
41
1
10
101.601646162771
20
-2.47033112485522
30
0
41
1
10
102.125729626714
20
-2.73345748351434
30
0
41
1
10
102.387819813165
20
-2.85918552443107
30
0
41
1
10
102.911815893724
20
-3.0995270296211
30
0
41
1
10
103.172791940921
20
-3.21519517935471
30
0
41
1
10
103.697450532455
20
-3.43183969205083
30
0
41
1
10
103.960201026995
20
-3.5339574720816
30
0
41
1
10
104.486526507493
20
-3.72550242439544
30
0
41
1
10
104.750783367641
20
-3.81423272744573
30
0
41
1
10
105.149306934882
20
-3.93621962995505
30
0
41
1
10
105.282069076673
20
-3.97487785334113
30
0
41
1
10
105.545980303498
20
-4.04877968542104
30
0
41
1
10
105.677762160188
20
-4.08359769995724
30
0
41
1
10
106.072993899097
20
-4.18154180792902
30
0
41
1
10
106.336049715799
20
-4.23842248309072
30
0
41
1
10
106.860032942257
20
-4.33623521859198
30
0
41
1
10
107.121622726986
20
-4.37675054281121
30
0
41
1
10
107.514576678869
20
-4.42468625580872
30
0
41
1
10
107.645608406755
20
-4.43855226229095
30
0
41
1
10
107.90744874562
20
-4.46211849836024
30
0
41
1
10
108.037943585178
20
-4.47186387057721
30
0
41
1
10
108.389953940003
20
-4.49205683878455
30
0
41
1
10
108.611812728511
20
-4.49858196650314
30
0
41
1
10
108.833866276677
20
-4.49892965404027
30
0
0
SPLINE
5
C2
100
AcDbEntity
8
1
62
256
6
ByLayer
370
13
48
1
60
0
100
AcDbSpline
70
4
71
3
72
12
73
8
40
0
40
0
40
0
40
0
40
0.49999999999998
40
0.49999999999998
40
0.74999999999999
40
0.74999999999999
40
1
40
1
40
1
40
1
41
1
10
8.0000408100901
20
-0.844519426359483
30
0
41
1
10
8.00078435685367
20
-0.879105876582884
30
0
41
1
10
8.01187547773679
20
-0.913336678020414
30
0
41
1
10
8.04276502003091
20
-0.958819937962801
30
0
41
1
10
8.05574530340795
20
-0.973389446066506
30
0
41
1
10
8.08613665262777
20
-0.999370816443189
30
0
41
1
10
8.10342947502872
20
-1.01082329288812
30
0
41
1
10
8.1231715517722
20
-1.02049432793459
30
0
0
SPLINE
5
C3
100
AcDbEntity
8
1
62
256
6
ByLayer
370
18
48
1
60
0
100
AcDbSpline
70
4
71
3
72
16
73
12
40
0
40
0
40
0
40
0
40
0.25
40
0.25
40
0.5
40
0.5
40
0.75
40
0.75
40
0.875
40
0.875
40
1
40
1
40
1
40
1
41
1
10
8.2502474162676
20
-2.92077616263899
30
0
41
1
10
8.22542017164795
20
-2.94381497909043
30
0
41
1
10
8.20037557093167
20
-2.96844942437684
30
0
41
1
10
8.14978788727998
20
-3.02179152986105
30
0
41
1
10
8.12380711992995
20
-3.05093627377451
30
0
41
1
10
8.07317875862486
20
-3.11401702869745
30
0
41
1
10
8.04837722865202
20
-3.14826360095486
30
0
41
1
10
8.02024309089751
20
-3.1972047556431
30
0
41
1
10
8.01266108665169
20
-3.21275112898661
30
0
41
1
10
8.00268219177946
20
-3.23939032483597
30
0
41
1
10
8.00021968114481
20
-3.25058477101194
30
0
41
1
10
8.00001487518384
20
-3.25924800138364
30
0
0
SPLINE
5
C4
100
AcDbEntity
8
1
62
256
6
ByLayer
370
18
48
1
60
0
100
AcDbSpline
70
4
71
3
72
8
73
4
40
0
40
0
40
0
40
0
40
1
40
1
40
1
40
1
41
1
10
111.091939206604
20
-2.33950807277259
30
0
41
1
10
110.860747146751
20
-2.97470303677653
30
0
41
1
10
110.629555086897
20
-3.60989800078042
30
0
41
1
10
110.398363027044
20
-4.24509296478408
30
0
0
SPLINE
5
C5
100
AcDbEntity
8
1
62
256
6
ByLayer
370
18
48
1
60
0
100
AcDbSpline
70
4
71
3
72
24
73
20
40
0
40
0
40
0
40
0
40
0.0902486664577576
40
0.0902486664577576
40
0.180497332915515
40
0.180497332915515
40
0.360994665831027
40
0.360994665831027
40
0.451243332288783
40
0.451243332288783
40
0.541491998746539
40
0.541491998746539
40
0.72198933166205
40
0.72198933166205
40
0.902486664577562
40
0.902486664577562
40
0.992735331035318
40
0.992735331035318
40
1
40
1
40
1
40
1
41
1
10
8.00001487518384
20
3.25924800138333
30
0
41
1
10
7.93341855507913
20
3.32153081256018
30
0
41
1
10
7.86758420425801
20
3.38243219496786
30
0
41
1
10
7.73882603595376
20
3.4998062554165
30
0
41
1
10
7.67569710528554
20
3.55647206512793
30
0
41
1
10
7.48983564544349
20
3.7200956572369
30
0
41
1
10
7.37060535103373
20
3.82070101926786
30
0
41
1
10
7.19825160219739
20
3.95736406387201
30
0
41
1
10
7.14188771526577
20
4.00053968682275
30
0
41
1
10
7.03132358107564
20
4.08179911607843
30
0
41
1
10
6.97696553590271
20
4.11998699385259
30
0
41
1
10
6.81834971061625
20
4.2255455227434
30
0
41
1
10
6.71928058707746
20
4.2834833941572
30
0
41
1
10
6.53492121563775
20
4.37296061934967
30
0
41
1
10
6.44960327938611
20
4.40453382807201
30
0
41
1
10
6.33370329655085
20
4.42960584287627
30
0
41
1
10
6.29713050727361
20
4.43418192074981
30
0
41
1
10
6.26073778207714
20
4.4348035909569
30
0
41
1
10
6.25804411430533
20
4.43482430124095
30
0
41
1
10
6.25536812064311
20
4.43481934973715
30
0
0
SPLINE
5
C6
100
AcDbEntity
8
1
62
256
6
ByLayer
370
18
48
1
60
0
100
AcDbSpline
70
4
71
3
72
8
73
4
40
0
40
0
40
0
40
0
40
1
40
1
40
1
40
1
41
1
10
8.96644661600695
20
2.24892928787443
30
0
41
1
10
9.10448412888519
20
2.27125678742698
30
0
41
1
10
9.24181599323623
20
2.2980995751708
30
0
41
1
10
9.37845223803896
20
2.32928333949047
30
0
0
SPLINE
5
C7
100
AcDbEntity
8
1
62
256
6
ByLayer
370
18
48
1
60
0
100
AcDbSpline
70
4
71
3
72
14
73
10
40
0
40
0
40
0
40
0
40
0.196232541074748
40
0.196232541074748
40
0.392465082149495
40
0.392465082149495
40
0.784930164298991
40
0.784930164298991
40
1
40
1
40
1
40
1
41
1
10
8.19962016598231
20
-1.05902818007362
30
0
41
1
10
8.46881615648451
20
-1.21187722157507
30
0
41
1
10
8.73803139748046
20
-1.36242635648523
30
0
41
1
10
9.27352279420171
20
-1.6559786318517
30
0
41
1
10
9.54026780882481
20
-1.79924057216135
30
0
41
1
10
10.3387399477313
20
-2.21680079387093
30
0
41
1
10
10.8688269811816
20
-2.47876546293657
30
0
41
1
10
11.6910143709157
20
-2.85152050433919
30
0
41
1
10
11.9823379778136
20
-2.97718507986406
30
0
41
1
10
12.2744557813833
20
-3.09580583824777
30
0
0
SPLINE
5
C8
100
AcDbEntity
8
1
62
256
6
ByLayer
370
13
48
1
60
0
100
AcDbSpline
70
4
71
3
72
20
73
16
40
0
40
0
40
0
40
0
40
0.101368539863708
40
0.101368539863708
40
0.21350123423862
40
0.21350123423862
40
0.325633928613532
40
0.325633928613532
40
0.774164706113174
40
0.774164706113174
40
0.886297400488085
40
0.886297400488085
40
0.998430094862996
40
0.998430094862996
40
1
40
1
40
1
40
1
41
1
10
12.27445581013
20
-3.09580584992094
30
0
41
1
10
12.5154022335823
20
-3.19364736116762
30
0
41
1
10
12.7568889794532
20
-3.28669669387818
30
0
41
1
10
13.2672679363924
20
-3.47169456917649
30
0
41
1
10
13.5369226973409
20
-3.5626242339319
30
0
41
1
10
14.0728532375026
20
-3.72866644558749
30
0
41
1
10
14.3398131128074
20
-3.8040403555236
30
0
41
1
10
15.6716485140276
20
-4.1416791242107
30
0
41
1
10
16.7267727658254
20
-4.28631327579259
30
0
41
1
10
18.0654059838018
20
-4.29528062634964
30
0
41
1
10
18.3349212812352
20
-4.2883775927117
30
0
41
1
10
18.8714812676315
20
-4.25733241767077
30
0
41
1
10
19.1386615148021
20
-4.23327787332735
30
0
41
1
10
19.4089204025654
20
-4.20052531775556
30
0
41
1
10
19.4126517557894
20
-4.2000714701521
30
0
41
1
10
19.4163829672545
20
-4.1996159941844
30
0
0
SPLINE
5
C9
100
AcDbEntity
8
1
62
256
6
ByLayer
370
18
48
1
60
0
100
AcDbSpline
70
4
71
3
72
16
73
12
40
0
40
0
40
0
40
0
40
0.103910364178381
40
0.103910364178381
40
0.645031434298565
40
0.645031434298565
40
0.780311701828611
40
0.780311701828611
40
0.915591969358658
40
0.915591969358658
40
1
40
1
40
1
40
1
41
1
10
52.3541292707915
20
0.010969040294782
30
0
41
1
10
52.5599392626102
20
-0.110359525895348
30
0
41
1
10
52.7664140629384
20
-0.232113389907823
30
0
41
1
10
54.0449639291047
20
-0.983177895392316
30
0
41
1
10
55.1013748201096
20
-1.59275655811013
30
0
41
1
10
56.4345008791791
20
-2.27595808330787
30
0
41
1
10
56.7017243534965
20
-2.40870017936763
30
0
41
1
10
57.2382056030797
20
-2.6650546448476
30
0
41
1
10
57.5070960398952
20
-2.78838000513045
30
0
41
1
10
57.942544705604
20
-2.97855187030297
30
0
41
1
10
58.1097605116597
20
-3.04932754477403
30
0
41
1
10
58.276977227748
20
-3.11767756204267
30
0
0
SPLINE
5
CA
100
AcDbEntity
8
1
62
256
6
ByLayer
370
13
48
1
60
0
100
AcDbSpline
70
4
71
3
72
18
73
14
40
0
40
0
40
0
40
0
40
0.154955278572719
40
0.154955278572719
40
0.380172867294051
40
0.380172867294051
40
0.605390456015381
40
0.605390456015381
40
0.830608044736713
40
0.830608044736713
40
0.943216839097377
40
0.943216839097377
40
1
40
1
40
1
40
1
41
1
10
58.276978153948
20
-3.11767794062788
30
0
41
1
10
58.6457556764781
20
-3.26841614024826
30
0
41
1
10
59.0145376259876
20
-3.40735659570163
30
0
41
1
10
59.9217521889523
20
-3.71576607569168
30
0
41
1
10
60.4598532660387
20
-3.86997700357378
30
0
41
1
10
61.5266810738742
20
-4.11179609883186
30
0
41
1
10
62.0566035740137
20
-4.20032328975242
30
0
41
1
10
63.1162711360626
20
-4.31027483906726
30
0
41
1
10
63.6458290200435
20
-4.33187340843185
30
0
41
1
10
64.4448444068555
20
-4.31266966037131
30
0
41
1
10
64.7119271555037
20
-4.29766109190004
30
0
41
1
10
65.1154283400091
20
-4.26199593410195
30
0
41
1
10
65.2507373989394
20
-4.24784527008816
30
0
41
1
10
65.3858730865911
20
-4.23155894729302
30
0
0
SPLINE
5
CB
100
AcDbEntity
8
1
62
256
6
ByLayer
370
18
48
1
60
0
100
AcDbSpline
70
4
71
3
72
18
73
14
40
0
40
0
40
0
40
0
40
0.127120636342988
40
0.127120636342988
40
0.237277044762721
40
0.237277044762721
40
0.347433453182457
40
0.347433453182457
40
0.78805908686141
40
0.78805908686141
40
0.898215495281148
40
0.898215495281148
40
1
40
1
40
1
40
1
41
1
10
98.3659704862886
20
0.0040519662723
30
0
41
1
10
98.6728036346709
20
-0.178012348148684
30
0
41
1
10
98.9806056695377
20
-0.360705750042797
30
0
41
1
10
99.5581112309198
20
-0.700926573632756
30
0
41
1
10
99.8256873861708
20
-0.857369006494594
30
0
41
1
10
100.358339919811
20
-1.1648103606953
30
0
41
1
10
100.623812934436
20
-1.31594990422212
30
0
41
1
10
101.948561766689
20
-2.05619348707236
30
0
41
1
10
103.000028832929
20
-2.5988647919452
30
0
41
1
10
104.336829657366
20
-3.16502740849236
30
0
41
1
10
104.605516326388
20
-3.2726480235462
30
0
41
1
10
105.118897394013
20
-3.46530455212979
30
0
41
1
10
105.364577059497
20
-3.5517672579532
30
0
41
1
10
105.609697464765
20
-3.63196287938891
30
0
0
SPLINE
5
CC
100
AcDbEntity
8
1
62
256
6
ByLayer
370
13
48
1
60
0
100
AcDbSpline
70
4
71
3
72
16
73
12
40
0
40
0
40
0
40
0
40
0.0125082537372344
40
0.0125082537372344
40
0.341672169158153
40
0.341672169158153
40
0.67083608457907
40
0.67083608457907
40
0.835418042289537
40
0.835418042289537
40
1
40
1
40
1
40
1
41
1
10
105.609697464483
20
-3.63196287929642
30
0
41
1
10
105.629858926616
20
-3.63855907018939
30
0
41
1
10
105.650016605203
20
-3.64511286256598
30
0
41
1
10
106.200539844285
20
-3.82297324431877
30
0
41
1
10
106.728468723883
20
-3.96484272446838
30
0
41
1
10
107.785788849968
20
-4.18518072622246
30
0
41
1
10
108.315163673459
20
-4.26368170908714
30
0
41
1
10
109.115346861422
20
-4.3304743018935
30
0
41
1
10
109.383646416867
20
-4.3442385016356
30
0
41
1
10
109.919723306243
20
-4.35416636378375
30
0
41
1
10
110.18750804548
20
-4.35037617345199
30
0
41
1
10
110.455372458961
20
-4.33785270687977
30
0
0
SPLINE
5
CD
100
AcDbEntity
8
1
62
256
6
ByLayer
370
18
48
1
60
0
100
AcDbSpline
70
4
71
3
72
18
73
14
40
0
40
0
40
0
40
0
40
0.125000000000001
40
0.125000000000001
40
0.250000000000001
40
0.250000000000001
40
0.375000000000002
40
0.375000000000002
40
0.500000000000002
40
0.500000000000002
40
0.750000000000001
40
0.750000000000001
40
1
40
1
40
1
40
1
41
1
10
8.00001487518387
20
3.25924800138333
30
0
41
1
10
8.00021851981577
20
3.25063389488258
30
0
41
1
10
8.00263442492923
20
3.23956727461396
30
0
41
1
10
8.01254570918999
20
3.21301050666841
30
0
41
1
10
8.0200682154121
20
3.19755515307935
30
0
41
1
10
8.03860265518304
20
3.16522231359267
30
0
41
1
10
8.04964765491715
20
3.14823522773844
30
0
41
1
10
8.07286340270946
20
3.11530122894047
30
0
41
1
10
8.08531948849441
20
3.09891708434509
30
0
41
1
10
8.12304902743745
20
3.05182892859611
30
0
41
1
10
8.14893338983808
20
3.02271794376031
30
0
41
1
10
8.20020206209028
20
2.96860749397979
30
0
41
1
10
8.22540040628763
20
2.94383332065479
30
0
41
1
10
8.25024741626765
20
2.92077616263887
30
0
0
SPLINE
5
CE
100
AcDbEntity
8
1
62
256
6
ByLayer
370
18
48
1
60
0
100
AcDbSpline
70
4
71
3
72
64
73
60
40
0
40
0
40
0
40
0
40
0.0312499999999979
40
0.0312499999999979
40
0.0624999999999958
40
0.0624999999999958
40
0.124999999999993
40
0.124999999999993
40
0.156249999999991
40
0.156249999999991
40
0.18749999999999
40
0.18749999999999
40
0.249999999999987
40
0.249999999999987
40
0.312499999999984
40
0.312499999999984
40
0.343749999999983
40
0.343749999999983
40
0.374999999999982
40
0.374999999999982
40
0.43749999999998
40
0.43749999999998
40
0.499999999999977
40
0.499999999999977
40
0.531249999999976
40
0.531249999999976
40
0.562499999999975
40
0.562499999999975
40
0.624999999999973
40
0.624999999999973
40
0.656249999999972
40
0.656249999999972
40
0.687499999999971
40
0.687499999999971
40
0.71874999999997
40
0.71874999999997
40
0.749999999999968
40
0.749999999999968
40
0.781249999999967
40
0.781249999999967
40
0.796874999999967
40
0.796874999999967
40
0.804687499999967
40
0.804687499999967
40
0.808593749999967
40
0.808593749999967
40
0.812499999999968
40
0.812499999999968
40
0.816406249999968
40
0.816406249999968
40
0.820312499999969
40
0.820312499999969
40
0.828124999999972
40
0.828124999999972
40
0.843749999999975
40
0.843749999999975
40
0.874999999999981
40
0.874999999999981
40
1
40
1
40
1
40
1
41
1
10
8.00001487518369
20
-3.25924800138344
30
0
41
1
10
7.93341855507896
20
-3.3215308125603
30
0
41
1
10
7.86758420425787
20
-3.382432194968
30
0
41
1
10
7.73882603595365
20
-3.49980625541661
30
0
41
1
10
7.67569710528539
20
-3.55647206512808
30
0
41
1
10
7.48983564544335
20
-3.72009565723701
30
0
41
1
10
7.37060535103359
20
-3.82070101926797
30
0
41
1
10
7.19825160219722
20
-3.95736406387212
30
0
41
1
10
7.14188771526563
20
-4.00053968682283
30
0
41
1
10
7.03132358107553
20
-4.08179911607851
30
0
41
1
10
6.97696553590259
20
-4.11998699385268
30
0
41
1
10
6.81834971061613
20
-4.22554552274349
30
0
41
1
10
6.71928058707738
20
-4.28348339415729
30
0
41
1
10
6.53492121563761
20
-4.3729606193497
30
0
41
1
10
6.449603279386
20
-4.40453382807206
30
0
41
1
10
6.33370329655074
20
-4.42960584287627
30
0
41
1
10
6.29713050727349
20
-4.43418192074984
30
0
41
1
10
6.22976751730883
20
-4.43533263325341
30
0
41
1
10
6.19879643137486
20
-4.43195657881344
30
0
41
1
10
6.11465667740649
20
-4.40963991431008
30
0
41
1
10
6.07005282828922
20
-4.3785349448585
30
0
41
1
10
6.01055515635045
20
-4.2803413432452
30
0
41
1
10
5.99669052944154
20
-4.21491602009323
30
0
41
1
10
6.00265558906528
20
-4.09298237991862
30
0
41
1
10
6.00912290385924
20
-4.04835427760972
30
0
41
1
10
6.03184835286149
20
-3.95103873712671
30
0
41
1
10
6.04830395250883
20
-3.89791842773803
30
0
41
1
10
6.11223306153795
20
-3.73045815916245
30
0
41
1
10
6.17400161558729
20
-3.60783521261052
30
0
41
1
10
6.29539858037128
20
-3.41063496719337
30
0
41
1
10
6.34095884601356
20
-3.34228405590321
30
0
41
1
10
6.44019665280354
20
-3.20378519185812
30
0
41
1
10
6.49377777002331
20
-3.13371433252956
30
0
41
1
10
6.6083853977423
20
-2.99241370358712
30
0
41
1
10
6.66941335586566
20
-2.92118305573726
30
0
41
1
10
6.7985258410921
20
-2.77794676978468
30
0
41
1
10
6.86679717344776
20
-2.7057495676666
30
0
41
1
10
7.00899939445324
20
-2.56203501867859
30
0
41
1
10
7.08290367708639
20
-2.49051725618861
30
0
41
1
10
7.1976797245878
20
-2.38389699424894
30
0
41
1
10
7.23658136243736
20
-2.34847690651443
30
0
41
1
10
7.29577546761723
20
-2.29562049557481
30
0
41
1
10
7.31565130031834
20
-2.27804341598704
30
0
41
1
10
7.34567795018194
20
-2.25174170305269
30
0
41
1
10
7.35572263368616
20
-2.24298484490984
30
0
41
1
10
7.3758787812566
20
-2.22549572905325
30
0
41
1
10
7.3853158687146
20
-2.2160342248487
30
0
41
1
10
7.40782333509748
20
-2.20084394152525
30
0
41
1
10
7.42125448586222
20
-2.1958052577732
30
0
41
1
10
7.44872783573504
20
-2.19118973508427
30
0
41
1
10
7.4627012546452
20
-2.19052862276001
30
0
41
1
10
7.50443151238235
20
-2.18722300155093
30
0
41
1
10
7.53225559713815
20
-2.18500325330459
30
0
41
1
10
7.61578750310369
20
-2.17916392281137
30
0
41
1
10
7.67151638021966
20
-2.17606261909583
30
0
41
1
10
7.83882415888559
20
-2.16911091671562
30
0
41
1
10
7.9507304513759
20
-2.16761624684622
30
0
41
1
10
8.50810970328001
20
-2.17556741147592
30
0
41
1
10
8.94675291443269
20
-2.2307588961136
30
0
41
1
10
9.37845223803896
20
-2.32928333949047
30
0
0
SPLINE
5
CF
100
AcDbEntity
8
1
62
256
6
ByLayer
370
18
48
1
60
0
100
AcDbSpline
70
4
71
3
72
14
73
10
40
0
40
0
40
0
40
0
40
0.25
40
0.25
40
0.5
40
0.5
40
0.75
40
0.75
40
1
40
1
40
1
40
1
41
1
10
110.472598730782
20
-4.24599192431626
30
0
41
1
10
110.475049002604
20
-4.24521677966047
30
0
41
1
10
110.476852718014
20
-4.24613392262924
30
0
41
1
10
110.478748258616
20
-4.25242540078995
30
0
41
1
10
110.478790395208
20
-4.25789541919482
30
0
41
1
10
110.47616552097
20
-4.27444303172496
30
0
41
1
10
110.473445175198
20
-4.28554040968976
30
0
41
1
10
110.465638060773
20
-4.31075658910066
30
0
41
1
10
110.460634944047
20
-4.32463720704618
30
0
41
1
10
110.455372460865
20
-4.33785270679076
30
0
0
SPLINE
5
D0
100
AcDbEntity
8
1
62
256
6
ByLayer
370
13
48
1
60
0
100
AcDbSpline
70
4
71
3
72
8
73
4
40
0
40
0
40
0
40
0
40
1
40
1
40
1
40
1
41
1
10
8.1231715517722
20
-1.02049432793459
30
0
41
1
10
8.14698706496236
20
-1.03080907842102
30
0
41
1
10
8.17292815203473
20
-1.04387249837114
30
0
41
1
10
8.19962016598231
20
-1.05902818007362
30
0
0
SPLINE
5
D1
100
AcDbEntity
8
1
62
256
6
ByLayer
370
18
48
1
60
0
100
AcDbSpline
70
4
71
3
72
8
73
4
40
0
40
0
40
0
40
0
40
1
40
1
40
1
40
1
41
1
10
110.398363027042
20
-4.24509296478544
30
0
41
1
10
110.409981120886
20
-4.25026032226541
30
0
41
1
10
110.422545072787
20
-4.25269921594395
30
0
41
1
10
110.436078848067
20
-4.25244129723905
30
0
0
SPLINE
5
D2
100
AcDbEntity
8
1
62
256
6
ByLayer
370
18
48
1
60
0
100
AcDbSpline
70
4
71
3
72
14
73
10
40
0
40
0
40
0
40
0
40
0.25
40
0.25
40
0.5
40
0.5
40
0.75
40
0.75
40
1
40
1
40
1
40
1
41
1
10
8.12039693157101
20
-1.04905816815025
30
0
41
1
10
8.10225671622175
20
-1.03837010628354
30
0
41
1
10
8.08588088001645
20
-1.02569309831978
30
0
41
1
10
8.05654544107506
20
-0.996463256909436
30
0
41
1
10
8.0436528481458
20
-0.979836123680627
30
0
41
1
10
8.02281894132881
20
-0.944430495712169
30
0
41
1
10
8.01458054310524
20
-0.925146094916357
30
0
41
1
10
8.00342794526225
20
-0.885549843248185
30
0
41
1
10
8.00042053777338
20
-0.865278351254091
30
0
41
1
10
8.00004081009004
20
-0.844519426359369
30
0
0
SPLINE
5
D3
100
AcDbEntity
8
1
62
256
6
ByLayer
370
18
48
1
60
0
100
AcDbSpline
70
4
71
3
72
50
73
46
40
0
40
0
40
0
40
0
40
0.0312499999999984
40
0.0312499999999984
40
0.0624999999999968
40
0.0624999999999968
40
0.0937499999999952
40
0.0937499999999952
40
0.124999999999994
40
0.124999999999994
40
0.156249999999992
40
0.156249999999992
40
0.18749999999999
40
0.18749999999999
40
0.249999999999987
40
0.249999999999987
40
0.312499999999984
40
0.312499999999984
40
0.37499999999998
40
0.37499999999998
40
0.437499999999977
40
0.437499999999977
40
0.499999999999974
40
0.499999999999974
40
0.531249999999972
40
0.531249999999972
40
0.562499999999971
40
0.562499999999971
40
0.624999999999968
40
0.624999999999968
40
0.687499999999966
40
0.687499999999966
40
0.718749999999964
40
0.718749999999964
40
0.749999999999963
40
0.749999999999963
40
0.81249999999997
40
0.81249999999997
40
0.874999999999976
40
0.874999999999976
40
0.937499999999982
40
0.937499999999982
40
0.968749999999991
40
0.968749999999991
40
1
40
1
40
1
40
1
41
1
10
111.317250818385
20
-1.72046950706451
30
0
41
1
10
111.31794757294
20
-1.6936580977837
30
0
41
1
10
111.316721501606
20
-1.66894247712457
30
0
41
1
10
111.310764386336
20
-1.62464763741022
30
0
41
1
10
111.306107510372
20
-1.60532652462098
30
0
41
1
10
111.293863755165
20
-1.571618457742
30
0
41
1
10
111.286251187521
20
-1.55731242679406
30
0
41
1
10
111.26895591361
20
-1.53402626524709
30
0
41
1
10
111.259216751563
20
-1.52488040343266
30
0
41
1
10
111.237783361262
20
-1.5110615301532
30
0
41
1
10
111.226020619103
20
-1.50640913338523
30
0
41
1
10
111.201347541542
20
-1.50147093216415
30
0
41
1
10
111.18837076918
20
-1.50112181035982
30
0
41
1
10
111.147683088697
20
-1.50589352912897
30
0
41
1
10
111.117872255986
20
-1.51701520337315
30
0
41
1
10
111.056167226268
20
-1.55304864332277
30
0
41
1
10
111.024076965814
20
-1.57789249078132
30
0
41
1
10
110.957783036035
20
-1.64161640037199
30
0
41
1
10
110.92468726437
20
-1.67939244884974
30
0
41
1
10
110.858607688636
20
-1.76787959422501
30
0
41
1
10
110.825192337994
20
-1.81946205788731
30
0
41
1
10
110.763017118657
20
-1.93246680849853
30
0
41
1
10
110.73344460777
20
-1.99544898983302
30
0
41
1
10
110.696428733381
20
-2.09299952048869
30
0
41
1
10
110.685085243216
20
-2.12667494276647
30
0
41
1
10
110.665937237656
20
-2.19253027707481
30
0
41
1
10
110.658015880374
20
-2.22491550628351
30
0
41
1
10
110.639503477366
20
-2.32034747006395
30
0
41
1
10
110.634954534591
20
-2.37912111722898
30
0
41
1
10
110.640790993544
20
-2.4760857997407
30
0
41
1
10
110.650985280193
20
-2.51459499741972
30
0
41
1
10
110.673753210421
20
-2.55655266575147
30
0
41
1
10
110.682682417945
20
-2.56811475165361
30
0
41
1
10
110.702456158979
20
-2.58626615693132
30
0
41
1
10
110.713257399656
20
-2.59288114234906
30
0
41
1
10
110.74808021313
20
-2.60621593431893
30
0
41
1
10
110.774837894154
20
-2.60634881594859
30
0
41
1
10
110.83183613557
20
-2.59116253692392
30
0
41
1
10
110.862534418873
20
-2.57580688406466
30
0
41
1
10
110.926096423114
20
-2.53115719938231
30
0
41
1
10
110.958626207414
20
-2.50224191432352
30
0
41
1
10
111.008601608571
20
-2.4484767808795
30
0
41
1
10
111.02553686136
20
-2.42868169998943
30
0
41
1
10
111.05894620756
20
-2.38634234819739
30
0
41
1
10
111.075515499044
20
-2.36371107944152
30
0
41
1
10
111.091939206605
20
-2.33950807277344
30
0
0
SPLINE
5
D4
100
AcDbEntity
8
1
62
256
6
ByLayer
370
18
48
1
60
0
100
AcDbSpline
70
4
71
3
72
24
73
20
40
0
40
0
40
0
40
0
40
0.125
40
0.125
40
0.250000000000001
40
0.250000000000001
40
0.375000000000001
40
0.375000000000001
40
0.437500000000001
40
0.437500000000001
40
0.500000000000001
40
0.500000000000001
40
0.625000000000001
40
0.625000000000001
40
0.687500000000001
40
0.687500000000001
40
0.750000000000001
40
0.750000000000001
40
1
40
1
40
1
40
1
41
1
10
8.00001589540886
20
-0.841795444058704
30
0
41
1
10
8.00001593040545
20
-0.655947641068536
30
0
41
1
10
8.00001592558399
20
-0.467232546485064
30
0
41
1
10
8.00001585965708
20
-0.0922057009250921
30
0
41
1
10
8.00001579892933
20
0.0948336623540627
30
0
41
1
10
8.00001564572381
20
0.467978405599439
30
0
41
1
10
8.00001555321046
20
0.654083855199701
30
0
41
1
10
8.00001540711418
20
0.932517872269727
30
0
41
1
10
8.00001535725073
20
1.02508585593111
30
0
41
1
10
8.00001525916289
20
1.20733781619876
30
0
41
1
10
8.0000152107649
20
1.29735290237332
30
0
41
1
10
8.0000150710847
20
1.56412287053138
30
0
41
1
10
8.00001498539666
20
1.73761533919679
30
0
41
1
10
8.00001488036355
20
1.99131275479991
30
0
41
1
10
8.00001484924604
20
2.07478513165975
30
0
41
1
10
8.00001479665195
20
2.2395012113266
30
0
41
1
10
8.00001477513788
20
2.32101543182054
30
0
41
1
10
8.00001469689803
20
2.71796638967359
30
0
41
1
10
8.00001472821495
20
3.00412083990719
30
0
41
1
10
8.00001487518387
20
3.2592480013833
30
0
0
SPLINE
5
D5
100
AcDbEntity
8
1
62
256
6
ByLayer
370
18
48
1
60
0
100
AcDbSpline
70
4
71
3
72
16
73
12
40
0
40
0
40
0
40
0
40
0.485837662284246
40
0.485837662284246
40
0.577782592507827
40
0.577782592507827
40
0.66972752273141
40
0.66972752273141
40
0.853617383178581
40
0.853617383178581
40
1
40
1
40
1
40
1
41
1
10
87.063506877447
20
-4.23786348916502
30
0
41
1
10
86.3642513744996
20
-4.23710597211223
30
0
41
1
10
85.6645303500638
20
-4.17835714381175
30
0
41
1
10
84.8233822728922
20
-4.03934940797848
30
0
41
1
10
84.6890796035705
20
-4.01510366030413
30
0
41
1
10
84.4212924288781
20
-3.96276661999016
30
0
41
1
10
84.2876713655028
20
-3.93466286138971
30
0
41
1
10
83.8874930796213
20
-3.84468348309764
30
0
41
1
10
83.6216294865401
20
-3.77712771314259
30
0
41
1
10
83.1449933673923
20
-3.64295049444633
30
0
41
1
10
82.934071758694
20
-3.57894706589806
30
0
41
1
10
82.7232790707706
20
-3.51062401084784
30
0
0
SPLINE
5
D6
100
AcDbEntity
8
1
62
256
6
ByLayer
370
13
48
1
60
0
100
AcDbSpline
70
4
71
3
72
22
73
18
40
0
40
0
40
0
40
0
40
0.0929705816006527
40
0.0929705816006527
40
0.247411149848387
40
0.247411149848387
40
0.324631433972255
40
0.324631433972255
40
0.401851718096122
40
0.401851718096122
40
0.710732854591597
40
0.710732854591597
40
0.787953138715466
40
0.787953138715466
40
0.865173422839335
40
0.865173422839335
40
1
40
1
40
1
40
1
41
1
10
82.7232790705202
20
-3.51062401076669
30
0
41
1
10
82.4044646397693
20
-3.40728847233461
30
0
41
1
10
82.0859451178414
20
-3.29407170282974
30
0
41
1
10
81.2372237012775
20
-2.96845721462773
30
0
41
1
10
80.7064130220201
20
-2.73993123508478
30
0
41
1
10
79.9039740474489
20
-2.36418895773332
30
0
41
1
10
79.6351465137603
20
-2.23334313225209
30
0
41
1
10
79.1009452257294
20
-1.96503867708174
30
0
41
1
10
78.8348236131523
20
-1.82716139916536
30
0
41
1
10
77.5070866781978
20
-1.12259857902023
30
0
41
1
10
76.4538330939797
20
-0.510785317342425
30
0
41
1
10
75.1173574280639
20
0.261103974310203
30
0
41
1
10
74.8484097270467
20
0.416221825303921
30
0
41
1
10
74.3136512332554
20
0.722425410526739
30
0
41
1
10
74.0472734659907
20
0.873762787163628
30
0
41
1
10
73.3174422311151
20
1.28269391328939
30
0
41
1
10
72.8553165670261
20
1.53556737118058
30
0
41
1
10
72.3929873460874
20
1.77783689568778
30
0
0
SPLINE
5
D7
100
AcDbEntity
8
1
62
256
6
ByLayer
370
18
48
1
60
0
100
AcDbSpline
70
4
71
3
72
18
73
14
40
0
40
0
40
0
40
0
40
0.193819016816397
40
0.193819016816397
40
0.515775213406698
40
0.515775213406698
40
0.596264262554272
40
0.596264262554272
40
0.676753311701849
40
0.676753311701849
40
0.837731409997005
40
0.837731409997005
40
1
40
1
40
1
40
1
41
1
10
41.1757435269125
20
-4.20876226347772
30
0
41
1
10
40.8562327500383
20
-4.21123126898243
30
0
41
1
10
40.5371781684029
20
-4.20165825778165
30
0
41
1
10
39.6875610794926
20
-4.14441678799031
30
0
41
1
10
39.1566565223434
20
-4.07574165549144
30
0
41
1
10
38.4884203824221
20
-3.94931140320483
30
0
41
1
10
38.3545432685849
20
-3.92199817114047
30
0
41
1
10
38.0862267458476
20
-3.86333041771252
30
0
41
1
10
37.9516931286913
20
-3.83194588894378
30
0
41
1
10
37.5494690164454
20
-3.73236734597734
30
0
41
1
10
37.282400349089
20
-3.6586134084769
30
0
41
1
10
36.7474802178637
20
-3.49670880330987
30
0
41
1
10
36.4796473432365
20
-3.40843460571321
30
0
41
1
10
36.2121172503115
20
-3.31363828982495
30
0
0
SPLINE
5
D8
100
AcDbEntity
8
1
62
256
6
ByLayer
370
13
48
1
60
0
100
AcDbSpline
70
4
71
3
72
22
73
18
40
0
40
0
40
0
40
0
40
0.24261993271386
40
0.24261993271386
40
0.323709931337911
40
0.323709931337911
40
0.404799929961964
40
0.404799929961964
40
0.566979927210069
40
0.566979927210069
40
0.729159924458174
40
0.729159924458174
40
0.810249923082224
40
0.810249923082224
40
0.891339921706276
40
0.891339921706276
40
1
40
1
40
1
40
1
41
1
10
36.2121172527402
20
-3.31363829068556
30
0
41
1
10
35.4180374400621
20
-3.03226493224113
30
0
41
1
10
34.6266251779326
20
-2.69343076939629
30
0
41
1
10
33.5605776855402
20
-2.18131196927894
30
0
41
1
10
33.2921231766856
20
-2.04778520045255
30
0
41
1
10
32.754960846278
20
-1.77299561167391
30
0
41
1
10
32.4876041416487
20
-1.63222940617965
30
0
41
1
10
31.6877484315203
20
-1.20235852842387
30
0
41
1
10
31.1572745939694
20
-0.905950653246151
30
0
41
1
10
30.0965774925022
20
-0.302898561402458
30
0
41
1
10
29.565811713827
20
0.0028478078051251
30
0
41
1
10
28.765349932127
20
0.46129861554877
30
0
41
1
10
28.4976835961824
20
0.613865039751971
30
0
41
1
10
27.959879462616
20
0.917110123933782
30
0
41
1
10
27.6920599779102
20
1.06664594121321
30
0
41
1
10
27.06745991873
20
1.40972928262045
30
0
41
1
10
26.7112038115413
20
1.60096106859044
30
0
41
1
10
26.3554569019623
20
1.78556350713004
30
0
0
SPLINE
5
D9
100
AcDbEntity
8
1
62
256
6
ByLayer
370
18
48
1
60
0
100
AcDbSpline
70
4
71
3
72
8
73
4
40
0
40
0
40
0
40
0
40
1
40
1
40
1
40
1
41
1
10
110.455372460516
20
-4.33785270766765
30
0
41
1
10
110.435352773016
20
-4.38812748592576
30
0
41
1
10
110.415316346516
20
-4.43833118094781
30
0
41
1
10
110.395269681744
20
-4.48845633663115
30
0
0
SPLINE
5
DA
100
AcDbEntity
8
1
62
256
6
ByLayer
370
18
48
1
60
0
100
AcDbSpline
70
4
71
3
72
14
73
10
40
0
40
0
40
0
40
0
40
0.25
40
0.25
40
0.5
40
0.5
40
0.75
40
0.75
40
1
40
1
40
1
40
1
41
1
10
110.350758953003
20
1.00678684293453
30
0
41
1
10
110.346923160672
20
1.02175111119331
30
0
41
1
10
110.345660024545
20
1.03750245939844
30
0
41
1
10
110.351424639898
20
1.06757933929285
30
0
41
1
10
110.358756665759
20
1.08188831645097
30
0
41
1
10
110.380940155973
20
1.10400971528816
30
0
41
1
10
110.394982234813
20
1.11145809874472
30
0
41
1
10
110.42425295853
20
1.12060539561634
30
0
41
1
10
110.439757991989
20
1.12247572517438
30
0
41
1
10
110.455178399474
20
1.12249961017312
30
0
0
SPLINE
5
DB
100
AcDbEntity
8
1
62
256
6
ByLayer
370
18
48
1
60
0
100
AcDbSpline
70
4
71
3
72
16
73
12
40
0
40
0
40
0
40
0
40
0.158932010428719
40
0.158932010428719
40
0.317864020857439
40
0.317864020857439
40
0.635728041714878
40
0.635728041714878
40
0.953592062572317
40
0.953592062572317
40
1
40
1
40
1
40
1
41
1
10
110.472598730782
20
-4.24599192431626
30
0
41
1
10
110.204834451923
20
-4.25445790725618
30
0
41
1
10
109.937135508056
20
-4.25437303699971
30
0
41
1
10
109.40123834738
20
-4.23710541630916
30
0
41
1
10
109.133174018136
20
-4.21988624604373
30
0
41
1
10
108.333459300464
20
-4.14349431273882
30
0
41
1
10
107.804193436069
20
-4.05956958931523
30
0
41
1
10
106.746897844264
20
-3.83036980077497
30
0
41
1
10
106.218896465388
20
-3.68507557483238
30
0
41
1
10
105.611026850516
20
-3.48603276010138
30
0
41
1
10
105.533531984314
20
-3.46007047798133
30
0
41
1
10
105.455974870545
20
-3.4335106931689
30
0
0
SPLINE
5
DC
100
AcDbEntity
8
1
62
256
6
ByLayer
370
13
48
1
60
0
100
AcDbSpline
70
4
71
3
72
20
73
16
40
0
40
0
40
0
40
0
40
0.0563785049701611
40
0.0563785049701611
40
0.136009030604112
40
0.136009030604112
40
0.454531133139903
40
0.454531133139903
40
0.534161658773851
40
0.534161658773851
40
0.613792184407799
40
0.613792184407799
40
0.773053235675701
40
0.773053235675701
40
1
40
1
40
1
40
1
41
1
10
105.455974748422
20
-3.43351065134715
30
0
41
1
10
105.267924149034
20
-3.3691118705695
30
0
41
1
10
105.07950759389
20
-3.30120034960052
30
0
41
1
10
104.623758486282
20
-3.12913161277263
30
0
41
1
10
104.355154098817
20
-3.0212174909943
30
0
41
1
10
103.019273953392
20
-2.45531618989807
30
0
41
1
10
101.96762757169
20
-1.91722006420841
30
0
41
1
10
100.642785666577
20
-1.18766977808511
30
0
41
1
10
100.377300103187
20
-1.03891470111338
30
0
41
1
10
99.8446247831668
20
-0.736819091536404
30
0
41
1
10
99.5769126538631
20
-0.583265829541148
30
0
41
1
10
98.7732316939386
20
-0.119331565878411
30
0
41
1
10
98.2419927055412
20
0.190475952648001
30
0
41
1
10
96.9572288262562
20
0.930123694883861
30
0
41
1
10
96.2052609449995
20
1.35512502827635
30
0
41
1
10
95.4472084403005
20
1.75493132500566
30
0
0
SPLINE
5
DD
100
AcDbEntity
8
1
62
256
6
ByLayer
370
18
48
1
60
0
100
AcDbSpline
70
4
71
3
72
16
73
12
40
0
40
0
40
0
40
0
40
0.31190097941752
40
0.31190097941752
40
0.653898344924997
40
0.653898344924997
40
0.824897027678735
40
0.824897027678735
40
0.995895710432472
40
0.995895710432472
40
1
40
1
40
1
40
1
41
1
10
64.0630288174472
20
-4.22363347779853
30
0
41
1
10
63.5778537171954
20
-4.2230776991008
30
0
41
1
10
63.0949052198839
20
-4.19468995914724
30
0
41
1
10
62.0818434505802
20
-4.07851171507548
30
0
41
1
10
61.5518772967752
20
-3.98509559754572
30
0
41
1
10
60.7517673441237
20
-3.79794915937669
30
0
41
1
10
60.4840364537819
20
-3.72763338163119
30
0
41
1
10
59.9469338268995
20
-3.57169182594762
30
0
41
1
10
59.678597922918
20
-3.4864195184044
30
0
41
1
10
59.4035423262044
20
-3.3920508468953
30
0
41
1
10
59.3970955323141
20
-3.38983505547449
30
0
41
1
10
59.3906490471559
20
-3.38761541490248
30
0
0
SPLINE
5
DE
100
AcDbEntity
8
1
62
256
6
ByLayer
370
13
48
1
60
0
100
AcDbSpline
70
4
71
3
72
22
73
18
40
0
40
0
40
0
40
0
40
0.155983439956265
40
0.155983439956265
40
0.234922502784155
40
0.234922502784155
40
0.313861565612047
40
0.313861565612047
40
0.629617816923607
40
0.629617816923607
40
0.708556879751498
40
0.708556879751498
40
0.787495942579389
40
0.787495942579389
40
0.945374068235169
40
0.945374068235169
40
1
40
1
40
1
40
1
41
1
10
59.3906490479429
20
-3.38761541517349
30
0
41
1
10
58.8599304754971
20
-3.20487948285688
30
0
41
1
10
58.3313043979717
20
-2.99605514313305
30
0
41
1
10
57.5335835277202
20
-2.64855615238028
30
0
41
1
10
57.2647716335216
20
-2.52585168844396
30
0
41
1
10
56.7286428924545
20
-2.27137748569066
30
0
41
1
10
56.4615414481879
20
-2.13984071466936
30
0
41
1
10
55.1288631140969
20
-1.46391085406401
30
0
41
1
10
54.0723045535337
20
-0.864098756787399
30
0
41
1
10
52.7318142366098
20
-0.0935156131173187
30
0
41
1
10
52.4630272907542
20
0.061582138433522
30
0
41
1
10
51.9287296399443
20
0.36888572344634
30
0
41
1
10
51.6624635376046
20
0.521518406624011
30
0
41
1
10
50.865272151875
20
0.974613359187799
30
0
41
1
10
50.3358576625349
20
1.2700403290325
30
0
41
1
10
49.6219502505782
20
1.652016872909
30
0
41
1
10
49.4383029912573
20
1.74877755088784
30
0
41
1
10
49.2544016880691
20
1.84390611506458
30
0
0
SPLINE
5
DF
100
AcDbEntity
8
1
62
256
6
ByLayer
370
18
48
1
60
0
100
AcDbSpline
70
4
71
3
72
14
73
10
40
0
40
0
40
0
40
0
40
0.0458018529086832
40
0.0458018529086832
40
0.724694583711428
40
0.724694583711428
40
0.894417766412114
40
0.894417766412114
40
1
40
1
40
1
40
1
41
1
10
18.0485195352194
20
-4.19472817953076
30
0
41
1
10
17.9761103367196
20
-4.19455962991862
30
0
41
1
10
17.9037711378512
20
-4.1937748930084
30
0
41
1
10
16.7611754333401
20
-4.17160579869017
30
0
41
1
10
15.7058372970008
20
-4.01694041237994
30
0
41
1
10
14.3740837493159
20
-3.67176501881056
30
0
41
1
10
14.1071384378852
20
-3.59516565600063
30
0
41
1
10
13.6725594523531
20
-3.45895665449601
30
0
41
1
10
13.505269796631
20
-3.40376920029408
30
0
41
1
10
13.3381612152007
20
-3.34604739904731
30
0
0
SPLINE
5
E0
100
AcDbEntity
8
1
62
256
6
ByLayer
370
13
48
1
60
0
100
AcDbSpline
70
4
71
3
72
12
73
8
40
0
40
0
40
0
40
0
40
0.0592537014501829
40
0.0592537014501829
40
0.372835800966788
40
0.372835800966788
40
1
40
1
40
1
40
1
41
1
10
13.3381612168067
20
-3.34604739960199
30
0
41
1
10
13.2366431610677
20
-3.3109815461043
30
0
41
1
10
13.1351919313904
20
-3.27498038349799
30
0
41
1
10
12.4983979945545
20
-3.04315530848868
30
0
41
1
10
11.9672067807766
20
-2.82390688361792
30
0
41
1
10
10.3775568267089
20
-2.10731626190508
30
0
41
1
10
9.32350533084423
20
-1.55093664897765
30
0
41
1
10
8.25026633255024
20
-0.952670304598882
30
0
0
SPLINE
5
E1
100
AcDbEntity
8
1
62
256
6
ByLayer
370
18
48
1
60
0
100
AcDbSpline
70
4
71
3
72
18
73
14
40
0
40
0
40
0
40
0
40
0.249999999999993
40
0.249999999999993
40
0.374999999999993
40
0.374999999999993
40
0.499999999999994
40
0.499999999999994
40
0.749999999999994
40
0.749999999999994
40
0.874999999999997
40
0.874999999999997
40
1
40
1
40
1
40
1
41
1
10
110.398363027044
20
-4.24509296478479
30
0
41
1
10
110.308165948612
20
-4.23133809770039
30
0
41
1
10
110.224685367286
20
-4.19843901853846
30
0
41
1
10
110.110483752176
20
-4.11768191598534
30
0
41
1
10
110.074196340194
20
-4.08534577728886
30
0
41
1
10
110.006957410254
20
-4.01107731765688
30
0
41
1
10
109.975807577416
20
-3.96904330950616
30
0
41
1
10
109.889810184184
20
-3.82815622313453
30
0
41
1
10
109.842349575202
20
-3.71464734900886
30
0
41
1
10
109.787192974067
20
-3.51257177915969
30
0
41
1
10
109.771501733463
20
-3.43966304476166
30
0
41
1
10
109.746330889603
20
-3.28583330819416
30
0
41
1
10
109.736743956616
20
-3.20459799059932
30
0
41
1
10
109.730173093261
20
-3.11901689210941
30
0
0
SPLINE
5
E2
100
AcDbEntity
8
1
62
256
6
ByLayer
370
18
48
1
60
0
100
AcDbSpline
70
4
71
3
72
8
73
4
40
0
40
0
40
0
40
0
40
1
40
1
40
1
40
1
41
1
10
111.832623333607
20
-1.13867323161136
30
0
41
1
10
111.886163666891
20
-0.81256181994641
30
0
41
1
10
111.933609747951
20
-0.486492702228333
30
0
41
1
10
111.974920970772
20
-0.160466160261734
30
0
0
SPLINE
5
E3
100
AcDbEntity
8
1
62
256
6
ByLayer
370
13
48
1
60
0
100
AcDbSpline
70
4
71
3
72
20
73
16
40
0
40
0
40
0
40
0
40
0.125
40
0.125
40
0.1875
40
0.1875
40
0.25
40
0.25
40
0.5
40
0.5
40
0.625
40
0.625
40
0.75
40
0.75
40
1
40
1
40
1
40
1
41
1
10
8.25026633255027
20
-0.952670304598911
30
0
41
1
10
8.25027183137664
20
-0.781253994858446
30
0
41
1
10
8.25027431165381
20
-0.608572991397921
30
0
41
1
10
8.25027482655869
20
-0.347692058272344
30
0
41
1
10
8.25027446246384
20
-0.260420909557638
30
0
41
1
10
8.25027287125482
20
-0.0852521151978465
30
0
41
1
10
8.25027163877684
20
0.0029092884868192
30
0
41
1
10
8.25026390602514
20
0.441480461302234
30
0
41
1
10
8.25025288981584
20
0.78488971464887
30
0
41
1
10
8.25023894932525
20
1.28903463259326
30
0
41
1
10
8.25023469963338
20
1.45596974949305
30
0
41
1
10
8.25022856303983
20
1.77968833124964
30
0
41
1
10
8.2502266537831
20
1.9375655325895
30
0
41
1
10
8.25022602234029
20
2.39398002670146
30
0
41
1
10
8.2502324908844
20
2.67081923876603
30
0
41
1
10
8.25024741626717
20
2.920776152234
30
0
0
SPLINE
5
E4
100
AcDbEntity
8
1
62
256
6
ByLayer
370
18
48
1
60
0
100
AcDbSpline
70
4
71
3
72
8
73
4
40
0
40
0
40
0
40
0
40
1
40
1
40
1
40
1
41
1
10
110.544319688988
20
4.37935817318723
30
0
41
1
10
110.487692598967
20
4.43445352312997
30
0
41
1
10
110.438118944781
20
4.47112355439234
30
0
41
1
10
110.395269681744
20
4.48845633663132
30
0
0
SPLINE
5
E5
100
AcDbEntity
8
1
62
256
6
ByLayer
370
18
48
1
60
0
100
AcDbSpline
70
4
71
3
72
108
73
104
40
0
40
0
40
0
40
0
40
0.0259835159882774
40
0.0259835159882774
40
0.0389752739824158
40
0.0389752739824158
40
0.0519670319765543
40
0.0519670319765543
40
0.0779505479648312
40
0.0779505479648312
40
0.103934063953108
40
0.103934063953108
40
0.116925821947247
40
0.116925821947247
40
0.129917579941385
40
0.129917579941385
40
0.155901095929662
40
0.155901095929662
40
0.181884611917939
40
0.181884611917939
40
0.207868127906216
40
0.207868127906216
40
0.233851643894493
40
0.233851643894493
40
0.25983515988277
40
0.25983515988277
40
0.285818675871047
40
0.285818675871047
40
0.298810433865185
40
0.298810433865185
40
0.311802191859323
40
0.311802191859323
40
0.3377857078476
40
0.3377857078476
40
0.363769223835877
40
0.363769223835877
40
0.376760981830016
40
0.376760981830016
40
0.389752739824154
40
0.389752739824154
40
0.415736255812431
40
0.415736255812431
40
0.441719771800707
40
0.441719771800707
40
0.467703287788983
40
0.467703287788983
40
0.480695045783122
40
0.480695045783122
40
0.493686803777261
40
0.493686803777261
40
0.519670319765537
40
0.519670319765537
40
0.532662077759675
40
0.532662077759675
40
0.545653835753813
40
0.545653835753813
40
0.571637351742089
40
0.571637351742089
40
0.597620867730365
40
0.597620867730365
40
0.610612625724503
40
0.610612625724503
40
0.623604383718642
40
0.623604383718642
40
0.63659614171278
40
0.63659614171278
40
0.649587899706918
40
0.649587899706918
40
0.675571415695195
40
0.675571415695195
40
0.688563173689333
40
0.688563173689333
40
0.701554931683472
40
0.701554931683472
40
0.72753844767175
40
0.72753844767175
40
0.753521963660029
40
0.753521963660029
40
0.779505479648307
40
0.779505479648307
40
0.792497237642446
40
0.792497237642446
40
0.805488995636585
40
0.805488995636585
40
0.831472511624863
40
0.831472511624863
40
0.857456027613141
40
0.857456027613141
40
0.870447785607281
40
0.870447785607281
40
0.88343954360142
40
0.88343954360142
40
0.909423059589699
40
0.909423059589699
40
0.935406575577979
40
0.935406575577979
40
0.948398333572118
40
0.948398333572118
40
0.961390091566257
40
0.961390091566257
40
0.987373607554535
40
0.987373607554535
40
1
40
1
40
1
40
1
41
1
10
9.37845223803896
20
2.32928333949047
30
0
41
1
10
9.64404914820705
20
2.46808619841394
30
0
41
1
10
9.90913746693658
20
2.60038672889098
30
0
41
1
10
10.3063226307261
20
2.78931196032391
30
0
41
1
10
10.4385907645865
20
2.85077526590601
30
0
41
1
10
10.7022634363142
20
2.97146632243346
30
0
41
1
10
10.8334978615176
20
3.0308843493608
30
0
41
1
10
11.2280164127684
20
3.20309144359615
30
0
41
1
10
11.4913281411188
20
3.31093183194327
30
0
41
1
10
12.0165572213017
20
3.51502775044273
30
0
41
1
10
12.278949293288
20
3.61067497429625
30
0
41
1
10
12.6739095203052
20
3.74288076380688
30
0
41
1
10
12.8057381287294
20
3.78513370980403
30
0
41
1
10
13.0695541352049
20
3.86616207913588
30
0
41
1
10
13.2012490361818
20
3.90517531975823
30
0
41
1
10
13.5972346174665
20
4.01631051618335
30
0
41
1
10
13.8629270606396
20
4.08224784249532
30
0
41
1
10
14.3956945112824
20
4.19909185509428
30
0
41
1
10
14.660535613089
20
4.24927451456875
30
0
41
1
10
15.1894126932622
20
4.33202972837853
30
0
41
1
10
15.4536408780963
20
4.36474924748617
30
0
41
1
10
15.9787417466821
20
4.41378998622531
30
0
41
1
10
16.2417770540357
20
4.4295111415187
30
0
41
1
10
16.7674204995067
20
4.44405718429601
30
0
41
1
10
17.0295767356724
20
4.44278326949916
30
0
41
1
10
17.5555487370988
20
4.42300392108066
30
0
41
1
10
17.8196070305073
20
4.40468360666236
30
0
41
1
10
18.2156441783777
20
4.36398934413072
30
0
41
1
10
18.3475492802296
20
4.34814852875923
30
0
41
1
10
18.6125572576694
20
4.3123599129047
30
0
41
1
10
18.7454760652049
20
4.29236664177571
30
0
41
1
10
19.145173890594
20
4.22594668121036
30
0
41
1
10
19.4103899992524
20
4.17300638173316
30
0
41
1
10
19.9389118791534
20
4.05167193405995
30
0
41
1
10
20.202820784453
20
3.98351122427346
30
0
41
1
10
20.5976505883478
20
3.86991061754898
30
0
41
1
10
20.7286923001762
20
3.82980471961085
30
0
41
1
10
20.991146856389
20
3.74635142743782
30
0
41
1
10
21.1224767358378
20
3.70295053595837
30
0
41
1
10
21.5166904121714
20
3.5677395096059
30
0
41
1
10
21.7791791336098
20
3.47031786603114
30
0
41
1
10
22.3045548805334
20
3.26173203352985
30
0
41
1
10
22.5680117781553
20
3.15121979806184
30
0
41
1
10
23.0965058356457
20
2.91781531590087
30
0
41
1
10
23.3605438613483
20
2.79355650983115
30
0
41
1
10
23.7596866039799
20
2.60006685313795
30
0
41
1
10
23.893103354729
20
2.53434405161815
30
0
41
1
10
24.1586829487068
20
2.40052480977425
30
0
41
1
10
24.2910430268713
20
2.33231492019198
30
0
41
1
10
24.6874215200265
20
2.12464910244424
30
0
41
1
10
24.9509965538104
20
1.9825457547943
30
0
41
1
10
25.3460172037331
20
1.76503880092494
30
0
41
1
10
25.4776848376462
20
1.69189490299371
30
0
41
1
10
25.7399697983195
20
1.54268966653635
30
0
41
1
10
25.8709939872601
20
1.46725767965381
30
0
41
1
10
26.264744189772
20
1.24013147566717
30
0
41
1
10
26.5276881542163
20
1.08690653715027
30
0
41
1
10
27.0528981626952
20
0.774267088268147
30
0
41
1
10
27.315788294049
20
0.615849608702575
30
0
41
1
10
27.7119000971159
20
0.377335067235578
30
0
41
1
10
27.8441707640768
20
0.297579268728669
30
0
41
1
10
28.1089682158693
20
0.137186864571277
30
0
41
1
10
28.2411229251492
20
0.0558978064418625
30
0
41
1
10
28.5066667932851
20
-0.105893543052133
30
0
41
1
10
28.6400018611284
20
-0.186740246500818
30
0
41
1
10
28.9058523825314
20
-0.347373953070388
30
0
41
1
10
29.0384833991222
20
-0.427410512511358
30
0
41
1
10
29.4351957938584
20
-0.667196211045194
30
0
41
1
10
29.6984590968622
20
-0.825975665906725
30
0
41
1
10
30.0933738853818
20
-1.05954993739968
30
0
41
1
10
30.2249710588375
20
-1.13672122868641
30
0
41
1
10
30.4878930974662
20
-1.29001005349414
30
0
41
1
10
30.6189895299572
20
-1.36649258116813
30
0
41
1
10
31.0121318669511
20
-1.59389973874784
30
0
41
1
10
31.2750361068552
20
-1.74123032333387
30
0
41
1
10
31.8005409934108
20
-2.03040325850017
30
0
41
1
10
32.063066972273
20
-2.17230886572733
30
0
41
1
10
32.5905371387045
20
-2.44640366875075
30
0
41
1
10
32.8557622219224
20
-2.57825297850775
30
0
41
1
10
33.2532822541454
20
-2.7716823246536
30
0
41
1
10
33.3863669647733
20
-2.83490580442134
30
0
41
1
10
33.6521072913599
20
-2.95766241203498
30
0
41
1
10
33.7848445513894
20
-3.01727214822321
30
0
41
1
10
34.1821411334401
20
-3.1915652658096
30
0
41
1
10
34.4453926036141
20
-3.30212166930858
30
0
41
1
10
34.9715911785193
20
-3.50866625920529
30
0
41
1
10
35.2347446396272
20
-3.60454364892107
30
0
41
1
10
35.6284633100544
20
-3.73847206061731
30
0
41
1
10
35.7592248924065
20
-3.78172084445441
30
0
41
1
10
36.0215259962122
20
-3.86385952823363
30
0
41
1
10
36.152855982889
20
-3.90295314945186
30
0
41
1
10
36.5471810875493
20
-4.01453315128725
30
0
41
1
10
36.8098415961549
20
-4.08180244038462
30
0
41
1
10
37.3366598536879
20
-4.20037454049665
30
0
41
1
10
37.6012365594231
20
-4.25147682384446
30
0
41
1
10
37.9995382445372
20
-4.31592019564184
30
0
41
1
10
38.1324269040201
20
-4.33552148479862
30
0
41
1
10
38.3979115705199
20
-4.37020683481217
30
0
41
1
10
38.530522752383
20
-4.38528394780568
30
0
41
1
10
38.9279118302384
20
-4.423935701066
30
0
41
1
10
39.1917311408902
20
-4.4410713601861
30
0
41
1
10
39.582496854331
20
-4.45369160680423
30
0
41
1
10
39.7102372960015
20
-4.45576647788519
30
0
41
1
10
39.8379466128663
20
-4.45581120882983
30
0
0
SPLINE
5
E6
100
AcDbEntity
8
1
62
256
6
ByLayer
370
18
48
1
60
0
100
AcDbSpline
70
4
71
3
72
114
73
110
40
0
40
0
40
0
40
0
40
0.0110909404655573
40
0.0110909404655573
40
0.0366455071602482
40
0.0366455071602482
40
0.0622000738549391
40
0.0622000738549391
40
0.0877546405496301
40
0.0877546405496301
40
0.100531923896976
40
0.100531923896976
40
0.113309207244322
40
0.113309207244322
40
0.138863773939014
40
0.138863773939014
40
0.164418340633706
40
0.164418340633706
40
0.177195623981052
40
0.177195623981052
40
0.189972907328399
40
0.189972907328399
40
0.21552747402309
40
0.21552747402309
40
0.241082040717782
40
0.241082040717782
40
0.253859324065128
40
0.253859324065128
40
0.266636607412473
40
0.266636607412473
40
0.292191174107165
40
0.292191174107165
40
0.317745740801856
40
0.317745740801856
40
0.343300307496547
40
0.343300307496547
40
0.368854874191238
40
0.368854874191238
40
0.381632157538583
40
0.381632157538583
40
0.394409440885928
40
0.394409440885928
40
0.419964007580619
40
0.419964007580619
40
0.432741290927965
40
0.432741290927965
40
0.445518574275312
40
0.445518574275312
40
0.471073140970004
40
0.471073140970004
40
0.496627707664697
40
0.496627707664697
40
0.509404991012043
40
0.509404991012043
40
0.52218227435939
40
0.52218227435939
40
0.534959557706736
40
0.534959557706736
40
0.547736841054082
40
0.547736841054082
40
0.573291407748775
40
0.573291407748775
40
0.586068691096122
40
0.586068691096122
40
0.598845974443469
40
0.598845974443469
40
0.624400541138163
40
0.624400541138163
40
0.649955107832856
40
0.649955107832856
40
0.662732391180204
40
0.662732391180204
40
0.675509674527552
40
0.675509674527552
40
0.688286957874899
40
0.688286957874899
40
0.701064241222247
40
0.701064241222247
40
0.726618807916941
40
0.726618807916941
40
0.739396091264288
40
0.739396091264288
40
0.752173374611634
40
0.752173374611634
40
0.777727941306328
40
0.777727941306328
40
0.803282508001021
40
0.803282508001021
40
0.828837074695713
40
0.828837074695713
40
0.84161435804306
40
0.84161435804306
40
0.854391641390406
40
0.854391641390406
40
0.879946208085099
40
0.879946208085099
40
0.905500774779791
40
0.905500774779791
40
0.918278058127138
40
0.918278058127138
40
0.931055341474484
40
0.931055341474484
40
0.956609908169179
40
0.956609908169179
40
0.982164474863872
40
0.982164474863872
40
0.994941758211221
40
0.994941758211221
40
1
40
1
40
1
40
1
41
1
10
54.9212730403107
20
2.09974692687143
30
0
41
1
10
55.035154882457
20
2.16092189073086
30
0
41
1
10
55.1490700635218
20
2.22129208851632
30
0
41
1
10
55.5255481976799
20
2.41814343100333
30
0
41
1
10
55.7872573094945
20
2.55254236671038
30
0
41
1
10
56.313678031314
20
2.80900581439025
30
0
41
1
10
56.5775671567902
20
2.93225253300037
30
0
41
1
10
57.1064724815416
20
3.16883173894189
30
0
41
1
10
57.3729716877764
20
3.28156207705757
30
0
41
1
10
57.7708748476535
20
3.43942181479835
30
0
41
1
10
57.9033364321597
20
3.49018898447969
30
0
41
1
10
58.1668844180335
20
3.58908504612123
30
0
41
1
10
58.2984791407517
20
3.63666244559792
30
0
41
1
10
58.6933732752252
20
3.77328050065734
30
0
41
1
10
58.9564358780376
20
3.85661926250503
30
0
41
1
10
59.4807604568908
20
4.00911024647314
30
0
41
1
10
59.7426694332775
20
4.07766580432582
30
0
41
1
10
60.1363990068897
20
4.16824427573596
30
0
41
1
10
60.26773024377
20
4.19644066512407
30
0
41
1
10
60.5303085571011
20
4.24896222310244
30
0
41
1
10
60.6612031127996
20
4.27345259515783
30
0
41
1
10
61.0553589374104
20
4.34018546999758
30
0
41
1
10
61.3194539945294
20
4.37616024351212
30
0
41
1
10
61.8482560088723
20
4.4316163553151
30
0
41
1
10
62.1142132995764
20
4.45085801421718
30
0
41
1
10
62.5121099261102
20
4.46627123003992
30
0
41
1
10
62.6445474791562
20
4.46920956613974
30
0
41
1
10
62.9088474505593
20
4.47075306433109
30
0
41
1
10
63.0404531968059
20
4.46934637567702
30
0
41
1
10
63.434843506393
20
4.45856815973104
30
0
41
1
10
63.6979886632348
20
4.44282747940639
30
0
41
1
10
64.2227509099558
20
4.39431170353762
30
0
41
1
10
64.4843580214853
20
4.361392913847
30
0
41
1
10
65.0088464451946
20
4.27923101425245
30
0
41
1
10
65.2719910118487
20
4.23028491092794
30
0
41
1
10
65.7966305011928
20
4.11442893683903
30
0
41
1
10
66.0602340532716
20
4.04871545334422
30
0
41
1
10
66.457067171729
20
3.9382008038657
30
0
41
1
10
66.5894335876044
20
3.89923971799982
30
0
41
1
10
66.8546504218727
20
3.81721647713889
30
0
41
1
10
66.9875954640909
20
3.77413944101537
30
0
41
1
10
67.3852782190544
20
3.64014781864844
30
0
41
1
10
67.6498797075853
20
3.54449081463952
30
0
41
1
10
68.0448270632999
20
3.3904910961439
30
0
41
1
10
68.1758799888532
20
3.33708485747235
30
0
41
1
10
68.4384752282522
20
3.2280082411034
30
0
41
1
10
68.56980950329
20
3.17211817930681
30
0
41
1
10
68.963702519314
20
3.00020547411862
30
0
41
1
10
69.2254873636308
20
2.879110854819
30
0
41
1
10
69.7494581582828
20
2.62636663819458
30
0
41
1
10
70.0120453193509
20
2.49529196738629
30
0
41
1
10
70.4064765153568
20
2.29117076325659
30
0
41
1
10
70.5377170475175
20
2.22139421634151
30
0
41
1
10
70.8007602426428
20
2.07981168182357
30
0
41
1
10
70.9326354526408
20
2.00812429009389
30
0
41
1
10
71.1970458192346
20
1.86290665610542
30
0
41
1
10
71.3295745858388
20
1.78937072022887
30
0
41
1
10
71.5948411583393
20
1.63970044989372
30
0
41
1
10
71.7277875572558
20
1.56355832135253
30
0
41
1
10
72.1253241245533
20
1.33378029706105
30
0
41
1
10
72.3895460734946
20
1.1788936884652
30
0
41
1
10
72.7849471198807
20
0.944479158075183
30
0
41
1
10
72.916536204484
20
0.865901462864372
30
0
41
1
10
73.1787166344279
20
0.706913418506844
30
0
41
1
10
73.3098605323949
20
0.627416663132379
30
0
41
1
10
73.7034282998548
20
0.38888333272385
30
0
41
1
10
73.9657939526644
20
0.229483472777161
30
0
41
1
10
74.4895563714964
20
-0.0916431414341332
30
0
41
1
10
74.7516431739823
20
-0.252223581511714
30
0
41
1
10
75.1460407548045
20
-0.491515466477125
30
0
41
1
10
75.2777103775992
20
-0.571028207166904
30
0
41
1
10
75.5408736327522
20
-0.730531804086837
30
0
41
1
10
75.6722783240301
20
-0.810673143975976
30
0
41
1
10
75.9362668295549
20
-0.969163487630539
30
0
41
1
10
76.0686529089066
20
-1.04784365210153
30
0
41
1
10
76.3340285992471
20
-1.20437702955772
30
0
41
1
10
76.4671130042865
20
-1.28251173703387
30
0
41
1
10
76.8648219540735
20
-1.51481962702459
30
0
41
1
10
77.1286402154931
20
-1.66655301468336
30
0
41
1
10
77.5239930579543
20
-1.88712006515996
30
0
41
1
10
77.6556542917181
20
-1.95957234659457
30
0
41
1
10
77.9185390187601
20
-2.10264304423347
30
0
41
1
10
78.0494164069697
20
-2.17376591004262
30
0
41
1
10
78.4424099125806
20
-2.382837881776
30
0
41
1
10
78.7049367159551
20
-2.51651352528449
30
0
41
1
10
79.2289441101861
20
-2.7754997364718
30
0
41
1
10
79.4906197459832
20
-2.90046699633754
30
0
41
1
10
80.0159777870867
20
-3.13788330479105
30
0
41
1
10
80.2796800858586
20
-3.25040007753478
30
0
41
1
10
80.6748398710877
20
-3.41190602844844
30
0
41
1
10
80.8069762796605
20
-3.46396940493517
30
0
41
1
10
81.0720346275825
20
-3.5646249780533
30
0
41
1
10
81.2052013871956
20
-3.61325609976677
30
0
41
1
10
81.6034265190184
20
-3.75381534933695
30
0
41
1
10
81.8670966376637
20
-3.84048328011579
30
0
41
1
10
82.3938403440237
20
-3.99727085429072
30
0
41
1
10
82.6572032240658
20
-4.06732277707658
30
0
41
1
10
83.0501637108916
20
-4.16145421474735
30
0
41
1
10
83.1808671946377
20
-4.19092528670268
30
0
41
1
10
83.4428135742841
20
-4.24542573803936
30
0
41
1
10
83.573912529276
20
-4.27055505583269
30
0
41
1
10
83.9672449955203
20
-4.33982194605619
30
0
41
1
10
84.2289140973573
20
-4.37805973586885
30
0
41
1
10
84.7536347518478
20
-4.43738260395878
30
0
41
1
10
85.0169702276993
20
-4.45847217433732
30
0
41
1
10
85.4129155433017
20
-4.47727259993863
30
0
41
1
10
85.5446662725591
20
-4.48141849736837
30
0
41
1
10
85.7293060753542
20
-4.48408256245381
30
0
41
1
10
85.7817695655425
20
-4.48449099436579
30
0
41
1
10
85.8342877230708
20
-4.48455359082269
30
0
0
SPLINE
5
E7
100
AcDbEntity
8
1
62
256
6
ByLayer
370
18
48
1
60
0
100
AcDbSpline
70
4
71
3
72
38
73
34
40
0
40
0
40
0
40
0
40
0.0154250616840932
40
0.0154250616840932
40
0.0974729732104179
40
0.0974729732104179
40
0.179520884736744
40
0.179520884736744
40
0.26156879626307
40
0.26156879626307
40
0.343616707789394
40
0.343616707789394
40
0.42566461931572
40
0.42566461931572
40
0.466688575078879
40
0.466688575078879
40
0.507712530842039
40
0.507712530842039
40
0.589760442368358
40
0.589760442368358
40
0.671808353894678
40
0.671808353894678
40
0.712832309657841
40
0.712832309657841
40
0.753856265421004
40
0.753856265421004
40
0.835904176947337
40
0.835904176947337
40
0.917952088473668
40
0.917952088473668
40
0.958976044236835
40
0.958976044236835
40
1
40
1
40
1
40
1
41
1
10
100.926642282916
20
2.11273398559712
30
0
41
1
10
100.976263214047
20
2.13957119747508
30
0
41
1
10
101.025865684164
20
2.16622561694399
30
0
41
1
10
101.339177853776
20
2.3335392582317
30
0
41
1
10
101.601646162771
20
2.47033112485516
30
0
41
1
10
102.125729626714
20
2.73345748351423
30
0
41
1
10
102.387819813165
20
2.85918552443098
30
0
41
1
10
102.911815893724
20
3.09952702962104
30
0
41
1
10
103.172791940921
20
3.21519517935465
30
0
41
1
10
103.697450532455
20
3.4318396920508
30
0
41
1
10
103.960201026995
20
3.53395747208154
30
0
41
1
10
104.486526507493
20
3.72550242439544
30
0
41
1
10
104.750783367641
20
3.8142327274457
30
0
41
1
10
105.149306934882
20
3.93621962995502
30
0
41
1
10
105.282069076673
20
3.9748778533411
30
0
41
1
10
105.545980303498
20
4.04877968542098
30
0
41
1
10
105.677762160188
20
4.08359769995721
30
0
41
1
10
106.072993899097
20
4.18154180792902
30
0
41
1
10
106.336049715799
20
4.23842248309069
30
0
41
1
10
106.860032942257
20
4.33623521859195
30
0
41
1
10
107.121622726986
20
4.37675054281118
30
0
41
1
10
107.514576678868
20
4.42468625580872
30
0
41
1
10
107.645608406755
20
4.43855226229095
30
0
41
1
10
107.90744874562
20
4.46211849836024
30
0
41
1
10
108.037943585178
20
4.47186387057721
30
0
41
1
10
108.430807086179
20
4.49440036723649
30
0
41
1
10
108.69384322373
20
4.50078352967699
30
0
41
1
10
109.220146738014
20
4.49619511719166
30
0
41
1
10
109.483848626594
20
4.48510098935171
30
0
41
1
10
109.882018389895
20
4.45527705830588
30
0
41
1
10
110.014909534823
20
4.44315681343173
30
0
41
1
10
110.280086818285
20
4.41459420856444
30
0
41
1
10
110.412207419533
20
4.39804654023698
30
0
41
1
10
110.544319688988
20
4.3793581731872
30
0
0
SPLINE
5
E8
100
AcDbEntity
8
1
62
256
6
ByLayer
370
13
48
1
60
0
100
AcDbSpline
70
4
71
3
72
10
73
6
40
0
40
0
40
0
40
0
40
0.5
40
0.5
40
1
40
1
40
1
40
1
41
1
10
8.1231715517722
20
-0.918037983306078
30
0
41
1
10
8.14262142058033
20
-0.921989537997177
30
0
41
1
10
8.16357283681981
20
-0.927011240419972
30
0
41
1
10
8.20624258057694
20
-0.938633676672737
30
0
41
1
10
8.2280306704524
20
-0.945231307842363
30
0
41
1
10
8.25026633255027
20
-0.952670304598911
30
0
0
SPLINE
5
E9
100
AcDbEntity
8
1
62
256
6
ByLayer
370
18
48
1
60
0
100
AcDbSpline
70
4
71
3
72
8
73
4
40
0
40
0
40
0
40
0
40
1
40
1
40
1
40
1
41
1
10
110.395269681744
20
4.48845633663117
30
0
41
1
10
110.219890747145
20
4.49604567541641
30
0
41
1
10
110.044452942677
20
4.49975468127019
30
0
41
1
10
109.868855134832
20
4.4995780247385
30
0
0
SPLINE
5
EA
100
AcDbEntity
8
1
62
256
6
ByLayer
370
18
48
1
60
0
100
AcDbSpline
70
4
71
3
72
44
73
40
40
0
40
0
40
0
40
0
40
0.0474302052866138
40
0.0474302052866138
40
0.110335073782862
40
0.110335073782862
40
0.141787508030987
40
0.141787508030987
40
0.173239942279112
40
0.173239942279112
40
0.299049679271611
40
0.299049679271611
40
0.330502113519735
40
0.330502113519735
40
0.36195454776786
40
0.36195454776786
40
0.424859416264107
40
0.424859416264107
40
0.487764284760354
40
0.487764284760354
40
0.519216719008479
40
0.519216719008479
40
0.550669153256603
40
0.550669153256603
40
0.676478890249101
40
0.676478890249101
40
0.707931324497226
40
0.707931324497226
40
0.739383758745351
40
0.739383758745351
40
0.802288627241603
40
0.802288627241603
40
0.865193495737855
40
0.865193495737855
40
0.896645929985981
40
0.896645929985981
40
0.928098364234106
40
0.928098364234106
40
1
40
1
40
1
40
1
41
1
10
89.2503108792068
20
-4.25215171168534
30
0
41
1
10
88.8504032260593
20
-4.33012107882163
30
0
41
1
10
88.4515490988205
20
-4.38883304318551
30
0
41
1
10
87.5228052613289
20
-4.47955445447533
30
0
41
1
10
86.9926749906695
20
-4.4966083081278
30
0
41
1
10
86.19130086684
20
-4.4683530791331
30
0
41
1
10
85.9223184329916
20
-4.4498511434185
30
0
41
1
10
85.3872402920773
20
-4.39525909214487
30
0
41
1
10
85.120824453489
20
-4.35921451004592
30
0
41
1
10
83.7920425337431
20
-4.13692925944741
30
0
41
1
10
82.7397077330407
20
-3.82454724938898
30
0
41
1
10
81.403513454341
20
-3.29056728816482
30
0
41
1
10
81.1344517962492
20
-3.17620042750269
30
0
41
1
10
80.5994143504242
20
-2.93639095379908
30
0
41
1
10
80.3329924532404
20
-2.81086324554505
30
0
41
1
10
79.5356885502407
20
-2.41939866200264
30
0
41
1
10
79.0066582463365
20
-2.13874502226489
30
0
41
1
10
77.9472683775653
20
-1.54755376621668
30
0
41
1
10
77.4168330554489
20
-1.23711841445464
30
0
41
1
10
76.6148793737032
20
-0.756871122839954
30
0
41
1
10
76.3457924827255
20
-0.593817917237203
30
0
41
1
10
75.8107469801607
20
-0.26794711236559
30
0
41
1
10
75.5442751285073
20
-0.104884464266348
30
0
41
1
10
74.2151468366961
20
0.707785210003379
30
0
41
1
10
73.162384673748
20
1.34981072242553
30
0
41
1
10
71.8254656056953
20
2.08625535529058
30
0
41
1
10
71.5563123386063
20
2.23059230167087
30
0
41
1
10
71.0212286102439
20
2.50791836347801
30
0
41
1
10
70.7547462857744
20
2.64124252342555
30
0
41
1
10
69.9572582282329
20
3.02388924961215
30
0
41
1
10
69.4281087865197
20
3.25575297874695
30
0
41
1
10
68.3681469739543
20
3.66563336722123
30
0
41
1
10
67.8374875314154
20
3.84378894114119
30
0
41
1
10
67.0349913035881
20
4.06467602703151
30
0
41
1
10
66.7657873388287
20
4.1307347762079
30
0
41
1
10
66.230713311407
20
4.24516668328573
30
0
41
1
10
65.9642136879195
20
4.29374139234773
30
0
41
1
10
65.0905543209441
20
4.42488363687818
30
0
41
1
10
64.4861294468373
20
4.4708629880927
30
0
41
1
10
63.8799455056115
20
4.47084508555318
30
0
0
SPLINE
5
EB
100
AcDbEntity
8
1
62
256
6
ByLayer
370
18
48
1
60
0
100
AcDbSpline
70
4
71
3
72
44
73
40
40
0
40
0
40
0
40
0
40
0.061449356418965
40
0.061449356418965
40
0.092929558002092
40
0.092929558002092
40
0.12440975958522
40
0.12440975958522
40
0.25033056591773
40
0.25033056591773
40
0.281810767500858
40
0.281810767500858
40
0.313290969083985
40
0.313290969083985
40
0.376251372250241
40
0.376251372250241
40
0.439211775416497
40
0.439211775416497
40
0.470691976999624
40
0.470691976999624
40
0.502172178582752
40
0.502172178582752
40
0.565132581749005
40
0.565132581749005
40
0.628092984915258
40
0.628092984915258
40
0.659573186498385
40
0.659573186498385
40
0.691053388081511
40
0.691053388081511
40
0.754013791247765
40
0.754013791247765
40
0.816974194414019
40
0.816974194414019
40
0.848454395997145
40
0.848454395997145
40
0.879934597580272
40
0.879934597580272
40
1
40
1
40
1
40
1
41
1
10
43.2787137522198
20
-4.21939157589546
30
0
41
1
10
42.7611329336108
20
-4.32081610109742
30
0
41
1
10
42.2439573822152
20
-4.39047775873962
30
0
41
1
10
41.4579555065445
20
-4.44553019067206
30
0
41
1
10
41.1909843726574
20
-4.45543748678267
30
0
41
1
10
40.6547775802423
20
-4.45732876163427
30
0
41
1
10
40.3854701190779
20
-4.44923304796859
30
0
41
1
10
39.0481017067749
20
-4.36460962882296
30
0
41
1
10
37.9940379193373
20
-4.15610596345019
30
0
41
1
10
36.6622407112511
20
-3.73979607818046
30
0
41
1
10
36.3951638174427
20
-3.64875418134829
30
0
41
1
10
35.8587802980298
20
-3.4515246068018
30
0
41
1
10
35.589467351066
20
-3.34522725915278
30
0
41
1
10
34.7869578799342
20
-3.00922059766592
30
0
41
1
10
34.2558665938176
20
-2.76108618652427
30
0
41
1
10
33.1948424423093
20
-2.22613043720571
30
0
41
1
10
32.6647991965061
20
-1.93947013990498
30
0
41
1
10
31.8656883068518
20
-1.48740811614238
30
0
41
1
10
31.5985619062792
20
-1.33316854659421
30
0
41
1
10
31.0620039313713
20
-1.01870397713532
30
0
41
1
10
30.7926820513396
20
-0.85823154163981
30
0
41
1
10
29.9901248198611
20
-0.37617929083126
30
0
41
1
10
29.458781855186
20
-0.0520989073729368
30
0
41
1
10
28.397669808869
20
0.591825317881302
30
0
41
1
10
27.8675251087264
20
0.911037036894925
30
0
41
1
10
27.068202674184
20
1.37785306234619
30
0
41
1
10
26.8010322831418
20
1.53138328802441
30
0
41
1
10
26.2644334769736
20
1.83295732268735
30
0
41
1
10
25.995032022339
20
1.98103136301512
30
0
41
1
10
25.1922625993199
20
2.40921845946045
30
0
41
1
10
24.6609930090552
20
2.67543731873172
30
0
41
1
10
23.5995882819787
20
3.16133356080027
30
0
41
1
10
23.069479222728
20
3.38102525920013
30
0
41
1
10
22.2699278165309
20
3.66926067445567
30
0
41
1
10
22.0027466823029
20
3.75852429944359
30
0
41
1
10
21.4661084002921
20
3.92225226886109
30
0
41
1
10
21.1966211125155
20
3.99663560848939
30
0
41
1
10
19.9080840915318
20
4.31291168014832
30
0
41
1
10
18.9016964664092
20
4.44159214304585
30
0
41
1
10
17.8860185751263
20
4.44208134767916
30
0
0
SPLINE
5
EC
100
AcDbEntity
8
1
62
256
6
ByLayer
370
18
48
1
60
0
100
AcDbSpline
70
4
71
3
72
32
73
28
40
0
40
0
40
0
40
0
40
0.0632148565991821
40
0.0632148565991821
40
0.294817043965967
40
0.294817043965967
40
0.410618137649359
40
0.410618137649359
40
0.468518684491056
40
0.497468957911904
40
0.511944094622328
40
0.511944094622328
40
0.526419231332752
40
0.526419231332752
40
0.540894368043176
40
0.540894368043176
40
0.548131936398388
40
0.548131936398388
40
0.5553695047536
40
0.584319778174448
40
0.642220325016144
40
0.642220325016144
40
0.758021418699537
40
0.758021418699537
40
0.989623606066322
40
0.989623606066322
40
1
40
1
40
1
40
1
41
1
10
9.37845223803896
20
2.32928333949047
30
0
41
1
10
9.37845223803896
20
2.26368447425472
30
0
41
1
10
9.37845223803896
20
2.20018304278213
30
0
41
1
10
9.37845223803896
20
1.91346763874955
30
0
41
1
10
9.37845223803896
20
1.71547498978322
30
0
41
1
10
9.37845223803896
20
1.45774942239763
30
0
41
1
10
9.37845223803896
20
1.37841690185897
30
0
41
1
10
9.37845223803896
20
1.26935496525829
30
0
41
1
10
9.37845223803896
20
1.21731094878461
30
0
41
1
10
9.37845223803896
20
1.16099082817206
30
0
41
1
10
9.37845223803893
20
1.13780293446899
30
0
41
1
10
9.37845223803893
20
1.12255612047784
30
0
41
1
10
9.37845223803896
20
1.11472042429065
30
0
41
1
10
9.37845223803896
20
1.10057488116038
30
0
41
1
10
9.37845223803896
20
1.09766148027185
30
0
41
1
10
9.37845223803896
20
1.10239804815029
30
0
41
1
10
9.37845223803902
20
1.10547703117945
30
0
41
1
10
9.37845223803902
20
1.11056644611978
30
0
41
1
10
9.37845223803896
20
1.12339084736593
30
0
41
1
10
9.37845223803896
20
1.1580497433788
30
0
41
1
10
9.37845223803896
20
1.19299474566944
30
0
41
1
10
9.37845223803896
20
1.26693400144757
30
0
41
1
10
9.37845223803896
20
1.32167663760663
30
0
41
1
10
9.37845223803896
20
1.50271869195728
30
0
41
1
10
9.37845223803896
20
1.64558849399003
30
0
41
1
10
9.37845223803896
20
1.82132088002905
30
0
41
1
10
9.37845223803899
20
1.82890756695605
30
0
41
1
10
9.37845223803899
20
1.83654570446896
30
0
0
SPLINE
5
ED
100
AcDbEntity
8
1
62
256
6
ByLayer
370
18
48
1
60
0
100
AcDbSpline
70
4
71
3
72
8
73
4
40
0
40
0
40
0
40
0
40
1
40
1
40
1
40
1
41
1
10
8.9532761727076
20
-2.26107985796094
30
0
41
1
10
8.70839665716161
20
-2.49081084899248
30
0
41
1
10
8.47492662111543
20
-2.7122817026092
30
0
41
1
10
8.25024741643131
20
-2.92077616248699
30
0
0
SPLINE
5
EE
100
AcDbEntity
8
1
62
256
6
ByLayer
370
18
48
1
60
0
100
AcDbSpline
70
4
71
3
72
16
73
12
40
0
40
0
40
0
40
0
40
0.165058886036155
40
0.165058886036155
40
0.379421199202097
40
0.379421199202097
40
0.486602355785068
40
0.486602355785068
40
0.593783512368039
40
0.593783512368039
40
1
40
1
40
1
40
1
41
1
10
29.3682671747913
20
0.0025323494600116
30
0
41
1
10
29.7782690929655
20
-0.238283614156586
30
0
41
1
10
30.1868649479639
20
-0.47810378912385
30
0
41
1
10
31.1255936518494
20
-1.0224414963115
30
0
41
1
10
31.6561036385839
20
-1.32402238415668
30
0
41
1
10
32.4562353994393
20
-1.76028323586641
30
0
41
1
10
32.7237117633872
20
-1.9029680736015
30
0
41
1
10
33.2612443529148
20
-2.18108189392859
30
0
41
1
10
33.5296947463484
20
-2.31590436910892
30
0
41
1
10
34.8089955673779
20
-2.93538235315148
30
0
41
1
10
35.8087282890418
20
-3.34927362734982
30
0
41
1
10
36.8176069935136
20
-3.66185492070358
30
0
0
SPLINE
5
EF
100
AcDbEntity
8
1
62
256
6
ByLayer
370
13
48
1
60
0
100
AcDbSpline
70
4
71
3
72
20
73
16
40
0
40
0
40
0
40
0
40
0.0305945592997596
40
0.0305945592997596
40
0.176282316789473
40
0.176282316789473
40
0.249126195534332
40
0.249126195534332
40
0.321970074279191
40
0.321970074279191
40
0.613345589258646
40
0.613345589258646
40
0.9047211042381
40
0.9047211042381
40
1
40
1
40
1
40
1
41
1
10
36.8176069935937
20
-3.66185492072833
30
0
41
1
10
36.8735081755797
20
-3.67917480634733
30
0
41
1
10
36.9294374373943
20
-3.69618365192221
30
0
41
1
10
37.2518783844735
20
-3.79236992426232
30
0
41
1
10
37.5190606572727
20
-3.86472485686923
30
0
41
1
10
37.9215414598053
20
-3.96180109255181
30
0
41
1
10
38.0561594250544
20
-3.99227971558403
30
0
41
1
10
38.3245380949181
20
-4.04898980152709
30
0
41
1
10
38.4584386122689
20
-4.07526037186599
30
0
41
1
10
39.1267541915443
20
-4.19616163828394
30
0
41
1
10
39.6576311367337
20
-4.25941288665487
30
0
41
1
10
40.7183165743211
20
-4.31837309654458
30
0
41
1
10
41.2480808733786
20
-4.31405663297912
30
0
41
1
10
41.9545401809659
20
-4.26300538008334
30
0
41
1
10
42.1289117433653
20
-4.2467872794638
30
0
41
1
10
42.3036927062382
20
-4.22691857380562
30
0
0
SPLINE
5
F0
100
AcDbEntity
8
1
62
256
6
ByLayer
370
18
48
1
60
0
100
AcDbSpline
70
4
71
3
72
14
73
10
40
0
40
0
40
0
40
0
40
0.521648857512536
40
0.521648857512536
40
0.652848283586428
40
0.652848283586428
40
0.784047709660319
40
0.784047709660319
40
1
40
1
40
1
40
1
41
1
10
75.380993882378
20
-0.0048171418611389
30
0
41
1
10
76.4436625581301
20
-0.633096103803467
30
0
41
1
10
77.490335813798
20
-1.25206206935459
30
0
41
1
10
78.8120947834613
20
-1.96219595096144
30
0
41
1
10
79.0783279226988
20
-2.10163770955987
30
0
41
1
10
79.6128277051445
20
-2.37259917307077
30
0
41
1
10
79.8818404336475
20
-2.5045123496869
30
0
41
1
10
80.5896620076572
20
-2.83770557752803
30
0
41
1
10
81.0270838283395
20
-3.02933646407908
30
0
41
1
10
81.4634576868036
20
-3.20346771866085
30
0
0
SPLINE
5
F1
100
AcDbEntity
8
1
62
256
6
ByLayer
370
13
48
1
60
0
100
AcDbSpline
70
4
71
3
72
20
73
16
40
0
40
0
40
0
40
0
40
0.0405608922797765
40
0.0405608922797765
40
0.26970802526295
40
0.26970802526295
40
0.384281591754534
40
0.384281591754534
40
0.441568375000325
40
0.441568375000325
40
0.498855158246116
40
0.498855158246116
40
0.957149424212437
40
0.957149424212437
40
1
40
1
40
1
40
1
41
1
10
81.4634567582052
20
-3.20346734811164
30
0
41
1
10
81.5573114344861
20
-3.24091925886779
30
0
41
1
10
81.6511176332302
20
-3.2775616576813
30
0
41
1
10
82.2746778323155
20
-3.51570785748308
30
0
41
1
10
82.803321047065
20
-3.6917836169529
30
0
41
1
10
83.5996820065363
20
-3.91129061649022
30
0
41
1
10
83.8656416671481
20
-3.9770575776993
30
0
41
1
10
84.2660228830051
20
-4.06396336416091
30
0
41
1
10
84.3997227571756
20
-4.09097730946917
30
0
41
1
10
84.6677073965727
20
-4.1409918155081
30
0
41
1
10
84.8020683277528
20
-4.16399304300984
30
0
41
1
10
86.0069101127167
20
-4.35132507122856
30
0
41
1
10
87.0600761621796
20
-4.38080083439613
30
0
41
1
10
88.2203230039368
20
-4.26488051250411
30
0
41
1
10
88.319598034036
20
-4.25378266480979
30
0
41
1
10
88.4189625040282
20
-4.24150109813871
30
0
0
SPLINE
5
F2
100
AcDbEntity
8
1
62
256
6
ByLayer
370
18
48
1
60
0
100
AcDbSpline
70
4
71
3
72
8
73
4
40
0
40
0
40
0
40
0
40
1
40
1
40
1
40
1
41
1
10
111.860760968128
20
-0.227187643397002
30
0
41
1
10
111.679590918213
20
-0.724948264619997
30
0
41
1
10
111.498420868298
20
-1.22270888584308
30
0
41
1
10
111.317250818383
20
-1.72046950706613
30
0
0
SPLINE
5
F3
100
AcDbEntity
8
1
62
256
6
ByLayer
370
18
48
1
60
0
100
AcDbSpline
70
4
71
3
72
10
73
6
40
0
40
0
40
0
40
0
40
0.5
40
0.5
40
1
40
1
40
1
40
1
41
1
10
107.869113187761
20
-1.76087404470306
30
0
41
1
10
108.153523881469
20
-2.03782327275599
30
0
41
1
10
108.454981751715
20
-2.28680394196448
30
0
41
1
10
109.082261315089
20
-2.73968571433193
30
0
41
1
10
109.403224015968
20
-2.94002154751791
30
0
41
1
10
109.73017309326
20
-3.11901689210879
30
0
0
SPLINE
5
F4
100
AcDbEntity
8
1
62
256
6
ByLayer
370
18
48
1
60
0
100
AcDbSpline
70
4
71
3
72
8
73
4
40
0
40
0
40
0
40
0
40
1
40
1
40
1
40
1
41
1
10
110.544319688987
20
-4.37935817318876
30
0
41
1
10
110.487692598965
20
-4.43445352313066
30
0
41
1
10
110.43811894478
20
-4.47112355439251
30
0
41
1
10
110.395269681744
20
-4.48845633663132
30
0
0
SPLINE
5
F5
100
AcDbEntity
8
1
62
256
6
ByLayer
370
18
48
1
60
0
100
AcDbSpline
70
4
71
3
72
10
73
6
40
0
40
0
40
0
40
0
40
0.5
40
0.5
40
1
40
1
40
1
40
1
41
1
10
111.974920970772
20
-0.16046616026162
30
0
41
1
10
111.976927559982
20
-0.144630237316818
30
0
41
1
10
111.980255989233
20
-0.126858501036594
30
0
41
1
10
111.988789511486
20
-0.0885617127568139
30
0
41
1
10
111.994012544384
20
-0.0680892980260523
30
0
41
1
10
111.999938430685
20
-0.0471252501136235
30
0
0
SPLINE
5
F6
100
AcDbEntity
8
1
62
256
6
ByLayer
370
18
48
1
60
0
100
AcDbSpline
70
4
71
3
72
8
73
4
40
0
40
0
40
0
40
0
40
1
40
1
40
1
40
1
41
1
10
8.00004081009024
20
-0.84451942636602
30
0
41
1
10
8.00002420371166
20
-0.843611590091257
30
0
41
1
10
8.00001589512866
20
-0.842703516782905
30
0
41
1
10
8.00001589540886
20
-0.841795426156807
30
0
0
SPLINE
5
F7
100
AcDbEntity
8
1
62
256
6
ByLayer
370
13
48
1
60
0
100
AcDbSpline
70
4
71
3
72
12
73
8
40
0
40
0
40
0
40
0
40
0.499999999999996
40
0.499999999999996
40
0.749999999999998
40
0.749999999999998
40
1
40
1
40
1
40
1
41
1
10
8.00001589540886
20
-0.841795444060978
30
0
41
1
10
8.00047862598456
20
-0.857247734563913
30
0
41
1
10
8.011415393124
20
-0.872279038880322
30
0
41
1
10
8.04230419092914
20
-0.891917401450087
30
0
41
1
10
8.05532474359703
20
-0.898150770120253
30
0
41
1
10
8.08588648487486
20
-0.909184677451265
30
0
41
1
10
8.10329271374712
20
-0.913999276596002
30
0
41
1
10
8.1231715517722
20
-0.918037983306078
30
0
0
SPLINE
5
F8
100
AcDbEntity
8
1
62
256
6
ByLayer
370
18
48
1
60
0
100
AcDbSpline
70
4
71
3
72
10
73
6
40
0
40
0
40
0
40
0
40
0.5
40
0.5
40
1
40
1
40
1
40
1
41
1
10
111.974920970772
20
0.160466160261762
30
0
41
1
10
111.976927559982
20
0.144630237316932
30
0
41
1
10
111.980255989233
20
0.126858501036651
30
0
41
1
10
111.988789511486
20
0.0885617127567855
30
0
41
1
10
111.994012544384
20
0.0680892980259955
30
0
41
1
10
111.999938430685
20
0.0471252501135098
30
0
0
SPLINE
5
F9
100
AcDbEntity
8
1
62
256
6
ByLayer
370
18
48
1
60
0
100
AcDbSpline
70
4
71
3
72
42
73
38
40
0
40
0
40
0
40
0
40
0.0625000000000066
40
0.0625000000000066
40
0.125000000000013
40
0.125000000000013
40
0.250000000000026
40
0.250000000000026
40
0.312500000000027
40
0.312500000000027
40
0.375000000000028
40
0.375000000000028
40
0.437500000000029
40
0.437500000000029
40
0.50000000000003
40
0.50000000000003
40
0.562500000000031
40
0.562500000000031
40
0.625000000000032
40
0.625000000000032
40
0.750000000000034
40
0.750000000000034
40
0.812500000000035
40
0.812500000000035
40
0.820312500000033
40
0.820312500000033
40
0.828125000000032
40
0.828125000000032
40
0.835937500000031
40
0.835937500000031
40
0.843750000000029
40
0.843750000000029
40
0.859375000000027
40
0.859375000000027
40
0.875000000000024
40
0.875000000000024
40
1
40
1
40
1
40
1
41
1
10
107.869113187761
20
-1.76087404470303
30
0
41
1
10
107.964623426269
20
-1.78271500127036
30
0
41
1
10
108.060267984712
20
-1.80074215883761
30
0
41
1
10
108.250079428692
20
-1.83003362458589
30
0
41
1
10
108.3444796322
20
-1.84108552472961
30
0
41
1
10
108.625973233282
20
-1.86210575112324
30
0
41
1
10
108.811394087789
20
-1.86018363174142
30
0
41
1
10
109.084398188128
20
-1.82085028698799
30
0
41
1
10
109.174604535431
20
-1.80158374184361
30
0
41
1
10
109.348270219428
20
-1.75003200865635
30
0
41
1
10
109.432281911968
20
-1.71765459676652
30
0
41
1
10
109.594141641226
20
-1.63847669696253
30
0
41
1
10
109.672257661369
20
-1.59152762549428
30
0
41
1
10
109.820772617631
20
-1.48288464594955
30
0
41
1
10
109.889920535704
20
-1.42213306214879
30
0
41
1
10
110.018449218602
20
-1.28833848138288
30
0
41
1
10
110.077832224896
20
-1.21529830518028
30
0
41
1
10
110.187378756129
20
-1.05761575389008
30
0
41
1
10
110.237769898573
20
-0.972523560983404
30
0
41
1
10
110.3726339129
20
-0.707728226774009
30
0
41
1
10
110.441889138574
20
-0.516751585672296
30
0
41
1
10
110.52688165407
20
-0.2170738826959
30
0
41
1
10
110.551953688013
20
-0.114817761102984
30
0
41
1
10
110.577058932532
20
0.0021888489202695
30
0
41
1
10
110.579858879005
20
0.0151847456777432
30
0
41
1
10
110.585545894003
20
0.0411363029077734
30
0
41
1
10
110.587988522688
20
0.054297222641452
30
0
41
1
10
110.589436795062
20
0.0822063928054035
30
0
41
1
10
110.58867190066
20
0.0967875967917564
30
0
41
1
10
110.585108208715
20
0.12537292430838
30
0
41
1
10
110.582324261903
20
0.139618524759612
30
0
41
1
10
110.571934268462
20
0.182259604986712
30
0
41
1
10
110.563414926585
20
0.210613569771795
30
0
41
1
10
110.547429660968
20
0.267356911035051
30
0
41
1
10
110.539542996309
20
0.295745819946006
30
0
41
1
10
110.469097191153
20
0.551332896902409
30
0
41
1
10
110.409153103054
20
0.778978439692366
30
0
41
1
10
110.350758953003
20
1.00678684293456
30
0
0
SPLINE
5
FA
100
AcDbEntity
8
1
62
256
6
ByLayer
370
13
48
1
60
0
100
AcDbSpline
70
4
71
3
72
8
73
4
40
0
40
0
40
0
40
0
40
1
40
1
40
1
40
1
41
1
10
8.12039693157107
20
-1.04905816814985
30
0
41
1
10
8.12131113494945
20
-1.03954633019515
30
0
41
1
10
8.12223597617884
20
-1.03002521234498
30
0
41
1
10
8.1231715517722
20
-1.02049432793456
30
0
0
SPLINE
5
FB
100
AcDbEntity
8
1
62
256
6
ByLayer
370
18
48
1
60
0
100
AcDbSpline
70
4
71
3
72
10
73
6
40
0
40
0
40
0
40
0
40
0.5
40
0.5
40
1
40
1
40
1
40
1
41
1
10
110.455178399475
20
1.12249961016985
30
0
41
1
10
110.685103915895
20
1.12285574671802
30
0
41
1
10
110.915010040159
20
1.12334100216233
30
0
41
1
10
111.374394998966
20
1.12715653845626
30
0
41
1
10
111.603721279005
20
1.13150257377433
30
0
41
1
10
111.8326233336
20
1.13867323161139
30
0
0
SPLINE
5
FC
100
AcDbEntity
8
1
62
256
6
ByLayer
370
18
48
1
60
0
100
AcDbSpline
70
4
71
3
72
114
73
110
40
0
40
0
40
0
40
0
40
0.024566511805975
40
0.024566511805975
40
0.0498407061266463
40
0.0498407061266463
40
0.0751149004473176
40
0.0751149004473176
40
0.0877519976076533
40
0.0877519976076533
40
0.100389094767989
40
0.100389094767989
40
0.113026191928325
40
0.113026191928325
40
0.12566328908866
40
0.12566328908866
40
0.150937483409332
40
0.150937483409332
40
0.176211677730003
40
0.176211677730003
40
0.201485872050674
40
0.201485872050674
40
0.226760066371345
40
0.226760066371345
40
0.23939716353168
40
0.23939716353168
40
0.252034260692015
40
0.252034260692015
40
0.26467135785235
40
0.26467135785235
40
0.277308455012684
40
0.277308455012684
40
0.302582649333351
40
0.302582649333351
40
0.327856843654019
40
0.327856843654019
40
0.340493940814352
40
0.340493940814352
40
0.353131037974686
40
0.353131037974686
40
0.378405232295351
40
0.378405232295351
40
0.403679426616016
40
0.403679426616016
40
0.416316523776349
40
0.416316523776349
40
0.428953620936681
40
0.428953620936681
40
0.441590718097014
40
0.441590718097014
40
0.454227815257347
40
0.454227815257347
40
0.479502009578014
40
0.479502009578014
40
0.504776203898681
40
0.504776203898681
40
0.530050398219348
40
0.530050398219348
40
0.542687495379681
40
0.542687495379681
40
0.555324592540014
40
0.555324592540014
40
0.580598786860681
40
0.580598786860681
40
0.593235884021015
40
0.593235884021015
40
0.605872981181349
40
0.605872981181349
40
0.631147175502016
40
0.631147175502016
40
0.64378427266235
40
0.64378427266235
40
0.656421369822684
40
0.656421369822684
40
0.669058466983018
40
0.669058466983018
40
0.681695564143352
40
0.681695564143352
40
0.70696975846402
40
0.70696975846402
40
0.732243952784687
40
0.732243952784687
40
0.74488104994502
40
0.74488104994502
40
0.757518147105353
40
0.757518147105353
40
0.782792341426019
40
0.782792341426019
40
0.808066535746685
40
0.808066535746685
40
0.833340730067351
40
0.833340730067351
40
0.858614924388017
40
0.858614924388017
40
0.883889118708683
40
0.883889118708683
40
0.90916331302935
40
0.90916331302935
40
0.921800410189683
40
0.921800410189683
40
0.934437507350016
40
0.934437507350016
40
0.959711701670682
40
0.959711701670682
40
0.984985895991348
40
0.984985895991348
40
0.997622993151682
40
0.997622993151682
40
1
40
1
40
1
40
1
41
1
10
100.934935878404
20
-2.11102390041367
30
0
41
1
10
100.687027552771
20
-2.23584163911644
30
0
41
1
10
100.438612625338
20
-2.35640927574616
30
0
41
1
10
99.9358990013508
20
-2.59483735864657
30
0
41
1
10
99.6801601959464
20
-2.71008459019373
30
0
41
1
10
99.167343601003
20
-2.93136262320465
30
0
41
1
10
98.9104421811437
20
-3.03786195102782
30
0
41
1
10
98.5236266983696
20
-3.18932848770132
30
0
41
1
10
98.3941873234497
20
-3.2384263753647
30
0
41
1
10
98.1359138297382
20
-3.33282086346904
30
0
41
1
10
98.006853018258
20
-3.37796302322639
30
0
41
1
10
97.7497346212648
20
-3.46592252122136
30
0
41
1
10
97.6216805006003
20
-3.50881862538486
30
0
41
1
10
97.3654081172515
20
-3.59074688923204
30
0
41
1
10
97.2373537512344
20
-3.62990315142696
30
0
41
1
10
96.8535066147076
20
-3.74182198356434
30
0
41
1
10
96.5983224124338
20
-3.80898565445256
30
0
41
1
10
96.0884940046229
20
-3.92955682692471
30
0
41
1
10
95.83366121606
20
-3.98383857516629
30
0
41
1
10
95.3229364444869
20
-4.07628624539768
30
0
41
1
10
95.0683536968062
20
-4.11502449208115
30
0
41
1
10
94.5568831304819
20
-4.1769255146026
30
0
41
1
10
94.3004423665141
20
-4.20141149649942
30
0
41
1
10
93.9148436247829
20
-4.22591451813994
30
0
41
1
10
93.7861377789943
20
-4.23201801624111
30
0
41
1
10
93.5281710230632
20
-4.24000328482296
30
0
41
1
10
93.3987028604936
20
-4.24186149483904
30
0
41
1
10
93.1403364699332
20
-4.24177897636844
30
0
41
1
10
93.0111200466977
20
-4.23998718856208
30
0
41
1
10
92.7538181916411
20
-4.23284306191613
30
0
41
1
10
92.6256504778112
20
-4.22735866038605
30
0
41
1
10
92.2410251530598
20
-4.20477489523492
30
0
41
1
10
91.9849726194831
20
-4.18130956631956
30
0
41
1
10
91.4740068216612
20
-4.119383864404
30
0
41
1
10
91.2189939107284
20
-4.08170537189397
30
0
41
1
10
90.8361549738054
20
-4.01393672111638
30
0
41
1
10
90.708461682668
20
-3.98943445281475
30
0
41
1
10
90.4528631334443
20
-3.93658726657026
30
0
41
1
10
90.3252302263664
20
-3.90811511127384
30
0
41
1
10
89.9423961806954
20
-3.81723950477428
30
0
41
1
10
89.6862922502254
20
-3.75061068130802
30
0
41
1
10
89.1728911934421
20
-3.60310834428401
30
0
41
1
10
88.9156340557798
20
-3.5215105486364
30
0
41
1
10
88.5281474371929
20
-3.38893519020121
30
0
41
1
10
88.3986143374605
20
-3.34318714517224
30
0
41
1
10
88.1401636913221
20
-3.24948800448979
30
0
41
1
10
88.0109051259997
20
-3.20163565612873
30
0
41
1
10
87.7537479452539
20
-3.10195219911745
30
0
41
1
10
87.6255952972136
20
-3.05041354856562
30
0
41
1
10
87.3692608773222
20
-2.94496570492794
30
0
41
1
10
87.2411705202493
20
-2.8909744095796
30
0
41
1
10
86.857133944387
20
-2.72555569454954
30
0
41
1
10
86.6016256688985
20
-2.61059656448967
30
0
41
1
10
86.0911986712155
20
-2.37150819926151
30
0
41
1
10
85.8361729008483
20
-2.24688858720353
30
0
41
1
10
85.3248256458321
20
-1.9912831716868
30
0
41
1
10
85.0699191538568
20
-1.85846436999284
30
0
41
1
10
84.6857309918973
20
-1.65575245629293
30
0
41
1
10
84.5574482787583
20
-1.5874496439038
30
0
41
1
10
84.3006345663108
20
-1.44864217248957
30
0
41
1
10
84.1720708586785
20
-1.37820736240206
30
0
41
1
10
83.785741139767
20
-1.16498875861265
30
0
41
1
10
83.5267908522362
20
-1.01951831829891
30
0
41
1
10
83.139124066569
20
-0.80099932618316
30
0
41
1
10
83.0098783463884
20
-0.72839520090173
30
0
41
1
10
82.7529480038511
20
-0.5808634572806
30
0
41
1
10
82.6248833967855
20
-0.506627024276241
30
0
41
1
10
82.2405443740699
20
-0.284722654117047
30
0
41
1
10
81.9844189316917
20
-0.137307493810027
30
0
41
1
10
81.6011223611454
20
0.0842852715850029
30
0
41
1
10
81.4734453700445
20
0.158124048848009
30
0
41
1
10
81.2183237883064
20
0.305758602158846
30
0
41
1
10
81.0908660668931
20
0.379517876561209
30
0
41
1
10
80.8356720884179
20
0.52618188743665
30
0
41
1
10
80.7079599383591
20
0.599141038610355
30
0
41
1
10
80.4522993161664
20
0.744296990500942
30
0
41
1
10
80.324733319116
20
0.817157560429024
30
0
41
1
10
79.941790874963
20
1.0347303656736
30
0
41
1
10
79.6856376684384
20
1.17747877652761
30
0
41
1
10
79.172060676271
20
1.45907668289098
30
0
41
1
10
78.9147213386516
20
1.59821697349858
30
0
41
1
10
78.5271506215661
20
1.80307189338887
30
0
41
1
10
78.3975953855615
20
1.87059543110664
30
0
41
1
10
78.1392878230727
20
2.00296646072647
30
0
41
1
10
78.0101903369466
20
2.06757266069383
30
0
41
1
10
77.6251286667248
20
2.26039395883444
30
0
41
1
10
77.3690429628232
20
2.38449086803144
30
0
41
1
10
76.8570915603037
20
2.62267172208263
30
0
41
1
10
76.6017100060153
20
2.73742831996029
30
0
41
1
10
76.0917395246718
20
2.95508741574071
30
0
41
1
10
75.8367365916296
20
3.05865456307336
30
0
41
1
10
75.3255337592655
20
3.25447571161914
30
0
41
1
10
75.0708561682955
20
3.34832301589191
30
0
41
1
10
74.5587904653438
20
3.5200334060184
30
0
41
1
10
74.3020713273444
20
3.59964832326298
30
0
41
1
10
73.7873030932295
20
3.74733954386824
30
0
41
1
10
73.5284127425689
20
3.81528006778561
30
0
41
1
10
73.1411313796932
20
3.90403536378901
30
0
41
1
10
73.0120736586471
20
3.9314257821004
30
0
41
1
10
72.7553454990169
20
3.98357885359204
30
0
41
1
10
72.6271682635207
20
4.00793153438806
30
0
41
1
10
72.2427290264357
20
4.07517870924696
30
0
41
1
10
71.9867429053855
20
4.11213852078279
30
0
41
1
10
71.4759676876957
20
4.17067422283642
30
0
41
1
10
71.2211047906187
20
4.19260402580269
30
0
41
1
10
70.8382527663263
20
4.21426239914359
30
0
41
1
10
70.710542915298
20
4.21956480530233
30
0
41
1
10
70.5586826820205
20
4.22348247291762
30
0
41
1
10
70.5346533257198
20
4.22403176948021
30
0
41
1
10
70.5106331818321
20
4.22451039146384
30
0
0
SPLINE
5
FD
100
AcDbEntity
8
1
62
256
6
ByLayer
370
18
48
1
60
0
100
AcDbSpline
70
4
71
3
72
112
73
108
40
0
40
0
40
0
40
0
40
0.003526770404194
40
0.003526770404194
40
0.028718223864251
40
0.028718223864251
40
0.053909677324308
40
0.053909677324308
40
0.0665054040543356
40
0.0665054040543356
40
0.0791011307843636
40
0.0791011307843636
40
0.10429258424442
40
0.10429258424442
40
0.129484037704476
40
0.129484037704476
40
0.142079764434504
40
0.142079764434504
40
0.154675491164531
40
0.154675491164531
40
0.179866944624588
40
0.179866944624588
40
0.205058398084645
40
0.205058398084645
40
0.217654124814673
40
0.217654124814673
40
0.230249851544701
40
0.230249851544701
40
0.255441305004756
40
0.255441305004756
40
0.280632758464811
40
0.280632758464811
40
0.305824211924866
40
0.305824211924866
40
0.318419938654893
40
0.318419938654893
40
0.331015665384921
40
0.331015665384921
40
0.356207118844975
40
0.356207118844975
40
0.381398572305031
40
0.381398572305031
40
0.393994299035058
40
0.393994299035058
40
0.406590025765086
40
0.406590025765086
40
0.43178147922514
40
0.43178147922514
40
0.456972932685195
40
0.456972932685195
40
0.469568659415223
40
0.469568659415223
40
0.482164386145251
40
0.482164386145251
40
0.507355839605307
40
0.507355839605307
40
0.532547293065363
40
0.532547293065363
40
0.557738746525419
40
0.557738746525419
40
0.582930199985475
40
0.582930199985475
40
0.608121653445531
40
0.608121653445531
40
0.633313106905587
40
0.633313106905587
40
0.645908833635614
40
0.645908833635614
40
0.658504560365642
40
0.658504560365642
40
0.683696013825696
40
0.683696013825696
40
0.708887467285749
40
0.708887467285749
40
0.721483194015777
40
0.721483194015777
40
0.734078920745804
40
0.734078920745804
40
0.759270374205857
40
0.759270374205857
40
0.784461827665912
40
0.784461827665912
40
0.797057554395938
40
0.797057554395938
40
0.809653281125966
40
0.809653281125966
40
0.834844734586018
40
0.834844734586018
40
0.860036188046071
40
0.860036188046071
40
0.872631914776097
40
0.872631914776097
40
0.885227641506124
40
0.885227641506124
40
0.910419094966177
40
0.910419094966177
40
0.935610548426229
40
0.935610548426229
40
0.948206275156256
40
0.948206275156256
40
0.960802001886283
40
0.960802001886283
40
0.973397728616311
40
0.973397728616311
40
0.985993455346338
40
0.985993455346338
40
1
40
1
40
1
40
1
41
1
10
54.9250121505578
20
-2.10611751293286
30
0
41
1
10
54.8891865653961
20
-2.12398650350139
30
0
41
1
10
54.853344118714
20
-2.14176876417869
30
0
41
1
10
54.5613372412886
20
-2.28584442194605
30
0
41
1
10
54.3045730820616
20
-2.4084291255482
30
0
41
1
10
53.7896064329896
20
-2.64621495239768
30
0
41
1
10
53.5305688077477
20
-2.76169376878661
30
0
41
1
10
53.1434845807162
20
-2.92399643754436
30
0
41
1
10
53.0146372620356
20
-2.97639685240779
30
0
41
1
10
52.758125232304
20
-3.07959771058611
30
0
41
1
10
52.6299608639343
20
-3.12969331235749
30
0
41
1
10
52.2456539517163
20
-3.27525270560165
30
0
41
1
10
51.9897046545688
20
-3.36641975197006
30
0
41
1
10
51.4791909734948
20
-3.53470315390146
30
0
41
1
10
51.2245208955721
20
-3.61203095306493
30
0
41
1
10
50.8416982455293
20
-3.71896224794048
30
0
41
1
10
50.7139618084499
20
-3.75296901976807
30
0
41
1
10
50.4583841606914
20
-3.81771401783405
30
0
41
1
10
50.3310856207247
20
-3.84887552120324
30
0
41
1
10
49.9481554865847
20
-3.93554682199851
30
0
41
1
10
49.6919563098984
20
-3.98476161968801
30
0
41
1
10
49.1785244357909
20
-4.07133012286707
30
0
41
1
10
48.9213180865873
20
-4.10821797895278
30
0
41
1
10
48.5336345642943
20
-4.1509300569063
30
0
41
1
10
48.4042505626867
20
-4.16274867583454
30
0
41
1
10
48.1461748104749
20
-4.18246340243587
30
0
41
1
10
48.0172791916587
20
-4.19056088640104
30
0
41
1
10
47.6322541362222
20
-4.20980229170561
30
0
41
1
10
47.3758013824069
20
-4.21556247420074
30
0
41
1
10
46.8639299024127
20
-4.21046371766556
30
0
41
1
10
46.6087821300649
20
-4.1985537779351
30
0
41
1
10
46.0985986341716
20
-4.16205517018997
30
0
41
1
10
45.8432424289677
20
-4.13700580357269
30
0
41
1
10
45.4597621237897
20
-4.08770583081849
30
0
41
1
10
45.3324285052391
20
-4.06890144361097
30
0
41
1
10
45.0769950030081
20
-4.02742949254906
30
0
41
1
10
44.9490733992429
20
-4.00487752260156
30
0
41
1
10
44.5646615610399
20
-3.9325334411312
30
0
41
1
10
44.3078477792377
20
-3.8775760501577
30
0
41
1
10
43.7926981307367
20
-3.75211947707854
30
0
41
1
10
43.533591579838
20
-3.68055829343535
30
0
41
1
10
43.1460956177828
20
-3.56550061204786
30
0
41
1
10
43.0171385958983
20
-3.52570353712844
30
0
41
1
10
42.7602832263935
20
-3.44238936999827
30
0
41
1
10
42.6319666076821
20
-3.39929731669216
30
0
41
1
10
42.2472587721016
20
-3.26564617141025
30
0
41
1
10
41.9912603621873
20
-3.17015250834842
30
0
41
1
10
41.4801511604241
20
-2.96843783032736
30
0
41
1
10
41.2250888540162
20
-2.86207023596279
30
0
41
1
10
40.8418038864816
20
-2.695326737594
30
0
41
1
10
40.7138755903201
20
-2.63865287931321
30
0
41
1
10
40.4580858229261
20
-2.52270415456573
30
0
41
1
10
40.330644224415
20
-2.46282062265899
30
0
41
1
10
39.9471250811183
20
-2.28117165665879
30
0
41
1
10
39.690558081539
20
-2.15641268787874
30
0
41
1
10
39.1763846332583
20
-1.89730222410125
30
0
41
1
10
38.9187236852274
20
-1.7630525355986
30
0
41
1
10
38.4008526913524
20
-1.48833389450834
30
0
41
1
10
38.1420634686439
20
-1.3497183129945
30
0
41
1
10
37.6284984372861
20
-1.06524188524284
30
0
41
1
10
37.3720787458844
20
-0.921957260094445
30
0
41
1
10
36.8600188742208
20
-0.633302353314122
30
0
41
1
10
36.6045553954457
20
-0.487620364057705
30
0
41
1
10
36.0941076532635
20
-0.194594296343837
30
0
41
1
10
35.8384936098644
20
-0.0483710964889497
30
0
41
1
10
35.454979023067
20
0.1713038487473
30
0
41
1
10
35.3275483956649
20
0.245343871000671
30
0
41
1
10
35.0719007162577
20
0.392215953965092
30
0
41
1
10
34.943878217855
20
0.465394053890321
30
0
41
1
10
34.559193476697
20
0.684135447358699
30
0
41
1
10
34.302172821217
20
0.82937643373316
30
0
41
1
10
33.7866095312417
20
1.11782205563887
30
0
41
1
10
33.5272364778298
20
1.26124983503178
30
0
41
1
10
33.1396460980222
20
1.47006571192753
30
0
41
1
10
33.010840258567
20
1.53906981868144
30
0
41
1
10
32.7540411445357
20
1.67600032672985
30
0
41
1
10
32.6257507283373
20
1.74345828289319
30
0
41
1
10
32.2410362677103
20
1.9427626509395
30
0
41
1
10
31.9849234956486
20
2.0717938725906
30
0
41
1
10
31.4738202455221
20
2.32204234005769
30
0
41
1
10
31.2188613502465
20
2.44297840327601
30
0
41
1
10
30.8355715485336
20
2.61691666628258
30
0
41
1
10
30.7075700436129
20
2.67351568992623
30
0
41
1
10
30.452002012992
20
2.785046597959
30
0
41
1
10
30.3245565756635
20
2.84012439211341
30
0
41
1
10
29.9410936173593
20
3.00024458006024
30
0
41
1
10
29.6845865046877
20
3.10075783475412
30
0
41
1
10
29.1705897262363
20
3.29190874814108
30
0
41
1
10
28.9131132204673
20
3.38265759940074
30
0
41
1
10
28.5248583271501
20
3.50854702300939
30
0
41
1
10
28.3952917593969
20
3.54870648463802
30
0
41
1
10
28.1368738553739
20
3.62514206684088
30
0
41
1
10
28.0081141543495
20
3.66168562493328
30
0
41
1
10
27.6227348903191
20
3.76685542288493
30
0
41
1
10
27.365958844025
20
3.83038678809339
30
0
41
1
10
26.8537004054219
20
3.94212841851817
30
0
41
1
10
26.5983147964707
20
3.98990481061304
30
0
41
1
10
26.2153490217312
20
4.05130175067032
30
0
41
1
10
26.0876439345832
20
4.0700553969391
30
0
41
1
10
25.8320199506313
20
4.10388851789008
30
0
41
1
10
25.7039413677952
20
4.11896376883996
30
0
41
1
10
25.448444444283
20
4.14535282367109
30
0
41
1
10
25.320937424318
20
4.1564793612398
30
0
41
1
10
25.0652258877041
20
4.17451391126704
30
0
41
1
10
24.9371569587098
20
4.18159945138231
30
0
41
1
10
24.6662799905845
20
4.19294281152938
30
0
41
1
10
24.5235157140681
20
4.19683628918114
30
0
41
1
10
24.3805560587231
20
4.19839426170375
30
0
0
SPLINE
5
FE
100
AcDbEntity
8
1
62
256
6
ByLayer
370
18
48
1
60
0
100
AcDbSpline
70
4
71
3
72
14
73
10
40
0
40
0
40
0
40
0
40
0.25
40
0.25
40
0.5
40
0.5
40
0.75
40
0.75
40
1
40
1
40
1
40
1
41
1
10
111.317250818381
20
-1.72046950707122
30
0
41
1
10
111.307690817078
20
-1.76632651987296
30
0
41
1
10
111.294549208144
20
-1.8167338288346
30
0
41
1
10
111.261988298354
20
-1.92460505436017
30
0
41
1
10
111.24320980366
20
-1.97991824557349
30
0
41
1
10
111.202297893828
20
-2.09030463889201
30
0
41
1
10
111.180655509663
20
-2.14406819292569
30
0
41
1
10
111.136267905526
20
-2.24697572549985
30
0
41
1
10
111.114082346063
20
-2.29486391501936
30
0
41
1
10
111.091939206609
20
-2.33950807276065
30
0
0
SPLINE
5
FF
100
AcDbEntity
8
1
62
256
6
ByLayer
370
18
48
1
60
0
100
AcDbSpline
70
4
71
3
72
8
73
4
40
0
40
0
40
0
40
0
40
1
40
1
40
1
40
1
41
1
10
111.832623333607
20
1.13867323161134
30
0
41
1
10
111.886164643719
20
0.812555870135668
30
0
41
1
10
111.933610503305
20
0.486486741001954
30
0
41
1
10
111.974920970772
20
0.160466160261762
30
0
0
SPLINE
5
100
100
AcDbEntity
8
1
62
256
6
ByLayer
370
18
48
1
60
0
100
AcDbSpline
70
4
71
3
72
8
73
4
40
0
40
0
40
0
40
0
40
1
40
1
40
1
40
1
41
1
10
111.97186235239
20
-0.0194104390426446
30
0
41
1
10
111.934676824534
20
-0.088534068462252
30
0
41
1
10
111.897642747394
20
-0.157793418589819
30
0
41
1
10
111.86076096811
20
-0.227187643431506
30
0
0
SPLINE
5
101
100
AcDbEntity
8
1
62
256
6
ByLayer
370
18
48
1
60
0
100
AcDbSpline
70
4
71
3
72
42
73
38
40
0
40
0
40
0
40
0
40
0.0339166932719787
40
0.0339166932719787
40
0.0678333865439575
40
0.0678333865439575
40
0.135666773087915
40
0.135666773087915
40
0.203500159631873
40
0.203500159631873
40
0.237416852903852
40
0.237416852903852
40
0.271333546175832
40
0.271333546175832
40
0.407000319263755
40
0.407000319263755
40
0.440917012535735
40
0.440917012535735
40
0.474833705807715
40
0.474833705807715
40
0.542667092351675
40
0.542667092351675
40
0.610500478895635
40
0.610500478895635
40
0.644417172167615
40
0.644417172167615
40
0.678333865439595
40
0.678333865439595
40
0.814000638527523
40
0.814000638527523
40
0.847917331799505
40
0.847917331799505
40
0.881834025071487
40
0.881834025071487
40
0.949667411615453
40
0.949667411615453
40
1
40
1
40
1
40
1
41
1
10
110.395269681745
20
-4.48845633663117
30
0
41
1
10
110.127890580539
20
-4.50002688578394
30
0
41
1
10
109.860542108398
20
-4.50257097044118
30
0
41
1
10
109.325190953422
20
-4.48963622647008
30
0
41
1
10
109.056600787813
20
-4.47408817621698
30
0
41
1
10
108.253974393873
20
-4.40084865583651
30
0
41
1
10
107.723051643985
20
-4.31676306318809
30
0
41
1
10
106.66239700165
20
-4.08283742661854
30
0
41
1
10
106.132676092137
20
-3.93300559770407
30
0
41
1
10
105.333936389332
20
-3.66224870090051
30
0
41
1
10
105.066978382928
20
-3.56434344173394
30
0
41
1
10
104.53080356346
20
-3.35373297059547
30
0
41
1
10
104.263170642236
20
-3.24161408747386
30
0
41
1
10
102.931520063259
20
-2.65276038887956
30
0
41
1
10
101.880291928304
20
-2.08893655057008
30
0
41
1
10
100.549499759766
20
-1.31731111966599
30
0
41
1
10
100.282507282013
20
-1.15963734630492
30
0
41
1
10
99.7460855225493
20
-0.838630964018705
30
0
41
1
10
99.478599638076
20
-0.676577015867451
30
0
41
1
10
98.6797079239194
20
-0.189271214104139
30
0
41
1
10
98.1504570993039
20
0.137289337065539
30
0
41
1
10
97.0921331282352
20
0.783085919271798
30
0
41
1
10
96.5630640888837
20
1.10232630752858
30
0
41
1
10
95.7644547212668
20
1.56720587260017
30
0
41
1
10
95.4974357893875
20
1.71986489317257
30
0
41
1
10
94.9607941980348
20
2.01897884085759
30
0
41
1
10
94.6934447533318
20
2.16417531779172
30
0
41
1
10
93.3618308172816
20
2.86468328576569
30
0
41
1
10
92.3100833084405
20
3.34442773765917
30
0
41
1
10
90.9786283398967
20
3.80276053367777
30
0
41
1
10
90.7114922156601
20
3.88734418451776
30
0
41
1
10
90.1746121986265
20
4.04123205274303
30
0
41
1
10
89.9074166110642
20
4.10982165963793
30
0
41
1
10
89.1084509690649
20
4.29015964940655
30
0
41
1
10
88.5791473352301
20
4.37647844579601
30
0
41
1
10
87.6570198343187
20
4.46636247462732
30
0
41
1
10
87.2642464932023
20
4.4855354484589
30
0
41
1
10
86.8700655849208
20
4.4852040531288
30
0
0
SPLINE
5
102
100
AcDbEntity
8
1
62
256
6
ByLayer
370
18
48
1
60
0
100
AcDbSpline
70
4
71
3
72
52
73
48
40
0
40
0
40
0
40
0
40
0.0222837913969443
40
0.0222837913969443
40
0.148180805290935
40
0.148180805290935
40
0.179655058764432
40
0.179655058764432
40
0.211129312237929
40
0.211129312237929
40
0.242603565711426
40
0.242603565711426
40
0.274077819184923
40
0.274077819184923
40
0.399974833078913
40
0.399974833078913
40
0.43144908655241
40
0.43144908655241
40
0.447186213289159
40
0.447186213289159
40
0.462923340025908
40
0.462923340025908
40
0.525871846972904
40
0.525871846972904
40
0.588820353919901
40
0.588820353919901
40
0.620294607393399
40
0.620294607393399
40
0.636031734130148
40
0.636031734130148
40
0.651768860866897
40
0.651768860866897
40
0.777665874760899
40
0.777665874760899
40
0.809140128234399
40
0.809140128234399
40
0.82487725497115
40
0.82487725497115
40
0.840614381707901
40
0.840614381707901
40
0.903562888654901
40
0.903562888654901
40
0.966511395601902
40
0.966511395601902
40
0.997985649075403
40
0.997985649075403
40
1
40
1
40
1
40
1
41
1
10
66.2653570563446
20
-4.23562365528696
30
0
41
1
10
66.0757945373318
20
-4.27268397868028
30
0
41
1
10
65.886777736861
20
-4.3053678704166
30
0
41
1
10
64.6325204685637
20
-4.49362175172308
30
0
41
1
10
63.5797614086716
20
-4.51405259738442
30
0
41
1
10
62.2456847720041
20
-4.36280213908847
30
0
41
1
10
61.9776042359267
20
-4.32363519056611
30
0
41
1
10
61.4404539797978
20
-4.22778802391736
30
0
41
1
10
61.1724582285157
20
-4.17134323175577
30
0
41
1
10
60.6366853462463
20
-4.04210542564161
30
0
41
1
10
60.3689424610072
20
-3.96929499653044
30
0
41
1
10
59.8329883929129
20
-3.80779748949954
30
0
41
1
10
59.5642155054112
20
-3.7189472072798
30
0
41
1
10
58.222693048043
20
-3.23924375178214
30
0
41
1
10
57.1684980240128
20
-2.74587264603454
30
0
41
1
10
55.8401584231916
20
-2.03838551775857
30
0
41
1
10
55.5740056455442
20
-1.89228087497367
30
0
41
1
10
55.1733547298881
20
-1.6671347039902
30
0
41
1
10
55.0395634655515
20
-1.59109423039311
30
0
41
1
10
54.7713821292137
20
-1.4371877131255
30
0
41
1
10
54.6368217321559
20
-1.35921859407091
30
0
41
1
10
53.9662580627058
20
-0.967408890569089
30
0
41
1
10
53.4345702308949
20
-0.646368925291569
30
0
41
1
10
52.3735141220449
20
-0.0011361172751663
30
0
41
1
10
51.8442749831353
20
0.32327263332283
30
0
41
1
10
51.047231685572
20
0.804028915576168
30
0
41
1
10
50.7810185847769
20
0.963302801953546
30
0
41
1
10
50.3802460861788
20
1.19965291068317
30
0
41
1
10
50.2464154102096
20
1.27801332492504
30
0
41
1
10
49.9781924308653
20
1.43375121500429
30
0
41
1
10
49.8436370848972
20
1.51120916174125
30
0
41
1
10
48.6366511808184
20
2.19855721020537
30
0
41
1
10
47.5821439214061
20
2.74700947737694
30
0
41
1
10
46.2534946721405
20
3.31070378552701
30
0
41
1
10
45.9872005487412
20
3.41729760265375
30
0
41
1
10
45.5863219228459
20
3.56718071699797
30
0
41
1
10
45.452459086981
20
3.61547669175798
30
0
41
1
10
45.184169050056
20
3.70860756120663
30
0
41
1
10
45.0495894927121
20
3.75347697497833
30
0
41
1
10
44.3789642135035
20
3.96740687328273
30
0
41
1
10
43.8470493242001
20
4.10639028501669
30
0
41
1
10
42.7857298030942
20
4.31751519505826
30
0
41
1
10
42.2562132685585
20
4.38959996525367
30
0
41
1
10
41.4588787931967
20
4.44547519951502
30
0
41
1
10
41.1925543838656
20
4.45537863937059
30
0
41
1
10
40.9081619829851
20
4.45643819975624
30
0
41
1
10
40.8910517254331
20
4.45646543909177
30
0
41
1
10
40.8739373887263
20
4.45645613365767
30
0
0
SPLINE
5
103
100
AcDbEntity
8
1
62
256
6
ByLayer
370
18
48
1
60
0
100
AcDbSpline
70
4
71
3
72
26
73
22
40
0
40
0
40
0
40
0
40
0.209801024844752
40
0.209801024844752
40
0.275650939441022
40
0.275650939441022
40
0.308575896739158
40
0.308575896739158
40
0.341500854037293
40
0.341500854037293
40
0.473200683229834
40
0.473200683229834
40
0.604900512422375
40
0.604900512422375
40
0.670750427018646
40
0.670750427018646
40
0.736600341614918
40
0.736600341614918
40
0.868300170807458
40
0.868300170807458
40
1
40
1
40
1
40
1
41
1
10
20.2788090110061
20
-4.20571202929983
30
0
41
1
10
19.4285372891874
20
-4.37178060565131
30
0
41
1
10
18.5865033828808
20
-4.45118336534753
30
0
41
1
10
17.4727271355333
20
-4.43813820920511
30
0
41
1
10
17.2061641824035
20
-4.42621748730866
30
0
41
1
10
16.8048473286219
20
-4.39498409188991
30
0
41
1
10
16.6708295469248
20
-4.38234821269089
30
0
41
1
10
16.4021856928711
20
-4.35260632455962
30
0
41
1
10
16.2674378106833
20
-4.33547826935015
30
0
41
1
10
15.5961132387398
20
-4.23925186089772
30
0
41
1
10
15.0637872055512
20
-4.12807754702925
30
0
41
1
10
14.0012493521912
20
-3.84366357087887
30
0
41
1
10
13.4713554957256
20
-3.67018074325551
30
0
41
1
10
12.6730983364262
20
-3.36771923941447
30
0
41
1
10
12.4064538529915
20
-3.2598557881087
30
0
41
1
10
11.8712304447955
20
-3.03072771876342
30
0
41
1
10
11.6019174115094
20
-2.90912518710994
30
0
41
1
10
10.7955729675821
20
-2.52815951715121
30
0
41
1
10
10.2614655243128
20
-2.25317060522585
30
0
41
1
10
9.19291590321328
20
-1.67194723401508
30
0
41
1
10
8.65831064521765
20
-1.3659923907997
30
0
41
1
10
8.12039693157124
20
-1.04905816815039
30
0
0
SPLINE
5
104
100
AcDbEntity
8
1
62
256
6
ByLayer
370
18
48
1
60
0
100
AcDbSpline
70
4
71
3
72
8
73
4
40
0
40
0
40
0
40
0
40
1
40
1
40
1
40
1
41
1
10
111.999938430685
20
0.0471252501134529
30
0
41
1
10
112.000020523104
20
0.0157084167047401
30
0
41
1
10
112.000020523104
20
-0.0157084167040296
30
0
41
1
10
111.999938430685
20
-0.0471252501127424
30
0
0
SPLINE
5
105
100
AcDbEntity
8
1
62
256
6
ByLayer
370
18
48
1
60
0
100
AcDbSpline
70
4
71
3
72
8
73
4
40
0
40
0
40
0
40
0
40
1
40
1
40
1
40
1
41
1
10
111.999938430685
20
0.0471252501135666
30
0
41
1
10
111.992039631875
20
0.02341182744604
30
0
41
1
10
111.981910158937
20
-0.0007327196099425
30
0
41
1
10
111.97186235239
20
-0.0194104390426446
30
0
0
SPLINE
5
106
100
AcDbEntity
8
1
62
256
6
ByLayer
370
18
48
1
60
0
100
AcDbSpline
70
4
71
3
72
84
73
80
40
0
40
0
40
0
40
0
40
0.0341646783695196
40
0.0341646783695196
40
0.051247017554279
40
0.051247017554279
40
0.0683293567390384
40
0.0683293567390384
40
0.102494035108557
40
0.102494035108557
40
0.136658713478076
40
0.136658713478076
40
0.153741052662836
40
0.153741052662836
40
0.170823391847595
40
0.170823391847595
40
0.204988070217113
40
0.204988070217113
40
0.239152748586631
40
0.239152748586631
40
0.27331742695615
40
0.27331742695615
40
0.290399766140909
40
0.290399766140909
40
0.307482105325668
40
0.307482105325668
40
0.341646783695188
40
0.341646783695188
40
0.375811462064708
40
0.375811462064708
40
0.392893801249468
40
0.392893801249468
40
0.409976140434228
40
0.409976140434228
40
0.444140818803748
40
0.444140818803748
40
0.478305497173268
40
0.478305497173268
40
0.495387836358029
40
0.495387836358029
40
0.512470175542789
40
0.512470175542789
40
0.546634853912308
40
0.546634853912308
40
0.580799532281828
40
0.580799532281828
40
0.614964210651347
40
0.614964210651347
40
0.649128889020867
40
0.649128889020867
40
0.683293567390386
40
0.683293567390386
40
0.700375906575146
40
0.700375906575146
40
0.717458245759905
40
0.717458245759905
40
0.734540584944664
40
0.734540584944664
40
0.751622924129423
40
0.751622924129423
40
0.785787602498941
40
0.785787602498941
40
0.819952280868459
40
0.819952280868459
40
0.837034620053219
40
0.837034620053219
40
0.854116959237979
40
0.854116959237979
40
0.888281637607498
40
0.888281637607498
40
0.922446315977018
40
0.922446315977018
40
0.939528655161778
40
0.939528655161778
40
0.956610994346538
40
0.956610994346538
40
0.990775672716057
40
0.990775672716057
40
1
40
1
40
1
40
1
41
1
10
9.37845223803896
20
1.86581429020552
30
0
41
1
10
9.63840307327155
20
1.73400722739552
30
0
41
1
10
9.89710213313165
20
1.59908166346298
30
0
41
1
10
10.2828351351293
20
1.39122797082791
30
0
41
1
10
10.4110776078155
20
1.32111516604576
30
0
41
1
10
10.6673907745038
20
1.1801250759722
30
0
41
1
10
10.7959511678704
20
1.1101021922141
30
0
41
1
10
11.1806608536822
20
0.897668448885895
30
0
41
1
10
11.4362218797836
20
0.753529149280638
30
0
41
1
10
11.9475598865815
20
0.463677045605749
30
0
41
1
10
12.2033500419202
20
0.318018072932176
30
0
41
1
10
12.5873045187641
20
0.0986765820939581
30
0
41
1
10
12.7152640273973
20
0.0252912608868314
30
0
41
1
10
12.9712164850067
20
-0.121893700576777
30
0
41
1
10
13.0991412465378
20
-0.195819011950022
30
0
41
1
10
13.4848189339446
20
-0.41488847483339
30
0
41
1
10
13.7422124843398
20
-0.561400354436103
30
0
41
1
10
14.2583868828471
20
-0.853718135457797
30
0
41
1
10
14.5181024927583
20
-0.999148104953633
30
0
41
1
10
15.0346739670064
20
-1.28306143786358
30
0
41
1
10
15.2917683075446
20
-1.42282072508681
30
0
41
1
10
15.6761649042796
20
-1.62867771007123
30
0
41
1
10
15.8046774122186
20
-1.69570970695412
30
0
41
1
10
16.0609817214545
20
-1.82868336796295
30
0
41
1
10
16.1889478516168
20
-1.89429564101516
30
0
41
1
10
16.5724215575042
20
-2.08868298239185
30
0
41
1
10
16.8278111831378
20
-2.21458745784122
30
0
41
1
10
17.3390180638786
20
-2.45811037312836
30
0
41
1
10
17.5948116803486
20
-2.57568075456132
30
0
41
1
10
17.9785421064439
20
-2.74500220838971
30
0
41
1
10
18.1064842756166
20
-2.80034361597993
30
0
41
1
10
18.3634484516897
20
-2.90758982893115
30
0
41
1
10
18.4920086256375
20
-2.96010996436311
30
0
41
1
10
18.8779408723869
20
-3.11436534250166
30
0
41
1
10
19.1355814807495
20
-3.21271498065937
30
0
41
1
10
19.6540614419007
20
-3.39550007994057
30
0
41
1
10
19.9126524838597
20
-3.48005718190879
30
0
41
1
10
20.2986421197361
20
-3.59804494448559
30
0
41
1
10
20.4269414177835
20
-3.63602030993363
30
0
41
1
10
20.6834089706916
20
-3.70807248980489
30
0
41
1
10
20.8119939833844
20
-3.7416642453509
30
0
41
1
10
21.1966322272798
20
-3.83748799112126
30
0
41
1
10
21.4521846733074
20
-3.89467275845539
30
0
41
1
10
21.9634727545481
20
-3.99542319004084
30
0
41
1
10
22.2191597348595
20
-4.03912395879738
30
0
41
1
10
22.7310066511832
20
-4.10939089785614
30
0
41
1
10
22.9864567923678
20
-4.13726901739744
30
0
41
1
10
23.5004722405533
20
-4.17847042113385
30
0
41
1
10
23.757506796042
20
-4.19245638365834
30
0
41
1
10
24.2738703834172
20
-4.20184187024068
30
0
41
1
10
24.5337769972631
20
-4.19817438749772
30
0
41
1
10
24.9215101250526
20
-4.18239843744746
30
0
41
1
10
25.0504901875672
20
-4.17540010003142
30
0
41
1
10
25.3078304973015
20
-4.15754109586479
30
0
41
1
10
25.4360764972986
20
-4.14651440022951
30
0
41
1
10
25.6926908895828
20
-4.12023147937978
30
0
41
1
10
25.8212835591171
20
-4.10520644545682
30
0
41
1
10
26.0777308403245
20
-4.07146255445457
30
0
41
1
10
26.2057597546221
20
-4.05275352629454
30
0
41
1
10
26.5894322347026
20
-3.99149095459495
30
0
41
1
10
26.8449349953209
20
-3.94386240801265
30
0
41
1
10
27.3565841797242
20
-3.83260358904701
30
0
41
1
10
27.6126736404546
20
-3.76940807822777
30
0
41
1
10
27.9965252979424
20
-3.66493860398154
30
0
41
1
10
28.1246463933363
20
-3.62863115838303
30
0
41
1
10
28.381675068211
20
-3.55284943581086
30
0
41
1
10
28.5102852348981
20
-3.51311960828099
30
0
41
1
10
28.8965029878285
20
-3.38832308181688
30
0
41
1
10
29.1546716077001
20
-3.29764109629903
30
0
41
1
10
29.673388636865
20
-3.10510014727544
30
0
41
1
10
29.9318956137342
20
-3.00396155543825
30
0
41
1
10
30.3177320622601
20
-2.84303324126748
30
0
41
1
10
30.445878495909
20
-2.78771676716195
30
0
41
1
10
30.7025936493718
20
-2.6756894624817
30
0
41
1
10
30.8311057396631
20
-2.61891645913246
30
0
41
1
10
31.2156354595756
20
-2.44449468632291
30
0
41
1
10
31.471076692446
20
-2.32335785523131
30
0
41
1
10
31.7957140471646
20
-2.16444269873145
30
0
41
1
10
31.8647432713914
20
-2.13038631418456
30
0
41
1
10
31.9337819527258
20
-2.09606020771059
30
0
0
SPLINE
5
107
100
AcDbEntity
8
1
62
256
6
ByLayer
370
18
48
1
60
0
100
AcDbSpline
70
4
71
3
72
110
73
106
40
0
40
0
40
0
40
0
40
0.0219937311487879
40
0.0219937311487879
40
0.0345187843968108
40
0.0345187843968108
40
0.0470438376448334
40
0.0470438376448334
40
0.0720939441408798
40
0.0720939441408798
40
0.0971440506369264
40
0.0971440506369264
40
0.10966910388495
40
0.10966910388495
40
0.122194157132974
40
0.122194157132974
40
0.14724426362902
40
0.14724426362902
40
0.172294370125067
40
0.172294370125067
40
0.18481942337309
40
0.18481942337309
40
0.197344476621113
40
0.197344476621113
40
0.222394583117159
40
0.222394583117159
40
0.247444689613204
40
0.247444689613204
40
0.259969742861227
40
0.259969742861227
40
0.272494796109249
40
0.272494796109249
40
0.297544902605294
40
0.297544902605294
40
0.322595009101338
40
0.322595009101338
40
0.347645115597382
40
0.347645115597382
40
0.360170168845404
40
0.360170168845404
40
0.372695222093426
40
0.372695222093426
40
0.397745328589469
40
0.397745328589469
40
0.422795435085512
40
0.422795435085512
40
0.435320488333534
40
0.435320488333534
40
0.447845541581556
40
0.447845541581556
40
0.4728956480776
40
0.4728956480776
40
0.497945754573645
40
0.497945754573645
40
0.510470807821667
40
0.510470807821667
40
0.522995861069689
40
0.522995861069689
40
0.548045967565735
40
0.548045967565735
40
0.57309607406178
40
0.57309607406178
40
0.585621127309802
40
0.585621127309802
40
0.598146180557825
40
0.598146180557825
40
0.62319628705387
40
0.62319628705387
40
0.648246393549916
40
0.648246393549916
40
0.673296500045961
40
0.673296500045961
40
0.685821553293984
40
0.685821553293984
40
0.698346606542006
40
0.698346606542006
40
0.723396713038052
40
0.723396713038052
40
0.748446819534097
40
0.748446819534097
40
0.76097187278212
40
0.76097187278212
40
0.773496926030142
40
0.773496926030142
40
0.798547032526187
40
0.798547032526187
40
0.823597139022233
40
0.823597139022233
40
0.836122192270255
40
0.836122192270255
40
0.848647245518278
40
0.848647245518278
40
0.873697352014323
40
0.873697352014323
40
0.898747458510369
40
0.898747458510369
40
0.923797565006414
40
0.923797565006414
40
0.948847671502459
40
0.948847671502459
40
0.973897777998505
40
0.973897777998505
40
0.99894788449455
40
0.99894788449455
40
1
40
1
40
1
40
1
41
1
10
47.2213586062661
20
4.2135891606822
30
0
41
1
10
47.4458426669506
20
4.21391483771143
30
0
41
1
10
47.6703773246714
20
4.20799249926694
30
0
41
1
10
48.02264119454
20
4.19023660999619
30
0
41
1
10
48.1509517220572
20
4.18213734423662
30
0
41
1
10
48.407643161103
20
4.16244939921077
30
0
41
1
10
48.5360517706005
20
4.15068426901334
30
0
41
1
10
48.9218038808021
20
4.10812298647002
30
0
41
1
10
49.1797965919385
20
4.07118136935088
30
0
41
1
10
49.698139396161
20
3.9836524103282
30
0
41
1
10
49.9565115109837
20
3.93388056791176
30
0
41
1
10
50.3419534122961
20
3.84629649911071
30
0
41
1
10
50.4699995931612
20
3.81486125049651
30
0
41
1
10
50.7268607585555
20
3.74960269508543
30
0
41
1
10
50.8551172471509
20
3.71532712044359
30
0
41
1
10
51.2392695262444
20
3.60766566906852
30
0
41
1
10
51.4945162768272
20
3.52993886523083
30
0
41
1
10
52.0053523884038
20
3.36095628114191
30
0
41
1
10
52.2610242650427
20
3.26966063833882
30
0
41
1
10
52.644353856876
20
3.12411685347587
30
0
41
1
10
52.7720954971654
20
3.0740692742549
30
0
41
1
10
53.0275899628343
20
2.97108309766293
30
0
41
1
10
53.1558920876496
20
2.91888525502406
30
0
41
1
10
53.5408818238831
20
2.75717403589565
30
0
41
1
10
53.7978518617355
20
2.64250140539286
30
0
41
1
10
54.3138385744278
20
2.40405376747603
30
0
41
1
10
54.5734770074825
20
2.28002462198208
30
0
41
1
10
54.9606235694702
20
2.08874517220656
30
0
41
1
10
55.0893298590081
20
2.02388267677719
30
0
41
1
10
55.3461641086229
20
1.89219462572859
30
0
41
1
10
55.4742104365637
20
1.82524538494755
30
0
41
1
10
55.8593648268836
20
1.62470522942098
30
0
41
1
10
56.1151840309277
20
1.48772871404569
30
0
41
1
10
56.6259138575143
20
1.20836885910592
30
0
41
1
10
56.8811588085504
20
1.06642855242421
30
0
41
1
10
57.3920951337641
20
0.779707542672014
30
0
41
1
10
57.6473895225656
20
0.634420362275137
30
0
41
1
10
58.0304436362862
20
0.413659140012356
30
0
41
1
10
58.1587652345772
20
0.340700711068735
30
0
41
1
10
58.4153467971155
20
0.193674109384716
30
0
41
1
10
58.5437301888511
20
0.119823466746936
30
0
41
1
10
58.9291924776119
20
-0.102590397019753
30
0
41
1
10
59.1867009669405
20
-0.251572513851443
30
0
41
1
10
59.7044677223955
20
-0.548696844265606
30
0
41
1
10
59.9627009548217
20
-0.695587868176375
30
0
41
1
10
60.347853525161
20
-0.914076085257165
30
0
41
1
10
60.4759269174792
20
-0.986616330750792
30
0
41
1
10
60.7326381509052
20
-1.12926781774249
30
0
41
1
10
60.860774912615
20
-1.20022060641642
30
0
41
1
10
61.2445831259704
20
-1.41135237156158
30
0
41
1
10
61.4996728193247
20
-1.54988319693865
30
0
41
1
10
62.0102339133994
20
-1.81957631292707
30
0
41
1
10
62.2656770608874
20
-1.951146874963
30
0
41
1
10
62.6485742420513
20
-2.14415995111221
30
0
41
1
10
62.7761580954553
20
-2.20768118125753
30
0
41
1
10
63.0315290849119
20
-2.33266539119515
30
0
41
1
10
63.1598685078397
20
-2.39331040421868
30
0
41
1
10
63.5446491970867
20
-2.57309239974941
30
0
41
1
10
63.8012536717399
20
-2.68963459720521
30
0
41
1
10
64.3165371017898
20
-2.91323949418737
30
0
41
1
10
64.5760693797561
20
-3.01974628091412
30
0
41
1
10
64.9629829331205
20
-3.16988262289169
30
0
41
1
10
65.0916294490959
20
-3.21846135312435
30
0
41
1
10
65.3483640183348
20
-3.31293410025421
30
0
41
1
10
65.4764776567812
20
-3.35887467239922
30
0
41
1
10
65.8614856168807
20
-3.4906401185506
30
0
41
1
10
66.1171485584882
20
-3.57185358815119
30
0
41
1
10
66.6277864930466
20
-3.72071542936348
30
0
41
1
10
66.8829889031322
20
-3.78842999342493
30
0
41
1
10
67.3936998914492
20
-3.91072057003046
30
0
41
1
10
67.6488564867681
20
-3.96469283316091
30
0
41
1
10
68.0320156492489
20
-4.0346158727518
30
0
41
1
10
68.1603753713407
20
-4.0558402117839
30
0
41
1
10
68.4168522558035
20
-4.09507238738359
30
0
41
1
10
68.5451462211674
20
-4.11296589963874
30
0
41
1
10
68.9303632536701
20
-4.16108306105275
30
0
41
1
10
69.1880447349009
20
-4.18513295027293
30
0
41
1
10
69.7060134051574
20
-4.21734316922786
30
0
41
1
10
69.9640466191437
20
-4.22594898028083
30
0
41
1
10
70.3491490802244
20
-4.22733403489551
30
0
41
1
10
70.4773102991367
20
-4.22580100369677
30
0
41
1
10
70.7339877968792
20
-4.21869764752307
30
0
41
1
10
70.8621150386837
20
-4.21313269921973
30
0
41
1
10
71.2459238838671
20
-4.19069056739699
30
0
41
1
10
71.5010793585902
20
-4.16826390889725
30
0
41
1
10
72.0116749835241
20
-4.10876556876136
30
0
41
1
10
72.2671787888341
20
-4.07134216542738
30
0
41
1
10
72.6502410484692
20
-4.00364351991911
30
0
41
1
10
72.7778232893671
20
-3.97915583191249
30
0
41
1
10
73.0333512529762
20
-3.92693279134815
30
0
41
1
10
73.1617022430097
20
-3.89951301295275
30
0
41
1
10
73.5464748802899
20
-3.81070878799775
30
0
41
1
10
73.8032890414712
20
-3.74302042547282
30
0
41
1
10
74.3192025574444
20
-3.5944481110752
30
0
41
1
10
74.5787264149596
20
-3.51375101656345
30
0
41
1
10
75.0942483158687
20
-3.34004098089744
30
0
41
1
10
75.3502725988752
20
-3.24537304657429
30
0
41
1
10
75.8632367297412
20
-3.04809032482791
30
0
41
1
10
76.1187315298231
20
-2.94392224349679
30
0
41
1
10
76.6290447609965
20
-2.72536645941244
30
0
41
1
10
76.8841416125659
20
-2.61037310639929
30
0
41
1
10
77.3947336998536
20
-2.37222120601848
30
0
41
1
10
77.6496159712877
20
-2.24815865203163
30
0
41
1
10
77.9157210851386
20
-2.11487545653355
30
0
41
1
10
77.9264513079102
20
-2.1095005204534
30
0
41
1
10
77.9371853237121
20
-2.10412229734226
30
0
0
SPLINE
5
108
100
AcDbEntity
8
1
62
256
6
ByLayer
370
18
48
1
60
0
100
AcDbSpline
70
4
71
3
72
54
73
50
40
0
40
0
40
0
40
0
40
0.0342308248895286
40
0.0342308248895286
40
0.0878846679512225
40
0.0878846679512225
40
0.141538511012917
40
0.141538511012917
40
0.19519235407461
40
0.19519235407461
40
0.248846197136305
40
0.248846197136305
40
0.275673118667152
40
0.275673118667152
40
0.302500040197998
40
0.302500040197998
40
0.329326961728845
40
0.329326961728845
40
0.356153883259692
40
0.356153883259692
40
0.409807726321386
40
0.409807726321386
40
0.46346156938308
40
0.46346156938308
40
0.517115412444774
40
0.517115412444774
40
0.570769255506468
40
0.570769255506468
40
0.624423098568162
40
0.624423098568162
40
0.651250020099006
40
0.651250020099006
40
0.678076941629852
40
0.678076941629852
40
0.731730784691541
40
0.731730784691541
40
0.78538462775323
40
0.78538462775323
40
0.812211549284077
40
0.812211549284077
40
0.839038470814923
40
0.839038470814923
40
0.892692313876618
40
0.892692313876618
40
0.946346156938312
40
0.946346156938312
40
0.973173078469156
40
0.973173078469156
40
1
40
1
40
1
40
1
41
1
10
93.5503514910457
20
4.23877862338193
30
0
41
1
10
93.7139477098097
20
4.23515630814327
30
0
41
1
10
93.8777824317367
20
4.22825318515965
30
0
41
1
10
94.299849636221
20
4.20147471557587
30
0
41
1
10
94.5590968784242
20
4.17673161091579
30
0
41
1
10
95.0739440901195
20
4.11427276492699
30
0
41
1
10
95.3298322035192
20
4.07519439266611
30
0
41
1
10
95.842224190299
20
3.98212741042354
30
0
41
1
10
96.0974522731982
20
3.92758452652592
30
0
41
1
10
96.6074325323885
20
3.80667962531811
30
0
41
1
10
96.8623047247337
20
3.73940348921309
30
0
41
1
10
97.2450087023776
20
3.62759427337505
30
0
41
1
10
97.3725715161732
20
3.588514302362
30
0
41
1
10
97.6276549885639
20
3.50684809224723
30
0
41
1
10
97.7550028163575
20
3.46413160464198
30
0
41
1
10
98.0105941066797
20
3.37667148839574
30
0
41
1
10
98.1387766605523
20
3.33179128827541
30
0
41
1
10
98.39507545391
20
3.23808479237931
30
0
41
1
10
98.5233131591033
20
3.18944452253089
30
0
41
1
10
98.90852021127
20
3.03862795348633
30
0
41
1
10
99.1667211754723
20
2.93164665801933
30
0
41
1
10
99.6834686785231
20
2.70864145338183
30
0
41
1
10
99.9407703169936
20
2.59261307860214
30
0
41
1
10
100.452802728146
20
2.34959103649891
30
0
41
1
10
100.709055460929
20
2.22509195783948
30
0
41
1
10
101.219594818503
20
1.96731962419111
30
0
41
1
10
101.474296088088
20
1.83456209442869
30
0
41
1
10
101.98403645
20
1.56380784844683
30
0
41
1
10
102.239103043304
20
1.42592839794602
30
0
41
1
10
102.621391377013
20
1.21415145183181
30
0
41
1
10
102.748607335276
20
1.14243588897389
30
0
41
1
10
103.004105902064
20
0.999232853684475
30
0
41
1
10
103.13223452084
20
0.927489828995135
30
0
41
1
10
103.516500917495
20
0.709709071300409
30
0
41
1
10
103.772903763941
20
0.56178656933659
30
0
41
1
10
104.288192669153
20
0.264081859462323
30
0
41
1
10
104.547306260258
20
0.114167477574909
30
0
41
1
10
104.933118273575
20
-0.109741533509151
30
0
41
1
10
105.061405515604
20
-0.184384690434513
30
0
41
1
10
105.317438289636
20
-0.333538810068319
30
0
41
1
10
105.445520937017
20
-0.407448451158928
30
0
41
1
10
105.82958981337
20
-0.627894625517371
30
0
41
1
10
106.08462838464
20
-0.774482481022631
30
0
41
1
10
106.594380499714
20
-1.06384034911525
30
0
41
1
10
106.849190680717
20
-1.20646885373276
30
0
41
1
10
107.231691508363
20
-1.41675352090661
30
0
41
1
10
107.359167038851
20
-1.48635752183523
30
0
41
1
10
107.614070017355
20
-1.62455472691434
30
0
41
1
10
107.741308998194
20
-1.69345053165065
30
0
41
1
10
107.869113187761
20
-1.76087404470312
30
0
0
SPLINE
5
109
100
AcDbEntity
8
1
62
256
6
ByLayer
370
18
48
1
60
0
100
AcDbSpline
70
4
71
3
72
12
73
8
40
0
40
0
40
0
40
0
40
0.5
40
0.5
40
0.75
40
0.75
40
1
40
1
40
1
40
1
41
1
10
110.544319688988
20
4.3793581731872
30
0
41
1
10
110.763362891501
20
3.84537442097556
30
0
41
1
10
110.981669549854
20
3.30845770739813
30
0
41
1
10
111.305087210936
20
2.49749306538448
30
0
41
1
10
111.412357787941
20
2.22598502638817
30
0
41
1
10
111.624452177839
20
1.68259455530043
30
0
41
1
10
111.729256045143
20
1.41075092865677
30
0
41
1
10
111.832623333606
20
1.13867323161361
30
0
0
SPLINE
5
10A
100
AcDbEntity
8
1
62
256
6
ByLayer
370
18
48
1
60
0
100
AcDbSpline
70
4
71
3
72
18
73
14
40
0
40
0
40
0
40
0
40
0.151841633154065
40
0.286186446785287
40
0.395645814049418
40
0.472651690704219
40
0.541711383789527
40
0.617747022557063
40
0.687952833001827
40
0.753607781616664
40
0.838834111624383
40
0.91863013677682
40
1
40
1
40
1
40
1
41
1
10
87.0310527746494
20
-4.23785338766095
30
0
41
1
10
87.3500725021247
20
-4.23724359865074
30
0
41
1
10
87.952308457028
20
-4.23674527810141
30
0
41
1
10
88.7940403161036
20
-4.23823549220486
30
0
41
1
10
89.46848189257
20
-4.23990500031394
30
0
41
1
10
90.010580232999
20
-4.23947348553165
30
0
41
1
10
90.4827908371359
20
-4.24055275279443
30
0
41
1
10
90.9286497261513
20
-4.23932159891365
30
0
41
1
10
91.3829115617956
20
-4.2378284759543
30
0
41
1
10
91.8401046252249
20
-4.24127408153984
30
0
41
1
10
92.3354940922733
20
-4.24185385611466
30
0
41
1
10
92.8452492304202
20
-4.23805002650096
30
0
41
1
10
93.1893192462646
20
-4.23694906010002
30
0
41
1
10
93.3614045711455
20
-4.23754433185215
30
0
0
SPLINE
5
10B
100
AcDbEntity
8
1
62
256
6
ByLayer
370
18
48
1
60
0
100
AcDbSpline
70
4
71
3
72
8
73
4
40
0
40
0
40
0
40
0
40
1
40
1
40
1
40
1
41
1
10
93.4894951533956
20
-4.23819184182074
30
0
41
1
10
93.5099164699493
20
-4.23832534387614
30
0
41
1
10
93.5303312548402
20
-4.23847211876594
30
0
41
1
10
93.5507485789045
20
-4.23863050007071
30
0
0
SPLINE
5
10C
100
AcDbEntity
8
1
62
256
6
ByLayer
370
18
48
1
60
0
100
AcDbSpline
70
4
71
3
72
16
73
12
40
0
40
0
40
0
40
0
40
0.140075022878809
40
0.283062154755181
40
0.397165519990428
40
0.498863063066665
40
0.588455993482855
40
0.671770901299241
40
0.821987270053981
40
0.959941026287552
40
1
40
1
40
1
40
1
41
1
10
24.3615786540681
20
4.19848258075487
30
0
41
1
10
24.1728338510726
20
4.19871167476609
30
0
41
1
10
23.7914983726826
20
4.19897176457934
30
0
41
1
10
23.2557690948196
20
4.19713783311417
30
0
41
1
10
22.7734457874903
20
4.19764645214957
30
0
41
1
10
22.3621347451745
20
4.19813074486177
30
0
41
1
10
21.9920348175481
20
4.1974285099204
30
0
41
1
10
21.5564225433544
20
4.19673034399815
30
0
41
1
10
21.0556393732599
20
4.19697389547804
30
0
41
1
10
20.6131367784949
20
4.1966634579336
30
0
41
1
10
20.3732532841679
20
4.19634242991586
30
0
41
1
10
20.3192721786822
20
4.19627223500746
30
0
0
SPLINE
5
10D
100
AcDbEntity
8
1
62
256
6
ByLayer
370
18
48
1
60
0
100
AcDbSpline
70
4
71
3
72
20
73
16
40
0
40
0
40
0
40
0
40
0.122345921674319
40
0.224759958688507
40
0.301157776985088
40
0.361232966796863
40
0.422833861032218
40
0.486392850574851
40
0.549768084011704
40
0.60616758561191
40
0.669781028121581
40
0.734222939432732
40
0.810716384715281
40
0.905780296307517
40
1
40
1
40
1
40
1
41
1
10
41.0689949619904
20
-4.20915461450554
30
0
41
1
10
41.3214770532153
20
-4.20926527631929
30
0
41
1
10
41.7853298839911
20
-4.20949303904265
30
0
41
1
10
42.4066332094141
20
-4.21004649426399
30
0
41
1
10
42.8998765007619
20
-4.21026308247156
30
0
41
1
10
43.3080243706989
20
-4.21040319806849
30
0
41
1
10
43.6902675666448
20
-4.21094751753159
30
0
41
1
10
44.0793718280531
20
-4.21132063717045
30
0
41
1
10
44.457720108406
20
-4.21122789572078
30
0
41
1
10
44.8361814996636
20
-4.21116261719541
30
0
41
1
10
45.2168678268852
20
-4.2119601744466
30
0
41
1
10
45.639004813875
20
-4.21258159920157
30
0
41
1
10
46.1260671787615
20
-4.21174353606716
30
0
41
1
10
46.6745742678314
20
-4.21292284588844
30
0
41
1
10
47.0652189678507
20
-4.21303758142002
30
0
41
1
10
47.2596700412339
20
-4.21311328385224
30
0
0
SPLINE
5
10E
100
AcDbEntity
8
1
62
256
6
ByLayer
370
18
48
1
60
0
100
AcDbSpline
70
4
71
3
72
14
73
10
40
0
40
0
40
0
40
0
40
0.179796440561622
40
0.376548844591589
40
0.551363228248116
40
0.703093917159699
40
0.811971543290832
40
0.91382912187303
40
1
40
1
40
1
40
1
41
1
10
70.5208660233607
20
4.22430680521194
30
0
41
1
10
70.263487130195
20
4.22343441330659
30
0
41
1
10
69.7256238835014
20
4.22229083281613
30
0
41
1
10
68.9468074578824
20
4.22739501219797
30
0
41
1
10
68.201713964061
20
4.22580913044359
30
0
41
1
10
67.5796160907294
20
4.22619599357697
30
0
41
1
10
67.0636935941719
20
4.22540393156143
30
0
41
1
10
66.6433588597971
20
4.22394140896321
30
0
41
1
10
66.3745969664363
20
4.22442675765205
30
0
41
1
10
66.2519701270367
20
4.22460781183432
30
0
0
SPLINE
5
10F
100
AcDbEntity
8
1
62
256
6
ByLayer
370
18
48
1
60
0
100
AcDbSpline
70
4
71
3
72
18
73
14
40
0
40
0
40
0
40
0
40
0.0346166110575037
40
0.138716784930383
40
0.228247448523585
40
0.320640855983336
40
0.423067009954308
40
0.541562570509314
40
0.68868610297903
40
0.812595552455311
40
0.902394240856182
40
0.990324530281861
40
1
40
1
40
1
40
1
41
1
10
47.2170754850278
20
4.21347950465182
30
0
41
1
10
47.1713708236226
20
4.21357479523323
30
0
41
1
10
46.9882332041794
20
4.21384436350414
30
0
41
1
10
46.686986275455
20
4.21260975696097
30
0
41
1
10
46.3095816293564
20
4.21195353184567
30
0
41
1
10
45.9341738482041
20
4.21212570915998
30
0
41
1
10
45.5205323550315
20
4.21260610500809
30
0
41
1
10
45.0346108213871
20
4.21135225130914
30
0
41
1
10
44.5203771501671
20
4.21113727706972
30
0
41
1
10
44.0438333320317
20
4.21136599686588
30
0
41
1
10
43.6460845422063
20
4.21075647797488
30
0
41
1
10
43.3989290467792
20
4.21031542624812
30
0
41
1
10
43.2701340042836
20
4.21017584391456
30
0
41
1
10
43.2573661714544
20
4.21016281600876
30
0
0
SPLINE
5
110
100
AcDbEntity
8
1
62
256
6
ByLayer
370
18
48
1
60
0
100
AcDbSpline
70
4
71
3
72
17
73
13
40
0
40
0
40
0
40
0
40
0.0423381222855959
40
0.190395633343507
40
0.326642472542212
40
0.433002507459046
40
0.519423514452509
40
0.614439070266182
40
0.727827416197241
40
0.83081286481479
40
0.945648080541481
40
1
40
1
40
1
40
1
41
1
10
93.5499703657507
20
4.23862595299121
30
0
41
1
10
93.4901125479127
20
4.23816558130991
30
0
41
1
10
93.2210179719317
20
4.23648198358529
30
0
41
1
10
92.7545458651102
20
4.23912072166718
30
0
41
1
10
92.2104592514719
20
4.24176311380526
30
0
41
1
10
91.737152315911
20
4.24079480583495
30
0
41
1
10
91.3386393696666
20
4.23774064986927
30
0
41
1
10
90.9151282574142
20
4.23943911018043
30
0
41
1
10
90.4828115393182
20
4.24053206342643
30
0
41
1
10
90.0105742912607
20
4.23947942359732
30
0
41
1
10
89.6233779680384
20
4.23978165393493
30
0
41
1
10
89.3840125132344
20
4.23949671219
30
0
41
1
10
89.3071609548741
20
4.23937520855245
30
0
0
SPLINE
5
111
100
AcDbEntity
8
1
62
256
6
ByLayer
370
18
48
1
60
0
100
AcDbSpline
70
4
71
1
72
4
73
2
40
0
40
0
40
1
40
1
41
1
10
110.031404068452
20
-4.25225892424837
30
0
41
1
10
110.438536093362
20
-4.25252790022859
30
0
0
SPLINE
5
112
100
AcDbEntity
8
1
62
256
6
ByLayer
370
18
48
1
60
0
100
AcDbSpline
70
4
71
3
72
17
73
13
40
0
40
0
40
0
40
0
40
0.105270057795572
40
0.210953144862921
40
0.315609498914063
40
0.400512260911787
40
0.467487348339595
40
0.539078374069456
40
0.666130007599255
40
0.817055038539334
40
0.981109866488619
40
1
40
1
40
1
40
1
41
1
10
64.031082164602
20
-4.22360628713
30
0
41
1
10
64.2563749111367
20
-4.22317419403171
30
0
41
1
10
64.7084516995678
20
-4.22275584436531
30
0
41
1
10
65.3993403084467
20
-4.22367752512585
30
0
41
1
10
66.023677548631
20
-4.2254079956908
30
0
41
1
10
66.5825445659988
20
-4.2237242861068
30
0
41
1
10
67.0637143815605
20
-4.22542038532114
30
0
41
1
10
67.6385638538993
20
-4.22619799334797
30
0
41
1
10
68.3995388357441
20
-4.22623109051892
30
0
41
1
10
69.3493054132076
20
-4.22591695079939
30
0
41
1
10
70.0796653749558
20
-4.22246287486757
30
0
41
1
10
70.4713129406442
20
-4.22390633966637
30
0
41
1
10
70.5117255899324
20
-4.2240689779992
30
0
0
SPLINE
5
113
100
AcDbEntity
8
1
62
256
6
ByLayer
370
18
48
1
60
0
100
AcDbSpline
70
4
71
3
72
20
73
16
40
0
40
0
40
0
40
0
40
0.116019058269047
40
0.206997023070907
40
0.273509306495344
40
0.331085248947983
40
0.390194431306724
40
0.452742406137803
40
0.524121308946985
40
0.616754904653248
40
0.694848724228967
40
0.751856407354314
40
0.808422372056294
40
0.901209588482579
40
1
40
1
40
1
40
1
41
1
10
18.0303996252626
20
-4.19473991897854
30
0
41
1
10
18.2692616941957
20
-4.19478777871663
30
0
41
1
10
18.6958055646438
20
-4.19495779650862
30
0
41
1
10
19.2608028310308
20
-4.19484302839859
30
0
41
1
10
19.7049027539676
20
-4.19560571486943
30
0
41
1
10
20.0805181079433
20
-4.19604981451229
30
0
41
1
10
20.4510417476288
20
-4.19641993971237
30
0
41
1
10
20.8498808216499
20
-4.19696558671936
30
0
41
1
10
21.3180650690842
20
-4.19676905310192
30
0
41
1
10
21.8183101521447
20
-4.19693559132585
30
0
41
1
10
22.2890196693878
20
-4.19816854078348
30
0
41
1
10
22.6844390216888
20
-4.19778738702155
30
0
41
1
10
23.1108511923276
20
-4.19750658561762
30
0
41
1
10
23.6236255915873
20
-4.19912942754561
30
0
41
1
10
24.0194774545035
20
-4.19900215060252
30
0
41
1
10
24.2236018654499
20
-4.19885772065959
30
0
0
SPLINE
5
114
100
AcDbEntity
8
1
62
256
6
ByLayer
370
18
48
1
60
0
100
AcDbSpline
70
4
71
2
72
6
73
3
40
0
40
0
40
0
40
1
40
1
40
1
41
1
10
98.3702163611077
20
0.0016397795321836
30
0
41
1
10
98.3702003863616
20
0.0016487145072404
30
0
41
1
10
98.3701844117022
20
0.0016579778647952
30
0
0
LINE
5
7B
100
AcDbEntity
8
SK1
62
256
6
ByLayer
370
18
48
1
60
0
100
AcDbLine
10
-40
20
3.66
30
0
11
-40
21
2.474433
31
0
39
0
210
0
220
0
230
1
0
LINE
5
7D
100
AcDbEntity
8
SK1
62
256
6
ByLayer
370
18
48
1
60
0
100
AcDbLine
10
0
20
-5
30
0
11
0
21
5
31
0
39
0
210
0
220
0
230
1
0
LINE
5
7E
100
AcDbEntity
8
SK1
62
256
6
ByLayer
370
18
48
1
60
0
100
AcDbLine
10
-38.66
20
5
30
0
11
-38.66
21
-5
31
0
39
0
210
0
220
0
230
1
0
LINE
5
7F
100
AcDbEntity
8
SK1
62
256
6
ByLayer
370
13
48
1
60
0
100
AcDbLine
10
-39.35
20
2.776022
30
0
11
-39.35
21
0.988936
31
0
39
0
210
0
220
0
230
1
0
LINE
5
80
100
AcDbEntity
8
SK1
62
256
6
ByLayer
370
18
48
1
60
0
100
AcDbLine
10
-39.25
20
1.134379
30
0
11
-39.25
21
2.74271
31
0
39
0
210
0
220
0
230
1
0
LINE
5
81
100
AcDbEntity
8
SK1
62
256
6
ByLayer
370
18
48
1
60
0
100
AcDbLine
10
-40
20
0.687399
30
0
11
-40
21
-3.66
31
0
39
0
210
0
220
0
230
1
0
LINE
5
82
100
AcDbEntity
8
SK1
62
256
6
ByLayer
370
18
48
1
60
0
100
AcDbLine
10
-40
20
2.474433
30
0
11
-40
21
0.687405
31
0
39
0
210
0
220
0
230
1
0
LINE
5
83
100
AcDbEntity
8
1
62
256
6
ByLayer
370
13
48
1
60
0
100
AcDbLine
10
110.350759
20
1.006787
30
0
11
111.971862
21
-0.01941
31
0
39
0
210
0
220
0
230
1
0
LINE
5
84
100
AcDbEntity
8
1
62
256
6
ByLayer
370
13
48
1
60
0
100
AcDbLine
10
0.611483
20
4.715837
30
0
11
0.611483
21
-4.715837
31
0
39
0
210
0
220
0
230
1
0
LINE
5
85
100
AcDbEntity
8
1
62
256
6
ByLayer
370
18
48
1
60
0
100
AcDbLine
10
109.730173
20
-3.119017
30
0
11
111.860761
21
-0.227188
31
0
39
0
210
0
220
0
230
1
0
LINE
5
86
100
AcDbEntity
8
1
62
256
6
ByLayer
370
13
48
1
60
0
100
AcDbLine
10
1.223467
20
4.431675
30
0
11
1.223467
21
-4.431675
31
0
39
0
210
0
220
0
230
1
0
LINE
5
87
100
AcDbEntity
8
1
62
256
6
ByLayer
370
18
48
1
60
0
100
AcDbLine
10
0
20
-5
30
0
11
0
21
5
31
0
39
0
210
0
220
0
230
1
0
LINE
5
88
100
AcDbEntity
8
1
62
256
6
ByLayer
370
13
48
1
60
0
100
AcDbLine
10
110.455178
20
1.1225
30
0
11
111.974921
21
0.160466
31
0
39
0
210
0
220
0
230
1
0
LINE
5
89
100
AcDbEntity
8
80
62
256
6
ByLayer
370
18
48
1
60
0
100
AcDbLine
10
0
20
0
30
0
11
-5
21
0
31
0
39
0
210
0
220
0
230
1
0
LINE
5
8A
100
AcDbEntity
8
4
62
256
6
ByLayer
370
18
48
0.05
60
0
100
AcDbLine
10
112
20
0
30
0
11
0
21
0
31
0
39
0
210
0
220
0
230
1
0
LINE
5
8C
100
AcDbEntity
8
SK4
62
256
6
ByLayer
370
18
48
0.05
60
0
100
AcDbLine
10
117
20
0
30
0
11
-45
21
0
31
0
39
0
210
0
220
0
230
1
0
LINE
5
8E
100
AcDbEntity
8
SK1
62
256
6
ByLayer
370
18
48
1
60
0
100
AcDbLine
10
-40
20
-3.66
30
0
11
-38.66
21
-5
31
0
39
0
210
0
220
0
230
1
0
LINE
5
8F
100
AcDbEntity
8
SK1
62
256
6
ByLayer
370
18
48
1
60
0
100
AcDbLine
10
-38.66
20
5
30
0
11
-40
21
3.66
31
0
39
0
210
0
220
0
230
1
0
LINE
5
90
100
AcDbEntity
8
SK1
62
256
6
ByLayer
370
18
48
1
60
0
100
AcDbLine
10
-38.66
20
-5
30
0
11
0
21
-5
31
0
39
0
210
0
220
0
230
1
0
LINE
5
91
100
AcDbEntity
8
SK1
62
256
6
ByLayer
370
18
48
1
60
0
100
AcDbLine
10
0
20
5
30
0
11
-38.66
21
5
31
0
39
0
210
0
220
0
230
1
0
LINE
5
92
100
AcDbEntity
8
1
62
256
6
ByLayer
370
18
48
1
60
0
100
AcDbLine
10
1.223467
20
-4.431675
30
0
11
6.262579
21
-4.434824
31
0
39
0
210
0
220
0
230
1
0
LINE
5
93
100
AcDbEntity
8
1
62
256
6
ByLayer
370
18
48
1
60
0
100
AcDbLine
10
16.831742
20
-4.44143
30
0
11
17.872295
21
-4.44208
31
0
39
0
210
0
220
0
230
1
0
LINE
5
94
100
AcDbEntity
8
1
62
256
6
ByLayer
370
18
48
1
60
0
100
AcDbLine
10
39.835563
20
-4.455807
30
0
11
40.872643
21
-4.456455
31
0
39
0
210
0
220
0
230
1
0
LINE
5
95
100
AcDbEntity
8
1
62
256
6
ByLayer
370
18
48
1
60
0
100
AcDbLine
10
62.837998
20
-4.470184
30
0
11
63.872937
21
-4.470831
31
0
39
0
210
0
220
0
230
1
0
LINE
5
96
100
AcDbEntity
8
1
62
256
6
ByLayer
370
18
48
1
60
0
100
AcDbLine
10
85.841469
20
-4.484561
30
0
11
86.87278
21
-4.485205
31
0
39
0
210
0
220
0
230
1
0
LINE
5
97
100
AcDbEntity
8
1
62
256
6
ByLayer
370
18
48
1
60
0
100
AcDbLine
10
108.844861
20
-4.498938
30
0
11
109.87312
21
-4.499581
31
0
39
0
210
0
220
0
230
1
0
LINE
5
98
100
AcDbEntity
8
1
62
256
6
ByLayer
370
18
48
1
60
0
100
AcDbLine
10
109.873041
20
4.499581
30
0
11
108.844861
21
4.498938
31
0
39
0
210
0
220
0
230
1
0
LINE
5
99
100
AcDbEntity
8
1
62
256
6
ByLayer
370
18
48
1
60
0
100
AcDbLine
10
86.872632
20
4.485205
30
0
11
85.841469
21
4.484561
31
0
39
0
210
0
220
0
230
1
0
LINE
5
9A
100
AcDbEntity
8
1
62
256
6
ByLayer
370
18
48
1
60
0
100
AcDbLine
10
63.872652
20
4.47083
30
0
11
62.837998
21
4.470184
31
0
39
0
210
0
220
0
230
1
0
LINE
5
9B
100
AcDbEntity
8
1
62
256
6
ByLayer
370
18
48
1
60
0
100
AcDbLine
10
40.872796
20
4.456455
30
0
11
39.835563
21
4.455807
31
0
39
0
210
0
220
0
230
1
0
LINE
5
9C
100
AcDbEntity
8
1
62
256
6
ByLayer
370
18
48
1
60
0
100
AcDbLine
10
17.872695
20
4.44208
30
0
11
16.831742
21
4.44143
31
0
39
0
210
0
220
0
230
1
0
LINE
5
9D
100
AcDbEntity
8
1
62
256
6
ByLayer
370
18
48
1
60
0
100
AcDbLine
10
6.262579
20
4.434824
30
0
11
1.223467
21
4.431675
31
0
39
0
210
0
220
0
230
1
0
LINE
5
9E
100
AcDbEntity
8
81
62
256
6
ByLayer
370
18
48
1
60
0
100
AcDbLine
10
112
20
0
30
0
11
117
21
0
31
0
39
0
210
0
220
0
230
1
0
LINE
5
9F
100
AcDbEntity
8
SK2
62
256
6
ByLayer
370
13
48
1
60
0
100
AcDbLine
10
-48.625163
20
-5
30
0
11
-48.625163
21
35.857173
31
0
39
0
210
0
220
0
230
1
0
LINE
5
A1
100
AcDbEntity
8
SK2
62
256
6
ByLayer
370
13
48
1
60
0
100
AcDbLine
10
-41.5875
20
5
30
0
11
-50.625163
21
5
31
0
39
0
210
0
220
0
230
1
0
LINE
5
A2
100
AcDbEntity
8
SK2
62
256
6
ByLayer
370
13
48
1
60
0
100
AcDbLine
10
-41.5875
20
-5
30
0
11
-50.625163
21
-5
31
0
39
0
210
0
220
0
230
1
0
LINE
5
A3
100
AcDbEntity
8
1
62
256
6
ByLayer
370
18
48
1
60
1
100
AcDbLine
10
-48.625163
20
5
30
0
11
-48.164379
21
1.500002
31
0
39
0
210
0
220
0
230
1
0
LINE
5
A4
100
AcDbEntity
8
1
62
256
6
ByLayer
370
18
48
1
60
1
100
AcDbLine
10
-48.164379
20
1.500002
30
0
11
-49.085946
21
1.499998
31
0
39
0
210
0
220
0
230
1
0
LINE
5
A5
100
AcDbEntity
8
1
62
256
6
ByLayer
370
18
48
1
60
1
100
AcDbLine
10
-49.085946
20
1.499998
30
0
11
-48.625163
21
5
31
0
39
0
210
0
220
0
230
1
0
LINE
5
A6
100
AcDbEntity
8
1
62
256
6
ByLayer
370
18
48
1
60
1
100
AcDbLine
10
-48.625163
20
-5
30
0
11
-49.085946
21
-1.500002
31
0
39
0
210
0
220
0
230
1
0
LINE
5
A7
100
AcDbEntity
8
1
62
256
6
ByLayer
370
18
48
1
60
1
100
AcDbLine
10
-49.085946
20
-1.500002
30
0
11
-48.164379
21
-1.499998
31
0
39
0
210
0
220
0
230
1
0
LINE
5
A8
100
AcDbEntity
8
1
62
256
6
ByLayer
370
18
48
1
60
1
100
AcDbLine
10
-48.164379
20
-1.499998
30
0
11
-48.625163
21
-5
31
0
39
0
210
0
220
0
230
1
0
LINE
5
A9
100
AcDbEntity
8
2
62
256
6
ByLayer
370
13
48
1
60
0
100
AcDbLine
10
124.083343
20
-4.5
30
0
11
124.083343
21
32.210193
31
0
39
0
210
0
220
0
230
1
0
LINE
5
AB
100
AcDbEntity
8
2
62
256
6
ByLayer
370
13
48
1
60
0
100
AcDbLine
10
112.2542
20
4.5
30
0
11
126.083343
21
4.5
31
0
39
0
210
0
220
0
230
1
0
LINE
5
AC
100
AcDbEntity
8
2
62
256
6
ByLayer
370
13
48
1
60
0
100
AcDbLine
10
112.2542
20
-4.5
30
0
11
126.083343
21
-4.5
31
0
39
0
210
0
220
0
230
1
0
LINE
5
AD
100
AcDbEntity
8
1
62
256
6
ByLayer
370
18
48
1
60
1
100
AcDbLine
10
124.083343
20
4.5
30
0
11
124.544126
21
1.000002
31
0
39
0
210
0
220
0
230
1
0
LINE
5
AE
100
AcDbEntity
8
1
62
256
6
ByLayer
370
18
48
1
60
1
100
AcDbLine
10
124.544126
20
1.000002
30
0
11
123.622559
21
0.999998
31
0
39
0
210
0
220
0
230
1
0
LINE
5
AF
100
AcDbEntity
8
1
62
256
6
ByLayer
370
18
48
1
60
1
100
AcDbLine
10
123.622559
20
0.999998
30
0
11
124.083343
21
4.5
31
0
39
0
210
0
220
0
230
1
0
LINE
5
B0
100
AcDbEntity
8
1
62
256
6
ByLayer
370
18
48
1
60
1
100
AcDbLine
10
124.083343
20
-4.5
30
0
11
123.622559
21
-1.000002
31
0
39
0
210
0
220
0
230
1
0
LINE
5
B1
100
AcDbEntity
8
1
62
256
6
ByLayer
370
18
48
1
60
1
100
AcDbLine
10
123.622559
20
-1.000002
30
0
11
124.544126
21
-0.999998
31
0
39
0
210
0
220
0
230
1
0
LINE
5
B2
100
AcDbEntity
8
1
62
256
6
ByLayer
370
18
48
1
60
1
100
AcDbLine
10
124.544126
20
-0.999998
30
0
11
124.083343
21
-4.5
31
0
39
0
210
0
220
0
230
1
0
LINE
5
11B
100
AcDbEntity
8
1
62
256
6
ByLayer
370
18
48
1
60
1
100
AcDbLine
10
-48.625163
20
5
30
0
11
-48.164379
21
1.500002
31
0
39
0
210
0
220
0
230
1
0
LINE
5
11C
100
AcDbEntity
8
1
62
256
6
ByLayer
370
18
48
1
60
1
100
AcDbLine
10
-48.164379
20
1.500002
30
0
11
-49.085946
21
1.499998
31
0
39
0
210
0
220
0
230
1
0
LINE
5
11D
100
AcDbEntity
8
1
62
256
6
ByLayer
370
18
48
1
60
1
100
AcDbLine
10
-49.085946
20
1.499998
30
0
11
-48.625163
21
5
31
0
39
0
210
0
220
0
230
1
0
LINE
5
11F
100
AcDbEntity
8
1
62
256
6
ByLayer
370
18
48
1
60
1
100
AcDbLine
10
-48.625163
20
-5
30
0
11
-49.085946
21
-1.500002
31
0
39
0
210
0
220
0
230
1
0
LINE
5
120
100
AcDbEntity
8
1
62
256
6
ByLayer
370
18
48
1
60
1
100
AcDbLine
10
-49.085946
20
-1.500002
30
0
11
-48.164379
21
-1.499998
31
0
39
0
210
0
220
0
230
1
0
LINE
5
121
100
AcDbEntity
8
1
62
256
6
ByLayer
370
18
48
1
60
1
100
AcDbLine
10
-48.164379
20
-1.499998
30
0
11
-48.625163
21
-5
31
0
39
0
210
0
220
0
230
1
0
LINE
5
125
100
AcDbEntity
8
1
62
256
6
ByLayer
370
18
48
1
60
1
100
AcDbLine
10
124.083343
20
4.5
30
0
11
124.544126
21
1.000002
31
0
39
0
210
0
220
0
230
1
0
LINE
5
126
100
AcDbEntity
8
1
62
256
6
ByLayer
370
18
48
1
60
1
100
AcDbLine
10
124.544126
20
1.000002
30
0
11
123.622559
21
0.999998
31
0
39
0
210
0
220
0
230
1
0
LINE
5
127
100
AcDbEntity
8
1
62
256
6
ByLayer
370
18
48
1
60
1
100
AcDbLine
10
123.622559
20
0.999998
30
0
11
124.083343
21
4.5
31
0
39
0
210
0
220
0
230
1
0
LINE
5
129
100
AcDbEntity
8
1
62
256
6
ByLayer
370
18
48
1
60
1
100
AcDbLine
10
124.083343
20
-4.5
30
0
11
123.622559
21
-1.000002
31
0
39
0
210
0
220
0
230
1
0
LINE
5
12A
100
AcDbEntity
8
1
62
256
6
ByLayer
370
18
48
1
60
1
100
AcDbLine
10
123.622559
20
-1.000002
30
0
11
124.544126
21
-0.999998
31
0
39
0
210
0
220
0
230
1
0
LINE
5
12B
100
AcDbEntity
8
1
62
256
6
ByLayer
370
18
48
1
60
1
100
AcDbLine
10
124.544126
20
-0.999998
30
0
11
124.083343
21
-4.5
31
0
39
0
210
0
220
0
230
1
0
MTEXT
5
115
100
AcDbEntity
8
SK6
62
256
6
ByLayer
370
13
48
1
60
0
100
AcDbMText
10
6.854807
20
37.040328
30
0
210
0
220
0
230
1
1
\W0.7670;462.1-0900-068A1-XM X2BM
40
3.5
41
0
44
1.084337
50
0
71
7
72
5
7
iso_b_vert
0
MTEXT
5
119
100
AcDbEntity
8
SK2
62
256
6
ByLayer
370
18
48
1
60
0
100
AcDbMText
10
-50.189796
20
18.409024
30
0
210
0
220
0
230
1
1
%%c
40
3.5
41
0
44
1.084337
50
90
71
7
72
5
7
iso_b_vert
0
MTEXT
5
11A
100
AcDbEntity
8
SK2
62
256
6
ByLayer
370
18
48
1
60
0
100
AcDbMText
10
-50.189796
20
23.63168
30
0
210
0
220
0
230
1
1
\W0.6930;10,000
40
3.5
41
0
44
1.084337
50
90
71
7
72
5
7
iso_b_vert
0
MTEXT
5
123
100
AcDbEntity
8
2
62
256
6
ByLayer
370
18
48
1
60
0
100
AcDbMText
10
122.518709
20
16.50211
30
0
210
0
220
0
230
1
1
%%c
40
3.5
41
0
44
1.084337
50
90
71
7
72
5
7
iso_b_vert
0
MTEXT
5
124
100
AcDbEntity
8
2
62
256
6
ByLayer
370
18
48
1
60
0
100
AcDbMText
10
122.518709
20
21.724766
30
0
210
0
220
0
230
1
1
\W0.7317;9,000
40
3.5
41
0
44
1.084337
50
90
71
7
72
5
7
iso_b_vert
0
HATCH
5
11E
100
AcDbEntity
8
SK2
62
256
6
ByLayer
370
13
48
1
60
0
100
AcDbHatch
10
0
20
0
30
0
210
0
220
0
230
1
2
ANSI31
70
0
71
0
91
1
92
5
93
3
72
1
10
-48.6251625675374
20
5
11
-48.1643788259847
21
1.50000169255318
72
1
10
-48.1643788259847
20
1.50000169255318
11
-49.0859463090902
21
1.49999830744682
72
1
10
-49.0859463090902
20
1.49999830744682
11
-48.6251625675374
21
5
97
0
75
0
76
1
52
0
41
0.0062
77
0
78
1
53
45
43
0
44
0
45
-0.0139193969876572
46
0.0139193969876572
79
0
47
0
98
1
10
0
20
0
0
HATCH
5
122
100
AcDbEntity
8
SK2
62
256
6
ByLayer
370
13
48
1
60
0
100
AcDbHatch
10
0
20
0
30
0
210
0
220
0
230
1
2
ANSI31
70
0
71
0
91
1
92
5
93
3
72
1
10
-48.6251625675374
20
-5
11
-49.0859463090902
21
-1.50000169255318
72
1
10
-49.0859463090902
20
-1.50000169255318
11
-48.1643788259847
21
-1.49999830744682
72
1
10
-48.1643788259847
20
-1.49999830744682
11
-48.6251625675374
21
-5
97
0
75
0
76
1
52
0
41
0.0062
77
0
78
1
53
45
43
0
44
0
45
-0.0139193969876572
46
0.0139193969876572
79
0
47
0
98
1
10
0
20
0
0
HATCH
5
128
100
AcDbEntity
8
2
62
256
6
ByLayer
370
13
48
1
60
0
100
AcDbHatch
10
0
20
0
30
0
210
0
220
0
230
1
2
ANSI31
70
0
71
0
91
1
92
5
93
3
72
1
10
124.083342615295
20
4.5
11
124.544126356848
21
1.00000169255318
72
1
10
124.544126356848
20
1.00000169255318
11
123.622558873742
21
0.999998307446816
72
1
10
123.622558873742
20
0.999998307446816
11
124.083342615295
21
4.5
97
0
75
0
76
1
52
0
41
0.0062
77
0
78
1
53
45
43
0
44
0
45
-0.0139193969876572
46
0.0139193969876572
79
0
47
0
98
1
10
0
20
0
0
HATCH
5
12C
100
AcDbEntity
8
2
62
256
6
ByLayer
370
13
48
1
60
0
100
AcDbHatch
10
0
20
0
30
0
210
0
220
0
230
1
2
ANSI31
70
0
71
0
91
1
92
5
93
3
72
1
10
124.083342615295
20
-4.5
11
123.622558873742
21
-1.00000169255318
72
1
10
123.622558873742
20
-1.00000169255318
11
124.544126356848
21
-0.999998307446816
72
1
10
124.544126356848
20
-0.999998307446816
11
124.083342615295
21
-4.5
97
0
75
0
76
1
52
0
41
0.0062
77
0
78
1
53
45
43
0
44
0
45
-0.0139193969876572
46
0.0139193969876572
79
0
47
0
98
1
10
0
20
0
0
DIMENSION
5
12E
100
AcDbEntity
8
SK2
62
256
6
ByLayer
370
13
48
1
60
0
100
AcDbDimension
2
_U0
10
110.6667
20
-14.713398
30
0
11
55.33335
21
-14.713398
31
0
70
32
71
1
72
1
41
1
210
0
220
0
230
1
3
Standard
100
AcDbAlignedDimension
13
0
23
0
33
0
14
110.6667
24
-4.5
34
0
50
0
100
AcDbRotatedDimension
1001
ACAD
1000
DSTYLE
1002
{
1070
   371
1070
    13
1070
   372
1070
    13
1070
   170
1070
     0
1070
   144
1040
1.0
1070
   277
1070
     2
1070
   278
1070
    44
1070
   146
1040
1.0
1070
   345
1005
16
1070
   347
1005
16
1070
   346
1005
16
1070
   344
1005
0
1070
   343
1005
0
1070
   172
1070
     1
1070
    76
1070
     0
1070
    75
1070
     0
1070
   282
1070
     0
1070
   281
1070
     0
1070
    71
1070
     0
1070
    74
1070
     0
1070
   279
1070
     0
1070
   173
1070
     1
1070
   340
1005
116
1070
   271
1070
     2
1070
   272
1070
     2
1070
    77
1070
     1
1070
    73
1070
     1
1070
   171
1070
     3
1070
   274
1070
     4
1070
   177
1070
    35
1070
   176
1070
    35
1070
   178
1070
    35
1070
    48
1040
-0.1
1070
    41
1040
3.5
1070
   147
1040
1.75
1070
    42
1040
1.5875
1070
    44
1040
2.0
1070
   140
1040
3.5
1002
}
1001
ACAD_DSTYLE_DIM_LINETYPE
1070
   380
1005
16
1001
ACAD_DSTYLE_DIM_EXT1_LINETYPE
1070
   381
1005
16
1001
ACAD_DSTYLE_DIM_EXT2_LINETYPE
1070
   382
1005
16
0
DIMENSION
5
147
100
AcDbEntity
8
SK2
62
256
6
ByLayer
370
13
48
1
60
0
100
AcDbDimension
2
_U1
10
112
20
-33.692985
30
0
11
36
21
-33.692985
31
0
70
32
71
1
72
1
41
1
210
0
220
0
230
1
3
Standard
100
AcDbAlignedDimension
13
-40
23
-5
33
0
14
112
24
0
34
0
50
0
100
AcDbRotatedDimension
1001
ACAD
1000
DSTYLE
1002
{
1070
   371
1070
    13
1070
   372
1070
    13
1070
   170
1070
     0
1070
   144
1040
1.0
1070
   277
1070
     2
1070
   278
1070
    44
1070
   146
1040
1.0
1070
   345
1005
16
1070
   347
1005
16
1070
   346
1005
16
1070
   344
1005
0
1070
   343
1005
0
1070
   172
1070
     1
1070
    76
1070
     0
1070
    75
1070
     0
1070
   282
1070
     0
1070
   281
1070
     0
1070
    71
1070
     0
1070
    74
1070
     0
1070
   279
1070
     0
1070
   173
1070
     1
1070
   340
1005
116
1070
   271
1070
     2
1070
   272
1070
     2
1070
    77
1070
     1
1070
    73
1070
     1
1070
   171
1070
     3
1070
   274
1070
     4
1070
   177
1070
    35
1070
   176
1070
    35
1070
   178
1070
    35
1070
    48
1040
-0.1
1070
    41
1040
3.5
1070
   147
1040
1.75
1070
    42
1040
1.5875
1070
    44
1040
2.0
1070
   140
1040
3.5
1002
}
1001
ACAD_DSTYLE_DIM_LINETYPE
1070
   380
1005
16
1001
ACAD_DSTYLE_DIM_EXT1_LINETYPE
1070
   381
1005
16
1001
ACAD_DSTYLE_DIM_EXT2_LINETYPE
1070
   382
1005
16
0
DIMENSION
5
15F
100
AcDbEntity
8
SK2
62
256
6
ByLayer
370
13
48
1
60
0
100
AcDbDimension
2
_U2
10
112
20
16.109119
30
0
11
75.335
21
16.109119
31
0
70
32
71
1
72
1
41
1
210
0
220
0
230
1
3
Standard
100
AcDbAlignedDimension
13
38.67
23
4.5
33
0
14
112
24
0
34
0
50
0
100
AcDbRotatedDimension
1001
ACAD
1000
DSTYLE
1002
{
1070
   371
1070
    13
1070
   372
1070
    13
1070
   170
1070
     0
1070
   144
1040
1.0
1070
   277
1070
     2
1070
   278
1070
    44
1070
   146
1040
1.0
1070
   345
1005
16
1070
   347
1005
16
1070
   346
1005
16
1070
   344
1005
0
1070
   343
1005
0
1070
   172
1070
     1
1070
    76
1070
     0
1070
    75
1070
     0
1070
   282
1070
     0
1070
   281
1070
     0
1070
    71
1070
     0
1070
    74
1070
     0
1070
   279
1070
     0
1070
   173
1070
     1
1070
   340
1005
116
1070
   271
1070
     2
1070
   272
1070
     2
1070
    77
1070
     1
1070
    73
1070
     1
1070
   171
1070
     3
1070
   274
1070
     4
1070
   177
1070
    35
1070
   176
1070
    35
1070
   178
1070
    35
1070
    48
1040
-0.1
1070
    41
1040
3.5
1070
   147
1040
1.75
1070
    42
1040
1.5875
1070
    44
1040
2.0
1070
   140
1040
3.5
1002
}
1001
ACAD_DSTYLE_DIM_LINETYPE
1070
   380
1005
16
1001
ACAD_DSTYLE_DIM_EXT1_LINETYPE
1070
   381
1005
16
1001
ACAD_DSTYLE_DIM_EXT2_LINETYPE
1070
   382
1005
16
0
DIMENSION
5
177
100
AcDbEntity
8
SK2
62
256
6
ByLayer
370
13
48
1
60
0
100
AcDbDimension
2
_U3
10
110.6667
20
-17.302503
30
0
11
129.333333
21
-17.302503
31
0
70
32
71
1
72
1
41
1
210
0
220
0
230
1
3
Standard
100
AcDbAlignedDimension
13
112
23
0
33
0
14
110.6667
24
-4.5
34
0
50
0
100
AcDbRotatedDimension
1001
ACAD
1000
DSTYLE
1002
{
1070
   371
1070
    13
1070
   372
1070
    13
1070
   170
1070
     0
1070
   144
1040
1.0
1070
   277
1070
     2
1070
   278
1070
    44
1070
   146
1040
1.0
1070
   345
1005
16
1070
   347
1005
16
1070
   346
1005
16
1070
   344
1005
0
1070
   343
1005
0
1070
   172
1070
     1
1070
    76
1070
     0
1070
    75
1070
     0
1070
   282
1070
     0
1070
   281
1070
     0
1070
    71
1070
     0
1070
    74
1070
     0
1070
   279
1070
     0
1070
   173
1070
     1
1070
   340
1005
116
1070
   271
1070
     2
1070
   272
1070
     2
1070
    77
1070
     1
1070
    73
1070
     1
1070
   171
1070
     3
1070
   274
1070
     4
1070
   177
1070
    35
1070
   176
1070
    35
1070
   178
1070
    35
1070
    48
1040
-0.1
1070
    41
1040
3.5
1070
   147
1040
1.75
1070
    42
1040
1.5875
1070
    44
1040
2.0
1070
   140
1040
3.5
1002
}
1001
ACAD_DSTYLE_DIM_LINETYPE
1070
   380
1005
16
1001
ACAD_DSTYLE_DIM_EXT1_LINETYPE
1070
   381
1005
16
1001
ACAD_DSTYLE_DIM_EXT2_LINETYPE
1070
   382
1005
16
0
DIMENSION
5
191
100
AcDbEntity
8
SK2
62
256
6
ByLayer
370
13
48
1
60
0
100
AcDbDimension
2
_U4
10
110.6667
20
-23.343428
30
0
11
35.33335
21
-23.343428
31
0
70
32
71
1
72
1
41
1
210
0
220
0
230
1
3
Standard
100
AcDbAlignedDimension
13
-40
23
-5
33
0
14
110.6667
24
-4.5
34
0
50
0
100
AcDbRotatedDimension
1001
ACAD
1000
DSTYLE
1002
{
1070
   371
1070
    13
1070
   372
1070
    13
1070
   170
1070
     0
1070
   144
1040
1.0
1070
   277
1070
     2
1070
   278
1070
    44
1070
   146
1040
1.0
1070
   345
1005
16
1070
   347
1005
16
1070
   346
1005
16
1070
   344
1005
0
1070
   343
1005
0
1070
   172
1070
     1
1070
    76
1070
     0
1070
    75
1070
     0
1070
   282
1070
     0
1070
   281
1070
     0
1070
    71
1070
     0
1070
    74
1070
     0
1070
   279
1070
     0
1070
   173
1070
     1
1070
   340
1005
116
1070
   271
1070
     2
1070
   272
1070
     2
1070
    77
1070
     1
1070
    73
1070
     1
1070
   171
1070
     3
1070
   274
1070
     4
1070
   177
1070
    35
1070
   176
1070
    35
1070
   178
1070
    35
1070
    48
1040
-0.1
1070
    41
1040
3.5
1070
   147
1040
1.75
1070
    42
1040
1.5875
1070
    44
1040
2.0
1070
   140
1040
3.5
1002
}
1001
ACAD_DSTYLE_DIM_LINETYPE
1070
   380
1005
16
1001
ACAD_DSTYLE_DIM_EXT1_LINETYPE
1070
   381
1005
16
1001
ACAD_DSTYLE_DIM_EXT2_LINETYPE
1070
   382
1005
16
0
ENDSEC
0
SECTION
2
OBJECTS
0
DICTIONARY
5
219
330
0
100
AcDbDictionary
280
0
281
1
3
ACAD_GROUP
350
21a
3
ACAD_MLINESTYLE
350
21b
0
DICTIONARY
5
21a
330
0
100
AcDbDictionary
280
0
281
1
0
DICTIONARY
5
21b
330
0
100
AcDbDictionary
280
0
281
1
3
Standard
350
18
0
MLINESTYLE
5
18
330
21b
100
AcDbMlineStyle
2
Standard
70
0
3

62
256
51
90
52
90
71
2
49
-0.5
62
256
6
ByLayer
49
0.5
62
256
6
ByLayer
0
RASTERVARIABLES
5
207
330

100
AcDbRasterVariables
90
0
70
1
71
1
72
1
0
ENDSEC
0
EOF
