0
SECTION
2
HEADER
9
$ACADVER
1
AC1015
9
$DWGCODEPAGE
3
ANSI_1252
9
$HANDSEED
5
222
9
$ANGBASE
50
0
9
$ANGDIR
70
0
9
$ATTMODE
70
1
9
$AUNITS
70
0
9
$AUPREC
70
0
9
$CECOLOR
62
256
9
$CELTSCALE
40
1
9
$CELTYPE
6
ByLayer
9
$CELWEIGHT
370
18
9
$CLAYER
8
0
9
$CMLJUST
70
0
9
$CMLSCALE
40
1
9
$CMLSTYLE
2
Standard
9
$DIMSTYLE
2
Standard
9
$TEXTSIZE
40
0.2
9
$TEXTSTYLE
7
Standard
9
$LUNITS
70
2
9
$LUPREC
70
4
9
$EXTNAMES
290
1
9
$INSUNITS
70
4
9
$LTSCALE
40
1
9
$LWDISPLAY
290
1
9
$PDMODE
70
0
9
$PDSIZE
40
0
9
$PLINEGEN
70
0
0
ENDSEC
0
SECTION
2
CLASSES
0
CLASS
1
RASTERVARIABLES
2
AcDbRasterVariables
3
ISM
90
0
280
0
281
0
0
ENDSEC
0
SECTION
2
TABLES
0
TABLE
2
VPORT
5
218
100
AcDbSymbolTable
0
VPORT
5
1
100
AcDbSymbolTableRecord
100
AcDbViewportTableRecord
2
*Active
70
0
10
0
20
0
11
1
21
1
12
-1
22
1
13
0
23
0
14
0.5
24
0.5
15
10
25
10
16
0
26
0
36
1
17
0
27
0
37
0
0
ENDTAB
0
TABLE
2
LTYPE
5
219
100
AcDbSymbolTable
0
LTYPE
5
14
100
AcDbSymbolTableRecord
100
AcDbLinetypeTableRecord
70
0
2
ByBlock
3

72
65
73
0
40
0
0
LTYPE
5
15
100
AcDbSymbolTableRecord
100
AcDbLinetypeTableRecord
70
0
2
ByLayer
3

72
65
73
0
40
0
0
LTYPE
5
16
100
AcDbSymbolTableRecord
100
AcDbLinetypeTableRecord
70
0
2
Continuous
3
Solid line
72
65
73
0
40
0
0
LTYPE
5
6E
100
AcDbSymbolTableRecord
100
AcDbLinetypeTableRecord
70
0
2
CENTER
3
____ _ ____ _ ____ _ ____
72
65
73
4
40
47.5
49
22
74
0
49
-8.5
74
0
49
8.5
74
0
49
-8.5
74
0
0
LTYPE
5
6F
100
AcDbSymbolTableRecord
100
AcDbLinetypeTableRecord
70
0
2
DASHED
3
__ __ __ __ __ __ __ __ __
72
65
73
2
40
25.72
49
12.86
74
0
49
-12.86
74
0
0
ENDTAB
0
TABLE
2
LAYER
5
21a
100
AcDbSymbolTable
0
LAYER
5
10
100
AcDbSymbolTableRecord
100
AcDbLayerTableRecord
2
0
70
0
62
7
6
Continuous
290
1
370
-3
390
0
0
LAYER
5
71
100
AcDbSymbolTableRecord
100
AcDbLayerTableRecord
2
80
70
0
62
-6
6
Continuous
290
1
370
-3
390
0
0
LAYER
5
73
100
AcDbSymbolTableRecord
100
AcDbLayerTableRecord
2
81
70
0
62
-3
6
Continuous
290
1
370
-3
390
0
0
LAYER
5
75
100
AcDbSymbolTableRecord
100
AcDbLayerTableRecord
2
1
70
0
62
4
6
Continuous
290
1
370
-3
390
0
0
LAYER
5
8B
100
AcDbSymbolTableRecord
100
AcDbLayerTableRecord
2
4
70
0
62
-2
6
CENTER
290
1
370
-3
390
0
0
LAYER
5
AA
100
AcDbSymbolTableRecord
100
AcDbLayerTableRecord
2
2
70
0
62
7
6
Continuous
290
1
370
-3
390
0
0
LAYER
5
12D
100
AcDbSymbolTableRecord
100
AcDbLayerTableRecord
2
Defpoints
70
0
62
7
6
Continuous
290
0
370
-3
390
0
0
LAYER
5
204
100
AcDbSymbolTableRecord
100
AcDbLayerTableRecord
2
SK1
70
0
62
4
6
Continuous
290
1
370
-3
390
0
0
LAYER
5
205
100
AcDbSymbolTableRecord
100
AcDbLayerTableRecord
2
SK4
70
0
62
2
6
CENTER
290
1
370
-3
390
0
0
LAYER
5
206
100
AcDbSymbolTableRecord
100
AcDbLayerTableRecord
2
SK2
70
0
62
7
6
Continuous
290
1
370
-3
390
0
0
LAYER
5
207
100
AcDbSymbolTableRecord
100
AcDbLayerTableRecord
2
SK6
70
0
62
5
6
Continuous
290
1
370
-3
390
0
0
ENDTAB
0
TABLE
2
STYLE
5
21b
100
AcDbSymbolTable
0
STYLE
5
11
100
AcDbSymbolTableRecord
100
AcDbTextStyleTableRecord
2
Standard
3
txt
70
0
71
0
40
0
41
1
42
0
50
0
0
STYLE
5
112
100
AcDbSymbolTableRecord
100
AcDbTextStyleTableRecord
2
iso_b_vert
3
simplex.shx
70
0
71
0
40
0
41
1
42
0
50
0
0
STYLE
5
113
100
AcDbSymbolTableRecord
100
AcDbTextStyleTableRecord
2
DWGDirectTextStyle
3
simplex
70
0
71
0
40
0
41
1
42
0
50
0
0
ENDTAB
0
TABLE
2
DIMSTYLE
5
21c
100
AcDbSymbolTable
100
AcDbDimStyleTable
0
DIMSTYLE
105
27
100
AcDbSymbolTableRecord
100
AcDbDimStyleTableRecord
2
Standard
70
0
3
<>
41
0.18
42
0.0625
44
0.18
140
0.18
147
0.09
73
0
74
0
77
1
271
2
275
0
278
52
280
0
340
11
0
ENDTAB
0
TABLE
2
VIEW
5
21d
100
AcDbSymbolTable
0
ENDTAB
0
TABLE
2
UCS
5
21e
100
AcDbSymbolTable
0
ENDTAB
0
TABLE
2
APPID
5
21f
100
AcDbSymbolTable
0
APPID
5
12
100
AcDbSymbolTableRecord
100
AcDbRegAppTableRecord
2
ACAD
70
0
0
APPID
5
129
100
AcDbSymbolTableRecord
100
AcDbRegAppTableRecord
2
ACAD_DSTYLE_DIMBREAK
70
0
0
APPID
5
1C3
100
AcDbSymbolTableRecord
100
AcDbRegAppTableRecord
2
ACAD_DSTYLE_DIM_LINETYPE
70
0
0
APPID
5
1C4
100
AcDbSymbolTableRecord
100
AcDbRegAppTableRecord
2
ACAD_DSTYLE_DIM_EXT1_LINETYPE
70
0
0
APPID
5
1C5
100
AcDbSymbolTableRecord
100
AcDbRegAppTableRecord
2
ACAD_DSTYLE_DIM_EXT2_LINETYPE
70
0
0
APPID
5
200
100
AcDbSymbolTableRecord
100
AcDbRegAppTableRecord
2
ACAD_MLEADERVER
70
0
0
ENDTAB
0
TABLE
2
BLOCK_RECORD
5
220
100
AcDbSymbolTable
0
BLOCK_RECORD
5
1F
100
AcDbSymbolTableRecord
100
AcDbBlockTableRecord
2
*Model_Space
340
0
70
0
0
BLOCK_RECORD
5
1B
100
AcDbSymbolTableRecord
100
AcDbBlockTableRecord
2
*Paper_Space
340
0
70
0
0
BLOCK_RECORD
5
23
100
AcDbSymbolTableRecord
100
AcDbBlockTableRecord
2
*Paper_Space0
340
0
70
0
0
BLOCK_RECORD
5
12E
100
AcDbSymbolTableRecord
100
AcDbBlockTableRecord
2
*D1
340
0
70
0
0
BLOCK_RECORD
5
13A
100
AcDbSymbolTableRecord
100
AcDbBlockTableRecord
2
_U0
340
0
70
0
0
BLOCK_RECORD
5
146
100
AcDbSymbolTableRecord
100
AcDbBlockTableRecord
2
*D3
340
0
70
0
0
BLOCK_RECORD
5
152
100
AcDbSymbolTableRecord
100
AcDbBlockTableRecord
2
_U1
340
0
70
0
0
BLOCK_RECORD
5
15E
100
AcDbSymbolTableRecord
100
AcDbBlockTableRecord
2
*D5
340
0
70
0
0
BLOCK_RECORD
5
16A
100
AcDbSymbolTableRecord
100
AcDbBlockTableRecord
2
_U2
340
0
70
0
0
BLOCK_RECORD
5
176
100
AcDbSymbolTableRecord
100
AcDbBlockTableRecord
2
*D7
340
0
70
0
0
BLOCK_RECORD
5
184
100
AcDbSymbolTableRecord
100
AcDbBlockTableRecord
2
_U3
340
0
70
0
0
BLOCK_RECORD
5
190
100
AcDbSymbolTableRecord
100
AcDbBlockTableRecord
2
*D9
340
0
70
0
0
BLOCK_RECORD
5
19C
100
AcDbSymbolTableRecord
100
AcDbBlockTableRecord
2
_U4
340
0
70
0
0
ENDTAB
0
ENDSEC
0
SECTION
2
BLOCKS
0
BLOCK
5
20
100
AcDbEntity
8
0
100
AcDbBlockBegin
2
*Model_Space
70
0
10
0
20
0
30
0
3
*Model_Space
0
ENDBLK
5
21
100
AcDbEntity
8
0
100
AcDbBlockEnd
0
BLOCK
5
1C
100
AcDbEntity
8
0
100
AcDbBlockBegin
2
*Paper_Space
70
0
10
0
20
0
30
0
3
*Paper_Space
0
ENDBLK
5
1D
100
AcDbEntity
8
0
100
AcDbBlockEnd
0
BLOCK
5
24
100
AcDbEntity
8
0
100
AcDbBlockBegin
2
*Paper_Space0
70
0
10
0
20
0
30
0
3
*Paper_Space0
0
ENDBLK
5
25
100
AcDbEntity
8
0
100
AcDbBlockEnd
0
BLOCK
5
12F
100
AcDbEntity
8
0
100
AcDbBlockBegin
2
*D1
70
1
10
0
20
0
30
0
3
*D1
0
LINE
5
131
100
AcDbEntity
8
0
62
256
6
ByLayer
370
-2
48
1
60
0
100
AcDbLine
10
0
20
-1.5875
30
0
11
0
21
-16.048898
31
0
39
0
210
0
220
0
230
1
0
LINE
5
132
100
AcDbEntity
8
0
62
256
6
ByLayer
370
-2
48
1
60
0
100
AcDbLine
10
88.8671
20
-5.423
30
0
11
88.8671
21
-16.048898
31
0
39
0
210
0
220
0
230
1
0
LINE
5
133
100
AcDbEntity
8
0
62
256
6
ByLayer
370
-2
48
1
60
0
100
AcDbLine
10
3.5
20
-14.048898
30
0
11
85.3671
21
-14.048898
31
0
39
0
210
0
220
0
230
1
0
SOLID
5
134
100
AcDbEntity
8
0
62
256
6
ByLayer
370
-1
48
1
60
0
100
AcDbTrace
10
3.5
20
-13.465565
30
0
11
3.5
21
-14.632232
31
0
12
0
22
-14.048898
32
0
13
0
23
-14.048898
33
0
39
0
210
0
220
0
230
1
0
SOLID
5
135
100
AcDbEntity
8
0
62
256
6
ByLayer
370
-1
48
1
60
0
100
AcDbTrace
10
85.3671
20
-14.632232
30
0
11
85.3671
21
-13.465565
31
0
12
88.8671
22
-14.048898
32
0
13
88.8671
23
-14.048898
33
0
39
0
210
0
220
0
230
1
0
MTEXT
5
136
100
AcDbEntity
8
0
62
256
6
ByLayer
370
18
48
1
60
0
100
AcDbMText
10
44.43355
20
-7.048898
30
0
210
0
220
0
230
1
1
\A1;88.87
40
3.5
41
0
44
1
50
0
71
5
72
5
7
iso_b_vert
0
POINT
5
137
100
AcDbEntity
8
Defpoints
62
0
6
ByLayer
370
-1
48
1
60
0
100
AcDbPoint
10
0
20
0
30
0
39
0
210
0
220
0
230
1
50
360
0
POINT
5
138
100
AcDbEntity
8
Defpoints
62
0
6
ByLayer
370
-1
48
1
60
0
100
AcDbPoint
10
88.8671
20
-3.8355
30
0
39
0
210
0
220
0
230
1
50
360
0
POINT
5
139
100
AcDbEntity
8
Defpoints
62
0
6
ByLayer
370
-1
48
1
60
0
100
AcDbPoint
10
88.8671
20
-14.048898
30
0
39
0
210
0
220
0
230
1
50
360
0
ENDBLK
5
130
100
AcDbEntity
8
0
100
AcDbBlockEnd
0
BLOCK
5
141
100
AcDbEntity
8
0
100
AcDbBlockBegin
2
_U0
70
0
10
0
20
0
30
0
3
_U0
0
MTEXT
5
13B
100
AcDbEntity
8
SK2
62
256
6
ByLayer
370
13
48
1
60
0
100
AcDbMText
10
39.296251
20
-13.016265
30
0
210
0
220
0
230
1
1
\W0.7317;88,87
40
3.5
41
0
44
1.084337
50
0
71
7
72
5
7
iso_b_vert
0
LINE
5
13C
100
AcDbEntity
8
SK2
62
256
6
ByLayer
370
13
48
1
60
0
100
AcDbLine
10
0
20
-1.5875
30
0
11
0
21
-16.048898
31
0
39
0
210
0
220
0
230
1
0
LINE
5
13D
100
AcDbEntity
8
SK2
62
256
6
ByLayer
370
13
48
1
60
0
100
AcDbLine
10
88.8671
20
-5.423
30
0
11
88.8671
21
-16.048898
31
0
39
0
210
0
220
0
230
1
0
LINE
5
13E
100
AcDbEntity
8
SK2
62
256
6
ByLayer
370
13
48
1
60
0
100
AcDbLine
10
0
20
-14.048898
30
0
11
88.8671
21
-14.048898
31
0
39
0
210
0
220
0
230
1
0
SOLID
5
13F
100
AcDbEntity
8
SK2
62
256
6
ByLayer
370
18
48
1
60
0
100
AcDbTrace
10
0
20
-14.048898
30
0
11
3.499998
21
-13.588115
31
0
12
3.500002
22
-14.509682
32
0
13
3.500002
23
-14.509682
33
0
39
0
210
0
220
0
230
1
0
SOLID
5
140
100
AcDbEntity
8
SK2
62
256
6
ByLayer
370
18
48
1
60
0
100
AcDbTrace
10
88.8671
20
-14.048898
30
0
11
85.367102
21
-14.509682
31
0
12
85.367098
22
-13.588115
32
0
13
85.367098
23
-13.588115
33
0
39
0
210
0
220
0
230
1
0
ENDBLK
5
142
100
AcDbEntity
8
0
100
AcDbBlockEnd
0
BLOCK
5
147
100
AcDbEntity
8
0
100
AcDbBlockBegin
2
*D3
70
1
10
0
20
0
30
0
3
*D3
0
LINE
5
149
100
AcDbEntity
8
0
62
256
6
ByLayer
370
-2
48
1
60
0
100
AcDbLine
10
-36
20
-5.5875
30
0
11
-36
21
-34.692985
31
0
39
0
210
0
220
0
230
1
0
LINE
5
14A
100
AcDbEntity
8
0
62
256
6
ByLayer
370
-2
48
1
60
0
100
AcDbLine
10
90
20
-1.5875
30
0
11
90
21
-34.692985
31
0
39
0
210
0
220
0
230
1
0
LINE
5
14B
100
AcDbEntity
8
0
62
256
6
ByLayer
370
-2
48
1
60
0
100
AcDbLine
10
-32.5
20
-32.692985
30
0
11
86.5
21
-32.692985
31
0
39
0
210
0
220
0
230
1
0
SOLID
5
14C
100
AcDbEntity
8
0
62
256
6
ByLayer
370
-1
48
1
60
0
100
AcDbTrace
10
-32.5
20
-32.109652
30
0
11
-32.5
21
-33.276319
31
0
12
-36
22
-32.692985
32
0
13
-36
23
-32.692985
33
0
39
0
210
0
220
0
230
1
0
SOLID
5
14D
100
AcDbEntity
8
0
62
256
6
ByLayer
370
-1
48
1
60
0
100
AcDbTrace
10
86.5
20
-33.276319
30
0
11
86.5
21
-32.109652
31
0
12
90
22
-32.692985
32
0
13
90
23
-32.692985
33
0
39
0
210
0
220
0
230
1
0
MTEXT
5
14E
100
AcDbEntity
8
0
62
256
6
ByLayer
370
18
48
1
60
0
100
AcDbMText
10
27
20
-25.692985
30
0
210
0
220
0
230
1
1
\A1;126.00
40
3.5
41
0
44
1
50
0
71
5
72
5
7
iso_b_vert
0
POINT
5
14F
100
AcDbEntity
8
Defpoints
62
0
6
ByLayer
370
-1
48
1
60
0
100
AcDbPoint
10
-36
20
-4
30
0
39
0
210
0
220
0
230
1
50
360
0
POINT
5
150
100
AcDbEntity
8
Defpoints
62
0
6
ByLayer
370
-1
48
1
60
0
100
AcDbPoint
10
90
20
0
30
0
39
0
210
0
220
0
230
1
50
360
0
POINT
5
151
100
AcDbEntity
8
Defpoints
62
0
6
ByLayer
370
-1
48
1
60
0
100
AcDbPoint
10
90
20
-32.692985
30
0
39
0
210
0
220
0
230
1
50
360
0
ENDBLK
5
148
100
AcDbEntity
8
0
100
AcDbBlockEnd
0
BLOCK
5
159
100
AcDbEntity
8
0
100
AcDbBlockBegin
2
_U1
70
0
10
0
20
0
30
0
3
_U1
0
MTEXT
5
153
100
AcDbEntity
8
SK2
62
256
6
ByLayer
370
13
48
1
60
0
100
AcDbMText
10
20.992401
20
-31.660352
30
0
210
0
220
0
230
1
1
\W0.6930;126,00
40
3.5
41
0
44
1.084337
50
0
71
7
72
5
7
iso_b_vert
0
LINE
5
154
100
AcDbEntity
8
SK2
62
256
6
ByLayer
370
13
48
1
60
0
100
AcDbLine
10
-36
20
-5.5875
30
0
11
-36
21
-34.692985
31
0
39
0
210
0
220
0
230
1
0
LINE
5
155
100
AcDbEntity
8
SK2
62
256
6
ByLayer
370
13
48
1
60
0
100
AcDbLine
10
90
20
-1.5875
30
0
11
90
21
-34.692985
31
0
39
0
210
0
220
0
230
1
0
LINE
5
156
100
AcDbEntity
8
SK2
62
256
6
ByLayer
370
13
48
1
60
0
100
AcDbLine
10
-36
20
-32.692985
30
0
11
90
21
-32.692985
31
0
39
0
210
0
220
0
230
1
0
SOLID
5
157
100
AcDbEntity
8
SK2
62
256
6
ByLayer
370
18
48
1
60
0
100
AcDbTrace
10
-36
20
-32.692985
30
0
11
-32.500002
21
-32.232202
31
0
12
-32.499998
22
-33.153769
32
0
13
-32.499998
23
-33.153769
33
0
39
0
210
0
220
0
230
1
0
SOLID
5
158
100
AcDbEntity
8
SK2
62
256
6
ByLayer
370
18
48
1
60
0
100
AcDbTrace
10
90
20
-32.692985
30
0
11
86.500002
21
-33.153769
31
0
12
86.499998
22
-32.232202
32
0
13
86.499998
23
-32.232202
33
0
39
0
210
0
220
0
230
1
0
ENDBLK
5
15A
100
AcDbEntity
8
0
100
AcDbBlockEnd
0
BLOCK
5
15F
100
AcDbEntity
8
0
100
AcDbBlockBegin
2
*D5
70
1
10
0
20
0
30
0
3
*D5
0
LINE
5
161
100
AcDbEntity
8
0
62
256
6
ByLayer
370
-2
48
1
60
0
100
AcDbLine
10
27.51
20
5.423
30
0
11
27.51
21
17.444619
31
0
39
0
210
0
220
0
230
1
0
LINE
5
162
100
AcDbEntity
8
0
62
256
6
ByLayer
370
-2
48
1
60
0
100
AcDbLine
10
90
20
1.5875
30
0
11
90
21
17.444619
31
0
39
0
210
0
220
0
230
1
0
LINE
5
163
100
AcDbEntity
8
0
62
256
6
ByLayer
370
-2
48
1
60
0
100
AcDbLine
10
31.01
20
15.444619
30
0
11
86.5
21
15.444619
31
0
39
0
210
0
220
0
230
1
0
SOLID
5
164
100
AcDbEntity
8
0
62
256
6
ByLayer
370
-1
48
1
60
0
100
AcDbTrace
10
31.01
20
16.027953
30
0
11
31.01
21
14.861286
31
0
12
27.51
22
15.444619
32
0
13
27.51
23
15.444619
33
0
39
0
210
0
220
0
230
1
0
SOLID
5
165
100
AcDbEntity
8
0
62
256
6
ByLayer
370
-1
48
1
60
0
100
AcDbTrace
10
86.5
20
14.861286
30
0
11
86.5
21
16.027953
31
0
12
90
22
15.444619
32
0
13
90
23
15.444619
33
0
39
0
210
0
220
0
230
1
0
MTEXT
5
166
100
AcDbEntity
8
0
62
256
6
ByLayer
370
18
48
1
60
0
100
AcDbMText
10
58.755
20
22.444619
30
0
210
0
220
0
230
1
1
\A1;62.49
40
3.5
41
0
44
1
50
0
71
5
72
5
7
iso_b_vert
0
POINT
5
167
100
AcDbEntity
8
Defpoints
62
0
6
ByLayer
370
-1
48
1
60
0
100
AcDbPoint
10
27.51
20
3.8355
30
0
39
0
210
0
220
0
230
1
50
360
0
POINT
5
168
100
AcDbEntity
8
Defpoints
62
0
6
ByLayer
370
-1
48
1
60
0
100
AcDbPoint
10
90
20
0
30
0
39
0
210
0
220
0
230
1
50
360
0
POINT
5
169
100
AcDbEntity
8
Defpoints
62
0
6
ByLayer
370
-1
48
1
60
0
100
AcDbPoint
10
90
20
15.444619
30
0
39
0
210
0
220
0
230
1
50
360
0
ENDBLK
5
160
100
AcDbEntity
8
0
100
AcDbBlockEnd
0
BLOCK
5
171
100
AcDbEntity
8
0
100
AcDbBlockBegin
2
_U2
70
0
10
0
20
0
30
0
3
_U2
0
MTEXT
5
16B
100
AcDbEntity
8
SK2
62
256
6
ByLayer
370
13
48
1
60
0
100
AcDbMText
10
53.433435
20
16.477253
30
0
210
0
220
0
230
1
1
\W0.7669;62,49
40
3.5
41
0
44
1.084337
50
0
71
7
72
5
7
iso_b_vert
0
LINE
5
16C
100
AcDbEntity
8
SK2
62
256
6
ByLayer
370
13
48
1
60
0
100
AcDbLine
10
27.51
20
5.423
30
0
11
27.51
21
17.444619
31
0
39
0
210
0
220
0
230
1
0
LINE
5
16D
100
AcDbEntity
8
SK2
62
256
6
ByLayer
370
13
48
1
60
0
100
AcDbLine
10
90
20
1.5875
30
0
11
90
21
17.444619
31
0
39
0
210
0
220
0
230
1
0
LINE
5
16E
100
AcDbEntity
8
SK2
62
256
6
ByLayer
370
13
48
1
60
0
100
AcDbLine
10
27.51
20
15.444619
30
0
11
90
21
15.444619
31
0
39
0
210
0
220
0
230
1
0
SOLID
5
16F
100
AcDbEntity
8
SK2
62
256
6
ByLayer
370
18
48
1
60
0
100
AcDbTrace
10
27.51
20
15.444619
30
0
11
31.009998
21
15.905403
31
0
12
31.010002
22
14.983835
32
0
13
31.010002
23
14.983835
33
0
39
0
210
0
220
0
230
1
0
SOLID
5
170
100
AcDbEntity
8
SK2
62
256
6
ByLayer
370
18
48
1
60
0
100
AcDbTrace
10
90
20
15.444619
30
0
11
86.500002
21
14.983835
31
0
12
86.499998
22
15.905403
32
0
13
86.499998
23
15.905403
33
0
39
0
210
0
220
0
230
1
0
ENDBLK
5
172
100
AcDbEntity
8
0
100
AcDbBlockEnd
0
BLOCK
5
177
100
AcDbEntity
8
0
100
AcDbBlockBegin
2
*D7
70
1
10
0
20
0
30
0
3
*D7
0
LINE
5
179
100
AcDbEntity
8
0
62
256
6
ByLayer
370
-2
48
1
60
0
100
AcDbLine
10
90
20
-1.5875
30
0
11
90
21
-18.638003
31
0
39
0
210
0
220
0
230
1
0
LINE
5
17A
100
AcDbEntity
8
0
62
256
6
ByLayer
370
-2
48
1
60
0
100
AcDbLine
10
88.8671
20
-5.423
30
0
11
88.8671
21
-18.638003
31
0
39
0
210
0
220
0
230
1
0
LINE
5
17B
100
AcDbEntity
8
0
62
256
6
ByLayer
370
-2
48
1
60
0
100
AcDbLine
10
90
20
-16.638003
30
0
11
117.666667
21
-16.638003
31
0
39
0
210
0
220
0
230
1
0
LINE
5
17C
100
AcDbEntity
8
0
62
256
6
ByLayer
370
-2
48
1
60
0
100
AcDbLine
10
93.5
20
-16.638003
30
0
11
97
21
-16.638003
31
0
39
0
210
0
220
0
230
1
0
LINE
5
17D
100
AcDbEntity
8
0
62
256
6
ByLayer
370
-2
48
1
60
0
100
AcDbLine
10
85.3671
20
-16.638003
30
0
11
81.8671
21
-16.638003
31
0
39
0
210
0
220
0
230
1
0
SOLID
5
17E
100
AcDbEntity
8
0
62
256
6
ByLayer
370
-1
48
1
60
0
100
AcDbTrace
10
93.5
20
-16.05467
30
0
11
93.5
21
-17.221337
31
0
12
90
22
-16.638003
32
0
13
90
23
-16.638003
33
0
39
0
210
0
220
0
230
1
0
SOLID
5
17F
100
AcDbEntity
8
0
62
256
6
ByLayer
370
-1
48
1
60
0
100
AcDbTrace
10
85.3671
20
-17.221337
30
0
11
85.3671
21
-16.05467
31
0
12
88.8671
22
-16.638003
32
0
13
88.8671
23
-16.638003
33
0
39
0
210
0
220
0
230
1
0
MTEXT
5
180
100
AcDbEntity
8
0
62
256
6
ByLayer
370
18
48
1
60
0
100
AcDbMText
10
107.333333
20
-9.638003
30
0
210
0
220
0
230
1
1
\A1;1.13
40
3.5
41
0
44
1
50
0
71
5
72
5
7
iso_b_vert
0
POINT
5
181
100
AcDbEntity
8
Defpoints
62
0
6
ByLayer
370
-1
48
1
60
0
100
AcDbPoint
10
90
20
0
30
0
39
0
210
0
220
0
230
1
50
360
0
POINT
5
182
100
AcDbEntity
8
Defpoints
62
0
6
ByLayer
370
-1
48
1
60
0
100
AcDbPoint
10
88.8671
20
-3.8355
30
0
39
0
210
0
220
0
230
1
50
360
0
POINT
5
183
100
AcDbEntity
8
Defpoints
62
0
6
ByLayer
370
-1
48
1
60
0
100
AcDbPoint
10
88.8671
20
-16.638003
30
0
39
0
210
0
220
0
230
1
50
360
0
ENDBLK
5
178
100
AcDbEntity
8
0
100
AcDbBlockEnd
0
BLOCK
5
18B
100
AcDbEntity
8
0
100
AcDbBlockBegin
2
_U3
70
0
10
0
20
0
30
0
3
_U3
0
MTEXT
5
185
100
AcDbEntity
8
SK2
62
256
6
ByLayer
370
13
48
1
60
0
100
AcDbMText
10
97.026726
20
-15.60537
30
0
210
0
220
0
230
1
1
\W0.5583;1,13
40
3.5
41
0
44
1.084337
50
0
71
7
72
5
7
iso_b_vert
0
LINE
5
186
100
AcDbEntity
8
SK2
62
256
6
ByLayer
370
13
48
1
60
0
100
AcDbLine
10
90
20
-1.5875
30
0
11
90
21
-18.638003
31
0
39
0
210
0
220
0
230
1
0
LINE
5
187
100
AcDbEntity
8
SK2
62
256
6
ByLayer
370
13
48
1
60
0
100
AcDbLine
10
88.8671
20
-5.423
30
0
11
88.8671
21
-18.638003
31
0
39
0
210
0
220
0
230
1
0
LINE
5
188
100
AcDbEntity
8
SK2
62
256
6
ByLayer
370
13
48
1
60
0
100
AcDbLine
10
80.1171
20
-16.638003
30
0
11
103.121624
21
-16.638003
31
0
39
0
210
0
220
0
230
1
0
SOLID
5
189
100
AcDbEntity
8
SK2
62
256
6
ByLayer
370
18
48
1
60
0
100
AcDbTrace
10
90
20
-16.638003
30
0
11
93.499998
21
-16.177219
31
0
12
93.500002
22
-17.098787
32
0
13
93.500002
23
-17.098787
33
0
39
0
210
0
220
0
230
1
0
SOLID
5
18A
100
AcDbEntity
8
SK2
62
256
6
ByLayer
370
18
48
1
60
0
100
AcDbTrace
10
88.8671
20
-16.638003
30
0
11
85.367102
21
-17.098787
31
0
12
85.367098
22
-16.177219
32
0
13
85.367098
23
-16.177219
33
0
39
0
210
0
220
0
230
1
0
ENDBLK
5
18C
100
AcDbEntity
8
0
100
AcDbBlockEnd
0
BLOCK
5
191
100
AcDbEntity
8
0
100
AcDbBlockBegin
2
*D9
70
1
10
0
20
0
30
0
3
*D9
0
LINE
5
193
100
AcDbEntity
8
0
62
256
6
ByLayer
370
-2
48
1
60
0
100
AcDbLine
10
-36
20
-5.5875
30
0
11
-36
21
-24.343428
31
0
39
0
210
0
220
0
230
1
0
LINE
5
194
100
AcDbEntity
8
0
62
256
6
ByLayer
370
-2
48
1
60
0
100
AcDbLine
10
88.8671
20
-5.423
30
0
11
88.8671
21
-24.343428
31
0
39
0
210
0
220
0
230
1
0
LINE
5
195
100
AcDbEntity
8
0
62
256
6
ByLayer
370
-2
48
1
60
0
100
AcDbLine
10
-32.5
20
-22.343428
30
0
11
85.3671
21
-22.343428
31
0
39
0
210
0
220
0
230
1
0
SOLID
5
196
100
AcDbEntity
8
0
62
256
6
ByLayer
370
-1
48
1
60
0
100
AcDbTrace
10
-32.5
20
-21.760095
30
0
11
-32.5
21
-22.926762
31
0
12
-36
22
-22.343428
32
0
13
-36
23
-22.343428
33
0
39
0
210
0
220
0
230
1
0
SOLID
5
197
100
AcDbEntity
8
0
62
256
6
ByLayer
370
-1
48
1
60
0
100
AcDbTrace
10
85.3671
20
-22.926762
30
0
11
85.3671
21
-21.760095
31
0
12
88.8671
22
-22.343428
32
0
13
88.8671
23
-22.343428
33
0
39
0
210
0
220
0
230
1
0
MTEXT
5
198
100
AcDbEntity
8
0
62
256
6
ByLayer
370
18
48
1
60
0
100
AcDbMText
10
26.43355
20
-15.343428
30
0
210
0
220
0
230
1
1
\A1;124.87
40
3.5
41
0
44
1
50
0
71
5
72
5
7
iso_b_vert
0
POINT
5
199
100
AcDbEntity
8
Defpoints
62
0
6
ByLayer
370
-1
48
1
60
0
100
AcDbPoint
10
-36
20
-4
30
0
39
0
210
0
220
0
230
1
50
360
0
POINT
5
19A
100
AcDbEntity
8
Defpoints
62
0
6
ByLayer
370
-1
48
1
60
0
100
AcDbPoint
10
88.8671
20
-3.8355
30
0
39
0
210
0
220
0
230
1
50
360
0
POINT
5
19B
100
AcDbEntity
8
Defpoints
62
0
6
ByLayer
370
-1
48
1
60
0
100
AcDbPoint
10
88.8671
20
-22.343428
30
0
39
0
210
0
220
0
230
1
50
360
0
ENDBLK
5
192
100
AcDbEntity
8
0
100
AcDbBlockEnd
0
BLOCK
5
1A3
100
AcDbEntity
8
0
100
AcDbBlockBegin
2
_U4
70
0
10
0
20
0
30
0
3
_U4
0
MTEXT
5
19D
100
AcDbEntity
8
SK2
62
256
6
ByLayer
370
13
48
1
60
0
100
AcDbMText
10
20.241685
20
-21.310795
30
0
210
0
220
0
230
1
1
\W0.7145;124,87
40
3.5
41
0
44
1.084337
50
0
71
7
72
5
7
iso_b_vert
0
LINE
5
19E
100
AcDbEntity
8
SK2
62
256
6
ByLayer
370
13
48
1
60
0
100
AcDbLine
10
-36
20
-5.5875
30
0
11
-36
21
-24.343428
31
0
39
0
210
0
220
0
230
1
0
LINE
5
19F
100
AcDbEntity
8
SK2
62
256
6
ByLayer
370
13
48
1
60
0
100
AcDbLine
10
88.8671
20
-5.423
30
0
11
88.8671
21
-24.343428
31
0
39
0
210
0
220
0
230
1
0
LINE
5
1A0
100
AcDbEntity
8
SK2
62
256
6
ByLayer
370
13
48
1
60
0
100
AcDbLine
10
-36
20
-22.343428
30
0
11
88.8671
21
-22.343428
31
0
39
0
210
0
220
0
230
1
0
SOLID
5
1A1
100
AcDbEntity
8
SK2
62
256
6
ByLayer
370
18
48
1
60
0
100
AcDbTrace
10
-36
20
-22.343428
30
0
11
-32.500002
21
-21.882645
31
0
12
-32.499998
22
-22.804212
32
0
13
-32.499998
23
-22.804212
33
0
39
0
210
0
220
0
230
1
0
SOLID
5
1A2
100
AcDbEntity
8
SK2
62
256
6
ByLayer
370
18
48
1
60
0
100
AcDbTrace
10
88.8671
20
-22.343428
30
0
11
85.367102
21
-22.804212
31
0
12
85.367098
22
-21.882645
32
0
13
85.367098
23
-21.882645
33
0
39
0
210
0
220
0
230
1
0
ENDBLK
5
1A4
100
AcDbEntity
8
0
100
AcDbBlockEnd
0
ENDSEC
0
SECTION
2
ENTITIES
0
ARC
5
B3
100
AcDbEntity
8
1
62
256
6
ByLayer
370
18
48
1
60
0
100
AcDbCircle
39
0
10
0.808785
20
-4.580532
30
0
40
0.800000000000002
210
0
220
0
230
1
100
AcDbArc
50
89.96419
51
120.363915
0
ARC
5
B4
100
AcDbEntity
8
1
62
256
6
ByLayer
370
18
48
1
60
0
100
AcDbCircle
39
0
10
0.808785
20
4.580532
30
0
40
0.800000000000002
210
0
220
0
230
1
100
AcDbArc
50
239.636085
51
270.03581
0
ARC
5
B5
100
AcDbEntity
8
1
62
256
6
ByLayer
370
18
48
1
60
0
100
AcDbCircle
39
0
10
0
20
-3.2
30
0
40
0.799999999999999
210
0
220
0
230
1
100
AcDbArc
50
270
51
300.363915
0
ARC
5
B6
100
AcDbEntity
8
1
62
256
6
ByLayer
370
18
48
1
60
0
100
AcDbCircle
39
0
10
0
20
3.2
30
0
40
0.799999999999999
210
0
220
0
230
1
100
AcDbArc
50
59.636085
51
90
0
ELLIPSE
5
B7
100
AcDbEntity
8
1
62
256
6
ByLayer
370
13
48
1
60
0
100
AcDbEllipse
10
8.167036
20
0.997017
30
0
11
0.0626579571292246
21
0.0779357453829259
31
0
210
0
220
0
230
1
40
0.340102
41
2.11982756576189
42
2.74723760767455
0
POINT
5
70
100
AcDbEntity
8
80
62
256
6
ByLayer
370
18
48
1
60
0
100
AcDbPoint
10
0
20
0
30
0
39
0
210
0
220
0
230
1
50
360
0
POINT
5
72
100
AcDbEntity
8
81
62
256
6
ByLayer
370
18
48
1
60
0
100
AcDbPoint
10
90
20
0
30
0
39
0
210
0
220
0
230
1
50
360
0
POINT
5
74
100
AcDbEntity
8
1
62
256
6
ByLayer
370
18
48
1
60
1
100
AcDbPoint
10
88.8671
20
-3.8355
30
0
39
0
210
0
220
0
230
1
50
360
0
POINT
5
76
100
AcDbEntity
8
1
62
256
6
ByLayer
370
18
48
1
60
1
100
AcDbPoint
10
-36
20
-4
30
0
39
0
210
0
220
0
230
1
50
360
0
POINT
5
77
100
AcDbEntity
8
1
62
256
6
ByLayer
370
18
48
1
60
1
100
AcDbPoint
10
27.51
20
3.8355
30
0
39
0
210
0
220
0
230
1
50
360
0
POINT
5
78
100
AcDbEntity
8
1
62
256
6
ByLayer
370
18
48
1
60
1
100
AcDbPoint
10
88.8671
20
-3.8355
30
0
39
0
210
0
220
0
230
1
50
360
0
POINT
5
79
100
AcDbEntity
8
1
62
256
6
ByLayer
370
18
48
1
60
1
100
AcDbPoint
10
-36
20
-4
30
0
39
0
210
0
220
0
230
1
50
360
0
POINT
5
7A
100
AcDbEntity
8
1
62
256
6
ByLayer
370
18
48
1
60
1
100
AcDbPoint
10
88.8671
20
-3.8355
30
0
39
0
210
0
220
0
230
1
50
360
0
SPLINE
5
B8
100
AcDbEntity
8
SK1
62
256
6
ByLayer
370
18
48
1
60
0
100
AcDbSpline
70
4
71
3
72
8
73
4
40
0
40
0
40
0
40
0
40
1
40
1
40
1
40
1
41
1
10
-35.5
20
-1.72225577623041
30
0
41
1
10
-35.6671088782559
20
-1.60043025072639
30
0
41
1
10
-35.8338584626699
20
-1.47836155808324
30
0
41
1
10
-36
20
-1.35588134413732
30
0
0
SPLINE
5
B9
100
AcDbEntity
8
SK1
62
256
6
ByLayer
370
18
48
1
60
0
100
AcDbSpline
70
4
71
3
72
8
73
4
40
0
40
0
40
0
40
0
40
1
40
1
40
1
40
1
41
1
10
-36
20
-2.41299422300997
30
0
41
1
10
-35.8338572189358
20
-2.53547535384169
30
0
41
1
10
-35.6671078248234
20
-2.6575438975712
30
0
41
1
10
-35.5
20
-2.77936865510307
30
0
0
SPLINE
5
BA
100
AcDbEntity
8
SK1
62
256
6
ByLayer
370
18
48
1
60
0
100
AcDbSpline
70
4
71
3
72
12
73
8
40
0
40
0
40
0
40
0
40
0.25
40
0.25
40
0.5
40
0.5
40
1
40
1
40
1
40
1
41
1
10
-35.4
20
-1.88068524192658
30
0
41
1
10
-35.4
20
-1.86660409174203
30
0
41
1
10
-35.4042405317345
20
-1.85036040086516
30
0
41
1
10
-35.4170629445097
20
-1.8192443013784
30
0
41
1
10
-35.4255309618335
20
-1.80429690522465
30
0
41
1
10
-35.4538111153162
20
-1.76282709187919
30
0
41
1
10
-35.4764597265186
20
-1.73941707979068
30
0
41
1
10
-35.5
20
-1.72225577623035
30
0
0
SPLINE
5
BB
100
AcDbEntity
8
SK1
62
256
6
ByLayer
370
18
48
1
60
0
100
AcDbSpline
70
4
71
3
72
12
73
8
40
0
40
0
40
0
40
0
40
0.499999999999999
40
0.499999999999999
40
0.749999999999999
40
0.749999999999999
40
1
40
1
40
1
40
1
41
1
10
-35.5
20
-2.77936865510318
30
0
41
1
10
-35.4764535706457
20
-2.79653444641104
30
0
41
1
10
-35.453758325367
20
-2.8088046282154
30
0
41
1
10
-35.4256589034923
20
-2.81611916311721
30
0
41
1
10
-35.4170915256394
20
-2.81668439117777
30
0
41
1
10
-35.4042768359918
20
-2.81187293925683
30
0
41
1
10
-35.4
20
-2.80625407765447
30
0
41
1
10
-35.4
20
-2.79684973694952
30
0
0
SPLINE
5
BC
100
AcDbEntity
8
1
62
256
6
ByLayer
370
13
48
1
60
0
100
AcDbSpline
70
4
71
3
72
18
73
14
40
0
40
0
40
0
40
0
40
0.25
40
0.25
40
0.375
40
0.375
40
0.5
40
0.5
40
0.75
40
0.75
40
0.875
40
0.875
40
1
40
1
40
1
40
1
41
1
10
8.25012091932123
20
0.912407961206384
30
0
41
1
10
8.25002885409117
20
1.13683382097108
30
0
41
1
10
8.24992742707946
20
1.35291711608801
30
0
41
1
10
8.24976877363969
20
1.66469703014832
30
0
41
1
10
8.24971462952237
20
1.76683507050001
30
0
41
1
10
8.2496073658773
20
1.963326992361
30
0
41
1
10
8.24955403874782
20
2.05811022975632
30
0
41
1
10
8.24939679136554
20
2.33227904410012
30
0
41
1
10
8.24929551553959
20
2.50170517836514
30
0
41
1
10
8.24915638839747
20
2.73434993329644
30
0
41
1
10
8.24911268242835
20
2.80740307474801
30
0
41
1
10
8.24903147799003
20
2.94460179346629
30
0
41
1
10
8.24899384882127
20
3.00897879864752
30
0
41
1
10
8.24896013874201
20
3.06812551214236
30
0
0
SPLINE
5
BD
100
AcDbEntity
8
1
62
256
6
ByLayer
370
18
48
1
60
0
100
AcDbSpline
70
4
71
3
72
42
73
38
40
0
40
0
40
0
40
0
40
0.0312500000000054
40
0.0312500000000054
40
0.0625000000000108
40
0.0625000000000108
40
0.125000000000016
40
0.125000000000016
40
0.187500000000021
40
0.187500000000021
40
0.250000000000026
40
0.250000000000026
40
0.312500000000031
40
0.312500000000031
40
0.375000000000036
40
0.375000000000036
40
0.437500000000041
40
0.437500000000041
40
0.500000000000046
40
0.500000000000046
40
0.531250000000043
40
0.531250000000043
40
0.56250000000004
40
0.56250000000004
40
0.625000000000034
40
0.625000000000034
40
0.687500000000029
40
0.687500000000029
40
0.750000000000023
40
0.750000000000023
40
0.812500000000017
40
0.812500000000017
40
0.875000000000011
40
0.875000000000011
40
0.937500000000006
40
0.937500000000006
40
1
40
1
40
1
40
1
41
1
10
89.5152870511849
20
-1.20744311972521
30
0
41
1
10
89.5147782375346
20
-1.18608529779385
30
0
41
1
10
89.5127118679673
20
-1.16645359522118
30
0
41
1
10
89.5059567552523
20
-1.13198516402855
30
0
41
1
10
89.5012547996355
20
-1.11686440223116
30
0
41
1
10
89.4836928723303
20
-1.0776645435665
30
0
41
1
10
89.4679761947654
20
-1.06053105118716
30
0
41
1
10
89.4302388197225
20
-1.04041683770799
30
0
41
1
10
89.4088204651636
20
-1.03789608576514
30
0
41
1
10
89.3623002293924
20
-1.04543040257229
30
0
41
1
10
89.3368972224274
20
-1.05571665636882
30
0
41
1
10
89.2845686307703
20
-1.08754845862313
30
0
41
1
10
89.2571266380617
20
-1.10933972670793
30
0
41
1
10
89.2013121231823
20
-1.16389951447317
30
0
41
1
10
89.1733789965216
20
-1.19612445113492
30
0
41
1
10
89.1174548115904
20
-1.27164826770254
30
0
41
1
10
89.0893122688557
20
-1.31537969964765
30
0
41
1
10
89.0368584513691
20
-1.41104031247843
30
0
41
1
10
89.0119284225883
20
-1.46416993701001
30
0
41
1
10
88.9804932231624
20
-1.54655700912008
30
0
41
1
10
88.9708280227445
20
-1.57497927315811
30
0
41
1
10
88.9543951806621
20
-1.63056710171952
30
0
41
1
10
88.9475053988371
20
-1.65798922942955
30
0
41
1
10
88.9310666695724
20
-1.73906999534452
30
0
41
1
10
88.9263999687954
20
-1.78938277644531
30
0
41
1
10
88.9294193380456
20
-1.87389709622499
30
0
41
1
10
88.9369707919199
20
-1.90814100178241
30
0
41
1
10
88.960625940902
20
-1.9592693045663
30
0
41
1
10
88.976872768064
20
-1.97657214728312
30
0
41
1
10
89.0144627991516
20
-1.99591986306672
30
0
41
1
10
89.036297966649
20
-1.99827944406675
30
0
41
1
10
89.0832770177194
20
-1.98988816957711
30
0
41
1
10
89.1085498223549
20
-1.97923258598485
30
0
41
1
10
89.1616114154831
20
-1.94590041657369
30
0
41
1
10
89.1888249145944
20
-1.92364721426574
30
0
41
1
10
89.2446359820066
20
-1.86781383076954
30
0
41
1
10
89.2733360185032
20
-1.8339598955462
30
0
41
1
10
89.3013030530915
20
-1.79535932261089
30
0
0
SPLINE
5
BE
100
AcDbEntity
8
1
62
256
6
ByLayer
370
18
48
1
60
0
100
AcDbSpline
70
4
71
3
72
88
73
84
40
0
40
0
40
0
40
0
40
0.015864429418881
40
0.015864429418881
40
0.0423055675292159
40
0.0423055675292159
40
0.0687467056395507
40
0.0687467056395507
40
0.0951878437498856
40
0.0951878437498856
40
0.12162898186022
40
0.12162898186022
40
0.148070119970555
40
0.148070119970555
40
0.17451125808089
40
0.17451125808089
40
0.200952396191225
40
0.200952396191225
40
0.22739353430156
40
0.22739353430156
40
0.253834672411895
40
0.253834672411895
40
0.280275810522229
40
0.280275810522229
40
0.293496379577397
40
0.293496379577397
40
0.306716948632564
40
0.306716948632564
40
0.3331580867429
40
0.3331580867429
40
0.359599224853235
40
0.359599224853235
40
0.38604036296357
40
0.38604036296357
40
0.412481501073906
40
0.412481501073906
40
0.438922639184241
40
0.438922639184241
40
0.465363777294577
40
0.465363777294577
40
0.491804915404912
40
0.491804915404912
40
0.518246053515247
40
0.518246053515247
40
0.544687191625583
40
0.544687191625583
40
0.571128329735918
40
0.571128329735918
40
0.597569467846254
40
0.597569467846254
40
0.624010605956589
40
0.624010605956589
40
0.650451744066925
40
0.650451744066925
40
0.67689288217726
40
0.67689288217726
40
0.703334020287595
40
0.703334020287595
40
0.716554589342763
40
0.716554589342763
40
0.729775158397931
40
0.729775158397931
40
0.756216296508267
40
0.756216296508267
40
0.782657434618604
40
0.782657434618604
40
0.809098572728941
40
0.809098572728941
40
0.835539710839278
40
0.835539710839278
40
0.861980848949614
40
0.861980848949614
40
0.888421987059951
40
0.888421987059951
40
0.914863125170288
40
0.914863125170288
40
0.941304263280624
40
0.941304263280624
40
0.967745401390961
40
0.967745401390961
40
0.994186539501298
40
0.994186539501298
40
1
40
1
40
1
40
1
41
1
10
11.2016709275894
20
1.63694823158772
30
0
41
1
10
11.3278143399323
20
1.71443041734165
30
0
41
1
10
11.4541754075193
20
1.79091869737889
30
0
41
1
10
11.792414633507
20
1.99125556515179
30
0
41
1
10
12.0036265848437
20
2.11142749422953
30
0
41
1
10
12.4230420172776
20
2.34265938776332
30
0
41
1
10
12.631986019762
20
2.45317385454342
30
0
41
1
10
13.0499936344139
20
2.6623660765672
30
0
41
1
10
13.2583218887356
20
2.76185534889228
30
0
41
1
10
13.6752830189111
20
2.94879751016171
30
0
41
1
10
13.884460978666
20
3.03577654915466
30
0
41
1
10
14.3028924037956
20
3.19788939689741
30
0
41
1
10
14.5123294222241
20
3.27278506741823
30
0
41
1
10
14.9341961025089
20
3.40806309422135
30
0
41
1
10
15.1460906575624
20
3.46901660984025
30
0
41
1
10
15.5663108092183
20
3.57506224629409
30
0
41
1
10
15.7760867185311
20
3.62006275742837
30
0
41
1
10
16.1941415804
20
3.69482862533855
30
0
41
1
10
16.4022392775505
20
3.72455692832682
30
0
41
1
10
16.8195659808061
20
3.76793307678142
30
0
41
1
10
17.0282299791103
20
3.78179049550127
30
0
41
1
10
17.4456010566252
20
3.79358623031644
30
0
41
1
10
17.6550281494806
20
3.7914820883901
30
0
41
1
10
17.9702968796945
20
3.7762305867532
30
0
41
1
10
18.0754936510157
20
3.76911447354667
30
0
41
1
10
18.2862985166599
20
3.75075431631839
30
0
41
1
10
18.3920466143253
20
3.73948556694333
30
0
41
1
10
18.7085195594857
20
3.69991078195292
30
0
41
1
10
18.918770514099
20
3.66577652562563
30
0
41
1
10
19.3371041323176
20
3.58198637054449
30
0
41
1
10
19.5458251108292
20
3.53257253947635
30
0
41
1
10
19.9632831968676
20
3.41948414077166
30
0
41
1
10
20.1713732729389
20
3.35539037119193
30
0
41
1
10
20.5884585027949
20
3.2134424841459
30
0
41
1
10
20.7977688088038
20
3.13591292416066
30
0
41
1
10
21.2166032541416
20
2.96645574675077
30
0
41
1
10
21.4265529305194
20
2.8748271278441
30
0
41
1
10
21.8494702438346
20
2.67945030402305
30
0
41
1
10
22.0601792716344
20
2.57558824239379
30
0
41
1
10
22.4793717717587
20
2.35836272173478
30
0
41
1
10
22.688813899549
20
2.24557210872553
30
0
41
1
10
23.1061572513115
20
2.01031033429254
30
0
41
1
10
23.3141514662954
20
1.88790031927329
30
0
41
1
10
23.7314613765692
20
1.63702276543489
30
0
41
1
10
23.9400682074906
20
1.5076469482004
30
0
41
1
10
24.3578137258294
20
1.24171260317186
30
0
41
1
10
24.5676811757356
20
1.10619379544957
30
0
41
1
10
24.9888316503469
20
0.82912238981055
30
0
41
1
10
25.2002465138053
20
0.686807273257898
30
0
41
1
10
25.621081368924
20
0.403637526374723
30
0
41
1
10
25.8307008842479
20
0.261616148779865
30
0
41
1
10
26.2482028952483
20
-0.023526800393654
30
0
41
1
10
26.4567943353262
20
-0.165583464712739
30
0
41
1
10
26.8738962430155
20
-0.448337326267875
30
0
41
1
10
27.0818727722073
20
-0.58982109626524
30
0
41
1
10
27.4993260002146
20
-0.869076113700118
30
0
41
1
10
27.7088001267141
20
-1.00686081069287
30
0
41
1
10
28.0233859106577
20
-1.21184058983195
30
0
41
1
10
28.1283759104307
20
-1.27978712871265
30
0
41
1
10
28.339075982426
20
-1.41424380040297
30
0
41
1
10
28.4450163277161
20
-1.48079068365871
30
0
41
1
10
28.7616942672281
20
-1.67749650736084
30
0
41
1
10
28.9713379841933
20
-1.8052711823583
30
0
41
1
10
29.3896914919588
20
-2.05151424586174
30
0
41
1
10
29.5988149445778
20
-2.16950666270077
30
0
41
1
10
30.015593899076
20
-2.39705290175641
30
0
41
1
10
30.223586413335
20
-2.50614118047176
30
0
41
1
10
30.6409682634048
20
-2.7125407985985
30
0
41
1
10
30.8495982234349
20
-2.81069380065446
30
0
41
1
10
31.2679240939858
20
-2.9954307449114
30
0
41
1
10
31.478283294396
20
-3.08140932917263
30
0
41
1
10
31.9003746578195
20
-3.24132377244393
30
0
41
1
10
32.1109546079745
20
-3.3147497815317
30
0
41
1
10
32.5307406674869
20
-3.44550065928641
30
0
41
1
10
32.739799574228
20
-3.50355114074748
30
0
41
1
10
33.1566478543407
20
-3.60482089668108
30
0
41
1
10
33.3651712288499
20
-3.64767279619855
30
0
41
1
10
33.7820470402306
20
-3.71816898214348
30
0
41
1
10
33.9900144522602
20
-3.745864958635
30
0
41
1
10
34.4079846727967
20
-3.78516704492497
30
0
41
1
10
34.6176585921306
20
-3.79693603548054
30
0
41
1
10
34.8739890091736
20
-3.80143898148225
30
0
41
1
10
34.9202710403117
20
-3.80185359393675
30
0
41
1
10
34.9666021482222
20
-3.80187301739954
30
0
0
SPLINE
5
BF
100
AcDbEntity
8
1
62
256
6
ByLayer
370
18
48
1
60
0
100
AcDbSpline
70
4
71
3
72
88
73
84
40
0
40
0
40
0
40
0
40
0.0233785094122772
40
0.0233785094122772
40
0.0497651276062202
40
0.0497651276062202
40
0.0761517458001632
40
0.0761517458001632
40
0.102538363994106
40
0.102538363994106
40
0.128924982188049
40
0.128924982188049
40
0.155311600381992
40
0.155311600381992
40
0.181698218575935
40
0.181698218575935
40
0.208084836769878
40
0.208084836769878
40
0.234471454963821
40
0.234471454963821
40
0.247664764060792
40
0.247664764060792
40
0.260858073157764
40
0.260858073157764
40
0.287244691351706
40
0.287244691351706
40
0.31363130954565
40
0.31363130954565
40
0.340017927739592
40
0.340017927739592
40
0.366404545933536
40
0.366404545933536
40
0.392791164127478
40
0.392791164127478
40
0.419177782321421
40
0.419177782321421
40
0.445564400515364
40
0.445564400515364
40
0.471951018709307
40
0.471951018709307
40
0.49833763690325
40
0.49833763690325
40
0.524724255097193
40
0.524724255097193
40
0.551110873291136
40
0.551110873291136
40
0.577497491485079
40
0.577497491485079
40
0.603884109679022
40
0.603884109679022
40
0.630270727872965
40
0.630270727872965
40
0.656657346066908
40
0.656657346066908
40
0.66985065516388
40
0.66985065516388
40
0.683043964260852
40
0.683043964260852
40
0.709430582454795
40
0.709430582454795
40
0.735817200648738
40
0.735817200648738
40
0.762203818842681
40
0.762203818842681
40
0.788590437036624
40
0.788590437036624
40
0.814977055230567
40
0.814977055230567
40
0.84136367342451
40
0.84136367342451
40
0.867750291618453
40
0.867750291618453
40
0.894136909812396
40
0.894136909812396
40
0.920523528006339
40
0.920523528006339
40
0.946910146200281
40
0.946910146200281
40
0.973296764394225
40
0.973296764394225
40
0.999683382588167
40
0.999683382588167
40
1
40
1
40
1
40
1
41
1
10
46.204071969389
20
1.64424530842834
30
0
41
1
10
46.3890899062733
20
1.75816434703464
30
0
41
1
10
46.5735216810623
20
1.86947094120558
30
0
41
1
10
46.965902462782
20
2.09946539167558
30
0
41
1
10
47.174444888255
20
2.21651092239819
30
0
41
1
10
47.5913252415772
20
2.44226377131665
30
0
41
1
10
47.7996955813517
20
2.55087295685067
30
0
41
1
10
48.2190926784657
20
2.75630158493206
30
0
41
1
10
48.4298820461424
20
2.85410610999847
30
0
41
1
10
48.8512963194436
20
3.03765778207378
30
0
41
1
10
49.0613903604486
20
3.12218330178777
30
0
41
1
10
49.4798678484089
20
3.27767323327393
30
0
41
1
10
49.6879275784818
20
3.3488079040614
30
0
41
1
10
50.1047172105807
20
3.47581839680944
30
0
41
1
10
50.3130241435474
20
3.53205951047911
30
0
41
1
10
50.7291452701955
20
3.63007293330918
30
0
41
1
10
50.9376467508837
20
3.67147653685004
30
0
41
1
10
51.3559741009701
20
3.73886570275383
30
0
41
1
10
51.5652258951108
20
3.76499896807999
30
0
41
1
10
51.8811707003878
20
3.7919967570586
30
0
41
1
10
51.9870023309676
20
3.7989646262858
30
0
41
1
10
52.1977018478393
20
3.80880544277954
30
0
41
1
10
52.3027352485938
20
3.81169180888247
30
0
41
1
10
52.6169756381551
20
3.81426327047711
30
0
41
1
10
52.8256906089209
20
3.80783857319187
30
0
41
1
10
53.2429856742898
20
3.77923288174014
30
0
41
1
10
53.4508549147673
20
3.75693209909304
30
0
41
1
10
53.8668553408277
20
3.69667433094509
30
0
41
1
10
54.0754784464301
20
3.65895894387441
30
0
41
1
10
54.4926128621253
20
3.56773415181891
30
0
41
1
10
54.7013724757086
20
3.51423980884295
30
0
41
1
10
55.1216927806798
20
3.39266480724726
30
0
41
1
10
55.3331864467269
20
3.32385806950532
30
0
41
1
10
55.7531826071964
20
3.17287965000662
30
0
41
1
10
55.9627835787962
20
3.09124443310193
30
0
41
1
10
56.3802860496357
20
2.91521361725341
30
0
41
1
10
56.5880524602272
20
2.82061642740413
30
0
41
1
10
57.0045747439859
20
2.62130294550977
30
0
41
1
10
57.2127350655832
20
2.51602185277014
30
0
41
1
10
57.628985920845
20
2.29419746696311
30
0
41
1
10
57.8378010960737
20
2.17849519719218
30
0
41
1
10
58.2567546800988
20
1.93737738756124
30
0
41
1
10
58.4667906237615
20
1.81108475386472
30
0
41
1
10
58.8886014387857
20
1.5520059426093
30
0
41
1
10
59.0986868944505
20
1.41991305350365
30
0
41
1
10
59.5165548983856
20
1.1497400397138
30
0
41
1
10
59.7249815231737
20
1.01256529511062
30
0
41
1
10
60.1417080777296
20
0.735372571075175
30
0
41
1
10
60.3493661714852
20
0.594420626458771
30
0
41
1
10
60.7654628234173
20
0.31098430442421
30
0
41
1
10
60.9742121437992
20
0.168974101806299
30
0
41
1
10
61.3917862312306
20
-0.117635216801858
30
0
41
1
10
61.6010316401192
20
-0.26161846186622
30
0
41
1
10
61.91707639222
20
-0.476382928835846
30
0
41
1
10
62.0227909508692
20
-0.548060011193144
30
0
41
1
10
62.2331958790658
20
-0.690530036032925
30
0
41
1
10
62.3380479443315
20
-0.761402462543799
30
0
41
1
10
62.6521347599568
20
-0.972087385803434
30
0
41
1
10
62.8613041387212
20
-1.1094029286906
30
0
41
1
10
63.2779920061744
20
-1.37963759750903
30
0
41
1
10
63.485578542365
20
-1.51241429291761
30
0
41
1
10
63.9019718610621
20
-1.76960919414239
30
0
41
1
10
64.1100811803346
20
-1.89498517831916
30
0
41
1
10
64.5266779266789
20
-2.13844686339166
30
0
41
1
10
64.7358948202404
20
-2.25562114182858
30
0
41
1
10
65.1556686765926
20
-2.48139422900408
30
0
41
1
10
65.366614646787
20
-2.59066029863732
30
0
41
1
10
65.7870668158598
20
-2.79507741308694
30
0
41
1
10
65.9964739047807
20
-2.8909847357202
30
0
41
1
10
66.4133956488647
20
-3.07061968464839
30
0
41
1
10
66.6216051735684
20
-3.15368195152976
30
0
41
1
10
67.0379082610983
20
-3.30622273386265
30
0
41
1
10
67.2454392592535
20
-3.37609455821362
30
0
41
1
10
67.6618035846885
20
-3.5010959410337
30
0
41
1
10
67.8707287971491
20
-3.55625432821105
30
0
41
1
10
68.2889449943239
20
-3.65227382526695
30
0
41
1
10
68.4991010323319
20
-3.69284348324462
30
0
41
1
10
68.9210177737235
20
-3.75791198622574
30
0
41
1
10
69.1304696429548
20
-3.78242603900515
30
0
41
1
10
69.5482204667264
20
-3.81518779356691
30
0
41
1
10
69.7570106022429
20
-3.82344336787017
30
0
41
1
10
69.9675367787655
20
-3.82375475452511
30
0
41
1
10
69.9700328918078
20
-3.82375728720245
30
0
41
1
10
69.9725289335783
20
-3.82375866077101
30
0
0
SPLINE
5
C0
100
AcDbEntity
8
1
62
256
6
ByLayer
370
18
48
1
60
0
100
AcDbSpline
70
4
71
3
72
34
73
30
40
0
40
0
40
0
40
0
40
0.0059641939157349
40
0.0059641939157349
40
0.0888005110894233
40
0.0888005110894233
40
0.130218669676268
40
0.130218669676268
40
0.171636828263112
40
0.171636828263112
40
0.254473145436801
40
0.254473145436801
40
0.33730946261049
40
0.33730946261049
40
0.420145779784179
40
0.420145779784179
40
0.502982096957867
40
0.502982096957867
40
0.585818414131557
40
0.585818414131557
40
0.668654731305245
40
0.668654731305245
40
0.751491048478935
40
0.751491048478935
40
0.834327365652623
40
0.834327365652623
40
0.917163682826313
40
0.917163682826313
40
1
40
1
40
1
40
1
41
1
10
81.1942439522728
20
1.64432216402
30
0
41
1
10
81.2092612493232
20
1.65365006035907
30
0
41
1
10
81.224283813403
20
1.66295859922008
30
0
41
1
10
81.4480405892443
20
1.80125308501968
30
0
41
1
10
81.6575394304535
20
1.92687923162794
30
0
41
1
10
81.9726363211552
20
2.11054089147874
30
0
41
1
10
82.0780339999012
20
2.17095755155737
30
0
41
1
10
82.2883555789173
20
2.28859615663666
30
0
41
1
10
82.3933898912196
20
2.34592378717247
30
0
41
1
10
82.7076635145083
20
2.51405815371504
30
0
41
1
10
82.9158645232312
20
2.6212083343529
30
0
41
1
10
83.3321182393713
20
2.82301761080728
30
0
41
1
10
83.540323254389
20
2.91759737987209
30
0
41
1
10
83.9556859838519
20
3.09531451802044
30
0
41
1
10
84.1633486553253
20
3.17792873140195
30
0
41
1
10
84.5802824628168
20
3.32930455535936
30
0
41
1
10
84.7888154054366
20
3.39864636478728
30
0
41
1
10
85.2076868504196
20
3.52305299791203
30
0
41
1
10
85.4192990725015
20
3.57796165790009
30
0
41
1
10
85.8390373030518
20
3.67221360209899
30
0
41
1
10
86.0476428655005
20
3.71150648796544
30
0
41
1
10
86.4648887378222
20
3.77385022961877
30
0
41
1
10
86.6727940942187
20
3.79718553268913
30
0
41
1
10
87.0879907424018
20
3.82793565470232
30
0
41
1
10
87.2959972037329
20
3.83528167924234
30
0
41
1
10
87.7120803135701
20
3.83404521087235
30
0
41
1
10
87.9199159186743
20
3.82535675376755
30
0
41
1
10
88.3382022413086
20
3.79190980977174
30
0
41
1
10
88.5483693123052
20
3.7671161791398
30
0
41
1
10
88.758839579088
20
3.73404421496326
30
0
0
SPLINE
5
C1
100
AcDbEntity
8
1
62
256
6
ByLayer
370
18
48
1
60
0
100
AcDbSpline
70
4
71
3
72
8
73
4
40
0
40
0
40
0
40
0
40
1
40
1
40
1
40
1
41
1
10
89.8476467579533
20
-1.02654877900463
30
0
41
1
10
89.8956764884023
20
-0.737815995968901
30
0
41
1
10
89.9381041784366
20
-0.449119421775578
30
0
41
1
10
89.9748907386503
20
-0.160459309079357
30
0
0
SPLINE
5
C2
100
AcDbEntity
8
1
62
256
6
ByLayer
370
18
48
1
60
0
100
AcDbSpline
70
4
71
3
72
10
73
6
40
0
40
0
40
0
40
0
40
0.5
40
0.5
40
1
40
1
40
1
40
1
41
1
10
89.9748907386503
20
0.160459309079357
30
0
41
1
10
89.9769084594001
20
0.144626475140825
30
0
41
1
10
89.9802427421471
20
0.126860707161768
30
0
41
1
10
89.988781424275
20
0.0885777040709854
30
0
41
1
10
89.9940042452363
20
0.0681105521657628
30
0
41
1
10
89.9999277313003
20
0.0471525932364898
30
0
0
SPLINE
5
C3
100
AcDbEntity
8
1
62
256
6
ByLayer
370
18
48
1
60
0
100
AcDbSpline
70
4
71
3
72
10
73
6
40
0
40
0
40
0
40
0
40
0.5
40
0.5
40
1
40
1
40
1
40
1
41
1
10
88.7588395790794
20
-3.7340442149837
30
0
41
1
10
88.9460530411135
20
-3.28989076885333
30
0
41
1
10
89.1319756455466
20
-2.84281932882942
30
0
41
1
10
89.4963993439319
20
-1.9408594701703
30
0
41
1
10
89.6749857654619
20
-1.48605359929272
30
0
41
1
10
89.8476467579536
20
-1.02654877900358
30
0
0
SPLINE
5
C4
100
AcDbEntity
8
1
62
256
6
ByLayer
370
18
48
1
60
0
100
AcDbSpline
70
4
71
3
72
8
73
4
40
0
40
0
40
0
40
0
40
1
40
1
40
1
40
1
41
1
10
8.00820286399386
20
1.07737383362965
30
0
41
1
10
8.00482159582185
20
1.08972204185062
30
0
41
1
10
8.00308571102613
20
1.10225694369794
30
0
41
1
10
8.0030846712192
20
1.11498772103582
30
0
0
SPLINE
5
C5
100
AcDbEntity
8
1
62
256
6
ByLayer
370
18
48
1
60
0
100
AcDbSpline
70
4
71
3
72
14
73
10
40
0
40
0
40
0
40
0
40
0.25
40
0.25
40
0.5
40
0.5
40
0.75
40
0.75
40
1
40
1
40
1
40
1
41
1
10
88.5827436756294
20
0.859908967960308
30
0
41
1
10
88.5787256741295
20
0.874755327344133
30
0
41
1
10
88.577127684698
20
0.890372637659993
30
0
41
1
10
88.5817611297445
20
0.920514082828447
30
0
41
1
10
88.5883256585199
20
0.935122826633744
30
0
41
1
10
88.6089928509953
20
0.958067091269754
30
0
41
1
10
88.622731201778
20
0.966259080646239
30
0
41
1
10
88.6514490120134
20
0.976336736267257
30
0
41
1
10
88.6667833203604
20
0.978556838557097
30
0
41
1
10
88.6820818371842
20
0.978838310261125
30
0
0
SPLINE
5
C6
100
AcDbEntity
8
1
62
256
6
ByLayer
370
18
48
1
60
0
100
AcDbSpline
70
4
71
3
72
8
73
4
40
0
40
0
40
0
40
0
40
1
40
1
40
1
40
1
41
1
10
88.7588395790857
20
-3.73404421496548
30
0
41
1
10
88.7098998125408
20
-3.7814751527165
30
0
41
1
10
88.6671690819981
20
-3.81266987547303
30
0
41
1
10
88.6303559222007
20
-3.82679661900909
30
0
0
SPLINE
5
C7
100
AcDbEntity
8
1
62
256
6
ByLayer
370
18
48
1
60
0
100
AcDbSpline
70
4
71
3
72
36
73
32
40
0
40
0
40
0
40
0
40
0.0696385070692526
40
0.0696385070692526
40
0.139277014138505
40
0.139277014138505
40
0.208915521207758
40
0.208915521207758
40
0.27855402827701
40
0.27855402827701
40
0.348192535346263
40
0.348192535346263
40
0.417831042415516
40
0.417831042415516
40
0.487469549484768
40
0.487469549484768
40
0.557108056554021
40
0.557108056554021
40
0.626746563623273
40
0.626746563623273
40
0.696385070692526
40
0.696385070692526
40
0.766023577761779
40
0.766023577761779
40
0.835662084831031
40
0.835662084831031
40
0.905300591900284
40
0.905300591900284
40
0.974939098969536
40
0.974939098969536
40
1
40
1
40
1
40
1
41
1
10
8.43498597003116
20
0.188448187562926
30
0
41
1
10
8.64553264423697
20
0.0432159252737847
30
0
41
1
10
8.85626837722623
20
-0.0997066916774827
30
0
41
1
10
9.27675364995713
20
-0.383292946122708
30
0
41
1
10
9.48548623523556
20
-0.525456083240016
30
0
41
1
10
9.90368575285817
20
-0.804940959903206
30
0
41
1
10
10.1127910959752
20
-0.942822609965447
30
0
41
1
10
10.530433673222
20
-1.21567591133135
30
0
41
1
10
10.7396362155212
20
-1.34968701272371
30
0
41
1
10
11.1595383713311
20
-1.61183627581596
30
0
41
1
10
11.3696130680866
20
-1.74083298019454
30
0
41
1
10
11.792414633507
20
-1.99125556515179
30
0
41
1
10
12.0036265848438
20
-2.1114274942295
30
0
41
1
10
12.4230420172776
20
-2.34265938776332
30
0
41
1
10
12.631986019762
20
-2.45317385454342
30
0
41
1
10
13.0499936344139
20
-2.6623660765672
30
0
41
1
10
13.2583218887356
20
-2.76185534889225
30
0
41
1
10
13.6752830189111
20
-2.94879751016171
30
0
41
1
10
13.884460978666
20
-3.03577654915466
30
0
41
1
10
14.3028924037956
20
-3.19788939689741
30
0
41
1
10
14.5123294222241
20
-3.27278506741823
30
0
41
1
10
14.9341961025089
20
-3.40806309422135
30
0
41
1
10
15.1460906575624
20
-3.46901660984025
30
0
41
1
10
15.5663108092183
20
-3.57506224629409
30
0
41
1
10
15.7760867185311
20
-3.62006275742837
30
0
41
1
10
16.1941415804
20
-3.69482862533855
30
0
41
1
10
16.4022392775505
20
-3.72455692832682
30
0
41
1
10
16.8195659808062
20
-3.76793307678145
30
0
41
1
10
17.0282299791103
20
-3.78179049550127
30
0
41
1
10
17.3120154568725
20
-3.78981083620147
30
0
41
1
10
17.3872114325928
20
-3.79089699037058
30
0
41
1
10
17.4625039346952
20
-3.79094395837919
30
0
0
SPLINE
5
C8
100
AcDbEntity
8
1
62
256
6
ByLayer
370
18
48
1
60
0
100
AcDbSpline
70
4
71
3
72
88
73
84
40
0
40
0
40
0
40
0
40
0.0199174236245303
40
0.0199174236245303
40
0.046333328647656
40
0.046333328647656
40
0.0727492336707818
40
0.0727492336707818
40
0.0991651386939075
40
0.0991651386939075
40
0.125581043717033
40
0.125581043717033
40
0.151996948740159
40
0.151996948740159
40
0.178412853763285
40
0.178412853763285
40
0.204828758786411
40
0.204828758786411
40
0.231244663809536
40
0.231244663809536
40
0.257660568832662
40
0.257660568832662
40
0.284076473855788
40
0.284076473855788
40
0.310492378878914
40
0.310492378878914
40
0.336908283902039
40
0.336908283902039
40
0.363324188925165
40
0.363324188925165
40
0.389740093948291
40
0.389740093948291
40
0.416155998971417
40
0.416155998971417
40
0.442571903994542
40
0.442571903994542
40
0.468987809017668
40
0.468987809017668
40
0.495403714040794
40
0.495403714040794
40
0.52181961906392
40
0.52181961906392
40
0.548235524087045
40
0.548235524087045
40
0.561443476598609
40
0.561443476598609
40
0.574651429110172
40
0.574651429110172
40
0.601067334133299
40
0.601067334133299
40
0.627483239156426
40
0.627483239156426
40
0.653899144179553
40
0.653899144179553
40
0.68031504920268
40
0.68031504920268
40
0.706730954225807
40
0.706730954225807
40
0.733146859248934
40
0.733146859248934
40
0.75956276427206
40
0.75956276427206
40
0.785978669295187
40
0.785978669295187
40
0.812394574318314
40
0.812394574318314
40
0.838810479341441
40
0.838810479341441
40
0.865226384364568
40
0.865226384364568
40
0.891642289387695
40
0.891642289387695
40
0.918058194410822
40
0.918058194410822
40
0.944474099433949
40
0.944474099433949
40
0.970890004457076
40
0.970890004457076
40
0.984097956968639
40
0.984097956968639
40
0.997305909480201
40
0.997305909480201
40
1
40
1
40
1
40
1
41
1
10
28.7061324590836
20
1.64251136132518
30
0
41
1
10
28.8648133944648
20
1.74008167584125
30
0
41
1
10
29.0227968020129
20
1.83555986575399
30
0
41
1
10
29.3896914919589
20
2.05151424586174
30
0
41
1
10
29.5988149445778
20
2.1695066627008
30
0
41
1
10
30.0155938990761
20
2.39705290175641
30
0
41
1
10
30.223586413335
20
2.50614118047176
30
0
41
1
10
30.6409682634048
20
2.7125407985985
30
0
41
1
10
30.8495982234349
20
2.81069380065449
30
0
41
1
10
31.2679240939858
20
2.9954307449114
30
0
41
1
10
31.478283294396
20
3.08140932917263
30
0
41
1
10
31.9003746578196
20
3.24132377244393
30
0
41
1
10
32.1109546079745
20
3.31474978153167
30
0
41
1
10
32.5307406674868
20
3.44550065928644
30
0
41
1
10
32.7397995742281
20
3.50355114074745
30
0
41
1
10
33.1566478543408
20
3.60482089668108
30
0
41
1
10
33.36517122885
20
3.64767279619855
30
0
41
1
10
33.7820470402306
20
3.71816898214348
30
0
41
1
10
33.9900144522602
20
3.745864958635
30
0
41
1
10
34.4079846727968
20
3.78516704492497
30
0
41
1
10
34.6176585921307
20
3.79693603548054
30
0
41
1
10
35.0379191596897
20
3.80431873576322
30
0
41
1
10
35.2497436387555
20
3.79979781644579
30
0
41
1
10
35.6706048150187
20
3.77466910613885
30
0
41
1
10
35.8796209349653
20
3.75397990490939
30
0
41
1
10
36.2973052516744
20
3.69711087278645
30
0
41
1
10
36.5061227414448
20
3.66107396327325
30
0
41
1
10
36.9225159660071
20
3.57341716952027
30
0
41
1
10
37.1306053613046
20
3.52195986862654
30
0
41
1
10
37.548168378466
20
3.40473729153069
30
0
41
1
10
37.756907952903
20
3.33851649515327
30
0
41
1
10
38.1760037928453
20
3.19163334548634
30
0
41
1
10
38.3874492292224
20
3.11124043731124
30
0
41
1
10
38.8092047063855
20
2.9365891536209
30
0
41
1
10
39.0187286389177
20
2.84289834370767
30
0
41
1
10
39.4375706984478
20
2.64558468444221
30
0
41
1
10
39.6461437000927
20
2.54120934085475
30
0
41
1
10
40.0625161214277
20
2.32202943224857
30
0
41
1
10
40.2710210062862
20
2.20806219340824
30
0
41
1
10
40.6878213911794
20
1.97043061121855
30
0
41
1
10
40.8959265054103
20
1.84646572684778
30
0
41
1
10
41.3145431823819
20
1.59203231075122
30
0
41
1
10
41.5244984399382
20
1.46086637078568
30
0
41
1
10
41.8404557538029
20
1.25801286673465
30
0
41
1
10
41.9460748194069
20
1.18945152360146
30
0
41
1
10
42.1567544747134
20
1.05214959787088
30
0
41
1
10
42.261937275998
20
0.983196079323449
30
0
41
1
10
42.5766420753246
20
0.77488193730639
30
0
41
1
10
42.7851255446472
20
0.633777711033616
30
0
41
1
10
43.2023098219198
20
0.351341015015919
30
0
41
1
10
43.410842744849
20
0.209763498594867
30
0
41
1
10
43.8270096745197
20
-0.0752685986789459
30
0
41
1
10
44.0352672236311
20
-0.217798362902613
30
0
41
1
10
44.4531360994714
20
-0.501386853658346
30
0
41
1
10
44.6620854362014
20
-0.643434049782712
30
0
41
1
10
45.0821629159648
20
-0.924838291288353
30
0
41
1
10
45.2942685506297
20
-1.06409268492007
30
0
41
1
10
45.7145468782247
20
-1.33723653632686
30
0
41
1
10
45.9236196498627
20
-1.47081944505288
30
0
41
1
10
46.3416266357656
20
-1.72946676574011
30
0
41
1
10
46.5498037859815
20
-1.855568669485
30
0
41
1
10
46.9659024627821
20
-2.09946539167558
30
0
41
1
10
47.174444888255
20
-2.21651092239819
30
0
41
1
10
47.5913252415772
20
-2.44226377131668
30
0
41
1
10
47.7996955813517
20
-2.55087295685067
30
0
41
1
10
48.2190926784657
20
-2.75630158493206
30
0
41
1
10
48.4298820461426
20
-2.8541061099985
30
0
41
1
10
48.8512963194437
20
-3.03765778207381
30
0
41
1
10
49.0613903604487
20
-3.12218330178777
30
0
41
1
10
49.479867848409
20
-3.27767323327393
30
0
41
1
10
49.6879275784818
20
-3.3488079040614
30
0
41
1
10
50.1047172105807
20
-3.47581839680944
30
0
41
1
10
50.3130241435474
20
-3.53205951047911
30
0
41
1
10
50.7291452701956
20
-3.63007293330918
30
0
41
1
10
50.9376467508838
20
-3.67147653685007
30
0
41
1
10
51.3559741009702
20
-3.73886570275383
30
0
41
1
10
51.5652258951108
20
-3.76499896807999
30
0
41
1
10
51.8811707003879
20
-3.7919967570586
30
0
41
1
10
51.9870023309676
20
-3.7989646262858
30
0
41
1
10
52.1977018478394
20
-3.80880544277954
30
0
41
1
10
52.302735248594
20
-3.81169180888247
30
0
41
1
10
52.4288477602952
20
-3.81272380060349
30
0
41
1
10
52.4502053766849
20
-3.81281398110482
30
0
41
1
10
52.471555648719
20
-3.81281978097218
30
0
0
SPLINE
5
C9
100
AcDbEntity
8
1
62
256
6
ByLayer
370
18
48
1
60
0
100
AcDbSpline
70
4
71
3
72
86
73
82
40
0
40
0
40
0
40
0
40
0.0261978974311116
40
0.0261978974311116
40
0.05255391569919
40
0.05255391569919
40
0.0789099339672688
40
0.0789099339672688
40
0.105265952235347
40
0.105265952235347
40
0.131621970503426
40
0.131621970503426
40
0.157977988771504
40
0.157977988771504
40
0.184334007039583
40
0.184334007039583
40
0.210690025307662
40
0.210690025307662
40
0.23704604357574
40
0.23704604357574
40
0.263402061843819
40
0.263402061843819
40
0.289758080111897
40
0.289758080111897
40
0.316114098379976
40
0.316114098379976
40
0.342470116648054
40
0.342470116648054
40
0.355648125782094
40
0.355648125782094
40
0.368826134916134
40
0.368826134916134
40
0.395182153184213
40
0.395182153184213
40
0.421538171452292
40
0.421538171452292
40
0.44789418972037
40
0.44789418972037
40
0.474250207988449
40
0.474250207988449
40
0.500606226256527
40
0.500606226256527
40
0.526962244524606
40
0.526962244524606
40
0.553318262792684
40
0.553318262792684
40
0.579674281060763
40
0.579674281060763
40
0.606030299328841
40
0.606030299328841
40
0.63238631759692
40
0.63238631759692
40
0.658742335864999
40
0.658742335864999
40
0.685098354133077
40
0.685098354133077
40
0.711454372401156
40
0.711454372401156
40
0.737810390669235
40
0.737810390669235
40
0.764166408937313
40
0.764166408937313
40
0.777344418071352
40
0.777344418071352
40
0.790522427205391
40
0.790522427205391
40
0.816878445473471
40
0.816878445473471
40
0.843234463741551
40
0.843234463741551
40
0.86959048200963
40
0.86959048200963
40
0.89594650027771
40
0.89594650027771
40
0.92230251854579
40
0.92230251854579
40
0.94865853681387
40
0.94865853681387
40
0.975014555081949
40
0.975014555081949
40
1
40
1
40
1
40
1
41
1
10
63.6975223702767
20
1.6433259261415
30
0
41
1
10
63.9044689385099
20
1.77111342944841
30
0
41
1
10
64.1113308498701
20
1.89571549283448
30
0
41
1
10
64.5266779266789
20
2.13844686339166
30
0
41
1
10
64.7358948202405
20
2.25562114182864
30
0
41
1
10
65.1556686765927
20
2.48139422900411
30
0
41
1
10
65.366614646787
20
2.59066029863729
30
0
41
1
10
65.7870668158599
20
2.79507741308694
30
0
41
1
10
65.9964739047808
20
2.8909847357202
30
0
41
1
10
66.4133956488647
20
3.07061968464839
30
0
41
1
10
66.6216051735682
20
3.15368195152979
30
0
41
1
10
67.0379082610983
20
3.30622273386263
30
0
41
1
10
67.2454392592537
20
3.37609455821362
30
0
41
1
10
67.6618035846885
20
3.5010959410337
30
0
41
1
10
67.8707287971491
20
3.55625432821105
30
0
41
1
10
68.2889449943239
20
3.65227382526695
30
0
41
1
10
68.4991010323319
20
3.69284348324462
30
0
41
1
10
68.9210177737236
20
3.75791198622574
30
0
41
1
10
69.1304696429548
20
3.78242603900515
30
0
41
1
10
69.5482204667264
20
3.81518779356694
30
0
41
1
10
69.7570106022429
20
3.82344336787017
30
0
41
1
10
70.1730705825196
20
3.82405875702344
30
0
41
1
10
70.3805911834215
20
3.8163139368279
30
0
41
1
10
70.7970098986823
20
3.78505746901519
30
0
41
1
10
71.0051605016662
20
3.76146316516125
30
0
41
1
10
71.4223055337729
20
3.69820734447268
30
0
41
1
10
71.6320003170326
20
3.65882996043175
30
0
41
1
10
71.9475974539952
20
3.58767672666457
30
0
41
1
10
72.0530924801531
20
3.56186847494487
30
0
41
1
10
72.2632852471714
20
3.5066281764222
30
0
41
1
10
72.3681566713911
20
3.47719499856927
30
0
41
1
10
72.6825773858448
20
3.38387480026773
30
0
41
1
10
72.8913868703847
20
3.31463467638582
30
0
41
1
10
73.3075296871811
20
3.16227517105793
30
0
41
1
10
73.5155885910327
20
3.07973396434568
30
0
41
1
10
73.9316295279748
20
2.90206680342473
30
0
41
1
10
74.1391391315923
20
2.80644253323317
30
0
41
1
10
74.5559646864289
20
2.6042859800705
30
0
41
1
10
74.7651292823429
20
2.49767477776226
30
0
41
1
10
75.184184555942
20
2.27218934990077
30
0
41
1
10
75.3954284939194
20
2.1535880066217
30
0
41
1
10
75.8158207613065
20
1.90961428461387
30
0
41
1
10
76.0246030537985
20
1.78325342259447
30
0
41
1
10
76.4415205437306
20
1.52472752971693
30
0
41
1
10
76.6499889039988
20
1.39304077704509
30
0
41
1
10
77.0656042166083
20
1.12302216741873
30
0
41
1
10
77.2731473101094
20
0.98521526714984
30
0
41
1
10
77.6897421396287
20
0.706932875710635
30
0
41
1
10
77.8980350271273
20
0.565365914842999
30
0
41
1
10
78.3159436256585
20
0.279210246805974
30
0
41
1
10
78.5264950337154
20
0.135392567580851
30
0
41
1
10
78.9478356721712
20
-0.154219852514274
30
0
41
1
10
79.1569954896351
20
-0.298858284446766
30
0
41
1
10
79.5751471733676
20
-0.583626665183772
30
0
41
1
10
79.7834560610904
20
-0.724793186878742
30
0
41
1
10
80.1990259958094
20
-1.00398463698673
30
0
41
1
10
80.4070187004905
20
-1.14096253278331
30
0
41
1
10
80.8229794614451
20
-1.41035101192435
30
0
41
1
10
81.0305838195487
20
-1.5432409238615
30
0
41
1
10
81.4480405892444
20
-1.80125308501965
30
0
41
1
10
81.6575394304535
20
-1.92687923162794
30
0
41
1
10
81.9726363211552
20
-2.11054089147876
30
0
41
1
10
82.0780339999013
20
-2.17095755155739
30
0
41
1
10
82.2883555789173
20
-2.28859615663669
30
0
41
1
10
82.3933898912196
20
-2.3459237871725
30
0
41
1
10
82.7076635145084
20
-2.51405815371507
30
0
41
1
10
82.9158645232312
20
-2.62120833435293
30
0
41
1
10
83.3321182393713
20
-2.82301761080728
30
0
41
1
10
83.540323254389
20
-2.91759737987209
30
0
41
1
10
83.9556859838519
20
-3.09531451802044
30
0
41
1
10
84.1633486553253
20
-3.17792873140195
30
0
41
1
10
84.5802824628168
20
-3.32930455535936
30
0
41
1
10
84.7888154054366
20
-3.39864636478725
30
0
41
1
10
85.2076868504196
20
-3.52305299791206
30
0
41
1
10
85.4192990725015
20
-3.57796165790012
30
0
41
1
10
85.8390373030518
20
-3.67221360209899
30
0
41
1
10
86.0476428655005
20
-3.71150648796544
30
0
41
1
10
86.4648887378222
20
-3.7738502296188
30
0
41
1
10
86.6727940942187
20
-3.79718553268913
30
0
41
1
10
87.077195153796
20
-3.82713611629495
30
0
41
1
10
87.274364682078
20
-3.83449594659214
30
0
41
1
10
87.4715831829418
20
-3.83469527296973
30
0
0
SPLINE
5
CA
100
AcDbEntity
8
1
62
256
6
ByLayer
370
18
48
1
60
0
100
AcDbSpline
70
4
71
3
72
8
73
4
40
0
40
0
40
0
40
0
40
1
40
1
40
1
40
1
41
1
10
87.0111580551982
20
-1.95513570463814
30
0
41
1
10
87.3482739998352
20
-2.22106226298371
30
0
41
1
10
87.6999759328926
20
-2.4495523963931
30
0
41
1
10
88.0628218988832
20
-2.64944023420506
30
0
0
SPLINE
5
CB
100
AcDbEntity
8
1
62
256
6
ByLayer
370
18
48
1
60
0
100
AcDbSpline
70
4
71
3
72
8
73
4
40
0
40
0
40
0
40
0
40
1
40
1
40
1
40
1
41
1
10
89.3013030530919
20
-1.79535932261047
30
0
41
1
10
89.0800558764934
20
-2.40323094443005
30
0
41
1
10
88.8588086998949
20
-3.01110256624969
30
0
41
1
10
88.6375615232964
20
-3.61897418806953
30
0
0
SPLINE
5
CC
100
AcDbEntity
8
1
62
256
6
ByLayer
370
18
48
1
60
0
100
AcDbSpline
70
4
71
3
72
12
73
8
40
0
40
0
40
0
40
0
40
0.295992042303738
40
0.295992042303738
40
0.591984084607476
40
0.591984084607476
40
1
40
1
40
1
40
1
41
1
10
8.00284861994544
20
3.37339446271318
30
0
41
1
10
7.87628925827909
20
3.44744872978643
30
0
41
1
10
7.75417731821057
20
3.51331145467574
30
0
41
1
10
7.51789275727989
20
3.62605433164333
30
0
41
1
10
7.40343110788109
20
3.67304206712041
30
0
41
1
10
7.14103104744711
20
3.7574996234024
30
0
41
1
10
7.00026347501068
20
3.7838581491641
30
0
41
1
10
6.86975264300207
20
3.78444097217684
30
0
0
SPLINE
5
CD
100
AcDbEntity
8
1
62
256
6
ByLayer
370
18
48
1
60
0
100
AcDbSpline
70
4
71
3
72
18
73
14
40
0
40
0
40
0
40
0
40
0.258136697280322
40
0.258136697280322
40
0.379555283688097
40
0.379555283688097
40
0.50097387009587
40
0.50097387009587
40
0.743811042911426
40
0.743811042911426
40
0.986648215726981
40
0.986648215726981
40
1
40
1
40
1
40
1
41
1
10
27.010728208566
20
-0.0025688211329395
30
0
41
1
10
27.4550563516289
20
-0.296443473575863
30
0
41
1
10
27.8980964098646
20
-0.589553059293479
30
0
41
1
10
28.55321026091
20
-1.01087820919423
30
0
41
1
10
28.7633670275616
20
-1.14415660896356
30
0
41
1
10
29.1857222022101
20
-1.40636583697093
30
0
41
1
10
29.3976855751923
20
-1.53523780272528
30
0
41
1
10
30.0288286936258
20
-1.90855450964102
30
0
41
1
10
30.4464900947473
20
-2.14114750441362
30
0
41
1
10
31.281416854712
20
-2.56704739161427
30
0
41
1
10
31.6989916951936
20
-2.76005852209636
30
0
41
1
10
32.1427026933078
20
-2.93882917996049
30
0
41
1
10
32.1658461947052
20
-2.94807714099514
30
0
41
1
10
32.1890054544769
20
-2.95725420788173
30
0
0
SPLINE
5
CE
100
AcDbEntity
8
1
62
256
6
ByLayer
370
13
48
1
60
0
100
AcDbSpline
70
4
71
3
72
16
73
12
40
0
40
0
40
0
40
0
40
0.116161896912141
40
0.116161896912141
40
0.246675521081157
40
0.246675521081157
40
0.768730017757213
40
0.768730017757213
40
0.899243641926224
40
0.899243641926224
40
1
40
1
40
1
40
1
41
1
10
32.1890045247564
20
-2.95725383947149
30
0
41
1
10
32.3764514744963
20
-3.03153141135374
30
0
41
1
10
32.5649307574422
20
-3.10116471112724
30
0
41
1
10
32.9641208006175
20
-3.23706015854793
30
0
41
1
10
33.1742954773002
20
-3.30180976101846
30
0
41
1
10
34.2221031691588
20
-3.58924956260259
30
0
41
1
10
35.0512140113672
20
-3.70290034021869
30
0
41
1
10
36.1076874646029
20
-3.68604429118287
30
0
41
1
10
36.3192173058708
20
-3.67465826661965
30
0
41
1
10
36.6916208309004
20
-3.64076476243832
30
0
41
1
10
36.8534057937745
20
-3.62139583701895
30
0
41
1
10
37.0149138260263
20
-3.59753106071312
30
0
0
SPLINE
5
CF
100
AcDbEntity
8
1
62
256
6
ByLayer
370
18
48
1
60
0
100
AcDbSpline
70
4
71
3
72
20
73
16
40
0
40
0
40
0
40
0
40
0.0634834376185064
40
0.0634834376185064
40
0.196852983473048
40
0.196852983473048
40
0.330222529327591
40
0.330222529327591
40
0.596961621036674
40
0.596961621036674
40
0.730331166891219
40
0.730331166891219
40
0.863700712745763
40
0.863700712745763
40
1
40
1
40
1
40
1
41
1
10
62.0028861700683
20
0.0025466431498842
30
0
41
1
10
62.1029175792223
20
-0.0640203707947933
30
0
41
1
10
62.2031431659115
20
-0.130712025899356
30
0
41
1
10
62.5146789175585
20
-0.337679376394647
30
0
41
1
10
62.7258361699712
20
-0.477579760767327
30
0
41
1
10
63.1454520348976
20
-0.753100313433009
30
0
41
1
10
63.3544904391948
20
-0.889071763385203
30
0
41
1
10
63.9805717507072
20
-1.28984485405832
30
0
41
1
10
64.39665318061
20
-1.5474168276962
30
0
41
1
10
65.0233029979073
20
-1.91289686851755
30
0
41
1
10
65.2325973593711
20
-2.03125642027405
30
0
41
1
10
65.6529202850985
20
-2.25975332734399
30
0
41
1
10
65.8646767070734
20
-2.3702308197513
30
0
41
1
10
66.2903430782353
20
-2.58161665262102
30
0
41
1
10
66.5045166166212
20
-2.68244775748306
30
0
41
1
10
66.7181445069278
20
-2.77691635112558
30
0
0
SPLINE
5
D0
100
AcDbEntity
8
1
62
256
6
ByLayer
370
13
48
1
60
0
100
AcDbSpline
70
4
71
3
72
16
73
12
40
0
40
0
40
0
40
0
40
0.354524983259982
40
0.354524983259982
40
0.473571622674822
40
0.473571622674822
40
0.592618262089665
40
0.592618262089665
40
0.830711540919346
40
0.830711540919346
40
1
40
1
40
1
40
1
41
1
10
66.71814359151
20
-2.77691594631779
30
0
41
1
10
67.3406599199552
20
-3.05219953812338
30
0
41
1
10
67.9585428600699
20
-3.27345572448294
30
0
41
1
10
68.7918062422596
20
-3.48518959363966
30
0
41
1
10
69.0019652258148
20
-3.53130706002827
30
0
41
1
10
69.4244900240205
20
-3.60857901594008
30
0
41
1
10
69.634886961807
20
-3.63938806932288
30
0
41
1
10
70.263501344932
20
-3.7081262013611
30
0
41
1
10
70.6797913815044
20
-3.72250765200425
30
0
41
1
10
71.3927216246016
20
-3.6940051497937
30
0
41
1
10
71.6892040952208
20
-3.66646930147684
30
0
41
1
10
71.9870089620634
20
-3.62316525911808
30
0
0
SPLINE
5
D1
100
AcDbEntity
8
1
62
256
6
ByLayer
370
18
48
1
60
0
100
AcDbSpline
70
4
71
3
72
8
73
4
40
0
40
0
40
0
40
0
40
1
40
1
40
1
40
1
41
1
10
89.9999277313003
20
0.0471525932365182
30
0
41
1
10
89.9920385016223
20
0.0234219867654701
30
0
41
1
10
89.9819137483303
20
-0.0007443281576514
30
0
41
1
10
89.9718690457387
20
-0.0194406649322616
30
0
0
SPLINE
5
D2
100
AcDbEntity
8
1
62
256
6
ByLayer
370
18
48
1
60
0
100
AcDbSpline
70
4
71
3
72
8
73
4
40
0
40
0
40
0
40
0
40
1
40
1
40
1
40
1
41
1
10
8.24896013875406
20
3.06812552077346
30
0
41
1
10
8.31008931435889
20
3.03034103551931
30
0
41
1
10
8.37208184116867
20
2.99102595261556
30
0
41
1
10
8.43498597003116
20
2.95029339732338
30
0
0
SPLINE
5
D3
100
AcDbEntity
8
1
62
256
6
ByLayer
370
18
48
1
60
0
100
AcDbSpline
70
4
71
3
72
62
73
58
40
0
40
0
40
0
40
0
40
0.0303398050545698
40
0.0303398050545698
40
0.0606796101091395
40
0.0606796101091395
40
0.121359220218278
40
0.121359220218278
40
0.151699025272848
40
0.151699025272848
40
0.182038830327417
40
0.182038830327417
40
0.242718440436555
40
0.242718440436555
40
0.303398050545693
40
0.303398050545693
40
0.333737855600262
40
0.333737855600262
40
0.364077660654832
40
0.364077660654832
40
0.485436880873111
40
0.485436880873111
40
0.515776685927681
40
0.515776685927681
40
0.546116490982251
40
0.546116490982251
40
0.576456296036822
40
0.576456296036822
40
0.606796101091392
40
0.606796101091392
40
0.637135906145962
40
0.637135906145962
40
0.667475711200533
40
0.667475711200533
40
0.697815516255103
40
0.697815516255103
40
0.728155321309673
40
0.728155321309673
40
0.758495126364243
40
0.758495126364243
40
0.788834931418813
40
0.788834931418813
40
0.819174736473384
40
0.819174736473384
40
0.834344639000669
40
0.834344639000669
40
0.849514541527954
40
0.849514541527954
40
0.879854346582525
40
0.879854346582525
40
0.910194151637096
40
0.910194151637096
40
0.940533956691667
40
0.940533956691667
40
0.970873761746238
40
0.970873761746238
40
1
40
1
40
1
40
1
41
1
10
8.43498597003116
20
2.95029339732341
30
0
41
1
10
8.64302250348041
20
2.87611912219688
30
0
41
1
10
8.84939256200803
20
2.79592780941482
30
0
41
1
10
9.25977784026517
20
2.62360160104637
30
0
41
1
10
9.4649051362297
20
2.532640053813
30
0
41
1
10
10.0794285687313
20
2.24449787567815
30
0
41
1
10
10.4884588897827
20
2.03300730266338
30
0
41
1
10
11.1052035316711
20
1.69168781422266
30
0
41
1
10
11.3115812952034
20
1.57381586214919
30
0
41
1
10
11.7252966815121
20
1.33140786039164
30
0
41
1
10
11.9310657966906
20
1.20771551658549
30
0
41
1
10
12.5465429068074
20
0.83140839538288
30
0
41
1
10
12.9541936844851
20
0.573237739056168
30
0
41
1
10
13.7700746793015
20
0.0516743818147347
30
0
41
1
10
14.1782462482348
20
-0.211854351083872
30
0
41
1
10
14.795058708604
20
-0.604596584239175
30
0
41
1
10
15.0021477342656
20
-0.735461360720421
30
0
41
1
10
15.4148653205653
20
-0.992664316105589
30
0
41
1
10
15.6202647184871
20
-1.11895500674532
30
0
41
1
10
16.644528398593
20
-1.73598882257357
30
0
41
1
10
17.4549158508273
20
-2.18438355998794
30
0
41
1
10
18.4854182913155
20
-2.64853035175602
30
0
41
1
10
18.6926407147559
20
-2.73661547892487
30
0
41
1
10
19.1042134109719
20
-2.90049476612202
30
0
41
1
10
19.3091707620241
20
-2.97620910184929
30
0
41
1
10
19.7181283804984
20
-3.11394530081569
30
0
41
1
10
19.9222225060666
20
-3.17634279888131
30
0
41
1
10
20.3300653317075
20
-3.29004927505056
30
0
41
1
10
20.5338300425712
20
-3.34035369443103
30
0
41
1
10
20.9421228915537
20
-3.42594609173747
30
0
41
1
10
21.1465862499227
20
-3.46195416738101
30
0
41
1
10
21.5564172287077
20
-3.52159864839635
30
0
41
1
10
21.761937832178
20
-3.54414971205142
30
0
41
1
10
22.1753391847096
20
-3.57354455047238
30
0
41
1
10
22.3818802730791
20
-3.58086504247166
30
0
41
1
10
22.7926634558641
20
-3.58245066619284
30
0
41
1
10
22.9973743656912
20
-3.57566353064186
30
0
41
1
10
23.4061614434175
20
-3.54697827930292
30
0
41
1
10
23.6101829702048
20
-3.52532570233765
30
0
41
1
10
24.0182443400456
20
-3.46928766749554
30
0
41
1
10
24.2223229655052
20
-3.43397272679783
30
0
41
1
10
24.6312298136191
20
-3.34884533397525
30
0
41
1
10
24.8361577919501
20
-3.29916221091491
30
0
41
1
10
25.1443679565602
20
-3.21572158821371
30
0
41
1
10
25.2472859152623
20
-3.18623695257426
30
0
41
1
10
25.4536203192427
20
-3.12348897200357
30
0
41
1
10
25.5571840583912
20
-3.09024279977902
30
0
41
1
10
25.8668884623411
20
-2.98604357108107
30
0
41
1
10
26.0724303990822
20
-2.91032300484454
30
0
41
1
10
26.4822851933558
20
-2.74904012704422
30
0
41
1
10
26.6865743187304
20
-2.66277002388057
30
0
41
1
10
27.0948217139635
20
-2.47964979212776
30
0
41
1
10
27.2987651995724
20
-2.38289203625044
30
0
41
1
10
27.7066777532985
20
-2.18077120290974
30
0
41
1
10
27.9107915644462
20
-2.07506154143673
30
0
41
1
10
28.3119278539934
20
-1.85914172636137
30
0
41
1
10
28.5088558435508
20
-1.74929724949126
30
0
41
1
10
28.7064708167192
20
-1.63623720344424
30
0
0
SPLINE
5
D4
100
AcDbEntity
8
1
62
256
6
ByLayer
370
18
48
1
60
0
100
AcDbSpline
70
4
71
3
72
78
73
74
40
0
40
0
40
0
40
0
40
0.0119186683380361
40
0.0119186683380361
40
0.0379427235348929
40
0.0379427235348929
40
0.0639667787317497
40
0.0639667787317497
40
0.0899908339286065
40
0.0899908339286065
40
0.116014889125463
40
0.116014889125463
40
0.14203894432232
40
0.14203894432232
40
0.168062999519177
40
0.168062999519177
40
0.194087054716034
40
0.194087054716034
40
0.220111109912891
40
0.220111109912891
40
0.246135165109747
40
0.246135165109747
40
0.272159220306604
40
0.272159220306604
40
0.298183275503461
40
0.298183275503461
40
0.324207330700318
40
0.324207330700318
40
0.37625544109403
40
0.37625544109403
40
0.402279496290886
40
0.402279496290886
40
0.428303551487743
40
0.428303551487743
40
0.480351661881456
40
0.480351661881456
40
0.506375717078313
40
0.506375717078313
40
0.53239977227517
40
0.53239977227517
40
0.558423827472026
40
0.558423827472026
40
0.584447882668883
40
0.584447882668883
40
0.610471937865739
40
0.610471937865739
40
0.636495993062596
40
0.636495993062596
40
0.68854410345631
40
0.68854410345631
40
0.714568158653166
40
0.714568158653166
40
0.740592213850024
40
0.740592213850024
40
0.76661626904688
40
0.76661626904688
40
0.792640324243737
40
0.792640324243737
40
0.818664379440594
40
0.818664379440594
40
0.844688434637451
40
0.844688434637451
40
0.870712489834308
40
0.870712489834308
40
0.896736545031165
40
0.896736545031165
40
0.922760600228022
40
0.922760600228022
40
0.948784655424879
40
0.948784655424879
40
0.974808710621736
40
0.974808710621736
40
1
40
1
40
1
40
1
41
1
10
40.1271227347832
20
3.59283905961036
30
0
41
1
10
40.2209623579761
20
3.59247014283272
30
0
41
1
10
40.3146585976885
20
3.59052481532885
30
0
41
1
10
40.612639486108
20
3.57962251129368
30
0
41
1
10
40.8165158894236
20
3.56537590241015
30
0
41
1
10
41.2238237262173
20
3.52274153884616
30
0
41
1
10
41.4273836901751
20
3.4934806894498
30
0
41
1
10
41.8349367606073
20
3.4216105415299
30
0
41
1
10
42.0388479699346
20
3.37918199796539
30
0
41
1
10
42.4476565661381
20
3.28083496454099
30
0
41
1
10
42.6528382689037
20
3.22386195756096
30
0
41
1
10
43.0649715010806
20
3.09699231496066
30
0
41
1
10
43.2716086300742
20
3.0272471423915
30
0
41
1
10
43.6821072648117
20
2.87702303863162
30
0
41
1
10
43.8865906864048
20
2.79526844111675
30
0
41
1
10
44.2947125314889
20
2.6216689297535
30
0
41
1
10
44.4984185033502
20
2.53000227880622
30
0
41
1
10
44.9055936987884
20
2.33736844176588
30
0
41
1
10
45.1091897373678
20
2.23536187078221
30
0
41
1
10
45.5171250207513
20
2.02297467476836
30
0
41
1
10
45.7213847907904
20
1.91261519878054
30
0
41
1
10
46.1309218684324
20
1.68406134419317
30
0
41
1
10
46.3367810445544
20
1.56509435778236
30
0
41
1
10
46.7498265457624
20
1.32071043900834
30
0
41
1
10
46.9553602284354
20
1.1962400273533
30
0
41
1
10
47.3650741131995
20
0.943764503769813
30
0
41
1
10
47.5692988293271
20
0.815651591566734
30
0
41
1
10
48.1812298558867
20
0.427749455278388
30
0
41
1
10
48.5879016171341
20
0.164245369514788
30
0
41
1
10
49.200725343661
20
-0.231590593058314
30
0
41
1
10
49.4054347795765
20
-0.363593032000011
30
0
41
1
10
49.8163529581207
20
-0.626785106079353
30
0
41
1
10
50.0232934840747
20
-0.758399050595386
30
0
41
1
10
50.640882557789
20
-1.14482092226174
30
0
41
1
10
51.0489774136826
20
-1.3939895442989
30
0
41
1
10
51.6602891713258
20
-1.74598949210986
30
0
41
1
10
51.8638995872751
20
-1.85996270890538
30
0
41
1
10
52.2713342236098
20
-2.08113172358401
30
0
41
1
10
52.4753344902356
20
-2.18744889144301
30
0
41
1
10
52.8844477439225
20
-2.39141062512383
30
0
41
1
10
53.0894713577091
20
-2.48928714564172
30
0
41
1
10
53.5013271345537
20
-2.67559751573145
30
0
41
1
10
53.7081590866916
20
-2.76344418630251
30
0
41
1
10
54.1187242893918
20
-2.92604352516307
30
0
41
1
10
54.3232932427291
20
-3.00117959373648
30
0
41
1
10
54.7315248582689
20
-3.14007435180281
30
0
41
1
10
54.9351540475202
20
-3.20293621162372
30
0
41
1
10
55.5461154925353
20
-3.37111745440922
30
0
41
1
10
55.9529792609211
20
-3.45820057055494
30
0
41
1
10
56.5676843282034
20
-3.54434699952401
30
0
41
1
10
56.7731826800834
20
-3.56635032551924
30
0
41
1
10
57.18614484055
20
-3.59626009606416
30
0
41
1
10
57.391630849594
20
-3.60359096479061
30
0
41
1
10
57.8011921383224
20
-3.60361039446192
30
0
41
1
10
58.0052399793974
20
-3.59691696842504
30
0
41
1
10
58.4127992533846
20
-3.56826395560759
30
0
41
1
10
58.6163339089728
20
-3.54602957058751
30
0
41
1
10
59.0234163281174
20
-3.4879900910544
30
0
41
1
10
59.2269782651344
20
-3.45269443284857
30
0
41
1
10
59.6348950135542
20
-3.36786428650942
30
0
41
1
10
59.8393426214686
20
-3.31762090113114
30
0
41
1
10
60.2498067797961
20
-3.20424260973067
30
0
41
1
10
60.4564285566102
20
-3.14104561377431
30
0
41
1
10
60.8678136477636
20
-3.00213827777844
30
0
41
1
10
61.0725644581997
20
-2.9259081386794
30
0
41
1
10
61.4810323139207
20
-2.76325474692223
30
0
41
1
10
61.6846703793346
20
-2.67686829546037
30
0
41
1
10
62.0915121030671
20
-2.49386165429522
30
0
41
1
10
62.2948541803844
20
-2.39647533299251
30
0
41
1
10
62.7017895104561
20
-2.19305230765568
30
0
41
1
10
62.9053092845319
20
-2.08695937543982
30
0
41
1
10
63.3067792953831
20
-1.87001671717059
30
0
41
1
10
63.5049309076972
20
-1.75878259041053
30
0
41
1
10
63.7038234425525
20
-1.64403084224028
30
0
0
SPLINE
5
D5
100
AcDbEntity
8
1
62
256
6
ByLayer
370
18
48
1
60
0
100
AcDbSpline
70
4
71
3
72
38
73
34
40
0
40
0
40
0
40
0
40
0.0229359560874141
40
0.0229359560874141
40
0.0743603794512349
40
0.0743603794512349
40
0.177209226178878
40
0.177209226178878
40
0.228633649542699
40
0.228633649542699
40
0.280058072906519
40
0.280058072906519
40
0.382906919634157
40
0.382906919634157
40
0.434331342997977
40
0.434331342997977
40
0.485755766361797
40
0.485755766361797
40
0.537180189725618
40
0.537180189725618
40
0.588604613089438
40
0.588604613089438
40
0.640029036453259
40
0.640029036453259
40
0.691453459817079
40
0.691453459817079
40
0.794302306544719
40
0.794302306544719
40
0.84572672990854
40
0.84572672990854
40
0.89715115327236
40
0.89715115327236
40
1
40
1
40
1
40
1
41
1
10
75.1020529458834
20
3.61525448601927
30
0
41
1
10
75.1932073521046
20
3.61522572823114
30
0
41
1
10
75.2842351022972
20
3.61379758954658
30
0
41
1
10
75.5790168378068
20
3.60453006460611
30
0
41
1
10
75.782470510946
20
3.59028802458823
30
0
41
1
10
76.39267478315
20
3.52609223664754
30
0
41
1
10
76.7988990391174
20
3.45654670018169
30
0
41
1
10
77.4124733055719
20
3.30809477507603
30
0
41
1
10
77.617536695724
20
3.25201787787333
30
0
41
1
10
78.0295863842582
20
3.12666826963186
30
0
41
1
10
78.2350983302925
20
3.05707153480833
30
0
41
1
10
78.8486273301739
20
2.83091332863396
30
0
41
1
10
79.2549136355243
20
2.65808284888351
30
0
41
1
10
79.8646316334887
20
2.36797846438696
30
0
41
1
10
80.0678808670888
20
2.2666561411273
30
0
41
1
10
80.4748553203415
20
2.05513347606961
30
0
41
1
10
80.6788437007181
20
1.94444056571575
30
0
41
1
10
81.088416451665
20
1.71476002727846
30
0
41
1
10
81.29455493634
20
1.59537944437864
30
0
41
1
10
81.7060357769069
20
1.35117820345471
30
0
41
1
10
81.9108624222227
20
1.22668955916387
30
0
41
1
10
82.3193080412013
20
0.973969847571368
30
0
41
1
10
82.522893820921
20
0.845695354979341
30
0
41
1
10
82.9297149281772
20
0.586546200233698
30
0
41
1
10
83.1329488981387
20
0.455665170514067
30
0
41
1
10
83.7429648545709
20
0.0606254754735005
30
0
41
1
10
84.1502595509735
20
-0.205641040102307
30
0
41
1
10
84.7665453950572
20
-0.602693754125028
30
0
41
1
10
84.9730909341346
20
-0.734847620537494
30
0
41
1
10
85.383116141819
20
-0.993978612833075
30
0
41
1
10
85.5873311042569
20
-1.12117602478523
30
0
41
1
10
86.19864182779
20
-1.49445463482226
30
0
41
1
10
86.6043107199022
20
-1.73253318190999
30
0
41
1
10
87.0111580551915
20
-1.95513570463453
30
0
0
SPLINE
5
D6
100
AcDbEntity
8
1
62
256
6
ByLayer
370
18
48
1
60
0
100
AcDbSpline
70
4
71
3
72
72
73
68
40
0
40
0
40
0
40
0
40
0.0132995063218605
40
0.0132995063218605
40
0.0392748783510173
40
0.0392748783510173
40
0.0652502503801741
40
0.0652502503801741
40
0.117200994438489
40
0.117200994438489
40
0.143176366467646
40
0.143176366467646
40
0.169151738496804
40
0.169151738496804
40
0.221102482555117
40
0.221102482555117
40
0.247077854584274
40
0.247077854584274
40
0.273053226613431
40
0.273053226613431
40
0.299028598642588
40
0.299028598642588
40
0.325003970671744
40
0.325003970671744
40
0.376954714730058
40
0.376954714730058
40
0.428905458788372
40
0.428905458788372
40
0.480856202846685
40
0.480856202846685
40
0.532806946904999
40
0.532806946904999
40
0.558782318934156
40
0.558782318934156
40
0.584757690963312
40
0.584757690963312
40
0.610733062992469
40
0.610733062992469
40
0.636708435021626
40
0.636708435021626
40
0.662683807050783
40
0.662683807050783
40
0.688659179079939
40
0.688659179079939
40
0.714634551109096
40
0.714634551109096
40
0.740609923138253
40
0.740609923138253
40
0.76658529516741
40
0.76658529516741
40
0.792560667196566
40
0.792560667196566
40
0.818536039225723
40
0.818536039225723
40
0.84451141125488
40
0.84451141125488
40
0.870486783284037
40
0.870486783284037
40
0.896462155313193
40
0.896462155313193
40
0.92243752734235
40
0.92243752734235
40
0.948412899371507
40
0.948412899371507
40
0.974388271400664
40
0.974388271400664
40
1
40
1
40
1
40
1
41
1
10
81.2026621033564
20
-1.64777058014008
30
0
41
1
10
81.0975704667373
20
-1.70859087038403
30
0
41
1
10
80.9926983487179
20
-1.76840967047198
30
0
41
1
10
80.6834851427886
20
-1.94188928006221
30
0
41
1
10
80.4796665098083
20
-2.0525574924543
30
0
41
1
10
80.0728082096755
20
-2.26416879467124
30
0
41
1
10
79.8695216719677
20
-2.36557453915131
30
0
41
1
10
79.2593916907835
20
-2.65610399032164
30
0
41
1
10
78.8523986199749
20
-2.82941823061287
30
0
41
1
10
78.2371823384002
20
-3.05635528960232
30
0
41
1
10
78.0305328905577
20
-3.12634813650175
30
0
41
1
10
77.6194534252674
20
-3.25146676276785
30
0
41
1
10
77.4147667206601
20
-3.30748185426438
30
0
41
1
10
76.8020067049339
20
-3.45590980180108
30
0
41
1
10
76.395860310336
20
-3.52562192605257
30
0
41
1
10
75.7851706682833
20
-3.59007083817545
30
0
41
1
10
75.5814464083054
20
-3.60440118665571
30
0
41
1
10
75.1729513131877
20
-3.61734816999072
30
0
41
1
10
74.968069420761
20
-3.61659640363234
30
0
41
1
10
74.5565377520199
20
-3.60133246428731
30
0
41
1
10
74.3500560517785
20
-3.58618304778884
30
0
41
1
10
73.9401060353316
20
-3.54060642283943
30
0
41
1
10
73.7358724620148
20
-3.51071583206084
30
0
41
1
10
73.1243512702692
20
-3.4016218313983
30
0
41
1
10
72.7183835796624
20
-3.29990404857395
30
0
41
1
10
71.9037494127336
20
-3.04778292140011
30
0
41
1
10
71.4951518008523
20
-2.89442526516208
30
0
41
1
10
70.6699873372631
20
-2.54280669495992
30
0
41
1
10
70.2619640494403
20
-2.345067402079
30
0
41
1
10
69.4476189798926
20
-1.91906855292316
30
0
41
1
10
69.0417660042305
20
-1.68855172843141
30
0
41
1
10
68.4303969499534
20
-1.32574547334951
30
0
41
1
10
68.2261801129099
20
-1.20175958153499
30
0
41
1
10
67.8161441121117
20
-0.947378247335905
30
0
41
1
10
67.6096772378823
20
-0.817202760308788
30
0
41
1
10
67.1983433646699
20
-0.555530264328922
30
0
41
1
10
66.9935682744431
20
-0.42390972020479
30
0
41
1
10
66.5853058899106
20
-0.159967920253678
30
0
41
1
10
66.3817196633076
20
-0.0277646475806819
30
0
41
1
10
65.9747358412284
20
0.235790313374025
30
0
41
1
10
65.7714525140578
20
0.367279398263122
30
0
41
1
10
65.3646522802115
20
0.628517350249894
30
0
41
1
10
65.1609462541959
20
0.75809846993613
30
0
41
1
10
64.7525295377665
20
1.01454479720189
30
0
41
1
10
64.547883162123
20
1.14149373641564
30
0
41
1
10
64.1365543632177
20
1.39076237363327
30
0
41
1
10
63.9299369382766
20
1.51334030969346
30
0
41
1
10
63.5196059437861
20
1.75052657688286
30
0
41
1
10
63.3151281789844
20
1.86547821406924
30
0
41
1
10
62.9073789807812
20
2.08586772605281
30
0
41
1
10
62.7038824030418
20
2.19197623914479
30
0
41
1
10
62.2968007353339
20
2.39553182608873
30
0
41
1
10
62.0932877194739
20
2.49303594073047
30
0
41
1
10
61.685851641197
20
2.67636374285357
30
0
41
1
10
61.4818108435604
20
2.76293978643525
30
0
41
1
10
61.0723379613996
20
2.92600327100865
30
0
41
1
10
60.866917035506
20
3.0024764534077
30
0
41
1
10
60.45418978847
20
3.14176585323307
30
0
41
1
10
60.248813654527
20
3.20452912416346
30
0
41
1
10
59.8391610708914
20
3.3176588203068
30
0
41
1
10
59.6350049067101
20
3.36783479528219
30
0
41
1
10
59.2274053507496
20
3.4526122455222
30
0
41
1
10
59.0238820063181
20
3.48791480767548
30
0
41
1
10
58.6166690888872
20
3.54599065473747
30
0
41
1
10
58.4129572524054
20
3.5682567717248
30
0
41
1
10
58.0076386934002
20
3.59674445743713
30
0
41
1
10
57.8060244876698
20
3.60345478705079
30
0
41
1
10
57.6035940037911
20
3.60359834741522
30
0
0
SPLINE
5
D7
100
AcDbEntity
8
1
62
256
6
ByLayer
370
18
48
1
60
0
100
AcDbSpline
70
4
71
3
72
78
73
74
40
0
40
0
40
0
40
0
40
0.0117705192732967
40
0.0117705192732967
40
0.0378163131143967
40
0.0378163131143967
40
0.0638621069554966
40
0.0638621069554966
40
0.0899079007965966
40
0.0899079007965966
40
0.115953694637696
40
0.115953694637696
40
0.141999488478796
40
0.141999488478796
40
0.168045282319896
40
0.168045282319896
40
0.194091076160996
40
0.194091076160996
40
0.220136870002096
40
0.220136870002096
40
0.246182663843196
40
0.246182663843196
40
0.272228457684295
40
0.272228457684295
40
0.298274251525396
40
0.298274251525396
40
0.324320045366495
40
0.324320045366495
40
0.350365839207595
40
0.350365839207595
40
0.402457426889796
40
0.402457426889796
40
0.415480323810347
40
0.415480323810347
40
0.428503220730898
40
0.428503220730898
40
0.454549014571999
40
0.454549014571999
40
0.506640602254204
40
0.506640602254204
40
0.558732189936408
40
0.558732189936408
40
0.584777983777511
40
0.584777983777511
40
0.610823777618613
40
0.610823777618613
40
0.662915365300816
40
0.662915365300816
40
0.688961159141918
40
0.688961159141918
40
0.71500695298302
40
0.71500695298302
40
0.741052746824122
40
0.741052746824122
40
0.767098540665224
40
0.767098540665224
40
0.793144334506326
40
0.793144334506326
40
0.819190128347428
40
0.819190128347428
40
0.845235922188531
40
0.845235922188531
40
0.871281716029633
40
0.871281716029633
40
0.897327509870735
40
0.897327509870735
40
0.923373303711837
40
0.923373303711837
40
0.949419097552939
40
0.949419097552939
40
0.975464891394041
40
0.975464891394041
40
1
40
1
40
1
40
1
41
1
10
46.2047956141286
20
-1.64044145673665
30
0
41
1
10
46.11211367401
20
-1.69371670394804
30
0
41
1
10
46.0196056799061
20
-1.7461781422073
30
0
41
1
10
45.7228960234467
20
-1.91178580422539
30
0
41
1
10
45.5189428718748
20
-2.0220012099166
30
0
41
1
10
45.111413629102
20
-2.23423077824839
30
0
41
1
10
44.9079144610959
20
-2.33623235036498
30
0
41
1
10
44.5006761942138
20
-2.52897188610612
30
0
41
1
10
44.2968372528156
20
-2.62073266249692
30
0
41
1
10
43.8882442809501
20
-2.79459725737996
30
0
41
1
10
43.6834212830541
20
-2.8765245533788
30
0
41
1
10
43.2719713785805
20
-3.02713193453101
30
0
41
1
10
43.0650615857131
20
-3.09695348114806
30
0
41
1
10
42.6538396890726
20
-3.22356475694937
30
0
41
1
10
42.4489984167505
20
-3.28047624996756
30
0
41
1
10
42.0406061056338
20
-3.37879467774138
30
0
41
1
10
41.8367925213083
20
-3.42124246924385
30
0
41
1
10
41.4292203040637
20
-3.49319725997282
30
0
41
1
10
41.2255408539649
20
-3.52252491172834
30
0
41
1
10
40.8177392099862
20
-3.56528447731972
30
0
41
1
10
40.6135015060601
20
-3.57958191339159
30
0
41
1
10
40.2038007703601
20
-3.59458984112868
30
0
41
1
10
39.9983881096084
20
-3.59501280584189
30
0
41
1
10
39.5853637371985
20
-3.57961192550246
30
0
41
1
10
39.3792201489777
20
-3.56469770309809
30
0
41
1
10
38.968835842125
20
-3.52158267750164
30
0
41
1
10
38.764298535403
20
-3.49292193838511
30
0
41
1
10
38.3560829934752
20
-3.42047023609626
30
0
41
1
10
38.1523356083147
20
-3.37729477073199
30
0
41
1
10
37.5407016817429
20
-3.2289144742652
30
0
41
1
10
37.1328967275882
20
-3.10231375445414
30
0
41
1
10
36.6193058791192
20
-2.91423761048486
30
0
41
1
10
36.516395869906
20
-2.87504718544818
30
0
41
1
10
36.3101144541946
20
-2.79332334099274
30
0
41
1
10
36.2066230186046
20
-2.75071676702126
30
0
41
1
10
35.8971846532613
20
-2.61926560688479
30
0
41
1
10
35.6917479849542
20
-2.52669217911404
30
0
41
1
10
35.0771434035162
20
-2.23539730063945
30
0
41
1
10
34.669826766492
20
-2.02186546534133
30
0
41
1
10
33.8539469674987
20
-1.56701168811878
30
0
41
1
10
33.4454463071408
20
-1.3240495389293
30
0
41
1
10
32.8274071556513
20
-0.944225241844464
30
0
41
1
10
32.6201172101009
20
-0.814471162807365
30
0
41
1
10
32.2085139729768
20
-0.553885747774814
30
0
41
1
10
32.0034309085364
20
-0.422890657142034
30
0
41
1
10
31.3896513576495
20
-0.0289550041189557
30
0
41
1
10
30.9824428892794
20
0.234929456500311
30
0
41
1
10
30.3699674390001
20
0.62550408122803
30
0
41
1
10
30.1656170350112
20
0.754910999336488
30
0
41
1
10
29.7555498513137
20
1.01068099563989
30
0
41
1
10
29.5499023083532
20
1.13719937737531
30
0
41
1
10
29.1367370360281
20
1.38634604231098
30
0
41
1
10
28.9301984245696
20
1.50805315216897
30
0
41
1
10
28.5195589555454
20
1.74334170855249
30
0
41
1
10
28.3148729209904
20
1.85762053522169
30
0
41
1
10
27.9062100416061
20
2.07746203029922
30
0
41
1
10
27.7022870380574
20
2.18300762092773
30
0
41
1
10
27.294491169113
20
2.38494769713782
30
0
41
1
10
27.0904873048013
20
2.48167130562484
30
0
41
1
10
26.6818505445309
20
2.6648098453079
30
0
41
1
10
26.4772289455238
20
2.75112931267105
30
0
41
1
10
26.0664300142019
20
2.91258202374519
30
0
41
1
10
25.8598040379798
20
2.9885742526352
30
0
41
1
10
25.4466569736487
20
3.12727698919417
30
0
41
1
10
25.2412062878722
20
3.1896119278187
30
0
41
1
10
24.8314619258866
20
3.30032366990881
30
0
41
1
10
24.6270208833293
20
3.34980907080856
30
0
41
1
10
24.218825955799
20
3.4346115669874
30
0
41
1
10
24.0149712022969
20
3.46980835311538
30
0
41
1
10
23.6070949876559
20
3.52567745388876
30
0
41
1
10
23.4030523540455
20
3.54727449361096
30
0
41
1
10
23.0058299674144
20
3.57499545269789
30
0
41
1
10
22.8127503910404
20
3.58172772702858
30
0
41
1
10
22.6189653683444
20
3.58171926669328
30
0
0
SPLINE
5
D8
100
AcDbEntity
8
1
62
256
6
ByLayer
370
18
48
1
60
0
100
AcDbSpline
70
4
71
3
72
14
73
10
40
0
40
0
40
0
40
0
40
0.110320499885075
40
0.110320499885075
40
0.555160249942536
40
0.555160249942536
40
0.777580124971266
40
0.777580124971266
40
1
40
1
40
1
40
1
41
1
10
11.2014087258508
20
-1.63589689526438
30
0
41
1
10
11.0994563175254
20
-1.69401597068042
30
0
41
1
10
10.9976674247851
20
-1.75122089485342
30
0
41
1
10
10.4860688405791
20
-2.03424616980016
30
0
41
1
10
10.0779360341182
20
-2.24522755477543
30
0
41
1
10
9.46430893532792
20
-2.5329046314111
30
0
41
1
10
9.25940468146499
20
-2.62376246941824
30
0
41
1
10
8.84930944366937
20
-2.79595853320427
30
0
41
1
10
8.64301253152547
20
-2.87612267764214
30
0
41
1
10
8.43498597003122
20
-2.95029339732332
30
0
0
SPLINE
5
D9
100
AcDbEntity
8
1
62
256
6
ByLayer
370
18
48
1
60
0
100
AcDbSpline
70
4
71
3
72
10
73
6
40
0
40
0
40
0
40
0
40
0.5
40
0.5
40
1
40
1
40
1
40
1
41
1
10
89.9748907386503
20
-0.160459309079243
30
0
41
1
10
89.9769084594001
20
-0.14462647514074
30
0
41
1
10
89.9802427421471
20
-0.126860707161683
30
0
41
1
10
89.988781424275
20
-0.0885777040710138
30
0
41
1
10
89.9940042452364
20
-0.068110552165848
30
0
41
1
10
89.9999277313003
20
-0.0471525932366603
30
0
0
SPLINE
5
DA
100
AcDbEntity
8
1
62
256
6
ByLayer
370
18
48
1
60
0
100
AcDbSpline
70
4
71
3
72
8
73
4
40
0
40
0
40
0
40
0
40
1
40
1
40
1
40
1
41
1
10
89.9718690457387
20
-0.0194406649323469
30
0
41
1
10
89.946534929633
20
-0.0665953877609411
30
0
41
1
10
89.9212835090368
20
-0.113824124944898
30
0
41
1
10
89.8961151538464
20
-0.16112650695564
30
0
0
SPLINE
5
DB
100
AcDbEntity
8
1
62
256
6
ByLayer
370
18
48
1
60
0
100
AcDbSpline
70
4
71
3
72
14
73
10
40
0
40
0
40
0
40
0
40
0.341297856370011
40
0.341297856370011
40
0.511946784555013
40
0.511946784555013
40
0.682595712740015
40
0.682595712740015
40
1
40
1
40
1
40
1
41
1
10
88.693399107206
20
-3.62067737988087
30
0
41
1
10
88.2731628153429
20
-3.63316061001205
30
0
41
1
10
87.8550094868011
20
-3.61451552845526
30
0
41
1
10
87.2269700140287
20
-3.54109421455695
30
0
41
1
10
87.017490166289
20
-3.50906202069814
30
0
41
1
10
86.5974061281461
20
-3.43001337191649
30
0
41
1
10
86.3861561001269
20
-3.38281354004525
30
0
41
1
10
85.7848600435355
20
-3.22804183161793
30
0
41
1
10
85.396985828105
20
-3.10374600290456
30
0
41
1
10
85.0098211520913
20
-2.95826106987269
30
0
0
SPLINE
5
DC
100
AcDbEntity
8
1
62
256
6
ByLayer
370
13
48
1
60
0
100
AcDbSpline
70
4
71
3
72
22
73
18
40
0
40
0
40
0
40
0
40
0.163659934904108
40
0.163659934904108
40
0.240135978818781
40
0.240135978818781
40
0.316612022733454
40
0.316612022733454
40
0.469564110562804
40
0.469564110562804
40
0.622516198392154
40
0.622516198392154
40
0.698992242306827
40
0.698992242306827
40
0.7754682862215
40
0.7754682862215
40
1
40
1
40
1
40
1
41
1
10
85.0098210078696
20
-2.95826101567849
30
0
41
1
10
84.5643663927908
20
-2.79087245666992
30
0
41
1
10
84.1198510506549
20
-2.59543420766204
30
0
41
1
10
83.4634830364539
20
-2.27299157512695
30
0
41
1
10
83.2538214318071
20
-2.16496370938597
30
0
41
1
10
82.8323704876062
20
-1.93907513867265
30
0
41
1
10
82.6217103409505
20
-1.82185233456619
30
0
41
1
10
81.9934004338683
20
-1.46122308797453
30
0
41
1
10
81.5774992508675
20
-1.20799796081155
30
0
41
1
10
80.7451207688616
20
-0.685778113999703
30
0
41
1
10
80.3285837145094
20
-0.416852474538075
30
0
41
1
10
79.6990758405174
20
-0.0079681173848201
30
0
41
1
10
79.4877099352933
20
0.129611990687977
30
0
41
1
10
79.0671683994167
20
0.40200209122392
30
0
41
1
10
78.8577748253003
20
0.536954625680409
30
0
41
1
10
78.0358947569813
20
1.0617386385272
30
0
41
1
10
77.4270613045363
20
1.43790243807547
30
0
41
1
10
76.8128992487672
20
1.78454800011394
30
0
0
SPLINE
5
DD
100
AcDbEntity
8
1
62
256
6
ByLayer
370
18
48
1
60
0
100
AcDbSpline
70
4
71
3
72
14
73
10
40
0
40
0
40
0
40
0
40
0.363201708105146
40
0.363201708105146
40
0.560595371945499
40
0.560595371945499
40
0.75798903578585
40
0.75798903578585
40
1
40
1
40
1
40
1
41
1
10
53.4423198867757
20
-3.60245819265373
30
0
41
1
10
53.0583294200624
20
-3.60243156687821
30
0
41
1
10
52.6734836210386
20
-3.57674022156019
30
0
41
1
10
52.0739004528727
20
-3.49675966838817
30
0
41
1
10
51.8630308834884
20
-3.46096718134106
30
0
41
1
10
51.4439247481984
20
-3.37537573063523
30
0
41
1
10
51.2352006610216
20
-3.3255490815186
30
0
41
1
10
50.7715189693309
20
-3.19959560930914
30
0
41
1
10
50.5168067846547
20
-3.12011467870275
30
0
41
1
10
50.2620520012218
20
-3.03111086946558
30
0
0
SPLINE
5
DE
100
AcDbEntity
8
1
62
256
6
ByLayer
370
13
48
1
60
0
100
AcDbSpline
70
4
71
3
72
24
73
20
40
0
40
0
40
0
40
0
40
0.203549649671193
40
0.203549649671193
40
0.276928125704716
40
0.276928125704716
40
0.35030660173824
40
0.35030660173824
40
0.423685077771764
40
0.423685077771764
40
0.497063553805288
40
0.497063553805288
40
0.790577457939375
40
0.790577457939375
40
0.863955933972896
40
0.863955933972896
40
0.937334410006416
40
0.937334410006416
40
1
40
1
40
1
40
1
41
1
10
50.2620529452054
20
-3.03111119926555
30
0
41
1
10
49.6856553175164
20
-2.82973491784679
30
0
41
1
10
49.109039623993
20
-2.57960938430983
30
0
41
1
10
48.3130337847892
20
-2.1822360658102
30
0
41
1
10
48.1015810242777
20
-2.07169881036634
30
0
41
1
10
47.6804270401221
20
-1.84310955820081
30
0
41
1
10
47.4701270236579
20
-1.72487802882122
30
0
41
1
10
47.0493961156926
20
-1.48152563063837
30
0
41
1
10
46.8389867597233
20
-1.35635171924326
30
0
41
1
10
46.4172253681721
20
-1.10018156068244
30
0
41
1
10
46.2054910199372
20
-0.968954897750137
30
0
41
1
10
45.153549324341
20
-0.307880886095575
30
0
41
1
10
44.3252791831691
20
0.240414349267695
30
0
41
1
10
43.2760460644392
20
0.902117186638577
30
0
41
1
10
43.0651025215552
20
1.03348397365554
30
0
41
1
10
42.6426310525232
20
1.2914228946091
30
0
41
1
10
42.4324092953085
20
1.41720131093723
30
0
41
1
10
42.0438657669593
20
1.64379903921466
30
0
41
1
10
41.8653272352959
20
1.74548298309156
30
0
41
1
10
41.6869986821787
20
1.84420110397073
30
0
0
SPLINE
5
DF
100
AcDbEntity
8
1
62
256
6
ByLayer
370
18
48
1
60
0
100
AcDbSpline
70
4
71
3
72
12
73
8
40
0
40
0
40
0
40
0
40
0.0362739087018179
40
0.0362739087018179
40
0.808181071642471
40
0.808181071642471
40
1
40
1
40
1
40
1
41
1
10
18.440711173283
20
-3.58036310923782
30
0
41
1
10
18.4011732114051
20
-3.58035602779674
30
0
41
1
10
18.3616656245946
20
-3.58007826109289
30
0
41
1
10
17.4821470292185
20
-3.56787371036458
30
0
41
1
10
16.6528897246488
20
-3.43442090334943
30
0
41
1
10
15.60043482032
20
-3.12645197909984
30
0
41
1
10
15.389551869969
20
-3.05792557883453
30
0
41
1
10
15.1800199519482
20
-2.98350162924172
30
0
0
SPLINE
5
E0
100
AcDbEntity
8
1
62
256
6
ByLayer
370
13
48
1
60
0
100
AcDbSpline
70
4
71
3
72
22
73
18
40
0
40
0
40
0
40
0
40
0.0005451578816817
40
0.0005451578816817
40
0.0914046889833454
40
0.0914046889833454
40
0.273123751186676
40
0.273123751186676
40
0.454842813390007
40
0.454842813390007
40
0.636561875593337
40
0.636561875593337
40
0.818280937796669
40
0.818280937796669
40
0.909140468898335
40
0.909140468898335
40
1
40
1
40
1
40
1
41
1
10
15.1800199514339
20
-2.98350162905902
30
0
41
1
10
15.1787551696212
20
-2.98305238935001
30
0
41
1
10
15.1774904370349
20
-2.98260293475781
30
0
41
1
10
14.9654455639723
20
-2.90720849735814
30
0
41
1
10
14.7555318761503
20
-2.8261782369425
30
0
41
1
10
14.1272116257939
20
-2.56624518301149
30
0
41
1
10
13.7102017337126
20
-2.3705718498218
30
0
41
1
10
12.8738395345919
20
-1.94161669728908
30
0
41
1
10
12.4541879873992
20
-1.70818202022136
30
0
41
1
10
11.6074203915636
20
-1.21164439235054
30
0
41
1
10
11.1882332180033
20
-0.95328697710255
30
0
41
1
10
10.351957949228
20
-0.4263293405468
30
0
41
1
10
9.934914808819
20
-0.157663122270662
30
0
41
1
10
9.30620884866252
20
0.245605911472524
30
0
41
1
10
9.0961054238459
20
0.380057046392096
30
0
41
1
10
8.67403005343556
20
0.647760892578475
30
0
41
1
10
8.46185180285747
20
0.781118163373776
30
0
41
1
10
8.25012091932118
20
0.912407961206412
30
0
0
SPLINE
5
E1
100
AcDbEntity
8
1
62
256
6
ByLayer
370
18
48
1
60
0
100
AcDbSpline
70
4
71
3
72
54
73
50
40
0
40
0
40
0
40
0
40
0.0625000000000019
40
0.0625000000000019
40
0.125000000000004
40
0.125000000000004
40
0.250000000000006
40
0.250000000000006
40
0.281250000000006
40
0.281250000000006
40
0.312500000000006
40
0.312500000000006
40
0.375000000000006
40
0.375000000000006
40
0.406250000000006
40
0.406250000000006
40
0.437500000000006
40
0.437500000000006
40
0.500000000000005
40
0.500000000000005
40
0.531250000000005
40
0.531250000000005
40
0.562500000000005
40
0.562500000000005
40
0.625000000000005
40
0.625000000000005
40
0.687500000000006
40
0.687500000000006
40
0.718750000000005
40
0.718750000000005
40
0.750000000000005
40
0.750000000000005
40
0.812500000000004
40
0.812500000000004
40
0.875000000000004
40
0.875000000000004
40
0.878906250000003
40
0.878906250000003
40
0.882812500000003
40
0.882812500000003
40
0.886718750000003
40
0.886718750000003
40
0.890625000000002
40
0.890625000000002
40
0.906250000000003
40
0.906250000000003
40
0.937500000000002
40
0.937500000000002
40
1
40
1
40
1
40
1
41
1
10
8.00284861994356
20
-3.37339446271429
30
0
41
1
10
7.8762892582773
20
-3.44744872978742
30
0
41
1
10
7.75417731820886
20
-3.51331145467665
30
0
41
1
10
7.5178927572783
20
-3.62605433164404
30
0
41
1
10
7.40343110787956
20
-3.673042067121
30
0
41
1
10
7.07246185274829
20
-3.77956968928146
30
0
41
1
10
6.87562272983016
20
-3.80303502038774
30
0
41
1
10
6.65531382067795
20
-3.76076240113909
30
0
41
1
10
6.61240994300536
20
-3.74857900780128
30
0
41
1
10
6.53067122086108
20
-3.71693457476587
30
0
41
1
10
6.49170419726593
20
-3.69748234264284
30
0
41
1
10
6.38041685239116
20
-3.62808262829125
30
0
41
1
10
6.31364169201257
20
-3.56717477743484
30
0
41
1
10
6.22534093044845
20
-3.45197239539246
30
0
41
1
10
6.19789998458879
20
-3.40957978050165
30
0
41
1
10
6.14736642539822
20
-3.31620182030693
30
0
41
1
10
6.12436806943089
20
-3.26527317260084
30
0
41
1
10
6.06391827814889
20
-3.10255684355349
30
0
41
1
10
6.03432353805493
20
-2.97993950009121
30
0
41
1
10
6.00842130876515
20
-2.77360510648319
30
0
41
1
10
6.0028969070909
20
-2.70057824165022
30
0
41
1
10
5.99886650226853
20
-2.54950358071673
30
0
41
1
10
6.00030601556406
20
-2.47148864193215
30
0
41
1
10
6.01532875473703
20
-2.23028948847525
30
0
41
1
10
6.03949695899641
20
-2.05998989680046
30
0
41
1
10
6.12035893420807
20
-1.7008084551814
30
0
41
1
10
6.1758236094208
20
-1.51798291567516
30
0
41
1
10
6.28073045802279
20
-1.24241377668687
30
0
41
1
10
6.3193522235826
20
-1.15021437914871
30
0
41
1
10
6.40404436969791
20
-0.965340863245217
30
0
41
1
10
6.44991180650754
20
-0.873179910888751
30
0
41
1
10
6.59581657353871
20
-0.601389315451399
30
0
41
1
10
6.70480098441465
20
-0.424890627396792
30
0
41
1
10
6.94452519944375
20
-0.0811518791622916
30
0
41
1
10
7.07489140497708
20
0.0852828293910761
30
0
41
1
10
7.22138080716053
20
0.254079993425393
30
0
41
1
10
7.23002831508109
20
0.263981406388524
30
0
41
1
10
7.24738198555724
20
0.283726789443534
30
0
41
1
10
7.25610426476706
20
0.294005736046898
30
0
41
1
10
7.27913354801973
20
0.306910928036558
30
0
41
1
10
7.29248105570269
20
0.309538180566022
30
0
41
1
10
7.3186824369256
20
0.310890006487966
30
0
41
1
10
7.33180692334642
20
0.311100492424032
30
0
41
1
10
7.39739920386353
20
0.312742649616638
30
0
41
1
10
7.44989914537683
20
0.313008424729731
30
0
41
1
10
7.60724321889114
20
0.310693002979633
30
0
41
1
10
7.71219839637504
20
0.304989069712832
30
0
41
1
10
8.02531625576464
20
0.275675319773285
30
0
41
1
10
8.23144153137298
20
0.240036358249398
30
0
41
1
10
8.43498597003116
20
0.188448187562926
30
0
0
SPLINE
5
E2
100
AcDbEntity
8
1
62
256
6
ByLayer
370
18
48
1
60
0
100
AcDbSpline
70
4
71
3
72
18
73
14
40
0
40
0
40
0
40
0
40
0.25
40
0.25
40
0.375
40
0.375
40
0.5
40
0.5
40
0.75
40
0.75
40
0.875
40
0.875
40
1
40
1
40
1
40
1
41
1
10
88.6375615232966
20
-3.61897418806882
30
0
41
1
10
88.559668400998
20
-3.60784622485642
30
0
41
1
10
88.4875886600545
20
-3.58006684731333
30
0
41
1
10
88.3890216166373
20
-3.51103612038352
30
0
41
1
10
88.3577320022848
20
-3.48332398076749
30
0
41
1
10
88.2997961964276
20
-3.41956056465912
30
0
41
1
10
88.2729707714501
20
-3.38341313969758
30
0
41
1
10
88.1989638111104
20
-3.26209032868917
30
0
41
1
10
88.1581931571395
20
-3.1641507482056
30
0
41
1
10
88.1109967707047
20
-2.98944754261439
30
0
41
1
10
88.0976356667916
20
-2.9264619722467
30
0
41
1
10
88.0763127061658
20
-2.79358783159262
30
0
41
1
10
88.0682563614304
20
-2.72340097727582
30
0
41
1
10
88.0628218988846
20
-2.64944023420554
30
0
0
SPLINE
5
E3
100
AcDbEntity
8
1
62
256
6
ByLayer
370
18
48
1
60
0
100
AcDbSpline
70
4
71
3
72
14
73
10
40
0
40
0
40
0
40
0
40
0.336095506203606
40
0.336095506203606
40
0.534030743634746
40
0.534030743634746
40
0.731965981065888
40
0.731965981065888
40
1
40
1
40
1
40
1
41
1
10
70.9329721556621
20
-3.61354886209929
30
0
41
1
10
70.5793563164088
20
-3.61316856425873
30
0
41
1
10
70.2255987809517
20
-3.59097270928649
30
0
41
1
10
69.6603924178448
20
-3.52076372025744
30
0
41
1
10
69.4498775852399
20
-3.48705252075194
30
0
41
1
10
69.0278747690243
20
-3.40465439037524
30
0
41
1
10
68.8179215825414
20
-3.35626919793361
30
0
41
1
10
68.3252132149758
20
-3.22626439300299
30
0
41
1
10
68.0429293191022
20
-3.13902392261735
30
0
41
1
10
67.7608300955708
20
-3.04015938953614
30
0
0
SPLINE
5
E4
100
AcDbEntity
8
1
62
256
6
ByLayer
370
13
48
1
60
0
100
AcDbSpline
70
4
71
3
72
24
73
20
40
0
40
0
40
0
40
0
40
0.196223728108281
40
0.196223728108281
40
0.270386519924639
40
0.270386519924639
40
0.344549311740996
40
0.344549311740996
40
0.49287489537371
40
0.49287489537371
40
0.567037687190069
40
0.567037687190069
40
0.641200479006427
40
0.641200479006427
40
0.789526062639144
40
0.789526062639144
40
0.937851646271862
40
0.937851646271862
40
1
40
1
40
1
40
1
41
1
10
67.7608310378134
20
-3.04015971975454
30
0
41
1
10
67.2096420375469
20
-2.84698999697966
30
0
41
1
10
66.6591580576035
20
-2.60944354598064
30
0
41
1
10
65.8918637600459
20
-2.22955278695747
30
0
41
1
10
65.6803531824706
20
-2.11985184376886
30
0
41
1
10
65.2604091032744
20
-1.89346191607694
30
0
41
1
10
65.0512661534993
20
-1.77641205813396
30
0
41
1
10
64.4249972102747
20
-1.41560739567328
30
0
41
1
10
64.0089883666805
20
-1.16228635507718
30
0
41
1
10
63.3830460228235
20
-0.769369095098341
30
0
41
1
10
63.174037274793
20
-0.636296410937064
30
0
41
1
10
62.7545030498876
20
-0.367102249406628
30
0
41
1
10
62.5433567165973
20
-0.230574833486486
30
0
41
1
10
61.9109140225326
20
0.178856756808813
30
0
41
1
10
61.4932680442305
20
0.450118398352061
30
0
41
1
10
60.659345573603
20
0.979200515636364
30
0
41
1
10
60.2432531875739
20
1.23737263469937
30
0
41
1
10
59.6494085857297
20
1.58751972496665
30
0
41
1
10
59.4736609766523
20
1.68894382659727
30
0
41
1
10
59.2972850411211
20
1.78805859119584
30
0
0
SPLINE
5
E5
100
AcDbEntity
8
1
62
256
6
ByLayer
370
18
48
1
60
0
100
AcDbSpline
70
4
71
3
72
14
73
10
40
0
40
0
40
0
40
0
40
0.0007032597716198
40
0.0007032597716198
40
0.703913459370686
40
0.703913459370686
40
0.879716009270454
40
0.879716009270454
40
1
40
1
40
1
40
1
41
1
10
35.9405286164386
20
-3.59151921833873
30
0
41
1
10
35.939684160169
20
-3.59151892767383
30
0
41
1
10
35.9388397093328
20
-3.59151851261001
30
0
41
1
10
35.0936094955815
20
-3.59097853708238
30
0
41
1
10
34.2645864006824
20
-3.4670789349434
30
0
41
1
10
33.2171213621899
20
-3.17228708446106
30
0
41
1
10
33.007041619446
20
-3.10634493439548
30
0
41
1
10
32.6515306259465
20
-2.98372118817795
30
0
41
1
10
32.506861772805
20
-2.93073109584867
30
0
41
1
10
32.3625830815333
20
-2.87499850720661
30
0
0
SPLINE
5
E6
100
AcDbEntity
8
1
62
256
6
ByLayer
370
13
48
1
60
0
100
AcDbSpline
70
4
71
3
72
24
73
20
40
0
40
0
40
0
40
0
40
0.0246644840182924
40
0.0246644840182924
40
0.180868084903877
40
0.180868084903877
40
0.337071685789461
40
0.337071685789461
40
0.415173486232253
40
0.415173486232253
40
0.493275286675045
40
0.493275286675045
40
0.805682488446221
40
0.805682488446221
40
0.883784288889014
40
0.883784288889014
40
0.961886089331809
40
0.961886089331809
40
1
40
1
40
1
40
1
41
1
10
32.3625821486849
20
-2.87499814686191
30
0
41
1
10
32.2959888513211
20
-2.84927419798174
30
0
41
1
10
32.2294786734734
20
-2.82296599392973
30
0
41
1
10
31.7428170435631
20
-2.62607148937326
30
0
41
1
10
31.3253948241499
20
-2.43355776860884
30
0
41
1
10
30.4906980001381
20
-2.0109031347171
30
0
41
1
10
30.073124251237
20
-1.7810242688775
30
0
41
1
10
29.442271823974
20
-1.41352357134363
30
0
41
1
10
29.2304607083421
20
-1.28689273227798
30
0
41
1
10
28.8084774973387
20
-1.02972132837692
30
0
41
1
10
28.5984469013867
20
-0.89919989140833
30
0
41
1
10
27.5511481860015
20
-0.24002523719426
30
0
41
1
10
26.7217176413065
20
0.307235107323237
30
0
41
1
10
25.6651564550852
20
0.968519009615079
30
0
41
1
10
25.4538516786763
20
1.09891589619909
30
0
41
1
10
25.033607372675
20
1.35285250844154
30
0
41
1
10
24.824252922584
20
1.47681740803657
30
0
41
1
10
24.5132527615129
20
1.6560438408618
30
0
41
1
10
24.4113188604989
20
1.71394225783595
30
0
41
1
10
24.3094097475326
20
1.77091365585053
30
0
0
SPLINE
5
E7
100
AcDbEntity
8
1
62
256
6
ByLayer
370
18
48
1
60
0
100
AcDbSpline
70
4
71
3
72
10
73
6
40
0
40
0
40
0
40
0
40
0.5
40
0.5
40
1
40
1
40
1
40
1
41
1
10
88.7588395790792
20
3.73404421498398
30
0
41
1
10
88.9460520046185
20
3.28989322787953
30
0
41
1
10
89.1319741093189
20
2.84282306004616
30
0
41
1
10
89.4963978563788
20
1.9408632229036
30
0
41
1
10
89.6749848158413
20
1.48605612652955
30
0
41
1
10
89.8476467579537
20
1.02654877900358
30
0
0
SPLINE
5
E8
100
AcDbEntity
8
1
62
256
6
ByLayer
370
18
48
1
60
0
100
AcDbSpline
70
4
71
3
72
8
73
4
40
0
40
0
40
0
40
0
40
1
40
1
40
1
40
1
41
1
10
88.7588395790857
20
3.73404421496551
30
0
41
1
10
88.7098998125408
20
3.7814751527165
30
0
41
1
10
88.6671690819982
20
3.81266987547303
30
0
41
1
10
88.6303559222008
20
3.82679661900909
30
0
0
SPLINE
5
E9
100
AcDbEntity
8
1
62
256
6
ByLayer
370
18
48
1
60
0
100
AcDbSpline
70
4
71
3
72
8
73
4
40
0
40
0
40
0
40
0
40
1
40
1
40
1
40
1
41
1
10
89.9999277313003
20
0.0471525932364614
30
0
41
1
10
90.0000240894423
20
0.0157175715814617
30
0
41
1
10
90.0000240894423
20
-0.0157175715806375
30
0
41
1
10
89.9999277313003
20
-0.0471525932356087
30
0
0
SPLINE
5
EA
100
AcDbEntity
8
1
62
256
6
ByLayer
370
18
48
1
60
0
100
AcDbSpline
70
4
71
3
72
10
73
6
40
0
40
0
40
0
40
0
40
0.5
40
0.5
40
1
40
1
40
1
40
1
41
1
10
8.10950363951906
20
0.939271856230363
30
0
41
1
10
8.08455627703651
20
0.955687736827002
30
0
41
1
10
8.06320801238371
20
0.975982577283901
30
0
41
1
10
8.0285097360169
20
1.02332396406337
30
0
41
1
10
8.0158177549074
20
1.04956466446217
30
0
41
1
10
8.0082028639919
20
1.07737383363673
30
0
0
SPLINE
5
EB
100
AcDbEntity
8
1
62
256
6
ByLayer
370
18
48
1
60
0
100
AcDbSpline
70
4
71
3
72
40
73
36
40
0
40
0
40
0
40
0
40
0.062499999999999
40
0.062499999999999
40
0.124999999999998
40
0.124999999999998
40
0.187499999999997
40
0.187499999999997
40
0.249999999999996
40
0.249999999999996
40
0.312499999999995
40
0.312499999999995
40
0.374999999999994
40
0.374999999999994
40
0.437499999999993
40
0.437499999999993
40
0.499999999999992
40
0.499999999999992
40
0.624999999999993
40
0.624999999999993
40
0.749999999999995
40
0.749999999999995
40
0.781249999999995
40
0.781249999999995
40
0.796874999999996
40
0.796874999999996
40
0.812499999999997
40
0.812499999999997
40
0.843749999999999
40
0.843749999999999
40
0.859375
40
0.859375
40
0.875000000000001
40
0.875000000000001
40
1
40
1
40
1
40
1
41
1
10
87.0111580551981
20
-1.95513570463814
30
0
41
1
10
87.0895478878741
20
-1.97134230732612
30
0
41
1
10
87.1681010612583
20
-1.98458658658655
30
0
41
1
10
87.3256314306989
20
-2.00338513133079
30
0
41
1
10
87.4045387691066
20
-2.00883568375508
30
0
41
1
10
87.559614764763
20
-2.00965195867912
30
0
41
1
10
87.636143116893
20
-2.00510940541446
30
0
41
1
10
87.7866138001215
20
-1.98334401869707
30
0
41
1
10
87.8610365961971
20
-1.96584865495603
30
0
41
1
10
88.0022951815045
20
-1.91605849538402
30
0
41
1
10
88.0695073498457
20
-1.88382668576642
30
0
41
1
10
88.1961957069254
20
-1.80275354720047
30
0
41
1
10
88.2558450301595
20
-1.75336701023093
30
0
41
1
10
88.362130816946
20
-1.64166808578005
30
0
41
1
10
88.4095031940942
20
-1.57905425849654
30
0
41
1
10
88.4942240896286
20
-1.44207634847939
30
0
41
1
10
88.5314598516213
20
-1.3676918026616
30
0
41
1
10
88.6281221644361
20
-1.13718367696043
30
0
41
1
10
88.6744277311572
20
-0.971591549287069
30
0
41
1
10
88.7468787895859
20
-0.627156890994286
30
0
41
1
10
88.7725824278834
20
-0.44948296975187
30
0
41
1
10
88.7971165305095
20
-0.224694180118973
30
0
41
1
10
88.801633857813
20
-0.179559850492751
30
0
41
1
10
88.8078882843084
20
-0.111716506813451
30
0
41
1
10
88.8098862802135
20
-0.0890754536612803
30
0
41
1
10
88.8137194946278
20
-0.0437434615281802
30
0
41
1
10
88.8160139965812
20
-0.0211932775649757
30
0
41
1
10
88.8190258969746
20
0.0476437919378441
30
0
41
1
10
88.8089122368691
20
0.0975845136083535
30
0
41
1
10
88.7881465786883
20
0.16913378869441
30
0
41
1
10
88.7803453864252
20
0.192820085258859
30
0
41
1
10
88.7649841989318
20
0.240237516579981
30
0
41
1
10
88.7574104267411
20
0.263966090218929
30
0
41
1
10
88.6898202239871
20
0.477629911730077
30
0
41
1
10
88.63456008541
20
0.668449347653421
30
0
41
1
10
88.5827436756294
20
0.85990896796028
30
0
0
SPLINE
5
EC
100
AcDbEntity
8
1
62
256
6
ByLayer
370
18
48
1
60
0
100
AcDbSpline
70
4
71
3
72
8
73
4
40
0
40
0
40
0
40
0
40
1
40
1
40
1
40
1
41
1
10
88.6303559222007
20
3.82679661900897
30
0
41
1
10
88.5052145415629
20
3.8325059953836
30
0
41
1
10
88.3800527618672
20
3.83530267720829
30
0
41
1
10
88.2547925028897
20
3.8351857686846
30
0
0
SPLINE
5
ED
100
AcDbEntity
8
1
62
256
6
ByLayer
370
18
48
1
60
0
100
AcDbSpline
70
4
71
3
72
52
73
48
40
0
40
0
40
0
40
0
40
0.0806303609246308
40
0.0806303609246308
40
0.0968736330329868
40
0.0968736330329868
40
0.113116905141343
40
0.113116905141343
40
0.145603449358054
40
0.145603449358054
40
0.210576537791478
40
0.210576537791478
40
0.243063082008189
40
0.243063082008189
40
0.2755496262249
40
0.2755496262249
40
0.340522714658323
40
0.340522714658323
40
0.405495803091745
40
0.405495803091745
40
0.437982347308456
40
0.437982347308456
40
0.470468891525167
40
0.470468891525167
40
0.600415068392013
40
0.600415068392013
40
0.616658340500369
40
0.616658340500369
40
0.632901612608724
40
0.632901612608724
40
0.665388156825437
40
0.665388156825437
40
0.730361245258863
40
0.730361245258863
40
0.762847789475576
40
0.762847789475576
40
0.795334333692289
40
0.795334333692289
40
0.860307422125715
40
0.860307422125715
40
0.925280510559141
40
0.925280510559141
40
0.957767054775854
40
0.957767054775854
40
0.990253598992567
40
0.990253598992567
40
1
40
1
40
1
40
1
41
1
10
72.6008424785944
20
-3.61781688944026
30
0
41
1
10
72.0836014813588
20
-3.73300109511425
30
0
41
1
10
71.5665816345162
20
-3.80120351697508
30
0
41
1
10
70.9380177271073
20
-3.82301851144598
30
0
41
1
10
70.8321969285489
20
-3.82462964822523
30
0
41
1
10
70.6212621101497
20
-3.82372025218459
30
0
41
1
10
70.5160546164275
20
-3.82121030783892
30
0
41
1
10
70.2010395623548
20
-3.80760650133013
30
0
41
1
10
69.9918437115946
20
-3.7904423268179
30
0
41
1
10
69.3655199220628
20
-3.71527173176932
30
0
41
1
10
68.9494305003113
20
-3.63368134347121
30
0
41
1
10
68.3227285808731
20
-3.46606347408391
30
0
41
1
10
68.1133412736365
20
-3.40267865148047
30
0
41
1
10
67.6928614111012
20
-3.26108717080129
30
0
41
1
10
67.481101033511
20
-3.18249577464826
30
0
41
1
10
66.8493121262822
20
-2.92817084141174
30
0
41
1
10
66.4318507162642
20
-2.73377494154676
30
0
41
1
10
65.5979080959778
20
-2.30311743071581
30
0
41
1
10
65.1814198479873
20
-2.06684276244644
30
0
41
1
10
64.5521995338313
20
-1.68685033569628
30
0
41
1
10
64.3414173644005
20
-1.55574246641942
30
0
41
1
10
63.9187259839623
20
-1.28668293616374
30
0
41
1
10
63.7085201226743
20
-1.14975937687396
30
0
41
1
10
62.660834828864
20
-0.456662108660936
30
0
41
1
10
61.8333549706588
20
0.124856954847644
30
0
41
1
10
60.8839107097326
20
0.764503957106001
30
0
41
1
10
60.7780168216063
20
0.835473509335429
30
0
41
1
10
60.5670565740421
20
0.975943903226209
30
0
41
1
10
60.4618429595859
20
1.04553081170758
30
0
41
1
10
60.1467734421392
20
1.25205187685492
30
0
41
1
10
59.9375006221302
20
1.38676645547838
30
0
41
1
10
59.310807505586
20
1.78054851688947
30
0
41
1
10
58.8946384147816
20
2.02942287580083
30
0
41
1
10
58.2674616747591
20
2.37533780761737
30
0
41
1
10
58.0579956069524
20
2.48617184553112
30
0
41
1
10
57.6373040600482
20
2.69763387335979
30
0
41
1
10
57.4253503123411
20
2.79853316762467
30
0
41
1
10
56.7933938500577
20
3.08063636099735
30
0
41
1
10
56.3757720371596
20
3.24207251171094
30
0
41
1
10
55.5412453847241
20
3.50793825124165
30
0
41
1
10
55.1245638648558
20
3.61247699226905
30
0
41
1
10
54.4948323697539
20
3.72288079355806
30
0
41
1
10
54.2838315921775
20
3.75201668696684
30
0
41
1
10
53.8611514023883
20
3.79399811850806
30
0
41
1
10
53.6508718667611
20
3.80671874236438
30
0
41
1
10
53.3782967720259
20
3.81272162231474
30
0
41
1
10
53.3154534760216
20
3.8133802318668
30
0
41
1
10
53.2526594201401
20
3.8133142365929
30
0
0
SPLINE
5
EE
100
AcDbEntity
8
1
62
256
6
ByLayer
370
18
48
1
60
0
100
AcDbSpline
70
4
71
3
72
46
73
42
40
0
40
0
40
0
40
0
40
0.0260611798373467
40
0.0260611798373467
40
0.0912075871084437
40
0.0912075871084437
40
0.15635399437954
40
0.15635399437954
40
0.188927198015089
40
0.188927198015089
40
0.221500401650638
40
0.221500401650638
40
0.35179321619283
40
0.35179321619283
40
0.384366419828379
40
0.384366419828379
40
0.416939623463928
40
0.416939623463928
40
0.482086030735026
40
0.482086030735026
40
0.514659234370577
40
0.514659234370577
40
0.547232438006127
40
0.547232438006127
40
0.612378845277225
40
0.612378845277225
40
0.677525252548323
40
0.677525252548323
40
0.710098456183872
40
0.710098456183872
40
0.74267165981942
40
0.74267165981942
40
0.872964474361614
40
0.872964474361614
40
0.889251076179389
40
0.889251076179389
40
0.905537677997163
40
0.905537677997163
40
0.938110881632712
40
0.938110881632712
40
1
40
1
40
1
40
1
41
1
10
37.5943734258
20
-3.59849173273693
30
0
41
1
10
37.4254393046162
20
-3.63574840048165
30
0
41
1
10
37.2558807572142
20
-3.66816924257688
30
0
41
1
10
36.6655463491513
20
-3.76313882069519
30
0
41
1
10
36.2475934645917
20
-3.79862739909058
30
0
41
1
10
35.4123648183034
20
-3.80556151350544
30
0
41
1
10
34.995099362611
20
-3.77699797723543
30
0
41
1
10
34.3646254062386
20
-3.68599127328363
30
0
41
1
10
34.1532236326555
20
-3.64752882479542
30
0
41
1
10
33.7300885615085
20
-3.55489269132576
30
0
41
1
10
33.5196527582927
20
-3.50100844874282
30
0
41
1
10
32.4707119116107
20
-3.195926922837
30
0
41
1
10
31.6416249180161
20
-2.83848543360727
30
0
41
1
10
30.5848117567014
20
-2.27754399167907
30
0
41
1
10
30.3730285123849
20
-2.16000516965627
30
0
41
1
10
29.9523276513368
20
-1.91787479912784
30
0
41
1
10
29.7428188235049
20
-1.79284876841888
30
0
41
1
10
29.1153334265867
20
-1.40797103500404
30
0
41
1
10
28.698353026879
20
-1.1384028396715
30
0
41
1
10
28.0702264209405
20
-0.721086949833818
30
0
41
1
10
27.8603459477705
20
-0.579908166124568
30
0
41
1
10
27.4387627230556
20
-0.294513739165296
30
0
41
1
10
27.2264674821991
20
-0.149736681100791
30
0
41
1
10
26.5936946432919
20
0.281677507710839
30
0
41
1
10
26.1754366994907
20
0.566510231453378
30
0
41
1
10
25.3398148236485
20
1.12169873882226
30
0
41
1
10
24.9222974600023
20
1.39182845911574
30
0
41
1
10
24.2916473278224
20
1.77880313868721
30
0
41
1
10
24.0801823494579
20
1.90491302401696
30
0
41
1
10
23.6567708654447
20
2.14845343612547
30
0
41
1
10
23.4462187706085
20
2.26529259842286
30
0
41
1
10
22.3966678891021
20
2.82235726575928
30
0
41
1
10
21.5672379194118
20
3.181586317252
30
0
41
1
10
20.6155736707327
20
3.45848793059915
30
0
41
1
10
20.5094613916885
20
3.48748893508423
30
0
41
1
10
20.298103319095
20
3.54146703642687
30
0
41
1
10
20.1926913070744
20
3.56650096882427
30
0
41
1
10
19.8770409088504
20
3.63569833930487
30
0
41
1
10
19.6673897092301
20
3.67396249804941
30
0
41
1
10
19.0604589478898
20
3.76202311643334
30
0
41
1
10
18.6641275030841
20
3.79123028817057
30
0
41
1
10
18.2663073278826
20
3.7914371509394
30
0
0
SPLINE
5
EF
100
AcDbEntity
8
1
62
256
6
ByLayer
370
18
48
1
60
0
100
AcDbSpline
70
4
71
3
72
8
73
4
40
0
40
0
40
0
40
0
40
1
40
1
40
1
40
1
41
1
10
89.8961151538645
20
-0.161126506923068
30
0
41
1
10
89.7691724529713
20
-0.509898711190147
30
0
41
1
10
89.6422297520782
20
-0.858670915457168
30
0
41
1
10
89.5152870511849
20
-1.20744311972422
30
0
0
SPLINE
5
F0
100
AcDbEntity
8
1
62
256
6
ByLayer
370
13
48
1
60
0
100
AcDbSpline
70
4
71
3
72
10
73
6
40
0
40
0
40
0
40
0
40
0.5
40
0.5
40
1
40
1
40
1
40
1
41
1
10
8.00308467121917
20
1.11498772103587
30
0
41
1
10
8.00833505139076
20
1.0872098465446
30
0
41
1
10
8.02005364781832
20
1.06074064326961
30
0
41
1
10
8.05687424747646
20
1.01224258314369
30
0
41
1
10
8.08108969193393
20
0.991240654602336
30
0
41
1
10
8.11172694385172
20
0.974523982314139
30
0
0
SPLINE
5
F1
100
AcDbEntity
8
1
62
256
6
ByLayer
370
18
48
1
60
0
100
AcDbSpline
70
4
71
3
72
8
73
4
40
0
40
0
40
0
40
0
40
1
40
1
40
1
40
1
41
1
10
88.6375615232951
20
-3.61897418807217
30
0
41
1
10
88.6468335317958
20
-3.62281265686013
30
0
41
1
10
88.6568008543176
20
-3.62465038723184
30
0
41
1
10
88.6674798489861
20
-3.62450887315583
30
0
0
SPLINE
5
F2
100
AcDbEntity
8
1
62
256
6
ByLayer
370
18
48
1
60
0
100
AcDbSpline
70
4
71
3
72
44
73
40
40
0
40
0
40
0
40
0
40
0.0702740704626817
40
0.0702740704626817
40
0.105411105694022
40
0.105411105694022
40
0.140548140925362
40
0.140548140925362
40
0.210822211388042
40
0.210822211388042
40
0.245959246619383
40
0.245959246619383
40
0.281096281850724
40
0.281096281850724
40
0.421644422776087
40
0.421644422776087
40
0.439212940391756
40
0.439212940391756
40
0.456781458007426
40
0.456781458007426
40
0.491918493238765
40
0.491918493238765
40
0.562192563701443
40
0.562192563701443
40
0.63246663416412
40
0.63246663416412
40
0.667603669395458
40
0.667603669395458
40
0.702740704626796
40
0.702740704626796
40
0.773014775089473
40
0.773014775089473
40
0.808151810320811
40
0.808151810320811
40
0.84328884555215
40
0.84328884555215
40
0.983836986477509
40
0.983836986477509
40
1
40
1
40
1
40
1
41
1
10
88.6303559222009
20
-3.82679661900897
30
0
41
1
10
88.2101840255775
20
-3.84596629324167
30
0
41
1
10
87.7905238081287
20
-3.83234128218243
30
0
41
1
10
87.1574167982716
20
-3.76273358846899
30
0
41
1
10
86.9466257853488
20
-3.73137041705508
30
0
41
1
10
86.5274075556354
20
-3.65333958040841
30
0
41
1
10
86.3185445905548
20
-3.60663267718724
30
0
41
1
10
85.6929527087191
20
-3.44438537433677
30
0
41
1
10
85.2772245977622
20
-3.30673181198765
30
0
41
1
10
84.6505257855304
20
-3.05944162254661
30
0
41
1
10
84.4411021433465
20
-2.97021238465555
30
0
41
1
10
84.0204100728829
20
-2.77859467038863
30
0
41
1
10
83.8087283792336
20
-2.67593957036758
30
0
41
1
10
82.7581723613845
20
-2.13898142065216
30
0
41
1
10
81.9317397249281
20
-1.62970394732599
30
0
41
1
10
80.9875687113249
20
-1.00644668417201
30
0
41
1
10
80.8824569467952
20
-0.936497287866473
30
0
41
1
10
80.6717153766159
20
-0.795337978861824
30
0
41
1
10
80.5659308528863
20
-0.724022167610741
30
0
41
1
10
80.2497367356581
20
-0.509820312677221
30
0
41
1
10
80.0399745790629
20
-0.366327638083305
30
0
41
1
10
79.4126192000766
20
0.064521556987728
30
0
41
1
10
78.9965430389723
20
0.351637208574459
30
0
41
1
10
78.1628001135256
20
0.916976858928109
30
0
41
1
10
77.744807475883
20
1.19472486877348
30
0
41
1
10
77.11144953897
20
1.59701283080918
30
0
41
1
10
76.9007962604201
20
1.72757951211079
30
0
41
1
10
76.4815288243453
20
1.97945256584106
30
0
41
1
10
76.2726198062174
20
2.10099915751181
30
0
41
1
10
75.6470000421739
20
2.45133099116467
30
0
41
1
10
75.2309809671528
20
2.66533334336461
30
0
41
1
10
74.6039495668073
20
2.95178506172525
30
0
41
1
10
74.3944155571239
20
3.04147600755317
30
0
41
1
10
73.9733307086361
20
3.20814850422784
30
0
41
1
10
73.7615411255631
20
3.28519773225301
30
0
41
1
10
72.7108565135288
20
3.63178462251597
30
0
41
1
10
71.8839156115835
20
3.79013282328978
30
0
41
1
10
70.9473718515241
20
3.82270043167779
30
0
41
1
10
70.85060576858
20
3.82434298941317
30
0
41
1
10
70.7536215534674
20
3.82424632196143
30
0
0
SPLINE
5
F3
100
AcDbEntity
8
1
62
256
6
ByLayer
370
18
48
1
60
0
100
AcDbSpline
70
4
71
3
72
44
73
40
40
0
40
0
40
0
40
0
40
0.0192828593129985
40
0.0192828593129985
40
0.05185400342916
40
0.05185400342916
40
0.0844251475453218
40
0.0844251475453218
40
0.214709724009968
40
0.214709724009968
40
0.247280868126131
40
0.247280868126131
40
0.279852012242293
40
0.279852012242293
40
0.344994300474618
40
0.344994300474618
40
0.410136588706943
40
0.410136588706943
40
0.475278876939268
40
0.475278876939268
40
0.540421165171592
40
0.540421165171592
40
0.572992309287754
40
0.572992309287754
40
0.605563453403916
40
0.605563453403916
40
0.735848029868563
40
0.735848029868563
40
0.768419173984726
40
0.768419173984726
40
0.800990318100888
40
0.800990318100888
40
0.866132606333213
40
0.866132606333213
40
0.931274894565538
40
0.931274894565538
40
0.996417182797862
40
0.996417182797862
40
1
40
1
40
1
40
1
41
1
10
55.0758084198944
20
-3.61287473308843
30
0
41
1
10
54.9521980870754
20
-3.63995745567118
30
0
41
1
10
54.8284733065624
20
-3.66439026204594
30
0
41
1
10
54.4951961989859
20
-3.722811910198
30
0
41
1
10
54.2853331878389
20
-3.75181583209854
30
0
41
1
10
53.8636555888948
20
-3.79380062223538
30
0
41
1
10
53.6517808402036
20
-3.8066918949115
30
0
41
1
10
52.6002034005819
20
-3.82988475018431
30
0
41
1
10
51.7726548017441
20
-3.7184164559138
30
0
41
1
10
50.7211442696427
20
-3.42611139675506
30
0
41
1
10
50.5092389930947
20
-3.35968386269741
30
0
41
1
10
50.0874657641235
20
-3.21325974619287
30
0
41
1
10
49.8775562359035
20
-3.13333785132468
30
0
41
1
10
49.2493492158623
20
-2.87504338772536
30
0
41
1
10
48.832880083202
20
-2.67787376528665
30
0
41
1
10
47.9975348383354
20
-2.24112090941628
30
0
41
1
10
47.5786902115909
20
-2.00134686266222
30
0
41
1
10
46.7321237736273
20
-1.48643019532486
30
0
41
1
10
46.3133337092566
20
-1.21676186488622
30
0
41
1
10
45.478033124527
20
-0.662934079955107
30
0
41
1
10
45.0612956605771
20
-0.379106070916464
30
0
41
1
10
44.4330453374754
20
0.0504293940263665
30
0
41
1
10
44.2230258046661
20
0.194124451934044
30
0
41
1
10
43.8009628919394
20
0.48136603948339
30
0
41
1
10
43.589009964531
20
0.624889491740674
30
0
41
1
10
42.537396151658
20
1.32909978153734
30
0
41
1
10
41.7090527590213
20
1.85672945163913
30
0
41
1
10
40.6570233027214
20
2.42727328020345
30
0
41
1
10
40.4449684682499
20
2.5372028903372
30
0
41
1
10
40.0229564637107
20
2.7445103081769
30
0
41
1
10
39.8129491488969
20
2.84201209074101
30
0
41
1
10
39.1846398825122
20
3.11517761444
30
0
41
1
10
38.7677636920053
20
3.27128596591672
30
0
41
1
10
37.93210769667
20
3.52712435733733
30
0
41
1
10
37.5129343467929
20
3.62670019920074
30
0
41
1
10
36.6660406604248
20
3.76317442730399
30
0
41
1
10
36.2470719579702
20
3.7986736105976
30
0
41
1
10
35.8061754986056
20
3.80228972864092
30
0
41
1
10
35.783193658528
20
3.80238119823434
30
0
41
1
10
35.7602144874978
20
3.80237566263415
30
0
0
SPLINE
5
F4
100
AcDbEntity
8
1
62
256
6
ByLayer
370
18
48
1
60
0
100
AcDbSpline
70
4
71
3
72
30
73
26
40
0
40
0
40
0
40
0
40
0.0008413668595224
40
0.0008413668595224
40
0.0534286633405994
40
0.0534286633405994
40
0.158603256302756
40
0.158603256302756
40
0.263777849264911
40
0.263777849264911
40
0.368952442227068
40
0.368952442227068
40
0.474127035189223
40
0.474127035189223
40
0.526714331670301
40
0.526714331670301
40
0.579301628151379
40
0.579301628151379
40
0.78965081407569
40
0.78965081407569
40
0.842238110556767
40
0.842238110556767
40
0.894825407037846
40
0.894825407037846
40
1
40
1
40
1
40
1
41
1
10
20.0996158564571
20
-3.58689654614398
30
0
41
1
10
20.0962361177201
20
-3.58764223014509
30
0
41
1
10
20.09285664103
20
-3.58838586332698
30
0
41
1
10
19.8782697108655
20
-3.63547771302478
30
0
41
1
10
19.6680365257491
20
-3.67386241724714
30
0
41
1
10
19.0389830546759
20
-3.76515154547383
30
0
41
1
10
18.621799759323
20
-3.79421887572548
30
0
41
1
10
17.7852619314073
20
-3.78823931742093
30
0
41
1
10
17.3657822329609
20
-3.75318318316002
30
0
41
1
10
16.5178818383457
20
-3.61769126608658
30
0
41
1
10
16.0984484492915
20
-3.51871618092119
30
0
41
1
10
15.2617253281296
20
-3.26417041053287
30
0
41
1
10
14.8444413392372
20
-3.10859555093575
30
0
41
1
10
14.2151716921357
20
-2.83649421416544
30
0
41
1
10
14.004852884844
20
-2.73933586053741
30
0
41
1
10
13.5822226078835
20
-2.53269063683001
30
0
41
1
10
13.3699188230931
20
-2.42314996984388
30
0
41
1
10
12.3164245069646
20
-1.85478891399666
30
0
41
1
10
11.4869276318915
20
-1.32870234008675
30
0
41
1
10
10.4333674646725
20
-0.627108830664838
30
0
41
1
10
10.2211796842093
20
-0.484154716109799
30
0
41
1
10
9.79798354806903
20
-0.197564884364624
30
0
41
1
10
9.58698483654808
20
-0.0539742562287131
30
0
41
1
10
8.95444341783602
20
0.375706266608716
30
0
41
1
10
8.53319534771362
20
0.660473947378478
30
0
41
1
10
8.10950363951997
20
0.939271856229766
30
0
0
SPLINE
5
F5
100
AcDbEntity
8
1
62
256
6
ByLayer
370
18
48
1
60
0
100
AcDbSpline
70
4
71
3
72
19
73
15
40
0
40
0
40
0
40
0
40
0.125
40
0.125
40
0.25
40
0.25
40
0.5
40
0.5
40
0.625
40
0.625
40
0.75
40
0.875
40
0.875
40
1
40
1
40
1
40
1
41
1
10
8.00308467121917
20
1.11498772103584
30
0
41
1
10
8.00307474797427
20
1.23648202683725
30
0
41
1
10
8.00306434394838
20
1.35642136035972
30
0
41
1
10
8.00304306543612
20
1.59032156156522
30
0
41
1
10
8.0030322287509
20
1.70392290337324
30
0
41
1
10
8.00299950005808
20
2.03496978553389
30
0
41
1
10
8.0029773894945
20
2.242755470773
30
0
41
1
10
8.00294518240554
20
2.53443812245851
30
0
41
1
10
8.00293469198979
20
2.62752682387554
30
0
41
1
10
8.00291467167986
20
2.80314630209031
30
0
41
1
10
8.00289552182767
20
2.9690178500224
30
0
41
1
10
8.00287843956966
20
3.11559260935758
30
0
41
1
10
8.00286255281966
20
3.25232810049059
30
0
41
1
10
8.00285518092767
20
3.31601187412767
30
0
41
1
10
8.00284861994544
20
3.37339446271318
30
0
0
SPLINE
5
F6
100
AcDbEntity
8
1
62
256
6
ByLayer
370
18
48
1
60
0
100
AcDbSpline
70
4
71
3
72
10
73
6
40
0
40
0
40
0
40
0
40
0.5
40
0.5
40
1
40
1
40
1
40
1
41
1
10
88.6820818371845
20
0.978838310259675
30
0
41
1
10
88.8775124304483
20
0.982433964841249
30
0
41
1
10
89.0727673290484
20
0.98763174241958
30
0
41
1
10
89.4620421132857
20
1.00222078196109
30
0
41
1
10
89.6556095114302
20
1.01235460134208
30
0
41
1
10
89.8476467579562
20
1.0265487790046
30
0
0
SPLINE
5
F7
100
AcDbEntity
8
1
62
256
6
ByLayer
370
18
48
1
60
0
100
AcDbSpline
70
4
71
3
72
14
73
10
40
0
40
0
40
0
40
0
40
0.274537769803583
40
0.274537769803583
40
0.559032876099366
40
0.559032876099366
40
0.843527982395148
40
0.843527982395148
40
1
40
1
40
1
40
1
41
1
10
9.50561853795367
20
0.0012697851188364
30
0
41
1
10
9.91011562471007
20
-0.265516304483981
30
0
41
1
10
10.3126944401765
20
-0.531251735557305
30
0
41
1
10
11.1346183250325
20
-1.06096972237467
30
0
41
1
10
11.5539931577387
20
-1.32461133018239
30
0
41
1
10
12.4014946966328
20
-1.82993862588341
30
0
41
1
10
12.8213105304268
20
-2.0665723526532
30
0
41
1
10
13.4697044454645
20
-2.40226140535489
30
0
41
1
10
13.699414347135
20
-2.51535214054877
30
0
41
1
10
13.9292845871367
20
-2.62182728334631
30
0
0
SPLINE
5
F8
100
AcDbEntity
8
1
62
256
6
ByLayer
370
13
48
1
60
0
100
AcDbSpline
70
4
71
3
72
18
73
14
40
0
40
0
40
0
40
0
40
0.101649186947996
40
0.101649186947996
40
0.214592471404764
40
0.214592471404764
40
0.327535755861532
40
0.327535755861532
40
0.779308893688606
40
0.779308893688606
40
0.892252178145372
40
0.892252178145372
40
1
40
1
40
1
40
1
41
1
10
13.9292845871456
20
-2.62182728335043
30
0
41
1
10
14.1173610149514
20
-2.70894366913092
30
0
41
1
10
14.3055447775681
20
-2.79163139862081
30
0
41
1
10
14.7036552672343
20
-2.95616143462169
30
0
41
1
10
14.9136822768834
20
-3.03686898359112
30
0
41
1
10
15.3355422184466
20
-3.18556459686903
30
0
41
1
10
15.5479016831789
20
-3.25367126619946
30
0
41
1
10
16.6022642052895
20
-3.55613299281271
30
0
41
1
10
17.4315198792039
20
-3.68043887353079
30
0
41
1
10
18.4821781567108
20
-3.67908517623346
30
0
41
1
10
18.6932773178354
20
-3.67093177180294
30
0
41
1
10
19.1070251189291
20
-3.639435826464
30
0
41
1
10
19.3080296974671
20
-3.61693960526401
30
0
41
1
10
19.5084061703386
20
-3.58756697940555
30
0
0
SPLINE
5
F9
100
AcDbEntity
8
1
62
256
6
ByLayer
370
18
48
1
60
0
100
AcDbSpline
70
4
71
3
72
18
73
14
40
0
40
0
40
0
40
0
40
0.254850935800128
40
0.254850935800128
40
0.365080515260171
40
0.365080515260171
40
0.475310094720213
40
0.475310094720213
40
0.585539674180256
40
0.585539674180256
40
0.695769253640299
40
0.695769253640299
40
1
40
1
40
1
40
1
41
1
10
44.506753796821
20
-7.11215245133E-05
30
0
41
1
10
44.9891552642482
20
-0.320079397654325
30
0
41
1
10
45.4713411886093
20
-0.639977446240266
30
0
41
1
10
46.1687133886022
20
-1.08745941812461
30
0
41
1
10
46.3806668002704
20
-1.22131172048034
30
0
41
1
10
46.8026910433356
20
-1.48210627068877
30
0
41
1
10
47.0132174356371
20
-1.6093289006775
30
0
41
1
10
47.4341854153146
20
-1.85625179934803
30
0
41
1
10
47.6446360062298
20
-1.97596095359356
30
0
41
1
10
48.0661233631969
20
-2.20697914398332
30
0
41
1
10
48.2778307357584
20
-2.31848229262729
30
0
41
1
10
49.0711765922206
20
-2.71654789912341
30
0
41
1
10
49.6449264489462
20
-2.96484344377868
30
0
41
1
10
50.2185106259583
20
-3.16276762295865
30
0
0
SPLINE
5
FA
100
AcDbEntity
8
1
62
256
6
ByLayer
370
13
48
1
60
0
100
AcDbSpline
70
4
71
3
72
16
73
12
40
0
40
0
40
0
40
0
40
0.181875462246091
40
0.181875462246091
40
0.328546117738838
40
0.328546117738838
40
0.475216773231584
40
0.475216773231584
40
0.76855808421708
40
0.76855808421708
40
1
40
1
40
1
40
1
41
1
10
50.2185106255443
20
-3.16276762281581
30
0
41
1
10
50.4762157693391
20
-3.25169280783041
30
0
41
1
10
50.7338874689047
20
-3.33044999200021
30
0
41
1
10
51.2006756484606
20
-3.45329177505087
30
0
41
1
10
51.4095176557543
20
-3.5011161018962
30
0
41
1
10
51.8289554728514
20
-3.5821398114071
30
0
41
1
10
52.0401450930238
20
-3.61536767904141
30
0
41
1
10
52.6738013269086
20
-3.69129095161773
30
0
41
1
10
53.0918432161001
20
-3.71009091219861
30
0
41
1
10
53.8384864059995
20
-3.68807498107728
30
0
41
1
10
54.1670693494295
20
-3.65902490688344
30
0
41
1
10
54.4967092656463
20
-3.61086454023968
30
0
0
SPLINE
5
FB
100
AcDbEntity
8
1
62
256
6
ByLayer
370
18
48
1
60
0
100
AcDbSpline
70
4
71
3
72
18
73
14
40
0
40
0
40
0
40
0
40
0.0753976501446546
40
0.0753976501446546
40
0.321892486331895
40
0.321892486331895
40
0.568387322519134
40
0.568387322519134
40
0.691634740612755
40
0.691634740612755
40
0.814882158706374
40
0.814882158706374
40
1
40
1
40
1
40
1
41
1
10
79.501841730235
20
0.0033440242520157
30
0
41
1
10
79.6308410085096
20
-0.0827715559007345
30
0
41
1
10
79.7598233572733
20
-0.168906736639428
30
0
41
1
10
80.3079339050754
20
-0.534114188883223
30
0
41
1
10
80.724484444179
20
-0.809079043202502
30
0
41
1
10
81.5570823839191
20
-1.34131761755964
30
0
41
1
10
81.9731703865796
20
-1.59853915298402
30
0
41
1
10
82.6020449977307
20
-1.96357842385413
30
0
41
1
10
82.8131048355971
20
-2.08207514923265
30
0
41
1
10
83.2346335409117
20
-2.30947094376924
30
0
41
1
10
83.4443224896222
20
-2.41792396046378
30
0
41
1
10
83.9673846773961
20
-2.67516880382621
30
0
41
1
10
84.2799977454763
20
-2.81693953813914
30
0
41
1
10
84.5925712019636
20
-2.9447704688946
30
0
0
SPLINE
5
FC
100
AcDbEntity
8
1
62
256
6
ByLayer
370
13
48
1
60
0
100
AcDbSpline
70
4
71
3
72
14
73
10
40
0
40
0
40
0
40
0
40
0.38442594919879
40
0.38442594919879
40
0.538319461899094
40
0.538319461899094
40
0.692212974599399
40
0.692212974599399
40
1
40
1
40
1
40
1
41
1
10
84.5925702756981
20
-2.94477009008637
30
0
41
1
10
85.1124154667596
20
-3.15736750532545
30
0
41
1
10
85.6321510905561
20
-3.33140816474796
30
0
41
1
10
86.368503218706
20
-3.51287537455525
30
0
41
1
10
86.5798323670645
20
-3.55747912873673
30
0
41
1
10
87.0000132783965
20
-3.63083246537923
30
0
41
1
10
87.2095333971941
20
-3.6597586687158
30
0
41
1
10
87.837700552129
20
-3.72310869477911
30
0
41
1
10
88.2559194524688
20
-3.7340554170782
30
0
41
1
10
88.6763281298624
20
-3.71304000722935
30
0
0
SPLINE
5
FD
100
AcDbEntity
8
1
62
256
6
ByLayer
370
18
48
1
60
0
100
AcDbSpline
70
4
71
3
72
18
73
14
40
0
40
0
40
0
40
0
40
0.124999999999989
40
0.124999999999989
40
0.249999999999979
40
0.249999999999979
40
0.374999999999969
40
0.374999999999969
40
0.499999999999958
40
0.499999999999958
40
0.749999999999979
40
0.749999999999979
40
1
40
1
40
1
40
1
41
1
10
89.5152870511763
20
-1.20744311974738
30
0
41
1
10
89.5115311438818
20
-1.22834929419702
30
0
41
1
10
89.5067724785318
20
-1.2505973642626
30
0
41
1
10
89.4953406026684
20
-1.29766867342306
30
0
41
1
10
89.488576798406
20
-1.32278845487917
30
0
41
1
10
89.4735609053079
20
-1.37405941691975
30
0
41
1
10
89.4653463200626
20
-1.40014062542011
30
0
41
1
10
89.4476062289577
20
-1.45314791202202
30
0
41
1
10
89.4380430131169
20
-1.48014648614304
30
0
41
1
10
89.4085494570858
20
-1.55943805682998
30
0
41
1
10
89.3871905542732
20
-1.61173643923092
30
0
41
1
10
89.3443738861658
20
-1.7087617656523
30
0
41
1
10
89.3225589875319
20
-1.75435803977823
30
0
41
1
10
89.3013030531095
20
-1.79535932257687
30
0
0
SPLINE
5
FE
100
AcDbEntity
8
1
62
256
6
ByLayer
370
18
48
1
60
0
100
AcDbSpline
70
4
71
3
72
16
73
12
40
0
40
0
40
0
40
0
40
0.25
40
0.25
40
0.5
40
0.5
40
0.75
40
0.75
40
0.875
40
0.875
40
1
40
1
40
1
40
1
41
1
10
8.24896013873936
20
-3.06812552078043
30
0
41
1
10
8.22508595080652
20
-3.08288236794817
30
0
41
1
10
8.20126517292923
20
-3.09987895429165
30
0
41
1
10
8.15377054403837
20
-3.13905595707615
30
0
41
1
10
8.12985749372271
20
-3.16141054927456
30
0
41
1
10
8.08329872339874
20
-3.21313438009005
30
0
41
1
10
8.06070306840942
20
-3.24254938392235
30
0
41
1
10
8.03263579350187
20
-3.29049206443187
30
0
41
1
10
8.02408978352906
20
-3.30750277552218
30
0
41
1
10
8.01065096924046
20
-3.34103698510714
30
0
41
1
10
8.00563999302275
20
-3.35792823622884
30
0
41
1
10
8.00284861994157
20
-3.37339446273484
30
0
0
SPLINE
5
FF
100
AcDbEntity
8
1
62
256
6
ByLayer
370
18
48
1
60
0
100
AcDbSpline
70
4
71
3
72
16
73
12
40
0
40
0
40
0
40
0
40
0.125
40
0.125
40
0.25
40
0.25
40
0.5
40
0.5
40
0.75
40
0.75
40
1
40
1
40
1
40
1
41
1
10
8.00284861994544
20
3.37339446271324
30
0
41
1
10
8.00563233301045
20
3.35797067824871
30
0
41
1
10
8.01058558764231
20
3.34124409259545
30
0
41
1
10
8.02394421167509
20
3.30782275320385
30
0
41
1
10
8.03239121162798
20
3.29094014160037
30
0
41
1
10
8.06065314729915
20
3.24257491690008
30
0
41
1
10
8.08303860049486
20
3.21346995023009
30
0
41
1
10
8.12937165886163
20
3.16190443434772
30
0
41
1
10
8.15301941096283
20
3.1397161101219
30
0
41
1
10
8.20097561608708
20
3.10007810801238
30
0
41
1
10
8.22511074446717
20
3.08286704276873
30
0
41
1
10
8.24896013874184
20
3.06812552078102
30
0
0
SPLINE
5
100
100
AcDbEntity
8
1
62
256
6
ByLayer
370
18
48
1
60
0
100
AcDbSpline
70
4
71
3
72
29
73
25
40
0
40
0
40
0
40
0
40
0.0007207535281424
40
0.0007207535281424
40
0.145239617275912
40
0.145239617275912
40
0.289758481023681
40
0.289758481023681
40
0.43427734477145
40
0.43427734477145
40
0.506536776645335
40
0.524601634613806
40
0.524601634613806
40
0.542666492582278
40
0.542666492582278
40
0.551698921566513
40
0.551698921566513
40
0.560731350550749
40
0.560731350550749
40
0.57879620851922
40
0.57879620851922
40
0.867833936014759
40
0.867833936014759
40
1
40
1
40
1
40
1
41
1
10
8.43498597003116
20
0.188448187578871
30
0
41
1
10
8.43498597003116
20
0.188079417664937
30
0
41
1
10
8.43498597003116
20
0.187710501726997
30
0
41
1
10
8.43498597003116
20
0.113340538411421
30
0
41
1
10
8.43498597003116
20
0.0334379530164597
30
0
41
1
10
8.43498597003116
20
-0.137974051176315
30
0
41
1
10
8.43498597003116
20
-0.229433131679315
30
0
41
1
10
8.43498597003116
20
-0.422829055763941
30
0
41
1
10
8.43498597003116
20
-0.524870253144485
30
0
41
1
10
8.43498597003116
20
-0.685851513651357
30
0
41
1
10
8.43498597003116
20
-0.754578350106726
30
0
41
1
10
8.43498597003182
20
-0.825367360084499
30
0
41
1
10
8.43498597003182
20
-0.853848059050364
30
0
41
1
10
8.43498597003116
20
-0.867869478075903
30
0
41
1
10
8.43498597003116
20
-0.894719892257427
30
0
41
1
10
8.43498597003205
20
-0.904433451114016
30
0
41
1
10
8.43498597003205
20
-0.926125306283467
30
0
41
1
10
8.43498597003122
20
-0.938783991755059
30
0
41
1
10
8.43498597003122
20
-0.977677689250328
30
0
41
1
10
8.43498597003116
20
-1.00368522197525
30
0
41
1
10
8.43498597003116
20
-1.44715892005604
30
0
41
1
10
8.43498597003116
20
-1.87921591452408
30
0
41
1
10
8.43498597003116
20
-2.53119964905977
30
0
41
1
10
8.43498597003116
20
-2.73902405378274
30
0
41
1
10
8.43498597003116
20
-2.9502933973271
30
0
0
SPLINE
5
101
100
AcDbEntity
8
1
62
256
6
ByLayer
370
18
48
1
60
0
100
AcDbSpline
70
4
71
3
72
8
73
4
40
0
40
0
40
0
40
0
40
1
40
1
40
1
40
1
41
1
10
89.8476467579533
20
1.02654877900463
30
0
41
1
10
89.8956772291065
20
0.737811543194482
30
0
41
1
10
89.9381047470498
20
0.449114959929545
30
0
41
1
10
89.9748907386503
20
0.160459309079357
30
0
0
SPLINE
5
102
100
AcDbEntity
8
1
62
256
6
ByLayer
370
13
48
1
60
0
100
AcDbSpline
70
4
71
3
72
10
73
6
40
0
40
0
40
0
40
0
40
0.5
40
0.5
40
1
40
1
40
1
40
1
41
1
10
8.11172694385169
20
0.974523982314082
30
0
41
1
10
8.13249811840734
20
0.96319055988414
30
0
41
1
10
8.15519438933663
20
0.95205769468248
30
0
41
1
10
8.20184424470125
20
0.931203233184817
30
0
41
1
10
8.22571891028994
20
0.921482808047728
30
0
41
1
10
8.25012091932123
20
0.912407961206355
30
0
0
SPLINE
5
103
100
AcDbEntity
8
1
62
256
6
ByLayer
370
18
48
1
60
0
100
AcDbSpline
70
4
71
3
72
14
73
10
40
0
40
0
40
0
40
0
40
0.25
40
0.25
40
0.5
40
0.5
40
0.75
40
0.75
40
1
40
1
40
1
40
1
41
1
10
88.6933991072236
20
-3.62067737988033
30
0
41
1
10
88.6958436335192
20
-3.62001887361129
30
0
41
1
10
88.6976835809625
20
-3.62095083385123
30
0
41
1
10
88.6997198718149
20
-3.62711152620818
30
0
41
1
10
88.6998759167074
20
-3.63241293356688
30
0
41
1
10
88.6974582732018
20
-3.64872620403116
30
0
41
1
10
88.6948069509521
20
-3.65983035538153
30
0
41
1
10
88.6868632311554
20
-3.6855269273976
30
0
41
1
10
88.6817100691613
20
-3.69969458449583
30
0
41
1
10
88.6763281298797
20
-3.71304000722847
30
0
0
SPLINE
5
104
100
AcDbEntity
8
1
62
256
6
ByLayer
370
18
48
1
60
0
100
AcDbSpline
70
4
71
3
72
8
73
4
40
0
40
0
40
0
40
0
40
1
40
1
40
1
40
1
41
1
10
88.6763281298763
20
-3.71304000723703
30
0
41
1
10
88.6610099210829
20
-3.75102407973472
30
0
41
1
10
88.6456842956497
20
-3.78894477629737
30
0
41
1
10
88.6303559222008
20
-3.82679661900894
30
0
0
SPLINE
5
105
100
AcDbEntity
8
1
62
256
6
ByLayer
370
18
48
1
60
0
100
AcDbSpline
70
4
71
3
72
8
73
4
40
0
40
0
40
0
40
0
40
1
40
1
40
1
40
1
41
1
10
8.43498597003116
20
-2.95029339732332
30
0
41
1
10
8.37208184120874
20
-2.99102595258955
30
0
41
1
10
8.3100893144379
20
-3.03034103546918
30
0
41
1
10
8.24896013887093
20
-3.06812552070119
30
0
0
SPLINE
5
106
100
AcDbEntity
8
1
62
256
6
ByLayer
370
18
48
1
60
0
100
AcDbSpline
70
4
71
3
72
13
73
9
40
0
40
0
40
0
40
0
40
0.220148676327095
40
0.428904754577467
40
0.594984255374336
40
0.778339754056866
40
0.932547909838238
40
1
40
1
40
1
40
1
41
1
10
40.1145359651713
20
3.59259302244755
30
0
41
1
10
39.9288476900451
20
3.59217501960151
30
0
41
1
10
39.5668359983098
20
3.5916555691968
30
0
41
1
10
39.0622570425628
20
3.59210153757564
30
0
41
1
10
38.591252191743
20
3.59255103687994
30
0
41
1
10
38.164631815782
20
3.59175036756221
30
0
41
1
10
37.821779729965
20
3.59195772593441
30
0
41
1
10
37.6341244396917
20
3.59188692638989
30
0
41
1
10
37.5770199551973
20
3.59185819465418
30
0
0
SPLINE
5
107
100
AcDbEntity
8
1
62
256
6
ByLayer
370
18
48
1
60
0
100
AcDbSpline
70
4
71
3
72
13
73
9
40
0
40
0
40
0
40
0
40
0.230386293797682
40
0.438865240868904
40
0.599121154255978
40
0.78279582129517
40
0.940980767167097
40
1
40
1
40
1
40
1
41
1
10
22.6138406397095
20
3.58196205391829
30
0
41
1
10
22.4199709915129
20
3.58170305515782
30
0
41
1
10
22.0505033769916
20
3.58127298236195
30
0
41
1
10
21.5445297712345
20
3.58165107855635
30
0
41
1
10
21.0795788521446
20
3.58082158308343
30
0
41
1
10
20.6558524116473
20
3.58150019099844
30
0
41
1
10
20.3177121862297
20
3.5809825558166
30
0
41
1
10
20.1344920907199
20
3.58077818406696
30
0
41
1
10
20.0847074421441
20
3.58073414678353
30
0
0
SPLINE
5
108
100
AcDbEntity
8
1
62
256
6
ByLayer
370
18
48
1
60
0
100
AcDbSpline
70
4
71
1
72
4
73
2
40
0
40
0
40
1
40
1
41
1
10
88.4451589981845
20
-3.62439171815291
30
0
41
1
10
88.6691103609503
20
-3.62473256824896
30
0
0
SPLINE
5
109
100
AcDbEntity
8
1
62
256
6
ByLayer
370
18
48
1
60
0
100
AcDbSpline
70
4
71
3
72
17
73
13
40
0
40
0
40
0
40
0
40
0.148349068187484
40
0.261698548104383
40
0.340226710289178
40
0.388022763092204
40
0.430938711052985
40
0.473624814867353
40
0.539346480802282
40
0.648330218149066
40
0.816682642093535
40
1
40
1
40
1
40
1
41
1
10
53.4159899554662
20
-3.60243667409637
30
0
41
1
10
53.6224688773356
20
-3.60245168483999
30
0
41
1
10
53.986884750632
20
-3.60254852104734
30
0
41
1
10
54.4611879598197
20
-3.60250729466745
30
0
41
1
10
54.7953465318875
20
-3.60295330088874
30
0
41
1
10
55.030928883071
20
-3.60306095219374
30
0
41
1
10
55.2167356481501
20
-3.60306633866793
30
0
41
1
10
55.4276368526271
20
-3.60305087259937
30
0
41
1
10
55.7307016016321
20
-3.60321095702037
30
0
41
1
10
56.2088385953434
20
-3.60366445138246
30
0
41
1
10
56.8510308710759
20
-3.6027358224116
30
0
41
1
10
57.3411818966102
20
-3.60325145749704
30
0
41
1
10
57.5966797673498
20
-3.603614335423
30
0
0
SPLINE
5
10A
100
AcDbEntity
8
1
62
256
6
ByLayer
370
18
48
1
60
0
100
AcDbSpline
70
4
71
3
72
13
73
9
40
0
40
0
40
0
40
0
40
0.168659972109222
40
0.353910414727708
40
0.481928622325942
40
0.634534024077295
40
0.840760407475381
40
1
40
1
40
1
40
1
41
1
10
75.0954423179853
20
3.61542616221891
30
0
41
1
10
74.9537731929625
20
3.61532975353825
30
0
41
1
10
74.6564727205601
20
3.61509566891252
30
0
41
1
10
74.2514951438608
20
3.61538895995412
30
0
41
1
10
73.8600408662296
20
3.61444577420792
30
0
41
1
10
73.4509703185009
20
3.61473553637316
30
0
41
1
10
73.015690003449
20
3.61459784760314
30
0
41
1
10
72.7084552203057
20
3.61430806432537
30
0
41
1
10
72.5747049686113
20
3.61422411736479
30
0
0
SPLINE
5
10B
100
AcDbEntity
8
1
62
256
6
ByLayer
370
18
48
1
60
0
100
AcDbSpline
70
4
71
2
72
6
73
3
40
0
40
0
40
0
40
1
40
1
40
1
41
1
10
79.5064290340345
20
0.0002887454221536
30
0
41
1
10
79.5064184512075
20
0.0002964826896346
30
0
41
1
10
79.5064078683475
20
0.0003043992558958
30
0
0
SPLINE
5
10C
100
AcDbEntity
8
1
62
256
6
ByLayer
370
18
48
1
60
0
100
AcDbSpline
70
4
71
3
72
15
73
11
40
0
40
0
40
0
40
0
40
0.172724241518729
40
0.3633278997989
40
0.49592666701638
40
0.57687023378068
40
0.654138729704702
40
0.737572140898969
40
0.875753720698719
40
1
40
1
40
1
40
1
41
1
10
57.5929490159402
20
3.60364374659378
30
0
41
1
10
57.4493666148457
20
3.60357764756776
30
0
41
1
10
57.1473386356363
20
3.60347333896166
30
0
41
1
10
56.7350897051665
20
3.60284500997332
30
0
41
1
10
56.3991248077111
20
3.60321457621822
30
0
41
1
10
56.1573946681186
20
3.60347627794678
30
0
41
1
10
55.9565537201431
20
3.60350716518465
30
0
41
1
10
55.7081230270165
20
3.60320127964403
30
0
41
1
10
55.4206096543712
20
3.60302071429896
30
0
41
1
10
55.2024970422432
20
3.60305093009808
30
0
41
1
10
55.0992286381009
20
3.60305209729674
30
0
0
SPLINE
5
10D
100
AcDbEntity
8
1
62
256
6
ByLayer
370
18
48
1
60
0
100
AcDbSpline
70
4
71
3
72
17
73
13
40
0
40
0
40
0
40
0
40
0.147282618837589
40
0.252843800320095
40
0.318489686729048
40
0.380009043252208
40
0.450829227727422
40
0.529201593645372
40
0.640114030823438
40
0.740576151306066
40
0.866853495486302
40
1
40
1
40
1
40
1
41
1
10
35.9180631690666
20
-3.59151385104002
30
0
41
1
10
36.1241841838739
20
-3.59161595120895
30
0
41
1
10
36.478045695035
20
-3.59173801310035
30
0
41
1
10
36.9237882804921
20
-3.59160801664828
30
0
41
1
10
37.2495217123552
20
-3.59165598730206
30
0
41
1
10
37.5265887784007
20
-3.59184308245008
30
0
41
1
10
37.8215061760823
20
-3.59196405968916
30
0
41
1
10
38.1855045180936
20
-3.59178118317862
30
0
41
1
10
38.5912534286476
20
-3.59255331224509
30
0
41
1
10
39.0622566239236
20
-3.59210078597172
30
0
41
1
10
39.5668049607671
20
-3.59165582458735
30
0
41
1
10
39.9287854597991
20
-3.59217498170759
30
0
41
1
10
40.1144427074169
20
-3.59259290044344
30
0
0
SPLINE
5
10E
100
AcDbEntity
8
1
62
256
6
ByLayer
370
18
48
1
60
0
100
AcDbSpline
70
4
71
3
72
16
73
12
40
0
40
0
40
0
40
0
40
0.1554430106584
40
0.268659975023556
40
0.366673673433866
40
0.493154413724805
40
0.617490202133225
40
0.709497406209629
40
0.786680764178724
40
0.898369964441438
40
1
40
1
40
1
40
1
41
1
10
70.9151554468576
20
-3.61353559650252
30
0
41
1
10
71.1316419996897
20
-3.6136035875644
30
0
41
1
10
71.5057879366396
20
-3.61372102597974
30
0
41
1
10
72.0172236456825
20
-3.614152520251
30
0
41
1
10
72.4867939875285
20
-3.61408347016092
30
0
41
1
10
72.9732228653781
20
-3.61458441410517
30
0
41
1
10
73.4509703182802
20
-3.61473553703567
30
0
41
1
10
73.8600408666443
20
-3.61444577255591
30
0
41
1
10
74.2514951421808
20
-3.61538896601729
30
0
41
1
10
74.6563938174174
20
-3.61509569299022
30
0
41
1
10
74.9536154044812
20
-3.61532969312131
30
0
41
1
10
75.0952056557252
20
-3.61542604115186
30
0
0
SPLINE
5
10F
100
AcDbEntity
8
1
62
256
6
ByLayer
370
18
48
1
60
0
100
AcDbSpline
70
4
71
3
72
17
73
13
40
0
40
0
40
0
40
0
40
0.145555272319781
40
0.249731554600406
40
0.314335194781422
40
0.376001103980271
40
0.447990325314005
40
0.528119258597178
40
0.638840302076073
40
0.73544427168619
40
0.861117599071121
40
1
40
1
40
1
40
1
41
1
10
18.4173077118073
20
-3.58035984983869
30
0
41
1
10
18.6209947429445
20
-3.5804107746911
30
0
41
1
10
18.9704649563978
20
-3.5804791455696
30
0
41
1
10
19.4103222159889
20
-3.5807816870753
30
0
41
1
10
19.7328164158873
20
-3.58067728459835
30
0
41
1
10
20.0102067056304
20
-3.58056341610521
30
0
41
1
10
20.3093809850279
20
-3.58105290789337
30
0
41
1
10
20.6771647206131
20
-3.58144004874742
30
0
41
1
10
21.0795797966099
20
-3.58082830678086
30
0
41
1
10
21.544529451725
20
-3.58164879863998
30
0
41
1
10
22.050507817838
20
-3.58127378517844
30
0
41
1
10
22.4199796364632
20
-3.58170305995157
30
0
41
1
10
22.6138535990277
20
-3.5819620653993
30
0
0
SPLINE
5
110
100
AcDbEntity
8
1
62
256
6
ByLayer
370
18
48
1
60
0
100
AcDbSpline
70
4
71
1
72
4
73
2
40
0
40
0
40
1
40
1
41
1
10
27.0072386936298
20
-0.0002719146972368
30
0
41
1
10
27.0072286976021
20
-0.0002632758275922
30
0
0
LINE
5
7B
100
AcDbEntity
8
SK1
62
256
6
ByLayer
370
18
48
1
60
0
100
AcDbLine
10
-35.4
20
-2.79685
30
0
11
-35.4
21
-1.880685
31
0
39
0
210
0
220
0
230
1
0
LINE
5
7D
100
AcDbEntity
8
SK1
62
256
6
ByLayer
370
18
48
1
60
0
100
AcDbLine
10
-34.76
20
4
30
0
11
-34.76
21
-4
31
0
39
0
210
0
220
0
230
1
0
LINE
5
7E
100
AcDbEntity
8
SK1
62
256
6
ByLayer
370
13
48
1
60
0
100
AcDbLine
10
-35.5
20
-1.72219
30
0
11
-35.5
21
-2.779369
31
0
39
0
210
0
220
0
230
1
0
LINE
5
7F
100
AcDbEntity
8
SK1
62
256
6
ByLayer
370
18
48
1
60
0
100
AcDbLine
10
0
20
-4
30
0
11
0
21
4
31
0
39
0
210
0
220
0
230
1
0
LINE
5
80
100
AcDbEntity
8
SK1
62
256
6
ByLayer
370
18
48
1
60
0
100
AcDbLine
10
-36
20
2.76
30
0
11
-36
21
-1.355881
31
0
39
0
210
0
220
0
230
1
0
LINE
5
81
100
AcDbEntity
8
SK1
62
256
6
ByLayer
370
18
48
1
60
0
100
AcDbLine
10
-36
20
-2.76
30
0
11
-36
21
-2.412994
31
0
39
0
210
0
220
0
230
1
0
LINE
5
82
100
AcDbEntity
8
SK1
62
256
6
ByLayer
370
18
48
1
60
0
100
AcDbLine
10
-36
20
-1.355825
30
0
11
-36
21
-2.412994
31
0
39
0
210
0
220
0
230
1
0
LINE
5
83
100
AcDbEntity
8
1
62
256
6
ByLayer
370
13
48
1
60
0
100
AcDbLine
10
0.809285
20
3.780532
30
0
11
0.809285
21
-3.780532
31
0
39
0
210
0
220
0
230
1
0
LINE
5
84
100
AcDbEntity
8
1
62
256
6
ByLayer
370
13
48
1
60
0
100
AcDbLine
10
0.404392
20
3.890266
30
0
11
0.404392
21
-3.890266
31
0
39
0
210
0
220
0
230
1
0
LINE
5
85
100
AcDbEntity
8
1
62
256
6
ByLayer
370
18
48
1
60
0
100
AcDbLine
10
0
20
-4
30
0
11
0
21
4
31
0
39
0
210
0
220
0
230
1
0
LINE
5
86
100
AcDbEntity
8
1
62
256
6
ByLayer
370
18
48
1
60
0
100
AcDbLine
10
88.062822
20
-2.64944
30
0
11
89.896115
21
-0.161127
31
0
39
0
210
0
220
0
230
1
0
LINE
5
87
100
AcDbEntity
8
1
62
256
6
ByLayer
370
13
48
1
60
0
100
AcDbLine
10
88.582744
20
0.859909
30
0
11
89.971869
21
-0.019441
31
0
39
0
210
0
220
0
230
1
0
LINE
5
88
100
AcDbEntity
8
1
62
256
6
ByLayer
370
13
48
1
60
0
100
AcDbLine
10
88.682082
20
0.978838
30
0
11
89.974891
21
0.160459
31
0
39
0
210
0
220
0
230
1
0
LINE
5
89
100
AcDbEntity
8
80
62
256
6
ByLayer
370
18
48
1
60
0
100
AcDbLine
10
0
20
0
30
0
11
-5
21
0
31
0
39
0
210
0
220
0
230
1
0
LINE
5
8A
100
AcDbEntity
8
4
62
256
6
ByLayer
370
18
48
0.05
60
0
100
AcDbLine
10
90
20
0
30
0
11
0
21
0
31
0
39
0
210
0
220
0
230
1
0
LINE
5
8C
100
AcDbEntity
8
SK4
62
256
6
ByLayer
370
18
48
0.05
60
0
100
AcDbLine
10
95
20
0
30
0
11
-41
21
0
31
0
39
0
210
0
220
0
230
1
0
LINE
5
8E
100
AcDbEntity
8
SK1
62
256
6
ByLayer
370
18
48
1
60
0
100
AcDbLine
10
-34.76
20
-4
30
0
11
0
21
-4
31
0
39
0
210
0
220
0
230
1
0
LINE
5
8F
100
AcDbEntity
8
SK1
62
256
6
ByLayer
370
18
48
1
60
0
100
AcDbLine
10
0
20
4
30
0
11
-34.76
21
4
31
0
39
0
210
0
220
0
230
1
0
LINE
5
90
100
AcDbEntity
8
SK1
62
256
6
ByLayer
370
18
48
1
60
0
100
AcDbLine
10
-36
20
-2.76
30
0
11
-34.76
21
-4
31
0
39
0
210
0
220
0
230
1
0
LINE
5
91
100
AcDbEntity
8
SK1
62
256
6
ByLayer
370
18
48
1
60
0
100
AcDbLine
10
-34.76
20
4
30
0
11
-36
21
2.76
31
0
39
0
210
0
220
0
230
1
0
LINE
5
92
100
AcDbEntity
8
1
62
256
6
ByLayer
370
18
48
1
60
0
100
AcDbLine
10
0.809285
20
-3.780532
30
0
11
6.869649
21
-3.784319
31
0
39
0
210
0
220
0
230
1
0
LINE
5
93
100
AcDbEntity
8
1
62
256
6
ByLayer
370
18
48
1
60
0
100
AcDbLine
10
17.462121
20
-3.79094
30
0
11
18.256867
21
-3.791436
31
0
39
0
210
0
220
0
230
1
0
LINE
5
94
100
AcDbEntity
8
1
62
256
6
ByLayer
370
18
48
1
60
0
100
AcDbLine
10
34.965281
20
-3.801879
30
0
11
35.757057
21
-3.802374
31
0
39
0
210
0
220
0
230
1
0
LINE
5
95
100
AcDbEntity
8
1
62
256
6
ByLayer
370
18
48
1
60
0
100
AcDbLine
10
52.468231
20
-3.812819
30
0
11
53.256506
21
-3.813311
31
0
39
0
210
0
220
0
230
1
0
LINE
5
96
100
AcDbEntity
8
1
62
256
6
ByLayer
370
18
48
1
60
0
100
AcDbLine
10
69.971142
20
-3.823758
30
0
11
70.756739
21
-3.824249
31
0
39
0
210
0
220
0
230
1
0
LINE
5
97
100
AcDbEntity
8
1
62
256
6
ByLayer
370
18
48
1
60
0
100
AcDbLine
10
87.474151
20
-3.834697
30
0
11
88.25738
21
-3.835187
31
0
39
0
210
0
220
0
230
1
0
LINE
5
98
100
AcDbEntity
8
1
62
256
6
ByLayer
370
18
48
1
60
0
100
AcDbLine
10
88.257089
20
3.835187
30
0
11
87.474151
21
3.834697
31
0
39
0
210
0
220
0
230
1
0
LINE
5
99
100
AcDbEntity
8
1
62
256
6
ByLayer
370
18
48
1
60
0
100
AcDbLine
10
70.756476
20
3.824249
30
0
11
69.971142
21
3.823758
31
0
39
0
210
0
220
0
230
1
0
LINE
5
9A
100
AcDbEntity
8
1
62
256
6
ByLayer
370
18
48
1
60
0
100
AcDbLine
10
53.256744
20
3.813311
30
0
11
52.468231
21
3.812819
31
0
39
0
210
0
220
0
230
1
0
LINE
5
9B
100
AcDbEntity
8
1
62
256
6
ByLayer
370
18
48
1
60
0
100
AcDbLine
10
35.756979
20
3.802374
30
0
11
34.965281
21
3.801879
31
0
39
0
210
0
220
0
230
1
0
LINE
5
9C
100
AcDbEntity
8
1
62
256
6
ByLayer
370
18
48
1
60
0
100
AcDbLine
10
18.256714
20
3.791436
30
0
11
17.462121
21
3.79094
31
0
39
0
210
0
220
0
230
1
0
LINE
5
9D
100
AcDbEntity
8
1
62
256
6
ByLayer
370
18
48
1
60
0
100
AcDbLine
10
6.869649
20
3.784319
30
0
11
0.809285
21
3.780532
31
0
39
0
210
0
220
0
230
1
0
LINE
5
9E
100
AcDbEntity
8
81
62
256
6
ByLayer
370
18
48
1
60
0
100
AcDbLine
10
90
20
0
30
0
11
95
21
0
31
0
39
0
210
0
220
0
230
1
0
LINE
5
9F
100
AcDbEntity
8
SK2
62
256
6
ByLayer
370
13
48
1
60
0
100
AcDbLine
10
-44.625163
20
-4
30
0
11
-44.625163
21
33.117107
31
0
39
0
210
0
220
0
230
1
0
LINE
5
A1
100
AcDbEntity
8
SK2
62
256
6
ByLayer
370
13
48
1
60
0
100
AcDbLine
10
-37.5875
20
4
30
0
11
-46.625163
21
4
31
0
39
0
210
0
220
0
230
1
0
LINE
5
A2
100
AcDbEntity
8
SK2
62
256
6
ByLayer
370
13
48
1
60
0
100
AcDbLine
10
-37.5875
20
-4
30
0
11
-46.625163
21
-4
31
0
39
0
210
0
220
0
230
1
0
LINE
5
A3
100
AcDbEntity
8
1
62
256
6
ByLayer
370
18
48
1
60
1
100
AcDbLine
10
-44.625163
20
4
30
0
11
-44.164379
21
0.500002
31
0
39
0
210
0
220
0
230
1
0
LINE
5
A4
100
AcDbEntity
8
1
62
256
6
ByLayer
370
18
48
1
60
1
100
AcDbLine
10
-44.164379
20
0.500002
30
0
11
-45.085946
21
0.499998
31
0
39
0
210
0
220
0
230
1
0
LINE
5
A5
100
AcDbEntity
8
1
62
256
6
ByLayer
370
18
48
1
60
1
100
AcDbLine
10
-45.085946
20
0.499998
30
0
11
-44.625163
21
4
31
0
39
0
210
0
220
0
230
1
0
LINE
5
A6
100
AcDbEntity
8
1
62
256
6
ByLayer
370
18
48
1
60
1
100
AcDbLine
10
-44.625163
20
-4
30
0
11
-45.085946
21
-0.500002
31
0
39
0
210
0
220
0
230
1
0
LINE
5
A7
100
AcDbEntity
8
1
62
256
6
ByLayer
370
18
48
1
60
1
100
AcDbLine
10
-45.085946
20
-0.500002
30
0
11
-44.164379
21
-0.499998
31
0
39
0
210
0
220
0
230
1
0
LINE
5
A8
100
AcDbEntity
8
1
62
256
6
ByLayer
370
18
48
1
60
1
100
AcDbLine
10
-44.164379
20
-0.499998
30
0
11
-44.625163
21
-4
31
0
39
0
210
0
220
0
230
1
0
LINE
5
A9
100
AcDbEntity
8
2
62
256
6
ByLayer
370
13
48
1
60
0
100
AcDbLine
10
102.083343
20
-3.8355
30
0
11
102.083343
21
30.670827
31
0
39
0
210
0
220
0
230
1
0
LINE
5
AB
100
AcDbEntity
8
2
62
256
6
ByLayer
370
13
48
1
60
0
100
AcDbLine
10
90.4546
20
3.8355
30
0
11
104.083343
21
3.8355
31
0
39
0
210
0
220
0
230
1
0
LINE
5
AC
100
AcDbEntity
8
2
62
256
6
ByLayer
370
13
48
1
60
0
100
AcDbLine
10
90.4546
20
-3.8355
30
0
11
104.083343
21
-3.8355
31
0
39
0
210
0
220
0
230
1
0
LINE
5
AD
100
AcDbEntity
8
1
62
256
6
ByLayer
370
18
48
1
60
1
100
AcDbLine
10
102.083343
20
3.8355
30
0
11
102.544126
21
0.335502
31
0
39
0
210
0
220
0
230
1
0
LINE
5
AE
100
AcDbEntity
8
1
62
256
6
ByLayer
370
18
48
1
60
1
100
AcDbLine
10
102.544126
20
0.335502
30
0
11
101.622559
21
0.335498
31
0
39
0
210
0
220
0
230
1
0
LINE
5
AF
100
AcDbEntity
8
1
62
256
6
ByLayer
370
18
48
1
60
1
100
AcDbLine
10
101.622559
20
0.335498
30
0
11
102.083343
21
3.8355
31
0
39
0
210
0
220
0
230
1
0
LINE
5
B0
100
AcDbEntity
8
1
62
256
6
ByLayer
370
18
48
1
60
1
100
AcDbLine
10
102.083343
20
-3.8355
30
0
11
101.622559
21
-0.335502
31
0
39
0
210
0
220
0
230
1
0
LINE
5
B1
100
AcDbEntity
8
1
62
256
6
ByLayer
370
18
48
1
60
1
100
AcDbLine
10
101.622559
20
-0.335502
30
0
11
102.544126
21
-0.335498
31
0
39
0
210
0
220
0
230
1
0
LINE
5
B2
100
AcDbEntity
8
1
62
256
6
ByLayer
370
18
48
1
60
1
100
AcDbLine
10
102.544126
20
-0.335498
30
0
11
102.083343
21
-3.8355
31
0
39
0
210
0
220
0
230
1
0
LINE
5
117
100
AcDbEntity
8
1
62
256
6
ByLayer
370
18
48
1
60
1
100
AcDbLine
10
-44.625163
20
4
30
0
11
-44.164379
21
0.500002
31
0
39
0
210
0
220
0
230
1
0
LINE
5
118
100
AcDbEntity
8
1
62
256
6
ByLayer
370
18
48
1
60
1
100
AcDbLine
10
-44.164379
20
0.500002
30
0
11
-45.085946
21
0.499998
31
0
39
0
210
0
220
0
230
1
0
LINE
5
119
100
AcDbEntity
8
1
62
256
6
ByLayer
370
18
48
1
60
1
100
AcDbLine
10
-45.085946
20
0.499998
30
0
11
-44.625163
21
4
31
0
39
0
210
0
220
0
230
1
0
LINE
5
11B
100
AcDbEntity
8
1
62
256
6
ByLayer
370
18
48
1
60
1
100
AcDbLine
10
-44.625163
20
-4
30
0
11
-45.085946
21
-0.500002
31
0
39
0
210
0
220
0
230
1
0
LINE
5
11C
100
AcDbEntity
8
1
62
256
6
ByLayer
370
18
48
1
60
1
100
AcDbLine
10
-45.085946
20
-0.500002
30
0
11
-44.164379
21
-0.499998
31
0
39
0
210
0
220
0
230
1
0
LINE
5
11D
100
AcDbEntity
8
1
62
256
6
ByLayer
370
18
48
1
60
1
100
AcDbLine
10
-44.164379
20
-0.499998
30
0
11
-44.625163
21
-4
31
0
39
0
210
0
220
0
230
1
0
LINE
5
121
100
AcDbEntity
8
1
62
256
6
ByLayer
370
18
48
1
60
1
100
AcDbLine
10
102.083343
20
3.8355
30
0
11
102.544126
21
0.335502
31
0
39
0
210
0
220
0
230
1
0
LINE
5
122
100
AcDbEntity
8
1
62
256
6
ByLayer
370
18
48
1
60
1
100
AcDbLine
10
102.544126
20
0.335502
30
0
11
101.622559
21
0.335498
31
0
39
0
210
0
220
0
230
1
0
LINE
5
123
100
AcDbEntity
8
1
62
256
6
ByLayer
370
18
48
1
60
1
100
AcDbLine
10
101.622559
20
0.335498
30
0
11
102.083343
21
3.8355
31
0
39
0
210
0
220
0
230
1
0
LINE
5
125
100
AcDbEntity
8
1
62
256
6
ByLayer
370
18
48
1
60
1
100
AcDbLine
10
102.083343
20
-3.8355
30
0
11
101.622559
21
-0.335502
31
0
39
0
210
0
220
0
230
1
0
LINE
5
126
100
AcDbEntity
8
1
62
256
6
ByLayer
370
18
48
1
60
1
100
AcDbLine
10
101.622559
20
-0.335502
30
0
11
102.544126
21
-0.335498
31
0
39
0
210
0
220
0
230
1
0
LINE
5
127
100
AcDbEntity
8
1
62
256
6
ByLayer
370
18
48
1
60
1
100
AcDbLine
10
102.544126
20
-0.335498
30
0
11
102.083343
21
-3.8355
31
0
39
0
210
0
220
0
230
1
0
MTEXT
5
111
100
AcDbEntity
8
SK6
62
256
6
ByLayer
370
13
48
1
60
0
100
AcDbMText
10
-2.145193
20
36.375828
30
0
210
0
220
0
230
1
1
\W0.7670;462.1-0767-057A1-XM X2BM
40
3.5
41
0
44
1.084337
50
0
71
7
72
5
7
iso_b_vert
0
MTEXT
5
115
100
AcDbEntity
8
SK2
62
256
6
ByLayer
370
18
48
1
60
0
100
AcDbMText
10
-46.189796
20
17.409024
30
0
210
0
220
0
230
1
1
%%c
40
3.5
41
0
44
1.084337
50
90
71
7
72
5
7
iso_b_vert
0
MTEXT
5
116
100
AcDbEntity
8
SK2
62
256
6
ByLayer
370
18
48
1
60
0
100
AcDbMText
10
-46.189796
20
22.63168
30
0
210
0
220
0
230
1
1
\W0.7317;8,000
40
3.5
41
0
44
1.084337
50
90
71
7
72
5
7
iso_b_vert
0
MTEXT
5
11F
100
AcDbEntity
8
2
62
256
6
ByLayer
370
18
48
1
60
0
100
AcDbMText
10
100.518709
20
15.83761
30
0
210
0
220
0
230
1
1
%%c
40
3.5
41
0
44
1.084337
50
90
71
7
72
5
7
iso_b_vert
0
MTEXT
5
120
100
AcDbEntity
8
2
62
256
6
ByLayer
370
18
48
1
60
0
100
AcDbMText
10
100.518709
20
21.060266
30
0
210
0
220
0
230
1
1
\W0.7211;7,671
40
3.5
41
0
44
1.084337
50
90
71
7
72
5
7
iso_b_vert
0
HATCH
5
11A
100
AcDbEntity
8
SK2
62
256
6
ByLayer
370
13
48
1
60
0
100
AcDbHatch
10
0
20
0
30
0
210
0
220
0
230
1
2
ANSI31
70
0
71
0
91
1
92
5
93
3
72
1
10
-44.6251625675374
20
4
11
-44.1643788259847
21
0.500001692553184
72
1
10
-44.1643788259847
20
0.500001692553184
11
-45.0859463090902
21
0.499998307446816
72
1
10
-45.0859463090902
20
0.499998307446816
11
-44.6251625675374
21
4
97
0
75
0
76
1
52
0
41
0.0062
77
0
78
1
53
45
43
0
44
0
45
-0.0139193969876572
46
0.0139193969876572
79
0
47
0
98
1
10
0
20
0
0
HATCH
5
11E
100
AcDbEntity
8
SK2
62
256
6
ByLayer
370
13
48
1
60
0
100
AcDbHatch
10
0
20
0
30
0
210
0
220
0
230
1
2
ANSI31
70
0
71
0
91
1
92
5
93
3
72
1
10
-44.6251625675374
20
-4
11
-45.0859463090902
21
-0.500001692553184
72
1
10
-45.0859463090902
20
-0.500001692553184
11
-44.1643788259847
21
-0.499998307446816
72
1
10
-44.1643788259847
20
-0.499998307446816
11
-44.6251625675374
21
-4
97
0
75
0
76
1
52
0
41
0.0062
77
0
78
1
53
45
43
0
44
0
45
-0.0139193969876572
46
0.0139193969876572
79
0
47
0
98
1
10
0
20
0
0
HATCH
5
124
100
AcDbEntity
8
2
62
256
6
ByLayer
370
13
48
1
60
0
100
AcDbHatch
10
0
20
0
30
0
210
0
220
0
230
1
2
ANSI31
70
0
71
0
91
1
92
5
93
3
72
1
10
102.083342615295
20
3.83550000000003
11
102.544126356848
21
0.335501692553208
72
1
10
102.544126356848
20
0.335501692553208
11
101.622558873742
21
0.335498307446841
72
1
10
101.622558873742
20
0.335498307446841
11
102.083342615295
21
3.83550000000003
97
0
75
0
76
1
52
0
41
0.0062
77
0
78
1
53
45
43
0
44
0
45
-0.0139193969876572
46
0.0139193969876572
79
0
47
0
98
1
10
0
20
0
0
HATCH
5
128
100
AcDbEntity
8
2
62
256
6
ByLayer
370
13
48
1
60
0
100
AcDbHatch
10
0
20
0
30
0
210
0
220
0
230
1
2
ANSI31
70
0
71
0
91
1
92
5
93
3
72
1
10
102.083342615295
20
-3.8355
11
101.622558873742
21
-0.33550169255318
72
1
10
101.622558873742
20
-0.33550169255318
11
102.544126356848
21
-0.335498307446812
72
1
10
102.544126356848
20
-0.335498307446812
11
102.083342615295
21
-3.8355
97
0
75
0
76
1
52
0
41
0.0062
77
0
78
1
53
45
43
0
44
0
45
-0.0139193969876572
46
0.0139193969876572
79
0
47
0
98
1
10
0
20
0
0
DIMENSION
5
12A
100
AcDbEntity
8
SK2
62
256
6
ByLayer
370
13
48
1
60
0
100
AcDbDimension
2
_U0
10
88.8671
20
-14.048898
30
0
11
44.43355
21
-14.048898
31
0
70
32
71
1
72
1
41
1
210
0
220
0
230
1
3
Standard
100
AcDbAlignedDimension
13
0
23
0
33
0
14
88.8671
24
-3.8355
34
0
50
0
100
AcDbRotatedDimension
1001
ACAD
1000
DSTYLE
1002
{
1070
   371
1070
    13
1070
   372
1070
    13
1070
   170
1070
     0
1070
   144
1040
1.0
1070
   277
1070
     2
1070
   278
1070
    44
1070
   146
1040
1.0
1070
   345
1005
16
1070
   347
1005
16
1070
   346
1005
16
1070
   344
1005
0
1070
   343
1005
0
1070
   172
1070
     1
1070
    76
1070
     0
1070
    75
1070
     0
1070
   282
1070
     0
1070
   281
1070
     0
1070
    71
1070
     0
1070
    74
1070
     0
1070
   279
1070
     0
1070
   173
1070
     1
1070
   340
1005
112
1070
   271
1070
     2
1070
   272
1070
     2
1070
    77
1070
     1
1070
    73
1070
     1
1070
   171
1070
     3
1070
   274
1070
     4
1070
   177
1070
    35
1070
   176
1070
    35
1070
   178
1070
    35
1070
    48
1040
-0.1
1070
    41
1040
3.5
1070
   147
1040
1.75
1070
    42
1040
1.5875
1070
    44
1040
2.0
1070
   140
1040
3.5
1002
}
1001
ACAD_DSTYLE_DIM_LINETYPE
1070
   380
1005
16
1001
ACAD_DSTYLE_DIM_EXT1_LINETYPE
1070
   381
1005
16
1001
ACAD_DSTYLE_DIM_EXT2_LINETYPE
1070
   382
1005
16
0
DIMENSION
5
143
100
AcDbEntity
8
SK2
62
256
6
ByLayer
370
13
48
1
60
0
100
AcDbDimension
2
_U1
10
90
20
-32.692985
30
0
11
27
21
-32.692985
31
0
70
32
71
1
72
1
41
1
210
0
220
0
230
1
3
Standard
100
AcDbAlignedDimension
13
-36
23
-4
33
0
14
90
24
0
34
0
50
0
100
AcDbRotatedDimension
1001
ACAD
1000
DSTYLE
1002
{
1070
   371
1070
    13
1070
   372
1070
    13
1070
   170
1070
     0
1070
   144
1040
1.0
1070
   277
1070
     2
1070
   278
1070
    44
1070
   146
1040
1.0
1070
   345
1005
16
1070
   347
1005
16
1070
   346
1005
16
1070
   344
1005
0
1070
   343
1005
0
1070
   172
1070
     1
1070
    76
1070
     0
1070
    75
1070
     0
1070
   282
1070
     0
1070
   281
1070
     0
1070
    71
1070
     0
1070
    74
1070
     0
1070
   279
1070
     0
1070
   173
1070
     1
1070
   340
1005
112
1070
   271
1070
     2
1070
   272
1070
     2
1070
    77
1070
     1
1070
    73
1070
     1
1070
   171
1070
     3
1070
   274
1070
     4
1070
   177
1070
    35
1070
   176
1070
    35
1070
   178
1070
    35
1070
    48
1040
-0.1
1070
    41
1040
3.5
1070
   147
1040
1.75
1070
    42
1040
1.5875
1070
    44
1040
2.0
1070
   140
1040
3.5
1002
}
1001
ACAD_DSTYLE_DIM_LINETYPE
1070
   380
1005
16
1001
ACAD_DSTYLE_DIM_EXT1_LINETYPE
1070
   381
1005
16
1001
ACAD_DSTYLE_DIM_EXT2_LINETYPE
1070
   382
1005
16
0
DIMENSION
5
15B
100
AcDbEntity
8
SK2
62
256
6
ByLayer
370
13
48
1
60
0
100
AcDbDimension
2
_U2
10
90
20
15.444619
30
0
11
58.755
21
15.444619
31
0
70
32
71
1
72
1
41
1
210
0
220
0
230
1
3
Standard
100
AcDbAlignedDimension
13
27.51
23
3.8355
33
0
14
90
24
0
34
0
50
0
100
AcDbRotatedDimension
1001
ACAD
1000
DSTYLE
1002
{
1070
   371
1070
    13
1070
   372
1070
    13
1070
   170
1070
     0
1070
   144
1040
1.0
1070
   277
1070
     2
1070
   278
1070
    44
1070
   146
1040
1.0
1070
   345
1005
16
1070
   347
1005
16
1070
   346
1005
16
1070
   344
1005
0
1070
   343
1005
0
1070
   172
1070
     1
1070
    76
1070
     0
1070
    75
1070
     0
1070
   282
1070
     0
1070
   281
1070
     0
1070
    71
1070
     0
1070
    74
1070
     0
1070
   279
1070
     0
1070
   173
1070
     1
1070
   340
1005
112
1070
   271
1070
     2
1070
   272
1070
     2
1070
    77
1070
     1
1070
    73
1070
     1
1070
   171
1070
     3
1070
   274
1070
     4
1070
   177
1070
    35
1070
   176
1070
    35
1070
   178
1070
    35
1070
    48
1040
-0.1
1070
    41
1040
3.5
1070
   147
1040
1.75
1070
    42
1040
1.5875
1070
    44
1040
2.0
1070
   140
1040
3.5
1002
}
1001
ACAD_DSTYLE_DIM_LINETYPE
1070
   380
1005
16
1001
ACAD_DSTYLE_DIM_EXT1_LINETYPE
1070
   381
1005
16
1001
ACAD_DSTYLE_DIM_EXT2_LINETYPE
1070
   382
1005
16
0
DIMENSION
5
173
100
AcDbEntity
8
SK2
62
256
6
ByLayer
370
13
48
1
60
0
100
AcDbDimension
2
_U3
10
88.8671
20
-16.638003
30
0
11
107.333333
21
-16.638003
31
0
70
32
71
1
72
1
41
1
210
0
220
0
230
1
3
Standard
100
AcDbAlignedDimension
13
90
23
0
33
0
14
88.8671
24
-3.8355
34
0
50
0
100
AcDbRotatedDimension
1001
ACAD
1000
DSTYLE
1002
{
1070
   371
1070
    13
1070
   372
1070
    13
1070
   170
1070
     0
1070
   144
1040
1.0
1070
   277
1070
     2
1070
   278
1070
    44
1070
   146
1040
1.0
1070
   345
1005
16
1070
   347
1005
16
1070
   346
1005
16
1070
   344
1005
0
1070
   343
1005
0
1070
   172
1070
     1
1070
    76
1070
     0
1070
    75
1070
     0
1070
   282
1070
     0
1070
   281
1070
     0
1070
    71
1070
     0
1070
    74
1070
     0
1070
   279
1070
     0
1070
   173
1070
     1
1070
   340
1005
112
1070
   271
1070
     2
1070
   272
1070
     2
1070
    77
1070
     1
1070
    73
1070
     1
1070
   171
1070
     3
1070
   274
1070
     4
1070
   177
1070
    35
1070
   176
1070
    35
1070
   178
1070
    35
1070
    48
1040
-0.1
1070
    41
1040
3.5
1070
   147
1040
1.75
1070
    42
1040
1.5875
1070
    44
1040
2.0
1070
   140
1040
3.5
1002
}
1001
ACAD_DSTYLE_DIM_LINETYPE
1070
   380
1005
16
1001
ACAD_DSTYLE_DIM_EXT1_LINETYPE
1070
   381
1005
16
1001
ACAD_DSTYLE_DIM_EXT2_LINETYPE
1070
   382
1005
16
0
DIMENSION
5
18D
100
AcDbEntity
8
SK2
62
256
6
ByLayer
370
13
48
1
60
0
100
AcDbDimension
2
_U4
10
88.8671
20
-22.343428
30
0
11
26.43355
21
-22.343428
31
0
70
32
71
1
72
1
41
1
210
0
220
0
230
1
3
Standard
100
AcDbAlignedDimension
13
-36
23
-4
33
0
14
88.8671
24
-3.8355
34
0
50
0
100
AcDbRotatedDimension
1001
ACAD
1000
DSTYLE
1002
{
1070
   371
1070
    13
1070
   372
1070
    13
1070
   170
1070
     0
1070
   144
1040
1.0
1070
   277
1070
     2
1070
   278
1070
    44
1070
   146
1040
1.0
1070
   345
1005
16
1070
   347
1005
16
1070
   346
1005
16
1070
   344
1005
0
1070
   343
1005
0
1070
   172
1070
     1
1070
    76
1070
     0
1070
    75
1070
     0
1070
   282
1070
     0
1070
   281
1070
     0
1070
    71
1070
     0
1070
    74
1070
     0
1070
   279
1070
     0
1070
   173
1070
     1
1070
   340
1005
112
1070
   271
1070
     2
1070
   272
1070
     2
1070
    77
1070
     1
1070
    73
1070
     1
1070
   171
1070
     3
1070
   274
1070
     4
1070
   177
1070
    35
1070
   176
1070
    35
1070
   178
1070
    35
1070
    48
1040
-0.1
1070
    41
1040
3.5
1070
   147
1040
1.75
1070
    42
1040
1.5875
1070
    44
1040
2.0
1070
   140
1040
3.5
1002
}
1001
ACAD_DSTYLE_DIM_LINETYPE
1070
   380
1005
16
1001
ACAD_DSTYLE_DIM_EXT1_LINETYPE
1070
   381
1005
16
1001
ACAD_DSTYLE_DIM_EXT2_LINETYPE
1070
   382
1005
16
0
ENDSEC
0
SECTION
2
OBJECTS
0
DICTIONARY
5
215
330
0
100
AcDbDictionary
280
0
281
1
3
ACAD_GROUP
350
216
3
ACAD_MLINESTYLE
350
217
0
DICTIONARY
5
216
330
0
100
AcDbDictionary
280
0
281
1
0
DICTIONARY
5
217
330
0
100
AcDbDictionary
280
0
281
1
3
Standard
350
18
0
MLINESTYLE
5
18
330
217
100
AcDbMlineStyle
2
Standard
70
0
3

62
256
51
90
52
90
71
2
49
-0.5
62
256
6
ByLayer
49
0.5
62
256
6
ByLayer
0
RASTERVARIABLES
5
203
330

100
AcDbRasterVariables
90
0
70
1
71
1
72
1
0
ENDSEC
0
EOF
