0
SECTION
2
HEADER
9
$ACADVER
1
AC1015
9
$DWGCODEPAGE
3
ANSI_1252
9
$HANDSEED
5
215
9
$ANGBASE
50
0
9
$ANGDIR
70
0
9
$ATTMODE
70
1
9
$AUNITS
70
0
9
$AUPREC
70
0
9
$CECOLOR
62
256
9
$CELTSCALE
40
1
9
$CELTYPE
6
ByLayer
9
$CELWEIGHT
370
18
9
$CLAYER
8
0
9
$CMLJUST
70
0
9
$CMLSCALE
40
1
9
$CMLSTYLE
2
Standard
9
$DIMSTYLE
2
Standard
9
$TEXTSIZE
40
0.2
9
$TEXTSTYLE
7
Standard
9
$LUNITS
70
2
9
$LUPREC
70
4
9
$EXTNAMES
290
1
9
$INSUNITS
70
4
9
$LTSCALE
40
1
9
$LWDISPLAY
290
1
9
$PDMODE
70
0
9
$PDSIZE
40
0
9
$PLINEGEN
70
0
0
ENDSEC
0
SECTION
2
CLASSES
0
CLASS
1
RASTERVARIABLES
2
AcDbRasterVariables
3
ISM
90
0
280
0
281
0
0
ENDSEC
0
SECTION
2
TABLES
0
TABLE
2
VPORT
5
20b
100
AcDbSymbolTable
0
VPORT
5
1
100
AcDbSymbolTableRecord
100
AcDbViewportTableRecord
2
*Active
70
0
10
0
20
0
11
1
21
1
12
-1
22
1
13
0
23
0
14
0.5
24
0.5
15
10
25
10
16
0
26
0
36
1
17
0
27
0
37
0
0
ENDTAB
0
TABLE
2
LTYPE
5
20c
100
AcDbSymbolTable
0
LTYPE
5
14
100
AcDbSymbolTableRecord
100
AcDbLinetypeTableRecord
70
0
2
ByBlock
3

72
65
73
0
40
0
0
LTYPE
5
15
100
AcDbSymbolTableRecord
100
AcDbLinetypeTableRecord
70
0
2
ByLayer
3

72
65
73
0
40
0
0
LTYPE
5
16
100
AcDbSymbolTableRecord
100
AcDbLinetypeTableRecord
70
0
2
Continuous
3
Solid line
72
65
73
0
40
0
0
LTYPE
5
6E
100
AcDbSymbolTableRecord
100
AcDbLinetypeTableRecord
70
0
2
CENTER
3
____ _ ____ _ ____ _ ____
72
65
73
4
40
47.5
49
22
74
0
49
-8.5
74
0
49
8.5
74
0
49
-8.5
74
0
0
LTYPE
5
6F
100
AcDbSymbolTableRecord
100
AcDbLinetypeTableRecord
70
0
2
DASHED
3
__ __ __ __ __ __ __ __ __
72
65
73
2
40
25.72
49
12.86
74
0
49
-12.86
74
0
0
ENDTAB
0
TABLE
2
LAYER
5
20d
100
AcDbSymbolTable
0
LAYER
5
10
100
AcDbSymbolTableRecord
100
AcDbLayerTableRecord
2
0
70
0
62
7
6
Continuous
290
1
370
-3
390
0
0
LAYER
5
71
100
AcDbSymbolTableRecord
100
AcDbLayerTableRecord
2
80
70
0
62
-6
6
Continuous
290
1
370
-3
390
0
0
LAYER
5
73
100
AcDbSymbolTableRecord
100
AcDbLayerTableRecord
2
81
70
0
62
-3
6
Continuous
290
1
370
-3
390
0
0
LAYER
5
75
100
AcDbSymbolTableRecord
100
AcDbLayerTableRecord
2
1
70
0
62
4
6
Continuous
290
1
370
-3
390
0
0
LAYER
5
8E
100
AcDbSymbolTableRecord
100
AcDbLayerTableRecord
2
4
70
0
62
-2
6
CENTER
290
1
370
-3
390
0
0
LAYER
5
AB
100
AcDbSymbolTableRecord
100
AcDbLayerTableRecord
2
2
70
0
62
7
6
Continuous
290
1
370
-3
390
0
0
LAYER
5
120
100
AcDbSymbolTableRecord
100
AcDbLayerTableRecord
2
Defpoints
70
0
62
7
6
Continuous
290
0
370
-3
390
0
0
LAYER
5
1f7
100
AcDbSymbolTableRecord
100
AcDbLayerTableRecord
2
SK1
70
0
62
4
6
Continuous
290
1
370
-3
390
0
0
LAYER
5
1f8
100
AcDbSymbolTableRecord
100
AcDbLayerTableRecord
2
SK4
70
0
62
2
6
CENTER
290
1
370
-3
390
0
0
LAYER
5
1f9
100
AcDbSymbolTableRecord
100
AcDbLayerTableRecord
2
SK2
70
0
62
7
6
Continuous
290
1
370
-3
390
0
0
LAYER
5
1fa
100
AcDbSymbolTableRecord
100
AcDbLayerTableRecord
2
SK6
70
0
62
5
6
Continuous
290
1
370
-3
390
0
0
ENDTAB
0
TABLE
2
STYLE
5
20e
100
AcDbSymbolTable
0
STYLE
5
11
100
AcDbSymbolTableRecord
100
AcDbTextStyleTableRecord
2
Standard
3
txt
70
0
71
0
40
0
41
1
42
0
50
0
0
STYLE
5
105
100
AcDbSymbolTableRecord
100
AcDbTextStyleTableRecord
2
iso_b_vert
3
simplex.shx
70
0
71
0
40
0
41
1
42
0
50
0
0
STYLE
5
106
100
AcDbSymbolTableRecord
100
AcDbTextStyleTableRecord
2
DWGDirectTextStyle
3
simplex
70
0
71
0
40
0
41
1
42
0
50
0
0
ENDTAB
0
TABLE
2
DIMSTYLE
5
20f
100
AcDbSymbolTable
100
AcDbDimStyleTable
0
DIMSTYLE
105
27
100
AcDbSymbolTableRecord
100
AcDbDimStyleTableRecord
2
Standard
70
0
3
<>
41
0.18
42
0.0625
44
0.18
140
0.18
147
0.09
73
0
74
0
77
1
271
2
275
0
278
52
280
0
340
11
0
ENDTAB
0
TABLE
2
VIEW
5
210
100
AcDbSymbolTable
0
ENDTAB
0
TABLE
2
UCS
5
211
100
AcDbSymbolTable
0
ENDTAB
0
TABLE
2
APPID
5
212
100
AcDbSymbolTable
0
APPID
5
12
100
AcDbSymbolTableRecord
100
AcDbRegAppTableRecord
2
ACAD
70
0
0
APPID
5
11C
100
AcDbSymbolTableRecord
100
AcDbRegAppTableRecord
2
ACAD_DSTYLE_DIMBREAK
70
0
0
APPID
5
1B6
100
AcDbSymbolTableRecord
100
AcDbRegAppTableRecord
2
ACAD_DSTYLE_DIM_LINETYPE
70
0
0
APPID
5
1B7
100
AcDbSymbolTableRecord
100
AcDbRegAppTableRecord
2
ACAD_DSTYLE_DIM_EXT1_LINETYPE
70
0
0
APPID
5
1B8
100
AcDbSymbolTableRecord
100
AcDbRegAppTableRecord
2
ACAD_DSTYLE_DIM_EXT2_LINETYPE
70
0
0
APPID
5
1F3
100
AcDbSymbolTableRecord
100
AcDbRegAppTableRecord
2
ACAD_MLEADERVER
70
0
0
ENDTAB
0
TABLE
2
BLOCK_RECORD
5
213
100
AcDbSymbolTable
0
BLOCK_RECORD
5
1F
100
AcDbSymbolTableRecord
100
AcDbBlockTableRecord
2
*Model_Space
340
0
70
0
0
BLOCK_RECORD
5
1B
100
AcDbSymbolTableRecord
100
AcDbBlockTableRecord
2
*Paper_Space
340
0
70
0
0
BLOCK_RECORD
5
23
100
AcDbSymbolTableRecord
100
AcDbBlockTableRecord
2
*Paper_Space0
340
0
70
0
0
BLOCK_RECORD
5
121
100
AcDbSymbolTableRecord
100
AcDbBlockTableRecord
2
*D1
340
0
70
0
0
BLOCK_RECORD
5
12D
100
AcDbSymbolTableRecord
100
AcDbBlockTableRecord
2
_U0
340
0
70
0
0
BLOCK_RECORD
5
139
100
AcDbSymbolTableRecord
100
AcDbBlockTableRecord
2
*D3
340
0
70
0
0
BLOCK_RECORD
5
145
100
AcDbSymbolTableRecord
100
AcDbBlockTableRecord
2
_U1
340
0
70
0
0
BLOCK_RECORD
5
151
100
AcDbSymbolTableRecord
100
AcDbBlockTableRecord
2
*D5
340
0
70
0
0
BLOCK_RECORD
5
15D
100
AcDbSymbolTableRecord
100
AcDbBlockTableRecord
2
_U2
340
0
70
0
0
BLOCK_RECORD
5
169
100
AcDbSymbolTableRecord
100
AcDbBlockTableRecord
2
*D7
340
0
70
0
0
BLOCK_RECORD
5
177
100
AcDbSymbolTableRecord
100
AcDbBlockTableRecord
2
_U3
340
0
70
0
0
BLOCK_RECORD
5
183
100
AcDbSymbolTableRecord
100
AcDbBlockTableRecord
2
*D9
340
0
70
0
0
BLOCK_RECORD
5
18F
100
AcDbSymbolTableRecord
100
AcDbBlockTableRecord
2
_U4
340
0
70
0
0
ENDTAB
0
ENDSEC
0
SECTION
2
BLOCKS
0
BLOCK
5
20
100
AcDbEntity
8
0
100
AcDbBlockBegin
2
*Model_Space
70
0
10
0
20
0
30
0
3
*Model_Space
0
ENDBLK
5
21
100
AcDbEntity
8
0
100
AcDbBlockEnd
0
BLOCK
5
1C
100
AcDbEntity
8
0
100
AcDbBlockBegin
2
*Paper_Space
70
0
10
0
20
0
30
0
3
*Paper_Space
0
ENDBLK
5
1D
100
AcDbEntity
8
0
100
AcDbBlockEnd
0
BLOCK
5
24
100
AcDbEntity
8
0
100
AcDbBlockBegin
2
*Paper_Space0
70
0
10
0
20
0
30
0
3
*Paper_Space0
0
ENDBLK
5
25
100
AcDbEntity
8
0
100
AcDbBlockEnd
0
BLOCK
5
122
100
AcDbEntity
8
0
100
AcDbBlockBegin
2
*D1
70
1
10
0
20
0
30
0
3
*D1
0
LINE
5
124
100
AcDbEntity
8
0
62
256
6
ByLayer
370
-2
48
1
60
0
100
AcDbLine
10
0
20
-1.5875
30
0
11
0
21
-18.838398
31
0
39
0
210
0
220
0
230
1
0
LINE
5
125
100
AcDbEntity
8
0
62
256
6
ByLayer
370
-2
48
1
60
0
100
AcDbLine
10
155.0262
20
-8.2125
30
0
11
155.0262
21
-18.838398
31
0
39
0
210
0
220
0
230
1
0
LINE
5
126
100
AcDbEntity
8
0
62
256
6
ByLayer
370
-2
48
1
60
0
100
AcDbLine
10
3.5
20
-16.838398
30
0
11
151.5262
21
-16.838398
31
0
39
0
210
0
220
0
230
1
0
SOLID
5
127
100
AcDbEntity
8
0
62
256
6
ByLayer
370
-1
48
1
60
0
100
AcDbTrace
10
3.5
20
-16.255065
30
0
11
3.5
21
-17.421732
31
0
12
0
22
-16.838398
32
0
13
0
23
-16.838398
33
0
39
0
210
0
220
0
230
1
0
SOLID
5
128
100
AcDbEntity
8
0
62
256
6
ByLayer
370
-1
48
1
60
0
100
AcDbTrace
10
151.5262
20
-17.421732
30
0
11
151.5262
21
-16.255065
31
0
12
155.0262
22
-16.838398
32
0
13
155.0262
23
-16.838398
33
0
39
0
210
0
220
0
230
1
0
MTEXT
5
129
100
AcDbEntity
8
0
62
256
6
ByLayer
370
18
48
1
60
0
100
AcDbMText
10
77.5131
20
-9.838398
30
0
210
0
220
0
230
1
1
\A1;155.03
40
3.5
41
0
44
1
50
0
71
5
72
5
7
iso_b_vert
0
POINT
5
12A
100
AcDbEntity
8
Defpoints
62
0
6
ByLayer
370
-1
48
1
60
0
100
AcDbPoint
10
0
20
0
30
0
39
0
210
0
220
0
230
1
50
360
0
POINT
5
12B
100
AcDbEntity
8
Defpoints
62
0
6
ByLayer
370
-1
48
1
60
0
100
AcDbPoint
10
155.0262
20
-6.625
30
0
39
0
210
0
220
0
230
1
50
360
0
POINT
5
12C
100
AcDbEntity
8
Defpoints
62
0
6
ByLayer
370
-1
48
1
60
0
100
AcDbPoint
10
155.0262
20
-16.838398
30
0
39
0
210
0
220
0
230
1
50
360
0
ENDBLK
5
123
100
AcDbEntity
8
0
100
AcDbBlockEnd
0
BLOCK
5
134
100
AcDbEntity
8
0
100
AcDbBlockBegin
2
_U0
70
0
10
0
20
0
30
0
3
_U0
0
MTEXT
5
12E
100
AcDbEntity
8
SK2
62
256
6
ByLayer
370
13
48
1
60
0
100
AcDbMText
10
71.505501
20
-15.805765
30
0
210
0
220
0
230
1
1
\W0.6930;155,03
40
3.5
41
0
44
1.084337
50
0
71
7
72
5
7
iso_b_vert
0
LINE
5
12F
100
AcDbEntity
8
SK2
62
256
6
ByLayer
370
13
48
1
60
0
100
AcDbLine
10
0
20
-1.5875
30
0
11
0
21
-18.838398
31
0
39
0
210
0
220
0
230
1
0
LINE
5
130
100
AcDbEntity
8
SK2
62
256
6
ByLayer
370
13
48
1
60
0
100
AcDbLine
10
155.0262
20
-8.2125
30
0
11
155.0262
21
-18.838398
31
0
39
0
210
0
220
0
230
1
0
LINE
5
131
100
AcDbEntity
8
SK2
62
256
6
ByLayer
370
13
48
1
60
0
100
AcDbLine
10
0
20
-16.838398
30
0
11
155.0262
21
-16.838398
31
0
39
0
210
0
220
0
230
1
0
SOLID
5
132
100
AcDbEntity
8
SK2
62
256
6
ByLayer
370
18
48
1
60
0
100
AcDbTrace
10
0
20
-16.838398
30
0
11
3.499998
21
-16.377615
31
0
12
3.500002
22
-17.299182
32
0
13
3.500002
23
-17.299182
33
0
39
0
210
0
220
0
230
1
0
SOLID
5
133
100
AcDbEntity
8
SK2
62
256
6
ByLayer
370
18
48
1
60
0
100
AcDbTrace
10
155.0262
20
-16.838398
30
0
11
151.526202
21
-17.299182
31
0
12
151.526198
22
-16.377615
32
0
13
151.526198
23
-16.377615
33
0
39
0
210
0
220
0
230
1
0
ENDBLK
5
135
100
AcDbEntity
8
0
100
AcDbBlockEnd
0
BLOCK
5
13A
100
AcDbEntity
8
0
100
AcDbBlockBegin
2
*D3
70
1
10
0
20
0
30
0
3
*D3
0
LINE
5
13C
100
AcDbEntity
8
0
62
256
6
ByLayer
370
-2
48
1
60
0
100
AcDbLine
10
-45
20
-8.5875
30
0
11
-45
21
-37.692985
31
0
39
0
210
0
220
0
230
1
0
LINE
5
13D
100
AcDbEntity
8
0
62
256
6
ByLayer
370
-2
48
1
60
0
100
AcDbLine
10
157
20
-1.5875
30
0
11
157
21
-37.692985
31
0
39
0
210
0
220
0
230
1
0
LINE
5
13E
100
AcDbEntity
8
0
62
256
6
ByLayer
370
-2
48
1
60
0
100
AcDbLine
10
-41.5
20
-35.692985
30
0
11
153.5
21
-35.692985
31
0
39
0
210
0
220
0
230
1
0
SOLID
5
13F
100
AcDbEntity
8
0
62
256
6
ByLayer
370
-1
48
1
60
0
100
AcDbTrace
10
-41.5
20
-35.109652
30
0
11
-41.5
21
-36.276319
31
0
12
-45
22
-35.692985
32
0
13
-45
23
-35.692985
33
0
39
0
210
0
220
0
230
1
0
SOLID
5
140
100
AcDbEntity
8
0
62
256
6
ByLayer
370
-1
48
1
60
0
100
AcDbTrace
10
153.5
20
-36.276319
30
0
11
153.5
21
-35.109652
31
0
12
157
22
-35.692985
32
0
13
157
23
-35.692985
33
0
39
0
210
0
220
0
230
1
0
MTEXT
5
141
100
AcDbEntity
8
0
62
256
6
ByLayer
370
18
48
1
60
0
100
AcDbMText
10
56
20
-28.692985
30
0
210
0
220
0
230
1
1
\A1;202.00
40
3.5
41
0
44
1
50
0
71
5
72
5
7
iso_b_vert
0
POINT
5
142
100
AcDbEntity
8
Defpoints
62
0
6
ByLayer
370
-1
48
1
60
0
100
AcDbPoint
10
-45
20
-7
30
0
39
0
210
0
220
0
230
1
50
360
0
POINT
5
143
100
AcDbEntity
8
Defpoints
62
0
6
ByLayer
370
-1
48
1
60
0
100
AcDbPoint
10
157
20
0
30
0
39
0
210
0
220
0
230
1
50
360
0
POINT
5
144
100
AcDbEntity
8
Defpoints
62
0
6
ByLayer
370
-1
48
1
60
0
100
AcDbPoint
10
157
20
-35.692985
30
0
39
0
210
0
220
0
230
1
50
360
0
ENDBLK
5
13B
100
AcDbEntity
8
0
100
AcDbBlockEnd
0
BLOCK
5
14C
100
AcDbEntity
8
0
100
AcDbBlockBegin
2
_U1
70
0
10
0
20
0
30
0
3
_U1
0
MTEXT
5
146
100
AcDbEntity
8
SK2
62
256
6
ByLayer
370
13
48
1
60
0
100
AcDbMText
10
49.554968
20
-34.660352
30
0
210
0
220
0
230
1
1
\W0.7421;202,00
40
3.5
41
0
44
1.084337
50
0
71
7
72
5
7
iso_b_vert
0
LINE
5
147
100
AcDbEntity
8
SK2
62
256
6
ByLayer
370
13
48
1
60
0
100
AcDbLine
10
-45
20
-8.5875
30
0
11
-45
21
-37.692985
31
0
39
0
210
0
220
0
230
1
0
LINE
5
148
100
AcDbEntity
8
SK2
62
256
6
ByLayer
370
13
48
1
60
0
100
AcDbLine
10
157
20
-1.5875
30
0
11
157
21
-37.692985
31
0
39
0
210
0
220
0
230
1
0
LINE
5
149
100
AcDbEntity
8
SK2
62
256
6
ByLayer
370
13
48
1
60
0
100
AcDbLine
10
-45
20
-35.692985
30
0
11
157
21
-35.692985
31
0
39
0
210
0
220
0
230
1
0
SOLID
5
14A
100
AcDbEntity
8
SK2
62
256
6
ByLayer
370
18
48
1
60
0
100
AcDbTrace
10
-45
20
-35.692985
30
0
11
-41.500002
21
-35.232202
31
0
12
-41.499998
22
-36.153769
32
0
13
-41.499998
23
-36.153769
33
0
39
0
210
0
220
0
230
1
0
SOLID
5
14B
100
AcDbEntity
8
SK2
62
256
6
ByLayer
370
18
48
1
60
0
100
AcDbTrace
10
157
20
-35.692985
30
0
11
153.500002
21
-36.153769
31
0
12
153.499998
22
-35.232202
32
0
13
153.499998
23
-35.232202
33
0
39
0
210
0
220
0
230
1
0
ENDBLK
5
14D
100
AcDbEntity
8
0
100
AcDbBlockEnd
0
BLOCK
5
152
100
AcDbEntity
8
0
100
AcDbBlockBegin
2
*D5
70
1
10
0
20
0
30
0
3
*D5
0
LINE
5
154
100
AcDbEntity
8
0
62
256
6
ByLayer
370
-2
48
1
60
0
100
AcDbLine
10
49.03
20
8.2125
30
0
11
49.03
21
20.234119
31
0
39
0
210
0
220
0
230
1
0
LINE
5
155
100
AcDbEntity
8
0
62
256
6
ByLayer
370
-2
48
1
60
0
100
AcDbLine
10
157
20
1.5875
30
0
11
157
21
20.234119
31
0
39
0
210
0
220
0
230
1
0
LINE
5
156
100
AcDbEntity
8
0
62
256
6
ByLayer
370
-2
48
1
60
0
100
AcDbLine
10
52.53
20
18.234119
30
0
11
153.5
21
18.234119
31
0
39
0
210
0
220
0
230
1
0
SOLID
5
157
100
AcDbEntity
8
0
62
256
6
ByLayer
370
-1
48
1
60
0
100
AcDbTrace
10
52.53
20
18.817453
30
0
11
52.53
21
17.650786
31
0
12
49.03
22
18.234119
32
0
13
49.03
23
18.234119
33
0
39
0
210
0
220
0
230
1
0
SOLID
5
158
100
AcDbEntity
8
0
62
256
6
ByLayer
370
-1
48
1
60
0
100
AcDbTrace
10
153.5
20
17.650786
30
0
11
153.5
21
18.817453
31
0
12
157
22
18.234119
32
0
13
157
23
18.234119
33
0
39
0
210
0
220
0
230
1
0
MTEXT
5
159
100
AcDbEntity
8
0
62
256
6
ByLayer
370
18
48
1
60
0
100
AcDbMText
10
103.015
20
25.234119
30
0
210
0
220
0
230
1
1
\A1;107.97
40
3.5
41
0
44
1
50
0
71
5
72
5
7
iso_b_vert
0
POINT
5
15A
100
AcDbEntity
8
Defpoints
62
0
6
ByLayer
370
-1
48
1
60
0
100
AcDbPoint
10
49.03
20
6.625
30
0
39
0
210
0
220
0
230
1
50
360
0
POINT
5
15B
100
AcDbEntity
8
Defpoints
62
0
6
ByLayer
370
-1
48
1
60
0
100
AcDbPoint
10
157
20
0
30
0
39
0
210
0
220
0
230
1
50
360
0
POINT
5
15C
100
AcDbEntity
8
Defpoints
62
0
6
ByLayer
370
-1
48
1
60
0
100
AcDbPoint
10
157
20
18.234119
30
0
39
0
210
0
220
0
230
1
50
360
0
ENDBLK
5
153
100
AcDbEntity
8
0
100
AcDbBlockEnd
0
BLOCK
5
164
100
AcDbEntity
8
0
100
AcDbBlockBegin
2
_U2
70
0
10
0
20
0
30
0
3
_U2
0
MTEXT
5
15E
100
AcDbEntity
8
SK2
62
256
6
ByLayer
370
13
48
1
60
0
100
AcDbMText
10
97.007401
20
19.266753
30
0
210
0
220
0
230
1
1
\W0.6930;107,97
40
3.5
41
0
44
1.084337
50
0
71
7
72
5
7
iso_b_vert
0
LINE
5
15F
100
AcDbEntity
8
SK2
62
256
6
ByLayer
370
13
48
1
60
0
100
AcDbLine
10
49.03
20
8.2125
30
0
11
49.03
21
20.234119
31
0
39
0
210
0
220
0
230
1
0
LINE
5
160
100
AcDbEntity
8
SK2
62
256
6
ByLayer
370
13
48
1
60
0
100
AcDbLine
10
157
20
1.5875
30
0
11
157
21
20.234119
31
0
39
0
210
0
220
0
230
1
0
LINE
5
161
100
AcDbEntity
8
SK2
62
256
6
ByLayer
370
13
48
1
60
0
100
AcDbLine
10
49.03
20
18.234119
30
0
11
157
21
18.234119
31
0
39
0
210
0
220
0
230
1
0
SOLID
5
162
100
AcDbEntity
8
SK2
62
256
6
ByLayer
370
18
48
1
60
0
100
AcDbTrace
10
49.03
20
18.234119
30
0
11
52.529998
21
18.694903
31
0
12
52.530002
22
17.773335
32
0
13
52.530002
23
17.773335
33
0
39
0
210
0
220
0
230
1
0
SOLID
5
163
100
AcDbEntity
8
SK2
62
256
6
ByLayer
370
18
48
1
60
0
100
AcDbTrace
10
157
20
18.234119
30
0
11
153.500002
21
17.773335
31
0
12
153.499998
22
18.694903
32
0
13
153.499998
23
18.694903
33
0
39
0
210
0
220
0
230
1
0
ENDBLK
5
165
100
AcDbEntity
8
0
100
AcDbBlockEnd
0
BLOCK
5
16A
100
AcDbEntity
8
0
100
AcDbBlockBegin
2
*D7
70
1
10
0
20
0
30
0
3
*D7
0
LINE
5
16C
100
AcDbEntity
8
0
62
256
6
ByLayer
370
-2
48
1
60
0
100
AcDbLine
10
157
20
-1.5875
30
0
11
157
21
-21.427503
31
0
39
0
210
0
220
0
230
1
0
LINE
5
16D
100
AcDbEntity
8
0
62
256
6
ByLayer
370
-2
48
1
60
0
100
AcDbLine
10
155.0262
20
-8.2125
30
0
11
155.0262
21
-21.427503
31
0
39
0
210
0
220
0
230
1
0
LINE
5
16E
100
AcDbEntity
8
0
62
256
6
ByLayer
370
-2
48
1
60
0
100
AcDbLine
10
157
20
-19.427503
30
0
11
184.666667
21
-19.427503
31
0
39
0
210
0
220
0
230
1
0
LINE
5
16F
100
AcDbEntity
8
0
62
256
6
ByLayer
370
-2
48
1
60
0
100
AcDbLine
10
160.5
20
-19.427503
30
0
11
164
21
-19.427503
31
0
39
0
210
0
220
0
230
1
0
LINE
5
170
100
AcDbEntity
8
0
62
256
6
ByLayer
370
-2
48
1
60
0
100
AcDbLine
10
151.5262
20
-19.427503
30
0
11
148.0262
21
-19.427503
31
0
39
0
210
0
220
0
230
1
0
SOLID
5
171
100
AcDbEntity
8
0
62
256
6
ByLayer
370
-1
48
1
60
0
100
AcDbTrace
10
160.5
20
-18.84417
30
0
11
160.5
21
-20.010837
31
0
12
157
22
-19.427503
32
0
13
157
23
-19.427503
33
0
39
0
210
0
220
0
230
1
0
SOLID
5
172
100
AcDbEntity
8
0
62
256
6
ByLayer
370
-1
48
1
60
0
100
AcDbTrace
10
151.5262
20
-20.010837
30
0
11
151.5262
21
-18.84417
31
0
12
155.0262
22
-19.427503
32
0
13
155.0262
23
-19.427503
33
0
39
0
210
0
220
0
230
1
0
MTEXT
5
173
100
AcDbEntity
8
0
62
256
6
ByLayer
370
18
48
1
60
0
100
AcDbMText
10
174.333333
20
-12.427503
30
0
210
0
220
0
230
1
1
\A1;1.97
40
3.5
41
0
44
1
50
0
71
5
72
5
7
iso_b_vert
0
POINT
5
174
100
AcDbEntity
8
Defpoints
62
0
6
ByLayer
370
-1
48
1
60
0
100
AcDbPoint
10
157
20
0
30
0
39
0
210
0
220
0
230
1
50
360
0
POINT
5
175
100
AcDbEntity
8
Defpoints
62
0
6
ByLayer
370
-1
48
1
60
0
100
AcDbPoint
10
155.0262
20
-6.625
30
0
39
0
210
0
220
0
230
1
50
360
0
POINT
5
176
100
AcDbEntity
8
Defpoints
62
0
6
ByLayer
370
-1
48
1
60
0
100
AcDbPoint
10
155.0262
20
-19.427503
30
0
39
0
210
0
220
0
230
1
50
360
0
ENDBLK
5
16B
100
AcDbEntity
8
0
100
AcDbBlockEnd
0
BLOCK
5
17E
100
AcDbEntity
8
0
100
AcDbBlockBegin
2
_U3
70
0
10
0
20
0
30
0
3
_U3
0
MTEXT
5
178
100
AcDbEntity
8
SK2
62
256
6
ByLayer
370
13
48
1
60
0
100
AcDbMText
10
163.589293
20
-18.39487
30
0
210
0
220
0
230
1
1
\W0.6367;1,97
40
3.5
41
0
44
1.084337
50
0
71
7
72
5
7
iso_b_vert
0
LINE
5
179
100
AcDbEntity
8
SK2
62
256
6
ByLayer
370
13
48
1
60
0
100
AcDbLine
10
157
20
-1.5875
30
0
11
157
21
-21.427503
31
0
39
0
210
0
220
0
230
1
0
LINE
5
17A
100
AcDbEntity
8
SK2
62
256
6
ByLayer
370
13
48
1
60
0
100
AcDbLine
10
155.0262
20
-8.2125
30
0
11
155.0262
21
-21.427503
31
0
39
0
210
0
220
0
230
1
0
LINE
5
17B
100
AcDbEntity
8
SK2
62
256
6
ByLayer
370
13
48
1
60
0
100
AcDbLine
10
146.2762
20
-19.427503
30
0
11
170.559058
21
-19.427503
31
0
39
0
210
0
220
0
230
1
0
SOLID
5
17C
100
AcDbEntity
8
SK2
62
256
6
ByLayer
370
18
48
1
60
0
100
AcDbTrace
10
157
20
-19.427503
30
0
11
160.499998
21
-18.966719
31
0
12
160.500002
22
-19.888287
32
0
13
160.500002
23
-19.888287
33
0
39
0
210
0
220
0
230
1
0
SOLID
5
17D
100
AcDbEntity
8
SK2
62
256
6
ByLayer
370
18
48
1
60
0
100
AcDbTrace
10
155.0262
20
-19.427503
30
0
11
151.526202
21
-19.888287
31
0
12
151.526198
22
-18.966719
32
0
13
151.526198
23
-18.966719
33
0
39
0
210
0
220
0
230
1
0
ENDBLK
5
17F
100
AcDbEntity
8
0
100
AcDbBlockEnd
0
BLOCK
5
184
100
AcDbEntity
8
0
100
AcDbBlockBegin
2
*D9
70
1
10
0
20
0
30
0
3
*D9
0
LINE
5
186
100
AcDbEntity
8
0
62
256
6
ByLayer
370
-2
48
1
60
0
100
AcDbLine
10
-45
20
-8.5875
30
0
11
-45
21
-27.343428
31
0
39
0
210
0
220
0
230
1
0
LINE
5
187
100
AcDbEntity
8
0
62
256
6
ByLayer
370
-2
48
1
60
0
100
AcDbLine
10
155.0262
20
-8.2125
30
0
11
155.0262
21
-27.343428
31
0
39
0
210
0
220
0
230
1
0
LINE
5
188
100
AcDbEntity
8
0
62
256
6
ByLayer
370
-2
48
1
60
0
100
AcDbLine
10
-41.5
20
-25.343428
30
0
11
151.5262
21
-25.343428
31
0
39
0
210
0
220
0
230
1
0
SOLID
5
189
100
AcDbEntity
8
0
62
256
6
ByLayer
370
-1
48
1
60
0
100
AcDbTrace
10
-41.5
20
-24.760095
30
0
11
-41.5
21
-25.926762
31
0
12
-45
22
-25.343428
32
0
13
-45
23
-25.343428
33
0
39
0
210
0
220
0
230
1
0
SOLID
5
18A
100
AcDbEntity
8
0
62
256
6
ByLayer
370
-1
48
1
60
0
100
AcDbTrace
10
151.5262
20
-25.926762
30
0
11
151.5262
21
-24.760095
31
0
12
155.0262
22
-25.343428
32
0
13
155.0262
23
-25.343428
33
0
39
0
210
0
220
0
230
1
0
MTEXT
5
18B
100
AcDbEntity
8
0
62
256
6
ByLayer
370
18
48
1
60
0
100
AcDbMText
10
55.0131
20
-18.343428
30
0
210
0
220
0
230
1
1
\A1;200.03
40
3.5
41
0
44
1
50
0
71
5
72
5
7
iso_b_vert
0
POINT
5
18C
100
AcDbEntity
8
Defpoints
62
0
6
ByLayer
370
-1
48
1
60
0
100
AcDbPoint
10
-45
20
-7
30
0
39
0
210
0
220
0
230
1
50
360
0
POINT
5
18D
100
AcDbEntity
8
Defpoints
62
0
6
ByLayer
370
-1
48
1
60
0
100
AcDbPoint
10
155.0262
20
-6.625
30
0
39
0
210
0
220
0
230
1
50
360
0
POINT
5
18E
100
AcDbEntity
8
Defpoints
62
0
6
ByLayer
370
-1
48
1
60
0
100
AcDbPoint
10
155.0262
20
-25.343428
30
0
39
0
210
0
220
0
230
1
50
360
0
ENDBLK
5
185
100
AcDbEntity
8
0
100
AcDbBlockEnd
0
BLOCK
5
196
100
AcDbEntity
8
0
100
AcDbBlockBegin
2
_U4
70
0
10
0
20
0
30
0
3
_U4
0
MTEXT
5
190
100
AcDbEntity
8
SK2
62
256
6
ByLayer
370
13
48
1
60
0
100
AcDbMText
10
48.568068
20
-24.310795
30
0
210
0
220
0
230
1
1
\W0.7421;200,03
40
3.5
41
0
44
1.084337
50
0
71
7
72
5
7
iso_b_vert
0
LINE
5
191
100
AcDbEntity
8
SK2
62
256
6
ByLayer
370
13
48
1
60
0
100
AcDbLine
10
-45
20
-8.5875
30
0
11
-45
21
-27.343428
31
0
39
0
210
0
220
0
230
1
0
LINE
5
192
100
AcDbEntity
8
SK2
62
256
6
ByLayer
370
13
48
1
60
0
100
AcDbLine
10
155.0262
20
-8.2125
30
0
11
155.0262
21
-27.343428
31
0
39
0
210
0
220
0
230
1
0
LINE
5
193
100
AcDbEntity
8
SK2
62
256
6
ByLayer
370
13
48
1
60
0
100
AcDbLine
10
-45
20
-25.343428
30
0
11
155.0262
21
-25.343428
31
0
39
0
210
0
220
0
230
1
0
SOLID
5
194
100
AcDbEntity
8
SK2
62
256
6
ByLayer
370
18
48
1
60
0
100
AcDbTrace
10
-45
20
-25.343428
30
0
11
-41.500002
21
-24.882645
31
0
12
-41.499998
22
-25.804212
32
0
13
-41.499998
23
-25.804212
33
0
39
0
210
0
220
0
230
1
0
SOLID
5
195
100
AcDbEntity
8
SK2
62
256
6
ByLayer
370
18
48
1
60
0
100
AcDbTrace
10
155.0262
20
-25.343428
30
0
11
151.526202
21
-25.804212
31
0
12
151.526198
22
-24.882645
32
0
13
151.526198
23
-24.882645
33
0
39
0
210
0
220
0
230
1
0
ENDBLK
5
197
100
AcDbEntity
8
0
100
AcDbBlockEnd
0
ENDSEC
0
SECTION
2
ENTITIES
0
ARC
5
B4
100
AcDbEntity
8
1
62
256
6
ByLayer
370
18
48
1
60
0
100
AcDbCircle
39
0
10
1.13382
20
-7.328917
30
0
40
0.799999999999999
210
0
220
0
230
1
100
AcDbArc
50
89.96419
51
135.124144
0
ARC
5
B5
100
AcDbEntity
8
1
62
256
6
ByLayer
370
18
48
1
60
0
100
AcDbCircle
39
0
10
1.13382
20
7.328917
30
0
40
0.799999999999999
210
0
220
0
230
1
100
AcDbArc
50
224.875856
51
270.03581
0
ARC
5
B6
100
AcDbEntity
8
1
62
256
6
ByLayer
370
18
48
1
60
0
100
AcDbCircle
39
0
10
0
20
-6.2
30
0
40
0.800000000000004
210
0
220
0
230
1
100
AcDbArc
50
270
51
315.124144
0
ARC
5
B7
100
AcDbEntity
8
1
62
256
6
ByLayer
370
18
48
1
60
0
100
AcDbCircle
39
0
10
0
20
6.2
30
0
40
0.800000000000004
210
0
220
0
230
1
100
AcDbArc
50
44.875856
51
90
0
ELLIPSE
5
B8
100
AcDbEntity
8
1
62
256
6
ByLayer
370
18
48
1
60
0
100
AcDbEllipse
10
8.25
20
-6.41896
30
0
11
0.25
21
0
31
0
210
0
220
0
230
1
40
0.999991
41
1.58494063600225
42
3.13550746711938
0
ELLIPSE
5
B9
100
AcDbEntity
8
1
62
256
6
ByLayer
370
18
48
1
60
0
100
AcDbEllipse
10
8.25
20
6.41896
30
0
11
0.25
21
0
31
0
210
0
220
0
230
1
40
0.999991
41
-3.13550746711928
42
-1.55510715646368
0
POINT
5
70
100
AcDbEntity
8
80
62
256
6
ByLayer
370
18
48
1
60
0
100
AcDbPoint
10
0
20
0
30
0
39
0
210
0
220
0
230
1
50
360
0
POINT
5
72
100
AcDbEntity
8
81
62
256
6
ByLayer
370
18
48
1
60
0
100
AcDbPoint
10
157
20
0
30
0
39
0
210
0
220
0
230
1
50
360
0
POINT
5
74
100
AcDbEntity
8
1
62
256
6
ByLayer
370
18
48
1
60
1
100
AcDbPoint
10
155.0262
20
-6.625
30
0
39
0
210
0
220
0
230
1
50
360
0
POINT
5
76
100
AcDbEntity
8
1
62
256
6
ByLayer
370
18
48
1
60
1
100
AcDbPoint
10
-45
20
-7
30
0
39
0
210
0
220
0
230
1
50
360
0
POINT
5
77
100
AcDbEntity
8
1
62
256
6
ByLayer
370
18
48
1
60
1
100
AcDbPoint
10
49.03
20
6.625
30
0
39
0
210
0
220
0
230
1
50
360
0
POINT
5
78
100
AcDbEntity
8
1
62
256
6
ByLayer
370
18
48
1
60
1
100
AcDbPoint
10
155.0262
20
-6.625
30
0
39
0
210
0
220
0
230
1
50
360
0
POINT
5
79
100
AcDbEntity
8
1
62
256
6
ByLayer
370
18
48
1
60
1
100
AcDbPoint
10
-45
20
-7
30
0
39
0
210
0
220
0
230
1
50
360
0
POINT
5
7A
100
AcDbEntity
8
1
62
256
6
ByLayer
370
18
48
1
60
1
100
AcDbPoint
10
155.0262
20
-6.625
30
0
39
0
210
0
220
0
230
1
50
360
0
SPLINE
5
BA
100
AcDbEntity
8
SK1
62
256
6
ByLayer
370
18
48
1
60
0
100
AcDbSpline
70
4
71
3
72
8
73
4
40
0
40
0
40
0
40
0
40
1
40
1
40
1
40
1
41
1
10
-45
20
-3.04751165224997
30
0
41
1
10
-44.6675775816006
20
-3.18023390737938
30
0
41
1
10
-44.3340901911705
20
-3.31255306898703
30
0
41
1
10
-44
20
-3.44464406960421
30
0
0
SPLINE
5
BB
100
AcDbEntity
8
SK1
62
256
6
ByLayer
370
18
48
1
60
0
100
AcDbSpline
70
4
71
3
72
12
73
8
40
0
40
0
40
0
40
0
40
0.500000000000004
40
0.500000000000004
40
0.750000000000002
40
0.750000000000002
40
1
40
1
40
1
40
1
41
1
10
-44
20
-3.44464406960424
30
0
41
1
10
-43.9765248032773
20
-3.45392558192256
30
0
41
1
10
-43.9537853574511
20
-3.45623968937699
30
0
41
1
10
-43.9256353788013
20
-3.44706678039663
30
0
41
1
10
-43.9170526356788
20
-3.44172767015826
30
0
41
1
10
-43.9042470853815
20
-3.42523670999788
30
0
41
1
10
-43.9
20
-3.41370938323641
30
0
41
1
10
-43.9
20
-3.39964356777935
30
0
0
SPLINE
5
BC
100
AcDbEntity
8
SK1
62
256
6
ByLayer
370
18
48
1
60
0
100
AcDbSpline
70
4
71
3
72
8
73
4
40
0
40
0
40
0
40
0
40
1
40
1
40
1
40
1
41
1
10
-44
20
-1.13929636387616
30
0
41
1
10
-44.334097907528
20
-1.00720231240197
30
0
41
1
10
-44.6675868217785
20
-0.874882512437893
30
0
41
1
10
-45
20
-0.742163946521885
30
0
0
SPLINE
5
BD
100
AcDbEntity
8
SK1
62
256
6
ByLayer
370
18
48
1
60
0
100
AcDbSpline
70
4
71
3
72
12
73
8
40
0
40
0
40
0
40
0
40
0.249999999999999
40
0.249999999999999
40
0.499999999999997
40
0.499999999999997
40
1
40
1
40
1
40
1
41
1
10
-43.9
20
-1.27872367850955
30
0
41
1
10
-43.9
20
-1.26219546639914
30
0
41
1
10
-43.9042016956282
20
-1.24512766581037
30
0
41
1
10
-43.9170234176167
20
-1.21453632485205
30
0
41
1
10
-43.9254954864758
20
-1.20095000718217
30
0
41
1
10
-43.9538426693661
20
-1.16544451432347
30
0
41
1
10
-43.9765304760167
20
-1.14857563333359
30
0
41
1
10
-44
20
-1.13929636387616
30
0
0
SPLINE
5
BE
100
AcDbEntity
8
1
62
256
6
ByLayer
370
18
48
1
60
0
100
AcDbSpline
70
4
71
3
72
70
73
66
40
0
40
0
40
0
40
0
40
0.0312500000000046
40
0.0312500000000046
40
0.0625000000000091
40
0.0625000000000091
40
0.0937500000000137
40
0.0937500000000137
40
0.109375000000014
40
0.109375000000014
40
0.125000000000014
40
0.125000000000014
40
0.156250000000014
40
0.156250000000014
40
0.187500000000014
40
0.187500000000014
40
0.250000000000014
40
0.250000000000014
40
0.281250000000014
40
0.281250000000014
40
0.312500000000014
40
0.312500000000014
40
0.343750000000014
40
0.343750000000014
40
0.375000000000014
40
0.375000000000014
40
0.406250000000014
40
0.406250000000014
40
0.437500000000014
40
0.437500000000014
40
0.468750000000014
40
0.468750000000014
40
0.500000000000014
40
0.500000000000014
40
0.531250000000014
40
0.531250000000014
40
0.562500000000014
40
0.562500000000014
40
0.593750000000013
40
0.593750000000013
40
0.625000000000013
40
0.625000000000013
40
0.656250000000013
40
0.656250000000013
40
0.687500000000013
40
0.687500000000013
40
0.703125000000013
40
0.703125000000013
40
0.718750000000013
40
0.718750000000013
40
0.750000000000012
40
0.750000000000012
40
0.781250000000011
40
0.781250000000011
40
0.812500000000011
40
0.812500000000011
40
0.84375000000001
40
0.84375000000001
40
0.875000000000009
40
0.875000000000009
40
0.937500000000007
40
0.937500000000007
40
0.968750000000004
40
0.968750000000004
40
1
40
1
40
1
40
1
41
1
10
154.930857861686
20
-2.86482733757444
30
0
41
1
10
154.896957772907
20
-2.91332948578437
30
0
41
1
10
154.863088737065
20
-2.96628685758165
30
0
41
1
10
154.797447316288
20
-3.07951437531483
30
0
41
1
10
154.766024867338
20
-3.13908435136312
30
0
41
1
10
154.706393532718
20
-3.26501844847894
30
0
41
1
10
154.678162059516
20
-3.33168244892627
30
0
41
1
10
154.640937544488
20
-3.43226993075476
30
0
41
1
10
154.629286903986
20
-3.46609678083519
30
0
41
1
10
154.607620282579
20
-3.5343928584555
30
0
41
1
10
154.597625189238
20
-3.56886133935223
30
0
41
1
10
154.571163063049
20
-3.6699107291798
30
0
41
1
10
154.557779364108
20
-3.73544049118635
30
0
41
1
10
154.540066350537
20
-3.8616668843141
30
0
41
1
10
154.536099544311
20
-3.91960300658306
30
0
41
1
10
154.537488307662
20
-4.07934116973718
30
0
41
1
10
154.556617324148
20
-4.16259063225584
30
0
41
1
10
154.603131117862
20
-4.24943616982679
30
0
41
1
10
154.621681707506
20
-4.27246743709978
30
0
41
1
10
154.663586276741
20
-4.30720849166502
30
0
41
1
10
154.686670329351
20
-4.31878301774239
30
0
41
1
10
154.736604702188
20
-4.33169207581091
30
0
41
1
10
154.763659085483
20
-4.33295644856841
30
0
41
1
10
154.820099867554
20
-4.32574251827276
30
0
41
1
10
154.849534946645
20
-4.31734974487006
30
0
41
1
10
154.910713506394
20
-4.29146921501612
30
0
41
1
10
154.942688714541
20
-4.273811306954
30
0
41
1
10
155.007780540759
20
-4.22994072670781
30
0
41
1
10
155.040807380093
20
-4.20385466049015
30
0
41
1
10
155.107822549409
20
-4.1433840985222
30
0
41
1
10
155.141810181349
20
-4.10900562742731
30
0
41
1
10
155.210837578394
20
-4.03116793863026
30
0
41
1
10
155.245537402703
20
-3.98804975362648
30
0
41
1
10
155.31417070897
20
-3.89414134880931
30
0
41
1
10
155.348509740226
20
-3.8427439747002
30
0
41
1
10
155.414726169852
20
-3.73380006873123
30
0
41
1
10
155.446779786949
20
-3.67609057208315
30
0
41
1
10
155.508426438121
20
-3.55311775530922
30
0
41
1
10
155.537732311426
20
-3.48826440050368
30
0
41
1
10
155.590554157466
20
-3.35609751850356
30
0
41
1
10
155.614699602246
20
-3.28703018027122
30
0
41
1
10
155.654564570733
20
-3.15183227857926
30
0
41
1
10
155.670542356713
20
-3.08535999869736
30
0
41
1
10
155.693835380909
20
-2.95501244223306
30
0
41
1
10
155.700549550125
20
-2.89450934322582
30
0
41
1
10
155.703768429296
20
-2.8102435469074
30
0
41
1
10
155.703668118958
20
-2.78317752889001
30
0
41
1
10
155.701255189034
20
-2.73260266662797
30
0
41
1
10
155.698958021198
20
-2.70889469792263
30
0
41
1
10
155.689026239239
20
-2.64217346250086
30
0
41
1
10
155.678239694192
20
-2.60349172233049
30
0
41
1
10
155.650441591384
20
-2.5394288184203
30
0
41
1
10
155.633218522831
20
-2.51338443950635
30
0
41
1
10
155.593867452104
20
-2.47308711068521
30
0
41
1
10
155.571939706247
20
-2.45888440573262
30
0
41
1
10
155.524199626436
20
-2.44073452185702
30
0
41
1
10
155.498237067694
20
-2.43681474811396
30
0
41
1
10
155.44323291123
20
-2.43879577681386
30
0
41
1
10
155.414487513694
20
-2.444630720823
30
0
41
1
10
155.324796834988
20
-2.47559550225807
30
0
41
1
10
155.259794765285
20
-2.51470970230866
30
0
41
1
10
155.160404339962
20
-2.59727913764857
30
0
41
1
10
155.126780263222
20
-2.628863495107
30
0
41
1
10
155.058469609425
20
-2.70076825770758
30
0
41
1
10
155.0236607745
20
-2.74130722621811
30
0
41
1
10
154.989411429661
20
-2.78535306548082
30
0
0
SPLINE
5
BF
100
AcDbEntity
8
1
62
256
6
ByLayer
370
18
48
1
60
0
100
AcDbSpline
70
4
71
3
72
18
73
14
40
0
40
0
40
0
40
0
40
0.250000000000007
40
0.250000000000007
40
0.375000000000008
40
0.375000000000008
40
0.500000000000009
40
0.500000000000009
40
0.750000000000006
40
0.750000000000006
40
0.875000000000003
40
0.875000000000003
40
1
40
1
40
1
40
1
41
1
10
154.656149403063
20
-6.25323444656129
30
0
41
1
10
154.520663155555
20
-6.23643263661279
30
0
41
1
10
154.395147450055
20
-6.19084221770018
30
0
41
1
10
154.223227364464
20
-6.07523812024732
30
0
41
1
10
154.168600730375
20
-6.02859189903367
30
0
41
1
10
154.067329734099
20
-5.92084775912812
30
0
41
1
10
154.020374681453
20
-5.85959072344016
30
0
41
1
10
153.890628141247
20
-5.65350965113765
30
0
41
1
10
153.818854365413
20
-5.48657812135403
30
0
41
1
10
153.735215994635
20
-5.18797910466355
30
0
41
1
10
153.711421379294
20
-5.08022745667407
30
0
41
1
10
153.673158596807
20
-4.85267403697159
30
0
41
1
10
153.658524344706
20
-4.73236287910669
30
0
41
1
10
153.648420534294
20
-4.60546888385369
30
0
0
SPLINE
5
C0
100
AcDbEntity
8
1
62
256
6
ByLayer
370
18
48
1
60
0
100
AcDbSpline
70
4
71
3
72
14
73
10
40
0
40
0
40
0
40
0
40
0.133333374026122
40
0.133333374026122
40
0.266666748052244
40
0.266666748052244
40
0.53333349610448
40
0.53333349610448
40
1
40
1
40
1
40
1
41
1
10
154.772258901118
20
-6.24540479213627
30
0
41
1
10
154.388112705066
20
-6.25904929157565
30
0
41
1
10
154.004133207641
20
-6.26321776371378
30
0
41
1
10
153.235869931479
20
-6.25265571072779
30
0
41
1
10
152.851038186077
20
-6.23787666323077
30
0
41
1
10
151.700828409019
20
-6.16576427220133
30
0
41
1
10
150.938838453511
20
-6.08079439339011
30
0
41
1
10
148.849018345323
20
-5.7516548208169
30
0
41
1
10
147.525381311711
20
-5.43534665878167
30
0
41
1
10
146.193035118869
20
-5.0255506070624
30
0
0
SPLINE
5
C1
100
AcDbEntity
8
1
62
256
6
ByLayer
370
13
48
1
60
0
100
AcDbSpline
70
4
71
3
72
24
73
20
40
0
40
0
40
0
40
0
40
0.0375546270290852
40
0.0375546270290852
40
0.112663513980071
40
0.112663513980071
40
0.187772400931056
40
0.187772400931056
40
0.337990174833027
40
0.337990174833027
40
0.638425722636964
40
0.638425722636964
40
0.713534609587947
40
0.713534609587947
40
0.78864349653893
40
0.78864349653893
40
0.938861270440897
40
0.938861270440897
40
1
40
1
40
1
40
1
41
1
10
146.193035295727
20
-5.02555066145922
30
0
41
1
10
146.002699070658
20
-4.96700804511681
30
0
41
1
10
145.812185105689
20
-4.90655749150022
30
0
41
1
10
145.239981031248
20
-4.71959955008131
30
0
41
1
10
144.857638803767
20
-4.58747651951833
30
0
41
1
10
144.090473031583
20
-4.30900580461125
30
0
41
1
10
143.70557929142
20
-4.16261716783805
30
0
41
1
10
142.556978224114
20
-3.70781068704423
30
0
41
1
10
141.795757537686
20
-3.38240330300752
30
0
41
1
10
139.516918315152
20
-2.35521688283959
30
0
41
1
10
138.004355601043
20
-1.601949926967
30
0
41
1
10
136.094273048046
20
-0.626076828532263
30
0
41
1
10
135.711297034254
20
-0.429167256046526
30
0
41
1
10
134.942644914398
20
-0.0333679439278853
30
0
41
1
10
134.558834180357
20
0.164535925323719
30
0
41
1
10
133.41175386121
20
0.75439924293093
30
0
41
1
10
132.65120878568
20
1.1433182767318
30
0
41
1
10
131.582952804911
20
1.67674786694616
30
0
41
1
10
131.27416586689
20
1.8294463830546
30
0
41
1
10
130.965416906916
20
1.98019064488699
30
0
0
SPLINE
5
C2
100
AcDbEntity
8
1
62
256
6
ByLayer
370
18
48
1
60
0
100
AcDbSpline
70
4
71
3
72
16
73
12
40
0
40
0
40
0
40
0
40
0.0944791164313216
40
0.0944791164313216
40
0.684972064768155
40
0.684972064768155
40
0.832595301852365
40
0.832595301852365
40
0.980218538936571
40
0.980218538936571
40
1
40
1
40
1
40
1
41
1
10
77.7001535361974
20
-6.21215247498233
30
0
41
1
10
77.4554974753761
20
-6.21171088996778
30
0
41
1
10
77.2112135176511
20
-6.20748003754585
30
0
41
1
10
75.4422248949538
20
-6.14950737446878
30
0
41
1
10
73.9284924407481
20
-5.9525016736153
30
0
41
1
10
72.0226271678383
20
-5.53666359811021
30
0
41
1
10
71.6408073136975
20
-5.44497774927157
30
0
41
1
10
70.8750672599493
20
-5.24517611008341
30
0
41
1
10
70.4907854719604
20
-5.13695426893287
30
0
41
1
10
70.0543488294144
20
-5.00537813385387
30
0
41
1
10
70.0028005336262
20
-4.98970177048025
30
0
41
1
10
69.9512748900821
20
-4.97389814437247
30
0
0
SPLINE
5
C3
100
AcDbEntity
8
1
62
256
6
ByLayer
370
13
48
1
60
0
100
AcDbSpline
70
4
71
3
72
20
73
16
40
0
40
0
40
0
40
0
40
0.140343052988596
40
0.140343052988596
40
0.441185419134561
40
0.441185419134561
40
0.51639601067105
40
0.51639601067105
40
0.554001306439294
40
0.554001306439294
40
0.591606602207538
40
0.591606602207538
40
0.742027785280506
40
0.742027785280506
40
1
40
1
40
1
40
1
41
1
10
69.951275846071
20
-4.97389843758748
30
0
41
1
10
69.2337596621342
20
-4.75382634287618
30
0
41
1
10
68.5206361411128
20
-4.50907580117254
30
0
41
1
10
66.2857854649346
20
-3.67346747571071
30
0
41
1
10
64.7715267407949
20
-3.00712388227103
30
0
41
1
10
62.8637824097972
20
-2.09913304936922
30
0
41
1
10
62.4814609544007
20
-1.91382474127943
30
0
41
1
10
61.9062923678359
20
-1.63121488109184
30
0
41
1
10
61.7142882244451
20
-1.53623645719952
30
0
41
1
10
61.3296559852487
20
-1.34485221984838
30
0
41
1
10
61.1369597028665
20
-1.24841398268524
30
0
41
1
10
60.1761325547959
20
-0.765448390668695
30
0
41
1
10
59.4124121900885
20
-0.374909898055165
30
0
41
1
10
57.3450301757497
20
0.682273575032212
30
0
41
1
10
56.0455078163646
20
1.34610914574173
30
0
41
1
10
54.7386024763548
20
1.9787953393477
30
0
0
SPLINE
5
C4
100
AcDbEntity
8
1
62
256
6
ByLayer
370
18
48
1
60
0
100
AcDbSpline
70
4
71
3
72
20
73
16
40
0
40
0
40
0
40
0
40
0.0175563938189496
40
0.0175563938189496
40
0.25480436169026
40
0.25480436169026
40
0.314116353658088
40
0.314116353658088
40
0.373428345625915
40
0.373428345625915
40
0.492052329561567
40
0.492052329561567
40
0.966548265304185
40
0.966548265304185
40
1
40
1
40
1
40
1
41
1
10
58.4462539240831
20
0.0083577629814329
30
0
41
1
10
58.5025874419385
20
-0.0209098741562173
30
0
41
1
10
58.558932092345
20
-0.0501843645248812
30
0
41
1
10
59.3768670641993
20
-0.475126466617894
30
0
41
1
10
60.1407826310531
20
-0.871418830596781
30
0
41
1
10
61.1020177792642
20
-1.36089872965019
30
0
41
1
10
61.2948034938618
20
-1.45861086401817
30
0
41
1
10
61.6795550495908
20
-1.65240923803432
30
0
41
1
10
61.8716135215262
20
-1.7485391810479
30
0
41
1
10
62.4469295922322
20
-2.03445208510439
30
0
41
1
10
62.8293267903283
20
-2.22176648520926
30
0
41
1
10
64.737324356282
20
-3.13886954828266
30
0
41
1
10
66.2515673349955
20
-3.80928803904001
30
0
41
1
10
67.8832203226764
20
-4.42033360901803
30
0
41
1
10
67.9907279334848
20
-4.46007769926564
30
0
41
1
10
68.0982955857164
20
-4.49931210796436
30
0
0
SPLINE
5
C5
100
AcDbEntity
8
1
62
256
6
ByLayer
370
13
48
1
60
0
100
AcDbSpline
70
4
71
3
72
20
73
16
40
0
40
0
40
0
40
0
40
0.173360498870095
40
0.173360498870095
40
0.274268708516607
40
0.274268708516607
40
0.375176918163118
40
0.375176918163118
40
0.77880975674917
40
0.77880975674917
40
0.879717966395685
40
0.879717966395685
40
0.9806261760422
40
0.9806261760422
40
1
40
1
40
1
40
1
41
1
10
68.098295584703
20
-4.49931210759476
30
0
41
1
10
68.753624300744
20
-4.73833781974849
30
0
41
1
10
69.4111814826983
20
-4.95844645933343
30
0
41
1
10
70.4577423467045
20
-5.27232638625478
30
0
41
1
10
70.8420814793332
20
-5.37975025566047
30
0
41
1
10
71.6079828851122
20
-5.57755912224371
30
0
41
1
10
71.9898613704283
20
-5.66804728442739
30
0
41
1
10
73.8959307025702
20
-6.07690947589225
30
0
41
1
10
75.4096353451516
20
-6.26525611585507
30
0
41
1
10
77.3162625378674
20
-6.3136483201863
30
0
41
1
10
77.698305740884
20
-6.31397225648854
30
0
41
1
10
78.4645189064396
20
-6.29574125971948
30
0
41
1
10
78.8491565164224
20
-6.27714481600515
30
0
41
1
10
79.3081548872039
20
-6.2436342731269
30
0
41
1
10
79.3820754959524
20
-6.23788826864538
30
0
41
1
10
79.4559877565769
20
-6.23179514382437
30
0
0
SPLINE
5
C6
100
AcDbEntity
8
1
62
256
6
ByLayer
370
18
48
1
60
0
100
AcDbSpline
70
4
71
3
72
16
73
12
40
0
40
0
40
0
40
0
40
0.0687317700328955
40
0.0687317700328955
40
0.188864737020517
40
0.188864737020517
40
0.669396604970993
40
0.669396604970993
40
0.909662538946237
40
0.909662538946237
40
1
40
1
40
1
40
1
41
1
10
134.64688377796
20
0.0081043601101385
30
0
41
1
10
134.866372090971
20
-0.106760575223831
30
0
41
1
10
135.086201858824
20
-0.221819791444631
30
0
41
1
10
135.690557566986
20
-0.537742718234483
30
0
41
1
10
136.073603572423
20
-0.737511334433236
30
0
41
1
10
137.983933665101
20
-1.72678667144538
30
0
41
1
10
139.49642652885
20
-2.48781262829903
30
0
41
1
10
141.775608724878
20
-3.52200469538846
30
0
41
1
10
142.537021510583
20
-3.84897167780986
30
0
41
1
10
143.591129728932
20
-4.26722108498006
30
0
41
1
10
143.880340770389
20
-4.37844776413681
30
0
41
1
10
144.169223869791
20
-4.48575685984542
30
0
0
SPLINE
5
C7
100
AcDbEntity
8
1
62
256
6
ByLayer
370
13
48
1
60
0
100
AcDbSpline
70
4
71
3
72
18
73
14
40
0
40
0
40
0
40
0
40
0.0268188252450772
40
0.0268188252450772
40
0.134950066884511
40
0.134950066884511
40
0.567475033442249
40
0.567475033442249
40
0.783737516721123
40
0.783737516721123
40
0.891868758360562
40
0.891868758360562
40
1
40
1
40
1
40
1
41
1
10
144.169223870153
20
-4.4857568599802
30
0
41
1
10
144.264504587489
20
-4.52115002640849
30
0
41
1
10
144.359749629915
20
-4.55611702171026
30
0
41
1
10
144.838563664042
20
-4.72976871868056
30
0
41
1
10
145.220958589514
20
-4.86157206618964
30
0
41
1
10
147.12848397221
20
-5.48209924015907
30
0
41
1
10
148.64013297734
20
-5.85550555996741
30
0
41
1
10
150.920327503789
20
-6.20182534926701
30
0
41
1
10
151.682553784826
20
-6.28178371883394
30
0
41
1
10
152.833354262626
20
-6.34531411693553
30
0
41
1
10
153.218353316455
20
-6.35704270368441
30
0
41
1
10
153.986876315277
20
-6.36118751098272
30
0
41
1
10
154.370978613298
20
-6.35364931808658
30
0
41
1
10
154.755251628659
20
-6.3364759619387
30
0
0
SPLINE
5
C8
100
AcDbEntity
8
1
62
256
6
ByLayer
370
18
48
1
60
0
100
AcDbSpline
70
4
71
3
72
112
73
108
40
0
40
0
40
0
40
0
40
0.0001751677400299
40
0.0001751677400299
40
0.0111227962514226
40
0.0111227962514226
40
0.0330180532742085
40
0.0330180532742085
40
0.0549133102969945
40
0.0549133102969945
40
0.0768085673197805
40
0.0768085673197805
40
0.0877561958311734
40
0.0877561958311734
40
0.0987038243425664
40
0.0987038243425664
40
0.120599081365353
40
0.120599081365353
40
0.14249433838814
40
0.14249433838814
40
0.164389595410926
40
0.164389595410926
40
0.186284852433713
40
0.186284852433713
40
0.208180109456499
40
0.208180109456499
40
0.219127737967893
40
0.219127737967893
40
0.230075366479286
40
0.230075366479286
40
0.251970623502073
40
0.251970623502073
40
0.273865880524859
40
0.273865880524859
40
0.295761137547646
40
0.295761137547646
40
0.317656394570432
40
0.317656394570432
40
0.339551651593219
40
0.339551651593219
40
0.361446908616005
40
0.361446908616005
40
0.383342165638792
40
0.383342165638792
40
0.405237422661579
40
0.405237422661579
40
0.427132679684365
40
0.427132679684365
40
0.438080308195759
40
0.438080308195759
40
0.449027936707152
40
0.449027936707152
40
0.470923193729939
40
0.470923193729939
40
0.492818450752725
40
0.492818450752725
40
0.514713707775512
40
0.514713707775512
40
0.536608964798298
40
0.536608964798298
40
0.558504221821085
40
0.558504221821085
40
0.580399478843871
40
0.580399478843871
40
0.602294735866658
40
0.602294735866658
40
0.624189992889445
40
0.624189992889445
40
0.646085249912231
40
0.646085249912231
40
0.657032878423624
40
0.657032878423624
40
0.667980506935018
40
0.667980506935018
40
0.689875763957804
40
0.689875763957804
40
0.71177102098059
40
0.71177102098059
40
0.733666278003376
40
0.733666278003376
40
0.755561535026162
40
0.755561535026162
40
0.777456792048948
40
0.777456792048948
40
0.799352049071734
40
0.799352049071734
40
0.82124730609452
40
0.82124730609452
40
0.843142563117306
40
0.843142563117306
40
0.865037820140091
40
0.865037820140091
40
0.875985448651485
40
0.875985448651485
40
0.886933077162878
40
0.886933077162878
40
0.908828334185664
40
0.908828334185664
40
0.93072359120845
40
0.93072359120845
40
0.952618848231235
40
0.952618848231235
40
0.974514105254021
40
0.974514105254021
40
0.996409362276807
40
0.996409362276807
40
1
40
1
40
1
40
1
41
1
10
24.7527778430893
20
3.15833956224657
30
0
41
1
10
24.7557596481077
20
3.15974730834918
30
0
41
1
10
24.7587414279199
20
3.16115480629614
30
0
41
1
10
24.9480767770805
20
3.25051234860598
30
0
41
1
10
25.1339998367352
20
3.33802249399045
30
0
41
1
10
25.6926132995334
20
3.59576733734679
30
0
41
1
10
26.066104378618
20
3.76172934811956
30
0
41
1
10
26.8122395895385
20
4.08423128944537
30
0
41
1
10
27.1844814494874
20
4.24032346012632
30
0
41
1
10
27.9297308522463
20
4.53878054939091
30
0
41
1
10
28.3029563762043
20
4.68094477350692
30
0
41
1
10
28.8616680185112
20
4.88614851757046
30
0
41
1
10
29.0479071956793
20
4.95300656809303
30
0
41
1
10
29.4209552006723
20
5.08258144492217
30
0
41
1
10
29.6075070261192
20
5.14538666241126
30
0
41
1
10
30.1670003609202
20
5.32820673724777
30
0
41
1
10
30.5392342292346
20
5.44320074471804
30
0
41
1
10
31.2840745607943
20
5.65726051735257
30
0
41
1
10
31.6570003940673
20
5.75606289447757
30
0
41
1
10
32.4036008822721
20
5.93753128515741
30
0
41
1
10
32.7756145042409
20
6.02059098372931
30
0
41
1
10
33.5209215390629
20
6.16815737295178
30
0
41
1
10
33.8936903432876
20
6.23319847035012
30
0
41
1
10
34.6386799117027
20
6.34610405092872
30
0
41
1
10
35.0117712124393
20
6.3936377294016
30
0
41
1
10
35.5712921420716
20
6.45102383547012
30
0
41
1
10
35.7577527262119
20
6.46786825345455
30
0
41
1
10
36.1304117961188
20
6.49703315790859
30
0
41
1
10
36.3162770721332
20
6.50941926512837
30
0
41
1
10
36.8746879409942
20
6.53943228130254
30
0
41
1
10
37.2477458046681
20
6.55011927550359
30
0
41
1
10
37.9935924139115
20
6.55307287484243
30
0
41
1
10
38.3661651580508
20
6.54520241586286
30
0
41
1
10
39.1113816224828
20
6.51105833861061
30
0
41
1
10
39.4844915328904
20
6.48497030235333
30
0
41
1
10
40.2289041721869
20
6.41385412449691
30
0
41
1
10
40.6018150434919
20
6.36911083001769
30
0
41
1
10
41.3480067336733
20
6.26217533936244
30
0
41
1
10
41.7202212725658
20
6.19955922846304
30
0
41
1
10
42.4648419824407
20
6.05702395768856
30
0
41
1
10
42.8375552799049
20
5.97736712346756
30
0
41
1
10
43.583492347419
20
5.80117078806421
30
0
41
1
10
43.955876961368
20
5.70381694914587
30
0
41
1
10
44.7012192158058
20
5.49494450978318
30
0
41
1
10
45.0738799139452
20
5.38289082736273
30
0
41
1
10
45.8184574041766
20
5.14268347171105
30
0
41
1
10
46.1910997348576
20
5.01506764914498
30
0
41
1
10
46.7508261120276
20
4.81380774715882
30
0
41
1
10
46.9373274940511
20
4.74507736946893
30
0
41
1
10
47.3100049208645
20
4.6040998696796
30
0
41
1
10
47.4958491716996
20
4.53140433504788
30
0
41
1
10
48.0541512982126
20
4.30966286518608
30
0
41
1
10
48.42702389968
20
4.15658174994459
30
0
41
1
10
49.1722657803714
20
3.83734335724549
30
0
41
1
10
49.5449996352787
20
3.6712285781374
30
0
41
1
10
50.290313191965
20
3.33087798568758
30
0
41
1
10
50.6633672536566
20
3.15697189975674
30
0
41
1
10
51.4073960493289
20
2.79696949997586
30
0
41
1
10
51.7797772787553
20
2.61314748918483
30
0
41
1
10
52.5260939326939
20
2.23936558412655
30
0
41
1
10
52.8984526852062
20
2.0482699485504
30
0
41
1
10
53.6429801687125
20
1.66144103136483
30
0
41
1
10
54.0155424632206
20
1.46620772804374
30
0
41
1
10
54.760945719589
20
1.07156864785492
30
0
41
1
10
55.1332645419272
20
0.870463049386075
30
0
41
1
10
55.8787690275214
20
0.469767073623217
30
0
41
1
10
56.2513899813659
20
0.269002302445358
30
0
41
1
10
56.9956870701276
20
-0.134626025404685
30
0
41
1
10
57.3679400029744
20
-0.33642176981354
30
0
41
1
10
57.9273960035815
20
-0.637379368028803
30
0
41
1
10
58.1140424964837
20
-0.737522168849551
30
0
41
1
10
58.4868046009138
20
-0.937434860894257
30
0
41
1
10
58.6726630051828
20
-1.03784506977576
30
0
41
1
10
59.23094804968
20
-1.33625053415088
30
0
41
1
10
59.6036977600925
20
-1.53215975535832
30
0
41
1
10
60.3484663367262
20
-1.92128548488157
30
0
41
1
10
60.7209196760354
20
-2.1143178136459
30
0
41
1
10
61.4664554189067
20
-2.49216170875172
30
0
41
1
10
61.8395132738051
20
-2.67651509841613
30
0
41
1
10
62.5833018007537
20
-3.04096270012374
30
0
41
1
10
62.955488841791
20
-3.21858343053634
30
0
41
1
10
63.701158205379
20
-3.56358504757722
30
0
41
1
10
64.073845903914
20
-3.73229389212861
30
0
41
1
10
64.8184091190695
20
-4.05775814824665
30
0
41
1
10
65.1908830858603
20
-4.21426269993745
30
0
41
1
10
65.935884332006
20
-4.51540852695447
30
0
41
1
10
66.3076982382501
20
-4.66114572049193
30
0
41
1
10
67.0534901073426
20
-4.93700294292603
30
0
41
1
10
67.4261391819458
20
-5.06778168950288
30
0
41
1
10
68.1702854271913
20
-5.31576670639313
30
0
41
1
10
68.5423593680763
20
-5.43227588457648
30
0
41
1
10
69.1013813342935
20
-5.59495272593864
30
0
41
1
10
69.2878230960049
20
-5.64722060880791
30
0
41
1
10
69.6607220420289
20
-5.74799441295502
30
0
41
1
10
69.8466387872772
20
-5.79672331049687
30
0
41
1
10
70.4050017360997
20
-5.935852196079
30
0
41
1
10
70.777693087073
20
-6.01968615805006
30
0
41
1
10
71.5221237122652
20
-6.17105730525643
30
0
41
1
10
71.8940328815376
20
-6.23836694840497
30
0
41
1
10
72.639606270297
20
-6.35474651228941
30
0
41
1
10
73.0128673190145
20
-6.40373581978466
30
0
41
1
10
73.756559650414
20
-6.48434367862018
30
0
41
1
10
74.1286050436474
20
-6.51534316868108
30
0
41
1
10
74.8737576524505
20
-6.55885568306405
30
0
41
1
10
75.2463402550468
20
-6.57149211820629
30
0
41
1
10
75.6797700818862
20
-6.57527145913005
30
0
41
1
10
75.7408370904425
20
-6.57555356649527
30
0
41
1
10
75.8019056321972
20
-6.57558574507146
30
0
0
SPLINE
5
C9
100
AcDbEntity
8
1
62
256
6
ByLayer
370
18
48
1
60
0
100
AcDbSpline
70
4
71
3
72
116
73
112
40
0
40
0
40
0
40
0
40
0.0069077690947839
40
0.0069077690947839
40
0.0287637562791972
40
0.0287637562791972
40
0.039691749871404
40
0.039691749871404
40
0.0506197434636108
40
0.0506197434636108
40
0.0724757306480241
40
0.0724757306480241
40
0.0943317178324374
40
0.0943317178324374
40
0.116187705016851
40
0.116187705016851
40
0.138043692201264
40
0.138043692201264
40
0.159899679385677
40
0.159899679385677
40
0.181755666570091
40
0.181755666570091
40
0.203611653754504
40
0.203611653754504
40
0.225467640938917
40
0.225467640938917
40
0.24732362812333
40
0.24732362812333
40
0.258251621715537
40
0.258251621715537
40
0.269179615307744
40
0.269179615307744
40
0.291035602492156
40
0.291035602492156
40
0.312891589676568
40
0.312891589676568
40
0.33474757686098
40
0.33474757686098
40
0.345675570453186
40
0.345675570453186
40
0.356603564045393
40
0.356603564045393
40
0.378459551229806
40
0.378459551229806
40
0.400315538414219
40
0.400315538414219
40
0.422171525598633
40
0.422171525598633
40
0.444027512783046
40
0.444027512783046
40
0.465883499967459
40
0.465883499967459
40
0.476811493559666
40
0.476811493559666
40
0.487739487151874
40
0.487739487151874
40
0.509595474336288
40
0.509595474336288
40
0.531451461520703
40
0.531451461520703
40
0.553307448705117
40
0.553307448705117
40
0.564235442297325
40
0.564235442297325
40
0.575163435889532
40
0.575163435889532
40
0.597019423073947
40
0.597019423073947
40
0.618875410258361
40
0.618875410258361
40
0.640731397442776
40
0.640731397442776
40
0.66258738462719
40
0.66258738462719
40
0.684443371811605
40
0.684443371811605
40
0.695371365403813
40
0.695371365403813
40
0.706299358996019
40
0.706299358996019
40
0.728155346180435
40
0.728155346180435
40
0.750011333364851
40
0.750011333364851
40
0.771867320549267
40
0.771867320549267
40
0.782795314141476
40
0.782795314141476
40
0.793723307733684
40
0.793723307733684
40
0.815579294918101
40
0.815579294918101
40
0.837435282102518
40
0.837435282102518
40
0.859291269286935
40
0.859291269286935
40
0.881147256471352
40
0.881147256471352
40
0.90300324365577
40
0.90300324365577
40
0.913931237247978
40
0.913931237247978
40
0.924859230840187
40
0.924859230840187
40
0.946715218024605
40
0.946715218024605
40
0.968571205209023
40
0.968571205209023
40
0.990427192393441
40
0.990427192393441
40
1
40
1
40
1
40
1
41
1
10
100.952463510734
20
3.17656022041572
30
0
41
1
10
101.070179672164
20
3.23260596719641
30
0
41
1
10
101.187879784882
20
3.28825532692306
30
0
41
1
10
101.677769546817
20
3.51834812081242
30
0
41
1
10
102.049676572387
20
3.68813096104637
30
0
41
1
10
102.607972628522
20
3.93390423408116
30
0
41
1
10
102.794091557057
20
4.01442793985166
30
0
41
1
10
103.166191853943
20
4.17292419821641
30
0
41
1
10
103.351842815672
20
4.25136021791093
30
0
41
1
10
103.909857127256
20
4.48098033596631
30
0
41
1
10
104.28305292779
20
4.62711424939394
30
0
41
1
10
105.027282855448
20
4.90697708965268
30
0
41
1
10
105.398756678651
20
5.0405497602205
30
0
41
1
10
106.142808723469
20
5.29212494436484
30
0
41
1
10
106.515624134805
20
5.40999313342348
30
0
41
1
10
107.259902399257
20
5.6326818826729
30
0
41
1
10
107.631840776829
20
5.73575800108196
30
0
41
1
10
108.376229621673
20
5.92487503764505
30
0
41
1
10
108.747809229829
20
6.01163856933186
30
0
41
1
10
109.491717313823
20
6.16781866936313
30
0
41
1
10
109.864630274787
20
6.23711430767685
30
0
41
1
10
110.609354133666
20
6.35794662405237
30
0
41
1
10
110.980487444535
20
6.4098667827617
30
0
41
1
10
111.724489360584
20
6.4947410834163
30
0
41
1
10
112.096756752642
20
6.52806223025161
30
0
41
1
10
112.841091126568
20
6.5764777889928
30
0
41
1
10
113.213277125414
20
6.59134893650162
30
0
41
1
10
113.771527707857
20
6.59968336500864
30
0
41
1
10
113.957604892184
20
6.60014664425626
30
0
41
1
10
114.329576149244
20
6.59643017697044
30
0
41
1
10
114.51513813545
20
6.59221497067441
30
0
41
1
10
115.072772083052
20
6.57260423286493
30
0
41
1
10
115.445779390416
20
6.55032685101895
30
0
41
1
10
116.190211846585
20
6.48719293815145
30
0
41
1
10
116.561667438604
20
6.44628375781164
30
0
41
1
10
117.305464921634
20
6.34675557279817
30
0
41
1
10
117.678023474681
20
6.28837656746495
30
0
41
1
10
118.235785590263
20
6.18658373169302
30
0
41
1
10
118.421778063724
20
6.15034379206125
30
0
41
1
10
118.793979304329
20
6.07390550933482
30
0
41
1
10
118.980121393304
20
6.03364485866155
30
0
41
1
10
119.538420690299
20
5.90661780931424
30
0
41
1
10
119.909908007629
20
5.81314166799035
30
0
41
1
10
120.653382067094
20
5.61006869330046
30
0
41
1
10
121.025880411045
20
5.50075754162611
30
0
41
1
10
121.770865909087
20
5.2667858290896
30
0
41
1
10
122.142023329942
20
5.14128422239807
30
0
41
1
10
122.885831026039
20
4.87798764565449
30
0
41
1
10
123.2579132794
20
4.73961636751363
30
0
41
1
10
124.001637103651
20
4.44828266862919
30
0
41
1
10
124.374024785418
20
4.2959584827214
30
0
41
1
10
124.932325194769
20
4.059798343306
30
0
41
1
10
125.118393180242
20
3.97970032781339
30
0
41
1
10
125.490300593312
20
3.8165030199132
30
0
41
1
10
125.675809387963
20
3.73289907656809
30
0
41
1
10
126.233155030573
20
3.47928853759655
30
0
41
1
10
126.60556736372
20
3.30619347113776
30
0
41
1
10
127.350267365853
20
2.94909482543593
30
0
41
1
10
127.721805129565
20
2.76561577881876
30
0
41
1
10
128.465476257804
20
2.39298388440329
30
0
41
1
10
128.837852229733
20
2.20421756419739
30
0
41
1
10
129.395256690506
20
1.91393783363534
30
0
41
1
10
129.580990061036
20
1.81619659429589
30
0
41
1
10
129.953182436324
20
1.62028476201033
30
0
41
1
10
130.139443858768
20
1.52195271228516
30
0
41
1
10
130.697848075719
20
1.2257594876427
30
0
41
1
10
131.069311744126
20
1.02556790152656
30
0
41
1
10
131.812479596332
20
0.623064367630121
30
0
41
1
10
132.184515699546
20
0.421366659805272
30
0
41
1
10
132.929266344708
20
0.0166792666738331
30
0
41
1
10
133.300752181749
20
-0.187684663281942
30
0
41
1
10
134.044493466109
20
-0.592004866528583
30
0
41
1
10
134.41645915496
20
-0.793066100809966
30
0
41
1
10
135.159705817245
20
-1.19457488852274
30
0
41
1
10
135.531850522551
20
-1.39412727013132
30
0
41
1
10
136.090298015857
20
-1.68897119206036
30
0
41
1
10
136.276390486434
20
-1.78658371923026
30
0
41
1
10
136.648299309029
20
-1.98075957073649
30
0
41
1
10
136.833792191455
20
-2.07788650439622
30
0
41
1
10
137.390942772758
20
-2.36576282069947
30
0
41
1
10
137.763124723799
20
-2.55331145514745
30
0
41
1
10
138.507181419676
20
-2.92277949461152
30
0
41
1
10
138.879107092588
20
-3.10451188163466
30
0
41
1
10
139.622782476293
20
-3.45677632516148
30
0
41
1
10
139.995030883525
20
-3.62723590177561
30
0
41
1
10
140.552197856074
20
-3.87718300478701
30
0
41
1
10
140.737773146855
20
-3.95944146995401
30
0
41
1
10
141.109636312294
20
-4.12035946037778
30
0
41
1
10
141.295852471963
20
-4.19925566045836
30
0
41
1
10
141.854459505838
20
-4.43130519060389
30
0
41
1
10
142.225968576139
20
-4.58046661532282
30
0
41
1
10
142.968957561172
20
-4.86523687491373
30
0
41
1
10
143.34078815487
20
-5.00043399941353
30
0
41
1
10
144.084948341883
20
-5.25677198634665
30
0
41
1
10
144.456618643317
20
-5.3788816503685
30
0
41
1
10
145.200424242693
20
-5.60556801424318
30
0
41
1
10
145.572342977366
20
-5.71084649435449
30
0
41
1
10
146.315248834121
20
-5.9061018153356
30
0
41
1
10
146.686803295664
20
-5.99552061696568
30
0
41
1
10
147.245362109361
20
-6.11654390235054
30
0
41
1
10
147.431550727823
20
-6.15471496410595
30
0
41
1
10
147.803528133841
20
-6.22677915952278
30
0
41
1
10
147.989042834211
20
-6.2608646031961
30
0
41
1
10
148.546092503926
20
-6.3560412196214
30
0
41
1
10
148.918106879249
20
-6.4101993678394
30
0
41
1
10
149.661656753275
20
-6.50092300957178
30
0
41
1
10
150.033527486701
20
-6.53737605366183
30
0
41
1
10
150.777336973461
20
-6.59137123072986
30
0
41
1
10
151.149514639099
20
-6.60903163881213
30
0
41
1
10
151.683532042094
20
-6.62118988283805
30
0
41
1
10
151.846008136681
20
-6.62310165553211
30
0
41
1
10
152.008697672997
20
-6.62321291594398
30
0
0
SPLINE
5
CA
100
AcDbEntity
8
1
62
256
6
ByLayer
370
13
48
1
60
0
100
AcDbSpline
70
4
71
3
72
16
73
12
40
0
40
0
40
0
40
0
40
0.151469488684002
40
0.151469488684002
40
0.317622955427141
40
0.317622955427141
40
0.48377642217028
40
0.48377642217028
40
0.816083355656558
40
0.816083355656558
40
1
40
1
40
1
40
1
41
1
10
8.25022452608238
20
5.50285846970795
30
0
41
1
10
8.25022505786512
20
5.56886621421901
30
0
41
1
10
8.25022503065233
20
5.63009365879699
30
0
41
1
10
8.25022403608662
20
5.74860379961035
30
0
41
1
10
8.25022297519467
20
5.80490197672978
30
0
41
1
10
8.25022004771617
20
5.90597133422713
30
0
41
1
10
8.25021817168738
20
5.95088791922961
30
0
41
1
10
8.25021181897341
20
6.066584513191
30
0
41
1
10
8.2502066556176
20
6.11850264611383
30
0
41
1
10
8.25019891225631
20
6.16122049936504
30
0
41
1
10
8.25019620575287
20
6.16896057622102
30
0
41
1
10
8.25019371603634
20
6.16904846550963
30
0
0
SPLINE
5
CB
100
AcDbEntity
8
1
62
256
6
ByLayer
370
18
48
1
60
0
100
AcDbSpline
70
4
71
3
72
120
73
116
40
0
40
0
40
0
40
0
40
0.0208779961494685
40
0.0208779961494685
40
0.0423133002804701
40
0.0423133002804701
40
0.0637486044114717
40
0.0637486044114717
40
0.0851839085424733
40
0.0851839085424733
40
0.106619212673475
40
0.106619212673475
40
0.117336864738976
40
0.117336864738976
40
0.128054516804476
40
0.128054516804476
40
0.149489820935477
40
0.149489820935477
40
0.170925125066477
40
0.170925125066477
40
0.192360429197477
40
0.192360429197477
40
0.203078081262977
40
0.203078081262977
40
0.213795733328477
40
0.213795733328477
40
0.235231037459479
40
0.235231037459479
40
0.25666634159048
40
0.25666634159048
40
0.267383993655981
40
0.267383993655981
40
0.278101645721482
40
0.278101645721482
40
0.299536949852482
40
0.299536949852482
40
0.320972253983482
40
0.320972253983482
40
0.331689906048982
40
0.331689906048982
40
0.342407558114481
40
0.342407558114481
40
0.363842862245479
40
0.363842862245479
40
0.385278166376476
40
0.385278166376476
40
0.406713470507474
40
0.406713470507474
40
0.417431122572972
40
0.417431122572972
40
0.428148774638471
40
0.428148774638471
40
0.449584078769468
40
0.449584078769468
40
0.471019382900466
40
0.471019382900466
40
0.492454687031463
40
0.492454687031463
40
0.513889991162461
40
0.513889991162461
40
0.535325295293459
40
0.535325295293459
40
0.556760599424456
40
0.556760599424456
40
0.578195903555454
40
0.578195903555454
40
0.599631207686452
40
0.599631207686452
40
0.621066511817449
40
0.621066511817449
40
0.631784163882948
40
0.631784163882948
40
0.642501815948447
40
0.642501815948447
40
0.663937120079445
40
0.663937120079445
40
0.685372424210442
40
0.685372424210442
40
0.706807728341439
40
0.706807728341439
40
0.717525380406938
40
0.717525380406938
40
0.728243032472436
40
0.728243032472436
40
0.749678336603431
40
0.749678336603431
40
0.771113640734426
40
0.771113640734426
40
0.781831292799924
40
0.781831292799924
40
0.792548944865421
40
0.792548944865421
40
0.813984248996417
40
0.813984248996417
40
0.835419553127414
40
0.835419553127414
40
0.846137205192912
40
0.846137205192912
40
0.85685485725841
40
0.85685485725841
40
0.878290161389405
40
0.878290161389405
40
0.8997254655204
40
0.8997254655204
40
0.921160769651395
40
0.921160769651395
40
0.931878421716893
40
0.931878421716893
40
0.942596073782391
40
0.942596073782391
40
0.964031377913389
40
0.964031377913389
40
0.985466682044387
40
0.985466682044387
40
1
40
1
40
1
40
1
41
1
10
139.054876394199
20
-3.18787617286591
30
0
41
1
10
138.702292657598
20
-3.34373688279808
30
0
41
1
10
138.349990188096
20
-3.49599107588023
30
0
41
1
10
137.636000920277
20
-3.79521955460606
30
0
41
1
10
137.274150300658
20
-3.94162059598531
30
0
41
1
10
136.549225466182
20
-4.22271471775326
30
0
41
1
10
136.187704683728
20
-4.35915114162182
30
0
41
1
10
135.463995677301
20
-4.61841460297487
30
0
41
1
10
135.102076210439
20
-4.74163568832728
30
0
41
1
10
134.378187379368
20
-4.97519886056577
30
0
41
1
10
134.015930345506
20
-5.08632178437898
30
0
41
1
10
133.472768699544
20
-5.24202273427483
30
0
41
1
10
133.291732131509
20
-5.29205247979263
30
0
41
1
10
132.929670211702
20
-5.38816955125992
30
0
41
1
10
132.748958084674
20
-5.43460110576657
30
0
41
1
10
132.206582679677
20
-5.56821392825688
30
0
41
1
10
131.844530447239
20
-5.65005082600055
30
0
41
1
10
131.119903562305
20
-5.79925271300863
30
0
41
1
10
130.757961372278
20
-5.86588494749631
30
0
41
1
10
130.034524891053
20
-5.98250485251893
30
0
41
1
10
129.672628690419
20
-6.03306712431441
30
0
41
1
10
129.12938455851
20
-6.0973830555761
30
0
41
1
10
128.948634840313
20
-6.11696809736895
30
0
41
1
10
128.586604944432
20
-6.15152404281642
30
0
41
1
10
128.405493720295
20
-6.16653426402237
30
0
41
1
10
127.86236274568
20
-6.20521561983725
30
0
41
1
10
127.500465812294
20
-6.22297082197028
30
0
41
1
10
126.776853379545
20
-6.24292611531192
30
0
41
1
10
126.415143671524
20
-6.24451222493676
30
0
41
1
10
125.871615141281
20
-6.23338519075693
30
0
41
1
10
125.690258295596
20
-6.22746453072051
30
0
41
1
10
125.328071144333
20
-6.211908726377
30
0
41
1
10
125.147349533491
20
-6.20213469077925
30
0
41
1
10
124.604641559008
20
-6.16687698678828
30
0
41
1
10
124.242610955501
20
-6.13528651450701
30
0
41
1
10
123.518582893548
20
-6.05440993902238
30
0
41
1
10
123.156266447161
20
-6.00567536854936
30
0
41
1
10
122.613065647707
20
-5.92168488929096
30
0
41
1
10
122.43200911215
20
-5.89178127675194
30
0
41
1
10
122.06988333537
20
-5.82793194945492
30
0
41
1
10
121.888689297883
20
-5.7940589944445
30
0
41
1
10
121.346108490492
20
-5.68556732840852
30
0
41
1
10
120.984422042991
20
-5.60528836752778
30
0
41
1
10
120.259672805743
20
-5.43210622111789
30
0
41
1
10
119.897315945983
20
-5.33846230707749
30
0
41
1
10
119.173630675499
20
-5.13486941048566
30
0
41
1
10
118.811932602088
20
-5.0259018240682
30
0
41
1
10
118.268665105815
20
-4.85425469739965
30
0
41
1
10
118.087409126479
20
-4.79566945413359
30
0
41
1
10
117.72547978329
20
-4.67423640499419
30
0
41
1
10
117.54436583607
20
-4.61182435455962
30
0
41
1
10
117.001263232212
20
-4.41968374362045
30
0
41
1
10
116.639183477851
20
-4.28595466114314
30
0
41
1
10
115.915359470399
20
-4.00822175622235
30
0
41
1
10
115.553606290118
20
-3.86393981973785
30
0
41
1
10
114.829167165824
20
-3.56424520794874
30
0
41
1
10
114.46626073943
20
-3.40983878317496
30
0
41
1
10
113.74273502254
20
-3.09126889174897
30
0
41
1
10
113.380767505081
20
-2.9285717076732
30
0
41
1
10
112.65649932453
20
-2.59505191377636
30
0
41
1
10
112.294143973671
20
-2.42372301848667
30
0
41
1
10
111.569658144803
20
-2.07601674233683
30
0
41
1
10
111.207579893729
20
-1.8997942281392
30
0
41
1
10
110.483112164926
20
-1.5431539941311
30
0
41
1
10
110.121647765044
20
-1.3606314622167
30
0
41
1
10
109.397058883312
20
-0.994951925706204
30
0
41
1
10
109.034318149282
20
-0.810978247836943
30
0
41
1
10
108.310145975467
20
-0.440782572783007
30
0
41
1
10
107.948483450432
20
-0.254371914637233
30
0
41
1
10
107.405277196199
20
0.0243842166893273
30
0
41
1
10
107.224112651209
20
0.117206587064203
30
0
41
1
10
106.861591623626
20
0.302669786689904
30
0
41
1
10
106.680489804996
20
0.395971700764392
30
0
41
1
10
106.137264035168
20
0.674908713669367
30
0
41
1
10
105.775178482187
20
0.859279757541657
30
0
41
1
10
105.051122347909
20
1.22547019348946
30
0
41
1
10
104.689217578958
20
1.40746924336651
30
0
41
1
10
103.96492661633
20
1.76754504537234
30
0
41
1
10
103.602253109917
20
1.9450229059442
30
0
41
1
10
103.058811005289
20
2.20642080070735
30
0
41
1
10
102.878075759408
20
2.29355032867869
30
0
41
1
10
102.516256976127
20
2.46555417353161
30
0
41
1
10
102.335287498173
20
2.5506400770536
30
0
41
1
10
101.792138608296
20
2.80291319714098
30
0
41
1
10
101.429772488663
20
2.96745120947298
30
0
41
1
10
100.705038803325
20
3.28898123223141
30
0
41
1
10
100.343088382585
20
3.44582400327448
30
0
41
1
10
99.7998309531084
20
3.67292498114398
30
0
41
1
10
99.618637560179
20
3.74716475381575
30
0
41
1
10
99.2565320829141
20
3.89355496221361
30
0
41
1
10
99.0757572751332
20
3.96591716663286
30
0
41
1
10
98.5326041906702
20
4.17817812337645
30
0
41
1
10
98.1697556530851
20
4.31424446400771
30
0
41
1
10
97.4453637630417
20
4.57443909059975
30
0
41
1
10
97.0835651962211
20
4.69820458374056
30
0
41
1
10
96.5405624292322
20
4.87447610754373
30
0
41
1
10
96.3594727422791
20
4.93161815734661
30
0
41
1
10
95.9970779978169
20
5.0425760518867
30
0
41
1
10
95.8156153207897
20
5.09625679442911
30
0
41
1
10
95.2721835278354
20
5.2531435943101
30
0
41
1
10
94.9103598394434
20
5.35009060083434
30
0
41
1
10
94.1860794660608
20
5.52959640129902
30
0
41
1
10
93.8240584932075
20
5.61265019859258
30
0
41
1
10
93.0997620782119
20
5.7632036703327
30
0
41
1
10
92.7372456824432
20
5.83027368722588
30
0
41
1
10
92.1936372628069
20
5.91910643497164
30
0
41
1
10
92.0123579377833
20
5.94690632326621
30
0
41
1
10
91.6505588348717
20
5.99897026494207
30
0
41
1
10
91.469635547396
20
6.02298406017917
30
0
41
1
10
90.9265939405736
20
6.0886446496873
30
0
41
1
10
90.5642324011849
20
6.12359994192906
30
0
41
1
10
89.8391424969694
20
6.17719354356237
30
0
41
1
10
89.4770133540392
20
6.19676649719679
30
0
41
1
10
88.8692768955096
20
6.21513759339109
30
0
41
1
10
88.6235517180085
20
6.21854025380648
30
0
41
1
10
88.3779444295104
20
6.21793925149501
30
0
0
SPLINE
5
CC
100
AcDbEntity
8
1
62
256
6
ByLayer
370
18
48
1
60
0
100
AcDbSpline
70
4
71
3
72
120
73
116
40
0
40
0
40
0
40
0
40
0.0179752487927718
40
0.0179752487927718
40
0.0393236129494515
40
0.0393236129494515
40
0.0606719771061313
40
0.0606719771061313
40
0.0820203412628104
40
0.0820203412628104
40
0.10336870541949
40
0.10336870541949
40
0.124717069576169
40
0.124717069576169
40
0.146065433732848
40
0.146065433732848
40
0.156739615811188
40
0.156739615811188
40
0.167413797889528
40
0.167413797889528
40
0.188762162046208
40
0.188762162046208
40
0.210110526202889
40
0.210110526202889
40
0.231458890359568
40
0.231458890359568
40
0.242133072437908
40
0.242133072437908
40
0.252807254516249
40
0.252807254516249
40
0.274155618672928
40
0.274155618672928
40
0.295503982829607
40
0.295503982829607
40
0.306178164907947
40
0.306178164907947
40
0.316852346986287
40
0.316852346986287
40
0.338200711142965
40
0.338200711142965
40
0.359549075299644
40
0.359549075299644
40
0.370223257377983
40
0.370223257377983
40
0.380897439456323
40
0.380897439456323
40
0.402245803613001
40
0.402245803613001
40
0.423594167769679
40
0.423594167769679
40
0.444942531926357
40
0.444942531926357
40
0.455616714004696
40
0.455616714004696
40
0.466290896083035
40
0.466290896083035
40
0.487639260239713
40
0.487639260239713
40
0.508987624396391
40
0.508987624396391
40
0.53033598855307
40
0.53033598855307
40
0.551684352709748
40
0.551684352709748
40
0.573032716866426
40
0.573032716866426
40
0.594381081023104
40
0.594381081023104
40
0.605055263101443
40
0.605055263101443
40
0.615729445179783
40
0.615729445179783
40
0.637077809336461
40
0.637077809336461
40
0.65842617349314
40
0.65842617349314
40
0.66910035557148
40
0.66910035557148
40
0.67977453764982
40
0.67977453764982
40
0.701122901806498
40
0.701122901806498
40
0.722471265963177
40
0.722471265963177
40
0.743819630119856
40
0.743819630119856
40
0.754493812198195
40
0.754493812198195
40
0.765167994276534
40
0.765167994276534
40
0.786516358433212
40
0.786516358433212
40
0.807864722589891
40
0.807864722589891
40
0.81853890466823
40
0.81853890466823
40
0.829213086746569
40
0.829213086746569
40
0.850561450903248
40
0.850561450903248
40
0.871909815059927
40
0.871909815059927
40
0.893258179216606
40
0.893258179216606
40
0.914606543373284
40
0.914606543373284
40
0.935954907529963
40
0.935954907529963
40
0.957303271686642
40
0.957303271686642
40
0.967977453764981
40
0.967977453764981
40
0.978651635843321
40
0.978651635843321
40
1
40
1
40
1
40
1
41
1
10
62.8551555800782
20
-3.16872715641654
30
0
41
1
10
62.5496849893334
20
-3.30272496160182
30
0
41
1
10
62.2439340334403
20
-3.43365096687583
30
0
41
1
10
61.5768747278019
20
-3.71409359228699
30
0
41
1
10
61.2146276610993
20
-3.86028170728216
30
0
41
1
10
60.4897102757849
20
-4.14250713481206
30
0
41
1
10
60.127034538684
20
-4.27901160368339
30
0
41
1
10
59.4018715269219
20
-4.54003884155841
30
0
41
1
10
59.0395536933728
20
-4.66384826644909
30
0
41
1
10
58.31450968747
20
-4.89832755879948
30
0
41
1
10
57.9527351368338
20
-5.01050180797742
30
0
41
1
10
57.2275942388951
20
-5.21941229487766
30
0
41
1
10
56.8645764653112
20
-5.31657532337024
30
0
41
1
10
56.1397219646653
20
-5.49726228911715
30
0
41
1
10
55.7776015814545
20
-5.58092753415119
30
0
41
1
10
55.233875792056
20
-5.69424055255129
30
0
41
1
10
55.0525549953277
20
-5.72995949921247
30
0
41
1
10
54.6897369238071
20
-5.79743592717867
30
0
41
1
10
54.5085574376544
20
-5.82947148127971
30
0
41
1
10
53.9647130247487
20
-5.91954141605382
30
0
41
1
10
53.6020759989595
20
-5.97191025997006
30
0
41
1
10
52.8771782920255
20
-6.06032881613547
30
0
41
1
10
52.5149347657745
20
-6.09604830014763
30
0
41
1
10
51.7898818174426
20
-6.15152824352532
30
0
41
1
10
51.4266322579102
20
-6.17160307873644
30
0
41
1
10
50.8826234686388
20
-6.18900467739482
30
0
41
1
10
50.7017089219138
20
-6.19264299141446
30
0
41
1
10
50.339496270477
20
-6.19542291334147
30
0
41
1
10
50.158332991767
20
-6.19466615769514
30
0
41
1
10
49.6145970892649
20
-6.18654480624446
30
0
41
1
10
49.251922541493
20
-6.17327899978514
30
0
41
1
10
48.5263721320975
20
-6.12981945262356
30
0
41
1
10
48.1641011794373
20
-6.09921217501591
30
0
41
1
10
47.620287658379
20
-6.04178862516642
30
0
41
1
10
47.438858985047
20
-6.02080412137053
30
0
41
1
10
47.0765423910733
20
-5.97461148092526
30
0
41
1
10
46.8955389397544
20
-5.94943419863711
30
0
41
1
10
46.3518516627227
20
-5.86798922046802
30
0
41
1
10
45.9886706508775
20
-5.80519982832749
30
0
41
1
10
45.263479076533
20
-5.66501776090939
30
0
41
1
10
44.9012043108133
20
-5.58787726141602
30
0
41
1
10
44.3575655367457
20
-5.46066278406426
30
0
41
1
10
44.1762730081957
20
-5.41641649487767
30
0
41
1
10
43.813492005117
20
-5.32419382160307
30
0
41
1
10
43.6318993025159
20
-5.27630820845067
30
0
41
1
10
43.0879455262263
20
-5.12626234306637
30
0
41
1
10
42.7254374575453
20
-5.01984825533793
30
0
41
1
10
42.0002122181074
20
-4.79465476323193
30
0
41
1
10
41.6378153857098
20
-4.67507876939263
30
0
41
1
10
40.9127114916604
20
-4.42280204597728
30
0
41
1
10
40.549674716624
20
-4.29124009627373
30
0
41
1
10
40.005369788076
20
-4.08597174306899
30
0
41
1
10
39.8239816820573
20
-4.01617755745337
30
0
41
1
10
39.4617986765564
20
-3.87302513895094
30
0
41
1
10
39.2806658905468
20
-3.80015353724778
30
0
41
1
10
38.7370212505888
20
-3.57802839737761
30
0
41
1
10
38.3742522249802
20
-3.42569079871362
30
0
41
1
10
37.6484524843927
20
-3.11150320305418
30
0
41
1
10
37.2859771457686
20
-2.94968372576497
30
0
41
1
10
36.5610269627425
20
-2.618572350009
30
0
41
1
10
36.1982285982886
20
-2.45048239117924
30
0
41
1
10
35.4735500731409
20
-2.1057902520179
30
0
41
1
10
35.1104198397156
20
-1.93060296762198
30
0
41
1
10
34.3849206724105
20
-1.57571908609413
30
0
41
1
10
34.0225362378193
20
-1.39588317480334
30
0
41
1
10
33.2977139997503
20
-1.03313569151823
30
0
41
1
10
32.9351288402726
20
-0.850362358953049
30
0
41
1
10
32.3904581578052
20
-0.574914324632203
30
0
41
1
10
32.209144100683
20
-0.482268510364747
30
0
41
1
10
31.8465990721681
20
-0.297183374937276
30
0
41
1
10
31.6653086408799
20
-0.20471007641072
30
0
41
1
10
31.1213439335117
20
0.0724184530326397
30
0
41
1
10
30.7587264022404
20
0.257075588595768
30
0
41
1
10
30.0335090520977
20
0.626093896403404
30
0
41
1
10
29.6705879502488
20
0.810435174222789
30
0
41
1
10
29.1261756289483
20
1.08393856428842
30
0
41
1
10
28.9446978012229
20
1.17461415033969
30
0
41
1
10
28.5818687059338
20
1.35514284051948
30
0
41
1
10
28.4008837891634
20
1.44566812429844
30
0
41
1
10
27.8573697275216
20
1.7144606076275
30
0
41
1
10
27.4945909320848
20
1.89084302347243
30
0
41
1
10
26.7686506756559
20
2.23918124685736
30
0
41
1
10
26.4057744331769
20
2.4109097263372
30
0
41
1
10
25.6806276669722
20
2.74704154789686
30
0
41
1
10
25.3177416568164
20
2.91079956473271
30
0
41
1
10
24.7736852423613
20
3.1512506202956
30
0
41
1
10
24.5925788761521
20
3.23087227779845
30
0
41
1
10
24.2297988227689
20
3.38724102484568
30
0
41
1
10
24.0482267037282
20
3.46421239650868
30
0
41
1
10
23.5038716835413
20
3.69058119665519
30
0
41
1
10
23.1413082488587
20
3.8362876574696
30
0
41
1
10
22.4162322679863
20
4.11832571128528
30
0
41
1
10
22.053722526253
20
4.25432629451262
30
0
41
1
10
21.5090729150208
20
4.44926553139737
30
0
41
1
10
21.3272378116554
20
4.51262906845892
30
0
41
1
10
20.9645447463247
20
4.63721982319271
30
0
41
1
10
20.7833348014454
20
4.69804883789595
30
0
41
1
10
20.2394582806319
20
4.87526808007937
30
0
41
1
10
19.8767133747941
20
4.98687637595097
30
0
41
1
10
19.1514274276083
20
5.19574175297362
30
0
41
1
10
18.7885856804217
20
5.29233965024349
30
0
41
1
10
18.0627249350923
20
5.47263752273949
30
0
41
1
10
17.6994528801029
20
5.55532888970782
30
0
41
1
10
16.9747629579651
20
5.70676901227594
30
0
41
1
10
16.6121043998636
20
5.77465035915529
30
0
41
1
10
15.8859941712121
20
5.89521626966655
30
0
41
1
10
15.5228515559306
20
5.94787280969177
30
0
41
1
10
14.7980716835841
20
6.03617248875716
30
0
41
1
10
14.4359784338544
20
6.07192762574547
30
0
41
1
10
13.8925026834868
20
6.11361785779121
30
0
41
1
10
13.7114005892642
20
6.1255524344235
30
0
41
1
10
13.349610994826
20
6.14539928505681
30
0
41
1
10
13.1686833420327
20
6.15325181865987
30
0
41
1
10
12.6254011494211
20
6.17041617965427
30
0
41
1
10
12.2624084204885
20
6.17333526207298
30
0
41
1
10
11.8988804767218
20
6.16829678724736
30
0
0
SPLINE
5
CD
100
AcDbEntity
8
1
62
256
6
ByLayer
370
18
48
1
60
0
100
AcDbSpline
70
4
71
3
72
46
73
42
40
0
40
0
40
0
40
0
40
0.0585754905892083
40
0.0585754905892083
40
0.117150981178417
40
0.117150981178417
40
0.146438726473021
40
0.146438726473021
40
0.175726471767625
40
0.175726471767625
40
0.234301962356833
40
0.234301962356833
40
0.351452943535249
40
0.351452943535249
40
0.380740688829853
40
0.380740688829853
40
0.410028434124456
40
0.410028434124456
40
0.468603924713663
40
0.468603924713663
40
0.527179415302869
40
0.527179415302869
40
0.585754905892076
40
0.585754905892076
40
0.644330396481283
40
0.644330396481283
40
0.673618141775886
40
0.673618141775886
40
0.702905887070489
40
0.702905887070489
40
0.761481377659698
40
0.761481377659698
40
0.790769122954301
40
0.790769122954301
40
0.820056868248904
40
0.820056868248904
40
0.937207849427314
40
0.937207849427314
40
0.995783340016519
40
0.995783340016519
40
1
40
1
40
1
40
1
41
1
10
154.649635942053
20
-6.60509019178434
30
0
41
1
10
153.885456345326
20
-6.63688459178695
30
0
41
1
10
153.119676934223
20
-6.62904460876862
30
0
41
1
10
151.592904517553
20
-6.5350404490456
30
0
41
1
10
150.830950018671
20
-6.44903635147898
30
0
41
1
10
149.685634914543
20
-6.26318915620311
30
0
41
1
10
149.302837009111
20
-6.19163527876003
30
0
41
1
10
148.538659899338
20
-6.03058241740868
30
0
41
1
10
148.157903560166
20
-5.94125842755111
30
0
41
1
10
147.01850643376
20
-5.64825875116637
30
0
41
1
10
146.262735206406
20
-5.4195462869518
30
0
41
1
10
143.997742299505
20
-4.64445651582122
30
0
41
1
10
142.491085908871
20
-4.00872151770184
30
0
41
1
10
140.581641652992
20
-3.10394597946885
30
0
41
1
10
140.198516132421
20
-2.91752803497735
30
0
41
1
10
139.434600112945
20
-2.53773608954398
30
0
41
1
10
139.05308904477
20
-2.34403423087346
30
0
41
1
10
137.908796483173
20
-1.75343530846769
30
0
41
1
10
137.146180089927
20
-1.34717275867379
30
0
41
1
10
135.61521581949
20
-0.520537050924617
30
0
41
1
10
134.85498528432
20
-0.104591925155035
30
0
41
1
10
133.34026305987
20
0.720212000341348
30
0
41
1
10
132.585599925815
20
1.12934564302213
30
0
41
1
10
131.075547839769
20
1.92984888394958
30
0
41
1
10
130.320234202475
20
2.3213561759529
30
0
41
1
10
129.182248587936
20
2.88714678613002
30
0
41
1
10
128.802093884985
20
3.07218301955103
30
0
41
1
10
128.039366880832
20
3.43374356260188
30
0
41
1
10
127.656139580372
20
3.61052893427961
30
0
41
1
10
126.509241210635
20
4.12255769442609
30
0
41
1
10
125.746823873535
20
4.440305052497
30
0
41
1
10
124.601851402206
20
4.87522452268382
30
0
41
1
10
124.219952996451
20
5.013227634473
30
0
41
1
10
123.454928896925
20
5.27429298117048
30
0
41
1
10
123.072060862472
20
5.39721911641533
30
0
41
1
10
121.166875362428
20
5.96799069341694
30
0
41
1
10
119.660926036631
20
6.28815308884487
30
0
41
1
10
117.393303535424
20
6.54312383103351
30
0
41
1
10
116.636000224428
20
6.5906147732814
30
0
41
1
10
115.819399902117
20
6.59970085651631
30
0
41
1
10
115.764527611193
20
6.60010829948828
30
0
41
1
10
115.709624654688
20
6.60031276829511
30
0
0
SPLINE
5
CE
100
AcDbEntity
8
1
62
256
6
ByLayer
370
18
48
1
60
0
100
AcDbSpline
70
4
71
3
72
54
73
50
40
0
40
0
40
0
40
0
40
0.0008166477931609
40
0.0008166477931609
40
0.0280379034834056
40
0.0280379034834056
40
0.0552591591736508
40
0.0552591591736508
40
0.109701670554142
40
0.109701670554142
40
0.164144181934633
40
0.164144181934633
40
0.191365437624879
40
0.191365437624879
40
0.218586693315125
40
0.218586693315125
40
0.273029204695616
40
0.273029204695616
40
0.300250460385862
40
0.300250460385862
40
0.327471716076107
40
0.327471716076107
40
0.381914227456598
40
0.381914227456598
40
0.409135483146844
40
0.409135483146844
40
0.43635673883709
40
0.43635673883709
40
0.545241761598073
40
0.545241761598073
40
0.599684272978564
40
0.599684272978564
40
0.626905528668809
40
0.626905528668809
40
0.654126784359054
40
0.654126784359054
40
0.708569295739545
40
0.708569295739545
40
0.735790551429791
40
0.735790551429791
40
0.763011807120036
40
0.763011807120036
40
0.871896829881017
40
0.871896829881017
40
0.926339341261508
40
0.926339341261508
40
0.980781852641998
40
0.980781852641998
40
1
40
1
40
1
40
1
41
1
10
81.5111414027565
20
-6.22471030987745
30
0
41
1
10
81.4996593498513
20
-6.22672019463994
30
0
41
1
10
81.4881767797395
20
-6.22872178516579
30
0
41
1
10
81.0939284918186
20
-6.29715716763218
30
0
41
1
10
80.710512933038
20
-6.3543836275482
30
0
41
1
10
79.9455427123604
20
-6.44940748766564
30
0
41
1
10
79.5634988089681
20
-6.48729256167127
30
0
41
1
10
78.4176011955001
20
-6.57184884252467
30
0
41
1
10
77.6540733058551
20
-6.58941248782631
30
0
41
1
10
76.1213171776876
20
-6.5456796229613
30
0
41
1
10
75.3572187475348
20
-6.48449201274101
30
0
41
1
10
74.2112785125644
20
-6.33572060443282
30
0
41
1
10
73.8292836974646
20
-6.27661577262626
30
0
41
1
10
73.0644134168201
20
-6.13975592237807
30
0
41
1
10
72.6810843104116
20
-6.06190522623717
30
0
41
1
10
71.5321315341346
20
-5.80169955819684
30
0
41
1
10
70.7686281125708
20
-5.59306522495686
30
0
41
1
10
69.6224608933789
20
-5.23200838337067
30
0
41
1
10
69.2402501871748
20
-5.1036409926638
30
0
41
1
10
68.4746627962455
20
-4.83178910080179
30
0
41
1
10
68.091064283509
20
-4.68813278657936
30
0
41
1
10
66.9431065951993
20
-4.23776617345987
30
0
41
1
10
66.1796932166036
20
-3.91136349498498
30
0
41
1
10
65.0329642540774
20
-3.38916067942574
30
0
41
1
10
64.650440785827
20
-3.20967827737883
30
0
41
1
10
63.8840548123549
20
-2.84105834385173
30
0
41
1
10
63.5013231772923
20
-2.65237685035098
30
0
41
1
10
61.595296210137
20
-1.69485533465396
30
0
41
1
10
60.0875979920876
20
-0.879896553544739
30
0
41
1
10
57.8163529111464
20
0.349694447140962
30
0
41
1
10
57.0575917305268
20
0.760625910573168
30
0
41
1
10
55.9125751350052
20
1.37043860053083
30
0
41
1
10
55.5290321202424
20
1.57296431676096
30
0
41
1
10
54.7629748657894
20
1.9719319496009
30
0
41
1
10
54.3805092635313
20
2.16838499370752
30
0
41
1
10
53.2338268283066
20
2.74700097846124
30
0
41
1
10
52.4701841704443
20
3.11816793594104
30
0
41
1
10
51.3213142507743
20
3.64523635357426
30
0
41
1
10
50.9375183968688
20
3.8160903443225
30
0
41
1
10
50.1736291673815
20
4.14417715380751
30
0
41
1
10
49.792881939661
20
4.30178212305452
30
0
41
1
10
47.8932996382967
20
5.05549649437032
30
0
41
1
10
46.3863871245872
20
5.54779952078854
30
0
41
1
10
44.1099638699193
20
6.08175119088494
30
0
41
1
10
43.3481467728261
20
6.2256509078139
30
0
41
1
10
41.8142227281434
20
6.43897769925158
30
0
41
1
10
41.0499463846969
20
6.50715796562204
30
0
41
1
10
40.0156422738812
20
6.54672802475773
30
0
41
1
10
39.7457591286778
20
6.55219539505782
30
0
41
1
10
39.4756914850463
20
6.55279024360158
30
0
0
SPLINE
5
CF
100
AcDbEntity
8
1
62
256
6
ByLayer
370
18
48
1
60
0
100
AcDbSpline
70
4
71
3
72
44
73
40
40
0
40
0
40
0
40
0
40
0.0625000000000041
40
0.0625000000000041
40
0.125000000000008
40
0.125000000000008
40
0.250000000000017
40
0.250000000000017
40
0.312500000000017
40
0.312500000000017
40
0.375000000000017
40
0.375000000000017
40
0.437500000000018
40
0.468750000000015
40
0.468750000000015
40
0.500000000000012
40
0.500000000000012
40
0.625000000000001
40
0.625000000000001
40
0.687499999999997
40
0.687499999999997
40
0.749999999999993
40
0.749999999999993
40
0.81249999999999
40
0.81249999999999
40
0.820312499999989
40
0.820312499999989
40
0.828124999999989
40
0.828124999999989
40
0.835937499999988
40
0.835937499999988
40
0.843749999999988
40
0.843749999999988
40
0.851562499999987
40
0.851562499999987
40
0.859374999999987
40
0.859374999999987
40
0.874999999999988
40
1
40
1
40
1
40
1
41
1
10
151.025605094573
20
-2.73128622047614
30
0
41
1
10
151.162488277256
20
-2.75141648387188
30
0
41
1
10
151.29977025346
20
-2.76707722108696
30
0
41
1
10
151.571538557427
20
-2.78739171752275
30
0
41
1
10
151.705949732376
20
-2.79111427340018
30
0
41
1
10
152.10513314544
20
-2.78458904926026
30
0
41
1
10
152.36583265232
20
-2.75654956451399
30
0
41
1
10
152.746248100471
20
-2.66803658551683
30
0
41
1
10
152.871719582469
20
-2.63049230381216
30
0
41
1
10
153.116262491703
20
-2.53720435539319
30
0
41
1
10
153.233888358409
20
-2.48208097793335
30
0
41
1
10
153.459342229134
20
-2.3539505815186
30
0
41
1
10
153.621085896826
20
-2.2444430860547
30
0
41
1
10
153.771190478632
20
-2.11369123904728
30
0
41
1
10
153.868608699506
20
-2.02168366500078
30
0
41
1
10
153.91595212371
20
-1.97326193480123
30
0
41
1
10
154.142766282293
20
-1.72266791383731
30
0
41
1
10
154.295471176878
20
-1.4924896930236
30
0
41
1
10
154.488355742336
20
-1.10984589317772
30
0
41
1
10
154.546659012778
20
-0.975745900929894
30
0
41
1
10
154.650639093187
20
-0.701231725977948
30
0
41
1
10
154.69663835046
20
-0.560254177832576
30
0
41
1
10
154.778532719302
20
-0.27202409593076
30
0
41
1
10
154.81442516104
20
-0.124769904127305
30
0
41
1
10
154.849991903347
20
0.0438796199680382
30
0
41
1
10
154.853876757842
20
0.0626600686194934
30
0
41
1
10
154.861515000746
20
0.100302610410097
30
0
41
1
10
154.865541479169
20
0.118995106241897
30
0
41
1
10
154.871996777448
20
0.157372293070466
30
0
41
1
10
154.87344311928
20
0.177873004701496
30
0
41
1
10
154.871150743657
20
0.219211830711203
30
0
41
1
10
154.867953093028
20
0.240231712797481
30
0
41
1
10
154.858806704676
20
0.28217569855326
30
0
41
1
10
154.853085696403
20
0.303000014977357
30
0
41
1
10
154.842477830276
20
0.344755968667954
30
0
41
1
10
154.837246614952
20
0.365643301294739
30
0
41
1
10
154.821453221791
20
0.428292465815446
30
0
41
1
10
154.726737934137
20
0.804193210365071
30
0
41
1
10
154.632419912739
20
1.18014548071895
30
0
41
1
10
154.548818247347
20
1.51435609128447
30
0
0
SPLINE
5
D0
100
AcDbEntity
8
1
62
256
6
ByLayer
370
18
48
1
60
0
100
AcDbSpline
70
4
71
3
72
8
73
4
40
0
40
0
40
0
40
0
40
1
40
1
40
1
40
1
41
1
10
154.649635942053
20
6.60509019178434
30
0
41
1
10
154.336193848022
20
6.61813124045662
30
0
41
1
10
154.022446269316
20
6.62452885950748
30
0
41
1
10
153.708720966026
20
6.62427470319898
30
0
0
SPLINE
5
D1
100
AcDbEntity
8
1
62
256
6
ByLayer
370
18
48
1
60
0
100
AcDbSpline
70
4
71
3
72
54
73
50
40
0
40
0
40
0
40
0
40
0.0372204872587446
40
0.0372204872587446
40
0.0915566449378477
40
0.0915566449378477
40
0.118724723777399
40
0.118724723777399
40
0.145892802616951
40
0.145892802616951
40
0.200228960296054
40
0.200228960296054
40
0.254565117975157
40
0.254565117975157
40
0.363237433333363
40
0.363237433333363
40
0.390405512172914
40
0.390405512172914
40
0.417573591012466
40
0.417573591012466
40
0.471909748691568
40
0.471909748691568
40
0.49907782753112
40
0.49907782753112
40
0.526245906370672
40
0.526245906370672
40
0.580582064049777
40
0.580582064049777
40
0.634918221728883
40
0.634918221728883
40
0.689254379407988
40
0.689254379407988
40
0.716422458247541
40
0.716422458247541
40
0.743590537087095
40
0.743590537087095
40
0.797926694766202
40
0.797926694766202
40
0.825094773605755
40
0.825094773605755
40
0.852262852445309
40
0.852262852445309
40
0.906599010124414
40
0.906599010124414
40
0.96093516780352
40
0.96093516780352
40
0.988103246643072
40
0.988103246643072
40
1
40
1
40
1
40
1
41
1
10
119.632448846906
20
-6.2434661102059
30
0
41
1
10
119.114925514537
20
-6.33487736661934
30
0
41
1
10
118.597355047678
20
-6.40923748312858
30
0
41
1
10
117.321727938945
20
-6.5487185782433
30
0
41
1
10
116.562550768589
20
-6.59391146664424
30
0
41
1
10
115.415974174266
20
-6.60275519008212
30
0
41
1
10
115.032449149349
20
-6.59583154149956
30
0
41
1
10
114.267771004441
20
-6.56237671867669
30
0
41
1
10
113.885916398259
20
-6.53585752197981
30
0
41
1
10
112.740522503489
20
-6.42734535236036
30
0
41
1
10
111.977221156505
20
-6.31637133570143
30
0
41
1
10
110.444883163619
20
-6.01957624884858
30
0
41
1
10
109.683656560972
20
-5.83513265155548
30
0
41
1
10
107.409109983144
20
-5.18598038605995
30
0
41
1
10
105.90372893512
20
-4.62439004079769
30
0
41
1
10
104.005476935042
20
-3.79912807030732
30
0
41
1
10
103.625029345527
20
-3.62787875929843
30
0
41
1
10
102.861744551721
20
-3.27401239929583
30
0
41
1
10
102.478199328846
20
-3.09109568317169
30
0
41
1
10
101.330124890956
20
-2.53051977396066
30
0
41
1
10
100.566954864594
20
-2.14066165111885
30
0
41
1
10
99.4208988018523
20
-1.5397777217739
30
0
41
1
10
99.0386807814909
20
-1.33676875589825
30
0
41
1
10
98.272990512204
20
-0.926836511727657
30
0
41
1
10
97.8895800358465
20
-0.719947331491653
30
0
41
1
10
96.742159636891
20
-0.098467846617865
30
0
41
1
10
95.9790549617824
20
0.317976340940874
30
0
41
1
10
94.4500898180602
20
1.14320356616642
30
0
41
1
10
93.6828825872823
20
1.55290010191285
30
0
41
1
10
92.153820077985
20
2.34574988277373
30
0
41
1
10
91.3906578854936
20
2.72991098368374
30
0
41
1
10
90.2430720518044
20
3.27936846114972
30
0
41
1
10
89.8596121884187
20
3.45830108753191
30
0
41
1
10
89.0937679053957
20
3.80488017705494
30
0
41
1
10
88.7114603106481
20
3.97247892461561
30
0
41
1
10
87.5650640529881
20
4.45635912998176
30
0
41
1
10
86.8016224684655
20
4.75389993457375
30
0
41
1
10
85.653028615503
20
5.15625952581431
30
0
41
1
10
85.2694397344501
20
5.28307295154545
30
0
41
1
10
84.5041866153328
20
5.51995335092207
30
0
41
1
10
84.1220391167946
20
5.63017058859751
30
0
41
1
10
82.9757936952998
20
5.9350609985577
30
0
41
1
10
82.2120109439217
20
6.10407011683191
30
0
41
1
10
80.6788430151541
20
6.36817344617373
30
0
41
1
10
79.9143969703824
20
6.46243910657537
30
0
41
1
10
78.768067355314
20
6.54543540157269
30
0
41
1
10
78.3859565084161
20
6.5634031311516
30
0
41
1
10
77.835907492434
20
6.57514015457053
30
0
41
1
10
77.6682304841336
20
6.57683165404731
30
0
41
1
10
77.5004827843048
20
6.57663809325098
30
0
0
SPLINE
5
D2
100
AcDbEntity
8
1
62
256
6
ByLayer
370
18
48
1
60
0
100
AcDbSpline
70
4
71
3
72
46
73
42
40
0
40
0
40
0
40
0
40
0.0245828320291304
40
0.0245828320291304
40
0.0896106432271895
40
0.0896106432271895
40
0.122124548826219
40
0.122124548826219
40
0.154638454425248
40
0.154638454425248
40
0.219666265623306
40
0.219666265623306
40
0.349721888019424
40
0.349721888019424
40
0.382235793618453
40
0.382235793618453
40
0.414749699217482
40
0.414749699217482
40
0.47977751041554
40
0.47977751041554
40
0.512291416014569
40
0.512291416014569
40
0.544805321613598
40
0.544805321613598
40
0.609833132811655
40
0.609833132811655
40
0.642347038410684
40
0.642347038410684
40
0.674860944009712
40
0.674860944009712
40
0.739888755207769
40
0.739888755207769
40
0.772402660806798
40
0.772402660806798
40
0.804916566405827
40
0.804916566405827
40
0.869944377603885
40
0.869944377603885
40
0.934972188801943
40
0.934972188801943
40
1
40
1
40
1
40
1
41
1
10
43.4026437530517
20
-6.2036234265727
30
0
41
1
10
43.1132874129524
20
-6.25398857232395
30
0
41
1
10
42.8232193564576
20
-6.29920215577502
30
0
41
1
10
41.766905199513
20
-6.44392868066021
30
0
41
1
10
41.0026087956834
20
-6.5105437579389
30
0
41
1
10
39.8552349452887
20
-6.55200126825477
30
0
41
1
10
39.4725946554558
20
-6.55606611834469
30
0
41
1
10
38.7061036203056
20
-6.544569533453
30
0
41
1
10
38.3220356345626
20
-6.52894439928033
30
0
41
1
10
37.1754128500834
20
-6.45320932141303
30
0
41
1
10
36.4157066413043
20
-6.36430560130961
30
0
41
1
10
34.1420223520961
20
-5.9887593099958
30
0
41
1
10
32.6331452375119
20
-5.59330725172217
30
0
41
1
10
30.7262211165457
20
-4.94122736268989
30
0
41
1
10
30.3436933299928
20
-4.80292422730884
30
0
41
1
10
29.5761109283161
20
-4.51135147049237
30
0
41
1
10
29.1930450446328
20
-4.35883466966126
30
0
41
1
10
28.0447798656861
20
-3.88295247523263
30
0
41
1
10
27.2806130094064
20
-3.54110229970612
30
0
41
1
10
26.1315751620865
20
-2.9987636448129
30
0
41
1
10
25.7476302221432
20
-2.81282239765082
30
0
41
1
10
24.9806355527656
20
-2.43354481326094
30
0
41
1
10
24.597732127903
20
-2.24030425340987
30
0
41
1
10
23.4496991225666
20
-1.65175943024758
30
0
41
1
10
22.6854206129751
20
-1.24730905160797
30
0
41
1
10
21.5354285727791
20
-0.631852532901945
30
0
41
1
10
21.1512843678999
20
-0.425117676710414
30
0
41
1
10
20.3848119698764
20
-0.0121246469978473
30
0
41
1
10
20.0020301479627
20
0.19435429506072
30
0
41
1
10
18.8540590334117
20
0.811903608565672
30
0
41
1
10
18.089429393116
20
1.22142503649502
30
0
41
1
10
16.9382518257533
20
1.82267982340488
30
0
41
1
10
16.5546295278987
20
2.02053188343697
30
0
41
1
10
15.7888042269011
20
2.40879644824469
30
0
41
1
10
15.4062976910824
20
2.59936999672897
30
0
41
1
10
14.2588963583226
20
3.15856356208636
30
0
41
1
10
13.4941278097664
20
3.51466126030636
30
0
41
1
10
11.9586422334838
20
4.18297493614165
30
0
41
1
10
11.1934249442189
20
4.49281543929939
30
0
41
1
10
9.66377077266006
20
5.05486683189295
30
0
41
1
10
8.89893288877886
20
5.3071860904162
30
0
41
1
10
8.1313808698003
20
5.52735102746041
30
0
0
SPLINE
5
D3
100
AcDbEntity
8
1
62
256
6
ByLayer
370
18
48
1
60
0
100
AcDbSpline
70
4
71
3
72
8
73
4
40
0
40
0
40
0
40
0
40
1
40
1
40
1
40
1
41
1
10
156.76896226753
20
-1.60402995178421
30
0
41
1
10
156.846759127746
20
-1.12268295467874
30
0
41
1
10
156.915532487641
20
-0.641405041799487
30
0
41
1
10
156.975222798294
20
-0.160196669055068
30
0
0
SPLINE
5
D4
100
AcDbEntity
8
1
62
256
6
ByLayer
370
18
48
1
60
0
100
AcDbSpline
70
4
71
3
72
8
73
4
40
0
40
0
40
0
40
0
40
1
40
1
40
1
40
1
41
1
10
156.76896226753
20
1.60402995178464
30
0
41
1
10
156.846760354199
20
1.12267536632754
30
0
41
1
10
156.915533430684
20
0.641397439222459
30
0
41
1
10
156.975222798294
20
0.160196669055495
30
0
0
SPLINE
5
D5
100
AcDbEntity
8
1
62
256
6
ByLayer
370
18
48
1
60
0
100
AcDbSpline
70
4
71
3
72
65
73
61
40
0
40
0
40
0
40
0
40
0.0312499999999998
40
0.0312499999999998
40
0.0624999999999997
40
0.0624999999999997
40
0.124999999999999
40
0.124999999999999
40
0.187499999999999
40
0.187499999999999
40
0.218749999999999
40
0.218749999999999
40
0.249999999999999
40
0.249999999999999
40
0.312499999999998
40
0.312499999999998
40
0.343749999999998
40
0.343749999999998
40
0.374999999999998
40
0.374999999999998
40
0.406249999999997
40
0.406249999999997
40
0.421874999999997
40
0.421874999999997
40
0.437499999999997
40
0.437499999999997
40
0.499999999999997
40
0.499999999999997
40
0.531249999999997
40
0.531249999999997
40
0.562499999999997
40
0.562499999999997
40
0.593749999999997
40
0.593749999999997
40
0.624999999999997
40
0.624999999999997
40
0.687499999999996
40
0.687499999999996
40
0.718749999999996
40
0.718749999999996
40
0.734374999999996
40
0.734374999999996
40
0.742187499999995
40
0.746093749999995
40
0.746093749999995
40
0.749999999999994
40
0.749999999999994
40
0.753906249999994
40
0.753906249999994
40
0.757812499999994
40
0.757812499999994
40
0.765624999999993
40
0.765624999999993
40
0.781249999999994
40
0.781249999999994
40
0.812499999999994
40
0.812499999999994
40
0.874999999999997
40
0.874999999999997
40
1
40
1
40
1
40
1
41
1
10
8.00000027993855
20
-4.93568559071068
30
0
41
1
10
7.91853199028316
20
-4.85364083948178
30
0
41
1
10
7.83786982562515
20
-4.76779155995487
30
0
41
1
10
7.67976620773121
20
-4.58989761733366
30
0
41
1
10
7.60243969996861
20
-4.49801450253509
30
0
41
1
10
7.37561980702594
20
-4.21340459827289
30
0
41
1
10
7.23123183476446
20
-4.01177182539845
30
0
41
1
10
6.95717355022327
20
-3.58280578533473
30
0
41
1
10
6.82746866491627
20
-3.35551388733691
30
0
41
1
10
6.64631408884844
20
-2.99224143586551
30
0
41
1
10
6.5885947670638
20
-2.86817810994546
30
0
41
1
10
6.47971299134531
20
-2.61553207520583
30
0
41
1
10
6.42842252851725
20
-2.48669700463137
30
0
41
1
10
6.28495890213861
20
-2.09218026203214
30
0
41
1
10
6.2029999382934
20
-1.81859220516049
30
0
41
1
10
6.10715418297877
20
-1.38894830065558
30
0
41
1
10
6.08012509380256
20
-1.24393102289952
30
0
41
1
10
6.03725722456585
20
-0.952371058508277
30
0
41
1
10
6.02133946920168
20
-0.805486439786137
30
0
41
1
10
6.00169358766686
20
-0.509381796188762
30
0
41
1
10
5.99796362010448
20
-0.360162039978604
30
0
41
1
10
6.00263361768171
20
-0.134447092869777
30
0
41
1
10
6.00592626498855
20
-0.0587118775483759
30
0
41
1
10
6.01598856553005
20
0.0914090310253073
30
0
41
1
10
6.0227549771991
20
0.166004816531199
30
0
41
1
10
6.06539995689224
20
0.536653738358609
30
0
41
1
10
6.12756821560507
20
0.825753129884646
30
0
41
1
10
6.26577079893627
20
1.24800623576488
30
0
41
1
10
6.31961487586068
20
1.38718992342535
30
0
41
1
10
6.4394797073349
20
1.65469934123928
30
0
41
1
10
6.50576486765675
20
1.78395368353773
30
0
41
1
10
6.65033022708087
20
2.03417319081547
30
0
41
1
10
6.72862715985323
20
2.15512901207606
30
0
41
1
10
6.89679685476588
20
2.38925495580764
30
0
41
1
10
6.9865039626701
20
2.50207241011529
30
0
41
1
10
7.26654121104426
20
2.82374001455315
30
0
41
1
10
7.46928019405635
20
3.01831893335776
30
0
41
1
10
7.79365097593973
20
3.28664473865203
30
0
41
1
10
7.90516658808679
20
3.37213571743624
30
0
41
1
10
8.07720319972404
20
3.49500053164786
30
0
41
1
10
8.13535903880529
20
3.53506904254667
30
0
41
1
10
8.22370134799263
20
3.59385548396813
30
0
41
1
10
8.26810617518092
20
3.62289090971012
30
0
41
1
10
8.31285426489242
20
3.65140545034913
30
0
41
1
10
8.34276188491319
20
3.6703010148608
30
0
41
1
10
8.35741939139962
20
3.6800671821639
30
0
41
1
10
8.38855178043255
20
3.69755046947472
30
0
41
1
10
8.40581869880043
20
3.70349647007478
30
0
41
1
10
8.44252834415153
20
3.70985395706117
30
0
41
1
10
8.46118241073319
20
3.71039885655333
30
0
41
1
10
8.51686084075573
20
3.71453009385078
30
0
41
1
10
8.55400097241647
20
3.71709659478717
30
0
41
1
10
8.66548457190981
20
3.72423766016064
30
0
41
1
10
8.73986245148876
20
3.72825209684405
30
0
41
1
10
8.96304226214684
20
3.7380845075223
30
0
41
1
10
9.11193911210421
20
3.74169849254469
30
0
41
1
10
9.55895524279643
20
3.74389522198382
30
0
41
1
10
9.85651548529597
20
3.73383148645252
30
0
41
1
10
10.7415216960194
20
3.67025365214633
30
0
41
1
10
11.3239322674152
20
3.58384649197168
30
0
41
1
10
11.8988804767218
20
3.449941098469
30
0
0
SPLINE
5
D6
100
AcDbEntity
8
1
62
256
6
ByLayer
370
18
48
1
60
0
100
AcDbSpline
70
4
71
3
72
14
73
10
40
0
40
0
40
0
40
0
40
0.250000000000001
40
0.250000000000001
40
0.375
40
0.375
40
0.499999999999999
40
0.499999999999999
40
1
40
1
40
1
40
1
41
1
10
8.2502346762856
20
-4.74703199868097
30
0
41
1
10
8.50700902172903
20
-4.99130410923794
30
0
41
1
10
8.77454158331662
20
-5.20000921104017
30
0
41
1
10
9.19419265670308
20
-5.4659221300717
30
0
41
1
10
9.33716988650596
20
-5.54664296582496
30
0
41
1
10
9.630006298713
20
-5.69282626839333
30
0
41
1
10
9.78010277323833
20
-5.75837514635032
30
0
41
1
10
10.5473702831683
20
-6.04812719984488
30
0
41
1
10
11.1954219260288
20
-6.15211515114808
30
0
41
1
10
11.8988804767218
20
-6.16829678724733
30
0
0
SPLINE
5
D7
100
AcDbEntity
8
1
62
256
6
ByLayer
370
18
48
1
60
0
100
AcDbSpline
70
4
71
3
72
12
73
8
40
0
40
0
40
0
40
0
40
0.250000000000002
40
0.250000000000002
40
0.500000000000004
40
0.500000000000004
40
1
40
1
40
1
40
1
41
1
10
8.13138086980018
20
5.52735102746044
30
0
41
1
10
8.11145900566399
20
5.53306542316901
30
0
41
1
10
8.09342132544793
20
5.54004563579474
30
0
41
1
10
8.06101097292964
20
5.55639438183641
30
0
41
1
10
8.04683988894311
20
5.56573447430318
30
0
41
1
10
8.01249469181278
20
5.59567779310041
30
0
41
1
10
8.00000027992678
20
5.61864307371846
30
0
41
1
10
8.00000027992667
20
5.641470930781
30
0
0
SPLINE
5
D8
100
AcDbEntity
8
1
62
256
6
ByLayer
370
18
48
1
60
0
100
AcDbSpline
70
4
71
3
72
8
73
4
40
0
40
0
40
0
40
0
40
1
40
1
40
1
40
1
41
1
10
154.656149403061
20
-6.25323444656337
30
0
41
1
10
154.670545008861
20
-6.25833072972174
30
0
41
1
10
154.685869754239
20
-6.2607421143004
30
0
41
1
10
154.702143067579
20
-6.26049361368285
30
0
0
SPLINE
5
D9
100
AcDbEntity
8
1
62
256
6
ByLayer
370
18
48
1
60
0
100
AcDbSpline
70
4
71
3
72
12
73
8
40
0
40
0
40
0
40
0
40
0.5
40
0.5
40
0.75
40
0.75
40
1
40
1
40
1
40
1
41
1
10
151.025605094572
20
-2.73128622047611
30
0
41
1
10
151.430336865814
20
-3.11059740022779
30
0
41
1
10
151.855346226868
20
-3.45223418658213
30
0
41
1
10
152.516720701956
20
-3.92035829092342
30
0
41
1
10
152.740551056972
20
-4.06839575952142
30
0
41
1
10
153.191465210186
20
-4.34828382711584
30
0
41
1
10
153.418993219448
20
-4.48044519636284
30
0
41
1
10
153.648420534294
20
-4.60546888385369
30
0
0
SPLINE
5
DA
100
AcDbEntity
8
1
62
256
6
ByLayer
370
13
48
1
60
0
100
AcDbSpline
70
4
71
3
72
16
73
12
40
0
40
0
40
0
40
0
40
0.0994585490864938
40
0.0994585490864938
40
0.32459391181487
40
0.32459391181487
40
0.549729274543247
40
0.549729274543247
40
0.774864637271623
40
0.774864637271623
40
1
40
1
40
1
40
1
41
1
10
8.25019365166241
20
-6.16904903176084
30
0
41
1
10
8.25019166734239
20
-6.16901381006335
30
0
41
1
10
8.25018982204972
20
-6.16410213768006
30
0
41
1
10
8.25018452656064
20
-6.13187032028898
30
0
41
1
10
8.25018210167147
20
-6.08456256686642
30
0
41
1
10
8.25018102848674
20
-5.94235368596381
30
0
41
1
10
8.25018237139625
20
-5.84742296744162
30
0
41
1
10
8.25018969203177
20
-5.60852412511173
30
0
41
1
10
8.25019571686909
20
-5.46421579100775
30
0
41
1
10
8.25021217152045
20
-5.13488491345717
30
0
41
1
10
8.25022254087403
20
-4.95052675030905
30
0
41
1
10
8.25023466688089
20
-4.74703203651873
30
0
0
SPLINE
5
DB
100
AcDbEntity
8
1
62
256
6
ByLayer
370
18
48
1
60
0
100
AcDbSpline
70
4
71
3
72
10
73
6
40
0
40
0
40
0
40
0
40
0.5
40
0.5
40
1
40
1
40
1
40
1
41
1
10
156.975222798294
20
0.160196669055495
30
0
41
1
10
156.977180884606
20
0.144411066371191
30
0
41
1
10
156.980461567641
20
0.126692917647944
30
0
41
1
10
156.988901240963
20
0.0885087160768023
30
0
41
1
10
156.994078058811
20
0.0680962749849243
30
0
41
1
10
156.999958148876
20
0.0471928827226122
30
0
0
SPLINE
5
DC
100
AcDbEntity
8
1
62
256
6
ByLayer
370
18
48
1
60
0
100
AcDbSpline
70
4
71
3
72
14
73
10
40
0
40
0
40
0
40
0
40
0.249999999999999
40
0.249999999999999
40
0.5
40
0.5
40
0.75
40
0.75
40
1
40
1
40
1
40
1
41
1
10
154.772258901118
20
-6.24540479213627
30
0
41
1
10
154.774754257254
20
-6.24443903233018
30
0
41
1
10
154.77656053747
20
-6.24527562117066
30
0
41
1
10
154.778400137728
20
-6.25156970568699
30
0
41
1
10
154.778373911056
20
-6.25715031754834
30
0
41
1
10
154.775640775408
20
-6.27381482240713
30
0
41
1
10
154.772907230066
20
-6.28485053980569
30
0
41
1
10
154.765271143202
20
-6.30965767004292
30
0
41
1
10
154.760411712749
20
-6.32331883743237
30
0
41
1
10
154.755251630854
20
-6.33647596184062
30
0
0
SPLINE
5
DD
100
AcDbEntity
8
1
62
256
6
ByLayer
370
18
48
1
60
0
100
AcDbSpline
70
4
71
3
72
8
73
4
40
0
40
0
40
0
40
0
40
1
40
1
40
1
40
1
41
1
10
156.999958148876
20
0.0471928827226691
30
0
41
1
10
156.992058977483
20
0.0234313931310624
30
0
41
1
10
156.981922704752
20
-0.0007712712305192
30
0
41
1
10
156.971859075404
20
-0.0194867917872728
30
0
0
SPLINE
5
DE
100
AcDbEntity
8
1
62
256
6
ByLayer
370
18
48
1
60
0
100
AcDbSpline
70
4
71
3
72
14
73
10
40
0
40
0
40
0
40
0
40
0.25
40
0.25
40
0.5
40
0.5
40
0.75
40
0.75
40
1
40
1
40
1
40
1
41
1
10
154.548818247346
20
1.51435609128447
30
0
41
1
10
154.545032715586
20
1.52948934102196
30
0
41
1
10
154.543956421106
20
1.54543648167811
30
0
41
1
10
154.550639732403
20
1.57562504814274
30
0
41
1
10
154.558842400664
20
1.58986376006078
30
0
41
1
10
154.582253024139
20
1.61090019255468
30
0
41
1
10
154.596796858306
20
1.61773019533578
30
0
41
1
10
154.626822509118
20
1.62583592029745
30
0
41
1
10
154.642542030481
20
1.62726065412787
30
0
41
1
10
154.658156719202
20
1.62695499763473
30
0
0
SPLINE
5
DF
100
AcDbEntity
8
1
62
256
6
ByLayer
370
18
48
1
60
0
100
AcDbSpline
70
4
71
3
72
8
73
4
40
0
40
0
40
0
40
0
40
1
40
1
40
1
40
1
41
1
10
156.999958148876
20
0.047192882722527
30
0
41
1
10
157.000013950374
20
0.0157309609076606
30
0
41
1
10
157.000013950374
20
-0.015730960907149
30
0
41
1
10
156.999958148876
20
-0.0471928827220438
30
0
0
SPLINE
5
E0
100
AcDbEntity
8
1
62
256
6
ByLayer
370
18
48
1
60
0
100
AcDbSpline
70
4
71
3
72
8
73
4
40
0
40
0
40
0
40
0
40
1
40
1
40
1
40
1
41
1
10
8.00000027992701
20
-4.93568559070854
30
0
41
1
10
8.00000027992701
20
-4.8904556326903
30
0
41
1
10
8.00000027992701
20
-4.84523470441223
30
0
41
1
10
8.00000027992701
20
-4.80002247825814
30
0
0
SPLINE
5
E1
100
AcDbEntity
8
1
62
256
6
ByLayer
370
18
48
1
60
0
100
AcDbSpline
70
4
71
3
72
31
73
27
40
0
40
0
40
0
40
0
40
0.138245122800691
40
0.138245122800691
40
0.345576171805882
40
0.345576171805882
40
0.449241696308478
40
0.449241696308478
40
0.501074458559776
40
0.526990839685424
40
0.526990839685424
40
0.533469934966837
40
0.533469934966837
40
0.539949030248249
40
0.539949030248249
40
0.546428125529661
40
0.546428125529661
40
0.552907220811073
40
0.552907220811073
40
0.656572745313669
40
0.656572745313669
40
0.760238269816265
40
0.760238269816265
40
0.967569318821456
40
0.967569318821456
40
1
40
1
40
1
40
1
41
1
10
11.8988804767218
20
3.449941098469
30
0
41
1
10
11.8988804767218
20
3.11983786353335
30
0
41
1
10
11.8988804767218
20
2.77575194904733
30
0
41
1
10
11.8988804767218
20
1.88231074179913
30
0
41
1
10
11.8988804767219
20
1.31626997437513
30
0
41
1
10
11.8988804767219
20
0.422505189826268
30
0
41
1
10
11.8988804767218
20
0.116868556834504
30
0
41
1
10
11.8988804767218
20
-0.352280735396874
30
0
41
1
10
11.8988804767218
20
-0.588558639475991
30
0
41
1
10
11.8988804767218
20
-0.82735464126128
30
0
41
1
10
11.8988804767218
20
-0.92720080532186
30
0
41
1
10
11.8988804767218
20
-0.946940784830502
30
0
41
1
10
11.8988804767218
20
-0.987916989561654
30
0
41
1
10
11.898880476722
20
-1.00914650042893
30
0
41
1
10
11.898880476722
20
-1.05333709119458
30
0
41
1
10
11.8988804767218
20
-1.07669683950496
30
0
41
1
10
11.8988804767218
20
-1.12336681805047
30
0
41
1
10
11.8988804767219
20
-1.14671780362332
30
0
41
1
10
11.8988804767219
20
-1.54395761197932
30
0
41
1
10
11.8988804767218
20
-1.92197078350034
30
0
41
1
10
11.8988804767218
20
-2.68668915252582
30
0
41
1
10
11.8988804767218
20
-3.07087267870526
30
0
41
1
10
11.8988804767218
20
-4.22916457854984
30
0
41
1
10
11.8988804767218
20
-5.00896197875417
30
0
41
1
10
11.8988804767218
20
-5.92092140069286
30
0
41
1
10
11.8988804767218
20
-6.04454245030385
30
0
41
1
10
11.8988804767218
20
-6.16829678724744
30
0
0
SPLINE
5
E2
100
AcDbEntity
8
1
62
256
6
ByLayer
370
18
48
1
60
0
100
AcDbSpline
70
4
71
3
72
16
73
12
40
0
40
0
40
0
40
0
40
0.16863414037451
40
0.16863414037451
40
0.409539998522718
40
0.409539998522718
40
0.529992927596819
40
0.529992927596819
40
0.650445856670922
40
0.650445856670922
40
1
40
1
40
1
40
1
41
1
10
20.3648008536176
20
-0.0010873663609914
30
0
41
1
10
20.8971847630195
20
-0.276405867090261
30
0
41
1
10
21.4292640483986
20
-0.551693152350794
30
0
41
1
10
22.7229341596555
20
-1.21579114401376
30
0
41
1
10
23.4852025010923
20
-1.60260381647774
30
0
41
1
10
24.6352894919459
20
-2.16770153270414
30
0
41
1
10
25.0201544289983
20
-2.35384135365169
30
0
41
1
10
25.7908577592016
20
-2.71896975108808
30
0
41
1
10
26.1748278996344
20
-2.89706776251367
30
0
41
1
10
27.6691037913577
20
-3.57245188901112
30
0
41
1
10
28.7719851306479
20
-4.03228618112917
30
0
41
1
10
29.8750294900324
20
-4.43725708811371
30
0
0
SPLINE
5
E3
100
AcDbEntity
8
1
62
256
6
ByLayer
370
13
48
1
60
0
100
AcDbSpline
70
4
71
3
72
20
73
16
40
0
40
0
40
0
40
0
40
0.109188621431649
40
0.109188621431649
40
0.308074613040512
40
0.308074613040512
40
0.357796110942727
40
0.357796110942727
40
0.407517608844941
40
0.407517608844941
40
0.506960604649369
40
0.506960604649369
40
0.904732587867078
40
0.904732587867078
40
1
40
1
40
1
40
1
41
1
10
29.875029490098
20
-4.43725708813784
30
0
41
1
10
30.2923781973697
20
-4.59048219016913
30
0
41
1
10
30.7097502420876
20
-4.73585322180395
30
0
41
1
10
31.8887424075213
20
-5.12196087845007
30
0
41
1
10
32.6514762444043
20
-5.34301890258172
30
0
41
1
10
33.6104557458304
20
-5.57926500388766
30
0
41
1
10
33.802524203395
20
-5.62450931815124
30
0
41
1
10
34.1873181482536
20
-5.71086392579628
30
0
41
1
10
34.3802432384092
20
-5.75200632530488
30
0
41
1
10
34.9575828809718
20
-5.86856323910428
30
0
41
1
10
35.3411463710925
20
-5.93727792504316
30
0
41
1
10
37.254077583356
20
-6.23542587655592
30
0
41
1
10
38.7694316425276
20
-6.32804352224977
30
0
41
1
10
40.656501519391
20
-6.25832393844243
30
0
41
1
10
41.0215705829695
20
-6.23633030854509
30
0
41
1
10
41.3873669194044
20
-6.20580301815514
30
0
0
SPLINE
5
E4
100
AcDbEntity
8
1
62
256
6
ByLayer
370
18
48
1
60
0
100
AcDbSpline
70
4
71
3
72
16
73
12
40
0
40
0
40
0
40
0
40
0.104047658287601
40
0.104047658287601
40
0.223095377438555
40
0.223095377438555
40
0.342143096589508
40
0.342143096589508
40
0.818333973193314
40
0.818333973193314
40
1
40
1
40
1
40
1
41
1
10
96.5563114190952
20
0.0031236376332231
30
0
41
1
10
96.8886619579472
20
-0.170178862116785
30
0
41
1
10
97.2213876093829
20
-0.343688073534338
30
0
41
1
10
97.936141701382
20
-0.715126174983084
30
0
41
1
10
98.3183482361957
20
-0.912998312210703
30
0
41
1
10
99.0850637855739
20
-1.30670659676886
30
0
41
1
10
99.4705094771333
20
-1.50300672325088
30
0
41
1
10
101.390767151715
20
-2.4682128326132
30
0
41
1
10
102.906533579923
20
-3.18934754002626
30
0
41
1
10
105.004270445318
20
-4.06254734646217
30
0
41
1
10
105.583883513649
20
-4.29082151378154
30
0
41
1
10
106.165110185438
20
-4.50420138307965
30
0
0
SPLINE
5
E5
100
AcDbEntity
8
1
62
256
6
ByLayer
370
13
48
1
60
0
100
AcDbSpline
70
4
71
3
72
22
73
18
40
0
40
0
40
0
40
0
40
0.0473438196865181
40
0.0473438196865181
40
0.14722389270588
40
0.14722389270588
40
0.247103965725244
40
0.247103965725244
40
0.646624257802688
40
0.646624257802688
40
0.84638440384141
40
0.84638440384141
40
0.946264476860773
40
0.946264476860773
40
0.996204513370451
40
0.996204513370451
40
1
40
1
40
1
40
1
41
1
10
106.165110184574
20
-4.50420138276243
30
0
41
1
10
106.345651806269
20
-4.57048180228341
30
0
41
1
10
106.526349117858
20
-4.63532513286438
30
0
41
1
10
107.088863111877
20
-4.83230819652445
30
0
41
1
10
107.47131594532
20
-4.9593188079966
30
0
41
1
10
108.2387260814
20
-5.19883866594733
30
0
41
1
10
108.624305980191
20
-5.31146453910091
30
0
41
1
10
110.541982557219
20
-5.83104567022775
30
0
41
1
10
112.056757580688
20
-6.11140082091791
30
0
41
1
10
114.334233693312
20
-6.31167766928988
30
0
41
1
10
115.094291228107
20
-6.34181170230923
30
0
41
1
10
116.239908029316
20
-6.33041529176433
30
0
41
1
10
116.622709531887
20
-6.31716662661887
30
0
41
1
10
117.198859139716
20
-6.28296400716189
30
0
41
1
10
117.391443512992
20
-6.26915649012105
30
0
41
1
10
117.598173212825
20
-6.25180696848739
30
0
41
1
10
117.612773186409
20
-6.25056810348173
30
0
41
1
10
117.627371268083
20
-6.24931582872409
30
0
0
SPLINE
5
E6
100
AcDbEntity
8
1
62
256
6
ByLayer
370
18
48
1
60
0
100
AcDbSpline
70
4
71
3
72
8
73
4
40
0
40
0
40
0
40
0
40
1
40
1
40
1
40
1
41
1
10
156.971859075404
20
-0.0194867917873012
30
0
41
1
10
156.922832923954
20
-0.110661646662578
30
0
41
1
10
156.873985899151
20
-0.201996602527345
30
0
41
1
10
156.825318288111
20
-0.293491915897533
30
0
0
SPLINE
5
E7
100
AcDbEntity
8
1
62
256
6
ByLayer
370
18
48
1
60
0
100
AcDbSpline
70
4
71
3
72
12
73
8
40
0
40
0
40
0
40
0
40
0.249999999999999
40
0.249999999999999
40
0.499999999999997
40
0.499999999999997
40
1
40
1
40
1
40
1
41
1
10
154.86730790359
20
-6.44218587553377
30
0
41
1
10
155.027824662024
20
-6.04105495123463
30
0
41
1
10
155.188173896856
20
-5.63949444707364
30
0
41
1
10
155.508245888193
20
-4.83545703453896
30
0
41
1
10
155.667853628282
20
-4.4328738187906
30
0
41
1
10
156.144543952081
20
-3.22302282844478
30
0
41
1
10
156.459387627698
20
-2.41387305909473
30
0
41
1
10
156.76896226753
20
-1.60402995178424
30
0
0
SPLINE
5
E8
100
AcDbEntity
8
1
62
256
6
ByLayer
370
18
48
1
60
0
100
AcDbSpline
70
4
71
3
72
8
73
4
40
0
40
0
40
0
40
0
40
1
40
1
40
1
40
1
41
1
10
156.82531828813
20
-0.293491915862859
30
0
41
1
10
156.102261993108
20
-2.28007275942946
30
0
41
1
10
155.379205698084
20
-4.26665360299623
30
0
41
1
10
154.656149403061
20
-6.25323444656388
30
0
0
SPLINE
5
E9
100
AcDbEntity
8
1
62
256
6
ByLayer
370
18
48
1
60
0
100
AcDbSpline
70
4
71
3
72
8
73
4
40
0
40
0
40
0
40
0
40
1
40
1
40
1
40
1
41
1
10
154.930857861686
20
-2.8648273375745
30
0
41
1
10
154.947087482088
20
-2.83512932464379
30
0
41
1
10
154.967178897491
20
-2.80872935624302
30
0
41
1
10
154.98941142966
20
-2.78535306548031
30
0
0
SPLINE
5
EA
100
AcDbEntity
8
1
62
256
6
ByLayer
370
18
48
1
60
0
100
AcDbSpline
70
4
71
3
72
12
73
8
40
0
40
0
40
0
40
0
40
0.250000000000001
40
0.250000000000001
40
0.500000000000003
40
0.500000000000003
40
1
40
1
40
1
40
1
41
1
10
154.86730790359
20
6.44218587553371
30
0
41
1
10
155.027803943801
20
6.0411067260136
30
0
41
1
10
155.18813070081
20
5.63960255696963
30
0
41
1
10
155.508154736095
20
4.83568641396599
30
0
41
1
10
155.667736761829
20
4.43316894602558
30
0
41
1
10
156.144344651666
20
3.22353162047341
30
0
41
1
10
156.459186207989
20
2.41439997035332
30
0
41
1
10
156.76896226753
20
1.60402995178461
30
0
0
SPLINE
5
EB
100
AcDbEntity
8
1
62
256
6
ByLayer
370
18
48
1
60
0
100
AcDbSpline
70
4
71
3
72
8
73
4
40
0
40
0
40
0
40
0
40
1
40
1
40
1
40
1
41
1
10
154.86730790359
20
6.44218587553377
30
0
41
1
10
154.784634233216
20
6.52340334085409
30
0
41
1
10
154.712286118498
20
6.57797506953037
30
0
41
1
10
154.649635942053
20
6.60509019178434
30
0
0
SPLINE
5
EC
100
AcDbEntity
8
1
62
256
6
ByLayer
370
18
48
1
60
0
100
AcDbSpline
70
4
71
3
72
12
73
8
40
0
40
0
40
0
40
0
40
0.24999999999999
40
0.24999999999999
40
0.499999999999981
40
0.499999999999981
40
1
40
1
40
1
40
1
41
1
10
154.658156719203
20
1.62695499762609
30
0
41
1
10
154.834280696117
20
1.62350738249509
30
0
41
1
10
155.010400705207
20
1.62011785080367
30
0
41
1
10
155.362467008638
20
1.61449398220191
30
0
41
1
10
155.538319337091
20
1.61291121200699
30
0
41
1
10
156.065962637295
20
1.60757616769172
30
0
41
1
10
156.41769284928
20
1.6042369141166
30
0
41
1
10
156.76896226753
20
1.60402995178447
30
0
0
SPLINE
5
ED
100
AcDbEntity
8
1
62
256
6
ByLayer
370
18
48
1
60
0
100
AcDbSpline
70
4
71
3
72
8
73
4
40
0
40
0
40
0
40
0
40
1
40
1
40
1
40
1
41
1
10
154.755251630481
20
-6.33647596279164
30
0
41
1
10
154.720087768455
20
-6.42613642104604
30
0
41
1
10
154.684880242631
20
-6.51567335928922
30
0
41
1
10
154.649635942053
20
-6.60509019178434
30
0
0
SPLINE
5
EE
100
AcDbEntity
8
1
62
256
6
ByLayer
370
18
48
1
60
0
100
AcDbSpline
70
4
71
3
72
64
73
60
40
0
40
0
40
0
40
0
40
0.0433500882821921
40
0.0433500882821921
40
0.0650251324232878
40
0.0650251324232878
40
0.0867001765643836
40
0.0867001765643836
40
0.130050264846575
40
0.130050264846575
40
0.173400353128767
40
0.173400353128767
40
0.216750441410959
40
0.216750441410959
40
0.238425485552055
40
0.238425485552055
40
0.26010052969315
40
0.26010052969315
40
0.303450617975341
40
0.303450617975341
40
0.346800706257531
40
0.346800706257531
40
0.390150794539721
40
0.390150794539721
40
0.433500882821911
40
0.433500882821911
40
0.476850971104102
40
0.476850971104102
40
0.498526015245197
40
0.498526015245197
40
0.520201059386292
40
0.520201059386292
40
0.563551147668483
40
0.563551147668483
40
0.606901235950675
40
0.606901235950675
40
0.650251324232866
40
0.650251324232866
40
0.671926368373962
40
0.671926368373962
40
0.693601412515058
40
0.693601412515058
40
0.73695150079725
40
0.73695150079725
40
0.780301589079441
40
0.780301589079441
40
0.823651677361633
40
0.823651677361633
40
0.867001765643824
40
0.867001765643824
40
0.910351853926016
40
0.910351853926016
40
0.932026898067112
40
0.932026898067112
40
0.953701942208207
40
0.953701942208207
40
0.997052030490399
40
0.997052030490399
40
1
40
1
40
1
40
1
41
1
10
11.8988804767218
20
3.449941098469
30
0
41
1
10
12.2713496847327
20
3.27794097779775
30
0
41
1
10
12.6440187725858
20
3.10223371117252
30
0
41
1
10
13.203612628333
20
2.83380228790534
30
0
41
1
10
13.390188545551
20
2.74342573773649
30
0
41
1
10
13.7630596048436
20
2.56024214941374
30
0
41
1
10
13.9490628782626
20
2.46692795157455
30
0
41
1
10
14.5079746656141
20
2.18555594496087
30
0
41
1
10
14.8818769891005
20
1.99565008564778
30
0
41
1
10
15.6277761848749
20
1.60940728807626
30
0
41
1
10
15.9999914410294
20
1.41310428690619
30
0
41
1
10
16.7454001732301
20
1.01857452858195
30
0
41
1
10
17.1187969768072
20
0.820747853057867
30
0
41
1
10
17.678027438028
20
0.519617531543105
30
0
41
1
10
17.8643691495897
20
0.418680494354163
30
0
41
1
10
18.2372610456424
20
0.217732990469301
30
0
41
1
10
18.423761988489
20
0.117446923070702
30
0
41
1
10
18.9832017688904
20
-0.183275486026503
30
0
41
1
10
19.3555230488092
20
-0.384605848221213
30
0
41
1
10
20.1007092946278
20
-0.78557470878593
30
0
41
1
10
20.4742049636856
20
-0.984750128649949
30
0
41
1
10
21.2205970993912
20
-1.3797374770644
30
0
41
1
10
21.592517329765
20
-1.57703307818741
30
0
41
1
10
22.3379187209708
20
-1.96377358705291
30
0
41
1
10
22.7108650477552
20
-2.15421349654582
30
0
41
1
10
23.4564013785579
20
-2.53067615159594
30
0
41
1
10
23.8295026346941
20
-2.71564285274076
30
0
41
1
10
24.3889162258859
20
-2.98569429770296
30
0
41
1
10
24.5753695872999
20
-3.07461176465449
30
0
41
1
10
24.9480767770805
20
-3.25051234860604
30
0
41
1
10
25.1339998367353
20
-3.33802249399048
30
0
41
1
10
25.6926132995334
20
-3.59576733734681
30
0
41
1
10
26.066104378618
20
-3.76172934811959
30
0
41
1
10
26.8122395895386
20
-4.08423128944543
30
0
41
1
10
27.1844814494874
20
-4.24032346012632
30
0
41
1
10
27.9297308522463
20
-4.53878054939093
30
0
41
1
10
28.3029563762043
20
-4.68094477350701
30
0
41
1
10
28.8616680185112
20
-4.88614851757043
30
0
41
1
10
29.0479071956793
20
-4.95300656809306
30
0
41
1
10
29.4209552006723
20
-5.0825814449222
30
0
41
1
10
29.6075070261192
20
-5.14538666241128
30
0
41
1
10
30.1670003609202
20
-5.3282067372478
30
0
41
1
10
30.5392342292346
20
-5.44320074471804
30
0
41
1
10
31.2840745607943
20
-5.6572605173526
30
0
41
1
10
31.6570003940673
20
-5.75606289447757
30
0
41
1
10
32.4036008822721
20
-5.93753128515743
30
0
41
1
10
32.7756145042409
20
-6.02059098372931
30
0
41
1
10
33.5209215390631
20
-6.16815737295178
30
0
41
1
10
33.8936903432876
20
-6.23319847035012
30
0
41
1
10
34.6386799117028
20
-6.34610405092872
30
0
41
1
10
35.0117712124394
20
-6.39363772940163
30
0
41
1
10
35.5712921420716
20
-6.45102383547015
30
0
41
1
10
35.7577527262119
20
-6.46786825345458
30
0
41
1
10
36.1304117961188
20
-6.49703315790859
30
0
41
1
10
36.3162770721332
20
-6.50941926512837
30
0
41
1
10
36.8746879409941
20
-6.53943228130254
30
0
41
1
10
37.2477458046682
20
-6.55011927550362
30
0
41
1
10
37.6460293005838
20
-6.5516965031207
30
0
41
1
10
37.6713878707062
20
-6.55175370454944
30
0
41
1
10
37.6967449410633
20
-6.55176772527307
30
0
0
SPLINE
5
EF
100
AcDbEntity
8
1
62
256
6
ByLayer
370
18
48
1
60
0
100
AcDbSpline
70
4
71
3
72
108
73
104
40
0
40
0
40
0
40
0
40
0.009146112219942
40
0.009146112219942
40
0.031026028595152
40
0.031026028595152
40
0.052905944970362
40
0.052905944970362
40
0.0747858613455722
40
0.0747858613455722
40
0.0966657777207822
40
0.0966657777207822
40
0.118545694095992
40
0.118545694095992
40
0.129485652283597
40
0.129485652283597
40
0.140425610471202
40
0.140425610471202
40
0.162305526846412
40
0.162305526846412
40
0.184185443221622
40
0.184185443221622
40
0.206065359596832
40
0.206065359596832
40
0.227945275972042
40
0.227945275972042
40
0.249825192347253
40
0.249825192347253
40
0.271705108722463
40
0.271705108722463
40
0.293585025097673
40
0.293585025097673
40
0.315464941472883
40
0.315464941472883
40
0.337344857848093
40
0.337344857848093
40
0.348284816035698
40
0.348284816035698
40
0.359224774223304
40
0.359224774223304
40
0.381104690598515
40
0.381104690598515
40
0.402984606973727
40
0.402984606973727
40
0.424864523348938
40
0.424864523348938
40
0.446744439724149
40
0.446744439724149
40
0.46862435609936
40
0.46862435609936
40
0.490504272474572
40
0.490504272474572
40
0.512384188849783
40
0.512384188849783
40
0.534264105224994
40
0.534264105224994
40
0.556144021600205
40
0.556144021600205
40
0.56708397978781
40
0.56708397978781
40
0.578023937975416
40
0.578023937975416
40
0.599903854350625
40
0.599903854350625
40
0.621783770725833
40
0.621783770725833
40
0.643663687101042
40
0.643663687101042
40
0.665543603476251
40
0.665543603476251
40
0.68742351985146
40
0.68742351985146
40
0.709303436226669
40
0.709303436226669
40
0.731183352601877
40
0.731183352601877
40
0.753063268977086
40
0.753063268977086
40
0.774943185352295
40
0.774943185352295
40
0.7858831435399
40
0.7858831435399
40
0.796823101727505
40
0.796823101727505
40
0.818703018102715
40
0.818703018102715
40
0.840582934477925
40
0.840582934477925
40
0.862462850853135
40
0.862462850853135
40
0.884342767228345
40
0.884342767228345
40
0.906222683603556
40
0.906222683603556
40
0.928102599978765
40
0.928102599978765
40
0.949982516353976
40
0.949982516353976
40
0.971862432729186
40
0.971862432729186
40
0.993742349104396
40
0.993742349104396
40
1
40
1
40
1
40
1
41
1
10
62.8610867078263
20
3.17211481177048
30
0
41
1
10
63.0167364270372
20
3.24597408628463
30
0
41
1
10
63.1724733923187
20
3.31897647933312
30
0
41
1
10
63.7011582053791
20
3.56358504757728
30
0
41
1
10
64.0738459039141
20
3.73229389212867
30
0
41
1
10
64.8184091190697
20
4.05775814824671
30
0
41
1
10
65.1908830858604
20
4.21426269993748
30
0
41
1
10
65.935884332006
20
4.5154085269545
30
0
41
1
10
66.3076982382502
20
4.66114572049196
30
0
41
1
10
67.0534901073428
20
4.93700294292606
30
0
41
1
10
67.4261391819459
20
5.06778168950291
30
0
41
1
10
68.1702854271915
20
5.31576670639319
30
0
41
1
10
68.5423593680764
20
5.43227588457651
30
0
41
1
10
69.1013813342935
20
5.59495272593867
30
0
41
1
10
69.2878230960049
20
5.64722060880794
30
0
41
1
10
69.6607220420289
20
5.74799441295502
30
0
41
1
10
69.8466387872772
20
5.7967233104969
30
0
41
1
10
70.4050017360998
20
5.93585219607903
30
0
41
1
10
70.7776930870731
20
6.01968615805006
30
0
41
1
10
71.5221237122652
20
6.17105730525645
30
0
41
1
10
71.8940328815376
20
6.238366948405
30
0
41
1
10
72.6396062702971
20
6.35474651228944
30
0
41
1
10
73.0128673190146
20
6.40373581978469
30
0
41
1
10
73.7565596504141
20
6.48434367862021
30
0
41
1
10
74.1286050436474
20
6.51534316868111
30
0
41
1
10
74.8737576524506
20
6.55885568306405
30
0
41
1
10
75.246340255047
20
6.57149211820629
30
0
41
1
10
75.9910704326278
20
6.57798587812542
30
0
41
1
10
76.36351994812
20
6.57192359249126
30
0
41
1
10
77.1082534721111
20
6.54137333604118
30
0
41
1
10
77.479715041046
20
6.51663870364004
30
0
41
1
10
78.2250526473288
20
6.44910713594544
30
0
41
1
10
78.5980792515257
20
6.40624859936133
30
0
41
1
10
79.3422036916457
20
6.30220674838054
30
0
41
1
10
79.7141593530674
20
6.24122622441098
30
0
41
1
10
80.2728422695209
20
6.1369766249345
30
0
41
1
10
80.4591440668445
20
6.10007165083894
30
0
41
1
10
80.8317085798012
20
6.02179624022727
30
0
41
1
10
81.0177215034027
20
5.98014873567791
30
0
41
1
10
81.5762594207756
20
5.84957986346097
30
0
41
1
10
81.948958070879
20
5.75483906896147
30
0
41
1
10
82.693188227882
20
5.54848945876554
30
0
41
1
10
83.0648888743429
20
5.4369385054178
30
0
41
1
10
83.8098285797064
20
5.19949042071505
30
0
41
1
10
84.1833830566145
20
5.07391324831013
30
0
41
1
10
84.9271233013812
20
4.80639270101113
30
0
41
1
10
85.2990799434625
20
4.66608554439256
30
0
41
1
10
86.0438464164493
20
4.37349494065643
30
0
41
1
10
86.4158860008364
20
4.22003277904201
30
0
41
1
10
87.160912459294
20
3.90160194122794
30
0
41
1
10
87.5334004895323
20
3.73744265080015
30
0
41
1
10
88.2779988000841
20
3.39887122547435
30
0
41
1
10
88.6492847517373
20
3.22311107920535
30
0
41
1
10
89.3940515470288
20
2.86534750199104
30
0
41
1
10
89.7671557671251
20
2.68222896093798
30
0
41
1
10
90.5113907428525
20
2.30768826565708
30
0
41
1
10
90.88329037624
20
2.11715033665888
30
0
41
1
10
91.4417308555963
20
1.828094602883
30
0
41
1
10
91.6279248555711
20
1.73111293896343
30
0
41
1
10
92.0002229178531
20
1.53555487474492
30
0
41
1
10
92.1859991875916
20
1.43638378963684
30
0
41
1
10
92.7444901769478
20
1.13878581940259
30
0
41
1
10
93.1174343346066
20
0.939888086768178
30
0
41
1
10
93.8615974280104
20
0.538336926714464
30
0
41
1
10
94.2331530459272
20
0.335879266013649
30
0
41
1
10
94.9775857177578
20
-0.068024469796228
30
0
41
1
10
95.3509928011856
20
-0.269219004380858
30
0
41
1
10
96.0949258710499
20
-0.674145405544863
30
0
41
1
10
96.4668462318811
20
-0.875189127716709
30
0
41
1
10
97.2113565851649
20
-1.27310072624917
30
0
41
1
10
97.5830979959127
20
-1.4715067450947
30
0
41
1
10
98.3275691510547
20
-1.86353784171644
30
0
41
1
10
98.7004536924258
20
-2.05656511160384
30
0
41
1
10
99.4450474772453
20
-2.43615589266997
30
0
41
1
10
99.816223324625
20
-2.6242666535498
30
0
41
1
10
100.560543816084
20
-2.9899260585685
30
0
41
1
10
100.933289288071
20
-3.16867855014456
30
0
41
1
10
101.677769546817
20
-3.51834812081248
30
0
41
1
10
102.049676572387
20
-3.6881309610464
30
0
41
1
10
102.607972628523
20
-3.93390423408124
30
0
41
1
10
102.794091557057
20
-4.01442793985169
30
0
41
1
10
103.166191853943
20
-4.17292419821646
30
0
41
1
10
103.351842815672
20
-4.25136021791101
30
0
41
1
10
103.909857127256
20
-4.48098033596634
30
0
41
1
10
104.283052927791
20
-4.627114249394
30
0
41
1
10
105.027282855449
20
-4.90697708965268
30
0
41
1
10
105.398756678651
20
-5.0405497602205
30
0
41
1
10
106.142808723469
20
-5.29212494436493
30
0
41
1
10
106.515624134805
20
-5.40999313342351
30
0
41
1
10
107.259902399257
20
-5.63268188267293
30
0
41
1
10
107.631840776829
20
-5.73575800108199
30
0
41
1
10
108.376229621673
20
-5.92487503764508
30
0
41
1
10
108.747809229829
20
-6.01163856933189
30
0
41
1
10
109.491717313823
20
-6.16781866936316
30
0
41
1
10
109.864630274787
20
-6.23711430767685
30
0
41
1
10
110.609354133666
20
-6.35794662405237
30
0
41
1
10
110.980487444535
20
-6.4098667827617
30
0
41
1
10
111.724489360584
20
-6.49474108341633
30
0
41
1
10
112.096756752642
20
-6.52806223025163
30
0
41
1
10
112.841091126568
20
-6.5764777889928
30
0
41
1
10
113.213277125414
20
-6.59134893650162
30
0
41
1
10
113.691883869855
20
-6.59849431855761
30
0
41
1
10
113.798321483958
20
-6.59932602986979
30
0
41
1
10
113.904741075245
20
-6.59939911170068
30
0
0
SPLINE
5
F0
100
AcDbEntity
8
1
62
256
6
ByLayer
370
18
48
1
60
0
100
AcDbSpline
70
4
71
3
72
42
73
38
40
0
40
0
40
0
40
0
40
0.012414021437942
40
0.012414021437942
40
0.0829558770495148
40
0.0829558770495148
40
0.118226804855303
40
0.118226804855303
40
0.153497732661091
40
0.153497732661091
40
0.224039588272667
40
0.224039588272667
40
0.294581443884244
40
0.294581443884244
40
0.36512329949582
40
0.36512329949582
40
0.435665155107397
40
0.435665155107397
40
0.506207010718974
40
0.506207010718974
40
0.541477938524763
40
0.541477938524763
40
0.576748866330554
40
0.576748866330554
40
0.647290721942131
40
0.647290721942131
40
0.717832577553707
40
0.717832577553707
40
0.788374433165284
40
0.788374433165284
40
0.82364536097107
40
0.82364536097107
40
0.858916288776855
40
0.858916288776855
40
0.929458144388427
40
0.929458144388427
40
1
40
1
40
1
40
1
41
1
10
139.054627500442
20
3.18715022882458
30
0
41
1
10
139.120069373207
20
3.21847884547185
30
0
41
1
10
139.185508441179
20
3.2496481910008
30
0
41
1
10
139.622782476294
20
3.45677632516163
30
0
41
1
10
139.995030883525
20
3.62723590177566
30
0
41
1
10
140.552197856074
20
3.87718300478704
30
0
41
1
10
140.737773146855
20
3.9594414699541
30
0
41
1
10
141.109636312294
20
4.12035946037787
30
0
41
1
10
141.295852471963
20
4.19925566045845
30
0
41
1
10
141.854459505838
20
4.43130519060398
30
0
41
1
10
142.225968576139
20
4.58046661532291
30
0
41
1
10
142.968957561172
20
4.86523687491376
30
0
41
1
10
143.340788154871
20
5.00043399941359
30
0
41
1
10
144.084948341883
20
5.25677198634676
30
0
41
1
10
144.456618643317
20
5.37888165036856
30
0
41
1
10
145.200424242693
20
5.6055680142432
30
0
41
1
10
145.572342977366
20
5.71084649435454
30
0
41
1
10
146.315248834121
20
5.9061018153356
30
0
41
1
10
146.686803295664
20
5.99552061696568
30
0
41
1
10
147.245362109361
20
6.11654390235057
30
0
41
1
10
147.431550727823
20
6.15471496410598
30
0
41
1
10
147.803528133841
20
6.22677915952281
30
0
41
1
10
147.989042834211
20
6.26086460319613
30
0
41
1
10
148.546092503926
20
6.35604121962143
30
0
41
1
10
148.918106879249
20
6.4101993678394
30
0
41
1
10
149.661656753275
20
6.50092300957181
30
0
41
1
10
150.033527486701
20
6.53737605366186
30
0
41
1
10
150.777336973461
20
6.59137123072986
30
0
41
1
10
151.149514639099
20
6.60903163881213
30
0
41
1
10
151.706558470739
20
6.62171413717309
30
0
41
1
10
151.89200680052
20
6.62360703744048
30
0
41
1
10
152.263604471933
20
6.62269674315718
30
0
41
1
10
152.449594938251
20
6.61991004706113
30
0
41
1
10
153.007949793946
20
6.60459242289238
30
0
41
1
10
153.379866206791
20
6.58500494420016
30
0
41
1
10
154.12313392671
20
6.52727161674986
30
0
41
1
10
154.495088419418
20
6.48926830406782
30
0
41
1
10
154.86730790359
20
6.44218587553374
30
0
0
SPLINE
5
F1
100
AcDbEntity
8
1
62
256
6
ByLayer
370
18
48
1
60
0
100
AcDbSpline
70
4
71
3
72
8
73
4
40
0
40
0
40
0
40
0
40
1
40
1
40
1
40
1
41
1
10
154.86730790359
20
-6.44218587553377
30
0
41
1
10
154.784634233216
20
-6.52340334085409
30
0
41
1
10
154.712286118498
20
-6.57797506953037
30
0
41
1
10
154.649635942053
20
-6.60509019178434
30
0
0
SPLINE
5
F2
100
AcDbEntity
8
1
62
256
6
ByLayer
370
18
48
1
60
0
100
AcDbSpline
70
4
71
3
72
12
73
8
40
0
40
0
40
0
40
0
40
0.289353134261003
40
0.289353134261003
40
0.889048789764451
40
0.889048789764451
40
1
40
1
40
1
40
1
41
1
10
115.802598171225
20
-6.23604585405508
30
0
41
1
10
115.06605971213
20
-6.23477551063672
30
0
41
1
10
114.332731804091
20
-6.19900071880954
30
0
41
1
10
112.082060863235
20
-5.98623163437728
30
0
41
1
10
110.567206658685
20
-5.69862051876689
30
0
41
1
10
108.749639086803
20
-5.2013574784032
30
0
41
1
10
108.464792520231
20
-5.11907784241419
30
0
41
1
10
108.180425723822
20
-5.03279453442494
30
0
0
SPLINE
5
F3
100
AcDbEntity
8
1
62
256
6
ByLayer
370
13
48
1
60
0
100
AcDbSpline
70
4
71
3
72
22
73
18
40
0
40
0
40
0
40
0
40
0.0193100251799718
40
0.0193100251799718
40
0.0935934346682738
40
0.0935934346682738
40
0.242160253644883
40
0.242160253644883
40
0.539293891598105
40
0.539293891598105
40
0.613577301086407
40
0.613577301086407
40
0.68786071057471
40
0.68786071057471
40
0.83642752955131
40
0.83642752955131
40
1
40
1
40
1
40
1
41
1
10
108.180426681136
20
-5.03279482489549
30
0
41
1
10
108.080539728077
20
-5.00248687082515
30
0
41
1
10
107.98071197089
20
-4.97168492656317
30
0
41
1
10
107.497472034522
20
-4.8201315782546
30
0
41
1
10
107.115154583468
20
-4.69279276919474
30
0
41
1
10
105.970615186571
20
-4.29147558096534
30
0
41
1
10
105.210915221864
20
-3.99810538170007
30
0
41
1
10
102.933442526029
20
-3.05401008551047
30
0
41
1
10
101.417613776273
20
-2.33879650510846
30
0
41
1
10
99.4978428225878
20
-1.38496848872631
30
0
41
1
10
99.1126030604354
20
-1.19120503403983
30
0
41
1
10
98.346195910751
20
-0.802814339600133
30
0
41
1
10
97.9641140974604
20
-0.607732271019756
30
0
41
1
10
96.8201821293987
20
-0.0219196336180971
30
0
41
1
10
96.0607120523373
20
0.369520039467176
30
0
41
1
10
94.4656241000854
20
1.18179921977827
30
0
41
1
10
93.6302016111633
20
1.60187908288887
30
0
41
1
10
92.7914721485287
20
2.00898911679795
30
0
0
SPLINE
5
F4
100
AcDbEntity
8
1
62
256
6
ByLayer
370
18
48
1
60
0
100
AcDbSpline
70
4
71
3
72
16
73
12
40
0
40
0
40
0
40
0
40
0.504347082019968
40
0.504347082019968
40
0.654271754195925
40
0.654271754195925
40
0.729234090283905
40
0.729234090283905
40
0.804196426371882
40
0.804196426371882
40
1
40
1
40
1
40
1
41
1
10
39.6051828769864
20
-6.18848066350773
30
0
41
1
10
38.3263406599093
20
-6.18630940007174
30
0
41
1
10
37.0499247716916
20
-6.08084440013911
30
0
41
1
10
35.3806701776503
20
-5.81288378140718
30
0
41
1
10
34.9972051901526
20
-5.74258009709027
30
0
41
1
10
34.4200586828753
20
-5.62394031282113
30
0
41
1
10
34.2272192711552
20
-5.58215684508306
30
0
41
1
10
33.8425834617639
20
-5.49462015228931
30
0
41
1
10
33.6505868849317
20
-5.44883282168331
30
0
41
1
10
32.9580463047718
20
-5.27638094834461
30
0
41
1
10
32.4590737842071
20
-5.13834687019374
30
0
41
1
10
31.9611775963312
20
-4.98804705725118
30
0
0
SPLINE
5
F5
100
AcDbEntity
8
1
62
256
6
ByLayer
370
13
48
1
60
0
100
AcDbSpline
70
4
71
3
72
22
73
18
40
0
40
0
40
0
40
0
40
0.0522112930330523
40
0.0522112930330523
40
0.353146581269115
40
0.353146581269115
40
0.428380403328132
40
0.428380403328132
40
0.503614225387149
40
0.503614225387149
40
0.654081869505182
40
0.654081869505182
40
0.804549513623215
40
0.804549513623215
40
0.955017157741248
40
0.955017157741248
40
1
40
1
40
1
40
1
41
1
10
31.9611775954426
20
-4.98804705698291
30
0
41
1
10
31.6966063642339
20
-4.90818099748509
30
0
41
1
10
31.4323390494451
20
-4.8248515495346
30
0
41
1
10
29.6461731169904
20
-4.23887845521583
30
0
41
1
10
28.130340090365
20
-3.62958121518019
30
0
41
1
10
26.2160335532148
20
-2.77116742819649
30
0
41
1
10
25.8321794260571
20
-2.59467768027429
30
0
41
1
10
25.0617746151518
20
-2.23318547649836
30
0
41
1
10
24.67708315301
20
-2.04905757317161
30
0
41
1
10
23.5273399506813
20
-1.49044093216727
30
0
41
1
10
22.7651464743796
20
-1.10864479226393
30
0
41
1
10
21.2433317916918
20
-0.33837700805077
30
0
41
1
10
20.48364623596
20
0.0499657543672356
30
0
41
1
10
18.96146223176
20
0.82251335232715
30
0
41
1
10
18.1992958660246
20
1.20737893293699
30
0
41
1
10
17.2038032108332
20
1.69727924202516
30
0
41
1
10
16.9742224680035
20
1.8093858125155
30
0
41
1
10
16.7442702360573
20
1.92061757836382
30
0
0
SPLINE
5
F6
100
AcDbEntity
8
1
62
256
6
ByLayer
370
18
48
1
60
0
100
AcDbSpline
70
4
71
3
72
10
73
6
40
0
40
0
40
0
40
0
40
0.5
40
0.5
40
1
40
1
40
1
40
1
41
1
10
156.975222798295
20
-0.160196669054272
30
0
41
1
10
156.977180884607
20
-0.144411066370253
30
0
41
1
10
156.980461567641
20
-0.126692917647176
30
0
41
1
10
156.988901240963
20
-0.0885087160766034
30
0
41
1
10
156.994078058812
20
-0.068096274985038
30
0
41
1
10
156.999958148876
20
-0.0471928827230101
30
0
0
SPLINE
5
F7
100
AcDbEntity
8
1
62
256
6
ByLayer
370
18
48
1
60
0
100
AcDbSpline
70
4
71
3
72
36
73
32
40
0
40
0
40
0
40
0
40
0.0846739498780361
40
0.0846739498780361
40
0.127010924817054
40
0.127010924817054
40
0.169347899756072
40
0.169347899756072
40
0.254021849634107
40
0.254021849634107
40
0.338695799512142
40
0.338695799512142
40
0.423369749390177
40
0.423369749390177
40
0.50804369926821
40
0.50804369926821
40
0.592717649146244
40
0.592717649146244
40
0.677391599024277
40
0.677391599024277
40
0.719728573963294
40
0.719728573963294
40
0.762065548902311
40
0.762065548902311
40
0.846739498780342
40
0.846739498780342
40
0.931413448658373
40
0.931413448658373
40
0.973750423597387
40
0.973750423597387
40
1
40
1
40
1
40
1
41
1
10
11.8988804767218
20
-6.16829678724733
30
0
41
1
10
12.2624057621409
20
-6.17333522522839
30
0
41
1
10
12.6255642083035
20
-6.17041898097946
30
0
41
1
10
13.1693612067451
20
-6.15322641749793
30
0
41
1
10
13.3505051336571
20
-6.14535902794387
30
0
41
1
10
13.7128165632002
20
-6.12546590842092
30
0
41
1
10
13.8942272786515
20
-6.11350072720916
30
0
41
1
10
14.4387494770907
20
-6.07168446909438
30
0
41
1
10
14.8019269350924
20
-6.03576607326173
30
0
41
1
10
15.5273556008807
20
-5.94726008174922
30
0
41
1
10
15.8899079630523
20
-5.89461684639315
30
0
41
1
10
16.6153865329674
20
-5.77405444283113
30
0
41
1
10
16.9780637037637
20
-5.70613003748824
30
0
41
1
10
17.7035097403713
20
-5.55442981032459
30
0
41
1
10
18.0669179390953
20
-5.47164627120804
30
0
41
1
10
18.7921176593295
20
-5.29141154091383
30
0
41
1
10
19.1543891074566
20
-5.19493151262205
30
0
41
1
10
19.8798198867585
20
-4.98593876071698
30
0
41
1
10
20.243271470729
20
-4.87407483153564
30
0
41
1
10
20.7874155241437
20
-4.69669411808309
30
0
41
1
10
20.9686094493887
20
-4.63583842128168
30
0
41
1
10
21.3310863731504
20
-4.5112918101627
30
0
41
1
10
21.5126599594539
20
-4.44800051936352
30
0
41
1
10
22.0568910213644
20
-4.253153991651
30
0
41
1
10
22.419454005424
20
-4.11710531851492
30
0
41
1
10
23.1452900339998
20
-3.83470571684441
30
0
41
1
10
23.5081733282514
20
-3.68883384629186
30
0
41
1
10
24.0521460699368
20
-3.4625614485667
30
0
41
1
10
24.2334068061623
20
-3.38570179395563
30
0
41
1
10
24.5269622051277
20
-3.25914485679925
30
0
41
1
10
24.6392378983646
20
-3.21014117671206
30
0
41
1
10
24.7515672961605
20
-3.16078919246971
30
0
0
SPLINE
5
F8
100
AcDbEntity
8
1
62
256
6
ByLayer
370
18
48
1
60
0
100
AcDbSpline
70
4
71
3
72
120
73
116
40
0
40
0
40
0
40
0
40
0.0041220990410972
40
0.0041220990410972
40
0.0148558551729392
40
0.0148558551729392
40
0.0363233674366234
40
0.0363233674366234
40
0.0577908797003075
40
0.0577908797003075
40
0.0792583919639915
40
0.0792583919639915
40
0.089992148095834
40
0.089992148095834
40
0.100725904227676
40
0.100725904227676
40
0.122193416491361
40
0.122193416491361
40
0.143660928755046
40
0.143660928755046
40
0.165128441018731
40
0.165128441018731
40
0.186595953282416
40
0.186595953282416
40
0.208063465546101
40
0.208063465546101
40
0.229530977809786
40
0.229530977809786
40
0.25099849007347
40
0.25099849007347
40
0.272466002337155
40
0.272466002337155
40
0.29393351460084
40
0.29393351460084
40
0.304667270732683
40
0.304667270732683
40
0.315401026864525
40
0.315401026864525
40
0.33686853912821
40
0.33686853912821
40
0.358336051391896
40
0.358336051391896
40
0.379803563655581
40
0.379803563655581
40
0.390537319787424
40
0.390537319787424
40
0.401271075919267
40
0.401271075919267
40
0.422738588182952
40
0.422738588182952
40
0.444206100446638
40
0.444206100446638
40
0.454939856578481
40
0.454939856578481
40
0.465673612710324
40
0.465673612710324
40
0.48714112497401
40
0.48714112497401
40
0.508608637237696
40
0.508608637237696
40
0.519342393369539
40
0.519342393369539
40
0.530076149501383
40
0.530076149501383
40
0.551543661765069
40
0.551543661765069
40
0.573011174028755
40
0.573011174028755
40
0.594478686292441
40
0.594478686292441
40
0.605212442424285
40
0.605212442424285
40
0.615946198556128
40
0.615946198556128
40
0.637413710819815
40
0.637413710819815
40
0.658881223083502
40
0.658881223083502
40
0.680348735347188
40
0.680348735347188
40
0.701816247610875
40
0.701816247610875
40
0.723283759874562
40
0.723283759874562
40
0.744751272138248
40
0.744751272138248
40
0.766218784401935
40
0.766218784401935
40
0.787686296665622
40
0.787686296665622
40
0.809153808929308
40
0.809153808929308
40
0.819887565061152
40
0.819887565061152
40
0.830621321192995
40
0.830621321192995
40
0.852088833456682
40
0.852088833456682
40
0.873556345720369
40
0.873556345720369
40
0.895023857984055
40
0.895023857984055
40
0.905757614115899
40
0.905757614115899
40
0.916491370247743
40
0.916491370247743
40
0.937958882511431
40
0.937958882511431
40
0.959426394775119
40
0.959426394775119
40
0.970160150906962
40
0.970160150906962
40
0.980893907038806
40
0.980893907038806
40
1
40
1
40
1
40
1
41
1
10
50.3153405757349
20
6.19469952304081
30
0
41
1
10
50.3849885707259
20
6.19477801236403
30
0
41
1
10
50.4546313403909
20
6.19455020155428
30
0
41
1
10
50.7055718787312
20
6.19258381815905
30
0
41
1
10
50.8865834232961
20
6.18890827590496
30
0
41
1
10
51.4305717843594
20
6.17141552471801
30
0
41
1
10
51.7931487601381
20
6.1513226893652
30
0
41
1
10
52.5177703066179
20
6.0957865258768
30
0
41
1
10
52.8802355447302
20
6.06000790873276
30
0
41
1
10
53.6059373521813
20
5.97138678030518
30
0
41
1
10
53.9685571606197
20
5.91895415778217
30
0
41
1
10
54.5118012828786
20
5.82890919289773
30
0
41
1
10
54.6927330038221
20
5.79689903991874
30
0
41
1
10
55.0553403954631
20
5.72942082803797
30
0
41
1
10
55.2366448860986
20
5.69368460543174
30
0
41
1
10
55.7806060276166
20
5.58025863271797
30
0
41
1
10
56.1434022549668
20
5.49639171024845
30
0
41
1
10
56.8684043388682
20
5.31557382912655
30
0
41
1
10
57.2308499868105
20
5.21851651737938
30
0
41
1
10
57.9556402773563
20
5.00962229546383
30
0
41
1
10
58.3176271097809
20
4.89736039888012
30
0
41
1
10
59.0436959928828
20
4.66246721964092
30
0
41
1
10
59.4061268131352
20
4.53855029145183
30
0
41
1
10
60.1306373497361
20
4.27767110864767
30
0
41
1
10
60.4928940506186
20
4.14129640393858
30
0
41
1
10
61.2180155886853
20
3.85893367562269
30
0
41
1
10
61.5809154318027
20
3.71243591261077
30
0
41
1
10
62.3052721112706
20
3.40782187335171
30
0
41
1
10
62.6679819866652
20
3.25195988350149
30
0
41
1
10
63.3925785454745
20
2.93114210430221
30
0
41
1
10
63.7546482777893
20
2.76655584644354
30
0
41
1
10
64.4800820636084
20
2.4294920800746
30
0
41
1
10
64.8428036764889
20
2.25792504086138
30
0
41
1
10
65.3861887644522
20
1.99605186821893
30
0
41
1
10
65.5672118336418
20
1.90799836018744
30
0
41
1
10
65.9291435457162
20
1.73042158703299
30
0
41
1
10
66.1104607233682
20
1.6416095544742
30
0
41
1
10
66.6543839329258
20
1.37285437954463
30
0
41
1
10
67.0172162959176
20
1.19080787569294
30
0
41
1
10
67.7421153855946
20
0.824558747148814
30
0
41
1
10
68.1043289221629
20
0.640368802931107
30
0
41
1
10
68.8291279586296
20
0.270974515989053
30
0
41
1
10
69.1913619585725
20
0.085138689833741
30
0
41
1
10
69.7350865645458
20
-0.193869429770814
30
0
41
1
10
69.9167159112544
20
-0.286158935806469
30
0
41
1
10
70.2793809608269
20
-0.471148363426636
30
0
41
1
10
70.4605886596542
20
-0.563631512822496
30
0
41
1
10
71.0039664557602
20
-0.84053430637772
30
0
41
1
10
71.3660788287779
20
-1.02410247669025
30
0
41
1
10
72.0909237658512
20
-1.3879650459366
30
0
41
1
10
72.4539360686047
20
-1.5683684554138
30
0
41
1
10
72.9974098412353
20
-1.83618709149053
30
0
41
1
10
73.178300554577
20
-1.92509729920872
30
0
41
1
10
73.5405925366771
20
-2.10042987685293
30
0
41
1
10
73.7219105336433
20
-2.18703708980649
30
0
41
1
10
74.2654675708267
20
-2.44547949684957
30
0
41
1
10
74.6275387806129
20
-2.61557073782609
30
0
41
1
10
75.3525011173938
20
-2.94838119065653
30
0
41
1
10
75.7151630039807
20
-3.11028121631924
30
0
41
1
10
76.2586385738947
20
-3.34666981022505
30
0
41
1
10
76.4397087712172
20
-3.42450497396612
30
0
41
1
10
76.8017058061748
20
-3.5782092848759
30
0
41
1
10
76.9825081830105
20
-3.65427447995032
30
0
41
1
10
77.5261695595148
20
-3.87698369560721
30
0
41
1
10
77.8890522026151
20
-4.02022208561328
30
0
41
1
10
78.6138292681086
20
-4.29617116104058
30
0
41
1
10
78.9759209466802
20
-4.42898861120256
30
0
41
1
10
79.7003719110925
20
-4.68190066010507
30
0
41
1
10
80.0627348468065
20
-4.80162603733368
30
0
41
1
10
80.6062057808574
20
-4.97223154661515
30
0
41
1
10
80.7873949605492
20
-5.02760033466544
30
0
41
1
10
81.1501210119666
20
-5.13449752894343
30
0
41
1
10
81.3313725890234
20
-5.18656713619478
30
0
41
1
10
81.8748469259413
20
-5.33723504599746
30
0
41
1
10
82.2367603716065
20
-5.4302335463166
30
0
41
1
10
82.961253080647
20
-5.60112702519612
30
0
41
1
10
83.3240762703674
20
-5.67943075737526
30
0
41
1
10
84.0489591061059
20
-5.82157710927399
30
0
41
1
10
84.4106005488432
20
-5.88466050078233
30
0
41
1
10
85.1353325941055
20
-5.99371577748693
30
0
41
1
10
85.4974927788991
20
-6.04051866881159
30
0
41
1
10
86.2220420672361
20
-6.11951700323795
30
0
41
1
10
86.5846073689615
20
-6.15019926817362
30
0
41
1
10
87.3091873741328
20
-6.1944648641435
30
0
41
1
10
87.6712960030691
20
-6.20805182495758
30
0
41
1
10
88.3949421033482
20
-6.22087765052166
30
0
41
1
10
88.7579107618701
20
-6.21859037604315
30
0
41
1
10
89.4828286427176
20
-6.19650305349955
30
0
41
1
10
89.8448055940559
20
-6.17684744470461
30
0
41
1
10
90.568933808627
20
-6.12317892418881
30
0
41
1
10
90.9311703976327
20
-6.08816655251272
30
0
41
1
10
91.4745925558443
20
-6.0223463105047
30
0
41
1
10
91.655795489811
20
-5.99825448259787
30
0
41
1
10
92.017968922352
20
-5.94605994834518
30
0
41
1
10
92.199338405923
20
-5.91821224631008
30
0
41
1
10
92.742925079514
20
-5.82926890043635
30
0
41
1
10
93.1048199809625
20
-5.76222322914347
30
0
41
1
10
93.8289695484197
20
-5.61155749245978
30
0
41
1
10
94.1914383224067
20
-5.52834038176726
30
0
41
1
10
94.9165936609975
20
-5.34847232638071
30
0
41
1
10
95.2784561682115
20
-5.25138950392375
30
0
41
1
10
95.821325263025
20
-5.09457925316653
30
0
41
1
10
96.0026161681303
20
-5.04091415291973
30
0
41
1
10
96.3649066689452
20
-4.9299195848111
30
0
41
1
10
96.546030951587
20
-4.87273383857655
30
0
41
1
10
97.0893969221358
20
-4.69624403346401
30
0
41
1
10
97.4518814841315
20
-4.57216861378012
30
0
41
1
10
98.1762873804943
20
-4.31182641974175
30
0
41
1
10
98.5384981530867
20
-4.17593486545402
30
0
41
1
10
99.0813809050968
20
-3.96368873547434
30
0
41
1
10
99.2621498889214
20
-3.89129556220192
30
0
41
1
10
99.624448547216
20
-3.74480340524514
30
0
41
1
10
99.8058620373022
20
-3.67043390504133
30
0
41
1
10
100.309877850373
20
-3.45965208638142
30
0
41
1
10
100.632084061104
20
-3.3205173558469
30
0
41
1
10
100.95426125862
20
-3.17829014722986
30
0
0
SPLINE
5
F9
100
AcDbEntity
8
1
62
256
6
ByLayer
370
18
48
1
60
0
100
AcDbSpline
70
4
71
3
72
58
73
54
40
0
40
0
40
0
40
0
40
0.026031161289329
40
0.026031161289329
40
0.0703024721398198
40
0.0703024721398198
40
0.0924381275650655
40
0.0924381275650655
40
0.114573782990311
40
0.114573782990311
40
0.1588450938408
40
0.1588450938408
40
0.203116404691288
40
0.203116404691288
40
0.247387715541775
40
0.247387715541775
40
0.269523370967018
40
0.269523370967018
40
0.29165902639226
40
0.29165902639226
40
0.335930337242743
40
0.335930337242743
40
0.380201648093226
40
0.380201648093226
40
0.424472958943708
40
0.424472958943708
40
0.46874426979419
40
0.46874426979419
40
0.513015580644673
40
0.513015580644673
40
0.557286891495156
40
0.557286891495156
40
0.601558202345638
40
0.601558202345638
40
0.645829513196121
40
0.645829513196121
40
0.690100824046603
40
0.690100824046603
40
0.712236479471845
40
0.712236479471845
40
0.734372134897088
40
0.734372134897088
40
0.822914756598056
40
0.822914756598056
40
0.867186067448541
40
0.867186067448541
40
0.889321722873784
40
0.889321722873784
40
0.911457378299027
40
0.911457378299027
40
0.955728689149514
40
0.955728689149514
40
1
40
1
40
1
40
1
41
1
10
126.503382662997
20
6.24172122486158
30
0
41
1
10
126.716137568501
20
6.24175278381918
30
0
41
1
10
126.928904749374
20
6.23876097860256
30
0
41
1
10
127.503951585128
20
6.22282645011592
30
0
41
1
10
127.86631996154
20
6.20499260064614
30
0
41
1
10
128.409230603996
20
6.1662382541021
30
0
41
1
10
128.590103752155
20
6.15121732894789
30
0
41
1
10
128.951731043893
20
6.11664481235397
30
0
41
1
10
129.13238055869
20
6.09704940699925
30
0
41
1
10
129.675588985952
20
6.03267401376979
30
0
41
1
10
130.038028507864
20
5.98199574865879
30
0
41
1
10
130.762008513906
20
5.8651762649873
30
0
41
1
10
131.123690605484
20
5.79851875253857
30
0
41
1
10
131.847391839732
20
5.64941543972066
30
0
41
1
10
132.20932514609
20
5.56757988433304
30
0
41
1
10
132.752030369667
20
5.43382322193543
30
0
41
1
10
132.933008760094
20
5.38730765370929
30
0
41
1
10
133.295297192238
20
5.29108119758328
30
0
41
1
10
133.476335209513
20
5.2410237903664
30
0
41
1
10
134.019181568873
20
5.08534228024507
30
0
41
1
10
134.380672206602
20
4.97442385767781
30
0
41
1
10
135.104135031795
20
4.74094451185297
30
0
41
1
10
135.46643045618
20
4.61757409630331
30
0
41
1
10
136.190568406824
20
4.35809326562855
30
0
41
1
10
136.5518586191
20
4.22171526281937
30
0
41
1
10
137.275693083552
20
3.94100068101741
30
0
41
1
10
137.637367450951
20
3.79466086682515
30
0
41
1
10
138.361154430807
20
3.49129813347605
30
0
41
1
10
138.723414259978
20
3.33459782214348
30
0
41
1
10
139.447274180664
20
3.01420044423446
30
0
41
1
10
139.80895941303
20
2.84962190511482
30
0
41
1
10
140.531928896275
20
2.51176893248041
30
0
41
1
10
140.894501315436
20
2.34062854271914
30
0
41
1
10
141.618704291667
20
1.99076531316064
30
0
41
1
10
141.980278709543
20
1.81271710653704
30
0
41
1
10
142.703683161933
20
1.4528617303767
30
0
41
1
10
143.065564310386
20
1.2712160414643
30
0
41
1
10
143.608330046138
20
0.995526755341984
30
0
41
1
10
143.789294246909
20
0.903042564524839
30
0
41
1
10
144.15107833654
20
0.717406172874888
30
0
41
1
10
144.332246094711
20
0.625062435419068
30
0
41
1
10
145.237235747974
20
0.161409130133137
30
0
41
1
10
145.959743785073
20
-0.213869195951787
30
0
41
1
10
147.04634588806
20
-0.770906698837763
30
0
41
1
10
147.407854265401
20
-0.956258565153263
30
0
41
1
10
147.950092721433
20
-1.23192058086931
30
0
41
1
10
148.131165689912
20
-1.3227803692204
30
0
41
1
10
148.493010904702
20
-1.50425118168675
30
0
41
1
10
148.673909668105
20
-1.59461824418466
30
0
41
1
10
149.21661714894
20
-1.86443559925132
30
0
41
1
10
149.578742699478
20
-2.04236044694932
30
0
41
1
10
150.302340280678
20
-2.39190648974557
30
0
41
1
10
150.664080788789
20
-2.56330706873942
30
0
41
1
10
151.025605094573
20
-2.73128622047619
30
0
0
SPLINE
5
FA
100
AcDbEntity
8
1
62
256
6
ByLayer
370
18
48
1
60
0
100
AcDbSpline
70
4
71
3
72
18
73
14
40
0
40
0
40
0
40
0
40
0.125
40
0.125
40
0.25
40
0.25
40
0.375
40
0.375
40
0.5
40
0.5
40
0.75
40
0.75
40
1
40
1
40
1
40
1
41
1
10
8.00000027993093
20
-4.80002247827071
30
0
41
1
10
8.00000027993082
20
-4.77902545871746
30
0
41
1
10
8.00184286871198
20
-4.75834560668906
30
0
41
1
10
8.01072116365708
20
-4.7205532622672
30
0
41
1
10
8.01793408570933
20
-4.70353885541624
30
0
41
1
10
8.03693550958843
20
-4.67799303184393
30
0
41
1
10
8.04873268399575
20
-4.66932789952526
30
0
41
1
10
8.0737732384336
20
-4.65984302285881
30
0
41
1
10
8.08686339140775
20
-4.65880609752716
30
0
41
1
10
8.12619268719772
20
-4.66267688161591
30
0
41
1
10
8.1522501933716
20
-4.67418915407089
30
0
41
1
10
8.20244299897564
20
-4.70503694927839
30
0
41
1
10
8.22680512013304
20
-4.7247432176604
30
0
41
1
10
8.25023466688364
20
-4.74703198973677
30
0
0
SPLINE
5
FB
100
AcDbEntity
8
1
62
256
6
ByLayer
370
18
48
1
60
0
100
AcDbSpline
70
4
71
3
72
25
73
21
40
0
40
0
40
0
40
0
40
0.074827792798703
40
0.137613987839738
40
0.186033566756296
40
0.218592196653277
40
0.260427461722884
40
0.318262970442174
40
0.373821690814283
40
0.42471277208756
40
0.485247674449062
40
0.557218802421851
40
0.615847251173042
40
0.668973427955459
40
0.734463480055547
40
0.789922004504061
40
0.850817258944874
40
0.925076002646876
40
0.989436717096563
40
1
40
1
40
1
40
1
41
1
10
39.5529520283015
20
-6.18847579147939
30
0
41
1
10
39.8173461218395
20
-6.18778523289743
30
0
41
1
10
40.3043242350401
20
-6.18712161903656
30
0
41
1
10
40.9755897041802
20
-6.18902676665644
30
0
41
1
10
41.4802722596695
20
-6.18966835568938
30
0
41
1
10
41.9236684557687
20
-6.18992974392447
30
0
41
1
10
42.398160523003
20
-6.19021319492387
30
0
41
1
10
42.9562431757263
20
-6.19034156219129
30
0
41
1
10
43.5466369285033
20
-6.19080586814545
30
0
41
1
10
44.1465755097696
20
-6.19144715103897
30
0
41
1
10
44.8056904327605
20
-6.19162148806379
30
0
41
1
10
45.4925808111562
20
-6.19144513888523
30
0
41
1
10
46.1528476275209
20
-6.19244596234995
30
0
41
1
10
46.7898248936419
20
-6.19286905836253
30
0
41
1
10
47.4154134680184
20
-6.19285465822742
30
0
41
1
10
48.06892078539
20
-6.19334638798662
30
0
41
1
10
48.7539424568112
20
-6.19424089984443
30
0
41
1
10
49.4709577201125
20
-6.19391317513669
30
0
41
1
10
50.0070880404784
20
-6.19439971567888
30
0
41
1
10
50.2763490899011
20
-6.19460832763502
30
0
41
1
10
50.3143113016421
20
-6.19463918101948
30
0
0
SPLINE
5
FC
100
AcDbEntity
8
1
62
256
6
ByLayer
370
18
48
1
60
0
100
AcDbSpline
70
4
71
3
72
16
73
12
40
0
40
0
40
0
40
0
40
0.165348721448097
40
0.347235298380669
40
0.483820996045319
40
0.587903388703284
40
0.681769273936304
40
0.766052747876313
40
0.855547486990975
40
0.961870533646244
40
1
40
1
40
1
40
1
41
1
10
8.25017158010894
20
-6.16902679589148
30
0
41
1
10
8.46897752417988
20
-6.16920609176239
30
0
41
1
10
8.92847819924145
20
-6.16955430403956
30
0
41
1
10
9.56875734119626
20
-6.17003087244166
30
0
41
1
10
10.1279363748575
20
-6.17026721981932
30
0
41
1
10
10.5706437300523
20
-6.17032727319489
30
0
41
1
10
10.9441362906237
20
-6.17028099883282
30
0
41
1
10
11.298326750573
20
-6.17023454020563
30
0
41
1
10
11.6690009153903
20
-6.17025801797743
30
0
41
1
10
11.9785980657852
20
-6.17043190994184
30
0
41
1
10
12.1697604439184
20
-6.17061841185546
30
0
41
1
10
12.2202193625186
20
-6.17067289237355
30
0
0
SPLINE
5
FD
100
AcDbEntity
8
1
62
256
6
ByLayer
370
18
48
1
60
0
100
AcDbSpline
70
4
71
3
72
20
73
16
40
0
40
0
40
0
40
0
40
0.0360708912696486
40
0.118146694025016
40
0.215332156443148
40
0.299373524515806
40
0.365598203500476
40
0.441464061286325
40
0.550463381748938
40
0.628999914160052
40
0.688825124442462
40
0.785944682338647
40
0.892819349839716
40
0.979971912770652
40
1
40
1
40
1
40
1
41
1
10
126.504461704781
20
6.2416818155009
30
0
41
1
10
126.421410224886
20
6.24168779314678
30
0
41
1
10
126.149383821697
20
6.24164653095394
30
0
41
1
10
125.653586054639
20
6.24053518868814
30
0
41
1
10
125.047373355464
20
6.24029959332765
30
0
41
1
10
124.477531212577
20
6.24058771688109
30
0
41
1
10
123.957482122531
20
6.2401469507048
30
0
41
1
10
123.379147345307
20
6.23926020921093
30
0
41
1
10
122.772966560114
20
6.23928631565704
30
0
41
1
10
122.203567881191
20
6.23937377040465
30
0
41
1
10
121.661348818946
20
6.23893939647203
30
0
41
1
10
121.053970962563
20
6.23803744125269
30
0
41
1
10
120.383630286044
20
6.238217351929
30
0
41
1
10
119.890805546019
20
6.23823474438902
30
0
41
1
10
119.644051101876
20
6.23803463481931
30
0
41
1
10
119.597941724291
20
6.23799306772281
30
0
0
SPLINE
5
FE
100
AcDbEntity
8
1
62
256
6
ByLayer
370
18
48
1
60
0
100
AcDbSpline
70
4
71
3
72
22
73
18
40
0
40
0
40
0
40
0
40
0.0615405847342571
40
0.117780798601001
40
0.185374864785297
40
0.268502409385463
40
0.343332139143655
40
0.394540796691529
40
0.440696214334399
40
0.510399690076226
40
0.596452096262418
40
0.672641430899927
40
0.738229548028946
40
0.813208826355262
40
0.899563717293629
40
0.99725744437725
40
1
40
1
40
1
40
1
41
1
10
50.3146128256769
20
6.19470523746662
30
0
41
1
10
50.1716984729474
20
6.1945040570121
30
0
41
1
10
49.8981787095092
20
6.19420878961643
30
0
41
1
10
49.4676863059325
20
6.19405392118395
30
0
41
1
10
48.9870640461122
20
6.1941014275325
30
0
41
1
10
48.463273610377
20
6.193960275781
30
0
41
1
10
47.977530454319
20
6.19324248144727
30
0
41
1
10
47.5776513084745
20
6.19298235863843
30
0
41
1
10
47.1896720074726
20
6.19287641823973
30
0
41
1
10
46.7207848784109
20
6.19281456560915
30
0
41
1
10
46.182142814111
20
6.19247898981118
30
0
41
1
10
45.6530582059358
20
6.19165171255341
30
0
41
1
10
45.1496973559034
20
6.19157505657921
30
0
41
1
10
44.6227180015161
20
6.19156779427718
30
0
41
1
10
44.0211947950764
20
6.1913772053471
30
0
41
1
10
43.5874102309353
20
6.19087878560453
30
0
41
1
10
43.3541694990798
20
6.1906903849696
30
0
41
1
10
43.3478005305503
20
6.19068529847598
30
0
0
SPLINE
5
FF
100
AcDbEntity
8
1
62
256
6
ByLayer
370
18
48
1
60
0
100
AcDbSpline
70
4
71
3
72
18
73
14
40
0
40
0
40
0
40
0
40
0.0530701887777585
40
0.122138823339841
40
0.206313740649605
40
0.30770052020569
40
0.397964076066712
40
0.518000099926407
40
0.672664979189167
40
0.808469465729248
40
0.913084136385228
40
0.962399878984006
40
1
40
1
40
1
40
1
41
1
10
88.3834264798489
20
6.21791567871864
30
0
41
1
10
88.2621598755928
20
6.21769997552229
30
0
41
1
10
87.9830751422847
20
6.21730609526961
30
0
41
1
10
87.5117497283459
20
6.21680661929202
30
0
41
1
10
86.9298664397888
20
6.21744505347164
30
0
41
1
10
86.2999375462738
20
6.2173957005914
30
0
41
1
10
85.5875608677279
20
6.21591501971022
30
0
41
1
10
84.7543301187475
20
6.21619500210539
30
0
41
1
10
83.8161171657775
20
6.21579847872138
30
0
41
1
10
82.9134657603438
20
6.21476173414402
30
0
41
1
10
82.2513809435353
20
6.21487773942314
30
0
41
1
10
81.8138596751493
20
6.21464916023118
30
0
41
1
10
81.6152584156286
20
6.21446065592184
30
0
41
1
10
81.5293425398975
20
6.21437583427536
30
0
0
SPLINE
5
100
100
AcDbEntity
8
1
62
256
6
ByLayer
370
18
48
1
60
0
100
AcDbSpline
70
4
71
3
72
24
73
20
40
0
40
0
40
0
40
0
40
0.0861706125768175
40
0.152657308599934
40
0.204112931175897
40
0.246181147621137
40
0.294141074292778
40
0.337890657614995
40
0.381962640440197
40
0.434663067135414
40
0.502233240051641
40
0.566950926077235
40
0.621360548418663
40
0.688272815055674
40
0.768621200986397
40
0.832506419164295
40
0.896218213505638
40
0.965708032720658
40
1
40
1
40
1
40
1
41
1
10
77.654153029114
20
-6.21214268313983
30
0
41
1
10
77.9623188806386
20
-6.21210205838668
30
0
41
1
10
78.5085779995955
20
-6.21221706984625
30
0
41
1
10
79.2426063009238
20
-6.21267289703306
30
0
41
1
10
79.8144878821439
20
-6.21349436046717
30
0
41
1
10
80.3218123149028
20
-6.21362596959568
30
0
41
1
10
80.8027785312885
20
-6.21374158309021
30
0
41
1
10
81.287496269116
20
-6.21404896077723
30
0
41
1
10
81.7906730542397
20
-6.21359433133148
30
0
41
1
10
82.3747001091093
20
-6.21524097511372
30
0
41
1
10
83.0402660805647
20
-6.21467026078619
30
0
41
1
10
83.7099941961062
20
-6.21564609122717
30
0
41
1
10
84.3778731205152
20
-6.21617662834919
30
0
41
1
10
85.1017294484569
20
-6.21583856671995
30
0
41
1
10
85.8596454029593
20
-6.21667186352576
30
0
41
1
10
86.6060494724287
20
-6.21757405250321
30
0
41
1
10
87.3134902454183
20
-6.21697686321437
30
0
41
1
10
87.91470417729
20
-6.21725866686222
30
0
41
1
10
88.287225038348
20
-6.21767840004836
30
0
41
1
10
88.4103146525904
20
-6.21784980435402
30
0
0
SPLINE
5
101
100
AcDbEntity
8
1
62
256
6
ByLayer
370
18
48
1
60
0
100
AcDbSpline
70
4
71
3
72
16
73
12
40
0
40
0
40
0
40
0
40
0.0379517489061114
40
0.144294439145158
40
0.2338057139305
40
0.318104761086379
40
0.41198798922243
40
0.516089611633758
40
0.652700544597084
40
0.834620727414243
40
1
40
1
40
1
40
1
41
1
10
12.2194860025009
20
6.17067174721942
30
0
41
1
10
12.1692715378396
20
6.17061773103774
30
0
41
1
10
11.9783535981553
20
6.17043204882793
30
0
41
1
10
11.6690009276089
20
6.17025793338919
30
0
41
1
10
11.2983267567142
20
6.17023455975871
30
0
41
1
10
10.9441362956816
20
6.17028099309641
30
0
41
1
10
10.5706437339629
20
6.17032727497966
30
0
41
1
10
10.127936379821
20
6.17026721915155
30
0
41
1
10
9.56875734673923
20
6.17003087272008
30
0
41
1
10
8.92847820306088
20
6.16955430396317
30
0
41
1
10
8.46897752580253
20
6.16920609176393
30
0
41
1
10
8.25017158010888
20
6.16902679589145
30
0
0
SPLINE
5
102
100
AcDbEntity
8
1
62
256
6
ByLayer
370
18
48
1
60
0
100
AcDbSpline
70
4
71
1
72
4
73
2
40
0
40
0
40
1
40
1
41
1
10
153.936839010114
20
-6.26016104901936
30
0
41
1
10
154.705930432927
20
-6.26050938566871
30
0
0
SPLINE
5
103
100
AcDbEntity
8
1
62
256
6
ByLayer
370
18
48
1
60
0
100
AcDbSpline
70
4
71
3
72
24
73
20
40
0
40
0
40
0
40
0
40
0.0829871958186649
40
0.151050880359426
40
0.205324026223933
40
0.249961232973114
40
0.301799764973252
40
0.365542545140027
40
0.427626891669929
40
0.489692104217121
40
0.540423563902782
40
0.590062211721439
40
0.65037296437886
40
0.706373499285288
40
0.769175525785795
40
0.846086099433949
40
0.908022746302067
40
0.962898962805949
40
1
40
1
40
1
40
1
41
1
10
115.756803887018
20
-6.23604029749109
30
0
41
1
10
116.052286186113
20
-6.23569729524743
30
0
41
1
10
116.590687923363
20
-6.23542137970946
30
0
41
1
10
117.32728547378
20
-6.23665143359597
30
0
41
1
10
117.922374003943
20
-6.23713333647118
30
0
41
1
10
118.463595064872
20
-6.2371668458257
30
0
41
1
10
119.037800238875
20
-6.23737302311025
30
0
41
1
10
119.674842228243
20
-6.23818874689994
30
0
41
1
10
120.348476621075
20
-6.23824475979495
30
0
41
1
10
120.975471069312
20
-6.23805143588731
30
0
41
1
10
121.557849458336
20
-6.23877475017289
30
0
41
1
10
122.133934596518
20
-6.23939052720789
30
0
41
1
10
122.728909932124
20
-6.2392995913379
30
0
41
1
10
123.37108432209
20
-6.2393131796716
30
0
41
1
10
124.072770971757
20
-6.24048830931449
30
0
41
1
10
124.795739120408
20
-6.2404492740817
30
0
41
1
10
125.490293280368
20
-6.24027948630106
30
0
41
1
10
126.042117933821
20
-6.24154009299372
30
0
41
1
10
126.371882818597
20
-6.2416058896205
30
0
41
1
10
126.504900728162
20
-6.24160228969512
30
0
0
LINE
5
7B
100
AcDbEntity
8
SK1
62
256
6
ByLayer
370
13
48
1
60
0
100
AcDbLine
10
-44
20
-1.139352
30
0
11
-44
21
-3.444644
31
0
39
0
210
0
220
0
230
1
0
LINE
5
7D
100
AcDbEntity
8
SK1
62
256
6
ByLayer
370
18
48
1
60
0
100
AcDbLine
10
-45
20
-5.055
30
0
11
-45
21
-3.047512
31
0
39
0
210
0
220
0
230
1
0
LINE
5
7E
100
AcDbEntity
8
SK1
62
256
6
ByLayer
370
18
48
1
60
0
100
AcDbLine
10
-43.9
20
-3.399644
30
0
11
-43.9
21
-1.278724
31
0
39
0
210
0
220
0
230
1
0
LINE
5
7F
100
AcDbEntity
8
SK1
62
256
6
ByLayer
370
18
48
1
60
0
100
AcDbLine
10
0
20
-7
30
0
11
0
21
7
31
0
39
0
210
0
220
0
230
1
0
LINE
5
80
100
AcDbEntity
8
SK1
62
256
6
ByLayer
370
18
48
1
60
0
100
AcDbLine
10
-43.055
20
7
30
0
11
-43.055
21
-7
31
0
39
0
210
0
220
0
230
1
0
LINE
5
81
100
AcDbEntity
8
SK1
62
256
6
ByLayer
370
18
48
1
60
0
100
AcDbLine
10
-45
20
-0.742173
30
0
11
-45
21
-3.047512
31
0
39
0
210
0
220
0
230
1
0
LINE
5
82
100
AcDbEntity
8
SK1
62
256
6
ByLayer
370
18
48
1
60
0
100
AcDbLine
10
-45
20
5.055
30
0
11
-45
21
-0.742164
31
0
39
0
210
0
220
0
230
1
0
LINE
5
83
100
AcDbEntity
8
1
62
256
6
ByLayer
370
18
48
1
60
0
100
AcDbLine
10
8
20
6.533208
30
0
11
8
21
5.641471
31
0
39
0
210
0
220
0
230
1
0
LINE
5
84
100
AcDbEntity
8
1
62
256
6
ByLayer
370
13
48
1
60
0
100
AcDbLine
10
1.13432
20
6.528917
30
0
11
1.13432
21
-6.528917
31
0
39
0
210
0
220
0
230
1
0
LINE
5
85
100
AcDbEntity
8
1
62
256
6
ByLayer
370
18
48
1
60
0
100
AcDbLine
10
0
20
-7
30
0
11
0
21
7
31
0
39
0
210
0
220
0
230
1
0
LINE
5
86
100
AcDbEntity
8
1
62
256
6
ByLayer
370
13
48
1
60
0
100
AcDbLine
10
154.658157
20
1.626955
30
0
11
156.975223
21
0.160197
31
0
39
0
210
0
220
0
230
1
0
LINE
5
87
100
AcDbEntity
8
1
62
256
6
ByLayer
370
18
48
1
60
0
100
AcDbLine
10
8
20
-6.533208
30
0
11
8
21
-4.935686
31
0
39
0
210
0
220
0
230
1
0
LINE
5
88
100
AcDbEntity
8
1
62
256
6
ByLayer
370
13
48
1
60
0
100
AcDbLine
10
154.548818
20
1.514356
30
0
11
156.971859
21
-0.019487
31
0
39
0
210
0
220
0
230
1
0
LINE
5
89
100
AcDbEntity
8
1
62
256
6
ByLayer
370
18
48
1
60
0
100
AcDbLine
10
153.648421
20
-4.605469
30
0
11
154.930858
21
-2.864827
31
0
39
0
210
0
220
0
230
1
0
LINE
5
8A
100
AcDbEntity
8
1
62
256
6
ByLayer
370
18
48
1
60
0
100
AcDbLine
10
154.989411
20
-2.785353
30
0
11
156.825318
21
-0.293492
31
0
39
0
210
0
220
0
230
1
0
LINE
5
8B
100
AcDbEntity
8
1
62
256
6
ByLayer
370
13
48
1
60
0
100
AcDbLine
10
0.56691
20
6.764458
30
0
11
0.56691
21
-6.764458
31
0
39
0
210
0
220
0
230
1
0
LINE
5
8C
100
AcDbEntity
8
80
62
256
6
ByLayer
370
18
48
1
60
0
100
AcDbLine
10
0
20
0
30
0
11
-5
21
0
31
0
39
0
210
0
220
0
230
1
0
LINE
5
8D
100
AcDbEntity
8
4
62
256
6
ByLayer
370
18
48
0.05
60
0
100
AcDbLine
10
157
20
0
30
0
11
0
21
0
31
0
39
0
210
0
220
0
230
1
0
LINE
5
8F
100
AcDbEntity
8
SK4
62
256
6
ByLayer
370
18
48
0.05
60
0
100
AcDbLine
10
162
20
0
30
0
11
-50
21
0
31
0
39
0
210
0
220
0
230
1
0
LINE
5
91
100
AcDbEntity
8
SK1
62
256
6
ByLayer
370
18
48
1
60
0
100
AcDbLine
10
-43.055
20
-7
30
0
11
0
21
-7
31
0
39
0
210
0
220
0
230
1
0
LINE
5
92
100
AcDbEntity
8
SK1
62
256
6
ByLayer
370
18
48
1
60
0
100
AcDbLine
10
0
20
7
30
0
11
-43.055
21
7
31
0
39
0
210
0
220
0
230
1
0
LINE
5
93
100
AcDbEntity
8
SK1
62
256
6
ByLayer
370
18
48
1
60
0
100
AcDbLine
10
-45
20
-5.055
30
0
11
-43.055
21
-7
31
0
39
0
210
0
220
0
230
1
0
LINE
5
94
100
AcDbEntity
8
SK1
62
256
6
ByLayer
370
18
48
1
60
0
100
AcDbLine
10
-43.055
20
7
30
0
11
-45
21
5.055
31
0
39
0
210
0
220
0
230
1
0
LINE
5
95
100
AcDbEntity
8
1
62
256
6
ByLayer
370
18
48
1
60
0
100
AcDbLine
10
1.13432
20
-6.528917
30
0
11
8
21
-6.533208
31
0
39
0
210
0
220
0
230
1
0
LINE
5
96
100
AcDbEntity
8
1
62
256
6
ByLayer
370
18
48
1
60
0
100
AcDbLine
10
37.695425
20
-6.551768
30
0
11
39.411643
21
-6.55284
31
0
39
0
210
0
220
0
230
1
0
LINE
5
97
100
AcDbEntity
8
1
62
256
6
ByLayer
370
18
48
1
60
0
100
AcDbLine
10
75.800446
20
-6.575583
30
0
11
77.511639
21
-6.576653
31
0
39
0
210
0
220
0
230
1
0
LINE
5
98
100
AcDbEntity
8
1
62
256
6
ByLayer
370
18
48
1
60
0
100
AcDbLine
10
113.906468
20
-6.5994
30
0
11
115.611915
21
-6.600465
31
0
39
0
210
0
220
0
230
1
0
LINE
5
99
100
AcDbEntity
8
1
62
256
6
ByLayer
370
18
48
1
60
0
100
AcDbLine
10
152.011319
20
-6.623215
30
0
11
153.712683
21
-6.624278
31
0
39
0
210
0
220
0
230
1
0
LINE
5
9A
100
AcDbEntity
8
1
62
256
6
ByLayer
370
18
48
1
60
0
100
AcDbLine
10
153.712953
20
6.624279
30
0
11
152.011319
21
6.623215
31
0
39
0
210
0
220
0
230
1
0
LINE
5
9B
100
AcDbEntity
8
1
62
256
6
ByLayer
370
18
48
1
60
0
100
AcDbLine
10
115.611721
20
6.600465
30
0
11
113.906468
21
6.5994
31
0
39
0
210
0
220
0
230
1
0
LINE
5
9C
100
AcDbEntity
8
1
62
256
6
ByLayer
370
18
48
1
60
0
100
AcDbLine
10
77.511604
20
6.576653
30
0
11
75.800446
21
6.575583
31
0
39
0
210
0
220
0
230
1
0
LINE
5
9D
100
AcDbEntity
8
1
62
256
6
ByLayer
370
18
48
1
60
0
100
AcDbLine
10
39.412018
20
6.552841
30
0
11
37.695425
21
6.551768
31
0
39
0
210
0
220
0
230
1
0
LINE
5
9E
100
AcDbEntity
8
1
62
256
6
ByLayer
370
18
48
1
60
0
100
AcDbLine
10
8
20
6.533208
30
0
11
1.13432
21
6.528917
31
0
39
0
210
0
220
0
230
1
0
LINE
5
9F
100
AcDbEntity
8
81
62
256
6
ByLayer
370
18
48
1
60
0
100
AcDbLine
10
157
20
0
30
0
11
162
21
0
31
0
39
0
210
0
220
0
230
1
0
LINE
5
A0
100
AcDbEntity
8
SK2
62
256
6
ByLayer
370
13
48
1
60
0
100
AcDbLine
10
-53.625163
20
-7
30
0
11
-53.625163
21
38.225706
31
0
39
0
210
0
220
0
230
1
0
LINE
5
A2
100
AcDbEntity
8
SK2
62
256
6
ByLayer
370
13
48
1
60
0
100
AcDbLine
10
-46.5875
20
7
30
0
11
-55.625163
21
7
31
0
39
0
210
0
220
0
230
1
0
LINE
5
A3
100
AcDbEntity
8
SK2
62
256
6
ByLayer
370
13
48
1
60
0
100
AcDbLine
10
-46.5875
20
-7
30
0
11
-55.625163
21
-7
31
0
39
0
210
0
220
0
230
1
0
LINE
5
A4
100
AcDbEntity
8
1
62
256
6
ByLayer
370
18
48
1
60
1
100
AcDbLine
10
-53.625163
20
7
30
0
11
-53.164379
21
3.500002
31
0
39
0
210
0
220
0
230
1
0
LINE
5
A5
100
AcDbEntity
8
1
62
256
6
ByLayer
370
18
48
1
60
1
100
AcDbLine
10
-53.164379
20
3.500002
30
0
11
-54.085946
21
3.499998
31
0
39
0
210
0
220
0
230
1
0
LINE
5
A6
100
AcDbEntity
8
1
62
256
6
ByLayer
370
18
48
1
60
1
100
AcDbLine
10
-54.085946
20
3.499998
30
0
11
-53.625163
21
7
31
0
39
0
210
0
220
0
230
1
0
LINE
5
A7
100
AcDbEntity
8
1
62
256
6
ByLayer
370
18
48
1
60
1
100
AcDbLine
10
-53.625163
20
-7
30
0
11
-54.085946
21
-3.500002
31
0
39
0
210
0
220
0
230
1
0
LINE
5
A8
100
AcDbEntity
8
1
62
256
6
ByLayer
370
18
48
1
60
1
100
AcDbLine
10
-54.085946
20
-3.500002
30
0
11
-53.164379
21
-3.499998
31
0
39
0
210
0
220
0
230
1
0
LINE
5
A9
100
AcDbEntity
8
1
62
256
6
ByLayer
370
18
48
1
60
1
100
AcDbLine
10
-53.164379
20
-3.499998
30
0
11
-53.625163
21
-7
31
0
39
0
210
0
220
0
230
1
0
LINE
5
AA
100
AcDbEntity
8
2
62
256
6
ByLayer
370
13
48
1
60
0
100
AcDbLine
10
169.083343
20
-6.625
30
0
11
169.083343
21
36.075259
31
0
39
0
210
0
220
0
230
1
0
LINE
5
AC
100
AcDbEntity
8
2
62
256
6
ByLayer
370
13
48
1
60
0
100
AcDbLine
10
156.6137
20
6.625
30
0
11
171.083343
21
6.625
31
0
39
0
210
0
220
0
230
1
0
LINE
5
AD
100
AcDbEntity
8
2
62
256
6
ByLayer
370
13
48
1
60
0
100
AcDbLine
10
156.6137
20
-6.625
30
0
11
171.083343
21
-6.625
31
0
39
0
210
0
220
0
230
1
0
LINE
5
AE
100
AcDbEntity
8
1
62
256
6
ByLayer
370
18
48
1
60
1
100
AcDbLine
10
169.083343
20
6.625
30
0
11
169.544126
21
3.125002
31
0
39
0
210
0
220
0
230
1
0
LINE
5
AF
100
AcDbEntity
8
1
62
256
6
ByLayer
370
18
48
1
60
1
100
AcDbLine
10
169.544126
20
3.125002
30
0
11
168.622559
21
3.124998
31
0
39
0
210
0
220
0
230
1
0
LINE
5
B0
100
AcDbEntity
8
1
62
256
6
ByLayer
370
18
48
1
60
1
100
AcDbLine
10
168.622559
20
3.124998
30
0
11
169.083343
21
6.625
31
0
39
0
210
0
220
0
230
1
0
LINE
5
B1
100
AcDbEntity
8
1
62
256
6
ByLayer
370
18
48
1
60
1
100
AcDbLine
10
169.083343
20
-6.625
30
0
11
168.622559
21
-3.125002
31
0
39
0
210
0
220
0
230
1
0
LINE
5
B2
100
AcDbEntity
8
1
62
256
6
ByLayer
370
18
48
1
60
1
100
AcDbLine
10
168.622559
20
-3.125002
30
0
11
169.544126
21
-3.124998
31
0
39
0
210
0
220
0
230
1
0
LINE
5
B3
100
AcDbEntity
8
1
62
256
6
ByLayer
370
18
48
1
60
1
100
AcDbLine
10
169.544126
20
-3.124998
30
0
11
169.083343
21
-6.625
31
0
39
0
210
0
220
0
230
1
0
LINE
5
10A
100
AcDbEntity
8
1
62
256
6
ByLayer
370
18
48
1
60
1
100
AcDbLine
10
-53.625163
20
7
30
0
11
-53.164379
21
3.500002
31
0
39
0
210
0
220
0
230
1
0
LINE
5
10B
100
AcDbEntity
8
1
62
256
6
ByLayer
370
18
48
1
60
1
100
AcDbLine
10
-53.164379
20
3.500002
30
0
11
-54.085946
21
3.499998
31
0
39
0
210
0
220
0
230
1
0
LINE
5
10C
100
AcDbEntity
8
1
62
256
6
ByLayer
370
18
48
1
60
1
100
AcDbLine
10
-54.085946
20
3.499998
30
0
11
-53.625163
21
7
31
0
39
0
210
0
220
0
230
1
0
LINE
5
10E
100
AcDbEntity
8
1
62
256
6
ByLayer
370
18
48
1
60
1
100
AcDbLine
10
-53.625163
20
-7
30
0
11
-54.085946
21
-3.500002
31
0
39
0
210
0
220
0
230
1
0
LINE
5
10F
100
AcDbEntity
8
1
62
256
6
ByLayer
370
18
48
1
60
1
100
AcDbLine
10
-54.085946
20
-3.500002
30
0
11
-53.164379
21
-3.499998
31
0
39
0
210
0
220
0
230
1
0
LINE
5
110
100
AcDbEntity
8
1
62
256
6
ByLayer
370
18
48
1
60
1
100
AcDbLine
10
-53.164379
20
-3.499998
30
0
11
-53.625163
21
-7
31
0
39
0
210
0
220
0
230
1
0
LINE
5
114
100
AcDbEntity
8
1
62
256
6
ByLayer
370
18
48
1
60
1
100
AcDbLine
10
169.083343
20
6.625
30
0
11
169.544126
21
3.125002
31
0
39
0
210
0
220
0
230
1
0
LINE
5
115
100
AcDbEntity
8
1
62
256
6
ByLayer
370
18
48
1
60
1
100
AcDbLine
10
169.544126
20
3.125002
30
0
11
168.622559
21
3.124998
31
0
39
0
210
0
220
0
230
1
0
LINE
5
116
100
AcDbEntity
8
1
62
256
6
ByLayer
370
18
48
1
60
1
100
AcDbLine
10
168.622559
20
3.124998
30
0
11
169.083343
21
6.625
31
0
39
0
210
0
220
0
230
1
0
LINE
5
118
100
AcDbEntity
8
1
62
256
6
ByLayer
370
18
48
1
60
1
100
AcDbLine
10
169.083343
20
-6.625
30
0
11
168.622559
21
-3.125002
31
0
39
0
210
0
220
0
230
1
0
LINE
5
119
100
AcDbEntity
8
1
62
256
6
ByLayer
370
18
48
1
60
1
100
AcDbLine
10
168.622559
20
-3.125002
30
0
11
169.544126
21
-3.124998
31
0
39
0
210
0
220
0
230
1
0
LINE
5
11A
100
AcDbEntity
8
1
62
256
6
ByLayer
370
18
48
1
60
1
100
AcDbLine
10
169.544126
20
-3.124998
30
0
11
169.083343
21
-6.625
31
0
39
0
210
0
220
0
230
1
0
MTEXT
5
104
100
AcDbEntity
8
SK6
62
256
6
ByLayer
370
13
48
1
60
0
100
AcDbMText
10
27.29224
20
39.165328
30
0
210
0
220
0
230
1
1
\W0.7563;462.1-1325-098A1-XM X2BM
40
3.5
41
0
44
1.084337
50
0
71
7
72
5
7
iso_b_vert
0
MTEXT
5
108
100
AcDbEntity
8
SK2
62
256
6
ByLayer
370
18
48
1
60
0
100
AcDbMText
10
-55.189796
20
20.409024
30
0
210
0
220
0
230
1
1
%%c
40
3.5
41
0
44
1.084337
50
90
71
7
72
5
7
iso_b_vert
0
MTEXT
5
109
100
AcDbEntity
8
SK2
62
256
6
ByLayer
370
18
48
1
60
0
100
AcDbMText
10
-55.189796
20
25.63168
30
0
210
0
220
0
230
1
1
\W0.7145;14,000
40
3.5
41
0
44
1.084337
50
90
71
7
72
5
7
iso_b_vert
0
MTEXT
5
112
100
AcDbEntity
8
2
62
256
6
ByLayer
370
18
48
1
60
0
100
AcDbMText
10
167.518709
20
18.62711
30
0
210
0
220
0
230
1
1
%%c
40
3.5
41
0
44
1.084337
50
90
71
7
72
5
7
iso_b_vert
0
MTEXT
5
113
100
AcDbEntity
8
2
62
256
6
ByLayer
370
18
48
1
60
0
100
AcDbMText
10
167.518709
20
23.849766
30
0
210
0
220
0
230
1
1
\W0.6930;13,250
40
3.5
41
0
44
1.084337
50
90
71
7
72
5
7
iso_b_vert
0
HATCH
5
10D
100
AcDbEntity
8
SK2
62
256
6
ByLayer
370
13
48
1
60
0
100
AcDbHatch
10
0
20
0
30
0
210
0
220
0
230
1
2
ANSI31
70
0
71
0
91
1
92
5
93
3
72
1
10
-53.6251625675374
20
7
11
-53.1643788259847
21
3.50000169255318
72
1
10
-53.1643788259847
20
3.50000169255318
11
-54.0859463090902
21
3.49999830744682
72
1
10
-54.0859463090902
20
3.49999830744682
11
-53.6251625675374
21
7
97
0
75
0
76
1
52
0
41
0.0062
77
0
78
1
53
45
43
0
44
0
45
-0.0139193969876572
46
0.0139193969876572
79
0
47
0
98
1
10
0
20
0
0
HATCH
5
111
100
AcDbEntity
8
SK2
62
256
6
ByLayer
370
13
48
1
60
0
100
AcDbHatch
10
0
20
0
30
0
210
0
220
0
230
1
2
ANSI31
70
0
71
0
91
1
92
5
93
3
72
1
10
-53.6251625675374
20
-7
11
-54.0859463090902
21
-3.50000169255318
72
1
10
-54.0859463090902
20
-3.50000169255318
11
-53.1643788259847
21
-3.49999830744682
72
1
10
-53.1643788259847
20
-3.49999830744682
11
-53.6251625675374
21
-7
97
0
75
0
76
1
52
0
41
0.0062
77
0
78
1
53
45
43
0
44
0
45
-0.0139193969876572
46
0.0139193969876572
79
0
47
0
98
1
10
0
20
0
0
HATCH
5
117
100
AcDbEntity
8
2
62
256
6
ByLayer
370
13
48
1
60
0
100
AcDbHatch
10
0
20
0
30
0
210
0
220
0
230
1
2
ANSI31
70
0
71
0
91
1
92
5
93
3
72
1
10
169.083342615295
20
6.625
11
169.544126356848
21
3.12500169255318
72
1
10
169.544126356848
20
3.12500169255318
11
168.622558873742
21
3.12499830744682
72
1
10
168.622558873742
20
3.12499830744682
11
169.083342615295
21
6.625
97
0
75
0
76
1
52
0
41
0.0062
77
0
78
1
53
45
43
0
44
0
45
-0.0139193969876572
46
0.0139193969876572
79
0
47
0
98
1
10
0
20
0
0
HATCH
5
11B
100
AcDbEntity
8
2
62
256
6
ByLayer
370
13
48
1
60
0
100
AcDbHatch
10
0
20
0
30
0
210
0
220
0
230
1
2
ANSI31
70
0
71
0
91
1
92
5
93
3
72
1
10
169.083342615295
20
-6.625
11
168.622558873742
21
-3.12500169255318
72
1
10
168.622558873742
20
-3.12500169255318
11
169.544126356848
21
-3.12499830744682
72
1
10
169.544126356848
20
-3.12499830744682
11
169.083342615295
21
-6.625
97
0
75
0
76
1
52
0
41
0.0062
77
0
78
1
53
45
43
0
44
0
45
-0.0139193969876572
46
0.0139193969876572
79
0
47
0
98
1
10
0
20
0
0
DIMENSION
5
11D
100
AcDbEntity
8
SK2
62
256
6
ByLayer
370
13
48
1
60
0
100
AcDbDimension
2
_U0
10
155.0262
20
-16.838398
30
0
11
77.5131
21
-16.838398
31
0
70
32
71
1
72
1
41
1
210
0
220
0
230
1
3
Standard
100
AcDbAlignedDimension
13
0
23
0
33
0
14
155.0262
24
-6.625
34
0
50
0
100
AcDbRotatedDimension
1001
ACAD
1000
DSTYLE
1002
{
1070
   371
1070
    13
1070
   372
1070
    13
1070
   170
1070
     0
1070
   144
1040
1.0
1070
   277
1070
     2
1070
   278
1070
    44
1070
   146
1040
1.0
1070
   345
1005
16
1070
   347
1005
16
1070
   346
1005
16
1070
   344
1005
0
1070
   343
1005
0
1070
   172
1070
     1
1070
    76
1070
     0
1070
    75
1070
     0
1070
   282
1070
     0
1070
   281
1070
     0
1070
    71
1070
     0
1070
    74
1070
     0
1070
   279
1070
     0
1070
   173
1070
     1
1070
   340
1005
105
1070
   271
1070
     2
1070
   272
1070
     2
1070
    77
1070
     1
1070
    73
1070
     1
1070
   171
1070
     3
1070
   274
1070
     4
1070
   177
1070
    35
1070
   176
1070
    35
1070
   178
1070
    35
1070
    48
1040
-0.1
1070
    41
1040
3.5
1070
   147
1040
1.75
1070
    42
1040
1.5875
1070
    44
1040
2.0
1070
   140
1040
3.5
1002
}
1001
ACAD_DSTYLE_DIM_LINETYPE
1070
   380
1005
16
1001
ACAD_DSTYLE_DIM_EXT1_LINETYPE
1070
   381
1005
16
1001
ACAD_DSTYLE_DIM_EXT2_LINETYPE
1070
   382
1005
16
0
DIMENSION
5
136
100
AcDbEntity
8
SK2
62
256
6
ByLayer
370
13
48
1
60
0
100
AcDbDimension
2
_U1
10
157
20
-35.692985
30
0
11
56
21
-35.692985
31
0
70
32
71
1
72
1
41
1
210
0
220
0
230
1
3
Standard
100
AcDbAlignedDimension
13
-45
23
-7
33
0
14
157
24
0
34
0
50
0
100
AcDbRotatedDimension
1001
ACAD
1000
DSTYLE
1002
{
1070
   371
1070
    13
1070
   372
1070
    13
1070
   170
1070
     0
1070
   144
1040
1.0
1070
   277
1070
     2
1070
   278
1070
    44
1070
   146
1040
1.0
1070
   345
1005
16
1070
   347
1005
16
1070
   346
1005
16
1070
   344
1005
0
1070
   343
1005
0
1070
   172
1070
     1
1070
    76
1070
     0
1070
    75
1070
     0
1070
   282
1070
     0
1070
   281
1070
     0
1070
    71
1070
     0
1070
    74
1070
     0
1070
   279
1070
     0
1070
   173
1070
     1
1070
   340
1005
105
1070
   271
1070
     2
1070
   272
1070
     2
1070
    77
1070
     1
1070
    73
1070
     1
1070
   171
1070
     3
1070
   274
1070
     4
1070
   177
1070
    35
1070
   176
1070
    35
1070
   178
1070
    35
1070
    48
1040
-0.1
1070
    41
1040
3.5
1070
   147
1040
1.75
1070
    42
1040
1.5875
1070
    44
1040
2.0
1070
   140
1040
3.5
1002
}
1001
ACAD_DSTYLE_DIM_LINETYPE
1070
   380
1005
16
1001
ACAD_DSTYLE_DIM_EXT1_LINETYPE
1070
   381
1005
16
1001
ACAD_DSTYLE_DIM_EXT2_LINETYPE
1070
   382
1005
16
0
DIMENSION
5
14E
100
AcDbEntity
8
SK2
62
256
6
ByLayer
370
13
48
1
60
0
100
AcDbDimension
2
_U2
10
157
20
18.234119
30
0
11
103.015
21
18.234119
31
0
70
32
71
1
72
1
41
1
210
0
220
0
230
1
3
Standard
100
AcDbAlignedDimension
13
49.03
23
6.625
33
0
14
157
24
0
34
0
50
0
100
AcDbRotatedDimension
1001
ACAD
1000
DSTYLE
1002
{
1070
   371
1070
    13
1070
   372
1070
    13
1070
   170
1070
     0
1070
   144
1040
1.0
1070
   277
1070
     2
1070
   278
1070
    44
1070
   146
1040
1.0
1070
   345
1005
16
1070
   347
1005
16
1070
   346
1005
16
1070
   344
1005
0
1070
   343
1005
0
1070
   172
1070
     1
1070
    76
1070
     0
1070
    75
1070
     0
1070
   282
1070
     0
1070
   281
1070
     0
1070
    71
1070
     0
1070
    74
1070
     0
1070
   279
1070
     0
1070
   173
1070
     1
1070
   340
1005
105
1070
   271
1070
     2
1070
   272
1070
     2
1070
    77
1070
     1
1070
    73
1070
     1
1070
   171
1070
     3
1070
   274
1070
     4
1070
   177
1070
    35
1070
   176
1070
    35
1070
   178
1070
    35
1070
    48
1040
-0.1
1070
    41
1040
3.5
1070
   147
1040
1.75
1070
    42
1040
1.5875
1070
    44
1040
2.0
1070
   140
1040
3.5
1002
}
1001
ACAD_DSTYLE_DIM_LINETYPE
1070
   380
1005
16
1001
ACAD_DSTYLE_DIM_EXT1_LINETYPE
1070
   381
1005
16
1001
ACAD_DSTYLE_DIM_EXT2_LINETYPE
1070
   382
1005
16
0
DIMENSION
5
166
100
AcDbEntity
8
SK2
62
256
6
ByLayer
370
13
48
1
60
0
100
AcDbDimension
2
_U3
10
155.0262
20
-19.427503
30
0
11
174.333333
21
-19.427503
31
0
70
32
71
1
72
1
41
1
210
0
220
0
230
1
3
Standard
100
AcDbAlignedDimension
13
157
23
0
33
0
14
155.0262
24
-6.625
34
0
50
0
100
AcDbRotatedDimension
1001
ACAD
1000
DSTYLE
1002
{
1070
   371
1070
    13
1070
   372
1070
    13
1070
   170
1070
     0
1070
   144
1040
1.0
1070
   277
1070
     2
1070
   278
1070
    44
1070
   146
1040
1.0
1070
   345
1005
16
1070
   347
1005
16
1070
   346
1005
16
1070
   344
1005
0
1070
   343
1005
0
1070
   172
1070
     1
1070
    76
1070
     0
1070
    75
1070
     0
1070
   282
1070
     0
1070
   281
1070
     0
1070
    71
1070
     0
1070
    74
1070
     0
1070
   279
1070
     0
1070
   173
1070
     1
1070
   340
1005
105
1070
   271
1070
     2
1070
   272
1070
     2
1070
    77
1070
     1
1070
    73
1070
     1
1070
   171
1070
     3
1070
   274
1070
     4
1070
   177
1070
    35
1070
   176
1070
    35
1070
   178
1070
    35
1070
    48
1040
-0.1
1070
    41
1040
3.5
1070
   147
1040
1.75
1070
    42
1040
1.5875
1070
    44
1040
2.0
1070
   140
1040
3.5
1002
}
1001
ACAD_DSTYLE_DIM_LINETYPE
1070
   380
1005
16
1001
ACAD_DSTYLE_DIM_EXT1_LINETYPE
1070
   381
1005
16
1001
ACAD_DSTYLE_DIM_EXT2_LINETYPE
1070
   382
1005
16
0
DIMENSION
5
180
100
AcDbEntity
8
SK2
62
256
6
ByLayer
370
13
48
1
60
0
100
AcDbDimension
2
_U4
10
155.0262
20
-25.343428
30
0
11
55.0131
21
-25.343428
31
0
70
32
71
1
72
1
41
1
210
0
220
0
230
1
3
Standard
100
AcDbAlignedDimension
13
-45
23
-7
33
0
14
155.0262
24
-6.625
34
0
50
0
100
AcDbRotatedDimension
1001
ACAD
1000
DSTYLE
1002
{
1070
   371
1070
    13
1070
   372
1070
    13
1070
   170
1070
     0
1070
   144
1040
1.0
1070
   277
1070
     2
1070
   278
1070
    44
1070
   146
1040
1.0
1070
   345
1005
16
1070
   347
1005
16
1070
   346
1005
16
1070
   344
1005
0
1070
   343
1005
0
1070
   172
1070
     1
1070
    76
1070
     0
1070
    75
1070
     0
1070
   282
1070
     0
1070
   281
1070
     0
1070
    71
1070
     0
1070
    74
1070
     0
1070
   279
1070
     0
1070
   173
1070
     1
1070
   340
1005
105
1070
   271
1070
     2
1070
   272
1070
     2
1070
    77
1070
     1
1070
    73
1070
     1
1070
   171
1070
     3
1070
   274
1070
     4
1070
   177
1070
    35
1070
   176
1070
    35
1070
   178
1070
    35
1070
    48
1040
-0.1
1070
    41
1040
3.5
1070
   147
1040
1.75
1070
    42
1040
1.5875
1070
    44
1040
2.0
1070
   140
1040
3.5
1002
}
1001
ACAD_DSTYLE_DIM_LINETYPE
1070
   380
1005
16
1001
ACAD_DSTYLE_DIM_EXT1_LINETYPE
1070
   381
1005
16
1001
ACAD_DSTYLE_DIM_EXT2_LINETYPE
1070
   382
1005
16
0
ENDSEC
0
SECTION
2
OBJECTS
0
DICTIONARY
5
208
330
0
100
AcDbDictionary
280
0
281
1
3
ACAD_GROUP
350
209
3
ACAD_MLINESTYLE
350
20a
0
DICTIONARY
5
209
330
0
100
AcDbDictionary
280
0
281
1
0
DICTIONARY
5
20a
330
0
100
AcDbDictionary
280
0
281
1
3
Standard
350
18
0
MLINESTYLE
5
18
330
20a
100
AcDbMlineStyle
2
Standard
70
0
3

62
256
51
90
52
90
71
2
49
-0.5
62
256
6
ByLayer
49
0.5
62
256
6
ByLayer
0
RASTERVARIABLES
5
1f6
330

100
AcDbRasterVariables
90
0
70
1
71
1
72
1
0
ENDSEC
0
EOF
