0
SECTION
2
HEADER
9
$ACADVER
1
AC1015
9
$DWGCODEPAGE
3
ANSI_1252
9
$HANDSEED
5
214
9
$ANGBASE
50
0
9
$ANGDIR
70
0
9
$ATTMODE
70
1
9
$AUNITS
70
0
9
$AUPREC
70
0
9
$CECOLOR
62
256
9
$CELTSCALE
40
1
9
$CELTYPE
6
ByLayer
9
$CELWEIGHT
370
18
9
$CLAYER
8
0
9
$CMLJUST
70
0
9
$CMLSCALE
40
1
9
$CMLSTYLE
2
Standard
9
$DIMSTYLE
2
Standard
9
$TEXTSIZE
40
0.2
9
$TEXTSTYLE
7
Standard
9
$LUNITS
70
2
9
$LUPREC
70
4
9
$EXTNAMES
290
1
9
$INSUNITS
70
4
9
$LTSCALE
40
1
9
$LWDISPLAY
290
1
9
$PDMODE
70
0
9
$PDSIZE
40
0
9
$PLINEGEN
70
0
0
ENDSEC
0
SECTION
2
CLASSES
0
CLASS
1
RASTERVARIABLES
2
AcDbRasterVariables
3
ISM
90
0
280
0
281
0
0
ENDSEC
0
SECTION
2
TABLES
0
TABLE
2
VPORT
5
20a
100
AcDbSymbolTable
0
VPORT
5
1
100
AcDbSymbolTableRecord
100
AcDbViewportTableRecord
2
*Active
70
0
10
0
20
0
11
1
21
1
12
-1
22
1
13
0
23
0
14
0.5
24
0.5
15
10
25
10
16
0
26
0
36
1
17
0
27
0
37
0
0
ENDTAB
0
TABLE
2
LTYPE
5
20b
100
AcDbSymbolTable
0
LTYPE
5
14
100
AcDbSymbolTableRecord
100
AcDbLinetypeTableRecord
70
0
2
ByBlock
3

72
65
73
0
40
0
0
LTYPE
5
15
100
AcDbSymbolTableRecord
100
AcDbLinetypeTableRecord
70
0
2
ByLayer
3

72
65
73
0
40
0
0
LTYPE
5
16
100
AcDbSymbolTableRecord
100
AcDbLinetypeTableRecord
70
0
2
Continuous
3
Solid line
72
65
73
0
40
0
0
LTYPE
5
6E
100
AcDbSymbolTableRecord
100
AcDbLinetypeTableRecord
70
0
2
CENTER
3
____ _ ____ _ ____ _ ____
72
65
73
4
40
47.5
49
22
74
0
49
-8.5
74
0
49
8.5
74
0
49
-8.5
74
0
0
LTYPE
5
6F
100
AcDbSymbolTableRecord
100
AcDbLinetypeTableRecord
70
0
2
DASHED
3
__ __ __ __ __ __ __ __ __
72
65
73
2
40
25.72
49
12.86
74
0
49
-12.86
74
0
0
ENDTAB
0
TABLE
2
LAYER
5
20c
100
AcDbSymbolTable
0
LAYER
5
10
100
AcDbSymbolTableRecord
100
AcDbLayerTableRecord
2
0
70
0
62
7
6
Continuous
290
1
370
-3
390
0
0
LAYER
5
71
100
AcDbSymbolTableRecord
100
AcDbLayerTableRecord
2
80
70
0
62
-6
6
Continuous
290
1
370
-3
390
0
0
LAYER
5
73
100
AcDbSymbolTableRecord
100
AcDbLayerTableRecord
2
81
70
0
62
-3
6
Continuous
290
1
370
-3
390
0
0
LAYER
5
75
100
AcDbSymbolTableRecord
100
AcDbLayerTableRecord
2
1
70
0
62
4
6
Continuous
290
1
370
-3
390
0
0
LAYER
5
8D
100
AcDbSymbolTableRecord
100
AcDbLayerTableRecord
2
4
70
0
62
-2
6
CENTER
290
1
370
-3
390
0
0
LAYER
5
AA
100
AcDbSymbolTableRecord
100
AcDbLayerTableRecord
2
2
70
0
62
7
6
Continuous
290
1
370
-3
390
0
0
LAYER
5
11F
100
AcDbSymbolTableRecord
100
AcDbLayerTableRecord
2
Defpoints
70
0
62
7
6
Continuous
290
0
370
-3
390
0
0
LAYER
5
1f6
100
AcDbSymbolTableRecord
100
AcDbLayerTableRecord
2
SK1
70
0
62
4
6
Continuous
290
1
370
-3
390
0
0
LAYER
5
1f7
100
AcDbSymbolTableRecord
100
AcDbLayerTableRecord
2
SK4
70
0
62
2
6
CENTER
290
1
370
-3
390
0
0
LAYER
5
1f8
100
AcDbSymbolTableRecord
100
AcDbLayerTableRecord
2
SK2
70
0
62
7
6
Continuous
290
1
370
-3
390
0
0
LAYER
5
1f9
100
AcDbSymbolTableRecord
100
AcDbLayerTableRecord
2
SK6
70
0
62
5
6
Continuous
290
1
370
-3
390
0
0
ENDTAB
0
TABLE
2
STYLE
5
20d
100
AcDbSymbolTable
0
STYLE
5
11
100
AcDbSymbolTableRecord
100
AcDbTextStyleTableRecord
2
Standard
3
txt
70
0
71
0
40
0
41
1
42
0
50
0
0
STYLE
5
104
100
AcDbSymbolTableRecord
100
AcDbTextStyleTableRecord
2
iso_b_vert
3
simplex.shx
70
0
71
0
40
0
41
1
42
0
50
0
0
STYLE
5
105
100
AcDbSymbolTableRecord
100
AcDbTextStyleTableRecord
2
DWGDirectTextStyle
3
simplex
70
0
71
0
40
0
41
1
42
0
50
0
0
ENDTAB
0
TABLE
2
DIMSTYLE
5
20e
100
AcDbSymbolTable
100
AcDbDimStyleTable
0
DIMSTYLE
105
27
100
AcDbSymbolTableRecord
100
AcDbDimStyleTableRecord
2
Standard
70
0
3
<>
41
0.18
42
0.0625
44
0.18
140
0.18
147
0.09
73
0
74
0
77
1
271
2
275
0
278
52
280
0
340
11
0
ENDTAB
0
TABLE
2
VIEW
5
20f
100
AcDbSymbolTable
0
ENDTAB
0
TABLE
2
UCS
5
210
100
AcDbSymbolTable
0
ENDTAB
0
TABLE
2
APPID
5
211
100
AcDbSymbolTable
0
APPID
5
12
100
AcDbSymbolTableRecord
100
AcDbRegAppTableRecord
2
ACAD
70
0
0
APPID
5
11B
100
AcDbSymbolTableRecord
100
AcDbRegAppTableRecord
2
ACAD_DSTYLE_DIMBREAK
70
0
0
APPID
5
1B5
100
AcDbSymbolTableRecord
100
AcDbRegAppTableRecord
2
ACAD_DSTYLE_DIM_LINETYPE
70
0
0
APPID
5
1B6
100
AcDbSymbolTableRecord
100
AcDbRegAppTableRecord
2
ACAD_DSTYLE_DIM_EXT1_LINETYPE
70
0
0
APPID
5
1B7
100
AcDbSymbolTableRecord
100
AcDbRegAppTableRecord
2
ACAD_DSTYLE_DIM_EXT2_LINETYPE
70
0
0
APPID
5
1F2
100
AcDbSymbolTableRecord
100
AcDbRegAppTableRecord
2
ACAD_MLEADERVER
70
0
0
ENDTAB
0
TABLE
2
BLOCK_RECORD
5
212
100
AcDbSymbolTable
0
BLOCK_RECORD
5
1F
100
AcDbSymbolTableRecord
100
AcDbBlockTableRecord
2
*Model_Space
340
0
70
0
0
BLOCK_RECORD
5
1B
100
AcDbSymbolTableRecord
100
AcDbBlockTableRecord
2
*Paper_Space
340
0
70
0
0
BLOCK_RECORD
5
23
100
AcDbSymbolTableRecord
100
AcDbBlockTableRecord
2
*Paper_Space0
340
0
70
0
0
BLOCK_RECORD
5
120
100
AcDbSymbolTableRecord
100
AcDbBlockTableRecord
2
*D1
340
0
70
0
0
BLOCK_RECORD
5
12C
100
AcDbSymbolTableRecord
100
AcDbBlockTableRecord
2
_U0
340
0
70
0
0
BLOCK_RECORD
5
138
100
AcDbSymbolTableRecord
100
AcDbBlockTableRecord
2
*D3
340
0
70
0
0
BLOCK_RECORD
5
144
100
AcDbSymbolTableRecord
100
AcDbBlockTableRecord
2
_U1
340
0
70
0
0
BLOCK_RECORD
5
150
100
AcDbSymbolTableRecord
100
AcDbBlockTableRecord
2
*D5
340
0
70
0
0
BLOCK_RECORD
5
15C
100
AcDbSymbolTableRecord
100
AcDbBlockTableRecord
2
_U2
340
0
70
0
0
BLOCK_RECORD
5
168
100
AcDbSymbolTableRecord
100
AcDbBlockTableRecord
2
*D7
340
0
70
0
0
BLOCK_RECORD
5
176
100
AcDbSymbolTableRecord
100
AcDbBlockTableRecord
2
_U3
340
0
70
0
0
BLOCK_RECORD
5
182
100
AcDbSymbolTableRecord
100
AcDbBlockTableRecord
2
*D9
340
0
70
0
0
BLOCK_RECORD
5
18E
100
AcDbSymbolTableRecord
100
AcDbBlockTableRecord
2
_U4
340
0
70
0
0
ENDTAB
0
ENDSEC
0
SECTION
2
BLOCKS
0
BLOCK
5
20
100
AcDbEntity
8
0
100
AcDbBlockBegin
2
*Model_Space
70
0
10
0
20
0
30
0
3
*Model_Space
0
ENDBLK
5
21
100
AcDbEntity
8
0
100
AcDbBlockEnd
0
BLOCK
5
1C
100
AcDbEntity
8
0
100
AcDbBlockBegin
2
*Paper_Space
70
0
10
0
20
0
30
0
3
*Paper_Space
0
ENDBLK
5
1D
100
AcDbEntity
8
0
100
AcDbBlockEnd
0
BLOCK
5
24
100
AcDbEntity
8
0
100
AcDbBlockBegin
2
*Paper_Space0
70
0
10
0
20
0
30
0
3
*Paper_Space0
0
ENDBLK
5
25
100
AcDbEntity
8
0
100
AcDbBlockEnd
0
BLOCK
5
121
100
AcDbEntity
8
0
100
AcDbBlockBegin
2
*D1
70
1
10
0
20
0
30
0
3
*D1
0
LINE
5
123
100
AcDbEntity
8
0
62
256
6
ByLayer
370
-2
48
1
60
0
100
AcDbLine
10
0
20
-1.5875
30
0
11
0
21
-18.963398
31
0
39
0
210
0
220
0
230
1
0
LINE
5
124
100
AcDbEntity
8
0
62
256
6
ByLayer
370
-2
48
1
60
0
100
AcDbLine
10
154.9885
20
-8.3375
30
0
11
154.9885
21
-18.963398
31
0
39
0
210
0
220
0
230
1
0
LINE
5
125
100
AcDbEntity
8
0
62
256
6
ByLayer
370
-2
48
1
60
0
100
AcDbLine
10
3.5
20
-16.963398
30
0
11
151.4885
21
-16.963398
31
0
39
0
210
0
220
0
230
1
0
SOLID
5
126
100
AcDbEntity
8
0
62
256
6
ByLayer
370
-1
48
1
60
0
100
AcDbTrace
10
3.5
20
-16.380065
30
0
11
3.5
21
-17.546732
31
0
12
0
22
-16.963398
32
0
13
0
23
-16.963398
33
0
39
0
210
0
220
0
230
1
0
SOLID
5
127
100
AcDbEntity
8
0
62
256
6
ByLayer
370
-1
48
1
60
0
100
AcDbTrace
10
151.4885
20
-17.546732
30
0
11
151.4885
21
-16.380065
31
0
12
154.9885
22
-16.963398
32
0
13
154.9885
23
-16.963398
33
0
39
0
210
0
220
0
230
1
0
MTEXT
5
128
100
AcDbEntity
8
0
62
256
6
ByLayer
370
18
48
1
60
0
100
AcDbMText
10
77.49425
20
-9.963398
30
0
210
0
220
0
230
1
1
\A1;154.99
40
3.5
41
0
44
1
50
0
71
5
72
5
7
iso_b_vert
0
POINT
5
129
100
AcDbEntity
8
Defpoints
62
0
6
ByLayer
370
-1
48
1
60
0
100
AcDbPoint
10
0
20
0
30
0
39
0
210
0
220
0
230
1
50
360
0
POINT
5
12A
100
AcDbEntity
8
Defpoints
62
0
6
ByLayer
370
-1
48
1
60
0
100
AcDbPoint
10
154.9885
20
-6.75
30
0
39
0
210
0
220
0
230
1
50
360
0
POINT
5
12B
100
AcDbEntity
8
Defpoints
62
0
6
ByLayer
370
-1
48
1
60
0
100
AcDbPoint
10
154.9885
20
-16.963398
30
0
39
0
210
0
220
0
230
1
50
360
0
ENDBLK
5
122
100
AcDbEntity
8
0
100
AcDbBlockEnd
0
BLOCK
5
133
100
AcDbEntity
8
0
100
AcDbBlockBegin
2
_U0
70
0
10
0
20
0
30
0
3
_U0
0
MTEXT
5
12D
100
AcDbEntity
8
SK2
62
256
6
ByLayer
370
13
48
1
60
0
100
AcDbMText
10
71.302385
20
-15.930765
30
0
210
0
220
0
230
1
1
\W0.7213;154,99
40
3.5
41
0
44
1.084337
50
0
71
7
72
5
7
iso_b_vert
0
LINE
5
12E
100
AcDbEntity
8
SK2
62
256
6
ByLayer
370
13
48
1
60
0
100
AcDbLine
10
0
20
-1.5875
30
0
11
0
21
-18.963398
31
0
39
0
210
0
220
0
230
1
0
LINE
5
12F
100
AcDbEntity
8
SK2
62
256
6
ByLayer
370
13
48
1
60
0
100
AcDbLine
10
154.9885
20
-8.3375
30
0
11
154.9885
21
-18.963398
31
0
39
0
210
0
220
0
230
1
0
LINE
5
130
100
AcDbEntity
8
SK2
62
256
6
ByLayer
370
13
48
1
60
0
100
AcDbLine
10
0
20
-16.963398
30
0
11
154.9885
21
-16.963398
31
0
39
0
210
0
220
0
230
1
0
SOLID
5
131
100
AcDbEntity
8
SK2
62
256
6
ByLayer
370
18
48
1
60
0
100
AcDbTrace
10
0
20
-16.963398
30
0
11
3.499998
21
-16.502615
31
0
12
3.500002
22
-17.424182
32
0
13
3.500002
23
-17.424182
33
0
39
0
210
0
220
0
230
1
0
SOLID
5
132
100
AcDbEntity
8
SK2
62
256
6
ByLayer
370
18
48
1
60
0
100
AcDbTrace
10
154.9885
20
-16.963398
30
0
11
151.488502
21
-17.424182
31
0
12
151.488498
22
-16.502615
32
0
13
151.488498
23
-16.502615
33
0
39
0
210
0
220
0
230
1
0
ENDBLK
5
134
100
AcDbEntity
8
0
100
AcDbBlockEnd
0
BLOCK
5
139
100
AcDbEntity
8
0
100
AcDbBlockBegin
2
*D3
70
1
10
0
20
0
30
0
3
*D3
0
LINE
5
13B
100
AcDbEntity
8
0
62
256
6
ByLayer
370
-2
48
1
60
0
100
AcDbLine
10
-45
20
-8.5875
30
0
11
-45
21
-37.692985
31
0
39
0
210
0
220
0
230
1
0
LINE
5
13C
100
AcDbEntity
8
0
62
256
6
ByLayer
370
-2
48
1
60
0
100
AcDbLine
10
157
20
-1.5875
30
0
11
157
21
-37.692985
31
0
39
0
210
0
220
0
230
1
0
LINE
5
13D
100
AcDbEntity
8
0
62
256
6
ByLayer
370
-2
48
1
60
0
100
AcDbLine
10
-41.5
20
-35.692985
30
0
11
153.5
21
-35.692985
31
0
39
0
210
0
220
0
230
1
0
SOLID
5
13E
100
AcDbEntity
8
0
62
256
6
ByLayer
370
-1
48
1
60
0
100
AcDbTrace
10
-41.5
20
-35.109652
30
0
11
-41.5
21
-36.276319
31
0
12
-45
22
-35.692985
32
0
13
-45
23
-35.692985
33
0
39
0
210
0
220
0
230
1
0
SOLID
5
13F
100
AcDbEntity
8
0
62
256
6
ByLayer
370
-1
48
1
60
0
100
AcDbTrace
10
153.5
20
-36.276319
30
0
11
153.5
21
-35.109652
31
0
12
157
22
-35.692985
32
0
13
157
23
-35.692985
33
0
39
0
210
0
220
0
230
1
0
MTEXT
5
140
100
AcDbEntity
8
0
62
256
6
ByLayer
370
18
48
1
60
0
100
AcDbMText
10
56
20
-28.692985
30
0
210
0
220
0
230
1
1
\A1;202.00
40
3.5
41
0
44
1
50
0
71
5
72
5
7
iso_b_vert
0
POINT
5
141
100
AcDbEntity
8
Defpoints
62
0
6
ByLayer
370
-1
48
1
60
0
100
AcDbPoint
10
-45
20
-7
30
0
39
0
210
0
220
0
230
1
50
360
0
POINT
5
142
100
AcDbEntity
8
Defpoints
62
0
6
ByLayer
370
-1
48
1
60
0
100
AcDbPoint
10
157
20
0
30
0
39
0
210
0
220
0
230
1
50
360
0
POINT
5
143
100
AcDbEntity
8
Defpoints
62
0
6
ByLayer
370
-1
48
1
60
0
100
AcDbPoint
10
157
20
-35.692985
30
0
39
0
210
0
220
0
230
1
50
360
0
ENDBLK
5
13A
100
AcDbEntity
8
0
100
AcDbBlockEnd
0
BLOCK
5
14B
100
AcDbEntity
8
0
100
AcDbBlockBegin
2
_U1
70
0
10
0
20
0
30
0
3
_U1
0
MTEXT
5
145
100
AcDbEntity
8
SK2
62
256
6
ByLayer
370
13
48
1
60
0
100
AcDbMText
10
49.554968
20
-34.660352
30
0
210
0
220
0
230
1
1
\W0.7421;202,00
40
3.5
41
0
44
1.084337
50
0
71
7
72
5
7
iso_b_vert
0
LINE
5
146
100
AcDbEntity
8
SK2
62
256
6
ByLayer
370
13
48
1
60
0
100
AcDbLine
10
-45
20
-8.5875
30
0
11
-45
21
-37.692985
31
0
39
0
210
0
220
0
230
1
0
LINE
5
147
100
AcDbEntity
8
SK2
62
256
6
ByLayer
370
13
48
1
60
0
100
AcDbLine
10
157
20
-1.5875
30
0
11
157
21
-37.692985
31
0
39
0
210
0
220
0
230
1
0
LINE
5
148
100
AcDbEntity
8
SK2
62
256
6
ByLayer
370
13
48
1
60
0
100
AcDbLine
10
-45
20
-35.692985
30
0
11
157
21
-35.692985
31
0
39
0
210
0
220
0
230
1
0
SOLID
5
149
100
AcDbEntity
8
SK2
62
256
6
ByLayer
370
18
48
1
60
0
100
AcDbTrace
10
-45
20
-35.692985
30
0
11
-41.500002
21
-35.232202
31
0
12
-41.499998
22
-36.153769
32
0
13
-41.499998
23
-36.153769
33
0
39
0
210
0
220
0
230
1
0
SOLID
5
14A
100
AcDbEntity
8
SK2
62
256
6
ByLayer
370
18
48
1
60
0
100
AcDbTrace
10
157
20
-35.692985
30
0
11
153.500002
21
-36.153769
31
0
12
153.499998
22
-35.232202
32
0
13
153.499998
23
-35.232202
33
0
39
0
210
0
220
0
230
1
0
ENDBLK
5
14C
100
AcDbEntity
8
0
100
AcDbBlockEnd
0
BLOCK
5
151
100
AcDbEntity
8
0
100
AcDbBlockBegin
2
*D5
70
1
10
0
20
0
30
0
3
*D5
0
LINE
5
153
100
AcDbEntity
8
0
62
256
6
ByLayer
370
-2
48
1
60
0
100
AcDbLine
10
46.99
20
8.3375
30
0
11
46.99
21
20.359119
31
0
39
0
210
0
220
0
230
1
0
LINE
5
154
100
AcDbEntity
8
0
62
256
6
ByLayer
370
-2
48
1
60
0
100
AcDbLine
10
157
20
1.5875
30
0
11
157
21
20.359119
31
0
39
0
210
0
220
0
230
1
0
LINE
5
155
100
AcDbEntity
8
0
62
256
6
ByLayer
370
-2
48
1
60
0
100
AcDbLine
10
50.49
20
18.359119
30
0
11
153.5
21
18.359119
31
0
39
0
210
0
220
0
230
1
0
SOLID
5
156
100
AcDbEntity
8
0
62
256
6
ByLayer
370
-1
48
1
60
0
100
AcDbTrace
10
50.49
20
18.942453
30
0
11
50.49
21
17.775786
31
0
12
46.99
22
18.359119
32
0
13
46.99
23
18.359119
33
0
39
0
210
0
220
0
230
1
0
SOLID
5
157
100
AcDbEntity
8
0
62
256
6
ByLayer
370
-1
48
1
60
0
100
AcDbTrace
10
153.5
20
17.775786
30
0
11
153.5
21
18.942453
31
0
12
157
22
18.359119
32
0
13
157
23
18.359119
33
0
39
0
210
0
220
0
230
1
0
MTEXT
5
158
100
AcDbEntity
8
0
62
256
6
ByLayer
370
18
48
1
60
0
100
AcDbMText
10
101.995
20
25.359119
30
0
210
0
220
0
230
1
1
\A1;110.01
40
3.5
41
0
44
1
50
0
71
5
72
5
7
iso_b_vert
0
POINT
5
159
100
AcDbEntity
8
Defpoints
62
0
6
ByLayer
370
-1
48
1
60
0
100
AcDbPoint
10
46.99
20
6.75
30
0
39
0
210
0
220
0
230
1
50
360
0
POINT
5
15A
100
AcDbEntity
8
Defpoints
62
0
6
ByLayer
370
-1
48
1
60
0
100
AcDbPoint
10
157
20
0
30
0
39
0
210
0
220
0
230
1
50
360
0
POINT
5
15B
100
AcDbEntity
8
Defpoints
62
0
6
ByLayer
370
-1
48
1
60
0
100
AcDbPoint
10
157
20
18.359119
30
0
39
0
210
0
220
0
230
1
50
360
0
ENDBLK
5
152
100
AcDbEntity
8
0
100
AcDbBlockEnd
0
BLOCK
5
163
100
AcDbEntity
8
0
100
AcDbBlockBegin
2
_U2
70
0
10
0
20
0
30
0
3
_U2
0
MTEXT
5
15D
100
AcDbEntity
8
SK2
62
256
6
ByLayer
370
13
48
1
60
0
100
AcDbMText
10
96.862268
20
19.391753
30
0
210
0
220
0
230
1
1
\W0.6303;110,01
40
3.5
41
0
44
1.084337
50
0
71
7
72
5
7
iso_b_vert
0
LINE
5
15E
100
AcDbEntity
8
SK2
62
256
6
ByLayer
370
13
48
1
60
0
100
AcDbLine
10
46.99
20
8.3375
30
0
11
46.99
21
20.359119
31
0
39
0
210
0
220
0
230
1
0
LINE
5
15F
100
AcDbEntity
8
SK2
62
256
6
ByLayer
370
13
48
1
60
0
100
AcDbLine
10
157
20
1.5875
30
0
11
157
21
20.359119
31
0
39
0
210
0
220
0
230
1
0
LINE
5
160
100
AcDbEntity
8
SK2
62
256
6
ByLayer
370
13
48
1
60
0
100
AcDbLine
10
46.99
20
18.359119
30
0
11
157
21
18.359119
31
0
39
0
210
0
220
0
230
1
0
SOLID
5
161
100
AcDbEntity
8
SK2
62
256
6
ByLayer
370
18
48
1
60
0
100
AcDbTrace
10
46.99
20
18.359119
30
0
11
50.489998
21
18.819903
31
0
12
50.490002
22
17.898335
32
0
13
50.490002
23
17.898335
33
0
39
0
210
0
220
0
230
1
0
SOLID
5
162
100
AcDbEntity
8
SK2
62
256
6
ByLayer
370
18
48
1
60
0
100
AcDbTrace
10
157
20
18.359119
30
0
11
153.500002
21
17.898335
31
0
12
153.499998
22
18.819903
32
0
13
153.499998
23
18.819903
33
0
39
0
210
0
220
0
230
1
0
ENDBLK
5
164
100
AcDbEntity
8
0
100
AcDbBlockEnd
0
BLOCK
5
169
100
AcDbEntity
8
0
100
AcDbBlockBegin
2
*D7
70
1
10
0
20
0
30
0
3
*D7
0
LINE
5
16B
100
AcDbEntity
8
0
62
256
6
ByLayer
370
-2
48
1
60
0
100
AcDbLine
10
157
20
-1.5875
30
0
11
157
21
-21.552503
31
0
39
0
210
0
220
0
230
1
0
LINE
5
16C
100
AcDbEntity
8
0
62
256
6
ByLayer
370
-2
48
1
60
0
100
AcDbLine
10
154.9885
20
-8.3375
30
0
11
154.9885
21
-21.552503
31
0
39
0
210
0
220
0
230
1
0
LINE
5
16D
100
AcDbEntity
8
0
62
256
6
ByLayer
370
-2
48
1
60
0
100
AcDbLine
10
157
20
-19.552503
30
0
11
184.166667
21
-19.552503
31
0
39
0
210
0
220
0
230
1
0
LINE
5
16E
100
AcDbEntity
8
0
62
256
6
ByLayer
370
-2
48
1
60
0
100
AcDbLine
10
160.5
20
-19.552503
30
0
11
164
21
-19.552503
31
0
39
0
210
0
220
0
230
1
0
LINE
5
16F
100
AcDbEntity
8
0
62
256
6
ByLayer
370
-2
48
1
60
0
100
AcDbLine
10
151.4885
20
-19.552503
30
0
11
147.9885
21
-19.552503
31
0
39
0
210
0
220
0
230
1
0
SOLID
5
170
100
AcDbEntity
8
0
62
256
6
ByLayer
370
-1
48
1
60
0
100
AcDbTrace
10
160.5
20
-18.96917
30
0
11
160.5
21
-20.135837
31
0
12
157
22
-19.552503
32
0
13
157
23
-19.552503
33
0
39
0
210
0
220
0
230
1
0
SOLID
5
171
100
AcDbEntity
8
0
62
256
6
ByLayer
370
-1
48
1
60
0
100
AcDbTrace
10
151.4885
20
-20.135837
30
0
11
151.4885
21
-18.96917
31
0
12
154.9885
22
-19.552503
32
0
13
154.9885
23
-19.552503
33
0
39
0
210
0
220
0
230
1
0
MTEXT
5
172
100
AcDbEntity
8
0
62
256
6
ByLayer
370
18
48
1
60
0
100
AcDbMText
10
174.083333
20
-12.552503
30
0
210
0
220
0
230
1
1
\A1;2.01
40
3.5
41
0
44
1
50
0
71
5
72
5
7
iso_b_vert
0
POINT
5
173
100
AcDbEntity
8
Defpoints
62
0
6
ByLayer
370
-1
48
1
60
0
100
AcDbPoint
10
157
20
0
30
0
39
0
210
0
220
0
230
1
50
360
0
POINT
5
174
100
AcDbEntity
8
Defpoints
62
0
6
ByLayer
370
-1
48
1
60
0
100
AcDbPoint
10
154.9885
20
-6.75
30
0
39
0
210
0
220
0
230
1
50
360
0
POINT
5
175
100
AcDbEntity
8
Defpoints
62
0
6
ByLayer
370
-1
48
1
60
0
100
AcDbPoint
10
154.9885
20
-19.552503
30
0
39
0
210
0
220
0
230
1
50
360
0
ENDBLK
5
16A
100
AcDbEntity
8
0
100
AcDbBlockEnd
0
BLOCK
5
17D
100
AcDbEntity
8
0
100
AcDbBlockBegin
2
_U3
70
0
10
0
20
0
30
0
3
_U3
0
MTEXT
5
177
100
AcDbEntity
8
SK2
62
256
6
ByLayer
370
13
48
1
60
0
100
AcDbMText
10
163.589293
20
-18.51987
30
0
210
0
220
0
230
1
1
\W0.6993;2,01
40
3.5
41
0
44
1.084337
50
0
71
7
72
5
7
iso_b_vert
0
LINE
5
178
100
AcDbEntity
8
SK2
62
256
6
ByLayer
370
13
48
1
60
0
100
AcDbLine
10
157
20
-1.5875
30
0
11
157
21
-21.552503
31
0
39
0
210
0
220
0
230
1
0
LINE
5
179
100
AcDbEntity
8
SK2
62
256
6
ByLayer
370
13
48
1
60
0
100
AcDbLine
10
154.9885
20
-8.3375
30
0
11
154.9885
21
-21.552503
31
0
39
0
210
0
220
0
230
1
0
LINE
5
17A
100
AcDbEntity
8
SK2
62
256
6
ByLayer
370
13
48
1
60
0
100
AcDbLine
10
146.2385
20
-19.552503
30
0
11
170.559058
21
-19.552503
31
0
39
0
210
0
220
0
230
1
0
SOLID
5
17B
100
AcDbEntity
8
SK2
62
256
6
ByLayer
370
18
48
1
60
0
100
AcDbTrace
10
157
20
-19.552503
30
0
11
160.499998
21
-19.091719
31
0
12
160.500002
22
-20.013287
32
0
13
160.500002
23
-20.013287
33
0
39
0
210
0
220
0
230
1
0
SOLID
5
17C
100
AcDbEntity
8
SK2
62
256
6
ByLayer
370
18
48
1
60
0
100
AcDbTrace
10
154.9885
20
-19.552503
30
0
11
151.488502
21
-20.013287
31
0
12
151.488498
22
-19.091719
32
0
13
151.488498
23
-19.091719
33
0
39
0
210
0
220
0
230
1
0
ENDBLK
5
17E
100
AcDbEntity
8
0
100
AcDbBlockEnd
0
BLOCK
5
183
100
AcDbEntity
8
0
100
AcDbBlockBegin
2
*D9
70
1
10
0
20
0
30
0
3
*D9
0
LINE
5
185
100
AcDbEntity
8
0
62
256
6
ByLayer
370
-2
48
1
60
0
100
AcDbLine
10
-45
20
-8.5875
30
0
11
-45
21
-27.343428
31
0
39
0
210
0
220
0
230
1
0
LINE
5
186
100
AcDbEntity
8
0
62
256
6
ByLayer
370
-2
48
1
60
0
100
AcDbLine
10
154.9885
20
-8.3375
30
0
11
154.9885
21
-27.343428
31
0
39
0
210
0
220
0
230
1
0
LINE
5
187
100
AcDbEntity
8
0
62
256
6
ByLayer
370
-2
48
1
60
0
100
AcDbLine
10
-41.5
20
-25.343428
30
0
11
151.4885
21
-25.343428
31
0
39
0
210
0
220
0
230
1
0
SOLID
5
188
100
AcDbEntity
8
0
62
256
6
ByLayer
370
-1
48
1
60
0
100
AcDbTrace
10
-41.5
20
-24.760095
30
0
11
-41.5
21
-25.926762
31
0
12
-45
22
-25.343428
32
0
13
-45
23
-25.343428
33
0
39
0
210
0
220
0
230
1
0
SOLID
5
189
100
AcDbEntity
8
0
62
256
6
ByLayer
370
-1
48
1
60
0
100
AcDbTrace
10
151.4885
20
-25.926762
30
0
11
151.4885
21
-24.760095
31
0
12
154.9885
22
-25.343428
32
0
13
154.9885
23
-25.343428
33
0
39
0
210
0
220
0
230
1
0
MTEXT
5
18A
100
AcDbEntity
8
0
62
256
6
ByLayer
370
18
48
1
60
0
100
AcDbMText
10
54.99425
20
-18.343428
30
0
210
0
220
0
230
1
1
\A1;199.99
40
3.5
41
0
44
1
50
0
71
5
72
5
7
iso_b_vert
0
POINT
5
18B
100
AcDbEntity
8
Defpoints
62
0
6
ByLayer
370
-1
48
1
60
0
100
AcDbPoint
10
-45
20
-7
30
0
39
0
210
0
220
0
230
1
50
360
0
POINT
5
18C
100
AcDbEntity
8
Defpoints
62
0
6
ByLayer
370
-1
48
1
60
0
100
AcDbPoint
10
154.9885
20
-6.75
30
0
39
0
210
0
220
0
230
1
50
360
0
POINT
5
18D
100
AcDbEntity
8
Defpoints
62
0
6
ByLayer
370
-1
48
1
60
0
100
AcDbPoint
10
154.9885
20
-25.343428
30
0
39
0
210
0
220
0
230
1
50
360
0
ENDBLK
5
184
100
AcDbEntity
8
0
100
AcDbBlockEnd
0
BLOCK
5
195
100
AcDbEntity
8
0
100
AcDbBlockBegin
2
_U4
70
0
10
0
20
0
30
0
3
_U4
0
MTEXT
5
18F
100
AcDbEntity
8
SK2
62
256
6
ByLayer
370
13
48
1
60
0
100
AcDbMText
10
48.986651
20
-24.310795
30
0
210
0
220
0
230
1
1
\W0.6996;199,99
40
3.5
41
0
44
1.084337
50
0
71
7
72
5
7
iso_b_vert
0
LINE
5
190
100
AcDbEntity
8
SK2
62
256
6
ByLayer
370
13
48
1
60
0
100
AcDbLine
10
-45
20
-8.5875
30
0
11
-45
21
-27.343428
31
0
39
0
210
0
220
0
230
1
0
LINE
5
191
100
AcDbEntity
8
SK2
62
256
6
ByLayer
370
13
48
1
60
0
100
AcDbLine
10
154.9885
20
-8.3375
30
0
11
154.9885
21
-27.343428
31
0
39
0
210
0
220
0
230
1
0
LINE
5
192
100
AcDbEntity
8
SK2
62
256
6
ByLayer
370
13
48
1
60
0
100
AcDbLine
10
-45
20
-25.343428
30
0
11
154.9885
21
-25.343428
31
0
39
0
210
0
220
0
230
1
0
SOLID
5
193
100
AcDbEntity
8
SK2
62
256
6
ByLayer
370
18
48
1
60
0
100
AcDbTrace
10
-45
20
-25.343428
30
0
11
-41.500002
21
-24.882645
31
0
12
-41.499998
22
-25.804212
32
0
13
-41.499998
23
-25.804212
33
0
39
0
210
0
220
0
230
1
0
SOLID
5
194
100
AcDbEntity
8
SK2
62
256
6
ByLayer
370
18
48
1
60
0
100
AcDbTrace
10
154.9885
20
-25.343428
30
0
11
151.488502
21
-25.804212
31
0
12
151.488498
22
-24.882645
32
0
13
151.488498
23
-24.882645
33
0
39
0
210
0
220
0
230
1
0
ENDBLK
5
196
100
AcDbEntity
8
0
100
AcDbBlockEnd
0
ENDSEC
0
SECTION
2
ENTITIES
0
ARC
5
B3
100
AcDbEntity
8
1
62
256
6
ByLayer
370
18
48
1
60
0
100
AcDbCircle
39
0
10
0.993906
20
-7.453854
30
0
40
0.800000000000001
210
0
220
0
230
1
100
AcDbArc
50
89.96419
51
128.403181
0
ARC
5
B4
100
AcDbEntity
8
1
62
256
6
ByLayer
370
18
48
1
60
0
100
AcDbCircle
39
0
10
0.993906
20
7.453854
30
0
40
0.800000000000001
210
0
220
0
230
1
100
AcDbArc
50
231.596819
51
270.03581
0
ARC
5
B5
100
AcDbEntity
8
1
62
256
6
ByLayer
370
18
48
1
60
0
100
AcDbCircle
39
0
10
0
20
-6.2
30
0
40
0.800000000000001
210
0
220
0
230
1
100
AcDbArc
50
270
51
308.403181
0
ARC
5
B6
100
AcDbEntity
8
1
62
256
6
ByLayer
370
18
48
1
60
0
100
AcDbCircle
39
0
10
0
20
6.2
30
0
40
0.800000000000001
210
0
220
0
230
1
100
AcDbArc
50
51.596819
51
90
0
ELLIPSE
5
B7
100
AcDbEntity
8
1
62
256
6
ByLayer
370
18
48
1
60
0
100
AcDbEllipse
10
8.25
20
6.53706
30
0
11
0.25
21
0
31
0
210
0
220
0
230
1
40
0.99999
41
-3.13464118325506
42
-1.55530750836765
0
ELLIPSE
5
B8
100
AcDbEntity
8
1
62
256
6
ByLayer
370
18
48
1
60
0
100
AcDbEllipse
10
8.25
20
-6.53706
30
0
11
0.25
21
0
31
0
210
0
220
0
230
1
40
0.99999
41
1.5850606437694
42
3.13464118325498
0
POINT
5
70
100
AcDbEntity
8
80
62
256
6
ByLayer
370
18
48
1
60
0
100
AcDbPoint
10
0
20
0
30
0
39
0
210
0
220
0
230
1
50
360
0
POINT
5
72
100
AcDbEntity
8
81
62
256
6
ByLayer
370
18
48
1
60
0
100
AcDbPoint
10
157
20
0
30
0
39
0
210
0
220
0
230
1
50
360
0
POINT
5
74
100
AcDbEntity
8
1
62
256
6
ByLayer
370
18
48
1
60
1
100
AcDbPoint
10
154.9885
20
-6.75
30
0
39
0
210
0
220
0
230
1
50
360
0
POINT
5
76
100
AcDbEntity
8
1
62
256
6
ByLayer
370
18
48
1
60
1
100
AcDbPoint
10
-45
20
-7
30
0
39
0
210
0
220
0
230
1
50
360
0
POINT
5
77
100
AcDbEntity
8
1
62
256
6
ByLayer
370
18
48
1
60
1
100
AcDbPoint
10
46.99
20
6.75
30
0
39
0
210
0
220
0
230
1
50
360
0
POINT
5
78
100
AcDbEntity
8
1
62
256
6
ByLayer
370
18
48
1
60
1
100
AcDbPoint
10
154.9885
20
-6.75
30
0
39
0
210
0
220
0
230
1
50
360
0
POINT
5
79
100
AcDbEntity
8
1
62
256
6
ByLayer
370
18
48
1
60
1
100
AcDbPoint
10
-45
20
-7
30
0
39
0
210
0
220
0
230
1
50
360
0
POINT
5
7A
100
AcDbEntity
8
1
62
256
6
ByLayer
370
18
48
1
60
1
100
AcDbPoint
10
154.9885
20
-6.75
30
0
39
0
210
0
220
0
230
1
50
360
0
SPLINE
5
B9
100
AcDbEntity
8
SK1
62
256
6
ByLayer
370
18
48
1
60
0
100
AcDbSpline
70
4
71
3
72
12
73
8
40
0
40
0
40
0
40
0
40
0.499999999999994
40
0.499999999999994
40
0.749999999999997
40
0.749999999999997
40
1
40
1
40
1
40
1
41
1
10
-44
20
-3.52555972062782
30
0
41
1
10
-43.9765248032773
20
-3.53520153142938
30
0
41
1
10
-43.9537853574511
20
-3.53794115275721
30
0
41
1
10
-43.9256353788013
20
-3.52942873196162
30
0
41
1
10
-43.9170526356788
20
-3.5243192146192
30
0
41
1
10
-43.9042470853815
20
-3.50826437787515
30
0
41
1
10
-43.9
20
-3.49694812948107
30
0
41
1
10
-43.9
20
-3.48303648979106
30
0
0
SPLINE
5
BA
100
AcDbEntity
8
SK1
62
256
6
ByLayer
370
18
48
1
60
0
100
AcDbSpline
70
4
71
3
72
8
73
4
40
0
40
0
40
0
40
0
40
1
40
1
40
1
40
1
41
1
10
-44
20
-1.23632442813545
30
0
41
1
10
-44.3340978490102
20
-1.09910264944628
30
0
41
1
10
-44.6675867517081
20
-0.961646339942632
30
0
41
1
10
-45
20
-0.823775750725275
30
0
0
SPLINE
5
BB
100
AcDbEntity
8
SK1
62
256
6
ByLayer
370
18
48
1
60
0
100
AcDbSpline
70
4
71
3
72
8
73
4
40
0
40
0
40
0
40
0
40
1
40
1
40
1
40
1
41
1
10
-45
20
-3.11301104321762
30
0
41
1
10
-44.667575896366
20
-3.25088613475978
30
0
41
1
10
-44.3340887839367
20
-3.38834166517574
30
0
41
1
10
-44
20
-3.5255597206278
30
0
0
SPLINE
5
BC
100
AcDbEntity
8
SK1
62
256
6
ByLayer
370
18
48
1
60
0
100
AcDbSpline
70
4
71
3
72
12
73
8
40
0
40
0
40
0
40
0
40
0.25
40
0.25
40
0.499999999999999
40
0.499999999999999
40
1
40
1
40
1
40
1
41
1
10
-43.9
20
-1.3769400206981
30
0
41
1
10
-43.9
20
-1.3604713804742
30
0
41
1
10
-43.9042016956281
20
-1.34339366265019
30
0
41
1
10
-43.9170234176167
20
-1.31269467913307
30
0
41
1
10
-43.9254954864757
20
-1.29901341772845
30
0
41
1
10
-43.9538426693662
20
-1.26315535622456
30
0
41
1
10
-43.9765304760167
20
-1.24596390901064
30
0
41
1
10
-44
20
-1.23632442813545
30
0
0
SPLINE
5
BD
100
AcDbEntity
8
1
62
256
6
ByLayer
370
18
48
1
60
0
100
AcDbSpline
70
4
71
3
72
14
73
10
40
0
40
0
40
0
40
0
40
0.250000000000001
40
0.250000000000001
40
0.5
40
0.5
40
0.75
40
0.75
40
1
40
1
40
1
40
1
41
1
10
154.730692824893
20
-6.36322036586901
30
0
41
1
10
154.73319452203
20
-6.36225149484059
30
0
41
1
10
154.735013054477
20
-6.36307155836312
30
0
41
1
10
154.736884829256
20
-6.36931810627544
30
0
41
1
10
154.736879305213
20
-6.37486615726729
30
0
41
1
10
154.734179722003
20
-6.39148904387233
30
0
41
1
10
154.731454003486
20
-6.40253203302939
30
0
41
1
10
154.723803267852
20
-6.42739746825737
30
0
41
1
10
154.718921968389
20
-6.44110736781158
30
0
41
1
10
154.713744309495
20
-6.45428959167526
30
0
0
SPLINE
5
BE
100
AcDbEntity
8
1
62
256
6
ByLayer
370
18
48
1
60
0
100
AcDbSpline
70
4
71
3
72
18
73
14
40
0
40
0
40
0
40
0
40
0.268814844610448
40
0.268814844610448
40
0.548533733733303
40
0.548533733733303
40
0.688393178294726
40
0.688393178294726
40
0.758322900575434
40
0.758322900575434
40
0.828252622856142
40
0.828252622856142
40
1
40
1
40
1
40
1
41
1
10
115.800344006829
20
-6.35408679949438
30
0
41
1
10
115.069752081056
20
-6.35408630921643
30
0
41
1
10
114.340982972998
20
-6.31952224445271
30
0
41
1
10
112.852450935808
20
-6.17954661998442
30
0
41
1
10
112.092556370626
20
-6.07135958646805
30
0
41
1
10
110.947363131758
20
-5.85520064710039
30
0
41
1
10
110.56468069028
20
-5.77416090714638
30
0
41
1
10
109.988772584
20
-5.63938002873911
30
0
41
1
10
109.796266391143
20
-5.59217630415668
30
0
41
1
10
109.411993556337
20
-5.49376989609939
30
0
41
1
10
109.220190474838
20
-5.44256607312877
30
0
41
1
10
108.558275562524
20
-5.25892621994191
30
0
41
1
10
108.089583903263
20
-5.1167513963332
30
0
41
1
10
107.621927454371
20
-4.96386588389171
30
0
0
SPLINE
5
BF
100
AcDbEntity
8
1
62
256
6
ByLayer
370
13
48
1
60
0
100
AcDbSpline
70
4
71
3
72
18
73
14
40
0
40
0
40
0
40
0
40
0.218646477613646
40
0.218646477613646
40
0.376400060525291
40
0.376400060525291
40
0.455276851981113
40
0.455276851981113
40
0.534153643436936
40
0.534153643436936
40
0.849660809260229
40
0.849660809260229
40
1
40
1
40
1
40
1
41
1
10
107.621927454084
20
-4.96386588379769
30
0
41
1
10
106.566272810345
20
-4.61875292415252
30
0
41
1
10
105.515893118255
20
-4.21906326453026
30
0
41
1
10
103.7036417176
20
-3.45606878233664
30
0
41
1
10
102.942984536262
20
-3.11356185660597
30
0
41
1
10
101.795883451167
20
-2.57239928952572
30
0
41
1
10
101.412488156515
20
-2.3874493376895
30
0
41
1
10
100.64290377357
20
-2.00961674329827
30
0
41
1
10
100.259243975284
20
-1.81797460286066
30
0
41
1
10
98.3466978595118
20
-0.850676300690367
30
0
41
1
10
96.8331092121485
20
-0.0466223214692434
30
0
41
1
10
94.5885768564309
20
1.11868921738619
30
0
41
1
10
93.8628020241911
20
1.49155683772207
30
0
41
1
10
93.1330401784541
20
1.85619207252503
30
0
0
SPLINE
5
C0
100
AcDbEntity
8
1
62
256
6
ByLayer
370
18
48
1
60
0
100
AcDbSpline
70
4
71
3
72
16
73
12
40
0
40
0
40
0
40
0
40
0.498353098651523
40
0.498353098651523
40
0.573091381955181
40
0.573091381955181
40
0.647829665258838
40
0.647829665258838
40
0.797306231866154
40
0.797306231866154
40
1
40
1
40
1
40
1
41
1
10
39.5581527911229
20
-6.30656306707212
30
0
41
1
10
38.2911307446317
20
-6.30416369523363
30
0
41
1
10
37.0244323861034
20
-6.19842515022808
30
0
41
1
10
35.5533881757806
20
-5.95924610864799
30
0
41
1
10
35.3612592172895
20
-5.92576118669606
30
0
41
1
10
34.976307136509
20
-5.85423171557574
30
0
41
1
10
34.7835053784059
20
-5.81618312339518
30
0
41
1
10
34.2067427101655
20
-5.6958424100892
30
0
41
1
10
33.8235239271203
20
-5.60717260632342
30
0
41
1
10
32.9227526137246
20
-5.3793909000336
30
0
41
1
10
32.4059201612343
20
-5.23363825745747
30
0
41
1
10
31.8898407426614
20
-5.07436279131943
30
0
0
SPLINE
5
C1
100
AcDbEntity
8
1
62
256
6
ByLayer
370
13
48
1
60
0
100
AcDbSpline
70
4
71
3
72
22
73
18
40
0
40
0
40
0
40
0
40
0.0491660724967404
40
0.0491660724967404
40
0.354556646330777
40
0.354556646330777
40
0.430904289789287
40
0.430904289789287
40
0.507251933247797
40
0.507251933247797
40
0.659947220164818
40
0.659947220164818
40
0.81264250708184
40
0.81264250708184
40
0.96533779399886
40
0.96533779399886
40
1
40
1
40
1
40
1
41
1
10
31.8898407452275
20
-5.0743627921114
30
0
41
1
10
31.6447543876444
20
-4.99872279866835
30
0
41
1
10
31.3998378621436
20
-4.92003299667638
30
0
41
1
10
29.634206021658
20
-4.33144701530981
30
0
41
1
10
28.116409379982
20
-3.71118447818651
30
0
41
1
10
26.1944501701856
20
-2.83375904260552
30
0
41
1
10
25.8084706694067
20
-2.65302428326819
30
0
41
1
10
25.0406070028587
20
-2.2860960633646
30
0
41
1
10
24.6578290898285
20
-2.09950963644698
30
0
41
1
10
23.5118946769828
20
-1.53245211598096
30
0
41
1
10
22.7513110990619
20
-1.1443772668429
30
0
41
1
10
21.2306915015839
20
-0.360237063548027
30
0
41
1
10
20.4705950113924
20
0.0357097852679829
30
0
41
1
10
18.9454151511659
20
0.824737570420496
30
0
41
1
10
18.1806717002553
20
1.21846064005368
30
0
41
1
10
17.2356337824308
20
1.69262463564269
30
0
41
1
10
17.060574746481
20
1.77994245250917
30
0
41
1
10
16.8859108740192
20
1.86647122425893
30
0
0
SPLINE
5
C2
100
AcDbEntity
8
1
62
256
6
ByLayer
370
18
48
1
60
0
100
AcDbSpline
70
4
71
3
72
18
73
14
40
0
40
0
40
0
40
0
40
0.124999999999994
40
0.124999999999994
40
0.249999999999988
40
0.249999999999988
40
0.374999999999981
40
0.374999999999981
40
0.499999999999975
40
0.499999999999975
40
0.749999999999988
40
0.749999999999988
40
1
40
1
40
1
40
1
41
1
10
7.99999957191628
20
-4.90685003812277
30
0
41
1
10
7.99999957191613
20
-4.88566907888094
30
0
41
1
10
8.00188567460552
20
-4.86478958024202
30
0
41
1
10
8.01097031962772
20
-4.8268844449241
30
0
41
1
10
8.01836966367489
20
-4.80992244653982
30
0
41
1
10
8.03768149049412
20
-4.78487673181803
30
0
41
1
10
8.04957759626836
20
-4.77661703227301
30
0
41
1
10
8.07474107497055
20
-4.76788309877318
30
0
41
1
10
8.08772311902644
20
-4.76720967349584
30
0
41
1
10
8.12694304936517
20
-4.77197287965566
30
0
41
1
10
8.15274540950037
20
-4.78384669982176
30
0
41
1
10
8.20266642614379
20
-4.81531911772285
30
0
41
1
10
8.22686247222461
20
-4.83522574371659
30
0
41
1
10
8.2501704225933
20
-4.85769180235462
30
0
0
SPLINE
5
C3
100
AcDbEntity
8
1
62
256
6
ByLayer
370
18
48
1
60
0
100
AcDbSpline
70
4
71
3
72
44
73
40
40
0
40
0
40
0
40
0
40
0.0625000000000105
40
0.0625000000000105
40
0.125000000000021
40
0.125000000000021
40
0.187500000000032
40
0.187500000000032
40
0.250000000000042
40
0.250000000000042
40
0.281250000000044
40
0.281250000000044
40
0.312500000000045
40
0.312500000000045
40
0.375000000000041
40
0.375000000000041
40
0.437500000000036
40
0.437500000000036
40
0.500000000000032
40
0.500000000000032
40
0.625000000000024
40
0.625000000000024
40
0.687500000000021
40
0.687500000000021
40
0.750000000000019
40
0.750000000000019
40
0.812500000000017
40
0.812500000000017
40
0.820312500000015
40
0.820312500000015
40
0.828125000000014
40
0.828125000000014
40
0.843750000000011
40
0.843750000000011
40
0.851562500000011
40
0.851562500000011
40
0.85937500000001
40
0.87500000000001
40
1
40
1
40
1
40
1
41
1
10
150.870825681444
20
-2.74508947952665
30
0
41
1
10
151.011369191971
20
-2.76838750622571
30
0
41
1
10
151.152354960192
20
-2.78706531762938
30
0
41
1
10
151.431632431114
20
-2.81353165740464
30
0
41
1
10
151.570202666253
20
-2.82175351137957
30
0
41
1
10
151.844308411614
20
-2.82396421914066
30
0
41
1
10
151.979880681581
20
-2.81812547783571
30
0
41
1
10
152.24816774814
20
-2.79304631297359
30
0
41
1
10
152.380822746338
20
-2.77352543218294
30
0
41
1
10
152.577219918621
20
-2.73211881714329
30
0
41
1
10
152.642254313275
20
-2.71629365711399
30
0
41
1
10
152.771380865521
20
-2.68022420165917
30
0
41
1
10
152.835670633039
20
-2.65990228254498
30
0
41
1
10
153.025436700058
20
-2.59214148596601
30
0
41
1
10
153.147274405306
20
-2.53813415133573
30
0
41
1
10
153.380867240472
20
-2.4110602026083
30
0
41
1
10
153.49263766729
20
-2.33802250452553
30
0
41
1
10
153.705496925954
20
-2.17175549093488
30
0
41
1
10
153.807177463799
20
-2.077727115241
30
0
41
1
10
154.088040110322
20
-1.77213996948169
30
0
41
1
10
154.24510291493
20
-1.53636241039658
30
0
41
1
10
154.442670136974
20
-1.14230796130215
30
0
41
1
10
154.501980880767
20
-1.00448399855037
30
0
41
1
10
154.607700289855
20
-0.721467570497708
30
0
41
1
10
154.654393154994
20
-0.575722085123459
30
0
41
1
10
154.737302359868
20
-0.277032632623559
30
0
41
1
10
154.773414860439
20
-0.124424966813024
30
0
41
1
10
154.808909300851
20
0.0497492257390206
30
0
41
1
10
154.81278233764
20
0.0691392718183579
30
0
41
1
10
154.820390065802
20
0.107992373104651
30
0
41
1
10
154.824609824669
20
0.127199443288333
30
0
41
1
10
154.833430505324
20
0.186846398881983
30
0
41
1
10
154.829138764106
20
0.230204538603147
30
0
41
1
10
154.814551858255
20
0.293943870698484
30
0
41
1
10
154.808887734943
20
0.315095155831557
30
0
41
1
10
154.798220093906
20
0.357474547902484
30
0
41
1
10
154.782224489721
20
0.421044401425092
30
0
41
1
10
154.681028360849
20
0.823667879124741
30
0
41
1
10
154.585762311564
20
1.20517843611398
30
0
41
1
10
154.501435033063
20
1.54434437721156
30
0
0
SPLINE
5
C4
100
AcDbEntity
8
1
62
256
6
ByLayer
370
18
48
1
60
0
100
AcDbSpline
70
4
71
3
72
8
73
4
40
0
40
0
40
0
40
0
40
1
40
1
40
1
40
1
41
1
10
156.971859187377
20
-0.0194932863491886
30
0
41
1
10
156.922834482767
20
-0.110673917721982
30
0
41
1
10
156.873985609422
20
-0.202011697802305
30
0
41
1
10
156.825312843932
20
-0.29350687365303
30
0
0
SPLINE
5
C5
100
AcDbEntity
8
1
62
256
6
ByLayer
370
18
48
1
60
0
100
AcDbSpline
70
4
71
3
72
61
73
57
40
0
40
0
40
0
40
0
40
0.0312499999999991
40
0.0312499999999991
40
0.0624999999999981
40
0.0624999999999981
40
0.124999999999996
40
0.124999999999996
40
0.187499999999994
40
0.187499999999994
40
0.218749999999993
40
0.218749999999993
40
0.249999999999993
40
0.249999999999993
40
0.31249999999999
40
0.31249999999999
40
0.343749999999989
40
0.343749999999989
40
0.374999999999988
40
0.374999999999988
40
0.406249999999987
40
0.406249999999987
40
0.421874999999986
40
0.421874999999986
40
0.437499999999985
40
0.437499999999985
40
0.499999999999983
40
0.499999999999983
40
0.531249999999982
40
0.531249999999982
40
0.562499999999981
40
0.562499999999981
40
0.59374999999998
40
0.59374999999998
40
0.624999999999979
40
0.624999999999979
40
0.687499999999976
40
0.687499999999976
40
0.749999999999973
40
0.749999999999973
40
0.751953124999973
40
0.751953124999973
40
0.753906249999973
40
0.753906249999973
40
0.757812499999973
40
0.757812499999973
40
0.761718749999973
40
0.761718749999973
40
0.765624999999973
40
0.781249999999975
40
0.781249999999975
40
0.812499999999978
40
0.812499999999978
40
0.874999999999985
40
0.874999999999985
40
1
40
1
40
1
40
1
41
1
10
7.99999957192267
20
-5.05053565517395
30
0
41
1
10
7.91871440507302
20
-4.96748430900925
30
0
41
1
10
7.83822681604323
20
-4.88056152830248
30
0
41
1
10
7.68058118312348
20
-4.7005736732477
30
0
41
1
10
7.60347946069925
20
-4.60760847443945
30
0
41
1
10
7.37731281743973
20
-4.31965572721714
30
0
41
1
10
7.23333221147078
20
-4.11566517133548
30
0
41
1
10
6.9599917312575
20
-3.6817767931887
30
0
41
1
10
6.83059881862454
20
-3.45191881283526
30
0
41
1
10
6.64979738179585
20
-3.0847025655994
30
0
41
1
10
6.5921592506036
20
-2.95928919018957
30
0
41
1
10
6.48340499246598
20
-2.70394892680207
30
0
41
1
10
6.43216041081411
20
-2.57375815364514
30
0
41
1
10
6.28872671204959
20
-2.17517662811025
30
0
41
1
10
6.20665126553013
20
-1.89887765682693
30
0
41
1
10
6.11027049472128
20
-1.46528774871771
30
0
41
1
10
6.0829243430851
20
-1.31858145855694
30
0
41
1
10
6.03937322458071
20
-1.02395209571006
30
0
41
1
10
6.02305476067042
20
-0.87553909824922
30
0
41
1
10
6.00247116001691
20
-0.576398658089857
30
0
41
1
10
5.99820421483042
20
-0.425671466481504
30
0
41
1
10
6.00194972843766
20
-0.197718595644659
30
0
41
1
10
6.00491255897728
20
-0.121160012028127
30
0
41
1
10
6.0143314203612
20
0.03100812904961
30
0
41
1
10
6.02077161904677
20
0.106624676254341
30
0
41
1
10
6.06166620824672
20
0.482382225114037
30
0
41
1
10
6.12228347465722
20
0.775537435019942
30
0
41
1
10
6.25785039297477
20
1.2038347322935
30
0
41
1
10
6.31091312359746
20
1.34544323698643
30
0
41
1
10
6.42957198416713
20
1.6182709960421
30
0
41
1
10
6.49529025977932
20
1.75011953178551
30
0
41
1
10
6.63880376419218
20
2.00540203832711
30
0
41
1
10
6.71659862118372
20
2.12883534276142
30
0
41
1
10
6.88382477581547
20
2.36780814005826
30
0
41
1
10
6.97351099649038
20
2.48354512808567
30
0
41
1
10
7.25379393011877
20
2.81350790880677
30
0
41
1
10
7.45698187294099
20
3.01307600222961
30
0
41
1
10
7.89075052303428
20
3.38007506115466
30
0
41
1
10
8.12194213549097
20
3.54779371061227
30
0
41
1
10
8.37149574308265
20
3.70614419208695
30
0
41
1
10
8.3790821194354
20
3.71091021752082
30
0
41
1
10
8.39419106623131
20
3.7205150195999
30
0
41
1
10
8.40174291048953
20
3.72531658210386
30
0
41
1
10
8.42581101836453
20
3.73770441024774
30
0
41
1
10
8.44441786902422
20
3.74306372885178
30
0
41
1
10
8.48179496459412
20
3.74800303887352
30
0
41
1
10
8.50069406617547
20
3.74879202876645
30
0
41
1
10
8.53834160973602
20
3.75157169846639
30
0
41
1
10
8.63249076607303
20
3.75827743503155
30
0
41
1
10
8.72679119885757
20
3.76377003533042
30
0
41
1
10
8.95312446804945
20
3.77464369169459
30
0
41
1
10
9.1041218611486
20
3.77882376788696
30
0
41
1
10
9.55743404917624
20
3.78235685221981
30
0
41
1
10
9.85959726234589
20
3.77268860437272
30
0
41
1
10
10.7576262416331
20
3.70891013822944
30
0
41
1
10
11.3482623145721
20
3.62056125922459
30
0
41
1
10
11.9309963550062
20
3.48287647044239
30
0
0
SPLINE
5
C6
100
AcDbEntity
8
1
62
256
6
ByLayer
370
18
48
1
60
0
100
AcDbSpline
70
4
71
3
72
20
73
16
40
0
40
0
40
0
40
0
40
0.016352399995848
40
0.016352399995848
40
0.208733140174544
40
0.208733140174544
40
0.304923510263893
40
0.304923510263893
40
0.401113880353242
40
0.401113880353242
40
0.785875360710631
40
0.785875360710631
40
0.978256100889325
40
0.978256100889325
40
1
40
1
40
1
40
1
41
1
10
58.4141072441559
20
0.0048303408295567
30
0
41
1
10
58.4787722532536
20
-0.029395875743802
30
0
41
1
10
58.5434493525194
20
-0.0636296664764302
30
0
41
1
10
59.3692087614518
20
-0.500666271259888
30
0
41
1
10
60.1322951411108
20
-0.903830044081843
30
0
41
1
10
61.2841502313048
20
-1.50107005065087
30
0
41
1
10
61.6700702673709
20
-1.69921194782961
30
0
41
1
10
62.4381341243339
20
-2.0877715032162
30
0
41
1
10
62.8209237373124
20
-2.2786175993879
30
0
41
1
10
64.7304709865515
20
-3.2126678288349
30
0
41
1
10
66.2446688612838
20
-3.8943682096326
30
0
41
1
10
68.5299956008029
20
-4.76402435159099
30
0
41
1
10
69.2942204982449
20
-5.02835359366907
30
0
41
1
10
70.1507891049596
20
-5.28908252036035
30
0
41
1
10
70.2378415427308
20
-5.315169622816
30
0
41
1
10
70.3248801267179
20
-5.34084044256673
30
0
0
SPLINE
5
C7
100
AcDbEntity
8
1
62
256
6
ByLayer
370
13
48
1
60
0
100
AcDbSpline
70
4
71
3
72
20
73
16
40
0
40
0
40
0
40
0
40
0.0345026575334968
40
0.0345026575334968
40
0.0974753596221567
40
0.0974753596221567
40
0.223420763799478
40
0.223420763799478
40
0.727202380508762
40
0.727202380508762
40
0.853147784686083
40
0.853147784686083
40
0.979093188863404
40
0.979093188863404
40
1
40
1
40
1
40
1
41
1
10
70.324880122936
20
-5.34084044145132
30
0
41
1
10
70.4303616021168
20
-5.37195073663668
30
0
41
1
10
70.5358227344485
20
-5.40244964347599
30
0
41
1
10
70.8332890216741
20
-5.48675115135049
30
0
41
1
10
71.0251369441635
20
-5.53908927842116
30
0
41
1
10
71.5998485662253
20
-5.68962798176193
30
0
41
1
10
71.9818813270109
20
-5.7813579836988
30
0
41
1
10
73.8883601277734
20
-6.19557422452141
30
0
41
1
10
75.4019453968291
20
-6.38531886012078
30
0
41
1
10
77.3084643245429
20
-6.43197714458017
30
0
41
1
10
77.6904909608248
20
-6.43178000503255
30
0
41
1
10
78.4567032066044
20
-6.41215103186244
30
0
41
1
10
78.841386195804
20
-6.39267375643544
30
0
41
1
10
79.2903664459224
20
-6.35866668555954
30
0
41
1
10
79.3542770246999
20
-6.35356023912317
30
0
41
1
10
79.4181801054118
20
-6.34818963553968
30
0
0
SPLINE
5
C8
100
AcDbEntity
8
1
62
256
6
ByLayer
370
18
48
1
60
0
100
AcDbSpline
70
4
71
3
72
18
73
14
40
0
40
0
40
0
40
0
40
0.0561183000042326
40
0.0561183000042326
40
0.104832101970804
40
0.104832101970804
40
0.153545903937374
40
0.153545903937374
40
0.543256319669963
40
0.543256319669963
40
0.93296673540255
40
0.93296673540255
40
1
40
1
40
1
40
1
41
1
10
134.647990469356
20
-0.0132302435123961
30
0
41
1
10
134.867763784475
20
-0.130402630889108
30
0
41
1
10
135.087839123435
20
-0.247742567517321
30
0
41
1
10
135.499653587291
20
-0.466991371029792
30
0
41
1
10
135.691302272816
20
-0.568889097603858
30
0
41
1
10
136.07526977701
20
-0.772530726251063
30
0
41
1
10
136.267809236197
20
-0.874389697448038
30
0
41
1
10
137.995835589352
20
-1.78528619539296
30
0
41
1
10
139.507441813282
20
-2.55859872282949
30
0
41
1
10
142.529000822533
20
-3.95238687327955
30
0
41
1
10
144.038606083339
20
-4.5735034474161
30
0
41
1
10
145.8340130863
20
-5.16795758854593
30
0
41
1
10
146.098600517108
20
-5.25194272517899
30
0
41
1
10
146.362917882976
20
-5.33206835446427
30
0
0
SPLINE
5
C9
100
AcDbEntity
8
1
62
256
6
ByLayer
370
13
48
1
60
0
100
AcDbSpline
70
4
71
3
72
14
73
10
40
0
40
0
40
0
40
0
40
0.0426654542860528
40
0.0426654542860528
40
0.179427532245192
40
0.179427532245192
40
0.452951688163461
40
0.452951688163461
40
1
40
1
40
1
40
1
41
1
10
146.362917885046
20
-5.33206835509188
30
0
41
1
10
146.482765123763
20
-5.36839905696013
30
0
41
1
10
146.602556839485
20
-5.40393627781052
30
0
41
1
10
147.105569533558
20
-5.54981399535779
30
0
41
1
10
147.487700021084
20
-5.65249226134455
30
0
41
1
10
148.631424736349
20
-5.93428976847386
30
0
41
1
10
149.390277996312
20
-6.08725655384779
30
0
41
1
10
151.665031068273
20
-6.43650881705648
30
0
41
1
10
153.179284401933
20
-6.52398605716937
30
0
41
1
10
154.713744309495
20
-6.45428959167526
30
0
0
SPLINE
5
CA
100
AcDbEntity
8
1
62
256
6
ByLayer
370
18
48
1
60
0
100
AcDbSpline
70
4
71
3
72
128
73
124
40
0
40
0
40
0
40
0
40
0.0018814656309907
40
0.0018814656309907
40
0.0128190332766333
40
0.0128190332766333
40
0.0346941685679192
40
0.0346941685679192
40
0.0565693038592051
40
0.0565693038592051
40
0.078444439150491
40
0.078444439150491
40
0.0893820067961336
40
0.0893820067961336
40
0.100319574441776
40
0.100319574441776
40
0.122194709733061
40
0.122194709733061
40
0.144069845024347
40
0.144069845024347
40
0.165944980315632
40
0.165944980315632
40
0.187820115606917
40
0.187820115606917
40
0.209695250898203
40
0.209695250898203
40
0.220632818543845
40
0.220632818543845
40
0.231570386189487
40
0.231570386189487
40
0.253445521480772
40
0.253445521480772
40
0.275320656772057
40
0.275320656772057
40
0.297195792063341
40
0.297195792063341
40
0.308133359708983
40
0.308133359708983
40
0.319070927354626
40
0.319070927354626
40
0.34094606264591
40
0.34094606264591
40
0.362821197937195
40
0.362821197937195
40
0.373758765582838
40
0.373758765582838
40
0.38469633322848
40
0.38469633322848
40
0.406571468519766
40
0.406571468519766
40
0.428446603811052
40
0.428446603811052
40
0.439384171456695
40
0.439384171456695
40
0.450321739102337
40
0.450321739102337
40
0.472196874393623
40
0.472196874393623
40
0.494072009684909
40
0.494072009684909
40
0.515947144976194
40
0.515947144976194
40
0.526884712621838
40
0.526884712621838
40
0.537822280267481
40
0.537822280267481
40
0.559697415558767
40
0.559697415558767
40
0.581572550850054
40
0.581572550850054
40
0.592510118495697
40
0.592510118495697
40
0.60344768614134
40
0.60344768614134
40
0.625322821432627
40
0.625322821432627
40
0.647197956723913
40
0.647197956723913
40
0.658135524369556
40
0.658135524369556
40
0.669073092015199
40
0.669073092015199
40
0.690948227306485
40
0.690948227306485
40
0.712823362597771
40
0.712823362597771
40
0.734698497889058
40
0.734698497889058
40
0.745636065534701
40
0.745636065534701
40
0.756573633180344
40
0.756573633180344
40
0.778448768471631
40
0.778448768471631
40
0.800323903762918
40
0.800323903762918
40
0.811261471408562
40
0.811261471408562
40
0.822199039054205
40
0.822199039054205
40
0.844074174345492
40
0.844074174345492
40
0.865949309636779
40
0.865949309636779
40
0.876886877282422
40
0.876886877282422
40
0.887824444928066
40
0.887824444928066
40
0.909699580219354
40
0.909699580219354
40
0.931574715510641
40
0.931574715510641
40
0.953449850801929
40
0.953449850801929
40
0.964387418447573
40
0.964387418447573
40
0.975324986093217
40
0.975324986093217
40
0.986262553738861
40
0.986262553738861
40
0.997200121384506
40
0.997200121384506
40
1
40
1
40
1
40
1
41
1
10
24.6783701499593
20
3.20156986298031
30
0
41
1
10
24.7106159701681
20
3.21709638339007
30
0
41
1
10
24.742859628598
20
3.23259211779279
30
0
41
1
10
24.9625165715362
20
3.33795862783668
30
0
41
1
10
25.1493578848634
20
3.42728191623678
30
0
41
1
10
25.7101325466222
20
3.69033836068624
30
0
41
1
10
26.0843161977963
20
3.85924861651785
30
0
41
1
10
26.8314874422883
20
4.18711049099923
30
0
41
1
10
27.2045214069802
20
4.34591714773342
30
0
41
1
10
27.9520337729923
20
4.64968445310754
30
0
41
1
10
28.3267197726479
20
4.79445364916242
30
0
41
1
10
28.8882611642339
20
5.00324188948733
30
0
41
1
10
29.0753234916657
20
5.07132505668855
30
0
41
1
10
29.4490547938455
20
5.20277839871508
30
0
41
1
10
29.6357481140539
20
5.26639670290859
30
0
41
1
10
30.1951046662255
20
5.45129992338818
30
0
41
1
10
30.5664863730129
20
5.56723510122697
30
0
41
1
10
31.3079762189482
20
5.78258119153247
30
0
41
1
10
31.6784255691598
20
5.88170678965909
30
0
41
1
10
32.4186013790223
20
6.06330347961682
30
0
41
1
10
32.7874349786467
20
6.14640399945677
30
0
41
1
10
33.5266602705507
20
6.29412358402726
30
0
41
1
10
33.8966118764392
20
6.35917331667116
30
0
41
1
10
34.6361276257455
20
6.47211098704247
30
0
41
1
10
35.0062476488708
20
6.5196447237104
30
0
41
1
10
35.5631053600887
20
6.57706953378928
30
0
41
1
10
35.7489525995287
20
6.59392567835255
30
0
41
1
10
36.1209459081073
20
6.62307840253041
30
0
41
1
10
36.3067972495187
20
6.63543625652426
30
0
41
1
10
36.8656306754501
20
6.66532392198428
30
0
41
1
10
37.2407111524724
20
6.67576195483835
30
0
41
1
10
37.9895616220384
20
6.67764426898862
30
0
41
1
10
38.3628978231752
20
6.66900187816776
30
0
41
1
10
39.1099877848251
20
6.6328640141694
30
0
41
1
10
39.4839126977468
20
6.6055283272307
30
0
41
1
10
40.0437668358209
20
6.55016242319533
30
0
41
1
10
40.2301335073124
20
6.52925044487418
30
0
41
1
10
40.6036683985752
20
6.48299878641387
30
0
41
1
10
40.7906604973967
20
6.4576062347457
30
0
41
1
10
41.3521163616113
20
6.37458428392148
30
0
41
1
10
41.7268432329975
20
6.30968671931788
30
0
41
1
10
42.4746698670332
20
6.16227243895204
30
0
41
1
10
42.8484709409388
20
6.08002626131099
30
0
41
1
10
43.4089325081483
20
5.94399071571971
30
0
41
1
10
43.5956206878617
20
5.89645896494062
30
0
41
1
10
43.9684754519528
20
5.79672470977155
30
0
41
1
10
44.155090164228
20
5.74491536242701
30
0
41
1
10
44.7154297537105
20
5.58368808334683
30
0
41
1
10
45.0895270625763
20
5.46839021005789
30
0
41
1
10
45.8377715732849
20
5.22088065114889
30
0
41
1
10
46.2121285034259
20
5.08935450111593
30
0
41
1
10
46.7715904304386
20
4.88319940763836
30
0
41
1
10
46.957843053585
20
4.81288749375651
30
0
41
1
10
47.3297213164893
20
4.66888310111671
30
0
41
1
10
47.5150257468188
20
4.59474789404058
30
0
41
1
10
48.0709924868185
20
4.36859993343322
30
0
41
1
10
48.4416721099119
20
4.21287085780284
30
0
41
1
10
49.18132794989
20
3.88911033307394
30
0
41
1
10
49.5503255444178
20
3.72104640119156
30
0
41
1
10
50.2891334496048
20
3.37634994839411
30
0
41
1
10
50.6590898256266
20
3.20001241167066
30
0
41
1
10
51.2133937543781
20
2.9271128431352
30
0
41
1
10
51.3979383166209
20
2.83453187078621
30
0
41
1
10
51.7679206777284
20
2.64838810737658
30
0
41
1
10
51.9531785450785
20
2.55452954759613
30
0
41
1
10
52.5095901360936
20
2.27033301118209
30
0
41
1
10
52.8808110787816
20
2.07635749734726
30
0
41
1
10
53.6253138830113
20
1.68181760206431
30
0
41
1
10
53.9993944346045
20
1.48177181341654
30
0
41
1
10
54.5613095460824
20
1.17859423402766
30
0
41
1
10
54.7484147225579
20
1.07709890675395
30
0
41
1
10
55.1217017910313
20
0.87228367434804
30
0
41
1
10
55.3083933780621
20
0.769889013761855
30
0
41
1
10
55.8686129517739
20
0.462749101268599
30
0
41
1
10
56.24217886032
20
0.257855041747376
30
0
41
1
10
56.988285548424
20
-0.154384603911836
30
0
41
1
10
57.3613999177401
20
-0.360686659318048
30
0
41
1
10
57.922368360845
20
-0.66820945425053
30
0
41
1
10
58.1095201787118
20
-0.770493437542854
30
0
41
1
10
58.4839824731592
20
-0.974918898398812
30
0
41
1
10
58.6709577741166
20
-1.07760390368762
30
0
41
1
10
59.2315935439126
20
-1.38310417192918
30
0
41
1
10
59.6055992656019
20
-1.58333576044467
30
0
41
1
10
60.3522988835658
20
-1.98024371848885
30
0
41
1
10
60.7249775018281
20
-2.17690839743611
30
0
41
1
10
61.4715862698853
20
-2.56216458714175
30
0
41
1
10
61.8456846358741
20
-2.7505106724162
30
0
41
1
10
62.4064237813821
20
-3.02924007152913
30
0
41
1
10
62.5933576454777
20
-3.12170907650909
30
0
41
1
10
62.9673875816212
20
-3.30307183246447
30
0
41
1
10
63.1542059318076
20
-3.39221046798366
30
0
41
1
10
63.7139008981358
20
-3.6553938063781
30
0
41
1
10
64.0854504469123
20
-3.82610959851621
30
0
41
1
10
64.8270106243806
20
-4.15555220504729
30
0
41
1
10
65.1973907099703
20
-4.31375676391048
30
0
41
1
10
65.7523313303687
20
-4.54154358762466
30
0
41
1
10
65.9371561332519
20
-4.6159574238041
30
0
41
1
10
66.3060428287461
20
-4.76230587114316
30
0
41
1
10
66.4905893839318
20
-4.8335952079868
30
0
41
1
10
67.0445184538481
20
-5.04191978008359
30
0
41
1
10
67.4141043038478
20
-5.17355515478141
30
0
41
1
10
68.1526751621932
20
-5.4236577761377
30
0
41
1
10
68.5222039649304
20
-5.54144937852638
30
0
41
1
10
69.0780705034792
20
-5.70597830615347
30
0
41
1
10
69.2635718091292
20
-5.75885252671816
30
0
41
1
10
69.6348420315404
20
-5.86079156240507
30
0
41
1
10
69.8203458512788
20
-5.91009357520983
30
0
41
1
10
70.3778894698009
20
-6.05158865979962
30
0
41
1
10
70.7513984624439
20
-6.1370995541163
30
0
41
1
10
71.500327295065
20
-6.2916336599742
30
0
41
1
10
71.8735724239444
20
-6.36019804126306
30
0
41
1
10
72.6202816672021
20
-6.47842709673881
30
0
41
1
10
72.9938730321154
20
-6.52814485042867
30
0
41
1
10
73.5533554116608
20
-6.58917746069537
30
0
41
1
10
73.7394884524149
20
-6.60730326565326
30
0
41
1
10
74.1125522046466
20
-6.63862590338638
30
0
41
1
10
74.2992869141835
20
-6.65189869159914
30
0
41
1
10
74.6730617746625
20
-6.67372651592322
30
0
41
1
10
74.8600342320187
20
-6.68229558371567
30
0
41
1
10
75.2339783114196
20
-6.69470789453626
30
0
41
1
10
75.4211485682156
20
-6.69853516390603
30
0
41
1
10
75.6557205334461
20
-6.70031888223457
30
0
41
1
10
75.7035141821752
20
-6.70052568460005
30
0
41
1
10
75.7512926220287
20
-6.70057631322186
30
0
0
SPLINE
5
CB
100
AcDbEntity
8
1
62
256
6
ByLayer
370
18
48
1
60
0
100
AcDbSpline
70
4
71
3
72
120
73
116
40
0
40
0
40
0
40
0
40
0.0077724797806327
40
0.0077724797806327
40
0.0296103950751315
40
0.0296103950751315
40
0.0405293527223817
40
0.0405293527223817
40
0.0514483103696315
40
0.0514483103696315
40
0.0732862256641303
40
0.0732862256641303
40
0.0951241409586291
40
0.0951241409586291
40
0.116962056253128
40
0.116962056253128
40
0.127881013900377
40
0.127881013900377
40
0.138799971547625
40
0.138799971547625
40
0.160637886842122
40
0.160637886842122
40
0.182475802136618
40
0.182475802136618
40
0.193394759783866
40
0.193394759783866
40
0.204313717431115
40
0.204313717431115
40
0.226151632725612
40
0.226151632725612
40
0.24798954802011
40
0.24798954802011
40
0.258908505667358
40
0.258908505667358
40
0.269827463314606
40
0.269827463314606
40
0.291665378609101
40
0.291665378609101
40
0.313503293903596
40
0.313503293903596
40
0.335341209198091
40
0.335341209198091
40
0.346260166845339
40
0.346260166845339
40
0.357179124492586
40
0.357179124492586
40
0.37901703978708
40
0.37901703978708
40
0.400854955081574
40
0.400854955081574
40
0.411773912728822
40
0.411773912728822
40
0.422692870376069
40
0.422692870376069
40
0.444530785670564
40
0.444530785670564
40
0.466368700965059
40
0.466368700965059
40
0.477287658612307
40
0.477287658612307
40
0.488206616259554
40
0.488206616259554
40
0.510044531554051
40
0.510044531554051
40
0.531882446848547
40
0.531882446848547
40
0.553720362143044
40
0.553720362143044
40
0.564639319790291
40
0.564639319790291
40
0.575558277437539
40
0.575558277437539
40
0.619234108026531
40
0.619234108026531
40
0.630153065673779
40
0.630153065673779
40
0.641072023321027
40
0.641072023321027
40
0.662909938615524
40
0.662909938615524
40
0.68474785391002
40
0.68474785391002
40
0.706585769204516
40
0.706585769204516
40
0.728423684499013
40
0.728423684499013
40
0.750261599793509
40
0.750261599793509
40
0.772099515088005
40
0.772099515088005
40
0.783018472735253
40
0.783018472735253
40
0.7939374303825
40
0.7939374303825
40
0.815775345676995
40
0.815775345676995
40
0.83761326097149
40
0.83761326097149
40
0.848532218618738
40
0.848532218618738
40
0.859451176265986
40
0.859451176265986
40
0.881289091560479
40
0.881289091560479
40
0.903127006854973
40
0.903127006854973
40
0.924964922149467
40
0.924964922149467
40
0.946802837443961
40
0.946802837443961
40
0.968640752738455
40
0.968640752738455
40
0.990478668032949
40
0.990478668032949
40
1
40
1
40
1
40
1
41
1
10
100.852086366123
20
3.20696792122888
30
0
41
1
10
100.985215391985
20
3.27165084596089
30
0
41
1
10
101.118299173463
20
3.33579648967952
30
0
41
1
10
101.624465125909
20
3.57808031628744
30
0
41
1
10
101.997128830374
20
3.75189398848627
30
0
41
1
10
102.556617336082
20
4.0032089589607
30
0
41
1
10
102.743151006926
20
4.0854861123068
30
0
41
1
10
103.116127733794
20
4.24729329810563
30
0
41
1
10
103.302379546001
20
4.3270900908592
30
0
41
1
10
103.86115353289
20
4.56206604932962
30
0
41
1
10
104.234740720188
20
4.71144518660316
30
0
41
1
10
104.98258926258
20
4.99768669052409
30
0
41
1
10
105.356146843125
20
5.134685050267
30
0
41
1
10
106.102471950158
20
5.39213582329791
30
0
41
1
10
106.47572659001
20
5.51273907629351
30
0
41
1
10
107.034955384032
20
5.6823676619492
30
0
41
1
10
107.220906662999
20
5.73734902074131
30
0
41
1
10
107.593529997155
20
5.84259338404593
30
0
41
1
10
107.78002822285
20
5.89303639370002
30
0
41
1
10
108.339991339739
20
6.03796549014578
30
0
41
1
10
108.713528585662
20
6.12655044603139
30
0
41
1
10
109.461021128439
20
6.28634076710227
30
0
41
1
10
109.83441943611
20
6.35700185517194
30
0
41
1
10
110.394238235016
20
6.4492600608985
30
0
41
1
10
110.580839986599
20
6.47771199508045
30
0
41
1
10
110.953122129868
20
6.53038775899347
30
0
41
1
10
111.139277032432
20
6.55437669115329
30
0
41
1
10
111.698360682062
20
6.61914074838336
30
0
41
1
10
112.07165883031
20
6.65288473374088
30
0
41
1
10
112.817862452203
20
6.70181536965507
30
0
41
1
10
113.191751754964
20
6.71679477408443
30
0
41
1
10
113.752367467411
20
6.72482585902918
30
0
41
1
10
113.939163434197
20
6.72511848585955
30
0
41
1
10
114.312438476789
20
6.72095357500197
30
0
41
1
10
114.498702963327
20
6.71647664932007
30
0
41
1
10
115.057302160934
20
6.69584319040297
30
0
41
1
10
115.430332737646
20
6.6726854173485
30
0
41
1
10
116.176129129778
20
6.60750851447236
30
0
41
1
10
116.548629492676
20
6.56529479962785
30
0
41
1
10
117.295565411337
20
6.46244185170229
30
0
41
1
10
117.670204907493
20
6.40190106430947
30
0
41
1
10
118.230115065647
20
6.2974671072927
30
0
41
1
10
118.416194811706
20
6.26013771230038
30
0
41
1
10
118.788878088122
20
6.18150182771097
30
0
41
1
10
118.975297029689
20
6.14008910972368
30
0
41
1
10
119.534686228632
20
6.00957509669061
30
0
41
1
10
119.907216582627
20
5.91374243206789
30
0
41
1
10
120.652559268716
20
5.70510634061583
30
0
41
1
10
121.025847915009
20
5.59275995392235
30
0
41
1
10
121.586900126594
20
5.41243840883919
30
0
41
1
10
121.774030164857
20
5.35043918237662
30
0
41
1
10
122.146965869244
20
5.22185632409978
30
0
41
1
10
122.333368807272
20
5.1557950164231
30
0
41
1
10
122.892825226208
20
4.95289809013644
30
0
41
1
10
123.26591844218
20
4.81115295697455
30
0
41
1
10
124.010855433733
20
4.51281685856301
30
0
41
1
10
124.383230370927
20
4.35685523845441
30
0
41
1
10
124.943035209261
20
4.11466522336372
30
0
41
1
10
125.129795803788
20
4.03250013616292
30
0
41
1
10
125.503469888002
20
3.86504649700299
30
0
41
1
10
125.690330603973
20
3.77932831051655
30
0
41
1
10
126.249863541408
20
3.518729124196
30
0
41
1
10
126.622351246101
20
3.34161948208586
30
0
41
1
10
127.364821259744
20
2.97843305441893
30
0
41
1
10
127.734568593723
20
2.79193336914713
30
0
41
1
10
128.473711060993
20
2.41359806660492
30
0
41
1
10
128.843179846991
20
2.22191461644326
30
0
41
1
10
129.39645040136
20
1.92929390592511
30
0
41
1
10
129.58037957305
20
1.83030130523875
30
0
41
1
10
129.94883921503
20
1.63221191008208
30
0
41
1
10
130.133200916754
20
1.53282108256909
30
0
41
1
10
131.055535051034
20
1.03392935427311
30
0
41
1
10
131.792696536835
20
0.624245874332303
30
0
41
1
10
132.719962112846
20
0.111052670749729
30
0
41
1
10
132.905713908468
20
0.0083827348270233
30
0
41
1
10
133.276948862954
20
-0.198688782748519
30
0
41
1
10
133.462761359584
20
-0.302469190200668
30
0
41
1
10
134.021805719582
20
-0.612587764189243
30
0
41
1
10
134.396546128388
20
-0.818573867444286
30
0
41
1
10
135.142464238083
20
-1.22877226846907
30
0
41
1
10
135.514772872359
20
-1.43246278189918
30
0
41
1
10
136.260099713389
20
-1.83351393827766
30
0
41
1
10
136.6328974712
20
-2.03128725172507
30
0
41
1
10
137.377310653186
20
-2.4237557730946
30
0
41
1
10
137.750608836551
20
-2.61557031939458
30
0
41
1
10
138.498033323978
20
-2.99269210065529
30
0
41
1
10
138.87115662606
20
-3.17826746911393
30
0
41
1
10
139.616752822606
20
-3.53792472959938
30
0
41
1
10
139.989645892923
20
-3.71209849329887
30
0
41
1
10
140.548474556188
20
-3.96592879790305
30
0
41
1
10
140.734295680873
20
-4.04982893369362
30
0
41
1
10
141.106602721688
20
-4.21389369153482
30
0
41
1
10
141.292950273536
20
-4.29426915084863
30
0
41
1
10
141.852500076705
20
-4.53057014180942
30
0
41
1
10
142.226111141614
20
-4.68255544504279
30
0
41
1
10
142.972473228204
20
-4.97315015949621
30
0
41
1
10
143.344592553562
20
-5.11067353216649
30
0
41
1
10
143.901549398847
20
-5.30523440488957
30
0
41
1
10
144.087048389524
20
-5.36808496456851
30
0
41
1
10
144.456861250561
20
-5.49074570555735
30
0
41
1
10
144.641501272928
20
-5.55017348456383
30
0
41
1
10
145.195667214657
20
-5.72172461415408
30
0
41
1
10
145.565071096424
20
-5.82758711497209
30
0
41
1
10
146.302132875115
20
-6.02397040280104
30
0
41
1
10
146.670234545296
20
-6.11400916652684
30
0
41
1
10
147.407566765744
20
-6.27632190386012
30
0
41
1
10
147.77672847535
20
-6.34874893685415
30
0
41
1
10
148.513968219573
20
-6.47711803972263
30
0
41
1
10
148.883857144999
20
-6.5319974995266
30
0
41
1
10
149.625058926893
20
-6.62382796184644
30
0
41
1
10
149.995898527318
20
-6.66087976701095
30
0
41
1
10
150.740639060969
20
-6.71595919564476
30
0
41
1
10
151.11518198993
20
-6.73402164885297
30
0
41
1
10
151.650434329807
20
-6.7462331527899
30
0
41
1
10
151.812478747166
20
-6.74813707461604
30
0
41
1
10
151.974473059436
20
-6.74821616638226
30
0
0
SPLINE
5
CC
100
AcDbEntity
8
1
62
256
6
ByLayer
370
18
48
1
60
0
100
AcDbSpline
70
4
71
3
72
14
73
10
40
0
40
0
40
0
40
0
40
0.510982893336932
40
0.510982893336932
40
0.766474340005398
40
0.766474340005398
40
0.894220063339631
40
0.894220063339631
40
1
40
1
40
1
40
1
41
1
10
154.730692824893
20
-6.36322036586901
30
0
41
1
10
153.196482384041
20
-6.41879940425326
30
0
41
1
10
151.682055454486
20
-6.31974404468039
30
0
41
1
10
149.406982081536
20
-5.95738195726781
30
0
41
1
10
148.648034084543
20
-5.80077353462963
30
0
41
1
10
147.504277939906
20
-5.51471345976046
30
0
41
1
10
147.122158609923
20
-5.41081702990647
30
0
41
1
10
146.421349386476
20
-5.20572717545755
30
0
41
1
10
146.102725269871
20
-5.10701849504767
30
0
41
1
10
145.785191147378
20
-5.00352664121755
30
0
0
SPLINE
5
CD
100
AcDbEntity
8
1
62
256
6
ByLayer
370
13
48
1
60
0
100
AcDbSpline
70
4
71
3
72
22
73
18
40
0
40
0
40
0
40
0
40
0.0134398830338801
40
0.0134398830338801
40
0.326087688720187
40
0.326087688720187
40
0.638735494406493
40
0.638735494406493
40
0.67781647011728
40
0.67781647011728
40
0.716897445828067
40
0.716897445828067
40
0.79505939724964
40
0.79505939724964
40
0.951383300092786
40
0.951383300092786
40
1
40
1
40
1
40
1
41
1
10
145.785191012432
20
-5.00352659723524
30
0
41
1
10
145.719253347393
20
-4.98203595794732
30
0
41
1
10
145.653362683733
20
-4.96033906463123
30
0
41
1
10
144.056311421591
20
-4.42913276246185
30
0
41
1
10
142.546693066973
20
-3.80919002301351
30
0
41
1
10
139.524867060738
20
-2.42403984945747
30
0
41
1
10
138.012999581326
20
-1.65821156715555
30
0
41
1
10
136.285182884469
20
-0.759327286979556
30
0
41
1
10
136.092734044341
20
-0.658880876931732
30
0
41
1
10
135.708958321561
20
-0.458151076167923
30
0
41
1
10
135.517393816677
20
-0.357745316889719
30
0
41
1
10
134.943522401401
20
-0.0566860009052164
30
0
41
1
10
134.562030627396
20
0.143794346156199
30
0
41
1
10
133.41973833161
20
0.742460551735206
30
0
41
1
10
132.661153779939
20
1.13794810580043
30
0
41
1
10
131.666702675017
20
1.64447081610823
30
0
41
1
10
131.430804777333
20
1.76375695245693
30
0
41
1
10
131.19482904157
20
1.88200680415778
30
0
0
SPLINE
5
CE
100
AcDbEntity
8
1
62
256
6
ByLayer
370
18
48
1
60
0
100
AcDbSpline
70
4
71
3
72
18
73
14
40
0
40
0
40
0
40
0
40
0.0895698800447095
40
0.0895698800447095
40
0.667437772839447
40
0.667437772839447
40
0.81190474603813
40
0.81190474603813
40
0.88413823263747
40
0.88413823263747
40
0.95637171923681
40
0.95637171923681
40
1
40
1
40
1
40
1
41
1
10
77.6641463877974
20
-6.33016452426429
30
0
41
1
10
77.42716131152
20
-6.32979528910093
30
0
41
1
10
77.1905268552341
20
-6.32580259680671
30
0
41
1
10
75.4292281127744
20
-6.26921695241893
30
0
41
1
10
73.915563987286
20
-6.07039921615038
30
0
41
1
10
72.0091776423901
20
-5.64872545915844
30
0
41
1
10
71.6271824595452
20
-5.55569311736227
30
0
41
1
10
71.0525581406783
20
-5.40350925430127
30
0
41
1
10
70.8607443812741
20
-5.35067437534718
30
0
41
1
10
70.4764722479246
20
-5.24086791053375
30
0
41
1
10
70.2837851119052
20
-5.18382483323995
30
0
41
1
10
69.9753223963698
20
-5.0893747983524
30
0
41
1
10
69.8592882217525
20
-5.05314173806076
30
0
41
1
10
69.7433630725588
20
-5.01625683770129
30
0
0
SPLINE
5
CF
100
AcDbEntity
8
1
62
256
6
ByLayer
370
13
48
1
60
0
100
AcDbSpline
70
4
71
3
72
18
73
14
40
0
40
0
40
0
40
0
40
0.130676057071511
40
0.130676057071511
40
0.438510356457636
40
0.438510356457636
40
0.515468931304167
40
0.515468931304167
40
0.592427506150698
40
0.592427506150698
40
0.74634465584376
40
0.74634465584376
40
1
40
1
40
1
40
1
41
1
10
69.7433630731465
20
-5.01625683788831
30
0
41
1
10
69.0915588902202
20
-4.80886670290192
30
0
41
1
10
68.4432014331523
20
-4.58086931923901
30
0
41
1
10
66.2731940412663
20
-3.75594594810431
30
0
41
1
10
64.7589121843334
20
-3.07802957000868
30
0
41
1
10
62.8495165268492
20
-2.15282003400034
30
0
41
1
10
62.4667818291698
20
-1.96393053147219
30
0
41
1
10
61.6988719206179
20
-1.57968562238491
30
0
41
1
10
61.3131081987249
20
-1.38396166060184
30
0
41
1
10
60.1616806167615
20
-0.794420259109046
30
0
41
1
10
59.3987509382675
20
-0.396948521049438
30
0
41
1
10
57.3836346991863
20
0.653140115110034
30
0
41
1
10
56.1345464380999
20
1.30368325569432
30
0
41
1
10
54.8778680673858
20
1.92671764309557
30
0
0
SPLINE
5
D0
100
AcDbEntity
8
1
62
256
6
ByLayer
370
18
48
1
60
0
100
AcDbSpline
70
4
71
3
72
12
73
8
40
0
40
0
40
0
40
0
40
0.5
40
0.5
40
0.75
40
0.75
40
1
40
1
40
1
40
1
41
1
10
150.870825681444
20
-2.74508947952663
30
0
41
1
10
151.2881665935
20
-3.14076854846442
30
0
41
1
10
151.727601136036
20
-3.49634022830523
30
0
41
1
10
152.412501768693
20
-3.98295495957513
30
0
41
1
10
152.644056357637
20
-4.13642954899052
30
0
41
1
10
153.110872629863
20
-4.42652331383545
30
0
41
1
10
153.346482089512
20
-4.56338287795879
30
0
41
1
10
153.584097582395
20
-4.69278146130117
30
0
0
SPLINE
5
D1
100
AcDbEntity
8
1
62
256
6
ByLayer
370
18
48
1
60
0
100
AcDbSpline
70
4
71
3
72
52
73
48
40
0
40
0
40
0
40
0
40
0.0585651715795739
40
0.0585651715795739
40
0.117130343159148
40
0.117130343159148
40
0.146412928948935
40
0.146412928948935
40
0.175695514738722
40
0.175695514738722
40
0.234260686318296
40
0.234260686318296
40
0.351391029477445
40
0.351391029477445
40
0.380673615267233
40
0.380673615267233
40
0.409956201057021
40
0.409956201057021
40
0.439238786846809
40
0.439238786846809
40
0.468521372636596
40
0.468521372636596
40
0.527086544216172
40
0.527086544216172
40
0.556369130005959
40
0.556369130005959
40
0.585651715795746
40
0.585651715795746
40
0.644216887375322
40
0.644216887375322
40
0.673499473165109
40
0.673499473165109
40
0.702782058954896
40
0.702782058954896
40
0.761347230534471
40
0.761347230534471
40
0.790629816324259
40
0.790629816324259
40
0.819912402114047
40
0.819912402114047
40
0.878477573693621
40
0.878477573693621
40
0.907760159483407
40
0.907760159483407
40
0.937042745273193
40
0.937042745273193
40
1
40
1
40
1
40
1
41
1
10
154.605193334788
20
-6.7299428411888
30
0
41
1
10
153.84058173371
20
-6.76217685728582
30
0
41
1
10
153.074301255196
20
-6.75398416139106
30
0
41
1
10
151.546621252818
20
-6.65772499632902
30
0
41
1
10
150.784296985788
20
-6.56978705215056
30
0
41
1
10
149.638171791225
20
-6.37990508785981
30
0
41
1
10
149.254996068862
20
-6.30678813482933
30
0
41
1
10
148.490694059433
20
-6.14239122043602
30
0
41
1
10
148.109871400715
20
-6.05122918666376
30
0
41
1
10
146.970230226889
20
-5.75223329470123
30
0
41
1
10
146.214238054093
20
-5.51888049035995
30
0
41
1
10
143.948137898801
20
-4.72799679354605
30
0
41
1
10
142.440159264211
20
-4.07925423106997
30
0
41
1
10
140.527296382447
20
-3.1551126931661
30
0
41
1
10
140.144378675621
20
-2.96515387703639
30
0
41
1
10
139.380303730173
20
-2.57789642445638
30
0
41
1
10
138.998648045693
20
-2.38036458768454
30
0
41
1
10
138.235345530154
20
-1.9787832387162
30
0
41
1
10
137.853687599641
20
-1.7747519311433
30
0
41
1
10
137.089518060282
20
-1.36164961007424
30
0
41
1
10
136.706592420764
20
-1.15236403140406
30
0
41
1
10
135.558332554989
20
-0.520598385030041
30
0
41
1
10
134.795450899502
20
-0.0952240329117444
30
0
41
1
10
133.650119058662
20
0.540185101480574
30
0
41
1
10
133.26818818114
20
0.75157258588294
30
0
41
1
10
132.503221999673
20
1.17207448807321
30
0
41
1
10
132.119927611821
20
1.38129776938626
30
0
41
1
10
130.972843104077
20
2.00022412414034
30
0
41
1
10
130.210129467104
20
2.40225778344617
30
0
41
1
10
129.064181738932
20
2.98113777073198
30
0
41
1
10
128.681898207397
20
3.17009013809033
30
0
41
1
10
127.915924461926
20
3.53861924656172
30
0
41
1
10
127.533327692916
20
3.71764441463284
30
0
41
1
10
126.387074408154
20
4.23655025976899
30
0
41
1
10
125.624294875125
20
4.55861345438728
30
0
41
1
10
124.477437597207
20
4.9992970690285
30
0
41
1
10
124.094205818164
20
5.13926643965524
30
0
41
1
10
123.328781772646
20
5.40303854456124
30
0
41
1
10
122.94666857345
20
5.52682521191102
30
0
41
1
10
121.800898930749
20
5.87276273595344
30
0
41
1
10
121.037860428089
20
6.0695368897228
30
0
41
1
10
119.889740184683
20
6.30958804587905
30
0
41
1
10
119.506443467702
20
6.3803493665695
30
0
41
1
10
118.743667480238
20
6.50205275998533
30
0
41
1
10
118.363467368943
20
6.55316077161694
30
0
41
1
10
117.168270489712
20
6.68335382977102
30
0
41
1
10
116.356090538603
20
6.72700456192655
30
0
41
1
10
115.543687517906
20
6.72540343750862
30
0
0
SPLINE
5
D2
100
AcDbEntity
8
1
62
256
6
ByLayer
370
18
48
1
60
0
100
AcDbSpline
70
4
71
3
72
52
73
48
40
0
40
0
40
0
40
0
40
0.0543998867496793
40
0.0543998867496793
40
0.108854220967433
40
0.108854220967433
40
0.163308555185186
40
0.163308555185186
40
0.190535722294063
40
0.190535722294063
40
0.21776288940294
40
0.21776288940294
40
0.272217223620693
40
0.272217223620693
40
0.299444390729569
40
0.299444390729569
40
0.326671557838445
40
0.326671557838445
40
0.43558022627395
40
0.43558022627395
40
0.462807393382826
40
0.462807393382826
40
0.490034560491703
40
0.490034560491703
40
0.544488894709455
40
0.544488894709455
40
0.571716061818331
40
0.571716061818331
40
0.598943228927208
40
0.598943228927208
40
0.65339756314496
40
0.65339756314496
40
0.762306231580463
40
0.762306231580463
40
0.789533398689339
40
0.789533398689339
40
0.816760565798215
40
0.816760565798215
40
0.871214900015967
40
0.871214900015967
40
0.898442067124843
40
0.898442067124843
40
0.925669234233719
40
0.925669234233719
40
0.980123568451469
40
0.980123568451469
40
1
40
1
40
1
40
1
41
1
10
81.3807239249822
20
-6.35908139369801
30
0
41
1
10
80.6159531754844
20
-6.49248852097753
30
0
41
1
10
79.8531897206472
20
-6.58761483981706
30
0
41
1
10
78.3242964012357
20
-6.69891888916968
30
0
41
1
10
77.5567061552188
20
-6.71486642921218
30
0
41
1
10
76.0267022851129
20
-6.66644282139677
30
0
41
1
10
75.263112017349
20
-6.60233355686469
30
0
41
1
10
74.114965384504
20
-6.44758832358673
30
0
41
1
10
73.7313435560021
20
-6.38613138051781
30
0
41
1
10
72.9650734310381
20
-6.24447659183537
30
0
41
1
10
72.5825448070188
20
-6.16430979925218
30
0
41
1
10
71.4355699632764
20
-5.89679437967865
30
0
41
1
10
70.6716712062306
20
-5.68248438292329
30
0
41
1
10
69.52231284269
20
-5.31103972120431
30
0
41
1
10
69.1386081569972
20
-5.17884406074512
30
0
41
1
10
68.3749272315653
20
-4.90090577385379
30
0
41
1
10
67.9942806453725
20
-4.75486767929627
30
0
41
1
10
66.0950460953499
20
-3.992336043065
30
0
41
1
10
64.5879685969217
20
-3.27944738042319
30
0
41
1
10
62.6892617606882
20
-2.30709325267921
30
0
41
1
10
62.3087428592265
20
-2.10862401019929
30
0
41
1
10
61.5454368989766
20
-1.70481239873016
30
0
41
1
10
61.1620185975748
20
-1.49905069809597
30
0
41
1
10
60.0120650150562
20
-0.876335962872616
30
0
41
1
10
59.2479303090482
20
-0.45499475762935
30
0
41
1
10
58.1008240423137
20
0.177840121687041
30
0
41
1
10
57.718278657946
20
0.388874978923411
30
0
41
1
10
56.9520764760491
20
0.809743852427061
30
0
41
1
10
56.5680276836268
20
1.0197866539464
30
0
41
1
10
55.4215490148605
20
1.64135808103112
30
0
41
1
10
54.6620050200484
20
2.04547913560447
30
0
41
1
10
52.3887847004558
20
3.21238350417144
30
0
41
1
10
50.8802519019048
20
3.92917920248891
30
0
41
1
10
48.9729508412144
20
4.69925439854327
30
0
41
1
10
48.5899850092272
20
4.84710136848207
30
0
41
1
10
47.8227847583231
20
5.128122966489
30
0
41
1
10
47.4398730958556
20
5.26089106245163
30
0
41
1
10
46.292004194947
20
5.63477384479316
30
0
41
1
10
45.5279179903312
20
5.85146270075629
30
0
41
1
10
44.3786961929187
20
6.12296292642924
30
0
41
1
10
43.9944229102112
20
6.20462713358333
30
0
41
1
10
43.2291895709609
20
6.34848816742971
30
0
41
1
10
42.8479203910311
20
6.41085138840867
30
0
41
1
10
41.7066593819855
20
6.56886582528674
30
0
41
1
10
40.9491556976571
20
6.63546625841616
30
0
41
1
10
39.9158848770591
20
6.67322645051868
30
0
41
1
10
39.639635923853
20
6.6781278480301
30
0
41
1
10
39.3632915600532
20
6.67782774631044
30
0
0
SPLINE
5
D3
100
AcDbEntity
8
1
62
256
6
ByLayer
370
18
48
1
60
0
100
AcDbSpline
70
4
71
3
72
14
73
10
40
0
40
0
40
0
40
0
40
0.25
40
0.25
40
0.5
40
0.5
40
0.75
40
0.75
40
1
40
1
40
1
40
1
41
1
10
154.501435033063
20
1.54434437721156
30
0
41
1
10
154.497676757089
20
1.55946023569049
30
0
41
1
10
154.496621760764
20
1.57538332409936
30
0
41
1
10
154.503285474199
20
1.60553338541916
30
0
41
1
10
154.511432261912
20
1.61975914374187
30
0
41
1
10
154.534745572912
20
1.64086193375971
30
0
41
1
10
154.549241346858
20
1.64774072143894
30
0
41
1
10
154.579184246487
20
1.65593608865856
30
0
41
1
10
154.594880651202
20
1.65740499239766
30
0
41
1
10
154.610471170966
20
1.65713466819503
30
0
0
SPLINE
5
D4
100
AcDbEntity
8
1
62
256
6
ByLayer
370
18
48
1
60
0
100
AcDbSpline
70
4
71
3
72
8
73
4
40
0
40
0
40
0
40
0
40
1
40
1
40
1
40
1
41
1
10
154.613106385509
20
-6.37149416534518
30
0
41
1
10
154.627543953976
20
-6.37649837544771
30
0
41
1
10
154.64289428078
20
-6.37886485292719
30
0
41
1
10
154.659176029966
20
-6.37861795414025
30
0
0
SPLINE
5
D5
100
AcDbEntity
8
1
62
256
6
ByLayer
370
18
48
1
60
0
100
AcDbSpline
70
4
71
3
72
12
73
8
40
0
40
0
40
0
40
0
40
0.250000000000001
40
0.250000000000001
40
0.500000000000003
40
0.500000000000003
40
1
40
1
40
1
40
1
41
1
10
154.827460581411
20
6.56376574948379
30
0
41
1
10
154.991013401082
20
6.15567582671741
30
0
41
1
10
155.154389930272
20
5.74711807929853
30
0
41
1
10
155.480302163891
20
4.92885205774076
30
0
41
1
10
155.642926780704
20
4.51922264679285
30
0
41
1
10
156.128432989609
20
3.28796553191594
30
0
41
1
10
156.44900447769
20
2.46415496986799
30
0
41
1
10
156.764035338083
20
1.63903733669085
30
0
0
SPLINE
5
D6
100
AcDbEntity
8
1
62
256
6
ByLayer
370
18
48
1
60
0
100
AcDbSpline
70
4
71
3
72
8
73
4
40
0
40
0
40
0
40
0
40
1
40
1
40
1
40
1
41
1
10
154.605193334788
20
6.7299428411888
30
0
41
1
10
154.293100246473
20
6.74309986577268
30
0
41
1
10
153.980689822637
20
6.74954602987623
30
0
41
1
10
153.668300948412
20
6.74927399706422
30
0
0
SPLINE
5
D7
100
AcDbEntity
8
1
62
256
6
ByLayer
370
18
48
1
60
0
100
AcDbSpline
70
4
71
3
72
54
73
50
40
0
40
0
40
0
40
0
40
0.0083218843748073
40
0.0083218843748073
40
0.0355268140713794
40
0.0355268140713794
40
0.144346532857673
40
0.144346532857673
40
0.171551462554246
40
0.171551462554246
40
0.19875639225082
40
0.19875639225082
40
0.253166251643965
40
0.253166251643965
40
0.280371181340537
40
0.280371181340537
40
0.307576111037109
40
0.307576111037109
40
0.361985970430254
40
0.361985970430254
40
0.470805689216545
40
0.470805689216545
40
0.498010618913117
40
0.498010618913117
40
0.525215548609689
40
0.525215548609689
40
0.579625408002833
40
0.579625408002833
40
0.606830337699405
40
0.606830337699405
40
0.634035267395977
40
0.634035267395977
40
0.688445126789121
40
0.688445126789121
40
0.742854986182264
40
0.742854986182264
40
0.770059915878835
40
0.770059915878835
40
0.797264845575406
40
0.797264845575406
40
0.851674704968549
40
0.851674704968549
40
0.87887963466512
40
0.87887963466512
40
0.906084564361691
40
0.906084564361691
40
0.960494423754832
40
0.960494423754832
40
1
40
1
40
1
40
1
41
1
10
119.520729934311
20
-6.37464658595178
30
0
41
1
10
119.403804365783
20
-6.39532131119299
30
0
41
1
10
119.286991921081
20
-6.41508737577274
30
0
41
1
10
118.789028948997
20
-6.49552637610202
30
0
41
1
10
118.408859388633
20
-6.54739727696079
30
0
41
1
10
116.511693582543
20
-6.75791952097811
30
0
41
1
10
115.005784097649
20
-6.76999573663809
30
0
41
1
10
113.107490916064
20
-6.5886642470665
30
0
41
1
10
112.727010381469
20
-6.54259390765114
30
0
41
1
10
111.963680873948
20
-6.43083374753493
30
0
41
1
10
111.580114988465
20
-6.36497585347706
30
0
41
1
10
110.431349975186
20
-6.13948540112841
30
0
41
1
10
109.66785902144
20
-5.95202733645647
30
0
41
1
10
108.521361816939
20
-5.61929781227641
30
0
41
1
10
108.138980377782
20
-5.49980430371738
30
0
41
1
10
107.372998643002
20
-5.24434632850736
30
0
41
1
10
106.989475575362
20
-5.10841265357524
30
0
41
1
10
105.844607245831
20
-4.6805524589717
30
0
41
1
10
105.086109892159
20
-4.36753563142054
30
0
41
1
10
102.815003825786
20
-3.36042019302391
30
0
41
1
10
101.307345233556
20
-2.59735268779468
30
0
41
1
10
99.3994599353639
20
-1.57864132777348
30
0
41
1
10
99.016044170308
20
-1.37122592614767
30
0
41
1
10
98.2497868504124
20
-0.953275046452859
30
0
41
1
10
97.8672659297804
20
-0.742951101076613
30
0
41
1
10
96.7204092736442
20
-0.109961273063021
30
0
41
1
10
95.9567618429157
20
0.314690903190012
30
0
41
1
10
94.8077449076452
20
0.946705985307204
30
0
41
1
10
94.4240060311736
20
1.15669932135066
30
0
41
1
10
93.6584255695734
20
1.57150625317641
30
0
41
1
10
93.2760974483168
20
1.77655064794817
30
0
41
1
10
92.1293707097032
20
2.38266565030722
30
0
41
1
10
91.3652937925885
20
2.77481917692847
30
0
41
1
10
89.8311903178883
20
3.52367620908146
30
0
41
1
10
89.0667532900331
20
3.87799691476056
30
0
41
1
10
87.9199579896926
20
4.37163574289141
30
0
41
1
10
87.5376037837206
20
4.52988610745331
30
0
41
1
10
86.7720328225593
20
4.83281434867033
30
0
41
1
10
86.3883129091743
20
4.97763475562968
30
0
41
1
10
85.2388016688207
20
5.38830791504751
30
0
41
1
10
84.4748738184786
20
5.63058964752031
30
0
41
1
10
83.3276696722916
20
5.94196436936909
30
0
41
1
10
82.9450600228805
20
6.03709505018273
30
0
41
1
10
82.1786575677021
20
6.20929417915744
30
0
41
1
10
81.7948996930685
20
6.28629279651574
30
0
41
1
10
80.6464041745626
20
6.48819195916516
30
0
41
1
10
79.8825898685545
20
6.58448359090394
30
0
41
1
10
78.5616319157542
20
6.68232932999243
30
0
41
1
10
78.004588859563
20
6.70251968221484
30
0
41
1
10
77.4482132816582
20
6.70158502797119
30
0
0
SPLINE
5
D8
100
AcDbEntity
8
1
62
256
6
ByLayer
370
18
48
1
60
0
100
AcDbSpline
70
4
71
3
72
44
73
40
40
0
40
0
40
0
40
0
40
0.0229284859511524
40
0.0229284859511524
40
0.0880665868877419
40
0.0880665868877419
40
0.153204687824331
40
0.153204687824331
40
0.185773738292627
40
0.185773738292627
40
0.218342788760921
40
0.218342788760921
40
0.283480889697512
40
0.283480889697512
40
0.316049940165807
40
0.316049940165807
40
0.348618990634102
40
0.348618990634102
40
0.478895192507282
40
0.478895192507282
40
0.544033293443872
40
0.544033293443872
40
0.576602343912167
40
0.576602343912167
40
0.609171394380462
40
0.609171394380462
40
0.674309495317053
40
0.674309495317053
40
0.706878545785348
40
0.706878545785348
40
0.739447596253643
40
0.739447596253643
40
0.804585697190233
40
0.804585697190233
40
0.837154747658528
40
0.837154747658528
40
0.869723798126822
40
0.869723798126822
40
1
40
1
40
1
40
1
41
1
10
43.2856361244452
20
-6.33561121278134
30
0
41
1
10
43.0168854741073
20
-6.38239433763439
30
0
41
1
10
42.7487058980605
20
-6.42442589719849
30
0
41
1
10
41.720178532004
20
-6.56743994668463
30
0
41
1
10
40.9625796138066
20
-6.63452055203783
30
0
41
1
10
39.4480821833947
20
-6.69076929363453
30
0
41
1
10
38.6909709747928
20
-6.67990107953787
30
0
41
1
10
37.5512169473874
20
-6.60474640310119
30
0
41
1
10
37.1705742496247
20
-6.56989192032145
30
0
41
1
10
36.4070678643744
20
-6.48055515654153
30
0
41
1
10
36.0238146727958
20
-6.4260007795846
30
0
41
1
10
34.872285589172
20
-6.23324547880912
30
0
41
1
10
34.1072676749791
20
-6.06702660319061
30
0
41
1
10
32.9591306629228
20
-5.76495705744625
30
0
41
1
10
32.5762760476808
20
-5.65551341818468
30
0
41
1
10
31.809582310141
20
-5.4197061890292
30
0
41
1
10
31.4251031452342
20
-5.29306325234384
30
0
41
1
10
29.51074178044
20
-4.62423258057902
30
0
41
1
10
27.999576595316
20
-3.97306857571999
30
0
41
1
10
25.7259660306637
20
-2.87989119387899
30
0
41
1
10
24.9669512537288
20
-2.49612738206864
30
0
41
1
10
23.8222213964297
20
-1.89850833123683
30
0
41
1
10
23.4396336385566
20
-1.69559603525968
30
0
41
1
10
22.671618428274
20
-1.28365064824996
30
0
41
1
10
22.2881952512063
20
-1.07574632918522
30
0
41
1
10
21.1390235150099
20
-0.44915960765789
30
0
41
1
10
20.3740651085682
20
-0.0274076029411674
30
0
41
1
10
19.2239631883049
20
0.603221987012574
30
0
41
1
10
18.8397313652079
20
0.813477960283933
30
0
41
1
10
18.0723067202412
20
1.23034381473761
30
0
41
1
10
17.6892011629939
20
1.43689951638956
30
0
41
1
10
16.5404128091562
20
2.04867186721216
30
0
41
1
10
15.7752791560213
20
2.44603465277078
30
0
41
1
10
14.6240672214557
20
3.01833843706578
30
0
41
1
10
14.2396918170844
20
3.20514797721168
30
0
41
1
10
13.4739362905714
20
3.56717450933274
30
0
41
1
10
13.0919290779565
20
3.74269567485678
30
0
41
1
10
11.1842455241958
20
4.59008522215797
30
0
41
1
10
9.66541168991608
20
5.17100181504901
30
0
41
1
10
8.12963398527194
20
5.62216205505803
30
0
0
SPLINE
5
D9
100
AcDbEntity
8
1
62
256
6
ByLayer
370
18
48
1
60
0
100
AcDbSpline
70
4
71
3
72
10
73
6
40
0
40
0
40
0
40
0
40
0.5
40
0.5
40
1
40
1
40
1
40
1
41
1
10
156.975241052682
20
0.16017868991031
30
0
41
1
10
156.977196514345
20
0.144396532005999
30
0
41
1
10
156.980474363379
20
0.126682183675399
30
0
41
1
10
156.988908155229
20
0.0885060287262434
30
0
41
1
10
156.994081941906
20
0.0680977717850055
30
0
41
1
10
156.999958921044
20
0.0471986494480916
30
0
0
SPLINE
5
DA
100
AcDbEntity
8
1
62
256
6
ByLayer
370
18
48
1
60
0
100
AcDbSpline
70
4
71
3
72
8
73
4
40
0
40
0
40
0
40
0
40
1
40
1
40
1
40
1
41
1
10
156.764035338083
20
-1.63903733669034
30
0
41
1
10
156.843748935579
20
-1.14601330182577
30
0
41
1
10
156.914171392535
20
-0.653060262522814
30
0
41
1
10
156.975241052682
20
-0.160178689909969
30
0
0
SPLINE
5
DB
100
AcDbEntity
8
1
62
256
6
ByLayer
370
18
48
1
60
0
100
AcDbSpline
70
4
71
3
72
8
73
4
40
0
40
0
40
0
40
0
40
1
40
1
40
1
40
1
41
1
10
154.827460581411
20
-6.56376574948379
30
0
41
1
10
154.743014255573
20
-6.64672590305108
30
0
41
1
10
154.669139247299
20
-6.70239822491581
30
0
41
1
10
154.605193334788
20
-6.72994284118883
30
0
0
SPLINE
5
DC
100
AcDbEntity
8
1
62
256
6
ByLayer
370
18
48
1
60
0
100
AcDbSpline
70
4
71
3
72
20
73
16
40
0
40
0
40
0
40
0
40
0.250000000000005
40
0.250000000000005
40
0.375000000000004
40
0.375000000000004
40
0.500000000000004
40
0.500000000000004
40
0.749999999999999
40
0.749999999999999
40
0.812499999999999
40
0.812499999999999
40
0.874999999999999
40
0.874999999999999
40
1
40
1
40
1
40
1
41
1
10
154.613106385513
20
-6.37149416534177
30
0
41
1
10
154.474786545084
20
-6.35467418993321
30
0
41
1
10
154.346636488934
20
-6.30845925382962
30
0
41
1
10
154.171093959922
20
-6.19091723740408
30
0
41
1
10
154.115316426968
20
-6.14345523817067
30
0
41
1
10
154.011909891264
20
-6.03377069536282
30
0
41
1
10
153.963962774171
20
-5.97138553942682
30
0
41
1
10
153.831469441745
20
-5.76144163702281
30
0
41
1
10
153.758167752975
20
-5.59130228319137
30
0
41
1
10
153.686979505365
20
-5.33758394860374
30
0
41
1
10
153.673741171656
20
-5.28461959480103
30
0
41
1
10
153.649590654424
20
-5.17529693011392
30
0
41
1
10
153.638671337798
20
-5.1189551431703
30
0
41
1
10
153.609362973474
20
-4.94491493560594
30
0
41
1
10
153.594416567304
20
-4.82221176315267
30
0
41
1
10
153.584097582395
20
-4.69278146130117
30
0
0
SPLINE
5
DD
100
AcDbEntity
8
1
62
256
6
ByLayer
370
18
48
1
60
0
100
AcDbSpline
70
2053
71
3
72
70
73
66
40
0
40
0
40
0
40
0
40
0.0312500000000012
40
0.0312500000000012
40
0.0625000000000024
40
0.0625000000000024
40
0.0937500000000036
40
0.0937500000000036
40
0.125000000000005
40
0.125000000000005
40
0.140625000000004
40
0.140625000000004
40
0.156250000000004
40
0.156250000000004
40
0.187500000000003
40
0.187500000000003
40
0.218750000000002
40
0.218750000000002
40
0.250000000000001
40
0.250000000000001
40
0.312499999999998
40
0.312499999999998
40
0.374999999999996
40
0.374999999999996
40
0.406249999999998
40
0.406249999999998
40
0.437499999999999
40
0.437499999999999
40
0.468750000000001
40
0.468750000000001
40
0.500000000000002
40
0.500000000000002
40
0.531250000000004
40
0.531250000000004
40
0.562500000000005
40
0.562500000000005
40
0.593750000000007
40
0.593750000000007
40
0.609375000000007
40
0.609375000000007
40
0.625000000000008
40
0.625000000000008
40
0.656250000000007
40
0.656250000000007
40
0.671875000000007
40
0.671875000000007
40
0.687500000000007
40
0.687500000000007
40
0.718750000000007
40
0.718750000000007
40
0.750000000000008
40
0.750000000000008
40
0.781250000000008
40
0.781250000000008
40
0.812500000000008
40
0.812500000000008
40
0.875000000000009
40
0.875000000000009
40
0.906250000000007
40
0.906250000000007
40
0.937500000000005
40
0.937500000000005
40
0.968750000000002
40
0.968750000000002
40
1
40
1
40
1
40
1
41
1
10
155.363834012131
20
-3.86785898219367
30
0
41
1
10
155.398363079026
20
-3.81428908409387
30
0
41
1
10
155.431768169598
20
-3.75750816998962
30
0
41
1
10
155.496074393819
20
-3.63679290241532
30
0
41
1
10
155.527320330816
20
-3.572012674588
30
0
41
1
10
155.584217289351
20
-3.43930783745486
30
0
41
1
10
155.610181123797
20
-3.37084327877355
30
0
41
1
10
155.655389003243
20
-3.23131689753686
30
0
41
1
10
155.673801222457
20
-3.16291174195098
30
0
41
1
10
155.694883849048
20
-3.06242144759693
30
0
41
1
10
155.700842045416
20
-3.02900994372939
30
0
41
1
10
155.710138908508
20
-2.96490992008003
30
0
41
1
10
155.713525578684
20
-2.93408463841735
30
0
41
1
10
155.720060883295
20
-2.84512711850039
30
0
41
1
10
155.71947177557
20
-2.79011438642203
30
0
41
1
10
155.70944806291
20
-2.6943538338827
30
0
41
1
10
155.699974030937
20
-2.65245176191863
30
0
41
1
10
155.674050422337
20
-2.58234311612449
30
0
41
1
10
155.657699065672
20
-2.55394811815663
30
0
41
1
10
155.59977203521
20
-2.48619549302941
30
0
41
1
10
155.551670819836
20
-2.46602000545246
30
0
41
1
10
155.440836790195
20
-2.46519744496948
30
0
41
1
10
155.380110024622
20
-2.48481458460392
30
0
41
1
10
155.282352426221
20
-2.54153527710753
30
0
41
1
10
155.248981206899
20
-2.5649157436282
30
0
41
1
10
155.181541189195
20
-2.61987336119765
30
0
41
1
10
155.147341507963
20
-2.65152255302553
30
0
41
1
10
155.077922259772
20
-2.72368806000984
30
0
41
1
10
155.042428926321
20
-2.76458395173651
30
0
41
1
10
154.972449191197
20
-2.85381320378138
30
0
41
1
10
154.937800982273
20
-2.90224357179957
30
0
41
1
10
154.869274841275
20
-3.00770698138777
30
0
41
1
10
154.835144295383
20
-3.06527885894164
30
0
41
1
10
154.770582174329
20
-3.18590501880806
30
0
41
1
10
154.739847880967
20
-3.24932241099003
30
0
41
1
10
154.682153258953
20
-3.38362980993543
30
0
41
1
10
154.656349788744
20
-3.45184387377128
30
0
41
1
10
154.622687331202
20
-3.55592168099051
30
0
41
1
10
154.612257354547
20
-3.59116200020961
30
0
41
1
10
154.593818135718
20
-3.66015620215941
30
0
41
1
10
154.585735776727
20
-3.69409321513459
30
0
41
1
10
154.56488886815
20
-3.79422969454842
30
0
41
1
10
154.55551135123
20
-3.85958966268285
30
0
41
1
10
154.549039765978
20
-3.94866085943792
30
0
41
1
10
154.548089520948
20
-3.97704944658963
30
0
41
1
10
154.548516010577
20
-4.03131674939746
30
0
41
1
10
154.549915658879
20
-4.05726203805202
30
0
41
1
10
154.557330722793
20
-4.129566984852
30
0
41
1
10
154.566536553428
20
-4.17128223799457
30
0
41
1
10
154.592257872585
20
-4.24256857540212
30
0
41
1
10
154.608441369618
20
-4.27132765629781
30
0
41
1
10
154.646450395621
20
-4.31715693958884
30
0
41
1
10
154.6683594778
20
-4.33410179142436
30
0
41
1
10
154.715909207574
20
-4.35644963469389
30
0
41
1
10
154.741705531536
20
-4.36206158778629
30
0
41
1
10
154.824745354172
20
-4.36334934397561
30
0
41
1
10
154.885571886659
20
-4.34379293363847
30
0
41
1
10
154.983470789241
20
-4.28667117411328
30
0
41
1
10
155.017012561639
20
-4.26299484878405
30
0
41
1
10
155.084666682241
20
-4.20738599743973
30
0
41
1
10
155.118959657111
20
-4.17535431102831
30
0
41
1
10
155.188528489894
20
-4.10237320267058
30
0
41
1
10
155.224051651933
20
-4.06108249397235
30
0
41
1
10
155.29434021565
20
-3.97069861396045
30
0
41
1
10
155.329304945236
20
-3.92142888029346
30
0
41
1
10
155.363834012131
20
-3.86785898219367
30
0
0
SPLINE
5
DE
100
AcDbEntity
8
1
62
256
6
ByLayer
370
18
48
1
60
0
100
AcDbSpline
70
4
71
3
72
12
73
8
40
0
40
0
40
0
40
0
40
0.250000000000011
40
0.250000000000011
40
0.500000000000022
40
0.500000000000022
40
1
40
1
40
1
40
1
41
1
10
8.12963398527194
20
5.62216205505806
30
0
41
1
10
8.10994361822407
20
5.62794642782001
30
0
41
1
10
8.09212923528912
20
5.63497646132623
30
0
41
1
10
8.06014737355929
20
5.65138703157592
30
0
41
1
10
8.04616311272804
20
5.66074776929432
30
0
41
1
10
8.01230355169182
20
5.69070307516103
30
0
41
1
10
7.99999957191176
20
5.71362848053505
30
0
41
1
10
7.99999957191176
20
5.73643836541407
30
0
0
SPLINE
5
DF
100
AcDbEntity
8
1
62
256
6
ByLayer
370
18
48
1
60
0
100
AcDbSpline
70
4
71
3
72
14
73
10
40
0
40
0
40
0
40
0
40
0.250000000000003
40
0.250000000000003
40
0.375000000000003
40
0.375000000000003
40
0.500000000000003
40
0.500000000000003
40
1
40
1
40
1
40
1
41
1
10
8.25017043299948
20
-4.8576918123849
30
0
41
1
10
8.50812333207682
20
-5.10632735669577
30
0
41
1
10
8.77700537507474
20
-5.31843836860699
30
0
41
1
10
9.19916848224494
20
-5.58809058948216
30
0
41
1
10
9.34306624968909
20
-5.66982784976133
30
0
41
1
10
9.637971836004
20
-5.81758280647847
30
0
41
1
10
9.78919686359114
20
-5.88367924425006
30
0
41
1
10
10.5631062802422
20
-6.17509449399429
30
0
41
1
10
11.2179297430486
20
-6.27635099293869
30
0
41
1
10
11.9309963550062
20
-6.28747197773049
30
0
0
SPLINE
5
E0
100
AcDbEntity
8
1
62
256
6
ByLayer
370
18
48
1
60
0
100
AcDbSpline
70
4
71
3
72
14
73
10
40
0
40
0
40
0
40
0
40
0.25
40
0.25
40
0.5
40
0.5
40
0.75
40
0.75
40
1
40
1
40
1
40
1
41
1
10
154.827460581411
20
-6.56376574948376
30
0
41
1
10
154.991037240035
20
-6.1556163447915
30
0
41
1
10
155.154439501797
20
-5.74699409905276
30
0
41
1
10
155.480406899025
20
-4.92858862089631
30
0
41
1
10
155.643060716534
20
-4.51888477731859
30
0
41
1
10
155.966793766121
20
-3.69788525633254
30
0
41
1
10
156.127983209327
20
-3.28645503945034
30
0
41
1
10
156.447893332704
20
-2.46320331432418
30
0
41
1
10
156.606635094972
20
-2.05129445935913
30
0
41
1
10
156.764035338083
20
-1.63903733669037
30
0
0
SPLINE
5
E1
100
AcDbEntity
8
1
62
256
6
ByLayer
370
13
48
1
60
0
100
AcDbSpline
70
4
71
3
72
16
73
12
40
0
40
0
40
0
40
0
40
0.151263637679373
40
0.151263637679373
40
0.31682898828412
40
0.31682898828412
40
0.482394338888867
40
0.482394338888867
40
0.813525040098362
40
0.813525040098362
40
1
40
1
40
1
40
1
41
1
10
8.25021490604914
20
5.59757023712007
30
0
41
1
10
8.25021382923379
20
5.66540966085535
30
0
41
1
10
8.25021217783294
20
5.72837660795275
30
0
41
1
10
8.2502077626047
20
5.85020261282253
30
0
41
1
10
8.25020490567292
20
5.90808339646384
30
0
41
1
10
8.25019838223841
20
6.01214276563047
30
0
41
1
10
8.25019469882716
20
6.05847122892234
30
0
41
1
10
8.25018300764063
20
6.17803211264862
30
0
41
1
10
8.25017439491651
20
6.23213897928448
30
0
41
1
10
8.25016145979322
20
6.27792676442519
30
0
41
1
10
8.25015690410169
20
6.28655387980308
30
0
41
1
10
8.25015263593383
20
6.2871242282832
30
0
0
SPLINE
5
E2
100
AcDbEntity
8
1
62
256
6
ByLayer
370
13
48
1
60
0
100
AcDbSpline
70
4
71
3
72
16
73
12
40
0
40
0
40
0
40
0
40
0.0984640266590512
40
0.0984640266590512
40
0.323848019994289
40
0.323848019994289
40
0.549232013329526
40
0.549232013329526
40
0.774616006664763
40
0.774616006664763
40
1
40
1
40
1
40
1
41
1
10
8.25015263635319
20
-6.28712417221203
30
0
41
1
10
8.25014932521844
20
-6.28756704135225
30
0
41
1
10
8.25014618711762
20
-6.2831611877119
30
0
41
1
10
8.2501367162522
20
-6.25243396078534
30
0
41
1
10
8.25013166306292
20
-6.20568573344587
30
0
41
1
10
8.25012595947362
20
-6.06371732620366
30
0
41
1
10
8.25012529968885
20
-5.96847790850185
30
0
41
1
10
8.25012929789997
20
-5.72805568077263
30
0
41
1
10
8.25013401061665
20
-5.58258948096974
30
0
41
1
10
8.25014863168357
20
-5.24998155062141
30
0
41
1
10
8.25015847019208
20
-5.06359031734922
30
0
41
1
10
8.25017042259003
20
-4.85769185842494
30
0
0
SPLINE
5
E3
100
AcDbEntity
8
1
62
256
6
ByLayer
370
18
48
1
60
0
100
AcDbSpline
70
4
71
3
72
8
73
4
40
0
40
0
40
0
40
0
40
1
40
1
40
1
40
1
41
1
10
156.764035338083
20
1.63903733669082
30
0
41
1
10
156.843750176268
20
1.14600562823708
30
0
41
1
10
156.914172345111
20
0.653052574459281
30
0
41
1
10
156.975241052682
20
0.160178689910282
30
0
0
SPLINE
5
E4
100
AcDbEntity
8
1
62
256
6
ByLayer
370
18
48
1
60
0
100
AcDbSpline
70
4
71
3
72
34
73
30
40
0
40
0
40
0
40
0
40
0.0851932223306028
40
0.0851932223306028
40
0.127789833495904
40
0.127789833495904
40
0.170386444661206
40
0.170386444661206
40
0.255579666991807
40
0.255579666991807
40
0.340772889322409
40
0.340772889322409
40
0.42596611165301
40
0.42596611165301
40
0.511159333983613
40
0.511159333983613
40
0.596352556314216
40
0.596352556314216
40
0.681545778644819
40
0.681545778644819
40
0.724142389810119
40
0.724142389810119
40
0.766739000975419
40
0.766739000975419
40
0.851932223306019
40
0.851932223306019
40
0.937125445636619
40
0.937125445636619
40
1
40
1
40
1
40
1
41
1
10
11.9309963550062
20
-6.28747197773049
30
0
41
1
10
12.2951936356835
20
-6.29095349903679
30
0
41
1
10
12.6581796864724
20
-6.28626801503387
30
0
41
1
10
13.2003985587673
20
-6.26629649390156
30
0
41
1
10
13.3807963901414
20
-6.25748624008756
30
0
41
1
10
13.741186694034
20
-6.23570454593573
30
0
41
1
10
13.9214177266903
20
-6.22279786126202
30
0
41
1
10
14.4618123886643
20
-6.17820128829033
30
0
41
1
10
14.8211947620242
20
-6.14048549220672
30
0
41
1
10
15.539138528349
20
-6.04848427923073
30
0
41
1
10
15.8978468586731
20
-5.99416488352784
30
0
41
1
10
16.6154543701274
20
-5.87034864983568
30
0
41
1
10
16.974134995015
20
-5.80085203188469
30
0
41
1
10
17.6913134712021
20
-5.64612572418039
30
0
41
1
10
18.0510223230739
20
-5.56175772439175
30
0
41
1
10
18.7703716747226
20
-5.37806677602231
30
0
41
1
10
19.1302310301776
20
-5.27966135724901
30
0
41
1
10
19.8523579421015
20
-5.06643991635659
30
0
41
1
10
20.2146525828858
20
-4.95219834305092
30
0
41
1
10
20.7593564315199
20
-4.77045484604989
30
0
41
1
10
20.9412690102988
20
-4.70801450363976
30
0
41
1
10
21.3045352108258
20
-4.58008216445842
30
0
41
1
10
21.4864156843052
20
-4.51513029574602
30
0
41
1
10
22.0313934743775
20
-4.31554173429211
30
0
41
1
10
22.3940236786066
20
-4.17639065315501
30
0
41
1
10
23.1191153547365
20
-3.88785147715049
30
0
41
1
10
23.4816004092837
20
-3.73878704054874
30
0
41
1
10
24.1121171445463
20
-3.47083273074694
30
0
41
1
10
24.3798231083747
20
-3.35368467142416
30
0
41
1
10
24.6477632836305
20
-3.23398389751978
30
0
0
SPLINE
5
E5
100
AcDbEntity
8
1
62
256
6
ByLayer
370
18
48
1
60
0
100
AcDbSpline
70
4
71
3
72
122
73
118
40
0
40
0
40
0
40
0
40
0.015988079157811
40
0.015988079157811
40
0.026704361477364
40
0.026704361477364
40
0.037420643796917
40
0.037420643796917
40
0.0588532084360223
40
0.0588532084360223
40
0.0802857730751277
40
0.0802857730751277
40
0.0910020553946803
40
0.0910020553946803
40
0.101718337714233
40
0.101718337714233
40
0.123150902353338
40
0.123150902353338
40
0.144583466992444
40
0.144583466992444
40
0.155299749311997
40
0.155299749311997
40
0.16601603163155
40
0.16601603163155
40
0.187448596270656
40
0.187448596270656
40
0.208881160909762
40
0.208881160909762
40
0.230313725548868
40
0.230313725548868
40
0.241030007868421
40
0.241030007868421
40
0.251746290187975
40
0.251746290187975
40
0.273178854827081
40
0.273178854827081
40
0.294611419466188
40
0.294611419466188
40
0.316043984105295
40
0.316043984105295
40
0.337476548744402
40
0.337476548744402
40
0.358909113383508
40
0.358909113383508
40
0.380341678022615
40
0.380341678022615
40
0.401774242661722
40
0.401774242661722
40
0.423206807300828
40
0.423206807300828
40
0.444639371939935
40
0.444639371939935
40
0.455355654259488
40
0.455355654259488
40
0.466071936579042
40
0.466071936579042
40
0.487504501218148
40
0.487504501218148
40
0.508937065857255
40
0.508937065857255
40
0.530369630496362
40
0.530369630496362
40
0.541085912815915
40
0.541085912815915
40
0.551802195135468
40
0.551802195135468
40
0.573234759774574
40
0.573234759774574
40
0.59466732441368
40
0.59466732441368
40
0.605383606733233
40
0.605383606733233
40
0.616099889052786
40
0.616099889052786
40
0.637532453691893
40
0.637532453691893
40
0.658965018331
40
0.658965018331
40
0.669681300650553
40
0.669681300650553
40
0.680397582970107
40
0.680397582970107
40
0.701830147609213
40
0.701830147609213
40
0.72326271224832
40
0.72326271224832
40
0.744695276887426
40
0.744695276887426
40
0.75541155920698
40
0.75541155920698
40
0.766127841526534
40
0.766127841526534
40
0.787560406165641
40
0.787560406165641
40
0.808992970804748
40
0.808992970804748
40
0.830425535443854
40
0.830425535443854
40
0.851858100082961
40
0.851858100082961
40
0.873290664722067
40
0.873290664722067
40
0.894723229361174
40
0.894723229361174
40
0.905439511680727
40
0.905439511680727
40
0.916155794000281
40
0.916155794000281
40
0.937588358639387
40
0.937588358639387
40
0.959020923278494
40
0.959020923278494
40
0.969737205598046
40
0.969737205598046
40
0.980453487917599
40
0.980453487917599
40
1
40
1
40
1
40
1
41
1
10
50.1901238418677
20
6.31251836034602
30
0
41
1
10
50.4605348342632
20
6.31336492323186
30
0
41
1
10
50.7309016056212
20
6.30955420094168
30
0
41
1
10
51.1828926972781
20
6.29453433328447
30
0
41
1
10
51.3647705361479
20
6.28634048700266
30
0
41
1
10
51.7284372789726
20
6.26579351609919
30
0
41
1
10
51.9103915053196
20
6.25347548876661
30
0
41
1
10
52.4553755874118
20
6.21058677049695
30
0
41
1
10
52.8180781931192
20
6.17390493999372
30
0
41
1
10
53.5433513405078
20
6.08327849673526
30
0
41
1
10
53.9059874024096
20
6.02965474887526
30
0
41
1
10
54.4494750268831
20
5.9375965773352
30
0
41
1
10
54.6304394504208
20
5.90483184120308
30
0
41
1
10
54.9930837569636
20
5.83567258649362
30
0
41
1
10
55.1746715072534
20
5.7992291878376
30
0
41
1
10
55.7193404694121
20
5.68332948199395
30
0
41
1
10
56.0829788859159
20
5.59747463272262
30
0
41
1
10
56.809673244808
20
5.41224044717421
30
0
41
1
10
57.1726231149111
20
5.31287900274646
30
0
41
1
10
57.7166622629509
20
5.15291463516715
30
0
41
1
10
57.897895804228
20
5.09771770004377
30
0
41
1
10
58.2601850880264
20
4.98380727326142
30
0
41
1
10
58.4411148522352
20
4.92493330996405
30
0
41
1
10
58.9851406277642
20
4.74517745995607
30
0
41
1
10
59.3478204343609
20
4.61894429587846
30
0
41
1
10
60.0735780056495
20
4.3522651440081
30
0
41
1
10
60.4374702267981
20
4.21239093201882
30
0
41
1
10
61.1637655703507
20
3.92359028294399
30
0
41
1
10
61.5258769959397
20
3.77464841581056
30
0
41
1
10
62.0670824223985
20
3.54267326341704
30
0
41
1
10
62.2471963707284
20
3.46406821285586
30
0
41
1
10
62.6077086132532
20
3.30588903340163
30
0
41
1
10
62.7877675279394
20
3.22574042799701
30
0
41
1
10
63.3273776051237
20
2.9822862361286
30
0
41
1
10
63.6862797243977
20
2.8159685030339
30
0
41
1
10
64.4039274083318
20
2.47609521069998
30
0
41
1
10
64.7627278198646
20
2.30303688894469
30
0
41
1
10
65.4800680819686
20
1.95114427705636
30
0
41
1
10
65.8381224380309
20
1.77158662781437
30
0
41
1
10
66.5566955501941
20
1.41022055018061
30
0
41
1
10
66.9162186209171
20
1.22676530069663
30
0
41
1
10
67.6361266136737
20
0.85613570030182
30
0
41
1
10
67.9965759406619
20
0.669293466113572
30
0
41
1
10
68.7199313431789
20
0.293623467175024
30
0
41
1
10
69.0830075674454
20
0.104487315705285
30
0
41
1
10
69.8097077844841
20
-0.275785075839821
30
0
41
1
10
70.1731770439138
20
-0.46424181545342
30
0
41
1
10
70.8986718076636
20
-0.840674440112906
30
0
41
1
10
71.2609209772976
20
-1.0280513483481
30
0
41
1
10
71.9858065691141
20
-1.39908404723675
30
0
41
1
10
72.3484518356563
20
-1.58280282320959
30
0
41
1
10
72.8924313162735
20
-1.85602881051955
30
0
41
1
10
73.0737972624167
20
-1.94656631540565
30
0
41
1
10
73.4366847286814
20
-2.12646705941833
30
0
41
1
10
73.6186189565996
20
-2.21520728317356
30
0
41
1
10
74.1644335483808
20
-2.47962290665555
30
0
41
1
10
74.5268571338837
20
-2.65298364588324
30
0
41
1
10
75.2498322003721
20
-2.99171357114545
30
0
41
1
10
75.6104068873659
20
-3.15623862482013
30
0
41
1
10
76.330573473287
20
-3.47572939150768
30
0
41
1
10
76.689861265585
20
-3.6314214658444
30
0
41
1
10
77.2279652678515
20
-3.85806901386673
30
0
41
1
10
77.4076320905834
20
-3.93173732739032
30
0
41
1
10
77.7666028564566
20
-4.07656421523095
30
0
41
1
10
77.9460087189818
20
-4.14760163377704
30
0
41
1
10
78.4840173574755
20
-4.35692428733293
30
0
41
1
10
78.8425353005399
20
-4.49143644816209
30
0
41
1
10
79.5603455885355
20
-4.74853854347305
30
0
41
1
10
79.9197892631609
20
-4.87031947508754
30
0
41
1
10
80.4593612992861
20
-5.04392188769751
30
0
41
1
10
80.6392384604737
20
-5.10034692195646
30
0
41
1
10
80.9994505969138
20
-5.20997641683127
30
0
41
1
10
81.1800736510327
20
-5.26291511405245
30
0
41
1
10
81.7220093951458
20
-5.41753230629561
30
0
41
1
10
82.0839884586557
20
-5.51342193345758
30
0
41
1
10
82.8105370960645
20
-5.69034780609894
30
0
41
1
10
83.1744293981827
20
-5.7711984231812
30
0
41
1
10
83.7190047929973
20
-5.88152507990745
30
0
41
1
10
83.9003856865658
20
-5.91629689345316
30
0
41
1
10
84.2628906527311
20
-5.981639647798
30
0
41
1
10
84.4438783576237
20
-6.01233434789708
30
0
41
1
10
84.9876805758246
20
-6.09763426649431
30
0
41
1
10
85.3505861360564
20
-6.14590726538538
30
0
41
1
10
86.0757269241476
20
-6.22858418419654
30
0
41
1
10
86.438524751056
20
-6.261270273402
30
0
41
1
10
87.1656401774379
20
-6.30884024775915
30
0
41
1
10
87.5296519177582
20
-6.32357140336012
30
0
41
1
10
88.0739238528899
20
-6.3347465555222
30
0
41
1
10
88.2550438147985
20
-6.33649201283839
30
0
41
1
10
88.6179723418089
20
-6.33523633477475
30
0
41
1
10
88.7994091424123
20
-6.33232898788091
30
0
41
1
10
89.3434409838503
20
-6.31703928637515
30
0
41
1
10
89.7057878417054
20
-6.29790376675206
30
0
41
1
10
90.4311194717664
20
-6.24473151733662
30
0
41
1
10
90.7941413311978
20
-6.2101431581751
30
0
41
1
10
91.5212500145308
20
-6.12250081974264
30
0
41
1
10
91.884489236738
20
-6.06950146563699
30
0
41
1
10
92.6111227046438
20
-5.9498198573971
30
0
41
1
10
92.973829360475
20
-5.882483000447
30
0
41
1
10
93.6987883987482
20
-5.73042333604974
30
0
41
1
10
94.0612605180916
20
-5.64630529822193
30
0
41
1
10
94.7869044717328
20
-5.4641607052429
30
0
41
1
10
95.1498961265835
20
-5.366211910624
30
0
41
1
10
95.6947525920924
20
-5.20675008640163
30
0
41
1
10
95.8767336346278
20
-5.15176217552806
30
0
41
1
10
96.2401852036845
20
-5.039012696756
30
0
41
1
10
96.4215905641427
20
-4.98099787005231
30
0
41
1
10
96.9648963333927
20
-4.80227345185156
30
0
41
1
10
97.3258943909319
20
-4.677048379924
30
0
41
1
10
98.0467150406705
20
-4.41438937044873
30
0
41
1
10
98.4066361742733
20
-4.27737354094214
30
0
41
1
10
98.9455752487704
20
-4.06381495974119
30
0
41
1
10
99.1250555034042
20
-3.99124495856714
30
0
41
1
10
99.4837480379511
20
-3.84330724116987
30
0
41
1
10
99.6632502931755
20
-3.76838414723653
30
0
41
1
10
100.17021815129
20
-3.55338924927114
30
0
41
1
10
100.497398518128
20
-3.4100255758031
30
0
41
1
10
100.824643692957
20
-3.26312853814682
30
0
0
SPLINE
5
E6
100
AcDbEntity
8
1
62
256
6
ByLayer
370
18
48
1
60
0
100
AcDbSpline
70
4
71
3
72
62
73
58
40
0
40
0
40
0
40
0
40
0.0241296781359468
40
0.0241296781359468
40
0.0684874200388575
40
0.0684874200388575
40
0.112845161941768
40
0.112845161941768
40
0.157202903844679
40
0.157202903844679
40
0.20156064574759
40
0.20156064574759
40
0.2459183876505
40
0.2459183876505
40
0.268097258601955
40
0.268097258601955
40
0.29027612955341
40
0.29027612955341
40
0.334633871456323
40
0.334633871456323
40
0.378991613359237
40
0.378991613359237
40
0.42334935526215
40
0.42334935526215
40
0.445528226213605
40
0.445528226213605
40
0.46770709716506
40
0.46770709716506
40
0.512064839067974
40
0.512064839067974
40
0.556422580970886
40
0.556422580970886
40
0.578601451922343
40
0.578601451922343
40
0.600780322873799
40
0.600780322873799
40
0.645138064776713
40
0.645138064776713
40
0.689495806679626
40
0.689495806679626
40
0.711674677631081
40
0.711674677631081
40
0.733853548582537
40
0.733853548582537
40
0.778211290485447
40
0.778211290485447
40
0.822569032388358
40
0.822569032388358
40
0.866926774291268
40
0.866926774291268
40
0.889105645242724
40
0.889105645242724
40
0.911284516194179
40
0.911284516194179
40
0.955642258097089
40
0.955642258097089
40
1
40
1
40
1
40
1
41
1
10
126.354302306254
20
6.35965969511199
30
0
41
1
10
126.549593012738
20
6.36037505002545
30
0
41
1
10
126.744809063556
20
6.35849386468925
30
0
41
1
10
127.298882873148
20
6.34587239117678
30
0
41
1
10
127.657877263434
20
6.32950360409455
30
0
41
1
10
128.376747469377
20
6.28139396464007
30
0
41
1
10
128.736506801845
20
6.24892413292838
30
0
41
1
10
129.456848332844
20
6.16574245946413
30
0
41
1
10
129.818450115002
20
6.11619172636992
30
0
41
1
10
130.542515228254
20
6.00158117553275
30
0
41
1
10
130.905775624928
20
5.9357774912522
30
0
41
1
10
131.633330493588
20
5.78704791357126
30
0
41
1
10
131.99677304138
20
5.70499503026156
30
0
41
1
10
132.541086196329
20
5.57137170617898
30
0
41
1
10
132.722379562555
20
5.5249522427896
30
0
41
1
10
133.084774180417
20
5.42809549739667
30
0
41
1
10
133.266290563523
20
5.37804687668898
30
0
41
1
10
133.810669248661
20
5.22200464604413
30
0
41
1
10
134.173374704647
20
5.110344447274
30
0
41
1
10
134.899366039226
20
4.87458881669494
30
0
41
1
10
135.263023097209
20
4.75006367116595
30
0
41
1
10
135.990871631025
20
4.48752200596405
30
0
41
1
10
136.353934099003
20
4.34948544682405
30
0
41
1
10
136.897994342447
20
4.13494091439588
30
0
41
1
10
137.079660996926
20
4.06268004705041
30
0
41
1
10
137.442581964768
20
3.91476704154775
30
0
41
1
10
137.623967125113
20
3.83934160770818
30
0
41
1
10
138.167969325563
20
3.60885732117833
30
0
41
1
10
138.530632638022
20
3.44979423395549
30
0
41
1
10
139.256848710779
20
3.12369197039061
30
0
41
1
10
139.620766662575
20
2.95631333164627
30
0
41
1
10
140.166249086175
20
2.69828446277955
30
0
41
1
10
140.347719741797
20
2.61102289038584
30
0
41
1
10
140.711026137747
20
2.43596387922406
30
0
41
1
10
140.892787139134
20
2.34804057500321
30
0
41
1
10
141.437418156575
20
2.08130888782452
30
0
41
1
10
141.79990998777
20
1.89998038357078
30
0
41
1
10
142.525236655802
20
1.53302308838681
30
0
41
1
10
142.888087079923
20
1.34749191477846
30
0
41
1
10
143.432838010603
20
1.06652465528984
30
0
41
1
10
143.614449787781
20
0.972318133678499
30
0
41
1
10
143.977794636981
20
0.782881277700142
30
0
41
1
10
144.159507851899
20
0.687347291713706
30
0
41
1
10
144.705478814171
20
0.402651325448915
30
0
41
1
10
145.068845550369
20
0.212287347466173
30
0
41
1
10
145.794484478188
20
-0.169351309607236
30
0
41
1
10
146.157039786188
20
-0.360069693609091
30
0
41
1
10
146.882553738329
20
-0.739481537364242
30
0
41
1
10
147.245468279835
20
-0.928270851200011
30
0
41
1
10
147.789764661338
20
-1.21070128073907
30
0
41
1
10
147.971212682415
20
-1.30466269890803
30
0
41
1
10
148.334990267692
20
-1.49061200309521
30
0
41
1
10
148.517116453687
20
-1.58332264414031
30
0
41
1
10
149.062589649587
20
-1.85969865691931
30
0
41
1
10
149.42495965882
20
-2.04167475824261
30
0
41
1
10
150.148667400045
20
-2.39875078181606
30
0
41
1
10
150.510026641725
20
-2.57381974122109
30
0
41
1
10
150.870825681444
20
-2.74508947952665
30
0
0
SPLINE
5
E7
100
AcDbEntity
8
1
62
256
6
ByLayer
370
18
48
1
60
0
100
AcDbSpline
70
4
71
3
72
8
73
4
40
0
40
0
40
0
40
0
40
1
40
1
40
1
40
1
41
1
10
7.99999957191193
20
-5.05053565517198
30
0
41
1
10
7.99999957191193
20
-5.00262855273706
30
0
41
1
10
7.99999957191193
20
-4.95473343025265
30
0
41
1
10
7.99999957191193
20
-4.9068500381089
30
0
0
SPLINE
5
E8
100
AcDbEntity
8
1
62
256
6
ByLayer
370
18
48
1
60
0
100
AcDbSpline
70
4
71
3
72
8
73
4
40
0
40
0
40
0
40
0
40
1
40
1
40
1
40
1
41
1
10
156.825312843958
20
-0.293506873606845
30
0
41
1
10
156.087910691143
20
-2.31950263751807
30
0
41
1
10
155.350508538328
20
-4.34549840142907
30
0
41
1
10
154.613106385513
20
-6.37149416534032
30
0
0
SPLINE
5
E9
100
AcDbEntity
8
1
62
256
6
ByLayer
370
18
48
1
60
0
100
AcDbSpline
70
4
71
3
72
14
73
10
40
0
40
0
40
0
40
0
40
0.250000000000028
40
0.250000000000028
40
0.375000000000024
40
0.375000000000024
40
0.500000000000019
40
0.500000000000019
40
1
40
1
40
1
40
1
41
1
10
154.610471170967
20
1.65713466818747
30
0
41
1
10
154.790195263636
20
1.65401843006697
30
0
41
1
10
154.969906834495
20
1.65101741939858
30
0
41
1
10
155.239418347922
20
1.64702977721478
30
0
41
1
10
155.329259268808
20
1.64571959583756
30
0
41
1
10
155.508796960561
20
1.64385361660263
30
0
41
1
10
155.598496536024
20
1.64329505345046
30
0
41
1
10
156.047031957994
20
1.6402992980498
30
0
41
1
10
156.405793169454
20
1.6382655296452
30
0
41
1
10
156.764035338083
20
1.63903733669082
30
0
0
SPLINE
5
EA
100
AcDbEntity
8
1
62
256
6
ByLayer
370
18
48
1
60
0
100
AcDbSpline
70
4
71
3
72
122
73
118
40
0
40
0
40
0
40
0
40
0.0010271132506646
40
0.0010271132506646
40
0.0224257288926441
40
0.0224257288926441
40
0.0331250367136338
40
0.0331250367136338
40
0.0438243445346235
40
0.0438243445346235
40
0.0652229601766016
40
0.0652229601766016
40
0.0866215758185798
40
0.0866215758185798
40
0.108020191460558
40
0.108020191460558
40
0.118719499281546
40
0.118719499281546
40
0.129418807102535
40
0.129418807102535
40
0.150817422744512
40
0.150817422744512
40
0.172216038386489
40
0.172216038386489
40
0.193614654028465
40
0.193614654028465
40
0.215013269670442
40
0.215013269670442
40
0.236411885312419
40
0.236411885312419
40
0.257810500954396
40
0.257810500954396
40
0.279209116596373
40
0.279209116596373
40
0.30060773223835
40
0.30060773223835
40
0.322006347880327
40
0.322006347880327
40
0.332705655701315
40
0.332705655701315
40
0.343404963522304
40
0.343404963522304
40
0.364803579164282
40
0.364803579164282
40
0.38620219480626
40
0.38620219480626
40
0.407600810448238
40
0.407600810448238
40
0.418300118269227
40
0.418300118269227
40
0.428999426090217
40
0.428999426090217
40
0.450398041732196
40
0.450398041732196
40
0.471796657374175
40
0.471796657374175
40
0.482495965195165
40
0.482495965195165
40
0.493195273016155
40
0.493195273016155
40
0.514593888658135
40
0.514593888658135
40
0.535992504300114
40
0.535992504300114
40
0.546691812121103
40
0.546691812121103
40
0.557391119942092
40
0.557391119942092
40
0.568090427763081
40
0.568090427763081
40
0.57878973558407
40
0.57878973558407
40
0.600188351226049
40
0.600188351226049
40
0.621586966868027
40
0.621586966868027
40
0.632286274689016
40
0.632286274689016
40
0.642985582510005
40
0.642985582510005
40
0.664384198151983
40
0.664384198151983
40
0.685782813793961
40
0.685782813793961
40
0.70718142943594
40
0.70718142943594
40
0.728580045077918
40
0.728580045077918
40
0.749978660719896
40
0.749978660719896
40
0.771377276361874
40
0.771377276361874
40
0.782076584182864
40
0.782076584182864
40
0.792775892003854
40
0.792775892003854
40
0.814174507645832
40
0.814174507645832
40
0.835573123287811
40
0.835573123287811
40
0.856971738929789
40
0.856971738929789
40
0.878370354571767
40
0.878370354571767
40
0.899768970213745
40
0.899768970213745
40
0.921167585855724
40
0.921167585855724
40
0.942566201497702
40
0.942566201497702
40
0.96396481713968
40
0.96396481713968
40
0.985363432781658
40
0.985363432781658
40
0.996062740602647
40
0.996062740602647
40
1
40
1
40
1
40
1
41
1
10
138.982585229865
20
-3.24676906027383
30
0
41
1
10
138.965228391633
20
-3.25459410450168
30
0
41
1
10
138.947871483741
20
-3.26240994009982
30
0
41
1
10
138.568904175223
20
-3.4328592898195
30
0
41
1
10
138.207231132882
20
-3.59179618639538
30
0
41
1
10
137.663895696473
20
-3.82260452712683
30
0
41
1
10
137.482495476147
20
-3.89825619806356
30
0
41
1
10
137.119768295106
20
-4.04652898134637
30
0
41
1
10
136.938388859112
20
-4.1188944110435
30
0
41
1
10
136.395518993135
20
-4.33328407804996
30
0
41
1
10
136.034098467434
20
-4.47134537674987
30
0
41
1
10
135.310778236098
20
-4.73335313481942
30
0
41
1
10
134.949355716065
20
-4.85771818990858
30
0
41
1
10
134.226253437812
20
-5.09372544262712
30
0
41
1
10
133.864531716418
20
-5.20575256352035
30
0
41
1
10
133.320762931918
20
-5.36275414371465
30
0
41
1
10
133.139125847055
20
-5.41314467915044
30
0
41
1
10
132.776819315423
20
-5.5107138296265
30
0
41
1
10
132.595815649385
20
-5.55749131091679
30
0
41
1
10
132.052805470639
20
-5.69195315471265
30
0
41
1
10
131.690832131146
20
-5.77434638468162
30
0
41
1
10
130.967619856957
20
-5.92393723166643
30
0
41
1
10
130.606341271091
20
-5.99043468595193
30
0
41
1
10
129.883018230025
20
-6.10684518773456
30
0
41
1
10
129.520549110461
20
-6.15731363590609
30
0
41
1
10
128.796452177936
20
-6.24290582253397
30
0
41
1
10
128.433459860024
20
-6.27671535908789
30
0
41
1
10
127.709019158143
20
-6.32684200077691
30
0
41
1
10
127.347293628556
20
-6.34400298563008
30
0
41
1
10
126.624205720003
20
-6.36191648865795
30
0
41
1
10
126.262733409974
20
-6.36213898008478
30
0
41
1
10
125.538906574047
20
-6.34450581625651
30
0
41
1
10
125.17745957399
20
-6.32747082542798
30
0
41
1
10
124.452686688252
20
-6.27726158205084
30
0
41
1
10
124.089502009808
20
-6.24355818930891
30
0
41
1
10
123.365302364145
20
-6.15865720075783
30
0
41
1
10
123.003761974817
20
-6.10810830519895
30
0
41
1
10
122.461199484142
20
-6.02107960662269
30
0
41
1
10
122.280318848176
20
-5.99008945242699
30
0
41
1
10
121.918486032318
20
-5.92394335018804
30
0
41
1
10
121.737813758464
20
-5.88856585638521
30
0
41
1
10
121.195648412752
20
-5.77624984434516
30
0
41
1
10
120.833595300562
20
-5.69398424724705
30
0
41
1
10
120.108626398258
20
-5.51545245691085
30
0
41
1
10
119.745698344975
20
-5.41849310001422
30
0
41
1
10
119.021769834714
20
-5.20871176306403
30
0
41
1
10
118.659987380644
20
-5.09722498608272
30
0
41
1
10
118.117187818303
20
-4.92137487340889
30
0
41
1
10
117.936656158313
20
-4.86074942400651
30
0
41
1
10
117.575312189008
20
-4.73638102071567
30
0
41
1
10
117.394572980562
20
-4.67246478147726
30
0
41
1
10
116.852022859517
20
-4.47576455036997
30
0
41
1
10
116.490019428022
20
-4.33887926612769
30
0
41
1
10
115.765361194902
20
-4.05400546492274
30
0
41
1
10
115.402559992873
20
-3.90571169573988
30
0
41
1
10
114.859312771833
20
-3.67580648158398
30
0
41
1
10
114.678248295705
20
-3.59802661208624
30
0
41
1
10
114.316356825427
20
-3.44028388791585
30
0
41
1
10
114.135849332031
20
-3.35976230987572
30
0
41
1
10
113.593753946259
20
-3.11614104597723
30
0
41
1
10
113.232084099666
20
-2.95031782684273
30
0
41
1
10
112.508776551026
20
-2.60939447849987
30
0
41
1
10
112.147057143763
20
-2.43466477029526
30
0
41
1
10
111.603659304563
20
-2.16849792477504
30
0
41
1
10
111.422251459902
20
-2.07905787016321
30
0
41
1
10
111.059487339228
20
-1.8991127365166
30
0
41
1
10
110.878093109304
20
-1.80884509321305
30
0
41
1
10
110.516082805008
20
-1.62615975761207
30
0
41
1
10
110.335452026503
20
-1.53375376613749
30
0
41
1
10
109.973908969653
20
-1.34885837816981
30
0
41
1
10
109.793111299989
20
-1.25616845278904
30
0
41
1
10
109.250651848492
20
-0.977352410623837
30
0
41
1
10
108.889155925476
20
-0.790058486385789
30
0
41
1
10
108.166071606386
20
-0.412969914795724
30
0
41
1
10
107.804419779828
20
-0.223126830032413
30
0
41
1
10
107.260681927555
20
0.0608142826159224
30
0
41
1
10
107.079045167966
20
0.155216932781172
30
0
41
1
10
106.716690637724
20
0.345291106492056
30
0
41
1
10
106.535699441759
20
0.440257318520622
30
0
41
1
10
105.992730971653
20
0.723759546178343
30
0
41
1
10
105.630972007583
20
0.911116912225594
30
0
41
1
10
104.907958138463
20
1.28365099808468
30
0
41
1
10
104.546689275629
20
1.46875270831558
30
0
41
1
10
103.823532409437
20
1.83418363938463
30
0
41
1
10
103.461134370814
20
2.01344188192502
30
0
41
1
10
102.737193884532
20
2.37011906002192
30
0
41
1
10
102.374276410431
20
2.54534934177795
30
0
41
1
10
101.649920087637
20
2.88703823712666
30
0
41
1
10
101.288311298226
20
3.05409132120386
30
0
41
1
10
100.56537555934
20
3.38018765309246
30
0
41
1
10
100.203951596014
20
3.53909025604798
30
0
41
1
10
99.6611782968499
20
3.76925948807173
30
0
41
1
10
99.4802554550243
20
3.84477424025613
30
0
41
1
10
99.1186654745925
20
3.9938531692284
30
0
41
1
10
98.93770952442
20
4.06698123601038
30
0
41
1
10
98.3942630274548
20
4.28217370553548
30
0
41
1
10
98.0311126764087
20
4.42026991995886
30
0
41
1
10
97.3069918146114
20
4.68373152454481
30
0
41
1
10
96.9455911695195
20
4.808846980244
30
0
41
1
10
96.2223869629235
20
5.04629256673638
30
0
41
1
10
95.8605639435793
20
5.15841752730771
30
0
41
1
10
95.137839356974
20
5.36953782239689
30
0
41
1
10
94.7759081821761
20
5.46705172933596
30
0
41
1
10
94.0510689206205
20
5.64872878521402
30
0
41
1
10
93.6881848260934
20
5.73279608715433
30
0
41
1
10
92.9642249168086
20
5.88434466022917
30
0
41
1
10
92.6025691589902
20
5.95132280245676
30
0
41
1
10
91.8789747257866
20
6.07031378040352
30
0
41
1
10
91.5181361676437
20
6.12289561307887
30
0
41
1
10
90.7948217962498
20
6.21004160790758
30
0
41
1
10
90.4328812435207
20
6.24457281137254
30
0
41
1
10
89.7082986441241
20
6.29774908724229
30
0
41
1
10
89.3455503942484
20
6.31693802768584
30
0
41
1
10
88.8022530642814
20
6.3322698234538
30
0
41
1
10
88.6211925427666
20
6.33519377227341
30
0
41
1
10
88.3736416899682
20
6.33609280680864
30
0
41
1
10
88.3071154413419
20
6.33601512817566
30
0
41
1
10
88.2406214087461
20
6.33563749513271
30
0
0
SPLINE
5
EB
100
AcDbEntity
8
1
62
256
6
ByLayer
370
18
48
1
60
0
100
AcDbSpline
70
4
71
3
72
122
73
118
40
0
40
0
40
0
40
0
40
0.0066649657425769
40
0.0066649657425769
40
0.0173459876163126
40
0.0173459876163126
40
0.0387080313637845
40
0.0387080313637845
40
0.0600700751112565
40
0.0600700751112565
40
0.0814321188587285
40
0.0814321188587285
40
0.0921131407324644
40
0.0921131407324644
40
0.1027941626062
40
0.1027941626062
40
0.124156206353672
40
0.124156206353672
40
0.145518250101144
40
0.145518250101144
40
0.15619927197488
40
0.15619927197488
40
0.166880293848616
40
0.166880293848616
40
0.188242337596088
40
0.188242337596088
40
0.20960438134356
40
0.20960438134356
40
0.220285403217296
40
0.220285403217296
40
0.230966425091032
40
0.230966425091032
40
0.252328468838503
40
0.252328468838503
40
0.273690512585974
40
0.273690512585974
40
0.295052556333446
40
0.295052556333446
40
0.305733578207181
40
0.305733578207181
40
0.316414600080917
40
0.316414600080917
40
0.337776643828388
40
0.337776643828388
40
0.35913868757586
40
0.35913868757586
40
0.380500731323331
40
0.380500731323331
40
0.401862775070802
40
0.401862775070802
40
0.423224818818273
40
0.423224818818273
40
0.444586862565745
40
0.444586862565745
40
0.465948906313216
40
0.465948906313216
40
0.487310950060687
40
0.487310950060687
40
0.508672993808159
40
0.508672993808159
40
0.519354015681894
40
0.519354015681894
40
0.53003503755563
40
0.53003503755563
40
0.551397081303101
40
0.551397081303101
40
0.572759125050572
40
0.572759125050572
40
0.594121168798044
40
0.594121168798044
40
0.604802190671779
40
0.604802190671779
40
0.615483212545515
40
0.615483212545515
40
0.636845256292986
40
0.636845256292986
40
0.658207300040458
40
0.658207300040458
40
0.668888321914194
40
0.668888321914194
40
0.67956934378793
40
0.67956934378793
40
0.700931387535401
40
0.700931387535401
40
0.722293431282872
40
0.722293431282872
40
0.732974453156608
40
0.732974453156608
40
0.743655475030344
40
0.743655475030344
40
0.765017518777815
40
0.765017518777815
40
0.786379562525286
40
0.786379562525286
40
0.807741606272757
40
0.807741606272757
40
0.818422628146493
40
0.818422628146493
40
0.829103650020229
40
0.829103650020229
40
0.8504656937677
40
0.8504656937677
40
0.871827737515171
40
0.871827737515171
40
0.893189781262643
40
0.893189781262643
40
0.914551825010114
40
0.914551825010114
40
0.935913868757586
40
0.935913868757586
40
0.957275912505057
40
0.957275912505057
40
0.967956934378793
40
0.967956934378793
40
0.978637956252529
40
0.978637956252529
40
1
40
1
40
1
40
1
41
1
10
62.7122469357243
20
-3.25907011135715
30
0
41
1
10
62.5994061780105
20
-3.30932222998368
30
0
41
1
10
62.4866366805486
20
-3.35910610167574
30
0
41
1
10
62.193360171809
20
-3.48745447107163
30
0
41
1
10
62.0133614425955
20
-3.56593531541293
30
0
41
1
10
61.4734895140257
20
-3.79650893773214
30
0
41
1
10
61.1140958393539
20
-3.9437128575199
30
0
41
1
10
60.3961750709663
20
-4.22838898083273
30
0
41
1
10
60.0377116266586
20
-4.36578958015028
30
0
41
1
10
59.321123794035
20
-4.62837714209743
30
0
41
1
10
58.9627035329625
20
-4.75274544468209
30
0
41
1
10
58.4248191807309
20
-4.93023435863677
30
0
41
1
10
58.2458631900937
20
-4.98838829371496
30
0
41
1
10
57.8873879500108
20
-5.10093801973051
30
0
41
1
10
57.7080037396411
20
-5.15550701601126
30
0
41
1
10
57.1693347265779
20
-5.31375015677958
30
0
41
1
10
56.8097228594941
20
-5.41218766893991
30
0
41
1
10
56.0892689177164
20
-5.59591108528988
30
0
41
1
10
55.7284348701487
20
-5.68124003660324
30
0
41
1
10
55.1850968868941
20
-5.79708476103406
30
0
41
1
10
55.0035779214869
20
-5.83360923965694
30
0
41
1
10
54.6402490820359
20
-5.90301972426815
30
0
41
1
10
54.4589633504472
20
-5.93591965186201
30
0
41
1
10
53.9149285689473
20
-6.02827453142984
30
0
41
1
10
53.5522937242381
20
-6.08201483997843
30
0
41
1
10
52.82781805256
20
-6.17283043418885
30
0
41
1
10
52.4659281421591
20
-6.20957880167771
30
0
41
1
10
51.922744598594
20
-6.25258783983372
30
0
41
1
10
51.7415801570977
20
-6.2649439237168
30
0
41
1
10
51.3790081862719
20
-6.28563530411958
30
0
41
1
10
51.1974682455316
20
-6.29392812288489
30
0
41
1
10
50.653621758498
20
-6.31235172551408
30
0
41
1
10
50.2902580000211
20
-6.31535850430669
30
0
41
1
10
49.5640711065014
20
-6.30513196906506
30
0
41
1
10
49.2015131302156
20
-6.2919887863184
30
0
41
1
10
48.4770012011798
20
-6.24851526867306
30
0
41
1
10
48.1149942624351
20
-6.21777015410612
30
0
41
1
10
47.5713042438944
20
-6.15994243558248
30
0
41
1
10
47.3899195685686
20
-6.13875159783012
30
0
41
1
10
47.0277702976932
20
-6.09196218226771
30
0
41
1
10
46.8465803835557
20
-6.06654574647021
30
0
41
1
10
46.3024489847467
20
-5.98409584658736
30
0
41
1
10
45.9385772890823
20
-5.92033060882403
30
0
41
1
10
45.212392705118
20
-5.77811120782275
30
0
41
1
10
44.8499071634232
20
-5.69971187196555
30
0
41
1
10
44.1250121286913
20
-5.52760006215706
30
0
41
1
10
43.7622842560239
20
-5.4341531452819
30
0
41
1
10
43.0382004941378
20
-5.23127788693168
30
0
41
1
10
42.6756564500581
20
-5.12338162492333
30
0
41
1
10
41.9496323850576
20
-4.89421898569935
30
0
41
1
10
41.585922159765
20
-4.77225666768004
30
0
41
1
10
40.8598384609324
20
-4.51561106892493
30
0
41
1
10
40.4971433826863
20
-4.38163879393542
30
0
41
1
10
39.7716772292748
20
-4.10335817983207
30
0
41
1
10
39.4099196940018
20
-3.95740147385916
30
0
41
1
10
38.6851248820734
20
-3.65625025636675
30
0
41
1
10
38.3224205550124
20
-3.50108907638921
30
0
41
1
10
37.5965885970112
20
-3.18103332642974
30
0
41
1
10
37.2329942693079
20
-3.01577563519629
30
0
41
1
10
36.6881021989847
20
-2.76272043009703
30
0
41
1
10
36.506533021014
20
-2.67759106074195
30
0
41
1
10
36.1434361559379
20
-2.50618366280347
30
0
41
1
10
35.9623045265627
20
-2.41914881491337
30
0
41
1
10
35.4188040778911
20
-2.15604036464148
30
0
41
1
10
35.0563234187569
20
-1.97808896467347
30
0
41
1
10
34.3313468689528
20
-1.61672027067479
30
0
41
1
10
33.9688582249883
20
-1.43348733198673
30
0
41
1
10
33.2430860534245
20
-1.06348859578387
30
0
41
1
10
32.8790476691998
20
-0.876902129203643
30
0
41
1
10
32.3339469139301
20
-0.595763543339075
30
0
41
1
10
32.1527592959195
20
-0.501140691952543
30
0
41
1
10
31.7900941420268
20
-0.312615267208628
30
0
41
1
10
31.6087727405389
20
-0.218416174138213
30
0
41
1
10
31.0647764829526
20
0.0638693804301056
30
0
41
1
10
30.7023124386177
20
0.252109028538825
30
0
41
1
10
29.9775157734233
20
0.628062641874806
30
0
41
1
10
29.6150915278705
20
0.815654638875429
30
0
41
1
10
29.0703709749758
20
1.0944663617629
30
0
41
1
10
28.8885394929743
20
1.18682411402159
30
0
41
1
10
28.5250915020258
20
1.37176063058365
30
0
41
1
10
28.3434688030174
20
1.46432256317277
30
0
41
1
10
27.799468481706
20
1.73841592503527
30
0
41
1
10
27.4375057800258
20
1.91778228297849
30
0
41
1
10
26.7154590556335
20
2.27119130435119
30
0
41
1
10
26.3553678372648
20
2.44504890295556
30
0
41
1
10
25.8159179627558
20
2.70006820223898
30
0
41
1
10
25.6361716771459
20
2.7840367082741
30
0
41
1
10
25.276779334843
20
2.94982852890462
30
0
41
1
10
25.0970028252097
20
3.03143260011393
30
0
41
1
10
24.5589582317427
20
3.27499754687543
30
0
41
1
10
24.2004885605149
20
3.43330399935795
30
0
41
1
10
23.4828615309152
20
3.73822391478194
30
0
41
1
10
23.1240349639547
20
3.88581651009702
30
0
41
1
10
22.405764302588
20
4.17179416217465
30
0
41
1
10
22.0462909853044
20
4.30988311464569
30
0
41
1
10
21.5056751018806
20
4.50817087661582
30
0
41
1
10
21.3251644702453
20
4.57270389748362
30
0
41
1
10
20.9645080878735
20
4.69993038082822
30
0
41
1
10
20.7839680945021
20
4.76207308122414
30
0
41
1
10
20.2413694787667
20
4.94359064131359
30
0
41
1
10
19.8778999517333
20
5.05855135105952
30
0
41
1
10
19.1510615668935
20
5.27383608706202
30
0
41
1
10
18.7890851250822
20
5.37305961580552
30
0
41
1
10
18.0658336247731
20
5.55819374582597
30
0
41
1
10
17.7043124264125
20
5.64315139318677
30
0
41
1
10
16.9839346697174
20
5.79890242277563
30
0
41
1
10
16.6238299642384
20
5.86880154641636
30
0
41
1
10
15.9036899721021
20
5.99325669275868
30
0
41
1
10
15.5438839020179
20
6.04781721077578
30
0
41
1
10
14.8240996380958
20
6.1401715926458
30
0
41
1
10
14.4639722762694
20
6.17799960727436
30
0
41
1
10
13.9226911918682
20
6.22270440824974
30
0
41
1
10
13.7422031327648
20
6.23563686183738
30
0
41
1
10
13.3813918900445
20
6.25745647207177
30
0
41
1
10
13.2008249730016
20
6.26627841026547
30
0
41
1
10
12.6582197506392
20
6.28627128857173
30
0
41
1
10
12.2951349855095
20
6.29095293837415
30
0
41
1
10
11.9309963550062
20
6.28747197773052
30
0
0
SPLINE
5
EC
100
AcDbEntity
8
1
62
256
6
ByLayer
370
18
48
1
60
0
100
AcDbSpline
70
4
71
3
72
30
73
26
40
0
40
0
40
0
40
0
40
0.137159873088734
40
0.137159873088734
40
0.342509313355564
40
0.342509313355564
40
0.445184033488978
40
0.445184033488978
40
0.496521393555686
40
0.522190073589039
40
0.528607243597378
40
0.528607243597378
40
0.535024413605716
40
0.535024413605716
40
0.541441583614054
40
0.541441583614054
40
0.547858753622393
40
0.547858753622393
40
0.650533473755808
40
0.650533473755808
40
0.753208193889222
40
0.753208193889222
40
0.958557634156051
40
0.958557634156051
40
1
40
1
40
1
40
1
41
1
10
11.9309963550062
20
3.48287647044239
30
0
41
1
10
11.9309963550062
20
3.15206124080621
30
0
41
1
10
11.9309963550062
20
2.80713936394559
30
0
41
1
10
11.9309963550062
20
1.91221235200729
30
0
41
1
10
11.9309963550062
20
1.34546588688073
30
0
41
1
10
11.9309963550062
20
0.450357052671592
30
0
41
1
10
11.9309963550062
20
0.144072988479024
30
0
41
1
10
11.9309963550062
20
-0.32561149745618
30
0
41
1
10
11.9309963550062
20
-0.562214193635242
30
0
41
1
10
11.9309963550062
20
-0.821355869369569
30
0
41
1
10
11.9309963550062
20
-0.921475701081789
30
0
41
1
10
11.9309963550062
20
-0.961559586735405
30
0
41
1
10
11.9309963550062
20
-0.981424622312346
30
0
41
1
10
11.9309963550062
20
-1.02304362336827
30
0
41
1
10
11.9309963550076
20
-1.04460606195306
30
0
41
1
10
11.9309963550076
20
-1.08956077615997
30
0
41
1
10
11.9309963550061
20
-1.1133013094186
30
0
41
1
10
11.9309963550061
20
-1.51332162671403
30
0
41
1
10
11.9309963550062
20
-1.89410330053875
30
0
41
1
10
11.9309963550062
20
-2.66491175385389
30
0
41
1
10
11.9309963550062
20
-3.05237895265341
30
0
41
1
10
11.9309963550062
20
-4.22072296339263
30
0
41
1
10
11.9309963550062
20
-5.00772117659838
30
0
41
1
10
11.9309963550062
20
-5.9648195589188
30
0
41
1
10
11.9309963550062
20
-6.12604202321597
30
0
41
1
10
11.9309963550062
20
-6.28747197773055
30
0
0
SPLINE
5
ED
100
AcDbEntity
8
1
62
256
6
ByLayer
370
18
48
1
60
0
100
AcDbSpline
70
4
71
3
72
8
73
4
40
0
40
0
40
0
40
0
40
1
40
1
40
1
40
1
41
1
10
156.999958921044
20
0.0471986494481484
30
0
41
1
10
157.000013692962
20
0.0157328962536667
30
0
41
1
10
157.000013692962
20
-0.0157328962530698
30
0
41
1
10
156.999958921044
20
-0.0471986494475516
30
0
0
SPLINE
5
EE
100
AcDbEntity
8
1
62
256
6
ByLayer
370
18
48
1
60
0
100
AcDbSpline
70
4
71
3
72
8
73
4
40
0
40
0
40
0
40
0
40
1
40
1
40
1
40
1
41
1
10
154.827460581411
20
6.56376574948379
30
0
41
1
10
154.743014255573
20
6.64672590305108
30
0
41
1
10
154.669139247299
20
6.70239822491581
30
0
41
1
10
154.605193334788
20
6.72994284118883
30
0
0
SPLINE
5
EF
100
AcDbEntity
8
1
62
256
6
ByLayer
370
18
48
1
60
0
100
AcDbSpline
70
4
71
3
72
16
73
12
40
0
40
0
40
0
40
0
40
0.155045554728764
40
0.155045554728764
40
0.371589556261155
40
0.371589556261155
40
0.47986155702735
40
0.47986155702735
40
0.588133557793545
40
0.588133557793545
40
1
40
1
40
1
40
1
41
1
10
20.3226838025211
20
0.0004637168161992
30
0
41
1
10
20.8678652323698
20
-0.286775227666794
30
0
41
1
10
21.4121522628404
20
-0.57367292476053
30
0
41
1
10
22.7168852290964
20
-1.25579454240562
30
0
41
1
10
23.477479189323
20
-1.64876532220467
30
0
41
1
10
24.6236317763878
20
-2.22208289565557
30
0
41
1
10
25.0065102901241
20
-2.41058547406209
30
0
41
1
10
25.7746397173427
20
-2.78101196768466
30
0
41
1
10
26.1607956270859
20
-2.96333126938851
30
0
41
1
10
28.0078360276023
20
-3.81280099375132
30
0
41
1
10
29.4520806935303
20
-4.40851010315464
30
0
41
1
10
30.8981742496722
20
-4.90021478041044
30
0
0
SPLINE
5
F0
100
AcDbEntity
8
1
62
256
6
ByLayer
370
13
48
1
60
0
100
AcDbSpline
70
4
71
3
72
20
73
16
40
0
40
0
40
0
40
0
40
0.0212168660807358
40
0.0212168660807358
40
0.237713879246878
40
0.237713879246878
40
0.345962385829948
40
0.345962385829948
40
0.400086639121483
40
0.400086639121483
40
0.454210892413018
40
0.454210892413018
40
0.887204918745292
40
0.887204918745292
40
1
40
1
40
1
40
1
41
1
10
30.8981751964323
20
-4.90021510233038
30
0
41
1
10
30.9726853514274
20
-4.92555024621211
30
0
41
1
10
31.0472004149395
20
-4.95060927507936
30
0
41
1
10
31.8821534784315
20
-5.22823568559909
30
0
41
1
10
32.6433469035952
20
-5.45206188557268
30
0
41
1
10
33.7905948701489
20
-5.73877478068331
30
0
41
1
10
34.1739285698544
20
-5.82614059802978
30
0
41
1
10
34.7509110180284
20
-5.94422968687792
30
0
41
1
10
34.9438013947191
20
-5.98147722105438
30
0
41
1
10
35.3288486593705
20
-6.05129386292245
30
0
41
1
10
35.5210187469424
20
-6.08387523742456
30
0
41
1
10
37.247929154164
20
-6.35604046664079
30
0
41
1
10
38.7645461126397
20
-6.44779302770377
30
0
41
1
10
40.6817448408069
20
-6.37282173468887
30
0
41
1
10
41.0783126979726
20
-6.3470973107612
30
0
41
1
10
41.475598051225
20
-6.31114397053511
30
0
0
SPLINE
5
F1
100
AcDbEntity
8
1
62
256
6
ByLayer
370
18
48
1
60
0
100
AcDbSpline
70
4
71
3
72
16
73
12
40
0
40
0
40
0
40
0
40
0.296448312663652
40
0.296448312663652
40
0.399096614663842
40
0.399096614663842
40
0.501744916664031
40
0.501744916664031
40
0.707041520664417
40
0.707041520664417
40
1
40
1
40
1
40
1
41
1
10
96.5565068783964
20
-0.0176941341271117
30
0
41
1
10
97.6527386263648
20
-0.600013600273144
30
0
41
1
10
98.7489368326322
20
-1.18234474790941
30
0
41
1
10
100.236645320645
20
-1.94325968064143
30
0
41
1
10
100.620586261232
20
-2.13704149998009
30
0
41
1
10
101.390330562589
20
-2.51859674071937
30
0
41
1
10
101.773773290284
20
-2.70519593769043
30
0
41
1
10
102.920984932753
20
-3.25065046963365
30
0
41
1
10
103.681635702713
20
-3.59518722457992
30
0
41
1
10
105.525059608536
20
-4.37414036653399
30
0
41
1
10
106.606442226274
20
-4.78436534177013
30
0
41
1
10
107.693878065072
20
-5.13471435181967
30
0
0
SPLINE
5
F2
100
AcDbEntity
8
1
62
256
6
ByLayer
370
13
48
1
60
0
100
AcDbSpline
70
4
71
3
72
18
73
14
40
0
40
0
40
0
40
0
40
0.134791432694605
40
0.134791432694605
40
0.193601113794047
40
0.193601113794047
40
0.25241079489349
40
0.25241079489349
40
0.370030157092369
40
0.370030157092369
40
0.605268881490125
40
0.605268881490125
40
1
40
1
40
1
40
1
41
1
10
107.693879018248
20
-5.13471465891291
30
0
41
1
10
108.130528360038
20
-5.27539390030006
30
0
41
1
10
108.568153691105
20
-5.40641906185795
30
0
41
1
10
109.198912081167
20
-5.57961926816296
30
0
41
1
10
109.390801224185
20
-5.63025041215315
30
0
41
1
10
109.775265953127
20
-5.72741020857575
30
0
41
1
10
109.967815527426
20
-5.77392389775474
30
0
41
1
10
110.543810187792
20
-5.90647844531489
30
0
41
1
10
110.926528476208
20
-5.98582394449662
30
0
41
1
10
112.071801985174
20
-6.19633052211489
30
0
41
1
10
112.831672329021
20
-6.30000014533292
30
0
41
1
10
114.864473470525
20
-6.47724142333033
30
0
41
1
10
116.136065452834
20
-6.48267729965573
30
0
41
1
10
117.419363197738
20
-6.37991976286133
30
0
0
SPLINE
5
F3
100
AcDbEntity
8
1
62
256
6
ByLayer
370
18
48
1
60
0
100
AcDbSpline
70
4
71
3
72
8
73
4
40
0
40
0
40
0
40
0
40
1
40
1
40
1
40
1
41
1
10
156.999958921044
20
0.0471986494481769
30
0
41
1
10
156.992060191655
20
0.0234331655275923
30
0
41
1
10
156.981923704852
20
-0.0007743758492609
30
0
41
1
10
156.971859187377
20
-0.0194932863491317
30
0
0
SPLINE
5
F4
100
AcDbEntity
8
1
62
256
6
ByLayer
370
18
48
1
60
0
100
AcDbSpline
70
4
71
3
72
10
73
6
40
0
40
0
40
0
40
0
40
0.5
40
0.5
40
1
40
1
40
1
40
1
41
1
10
156.975241052682
20
-0.16017868990923
30
0
41
1
10
156.977196514345
20
-0.144396532005174
30
0
41
1
10
156.98047436338
20
-0.126682183674745
30
0
41
1
10
156.98890815523
20
-0.0885060287261297
30
0
41
1
10
156.994081941906
20
-0.0680977717851761
30
0
41
1
10
156.999958921044
20
-0.0471986494485463
30
0
0
SPLINE
5
F5
100
AcDbEntity
8
1
62
256
6
ByLayer
370
18
48
1
60
0
100
AcDbSpline
70
4
71
3
72
8
73
4
40
0
40
0
40
0
40
0
40
1
40
1
40
1
40
1
41
1
10
154.713744309495
20
-6.45428959167538
30
0
41
1
10
154.677602467777
20
-6.54630605280906
30
0
41
1
10
154.641416372965
20
-6.63818924194084
30
0
41
1
10
154.605193334788
20
-6.7299428411888
30
0
0
SPLINE
5
F6
100
AcDbEntity
8
1
62
256
6
ByLayer
370
18
48
1
60
0
100
AcDbSpline
70
4
71
3
72
66
73
62
40
0
40
0
40
0
40
0
40
0.0434518125220594
40
0.0434518125220594
40
0.0651777187830887
40
0.0651777187830887
40
0.0869036250441181
40
0.0869036250441181
40
0.130355437566177
40
0.130355437566177
40
0.173807250088237
40
0.173807250088237
40
0.217259062610296
40
0.217259062610296
40
0.238984968871326
40
0.238984968871326
40
0.260710875132356
40
0.260710875132356
40
0.304162687654416
40
0.304162687654416
40
0.347614500176476
40
0.347614500176476
40
0.369340406437506
40
0.369340406437506
40
0.391066312698537
40
0.391066312698537
40
0.434518125220597
40
0.434518125220597
40
0.477969937742657
40
0.477969937742657
40
0.499695844003687
40
0.499695844003687
40
0.521421750264717
40
0.521421750264717
40
0.564873562786778
40
0.564873562786778
40
0.60832537530884
40
0.60832537530884
40
0.651777187830901
40
0.651777187830901
40
0.673503094091932
40
0.673503094091932
40
0.695229000352963
40
0.695229000352963
40
0.738680812875026
40
0.738680812875026
40
0.782132625397088
40
0.782132625397088
40
0.825584437919151
40
0.825584437919151
40
0.869036250441213
40
0.869036250441213
40
0.912488062963276
40
0.912488062963276
40
0.934213969224307
40
0.934213969224307
40
0.955939875485338
40
0.955939875485338
40
0.999391688007401
40
0.999391688007401
40
1
40
1
40
1
40
1
41
1
10
11.9309963550062
20
3.48287647044239
30
0
41
1
10
12.3051348579143
20
3.30613180416435
30
0
41
1
10
12.6785358424926
20
3.12608931609765
30
0
41
1
10
13.2378836386993
20
2.85183525360964
30
0
41
1
10
13.4241532700559
20
2.75962652842182
30
0
41
1
10
13.7959649729289
20
2.57299200369459
30
0
41
1
10
13.9812084266361
20
2.47804080143129
30
0
41
1
10
14.5371595897977
20
2.19214045713741
30
0
41
1
10
14.90791495812
20
1.99987080758206
30
0
41
1
10
15.6478690387016
20
1.60885365103584
30
0
41
1
10
16.0171145818645
20
1.41016582676326
30
0
41
1
10
16.7566030038445
20
1.01089123795418
30
0
41
1
10
17.127007962818
20
0.810626432250245
30
0
41
1
10
17.6820276221601
20
0.50634898439327
30
0
41
1
10
17.8668662422761
20
0.404138896038461
30
0
41
1
10
18.2374615685203
20
0.200492851046391
30
0
41
1
10
18.4230479593464
20
0.0987409206942402
30
0
41
1
10
18.9804951861675
20
-0.20663182137352
30
0
41
1
10
19.3524748563032
20
-0.411456291604622
30
0
41
1
10
20.0987284359621
20
-0.820638222403261
30
0
41
1
10
20.4740594074943
20
-1.02463315375627
30
0
41
1
10
21.0360109375899
20
-1.32745767856181
30
0
41
1
10
21.2231159464924
20
-1.42802400037442
30
0
41
1
10
21.5965359431732
20
-1.6290401482118
30
0
41
1
10
21.7833268391094
20
-1.72863769799676
30
0
41
1
10
22.3438908498484
20
-2.02482995465593
30
0
41
1
10
22.7177438551698
20
-2.21903441142203
30
0
41
1
10
23.4646398914308
20
-2.60279164675654
30
0
41
1
10
23.8382654229631
20
-2.79132650851778
30
0
41
1
10
24.4001172957768
20
-3.0672071638229
30
0
41
1
10
24.587681337026
20
-3.15815515805542
30
0
41
1
10
24.9625165715362
20
-3.33795862783671
30
0
41
1
10
25.1493578848635
20
-3.42728191623681
30
0
41
1
10
25.7101325466223
20
-3.69033836068627
30
0
41
1
10
26.0843161977963
20
-3.8592486165179
30
0
41
1
10
26.8314874422883
20
-4.18711049099926
30
0
41
1
10
27.2045214069803
20
-4.34591714773347
30
0
41
1
10
27.9520337729924
20
-4.64968445310757
30
0
41
1
10
28.3267197726479
20
-4.79445364916253
30
0
41
1
10
28.888261164234
20
-5.00324188948733
30
0
41
1
10
29.0753234916658
20
-5.07132505668861
30
0
41
1
10
29.4490547938456
20
-5.20277839871511
30
0
41
1
10
29.635748114054
20
-5.26639670290865
30
0
41
1
10
30.1951046662256
20
-5.45129992338821
30
0
41
1
10
30.5664863730129
20
-5.56723510122697
30
0
41
1
10
31.3079762189483
20
-5.78258119153253
30
0
41
1
10
31.6784255691599
20
-5.88170678965912
30
0
41
1
10
32.4186013790224
20
-6.06330347961685
30
0
41
1
10
32.7874349786468
20
-6.14640399945679
30
0
41
1
10
33.5266602705508
20
-6.29412358402729
30
0
41
1
10
33.8966118764393
20
-6.35917331667119
30
0
41
1
10
34.6361276257456
20
-6.4721109870425
30
0
41
1
10
35.006247648871
20
-6.5196447237104
30
0
41
1
10
35.5631053600888
20
-6.57706953378931
30
0
41
1
10
35.7489525995288
20
-6.59392567835255
30
0
41
1
10
36.1209459081074
20
-6.62307840253041
30
0
41
1
10
36.3067972495188
20
-6.63543625652429
30
0
41
1
10
36.8656306754502
20
-6.66532392198428
30
0
41
1
10
37.2407111524726
20
-6.67576195483835
30
0
41
1
10
37.6203782252234
20
-6.67671628782264
30
0
41
1
10
37.6256198497501
20
-6.67672758543907
30
0
41
1
10
37.6308612643965
20
-6.67673700519356
30
0
0
SPLINE
5
F7
100
AcDbEntity
8
1
62
256
6
ByLayer
370
18
48
1
60
0
100
AcDbSpline
70
4
71
3
72
128
73
124
40
0
40
0
40
0
40
0
40
0.0104927207550243
40
0.0104927207550243
40
0.0323525556951475
40
0.0323525556951475
40
0.0542123906352704
40
0.0542123906352704
40
0.0651423081053317
40
0.0651423081053317
40
0.0760722255753929
40
0.0760722255753929
40
0.0979320605155161
40
0.0979320605155161
40
0.119791895455639
40
0.119791895455639
40
0.130721812925701
40
0.130721812925701
40
0.141651730395762
40
0.141651730395762
40
0.163511565335885
40
0.163511565335885
40
0.185371400276007
40
0.185371400276007
40
0.20723123521613
40
0.20723123521613
40
0.218161152686191
40
0.218161152686191
40
0.229091070156252
40
0.229091070156252
40
0.240020987626313
40
0.240020987626313
40
0.250950905096375
40
0.250950905096375
40
0.272810740036497
40
0.272810740036497
40
0.283740657506557
40
0.283740657506557
40
0.294670574976618
40
0.294670574976618
40
0.31653040991674
40
0.31653040991674
40
0.338390244856862
40
0.338390244856862
40
0.349320162326923
40
0.349320162326923
40
0.360250079796985
40
0.360250079796985
40
0.382109914737109
40
0.382109914737109
40
0.403969749677234
40
0.403969749677234
40
0.425829584617359
40
0.425829584617359
40
0.436759502087421
40
0.436759502087421
40
0.447689419557484
40
0.447689419557484
40
0.469549254497608
40
0.469549254497608
40
0.491409089437732
40
0.491409089437732
40
0.502339006907795
40
0.502339006907795
40
0.513268924377857
40
0.513268924377857
40
0.535128759317981
40
0.535128759317981
40
0.556988594258106
40
0.556988594258106
40
0.567918511728168
40
0.567918511728168
40
0.578848429198231
40
0.578848429198231
40
0.600708264138354
40
0.600708264138354
40
0.622568099078477
40
0.622568099078477
40
0.6444279340186
40
0.6444279340186
40
0.655357851488661
40
0.655357851488661
40
0.666287768958723
40
0.666287768958723
40
0.688147603898846
40
0.688147603898846
40
0.710007438838969
40
0.710007438838969
40
0.720937356309031
40
0.720937356309031
40
0.731867273779093
40
0.731867273779093
40
0.753727108719216
40
0.753727108719216
40
0.775586943659339
40
0.775586943659339
40
0.7865168611294
40
0.7865168611294
40
0.797446778599461
40
0.797446778599461
40
0.819306613539584
40
0.819306613539584
40
0.841166448479707
40
0.841166448479707
40
0.86302628341983
40
0.86302628341983
40
0.873956200889892
40
0.873956200889892
40
0.884886118359954
40
0.884886118359954
40
0.906745953300076
40
0.906745953300076
40
0.928605788240197
40
0.928605788240197
40
0.939535705710258
40
0.939535705710258
40
0.950465623180319
40
0.950465623180319
40
0.97232545812044
40
0.97232545812044
40
0.994185293060561
40
0.994185293060561
40
1
40
1
40
1
40
1
41
1
10
62.8028134631542
20
3.22326482352474
30
0
41
1
10
62.9823326448131
20
3.31020066620116
30
0
41
1
10
63.1616685316361
20
3.39571957929275
30
0
41
1
10
63.7139008981362
20
3.6553938063783
30
0
41
1
10
64.0854504469126
20
3.82610959851635
30
0
41
1
10
64.8270106243809
20
4.15555220504743
30
0
41
1
10
65.1973907099706
20
4.31375676391062
30
0
41
1
10
65.7523313303691
20
4.5415435876248
30
0
41
1
10
65.9371561332522
20
4.61595742380425
30
0
41
1
10
66.3060428287463
20
4.76230587114327
30
0
41
1
10
66.4905893839322
20
4.83359520798695
30
0
41
1
10
67.0445184538485
20
5.04191978008373
30
0
41
1
10
67.4141043038481
20
5.17355515478152
30
0
41
1
10
68.1526751621935
20
5.42365777613782
30
0
41
1
10
68.5222039649308
20
5.54144937852647
30
0
41
1
10
69.0780705034795
20
5.70597830615355
30
0
41
1
10
69.2635718091295
20
5.75885252671827
30
0
41
1
10
69.6348420315407
20
5.86079156240518
30
0
41
1
10
69.8203458512791
20
5.91009357520991
30
0
41
1
10
70.3778894698013
20
6.05158865979971
30
0
41
1
10
70.7513984624442
20
6.13709955411639
30
0
41
1
10
71.5003272950653
20
6.29163365997428
30
0
41
1
10
71.8735724239447
20
6.36019804126312
30
0
41
1
10
72.6202816672024
20
6.47842709673887
30
0
41
1
10
72.9938730321157
20
6.52814485042873
30
0
41
1
10
73.5533554116612
20
6.58917746069542
30
0
41
1
10
73.7394884524153
20
6.60730326565329
30
0
41
1
10
74.1125522046469
20
6.63862590338644
30
0
41
1
10
74.2992869141839
20
6.65189869159914
30
0
41
1
10
74.6730617746629
20
6.67372651592322
30
0
41
1
10
74.8600342320191
20
6.68229558371567
30
0
41
1
10
75.23397831142
20
6.69470789453626
30
0
41
1
10
75.421148568216
20
6.69853516390603
30
0
41
1
10
75.9814375816269
20
6.70279568063708
30
0
41
1
10
76.3540289257677
20
6.69606819983971
30
0
41
1
10
76.911587738156
20
6.67203297971278
30
0
41
1
10
77.0972004426695
20
6.66169935569863
30
0
41
1
10
77.4673328567822
20
6.63620635445895
30
0
41
1
10
77.6523593444972
20
6.62115734570497
30
0
41
1
10
78.2073945268025
20
6.56926016798099
30
0
41
1
10
78.5772612834765
20
6.52568190475122
30
0
41
1
10
79.3153923965462
20
6.42006122103535
30
0
41
1
10
79.6841877038725
20
6.35819427189426
30
0
41
1
10
80.2382361789064
20
6.25264645948323
30
0
41
1
10
80.423013670269
20
6.21531847146224
30
0
41
1
10
80.7925986755233
20
6.13625180165573
30
0
41
1
10
80.977167434538
20
6.09432831504898
30
0
41
1
10
81.5313660393222
20
5.96215212962176
30
0
41
1
10
81.9021338373355
20
5.8661100632323
30
0
41
1
10
82.6447494919763
20
5.65685448629674
30
0
41
1
10
83.0163892727127
20
5.54332350673707
30
0
41
1
10
83.7629610591188
20
5.30083901900724
30
0
41
1
10
84.1381417457383
20
5.17199525307487
30
0
41
1
10
84.6984621824332
20
4.96771621819519
30
0
41
1
10
84.884688494678
20
4.89733784558942
30
0
41
1
10
85.2576748552075
20
4.75401884277181
30
0
41
1
10
85.4442438983759
20
4.68085252483388
30
0
41
1
10
86.0040687910456
20
4.4567508953908
30
0
41
1
10
86.376861455923
20
4.30043029892869
30
0
41
1
10
87.1227648358895
20
3.97538727330664
30
0
41
1
10
87.4963390045333
20
3.80734778478086
30
0
41
1
10
88.0577857302658
20
3.54727446832865
30
0
41
1
10
88.2450862237122
20
3.45930405859201
30
0
41
1
10
88.6183494024117
20
3.27986004176222
30
0
41
1
10
88.804942984927
20
3.1891537221712
30
0
41
1
10
89.3649154579071
20
2.91461945624681
30
0
41
1
10
89.7383149340858
20
2.72812446548366
30
0
41
1
10
90.4838542042368
20
2.34581999595196
30
0
41
1
10
90.8565374354942
20
2.15089039171389
30
0
41
1
10
91.4167731288509
20
1.85516055967753
30
0
41
1
10
91.6036703213778
20
1.75594524182733
30
0
41
1
10
91.977603034656
20
1.555937602814
30
0
41
1
10
92.1645599524699
20
1.4545989211621
30
0
41
1
10
92.7247296512
20
1.14985029829415
30
0
41
1
10
93.0976281896691
20
0.9469592971586
30
0
41
1
10
93.8408180919186
20
0.538777681940218
30
0
41
1
10
94.2109330078457
20
0.333170434611787
30
0
41
1
10
94.9507971703423
20
-0.0762340924752607
30
0
41
1
10
95.3206314517882
20
-0.27988713636617
30
0
41
1
10
95.8743282306767
20
-0.585488704503547
30
0
41
1
10
96.0584107108706
20
-0.687937812428743
30
0
41
1
10
96.4271980064407
20
-0.891079997639565
30
0
41
1
10
96.6117186378003
20
-0.992113339193736
30
0
41
1
10
97.1655668528635
20
-1.29378280113161
30
0
41
1
10
97.5346347518184
20
-1.49397994891143
30
0
41
1
10
98.2734196128416
20
-1.89073328766179
30
0
41
1
10
98.6435977375345
20
-2.08646275756925
30
0
41
1
10
99.2002894445039
20
-2.37564838048635
30
0
41
1
10
99.3861382056677
20
-2.47122619051041
30
0
41
1
10
99.7575220287796
20
-2.66229334351621
30
0
41
1
10
99.9434740441864
20
-2.75704472594703
30
0
41
1
10
100.502827637442
20
-3.03769387765934
30
0
41
1
10
100.87786183565
20
-3.22070759841176
30
0
41
1
10
101.624465125909
20
-3.57808031628767
30
0
41
1
10
101.997128830375
20
-3.75189398848653
30
0
41
1
10
102.556617336083
20
-4.00320895896093
30
0
41
1
10
102.743151006926
20
-4.08548611230702
30
0
41
1
10
103.116127733794
20
-4.24729329810583
30
0
41
1
10
103.302379546002
20
-4.32709009085943
30
0
41
1
10
103.86115353289
20
-4.56206604932984
30
0
41
1
10
104.234740720188
20
-4.71144518660336
30
0
41
1
10
104.98258926258
20
-4.99768669052429
30
0
41
1
10
105.356146843125
20
-5.13468505026719
30
0
41
1
10
106.102471950158
20
-5.39213582329805
30
0
41
1
10
106.47572659001
20
-5.51273907629377
30
0
41
1
10
107.034955384032
20
-5.68236766194931
30
0
41
1
10
107.220906662999
20
-5.73734902074145
30
0
41
1
10
107.593529997156
20
-5.84259338404607
30
0
41
1
10
107.78002822285
20
-5.89303639370013
30
0
41
1
10
108.339991339739
20
-6.03796549014592
30
0
41
1
10
108.713528585663
20
-6.12655044603144
30
0
41
1
10
109.461021128439
20
-6.28634076710239
30
0
41
1
10
109.834419436111
20
-6.35700185517203
30
0
41
1
10
110.394238235017
20
-6.44926006089858
30
0
41
1
10
110.580839986599
20
-6.47771199508054
30
0
41
1
10
110.953122129869
20
-6.53038775899353
30
0
41
1
10
111.139277032432
20
-6.55437669115335
30
0
41
1
10
111.698360682062
20
-6.61914074838341
30
0
41
1
10
112.07165883031
20
-6.65288473374093
30
0
41
1
10
112.817862452203
20
-6.70181536965509
30
0
41
1
10
113.191751754965
20
-6.71679477408443
30
0
41
1
10
113.66491125975
20
-6.72357300753561
30
0
41
1
10
113.76430546421
20
-6.72432234363609
30
0
41
1
10
113.863665753552
20
-6.72439824219339
30
0
0
SPLINE
5
F8
100
AcDbEntity
8
1
62
256
6
ByLayer
370
18
48
1
60
0
100
AcDbSpline
70
4
71
3
72
42
73
38
40
0
40
0
40
0
40
0
40
0.0140825296120734
40
0.0140825296120734
40
0.0845052060683562
40
0.0845052060683562
40
0.119716544296497
40
0.119716544296497
40
0.154927882524638
40
0.154927882524638
40
0.225350558980921
40
0.225350558980921
40
0.295773235437203
40
0.295773235437203
40
0.330984573665344
40
0.330984573665344
40
0.366195911893484
40
0.366195911893484
40
0.436618588349763
40
0.436618588349763
40
0.507041264806042
40
0.507041264806042
40
0.577463941262321
40
0.577463941262321
40
0.6478866177186
40
0.6478866177186
40
0.718309294174879
40
0.718309294174879
40
0.788731970631157
40
0.788731970631157
40
0.823943308859296
40
0.823943308859296
40
0.859154647087434
40
0.859154647087434
40
0.929577323543717
40
0.929577323543717
40
1
40
1
40
1
40
1
41
1
10
139.020266595551
20
3.24954695418364
30
0
41
1
10
139.094843715594
20
3.28594508644463
30
0
41
1
10
139.169405722187
20
3.32213549493324
30
0
41
1
10
139.616752822606
20
3.53792472959944
30
0
41
1
10
139.989645892923
20
3.71209849329892
30
0
41
1
10
140.548474556188
20
3.96592879790319
30
0
41
1
10
140.734295680873
20
4.04982893369373
30
0
41
1
10
141.106602721688
20
4.21389369153491
30
0
41
1
10
141.292950273536
20
4.29426915084872
30
0
41
1
10
141.852500076705
20
4.5305701418095
30
0
41
1
10
142.226111141615
20
4.68255544504288
30
0
41
1
10
142.972473228204
20
4.97315015949633
30
0
41
1
10
143.344592553563
20
5.11067353216666
30
0
41
1
10
143.901549398848
20
5.30523440488963
30
0
41
1
10
144.087048389524
20
5.3680849645686
30
0
41
1
10
144.456861250561
20
5.49074570555735
30
0
41
1
10
144.641501272929
20
5.55017348456389
30
0
41
1
10
145.195667214657
20
5.72172461415411
30
0
41
1
10
145.565071096424
20
5.82758711497215
30
0
41
1
10
146.302132875115
20
6.02397040280107
30
0
41
1
10
146.670234545297
20
6.11400916652684
30
0
41
1
10
147.407566765745
20
6.27632190386012
30
0
41
1
10
147.77672847535
20
6.34874893685415
30
0
41
1
10
148.513968219573
20
6.47711803972265
30
0
41
1
10
148.883857144999
20
6.5319974995266
30
0
41
1
10
149.625058926893
20
6.62382796184647
30
0
41
1
10
149.995898527318
20
6.66087976701095
30
0
41
1
10
150.740639060969
20
6.71595919564476
30
0
41
1
10
151.11518198993
20
6.73402164885297
30
0
41
1
10
151.674289571273
20
6.74677739772517
30
0
41
1
10
151.860041268014
20
6.74865715838294
30
0
41
1
10
152.231574810874
20
6.74760878236646
30
0
41
1
10
152.417322349866
20
6.74469893062502
30
0
41
1
10
152.974447992127
20
6.72893262649896
30
0
41
1
10
153.345296024229
20
6.70900593276926
30
0
41
1
10
154.086062469426
20
6.65025212258152
30
0
41
1
10
154.456532513663
20
6.61155467787526
30
0
41
1
10
154.827460581411
20
6.56376574948379
30
0
0
SPLINE
5
F9
100
AcDbEntity
8
1
62
256
6
ByLayer
370
18
48
1
60
0
100
AcDbSpline
70
4
71
3
72
16
73
12
40
0
40
0
40
0
40
0
40
0.12582689802158
40
0.269621162039354
40
0.368092425347534
40
0.466212961955221
40
0.580619366185928
40
0.721529035984472
40
0.862577521965593
40
0.995136545483905
40
1
40
1
40
1
40
1
41
1
10
8.25013582647216
20
-6.28713880316636
30
0
41
1
10
8.41347296079778
20
-6.28723675376835
30
0
41
1
10
8.76347422381045
20
-6.28744964782038
30
0
41
1
10
9.24133508383446
20
-6.28779802879009
30
0
41
1
10
9.6832013013553
20
-6.28805124638859
30
0
41
1
10
10.086932782273
20
-6.28822160815636
30
0
41
1
10
10.5457563332591
20
-6.28831701059008
30
0
41
1
10
11.0603084587196
20
-6.28824540329671
30
0
41
1
10
11.5984264845792
20
-6.28820986270202
30
0
41
1
10
11.9599304521465
20
-6.28839473686366
30
0
41
1
10
12.1383290023971
20
-6.28856732174035
30
0
41
1
10
12.1446426217493
20
-6.2885735132933
30
0
0
SPLINE
5
FA
100
AcDbEntity
8
1
62
256
6
ByLayer
370
18
48
1
60
0
100
AcDbSpline
70
4
71
2
72
6
73
3
40
0
40
0
40
0
40
1
40
1
40
1
41
1
10
96.5242006691981
20
-0.0005425729642354
30
0
41
1
10
96.52421204967
20
-0.0005469386823904
30
0
41
1
10
96.52422343022
20
-0.000551591421754
30
0
0
SPLINE
5
FB
100
AcDbEntity
8
1
62
256
6
ByLayer
370
18
48
1
60
0
100
AcDbSpline
70
4
71
1
72
4
73
2
40
0
40
0
40
1
40
1
41
1
10
153.894552987122
20
-6.37828256898234
30
0
41
1
10
154.662968082153
20
-6.37863299359168
30
0
0
SPLINE
5
FC
100
AcDbEntity
8
1
62
256
6
ByLayer
370
18
48
1
60
0
100
AcDbSpline
70
4
71
3
72
17
73
13
40
0
40
0
40
0
40
0
40
0.0048725076503712
40
0.152680146492389
40
0.310988509154313
40
0.460683281074189
40
0.522488836740042
40
0.575450346180652
40
0.631910696495534
40
0.7303809871286
40
0.874173831402387
40
1
40
1
40
1
40
1
41
1
10
12.1446780685787
20
6.28857344289349
30
0
41
1
10
12.1383526359458
20
6.28856727714881
30
0
41
1
10
11.9401450435726
20
6.28837661102756
30
0
41
1
10
11.5364235522005
20
6.28818878508937
30
0
41
1
10
10.9446927373246
20
6.28827236847988
30
0
41
1
10
10.4646104968561
20
6.28830406185082
30
0
41
1
10
10.121288919891
20
6.28822128872645
30
0
41
1
10
9.89900174023444
20
6.28814317530245
30
0
41
1
10
9.62912248306569
20
6.28802005440559
30
0
41
1
10
9.2413346461054
20
6.28779812869843
30
0
41
1
10
8.76347369033476
20
6.28744961869947
30
0
41
1
10
8.41347163255892
20
6.28723675291442
30
0
41
1
10
8.25013383170898
20
6.28713880192132
30
0
0
SPLINE
5
FD
100
AcDbEntity
8
1
62
256
6
ByLayer
370
18
48
1
60
0
100
AcDbSpline
70
4
71
3
72
18
73
14
40
0
40
0
40
0
40
0
40
0.0439107913033206
40
0.112435223729822
40
0.195624572140839
40
0.296153124306881
40
0.385970857118624
40
0.505732459175484
40
0.661858333338167
40
0.794843911909654
40
0.898424189547164
40
0.947404082001698
40
1
40
1
40
1
40
1
41
1
10
88.3071387332113
20
6.33580960594875
30
0
41
1
10
88.2061280035706
20
6.33563478765848
30
0
41
1
10
87.9474905848311
20
6.33526992540288
30
0
41
1
10
87.4975917491375
20
6.33477747268191
30
0
41
1
10
86.9172832754279
20
6.3354302511689
30
0
41
1
10
86.2885132710277
20
6.33537379065325
30
0
41
1
10
85.5749077314763
20
6.33388552032935
30
0
41
1
10
84.7346381103556
20
6.33418634764769
30
0
41
1
10
83.7937860647174
20
6.33378255433385
30
0
41
1
10
82.8906028944794
20
6.3327494666691
30
0
41
1
10
82.2336916875114
20
6.33287490566192
30
0
41
1
10
81.7619233695492
20
6.33263262883082
30
0
41
1
10
81.5282509267858
20
6.33239209931872
30
0
41
1
10
81.4072637892756
20
6.33227091918681
30
0
0
SPLINE
5
FE
100
AcDbEntity
8
1
62
256
6
ByLayer
370
18
48
1
60
0
100
AcDbSpline
70
4
71
3
72
24
73
20
40
0
40
0
40
0
40
0
40
0.0690437958432364
40
0.126862793082057
40
0.174165741334546
40
0.207792955493824
40
0.236427905805008
40
0.277412348638417
40
0.3294827324663
40
0.377762875714651
40
0.441733022922127
40
0.523685013988003
40
0.604136592368853
40
0.672475512538686
40
0.743425876545864
40
0.806547326390646
40
0.880570560662719
40
0.960018090140209
40
1
40
1
40
1
40
1
41
1
10
39.5111337596946
20
-6.30654447496548
30
0
41
1
10
39.7539790445693
20
-6.30608767647769
30
0
41
1
10
40.2010163093513
20
-6.30573034297217
30
0
41
1
10
40.83195699172
20
-6.30637528954509
30
0
41
1
10
41.3140575179053
20
-6.30780808097165
30
0
41
1
10
41.7072528608886
20
-6.30776805677633
30
0
41
1
10
42.0765050474508
20
-6.30814507708976
30
0
41
1
10
42.5127367170756
20
-6.3082774537356
30
0
41
1
10
43.0189672411945
20
-6.30844341055953
30
0
41
1
10
43.6077652354152
20
-6.30891949962228
30
0
41
1
10
44.3033187986653
20
-6.30965605077157
30
0
41
1
10
45.1144429088024
20
-6.30946126650159
30
0
41
1
10
45.9411181499294
20
-6.31009212245243
30
0
41
1
10
46.7283923276763
20
-6.31094470167176
30
0
41
1
10
47.4535823565612
20
-6.31081907178239
30
0
41
1
10
48.1991339401382
20
-6.31161023655829
30
0
41
1
10
48.9751329916823
20
-6.31222255819779
30
0
41
1
10
49.6682285794782
20
-6.31197007253701
30
0
41
1
10
50.0961145460011
20
-6.31247782123629
30
0
41
1
10
50.2393596670275
20
-6.31267527174543
30
0
0
SPLINE
5
FF
100
AcDbEntity
8
1
62
256
6
ByLayer
370
18
48
1
60
0
100
AcDbSpline
70
4
71
3
72
24
73
20
40
0
40
0
40
0
40
0
40
0.0837075669265143
40
0.152038920235
40
0.206446584665501
40
0.251203361188682
40
0.303088494598134
40
0.366554109792065
40
0.428847358036951
40
0.491552044621104
40
0.54215697304672
40
0.591823555957216
40
0.652931777669498
40
0.708886417441709
40
0.77178091264087
40
0.849537092677895
40
0.91154186913049
40
0.966555374076877
40
1
40
1
40
1
40
1
41
1
10
115.714577486348
20
-6.35410660341699
30
0
41
1
10
116.011715630389
20
-6.35376875349368
30
0
41
1
10
116.552002395272
20
-6.35350303063848
30
0
41
1
10
117.290574144136
20
-6.35469765452402
30
0
41
1
10
117.885678751831
20
-6.35521258921614
30
0
41
1
10
118.426367202295
20
-6.35523788765559
30
0
41
1
10
118.998458655985
20
-6.35543666425619
30
0
41
1
10
119.633520600914
20
-6.35626278220548
30
0
41
1
10
120.307185092777
20
-6.3563262540282
30
0
41
1
10
120.934887293803
20
-6.35612549676921
30
0
41
1
10
121.517459964503
20
-6.35683480542309
30
0
41
1
10
122.094322748164
20
-6.35746363230794
30
0
41
1
10
122.690307520523
20
-6.35738580068082
30
0
41
1
10
123.333581375066
20
-6.35738711263542
30
0
41
1
10
124.03636162597
20
-6.35855409630594
30
0
41
1
10
124.760767304612
20
-6.35854107602094
30
0
41
1
10
125.457004277138
20
-6.35837472494737
30
0
41
1
10
125.994845215377
20
-6.35961852492377
30
0
41
1
10
126.311045907153
20
-6.35968551664857
30
0
41
1
10
126.430596429784
20
-6.35968573076562
30
0
0
SPLINE
5
100
100
AcDbEntity
8
1
62
256
6
ByLayer
370
18
48
1
60
0
100
AcDbSpline
70
4
71
3
72
20
73
16
40
0
40
0
40
0
40
0
40
0.0334349211326079
40
0.116344388538284
40
0.213250999438477
40
0.296639160708412
40
0.362913274633957
40
0.439034434215372
40
0.548078520065777
40
0.626450383834349
40
0.686283034600415
40
0.783389387305009
40
0.890502212264227
40
0.977946519136655
40
1
40
1
40
1
40
1
41
1
10
126.430201396361
20
6.35976706351315
30
0
41
1
10
126.353534857536
20
6.35976678490789
30
0
41
1
10
126.086756734753
20
6.35971317205448
30
0
41
1
10
125.597765498913
20
6.35858444197166
30
0
41
1
10
124.994259743989
20
6.35841042013021
30
0
41
1
10
124.428794342395
20
6.35866198274911
30
0
41
1
10
123.911613831038
20
6.35821142646142
30
0
41
1
10
123.334869269878
20
6.35733668928503
30
0
41
1
10
122.730836827414
20
6.357377138337
30
0
41
1
10
122.164015331895
20
6.35744708694457
30
0
41
1
10
121.624413222962
20
6.35700426526057
30
0
41
1
10
121.018996035563
20
6.3561151598407
30
0
41
1
10
120.350222132476
20
6.3562920988141
30
0
41
1
10
119.853561109379
20
6.35631840609437
30
0
41
1
10
119.60250813631
20
6.35610748013792
30
0
41
1
10
119.551944423738
20
6.35606019320355
30
0
0
SPLINE
5
101
100
AcDbEntity
8
1
62
256
6
ByLayer
370
18
48
1
60
0
100
AcDbSpline
70
4
71
3
72
24
73
20
40
0
40
0
40
0
40
0
40
0.0877578882132661
40
0.154279415590817
40
0.205137363844292
40
0.24731289967685
40
0.296439188785879
40
0.340599939208309
40
0.384074914698727
40
0.436001863519664
40
0.504568513754777
40
0.570430537427334
40
0.624896442063482
40
0.690628529657466
40
0.770497295333929
40
0.83588979497907
40
0.89903599569359
40
0.968078632262567
40
1
40
1
40
1
40
1
41
1
10
77.612101048724
20
-6.33014464999383
30
0
41
1
10
77.925147244665
20
-6.33012244732018
30
0
41
1
10
78.4757547159686
20
-6.33025853102995
30
0
41
1
10
79.2112060926559
20
-6.33070757783807
30
0
41
1
10
79.7798901142332
20
-6.3314929196259
30
0
41
1
10
80.2881440580945
20
-6.33162277030419
30
0
41
1
10
80.7738667564668
20
-6.33173056355344
30
0
41
1
10
81.2601713125474
20
-6.33203449083007
30
0
41
1
10
81.7581025947323
20
-6.3313985063478
30
0
41
1
10
82.3376871539197
20
-6.33330359345086
30
0
41
1
10
83.0066483554546
20
-6.33262885658533
30
0
41
1
10
83.6821384673019
20
-6.33363079073166
30
0
41
1
10
84.3481488761648
20
-6.33416085350345
30
0
41
1
10
85.064126659897
20
-6.33384445000209
30
0
41
1
10
85.819266660933
20
-6.33459421282919
30
0
41
1
10
86.5651244356937
20
-6.33556791776167
30
0
41
1
10
87.2722512136423
20
-6.33500044396231
30
0
41
1
10
87.8595851709147
20
-6.33516374303568
30
0
41
1
10
88.2209240486388
20
-6.33559319406714
30
0
41
1
10
88.3351669365405
20
-6.33576060837621
30
0
0
SPLINE
5
102
100
AcDbEntity
8
1
62
256
6
ByLayer
370
18
48
1
60
0
100
AcDbSpline
70
4
71
3
72
21
73
17
40
0
40
0
40
0
40
0
40
0.0426531139171483
40
0.101069932346883
40
0.169066112185059
40
0.253680571787366
40
0.332006502339861
40
0.385413445272623
40
0.441274847289879
40
0.529249109297944
40
0.627044783252337
40
0.708423180278367
40
0.792844079540094
40
0.896667741238882
40
0.994616183830026
40
1
40
1
40
1
40
1
41
1
10
50.2381464949261
20
6.31265020052305
30
0
41
1
10
50.1396749185452
20
6.31251163811157
30
0
41
1
10
49.9063387136664
20
6.31224114223909
30
0
41
1
10
49.5160220055404
20
6.31204895156031
30
0
41
1
10
49.0288316417741
20
6.31208316661028
30
0
41
1
10
48.49567963838
20
6.31200857364845
30
0
41
1
10
47.9962055928869
20
6.31129622617797
30
0
41
1
10
47.5631160619097
20
6.31099019274231
30
0
41
1
10
47.1077482621858
20
6.3108613237454
30
0
41
1
10
46.5499113447396
20
6.31083439906502
30
0
41
1
10
45.9331509788435
20
6.31006063272307
30
0
41
1
10
45.3246092009848
20
6.30953724249764
30
0
41
1
10
44.702135580125
20
6.30963228814187
30
0
41
1
10
44.0414264941112
20
6.30945110868038
30
0
41
1
10
43.5631702498163
20
6.30890800774264
30
0
41
1
10
43.3246114965269
20
6.30872084890584
30
0
41
1
10
43.3121821166507
20
6.30871131491898
30
0
0
LINE
5
7B
100
AcDbEntity
8
SK1
62
256
6
ByLayer
370
18
48
1
60
0
100
AcDbLine
10
-43.055
20
7
30
0
11
-43.055
21
-7
31
0
39
0
210
0
220
0
230
1
0
LINE
5
7D
100
AcDbEntity
8
SK1
62
256
6
ByLayer
370
18
48
1
60
0
100
AcDbLine
10
0
20
-7
30
0
11
0
21
7
31
0
39
0
210
0
220
0
230
1
0
LINE
5
7E
100
AcDbEntity
8
SK1
62
256
6
ByLayer
370
18
48
1
60
0
100
AcDbLine
10
-45
20
-5.055
30
0
11
-45
21
-3.113011
31
0
39
0
210
0
220
0
230
1
0
LINE
5
7F
100
AcDbEntity
8
SK1
62
256
6
ByLayer
370
18
48
1
60
0
100
AcDbLine
10
-43.9
20
-3.483036
30
0
11
-43.9
21
-1.37694
31
0
39
0
210
0
220
0
230
1
0
LINE
5
80
100
AcDbEntity
8
SK1
62
256
6
ByLayer
370
18
48
1
60
0
100
AcDbLine
10
-45
20
5.055
30
0
11
-45
21
-0.823776
31
0
39
0
210
0
220
0
230
1
0
LINE
5
81
100
AcDbEntity
8
SK1
62
256
6
ByLayer
370
13
48
1
60
0
100
AcDbLine
10
-44
20
-1.236284
30
0
11
-44
21
-3.52556
31
0
39
0
210
0
220
0
230
1
0
LINE
5
82
100
AcDbEntity
8
SK1
62
256
6
ByLayer
370
18
48
1
60
0
100
AcDbLine
10
-45
20
-0.82382
30
0
11
-45
21
-3.113011
31
0
39
0
210
0
220
0
230
1
0
LINE
5
83
100
AcDbEntity
8
1
62
256
6
ByLayer
370
13
48
1
60
0
100
AcDbLine
10
154.610471
20
1.657135
30
0
11
156.975241
21
0.160179
31
0
39
0
210
0
220
0
230
1
0
LINE
5
84
100
AcDbEntity
8
1
62
256
6
ByLayer
370
18
48
1
60
0
100
AcDbLine
10
8
20
6.658233
30
0
11
8
21
5.736438
31
0
39
0
210
0
220
0
230
1
0
LINE
5
85
100
AcDbEntity
8
1
62
256
6
ByLayer
370
18
48
1
60
0
100
AcDbLine
10
153.584098
20
-4.692781
30
0
11
156.825313
21
-0.293507
31
0
39
0
210
0
220
0
230
1
0
LINE
5
86
100
AcDbEntity
8
1
62
256
6
ByLayer
370
18
48
1
60
0
100
AcDbLine
10
0
20
-7
30
0
11
0
21
7
31
0
39
0
210
0
220
0
230
1
0
LINE
5
87
100
AcDbEntity
8
1
62
256
6
ByLayer
370
13
48
1
60
0
100
AcDbLine
10
154.501435
20
1.544344
30
0
11
156.971859
21
-0.019493
31
0
39
0
210
0
220
0
230
1
0
LINE
5
88
100
AcDbEntity
8
1
62
256
6
ByLayer
370
13
48
1
60
0
100
AcDbLine
10
0.496953
20
6.826927
30
0
11
0.496953
21
-6.826927
31
0
39
0
210
0
220
0
230
1
0
LINE
5
89
100
AcDbEntity
8
1
62
256
6
ByLayer
370
18
48
1
60
0
100
AcDbLine
10
8
20
-6.658233
30
0
11
8
21
-5.050536
31
0
39
0
210
0
220
0
230
1
0
LINE
5
8A
100
AcDbEntity
8
1
62
256
6
ByLayer
370
13
48
1
60
0
100
AcDbLine
10
0.994406
20
6.653855
30
0
11
0.994406
21
-6.653855
31
0
39
0
210
0
220
0
230
1
0
LINE
5
8B
100
AcDbEntity
8
80
62
256
6
ByLayer
370
18
48
1
60
0
100
AcDbLine
10
0
20
0
30
0
11
-5
21
0
31
0
39
0
210
0
220
0
230
1
0
LINE
5
8C
100
AcDbEntity
8
4
62
256
6
ByLayer
370
18
48
0.05
60
0
100
AcDbLine
10
157
20
0
30
0
11
0
21
0
31
0
39
0
210
0
220
0
230
1
0
LINE
5
8E
100
AcDbEntity
8
SK4
62
256
6
ByLayer
370
18
48
0.05
60
0
100
AcDbLine
10
162
20
0
30
0
11
-50
21
0
31
0
39
0
210
0
220
0
230
1
0
LINE
5
90
100
AcDbEntity
8
SK1
62
256
6
ByLayer
370
18
48
1
60
0
100
AcDbLine
10
-43.055
20
-7
30
0
11
0
21
-7
31
0
39
0
210
0
220
0
230
1
0
LINE
5
91
100
AcDbEntity
8
SK1
62
256
6
ByLayer
370
18
48
1
60
0
100
AcDbLine
10
0
20
7
30
0
11
-43.055
21
7
31
0
39
0
210
0
220
0
230
1
0
LINE
5
92
100
AcDbEntity
8
SK1
62
256
6
ByLayer
370
18
48
1
60
0
100
AcDbLine
10
-45
20
-5.055
30
0
11
-43.055
21
-7
31
0
39
0
210
0
220
0
230
1
0
LINE
5
93
100
AcDbEntity
8
SK1
62
256
6
ByLayer
370
18
48
1
60
0
100
AcDbLine
10
-43.055
20
7
30
0
11
-45
21
5.055
31
0
39
0
210
0
220
0
230
1
0
LINE
5
94
100
AcDbEntity
8
1
62
256
6
ByLayer
370
18
48
1
60
0
100
AcDbLine
10
0.994406
20
-6.653855
30
0
11
8
21
-6.658233
31
0
39
0
210
0
220
0
230
1
0
LINE
5
95
100
AcDbEntity
8
1
62
256
6
ByLayer
370
18
48
1
60
0
100
AcDbLine
10
37.655776
20
-6.676768
30
0
11
39.373473
21
-6.677841
31
0
39
0
210
0
220
0
230
1
0
LINE
5
96
100
AcDbEntity
8
1
62
256
6
ByLayer
370
18
48
1
60
0
100
AcDbLine
10
75.760818
20
-6.700584
30
0
11
77.473506
21
-6.701654
31
0
39
0
210
0
220
0
230
1
0
LINE
5
97
100
AcDbEntity
8
1
62
256
6
ByLayer
370
18
48
1
60
0
100
AcDbLine
10
113.865099
20
-6.724399
30
0
11
115.573665
21
-6.725467
31
0
39
0
210
0
220
0
230
1
0
LINE
5
98
100
AcDbEntity
8
1
62
256
6
ByLayer
370
18
48
1
60
0
100
AcDbLine
10
151.97131
20
-6.748215
30
0
11
153.673505
21
-6.749279
31
0
39
0
210
0
220
0
230
1
0
LINE
5
99
100
AcDbEntity
8
1
62
256
6
ByLayer
370
18
48
1
60
0
100
AcDbLine
10
153.67379
20
6.749279
30
0
11
151.97131
21
6.748215
31
0
39
0
210
0
220
0
230
1
0
LINE
5
9A
100
AcDbEntity
8
1
62
256
6
ByLayer
370
18
48
1
60
0
100
AcDbLine
10
115.573532
20
6.725466
30
0
11
113.865099
21
6.724399
31
0
39
0
210
0
220
0
230
1
0
LINE
5
9B
100
AcDbEntity
8
1
62
256
6
ByLayer
370
18
48
1
60
0
100
AcDbLine
10
77.47345
20
6.701654
30
0
11
75.760818
21
6.700584
31
0
39
0
210
0
220
0
230
1
0
LINE
5
9C
100
AcDbEntity
8
1
62
256
6
ByLayer
370
18
48
1
60
0
100
AcDbLine
10
39.373605
20
6.677842
30
0
11
37.655776
21
6.676768
31
0
39
0
210
0
220
0
230
1
0
LINE
5
9D
100
AcDbEntity
8
1
62
256
6
ByLayer
370
18
48
1
60
0
100
AcDbLine
10
8
20
6.658233
30
0
11
0.994406
21
6.653855
31
0
39
0
210
0
220
0
230
1
0
LINE
5
9E
100
AcDbEntity
8
81
62
256
6
ByLayer
370
18
48
1
60
0
100
AcDbLine
10
157
20
0
30
0
11
162
21
0
31
0
39
0
210
0
220
0
230
1
0
LINE
5
9F
100
AcDbEntity
8
SK2
62
256
6
ByLayer
370
13
48
1
60
0
100
AcDbLine
10
-53.625163
20
-7
30
0
11
-53.625163
21
38.225706
31
0
39
0
210
0
220
0
230
1
0
LINE
5
A1
100
AcDbEntity
8
SK2
62
256
6
ByLayer
370
13
48
1
60
0
100
AcDbLine
10
-46.5875
20
7
30
0
11
-55.625163
21
7
31
0
39
0
210
0
220
0
230
1
0
LINE
5
A2
100
AcDbEntity
8
SK2
62
256
6
ByLayer
370
13
48
1
60
0
100
AcDbLine
10
-46.5875
20
-7
30
0
11
-55.625163
21
-7
31
0
39
0
210
0
220
0
230
1
0
LINE
5
A3
100
AcDbEntity
8
1
62
256
6
ByLayer
370
18
48
1
60
1
100
AcDbLine
10
-53.625163
20
7
30
0
11
-53.164379
21
3.500002
31
0
39
0
210
0
220
0
230
1
0
LINE
5
A4
100
AcDbEntity
8
1
62
256
6
ByLayer
370
18
48
1
60
1
100
AcDbLine
10
-53.164379
20
3.500002
30
0
11
-54.085946
21
3.499998
31
0
39
0
210
0
220
0
230
1
0
LINE
5
A5
100
AcDbEntity
8
1
62
256
6
ByLayer
370
18
48
1
60
1
100
AcDbLine
10
-54.085946
20
3.499998
30
0
11
-53.625163
21
7
31
0
39
0
210
0
220
0
230
1
0
LINE
5
A6
100
AcDbEntity
8
1
62
256
6
ByLayer
370
18
48
1
60
1
100
AcDbLine
10
-53.625163
20
-7
30
0
11
-54.085946
21
-3.500002
31
0
39
0
210
0
220
0
230
1
0
LINE
5
A7
100
AcDbEntity
8
1
62
256
6
ByLayer
370
18
48
1
60
1
100
AcDbLine
10
-54.085946
20
-3.500002
30
0
11
-53.164379
21
-3.499998
31
0
39
0
210
0
220
0
230
1
0
LINE
5
A8
100
AcDbEntity
8
1
62
256
6
ByLayer
370
18
48
1
60
1
100
AcDbLine
10
-53.164379
20
-3.499998
30
0
11
-53.625163
21
-7
31
0
39
0
210
0
220
0
230
1
0
LINE
5
A9
100
AcDbEntity
8
2
62
256
6
ByLayer
370
13
48
1
60
0
100
AcDbLine
10
169.083343
20
-6.75
30
0
11
169.083343
21
36.200259
31
0
39
0
210
0
220
0
230
1
0
LINE
5
AB
100
AcDbEntity
8
2
62
256
6
ByLayer
370
13
48
1
60
0
100
AcDbLine
10
156.576
20
6.75
30
0
11
171.083343
21
6.75
31
0
39
0
210
0
220
0
230
1
0
LINE
5
AC
100
AcDbEntity
8
2
62
256
6
ByLayer
370
13
48
1
60
0
100
AcDbLine
10
156.576
20
-6.75
30
0
11
171.083343
21
-6.75
31
0
39
0
210
0
220
0
230
1
0
LINE
5
AD
100
AcDbEntity
8
1
62
256
6
ByLayer
370
18
48
1
60
1
100
AcDbLine
10
169.083343
20
6.75
30
0
11
169.544126
21
3.250002
31
0
39
0
210
0
220
0
230
1
0
LINE
5
AE
100
AcDbEntity
8
1
62
256
6
ByLayer
370
18
48
1
60
1
100
AcDbLine
10
169.544126
20
3.250002
30
0
11
168.622559
21
3.249998
31
0
39
0
210
0
220
0
230
1
0
LINE
5
AF
100
AcDbEntity
8
1
62
256
6
ByLayer
370
18
48
1
60
1
100
AcDbLine
10
168.622559
20
3.249998
30
0
11
169.083343
21
6.75
31
0
39
0
210
0
220
0
230
1
0
LINE
5
B0
100
AcDbEntity
8
1
62
256
6
ByLayer
370
18
48
1
60
1
100
AcDbLine
10
169.083343
20
-6.75
30
0
11
168.622559
21
-3.250002
31
0
39
0
210
0
220
0
230
1
0
LINE
5
B1
100
AcDbEntity
8
1
62
256
6
ByLayer
370
18
48
1
60
1
100
AcDbLine
10
168.622559
20
-3.250002
30
0
11
169.544126
21
-3.249998
31
0
39
0
210
0
220
0
230
1
0
LINE
5
B2
100
AcDbEntity
8
1
62
256
6
ByLayer
370
18
48
1
60
1
100
AcDbLine
10
169.544126
20
-3.249998
30
0
11
169.083343
21
-6.75
31
0
39
0
210
0
220
0
230
1
0
LINE
5
109
100
AcDbEntity
8
1
62
256
6
ByLayer
370
18
48
1
60
1
100
AcDbLine
10
-53.625163
20
7
30
0
11
-53.164379
21
3.500002
31
0
39
0
210
0
220
0
230
1
0
LINE
5
10A
100
AcDbEntity
8
1
62
256
6
ByLayer
370
18
48
1
60
1
100
AcDbLine
10
-53.164379
20
3.500002
30
0
11
-54.085946
21
3.499998
31
0
39
0
210
0
220
0
230
1
0
LINE
5
10B
100
AcDbEntity
8
1
62
256
6
ByLayer
370
18
48
1
60
1
100
AcDbLine
10
-54.085946
20
3.499998
30
0
11
-53.625163
21
7
31
0
39
0
210
0
220
0
230
1
0
LINE
5
10D
100
AcDbEntity
8
1
62
256
6
ByLayer
370
18
48
1
60
1
100
AcDbLine
10
-53.625163
20
-7
30
0
11
-54.085946
21
-3.500002
31
0
39
0
210
0
220
0
230
1
0
LINE
5
10E
100
AcDbEntity
8
1
62
256
6
ByLayer
370
18
48
1
60
1
100
AcDbLine
10
-54.085946
20
-3.500002
30
0
11
-53.164379
21
-3.499998
31
0
39
0
210
0
220
0
230
1
0
LINE
5
10F
100
AcDbEntity
8
1
62
256
6
ByLayer
370
18
48
1
60
1
100
AcDbLine
10
-53.164379
20
-3.499998
30
0
11
-53.625163
21
-7
31
0
39
0
210
0
220
0
230
1
0
LINE
5
113
100
AcDbEntity
8
1
62
256
6
ByLayer
370
18
48
1
60
1
100
AcDbLine
10
169.083343
20
6.75
30
0
11
169.544126
21
3.250002
31
0
39
0
210
0
220
0
230
1
0
LINE
5
114
100
AcDbEntity
8
1
62
256
6
ByLayer
370
18
48
1
60
1
100
AcDbLine
10
169.544126
20
3.250002
30
0
11
168.622559
21
3.249998
31
0
39
0
210
0
220
0
230
1
0
LINE
5
115
100
AcDbEntity
8
1
62
256
6
ByLayer
370
18
48
1
60
1
100
AcDbLine
10
168.622559
20
3.249998
30
0
11
169.083343
21
6.75
31
0
39
0
210
0
220
0
230
1
0
LINE
5
117
100
AcDbEntity
8
1
62
256
6
ByLayer
370
18
48
1
60
1
100
AcDbLine
10
169.083343
20
-6.75
30
0
11
168.622559
21
-3.250002
31
0
39
0
210
0
220
0
230
1
0
LINE
5
118
100
AcDbEntity
8
1
62
256
6
ByLayer
370
18
48
1
60
1
100
AcDbLine
10
168.622559
20
-3.250002
30
0
11
169.544126
21
-3.249998
31
0
39
0
210
0
220
0
230
1
0
LINE
5
119
100
AcDbEntity
8
1
62
256
6
ByLayer
370
18
48
1
60
1
100
AcDbLine
10
169.544126
20
-3.249998
30
0
11
169.083343
21
-6.75
31
0
39
0
210
0
220
0
230
1
0
MTEXT
5
103
100
AcDbEntity
8
SK6
62
256
6
ByLayer
370
13
48
1
60
0
100
AcDbMText
10
28.167107
20
39.290328
30
0
210
0
220
0
230
1
1
\W0.7349;462.1-1350-101A1-XM X2BM
40
3.5
41
0
44
1.084337
50
0
71
7
72
5
7
iso_b_vert
0
MTEXT
5
107
100
AcDbEntity
8
SK2
62
256
6
ByLayer
370
18
48
1
60
0
100
AcDbMText
10
-55.189796
20
20.409024
30
0
210
0
220
0
230
1
1
%%c
40
3.5
41
0
44
1.084337
50
90
71
7
72
5
7
iso_b_vert
0
MTEXT
5
108
100
AcDbEntity
8
SK2
62
256
6
ByLayer
370
18
48
1
60
0
100
AcDbMText
10
-55.189796
20
25.63168
30
0
210
0
220
0
230
1
1
\W0.7145;14,000
40
3.5
41
0
44
1.084337
50
90
71
7
72
5
7
iso_b_vert
0
MTEXT
5
111
100
AcDbEntity
8
2
62
256
6
ByLayer
370
18
48
1
60
0
100
AcDbMText
10
167.518709
20
18.75211
30
0
210
0
220
0
230
1
1
%%c
40
3.5
41
0
44
1.084337
50
90
71
7
72
5
7
iso_b_vert
0
MTEXT
5
112
100
AcDbEntity
8
2
62
256
6
ByLayer
370
18
48
1
60
0
100
AcDbMText
10
167.518709
20
23.974766
30
0
210
0
220
0
230
1
1
\W0.6930;13,500
40
3.5
41
0
44
1.084337
50
90
71
7
72
5
7
iso_b_vert
0
HATCH
5
10C
100
AcDbEntity
8
SK2
62
256
6
ByLayer
370
13
48
1
60
0
100
AcDbHatch
10
0
20
0
30
0
210
0
220
0
230
1
2
ANSI31
70
0
71
0
91
1
92
5
93
3
72
1
10
-53.6251625675374
20
7
11
-53.1643788259847
21
3.50000169255318
72
1
10
-53.1643788259847
20
3.50000169255318
11
-54.0859463090902
21
3.49999830744682
72
1
10
-54.0859463090902
20
3.49999830744682
11
-53.6251625675374
21
7
97
0
75
0
76
1
52
0
41
0.0062
77
0
78
1
53
45
43
0
44
0
45
-0.0139193969876572
46
0.0139193969876572
79
0
47
0
98
1
10
0
20
0
0
HATCH
5
110
100
AcDbEntity
8
SK2
62
256
6
ByLayer
370
13
48
1
60
0
100
AcDbHatch
10
0
20
0
30
0
210
0
220
0
230
1
2
ANSI31
70
0
71
0
91
1
92
5
93
3
72
1
10
-53.6251625675374
20
-7
11
-54.0859463090902
21
-3.50000169255318
72
1
10
-54.0859463090902
20
-3.50000169255318
11
-53.1643788259847
21
-3.49999830744682
72
1
10
-53.1643788259847
20
-3.49999830744682
11
-53.6251625675374
21
-7
97
0
75
0
76
1
52
0
41
0.0062
77
0
78
1
53
45
43
0
44
0
45
-0.0139193969876572
46
0.0139193969876572
79
0
47
0
98
1
10
0
20
0
0
HATCH
5
116
100
AcDbEntity
8
2
62
256
6
ByLayer
370
13
48
1
60
0
100
AcDbHatch
10
0
20
0
30
0
210
0
220
0
230
1
2
ANSI31
70
0
71
0
91
1
92
5
93
3
72
1
10
169.083342615295
20
6.75
11
169.544126356848
21
3.25000169255318
72
1
10
169.544126356848
20
3.25000169255318
11
168.622558873742
21
3.24999830744682
72
1
10
168.622558873742
20
3.24999830744682
11
169.083342615295
21
6.75
97
0
75
0
76
1
52
0
41
0.0062
77
0
78
1
53
45
43
0
44
0
45
-0.0139193969876572
46
0.0139193969876572
79
0
47
0
98
1
10
0
20
0
0
HATCH
5
11A
100
AcDbEntity
8
2
62
256
6
ByLayer
370
13
48
1
60
0
100
AcDbHatch
10
0
20
0
30
0
210
0
220
0
230
1
2
ANSI31
70
0
71
0
91
1
92
5
93
3
72
1
10
169.083342615295
20
-6.75
11
168.622558873742
21
-3.25000169255318
72
1
10
168.622558873742
20
-3.25000169255318
11
169.544126356848
21
-3.24999830744682
72
1
10
169.544126356848
20
-3.24999830744682
11
169.083342615295
21
-6.75
97
0
75
0
76
1
52
0
41
0.0062
77
0
78
1
53
45
43
0
44
0
45
-0.0139193969876572
46
0.0139193969876572
79
0
47
0
98
1
10
0
20
0
0
DIMENSION
5
11C
100
AcDbEntity
8
SK2
62
256
6
ByLayer
370
13
48
1
60
0
100
AcDbDimension
2
_U0
10
154.9885
20
-16.963398
30
0
11
77.49425
21
-16.963398
31
0
70
32
71
1
72
1
41
1
210
0
220
0
230
1
3
Standard
100
AcDbAlignedDimension
13
0
23
0
33
0
14
154.9885
24
-6.75
34
0
50
0
100
AcDbRotatedDimension
1001
ACAD
1000
DSTYLE
1002
{
1070
   371
1070
    13
1070
   372
1070
    13
1070
   170
1070
     0
1070
   144
1040
1.0
1070
   277
1070
     2
1070
   278
1070
    44
1070
   146
1040
1.0
1070
   345
1005
16
1070
   347
1005
16
1070
   346
1005
16
1070
   344
1005
0
1070
   343
1005
0
1070
   172
1070
     1
1070
    76
1070
     0
1070
    75
1070
     0
1070
   282
1070
     0
1070
   281
1070
     0
1070
    71
1070
     0
1070
    74
1070
     0
1070
   279
1070
     0
1070
   173
1070
     1
1070
   340
1005
104
1070
   271
1070
     2
1070
   272
1070
     2
1070
    77
1070
     1
1070
    73
1070
     1
1070
   171
1070
     3
1070
   274
1070
     4
1070
   177
1070
    35
1070
   176
1070
    35
1070
   178
1070
    35
1070
    48
1040
-0.1
1070
    41
1040
3.5
1070
   147
1040
1.75
1070
    42
1040
1.5875
1070
    44
1040
2.0
1070
   140
1040
3.5
1002
}
1001
ACAD_DSTYLE_DIM_LINETYPE
1070
   380
1005
16
1001
ACAD_DSTYLE_DIM_EXT1_LINETYPE
1070
   381
1005
16
1001
ACAD_DSTYLE_DIM_EXT2_LINETYPE
1070
   382
1005
16
0
DIMENSION
5
135
100
AcDbEntity
8
SK2
62
256
6
ByLayer
370
13
48
1
60
0
100
AcDbDimension
2
_U1
10
157
20
-35.692985
30
0
11
56
21
-35.692985
31
0
70
32
71
1
72
1
41
1
210
0
220
0
230
1
3
Standard
100
AcDbAlignedDimension
13
-45
23
-7
33
0
14
157
24
0
34
0
50
0
100
AcDbRotatedDimension
1001
ACAD
1000
DSTYLE
1002
{
1070
   371
1070
    13
1070
   372
1070
    13
1070
   170
1070
     0
1070
   144
1040
1.0
1070
   277
1070
     2
1070
   278
1070
    44
1070
   146
1040
1.0
1070
   345
1005
16
1070
   347
1005
16
1070
   346
1005
16
1070
   344
1005
0
1070
   343
1005
0
1070
   172
1070
     1
1070
    76
1070
     0
1070
    75
1070
     0
1070
   282
1070
     0
1070
   281
1070
     0
1070
    71
1070
     0
1070
    74
1070
     0
1070
   279
1070
     0
1070
   173
1070
     1
1070
   340
1005
104
1070
   271
1070
     2
1070
   272
1070
     2
1070
    77
1070
     1
1070
    73
1070
     1
1070
   171
1070
     3
1070
   274
1070
     4
1070
   177
1070
    35
1070
   176
1070
    35
1070
   178
1070
    35
1070
    48
1040
-0.1
1070
    41
1040
3.5
1070
   147
1040
1.75
1070
    42
1040
1.5875
1070
    44
1040
2.0
1070
   140
1040
3.5
1002
}
1001
ACAD_DSTYLE_DIM_LINETYPE
1070
   380
1005
16
1001
ACAD_DSTYLE_DIM_EXT1_LINETYPE
1070
   381
1005
16
1001
ACAD_DSTYLE_DIM_EXT2_LINETYPE
1070
   382
1005
16
0
DIMENSION
5
14D
100
AcDbEntity
8
SK2
62
256
6
ByLayer
370
13
48
1
60
0
100
AcDbDimension
2
_U2
10
157
20
18.359119
30
0
11
101.995
21
18.359119
31
0
70
32
71
1
72
1
41
1
210
0
220
0
230
1
3
Standard
100
AcDbAlignedDimension
13
46.99
23
6.75
33
0
14
157
24
0
34
0
50
0
100
AcDbRotatedDimension
1001
ACAD
1000
DSTYLE
1002
{
1070
   371
1070
    13
1070
   372
1070
    13
1070
   170
1070
     0
1070
   144
1040
1.0
1070
   277
1070
     2
1070
   278
1070
    44
1070
   146
1040
1.0
1070
   345
1005
16
1070
   347
1005
16
1070
   346
1005
16
1070
   344
1005
0
1070
   343
1005
0
1070
   172
1070
     1
1070
    76
1070
     0
1070
    75
1070
     0
1070
   282
1070
     0
1070
   281
1070
     0
1070
    71
1070
     0
1070
    74
1070
     0
1070
   279
1070
     0
1070
   173
1070
     1
1070
   340
1005
104
1070
   271
1070
     2
1070
   272
1070
     2
1070
    77
1070
     1
1070
    73
1070
     1
1070
   171
1070
     3
1070
   274
1070
     4
1070
   177
1070
    35
1070
   176
1070
    35
1070
   178
1070
    35
1070
    48
1040
-0.1
1070
    41
1040
3.5
1070
   147
1040
1.75
1070
    42
1040
1.5875
1070
    44
1040
2.0
1070
   140
1040
3.5
1002
}
1001
ACAD_DSTYLE_DIM_LINETYPE
1070
   380
1005
16
1001
ACAD_DSTYLE_DIM_EXT1_LINETYPE
1070
   381
1005
16
1001
ACAD_DSTYLE_DIM_EXT2_LINETYPE
1070
   382
1005
16
0
DIMENSION
5
165
100
AcDbEntity
8
SK2
62
256
6
ByLayer
370
13
48
1
60
0
100
AcDbDimension
2
_U3
10
154.9885
20
-19.552503
30
0
11
174.083333
21
-19.552503
31
0
70
32
71
1
72
1
41
1
210
0
220
0
230
1
3
Standard
100
AcDbAlignedDimension
13
157
23
0
33
0
14
154.9885
24
-6.75
34
0
50
0
100
AcDbRotatedDimension
1001
ACAD
1000
DSTYLE
1002
{
1070
   371
1070
    13
1070
   372
1070
    13
1070
   170
1070
     0
1070
   144
1040
1.0
1070
   277
1070
     2
1070
   278
1070
    44
1070
   146
1040
1.0
1070
   345
1005
16
1070
   347
1005
16
1070
   346
1005
16
1070
   344
1005
0
1070
   343
1005
0
1070
   172
1070
     1
1070
    76
1070
     0
1070
    75
1070
     0
1070
   282
1070
     0
1070
   281
1070
     0
1070
    71
1070
     0
1070
    74
1070
     0
1070
   279
1070
     0
1070
   173
1070
     1
1070
   340
1005
104
1070
   271
1070
     2
1070
   272
1070
     2
1070
    77
1070
     1
1070
    73
1070
     1
1070
   171
1070
     3
1070
   274
1070
     4
1070
   177
1070
    35
1070
   176
1070
    35
1070
   178
1070
    35
1070
    48
1040
-0.1
1070
    41
1040
3.5
1070
   147
1040
1.75
1070
    42
1040
1.5875
1070
    44
1040
2.0
1070
   140
1040
3.5
1002
}
1001
ACAD_DSTYLE_DIM_LINETYPE
1070
   380
1005
16
1001
ACAD_DSTYLE_DIM_EXT1_LINETYPE
1070
   381
1005
16
1001
ACAD_DSTYLE_DIM_EXT2_LINETYPE
1070
   382
1005
16
0
DIMENSION
5
17F
100
AcDbEntity
8
SK2
62
256
6
ByLayer
370
13
48
1
60
0
100
AcDbDimension
2
_U4
10
154.9885
20
-25.343428
30
0
11
54.99425
21
-25.343428
31
0
70
32
71
1
72
1
41
1
210
0
220
0
230
1
3
Standard
100
AcDbAlignedDimension
13
-45
23
-7
33
0
14
154.9885
24
-6.75
34
0
50
0
100
AcDbRotatedDimension
1001
ACAD
1000
DSTYLE
1002
{
1070
   371
1070
    13
1070
   372
1070
    13
1070
   170
1070
     0
1070
   144
1040
1.0
1070
   277
1070
     2
1070
   278
1070
    44
1070
   146
1040
1.0
1070
   345
1005
16
1070
   347
1005
16
1070
   346
1005
16
1070
   344
1005
0
1070
   343
1005
0
1070
   172
1070
     1
1070
    76
1070
     0
1070
    75
1070
     0
1070
   282
1070
     0
1070
   281
1070
     0
1070
    71
1070
     0
1070
    74
1070
     0
1070
   279
1070
     0
1070
   173
1070
     1
1070
   340
1005
104
1070
   271
1070
     2
1070
   272
1070
     2
1070
    77
1070
     1
1070
    73
1070
     1
1070
   171
1070
     3
1070
   274
1070
     4
1070
   177
1070
    35
1070
   176
1070
    35
1070
   178
1070
    35
1070
    48
1040
-0.1
1070
    41
1040
3.5
1070
   147
1040
1.75
1070
    42
1040
1.5875
1070
    44
1040
2.0
1070
   140
1040
3.5
1002
}
1001
ACAD_DSTYLE_DIM_LINETYPE
1070
   380
1005
16
1001
ACAD_DSTYLE_DIM_EXT1_LINETYPE
1070
   381
1005
16
1001
ACAD_DSTYLE_DIM_EXT2_LINETYPE
1070
   382
1005
16
0
ENDSEC
0
SECTION
2
OBJECTS
0
DICTIONARY
5
207
330
0
100
AcDbDictionary
280
0
281
1
3
ACAD_GROUP
350
208
3
ACAD_MLINESTYLE
350
209
0
DICTIONARY
5
208
330
0
100
AcDbDictionary
280
0
281
1
0
DICTIONARY
5
209
330
0
100
AcDbDictionary
280
0
281
1
3
Standard
350
18
0
MLINESTYLE
5
18
330
209
100
AcDbMlineStyle
2
Standard
70
0
3

62
256
51
90
52
90
71
2
49
-0.5
62
256
6
ByLayer
49
0.5
62
256
6
ByLayer
0
RASTERVARIABLES
5
1f5
330

100
AcDbRasterVariables
90
0
70
1
71
1
72
1
0
ENDSEC
0
EOF
