0
SECTION
2
HEADER
9
$ACADVER
1
AC1015
9
$DWGCODEPAGE
3
ANSI_1252
9
$HANDSEED
5
21b
9
$ANGBASE
50
0
9
$ANGDIR
70
0
9
$ATTMODE
70
1
9
$AUNITS
70
0
9
$AUPREC
70
0
9
$CECOLOR
62
256
9
$CELTSCALE
40
1
9
$CELTYPE
6
ByLayer
9
$CELWEIGHT
370
18
9
$CLAYER
8
0
9
$CMLJUST
70
0
9
$CMLSCALE
40
1
9
$CMLSTYLE
2
Standard
9
$DIMSTYLE
2
Standard
9
$TEXTSIZE
40
0.2
9
$TEXTSTYLE
7
Standard
9
$LUNITS
70
2
9
$LUPREC
70
4
9
$EXTNAMES
290
1
9
$INSUNITS
70
4
9
$LTSCALE
40
1
9
$LWDISPLAY
290
1
9
$PDMODE
70
0
9
$PDSIZE
40
0
9
$PLINEGEN
70
0
0
ENDSEC
0
SECTION
2
CLASSES
0
CLASS
1
RASTERVARIABLES
2
AcDbRasterVariables
3
ISM
90
0
280
0
281
0
0
ENDSEC
0
SECTION
2
TABLES
0
TABLE
2
VPORT
5
211
100
AcDbSymbolTable
0
VPORT
5
1
100
AcDbSymbolTableRecord
100
AcDbViewportTableRecord
2
*Active
70
0
10
0
20
0
11
1
21
1
12
-1
22
1
13
0
23
0
14
0.5
24
0.5
15
10
25
10
16
0
26
0
36
1
17
0
27
0
37
0
0
ENDTAB
0
TABLE
2
LTYPE
5
212
100
AcDbSymbolTable
0
LTYPE
5
14
100
AcDbSymbolTableRecord
100
AcDbLinetypeTableRecord
70
0
2
ByBlock
3

72
65
73
0
40
0
0
LTYPE
5
15
100
AcDbSymbolTableRecord
100
AcDbLinetypeTableRecord
70
0
2
ByLayer
3

72
65
73
0
40
0
0
LTYPE
5
16
100
AcDbSymbolTableRecord
100
AcDbLinetypeTableRecord
70
0
2
Continuous
3
Solid line
72
65
73
0
40
0
0
LTYPE
5
6E
100
AcDbSymbolTableRecord
100
AcDbLinetypeTableRecord
70
0
2
CENTER
3
____ _ ____ _ ____ _ ____
72
65
73
4
40
47.5
49
22
74
0
49
-8.5
74
0
49
8.5
74
0
49
-8.5
74
0
0
LTYPE
5
6F
100
AcDbSymbolTableRecord
100
AcDbLinetypeTableRecord
70
0
2
DASHED
3
__ __ __ __ __ __ __ __ __
72
65
73
2
40
25.72
49
12.86
74
0
49
-12.86
74
0
0
ENDTAB
0
TABLE
2
LAYER
5
213
100
AcDbSymbolTable
0
LAYER
5
10
100
AcDbSymbolTableRecord
100
AcDbLayerTableRecord
2
0
70
0
62
7
6
Continuous
290
1
370
-3
390
0
0
LAYER
5
71
100
AcDbSymbolTableRecord
100
AcDbLayerTableRecord
2
80
70
0
62
-6
6
Continuous
290
1
370
-3
390
0
0
LAYER
5
73
100
AcDbSymbolTableRecord
100
AcDbLayerTableRecord
2
81
70
0
62
-3
6
Continuous
290
1
370
-3
390
0
0
LAYER
5
75
100
AcDbSymbolTableRecord
100
AcDbLayerTableRecord
2
1
70
0
62
4
6
Continuous
290
1
370
-3
390
0
0
LAYER
5
8C
100
AcDbSymbolTableRecord
100
AcDbLayerTableRecord
2
4
70
0
62
-2
6
CENTER
290
1
370
-3
390
0
0
LAYER
5
A9
100
AcDbSymbolTableRecord
100
AcDbLayerTableRecord
2
2
70
0
62
7
6
Continuous
290
1
370
-3
390
0
0
LAYER
5
126
100
AcDbSymbolTableRecord
100
AcDbLayerTableRecord
2
Defpoints
70
0
62
7
6
Continuous
290
0
370
-3
390
0
0
LAYER
5
1fd
100
AcDbSymbolTableRecord
100
AcDbLayerTableRecord
2
SK1
70
0
62
4
6
Continuous
290
1
370
-3
390
0
0
LAYER
5
1fe
100
AcDbSymbolTableRecord
100
AcDbLayerTableRecord
2
SK4
70
0
62
2
6
CENTER
290
1
370
-3
390
0
0
LAYER
5
1ff
100
AcDbSymbolTableRecord
100
AcDbLayerTableRecord
2
SK2
70
0
62
7
6
Continuous
290
1
370
-3
390
0
0
LAYER
5
200
100
AcDbSymbolTableRecord
100
AcDbLayerTableRecord
2
SK6
70
0
62
5
6
Continuous
290
1
370
-3
390
0
0
ENDTAB
0
TABLE
2
STYLE
5
214
100
AcDbSymbolTable
0
STYLE
5
11
100
AcDbSymbolTableRecord
100
AcDbTextStyleTableRecord
2
Standard
3
txt
70
0
71
0
40
0
41
1
42
0
50
0
0
STYLE
5
10B
100
AcDbSymbolTableRecord
100
AcDbTextStyleTableRecord
2
iso_b_vert
3
simplex.shx
70
0
71
0
40
0
41
1
42
0
50
0
0
STYLE
5
10C
100
AcDbSymbolTableRecord
100
AcDbTextStyleTableRecord
2
DWGDirectTextStyle
3
simplex
70
0
71
0
40
0
41
1
42
0
50
0
0
ENDTAB
0
TABLE
2
DIMSTYLE
5
215
100
AcDbSymbolTable
100
AcDbDimStyleTable
0
DIMSTYLE
105
27
100
AcDbSymbolTableRecord
100
AcDbDimStyleTableRecord
2
Standard
70
0
3
<>
41
0.18
42
0.0625
44
0.18
140
0.18
147
0.09
73
0
74
0
77
1
271
2
275
0
278
52
280
0
340
11
0
ENDTAB
0
TABLE
2
VIEW
5
216
100
AcDbSymbolTable
0
ENDTAB
0
TABLE
2
UCS
5
217
100
AcDbSymbolTable
0
ENDTAB
0
TABLE
2
APPID
5
218
100
AcDbSymbolTable
0
APPID
5
12
100
AcDbSymbolTableRecord
100
AcDbRegAppTableRecord
2
ACAD
70
0
0
APPID
5
122
100
AcDbSymbolTableRecord
100
AcDbRegAppTableRecord
2
ACAD_DSTYLE_DIMBREAK
70
0
0
APPID
5
1BC
100
AcDbSymbolTableRecord
100
AcDbRegAppTableRecord
2
ACAD_DSTYLE_DIM_LINETYPE
70
0
0
APPID
5
1BD
100
AcDbSymbolTableRecord
100
AcDbRegAppTableRecord
2
ACAD_DSTYLE_DIM_EXT1_LINETYPE
70
0
0
APPID
5
1BE
100
AcDbSymbolTableRecord
100
AcDbRegAppTableRecord
2
ACAD_DSTYLE_DIM_EXT2_LINETYPE
70
0
0
APPID
5
1F9
100
AcDbSymbolTableRecord
100
AcDbRegAppTableRecord
2
ACAD_MLEADERVER
70
0
0
ENDTAB
0
TABLE
2
BLOCK_RECORD
5
219
100
AcDbSymbolTable
0
BLOCK_RECORD
5
1F
100
AcDbSymbolTableRecord
100
AcDbBlockTableRecord
2
*Model_Space
340
0
70
0
0
BLOCK_RECORD
5
1B
100
AcDbSymbolTableRecord
100
AcDbBlockTableRecord
2
*Paper_Space
340
0
70
0
0
BLOCK_RECORD
5
23
100
AcDbSymbolTableRecord
100
AcDbBlockTableRecord
2
*Paper_Space0
340
0
70
0
0
BLOCK_RECORD
5
127
100
AcDbSymbolTableRecord
100
AcDbBlockTableRecord
2
*D1
340
0
70
0
0
BLOCK_RECORD
5
133
100
AcDbSymbolTableRecord
100
AcDbBlockTableRecord
2
_U0
340
0
70
0
0
BLOCK_RECORD
5
13F
100
AcDbSymbolTableRecord
100
AcDbBlockTableRecord
2
*D3
340
0
70
0
0
BLOCK_RECORD
5
14B
100
AcDbSymbolTableRecord
100
AcDbBlockTableRecord
2
_U1
340
0
70
0
0
BLOCK_RECORD
5
157
100
AcDbSymbolTableRecord
100
AcDbBlockTableRecord
2
*D5
340
0
70
0
0
BLOCK_RECORD
5
163
100
AcDbSymbolTableRecord
100
AcDbBlockTableRecord
2
_U2
340
0
70
0
0
BLOCK_RECORD
5
16F
100
AcDbSymbolTableRecord
100
AcDbBlockTableRecord
2
*D7
340
0
70
0
0
BLOCK_RECORD
5
17D
100
AcDbSymbolTableRecord
100
AcDbBlockTableRecord
2
_U3
340
0
70
0
0
BLOCK_RECORD
5
189
100
AcDbSymbolTableRecord
100
AcDbBlockTableRecord
2
*D9
340
0
70
0
0
BLOCK_RECORD
5
195
100
AcDbSymbolTableRecord
100
AcDbBlockTableRecord
2
_U4
340
0
70
0
0
ENDTAB
0
ENDSEC
0
SECTION
2
BLOCKS
0
BLOCK
5
20
100
AcDbEntity
8
0
100
AcDbBlockBegin
2
*Model_Space
70
0
10
0
20
0
30
0
3
*Model_Space
0
ENDBLK
5
21
100
AcDbEntity
8
0
100
AcDbBlockEnd
0
BLOCK
5
1C
100
AcDbEntity
8
0
100
AcDbBlockBegin
2
*Paper_Space
70
0
10
0
20
0
30
0
3
*Paper_Space
0
ENDBLK
5
1D
100
AcDbEntity
8
0
100
AcDbBlockEnd
0
BLOCK
5
24
100
AcDbEntity
8
0
100
AcDbBlockBegin
2
*Paper_Space0
70
0
10
0
20
0
30
0
3
*Paper_Space0
0
ENDBLK
5
25
100
AcDbEntity
8
0
100
AcDbBlockEnd
0
BLOCK
5
128
100
AcDbEntity
8
0
100
AcDbBlockBegin
2
*D1
70
1
10
0
20
0
30
0
3
*D1
0
LINE
5
12A
100
AcDbEntity
8
0
62
256
6
ByLayer
370
-2
48
1
60
0
100
AcDbLine
10
0
20
-1.5875
30
0
11
0
21
-14.013398
31
0
39
0
210
0
220
0
230
1
0
LINE
5
12B
100
AcDbEntity
8
0
62
256
6
ByLayer
370
-2
48
1
60
0
100
AcDbLine
10
42.4805
20
-3.3875
30
0
11
42.4805
21
-14.013398
31
0
39
0
210
0
220
0
230
1
0
LINE
5
12C
100
AcDbEntity
8
0
62
256
6
ByLayer
370
-2
48
1
60
0
100
AcDbLine
10
3.5
20
-12.013398
30
0
11
38.9805
21
-12.013398
31
0
39
0
210
0
220
0
230
1
0
SOLID
5
12D
100
AcDbEntity
8
0
62
256
6
ByLayer
370
-1
48
1
60
0
100
AcDbTrace
10
3.5
20
-11.430065
30
0
11
3.5
21
-12.596732
31
0
12
0
22
-12.013398
32
0
13
0
23
-12.013398
33
0
39
0
210
0
220
0
230
1
0
SOLID
5
12E
100
AcDbEntity
8
0
62
256
6
ByLayer
370
-1
48
1
60
0
100
AcDbTrace
10
38.9805
20
-12.596732
30
0
11
38.9805
21
-11.430065
31
0
12
42.4805
22
-12.013398
32
0
13
42.4805
23
-12.013398
33
0
39
0
210
0
220
0
230
1
0
MTEXT
5
12F
100
AcDbEntity
8
0
62
256
6
ByLayer
370
18
48
1
60
0
100
AcDbMText
10
21.24025
20
-5.013398
30
0
210
0
220
0
230
1
1
\A1;42.48
40
3.5
41
0
44
1
50
0
71
5
72
5
7
iso_b_vert
0
POINT
5
130
100
AcDbEntity
8
Defpoints
62
0
6
ByLayer
370
-1
48
1
60
0
100
AcDbPoint
10
0
20
0
30
0
39
0
210
0
220
0
230
1
50
360
0
POINT
5
131
100
AcDbEntity
8
Defpoints
62
0
6
ByLayer
370
-1
48
1
60
0
100
AcDbPoint
10
42.4805
20
-1.8
30
0
39
0
210
0
220
0
230
1
50
360
0
POINT
5
132
100
AcDbEntity
8
Defpoints
62
0
6
ByLayer
370
-1
48
1
60
0
100
AcDbPoint
10
42.4805
20
-12.013398
30
0
39
0
210
0
220
0
230
1
50
360
0
ENDBLK
5
129
100
AcDbEntity
8
0
100
AcDbBlockEnd
0
BLOCK
5
13A
100
AcDbEntity
8
0
100
AcDbBlockBegin
2
_U0
70
0
10
0
20
0
30
0
3
_U0
0
MTEXT
5
134
100
AcDbEntity
8
SK2
62
256
6
ByLayer
370
13
48
1
60
0
100
AcDbMText
10
15.734418
20
-10.980765
30
0
210
0
220
0
230
1
1
\W0.7845;42,48
40
3.5
41
0
44
1.084337
50
0
71
7
72
5
7
iso_b_vert
0
LINE
5
135
100
AcDbEntity
8
SK2
62
256
6
ByLayer
370
13
48
1
60
0
100
AcDbLine
10
0
20
-1.5875
30
0
11
0
21
-14.013398
31
0
39
0
210
0
220
0
230
1
0
LINE
5
136
100
AcDbEntity
8
SK2
62
256
6
ByLayer
370
13
48
1
60
0
100
AcDbLine
10
42.4805
20
-3.3875
30
0
11
42.4805
21
-14.013398
31
0
39
0
210
0
220
0
230
1
0
LINE
5
137
100
AcDbEntity
8
SK2
62
256
6
ByLayer
370
13
48
1
60
0
100
AcDbLine
10
0
20
-12.013398
30
0
11
42.4805
21
-12.013398
31
0
39
0
210
0
220
0
230
1
0
SOLID
5
138
100
AcDbEntity
8
SK2
62
256
6
ByLayer
370
18
48
1
60
0
100
AcDbTrace
10
0
20
-12.013398
30
0
11
3.499998
21
-11.552615
31
0
12
3.500002
22
-12.474182
32
0
13
3.500002
23
-12.474182
33
0
39
0
210
0
220
0
230
1
0
SOLID
5
139
100
AcDbEntity
8
SK2
62
256
6
ByLayer
370
18
48
1
60
0
100
AcDbTrace
10
42.4805
20
-12.013398
30
0
11
38.980502
21
-12.474182
31
0
12
38.980498
22
-11.552615
32
0
13
38.980498
23
-11.552615
33
0
39
0
210
0
220
0
230
1
0
ENDBLK
5
13B
100
AcDbEntity
8
0
100
AcDbBlockEnd
0
BLOCK
5
140
100
AcDbEntity
8
0
100
AcDbBlockBegin
2
*D3
70
1
10
0
20
0
30
0
3
*D3
0
LINE
5
142
100
AcDbEntity
8
0
62
256
6
ByLayer
370
-2
48
1
60
0
100
AcDbLine
10
-36
20
-4.5875
30
0
11
-36
21
-33.692985
31
0
39
0
210
0
220
0
230
1
0
LINE
5
143
100
AcDbEntity
8
0
62
256
6
ByLayer
370
-2
48
1
60
0
100
AcDbLine
10
43
20
-1.5875
30
0
11
43
21
-33.692985
31
0
39
0
210
0
220
0
230
1
0
LINE
5
144
100
AcDbEntity
8
0
62
256
6
ByLayer
370
-2
48
1
60
0
100
AcDbLine
10
-32.5
20
-31.692985
30
0
11
39.5
21
-31.692985
31
0
39
0
210
0
220
0
230
1
0
SOLID
5
145
100
AcDbEntity
8
0
62
256
6
ByLayer
370
-1
48
1
60
0
100
AcDbTrace
10
-32.5
20
-31.109652
30
0
11
-32.5
21
-32.276319
31
0
12
-36
22
-31.692985
32
0
13
-36
23
-31.692985
33
0
39
0
210
0
220
0
230
1
0
SOLID
5
146
100
AcDbEntity
8
0
62
256
6
ByLayer
370
-1
48
1
60
0
100
AcDbTrace
10
39.5
20
-32.276319
30
0
11
39.5
21
-31.109652
31
0
12
43
22
-31.692985
32
0
13
43
23
-31.692985
33
0
39
0
210
0
220
0
230
1
0
MTEXT
5
147
100
AcDbEntity
8
0
62
256
6
ByLayer
370
18
48
1
60
0
100
AcDbMText
10
3.5
20
-24.692985
30
0
210
0
220
0
230
1
1
\A1;79.00
40
3.5
41
0
44
1
50
0
71
5
72
5
7
iso_b_vert
0
POINT
5
148
100
AcDbEntity
8
Defpoints
62
0
6
ByLayer
370
-1
48
1
60
0
100
AcDbPoint
10
-36
20
-3
30
0
39
0
210
0
220
0
230
1
50
360
0
POINT
5
149
100
AcDbEntity
8
Defpoints
62
0
6
ByLayer
370
-1
48
1
60
0
100
AcDbPoint
10
43
20
0
30
0
39
0
210
0
220
0
230
1
50
360
0
POINT
5
14A
100
AcDbEntity
8
Defpoints
62
0
6
ByLayer
370
-1
48
1
60
0
100
AcDbPoint
10
43
20
-31.692985
30
0
39
0
210
0
220
0
230
1
50
360
0
ENDBLK
5
141
100
AcDbEntity
8
0
100
AcDbBlockEnd
0
BLOCK
5
152
100
AcDbEntity
8
0
100
AcDbBlockBegin
2
_U1
70
0
10
0
20
0
30
0
3
_U1
0
MTEXT
5
14C
100
AcDbEntity
8
SK2
62
256
6
ByLayer
370
13
48
1
60
0
100
AcDbMText
10
-1.637299
20
-30.660352
30
0
210
0
220
0
230
1
1
\W0.7317;79,00
40
3.5
41
0
44
1.084337
50
0
71
7
72
5
7
iso_b_vert
0
LINE
5
14D
100
AcDbEntity
8
SK2
62
256
6
ByLayer
370
13
48
1
60
0
100
AcDbLine
10
-36
20
-4.5875
30
0
11
-36
21
-33.692985
31
0
39
0
210
0
220
0
230
1
0
LINE
5
14E
100
AcDbEntity
8
SK2
62
256
6
ByLayer
370
13
48
1
60
0
100
AcDbLine
10
43
20
-1.5875
30
0
11
43
21
-33.692985
31
0
39
0
210
0
220
0
230
1
0
LINE
5
14F
100
AcDbEntity
8
SK2
62
256
6
ByLayer
370
13
48
1
60
0
100
AcDbLine
10
-36
20
-31.692985
30
0
11
43
21
-31.692985
31
0
39
0
210
0
220
0
230
1
0
SOLID
5
150
100
AcDbEntity
8
SK2
62
256
6
ByLayer
370
18
48
1
60
0
100
AcDbTrace
10
-36
20
-31.692985
30
0
11
-32.500002
21
-31.232202
31
0
12
-32.499998
22
-32.153769
32
0
13
-32.499998
23
-32.153769
33
0
39
0
210
0
220
0
230
1
0
SOLID
5
151
100
AcDbEntity
8
SK2
62
256
6
ByLayer
370
18
48
1
60
0
100
AcDbTrace
10
43
20
-31.692985
30
0
11
39.500002
21
-32.153769
31
0
12
39.499998
22
-31.232202
32
0
13
39.499998
23
-31.232202
33
0
39
0
210
0
220
0
230
1
0
ENDBLK
5
153
100
AcDbEntity
8
0
100
AcDbBlockEnd
0
BLOCK
5
158
100
AcDbEntity
8
0
100
AcDbBlockBegin
2
*D5
70
1
10
0
20
0
30
0
3
*D5
0
LINE
5
15A
100
AcDbEntity
8
0
62
256
6
ByLayer
370
-2
48
1
60
0
100
AcDbLine
10
13.92
20
3.3875
30
0
11
13.92
21
15.409119
31
0
39
0
210
0
220
0
230
1
0
LINE
5
15B
100
AcDbEntity
8
0
62
256
6
ByLayer
370
-2
48
1
60
0
100
AcDbLine
10
43
20
1.5875
30
0
11
43
21
15.409119
31
0
39
0
210
0
220
0
230
1
0
LINE
5
15C
100
AcDbEntity
8
0
62
256
6
ByLayer
370
-2
48
1
60
0
100
AcDbLine
10
17.42
20
13.409119
30
0
11
39.5
21
13.409119
31
0
39
0
210
0
220
0
230
1
0
SOLID
5
15D
100
AcDbEntity
8
0
62
256
6
ByLayer
370
-1
48
1
60
0
100
AcDbTrace
10
17.42
20
13.992453
30
0
11
17.42
21
12.825786
31
0
12
13.92
22
13.409119
32
0
13
13.92
23
13.409119
33
0
39
0
210
0
220
0
230
1
0
SOLID
5
15E
100
AcDbEntity
8
0
62
256
6
ByLayer
370
-1
48
1
60
0
100
AcDbTrace
10
39.5
20
12.825786
30
0
11
39.5
21
13.992453
31
0
12
43
22
13.409119
32
0
13
43
23
13.409119
33
0
39
0
210
0
220
0
230
1
0
MTEXT
5
15F
100
AcDbEntity
8
0
62
256
6
ByLayer
370
18
48
1
60
0
100
AcDbMText
10
28.46
20
20.409119
30
0
210
0
220
0
230
1
1
\A1;29.08
40
3.5
41
0
44
1
50
0
71
5
72
5
7
iso_b_vert
0
POINT
5
160
100
AcDbEntity
8
Defpoints
62
0
6
ByLayer
370
-1
48
1
60
0
100
AcDbPoint
10
13.92
20
1.8
30
0
39
0
210
0
220
0
230
1
50
360
0
POINT
5
161
100
AcDbEntity
8
Defpoints
62
0
6
ByLayer
370
-1
48
1
60
0
100
AcDbPoint
10
43
20
0
30
0
39
0
210
0
220
0
230
1
50
360
0
POINT
5
162
100
AcDbEntity
8
Defpoints
62
0
6
ByLayer
370
-1
48
1
60
0
100
AcDbPoint
10
43
20
13.409119
30
0
39
0
210
0
220
0
230
1
50
360
0
ENDBLK
5
159
100
AcDbEntity
8
0
100
AcDbBlockEnd
0
BLOCK
5
16A
100
AcDbEntity
8
0
100
AcDbBlockBegin
2
_U2
70
0
10
0
20
0
30
0
3
_U2
0
MTEXT
5
164
100
AcDbEntity
8
SK2
62
256
6
ByLayer
370
13
48
1
60
0
100
AcDbMText
10
23.322701
20
14.441753
30
0
210
0
220
0
230
1
1
\W0.7317;29,08
40
3.5
41
0
44
1.084337
50
0
71
7
72
5
7
iso_b_vert
0
LINE
5
165
100
AcDbEntity
8
SK2
62
256
6
ByLayer
370
13
48
1
60
0
100
AcDbLine
10
13.92
20
3.3875
30
0
11
13.92
21
15.409119
31
0
39
0
210
0
220
0
230
1
0
LINE
5
166
100
AcDbEntity
8
SK2
62
256
6
ByLayer
370
13
48
1
60
0
100
AcDbLine
10
43
20
1.5875
30
0
11
43
21
15.409119
31
0
39
0
210
0
220
0
230
1
0
LINE
5
167
100
AcDbEntity
8
SK2
62
256
6
ByLayer
370
13
48
1
60
0
100
AcDbLine
10
13.92
20
13.409119
30
0
11
43
21
13.409119
31
0
39
0
210
0
220
0
230
1
0
SOLID
5
168
100
AcDbEntity
8
SK2
62
256
6
ByLayer
370
18
48
1
60
0
100
AcDbTrace
10
13.92
20
13.409119
30
0
11
17.419998
21
13.869903
31
0
12
17.420002
22
12.948335
32
0
13
17.420002
23
12.948335
33
0
39
0
210
0
220
0
230
1
0
SOLID
5
169
100
AcDbEntity
8
SK2
62
256
6
ByLayer
370
18
48
1
60
0
100
AcDbTrace
10
43
20
13.409119
30
0
11
39.500002
21
12.948335
31
0
12
39.499998
22
13.869903
32
0
13
39.499998
23
13.869903
33
0
39
0
210
0
220
0
230
1
0
ENDBLK
5
16B
100
AcDbEntity
8
0
100
AcDbBlockEnd
0
BLOCK
5
170
100
AcDbEntity
8
0
100
AcDbBlockBegin
2
*D7
70
1
10
0
20
0
30
0
3
*D7
0
LINE
5
172
100
AcDbEntity
8
0
62
256
6
ByLayer
370
-2
48
1
60
0
100
AcDbLine
10
43
20
-1.5875
30
0
11
43
21
-16.602503
31
0
39
0
210
0
220
0
230
1
0
LINE
5
173
100
AcDbEntity
8
0
62
256
6
ByLayer
370
-2
48
1
60
0
100
AcDbLine
10
42.4805
20
-3.3875
30
0
11
42.4805
21
-16.602503
31
0
39
0
210
0
220
0
230
1
0
LINE
5
174
100
AcDbEntity
8
0
62
256
6
ByLayer
370
-2
48
1
60
0
100
AcDbLine
10
43
20
-14.602503
30
0
11
71.166667
21
-14.602503
31
0
39
0
210
0
220
0
230
1
0
LINE
5
175
100
AcDbEntity
8
0
62
256
6
ByLayer
370
-2
48
1
60
0
100
AcDbLine
10
46.5
20
-14.602503
30
0
11
50
21
-14.602503
31
0
39
0
210
0
220
0
230
1
0
LINE
5
176
100
AcDbEntity
8
0
62
256
6
ByLayer
370
-2
48
1
60
0
100
AcDbLine
10
38.9805
20
-14.602503
30
0
11
35.4805
21
-14.602503
31
0
39
0
210
0
220
0
230
1
0
SOLID
5
177
100
AcDbEntity
8
0
62
256
6
ByLayer
370
-1
48
1
60
0
100
AcDbTrace
10
46.5
20
-14.01917
30
0
11
46.5
21
-15.185837
31
0
12
43
22
-14.602503
32
0
13
43
23
-14.602503
33
0
39
0
210
0
220
0
230
1
0
SOLID
5
178
100
AcDbEntity
8
0
62
256
6
ByLayer
370
-1
48
1
60
0
100
AcDbTrace
10
38.9805
20
-15.185837
30
0
11
38.9805
21
-14.01917
31
0
12
42.4805
22
-14.602503
32
0
13
42.4805
23
-14.602503
33
0
39
0
210
0
220
0
230
1
0
MTEXT
5
179
100
AcDbEntity
8
0
62
256
6
ByLayer
370
18
48
1
60
0
100
AcDbMText
10
60.583333
20
-7.602503
30
0
210
0
220
0
230
1
1
\A1;0.52
40
3.5
41
0
44
1
50
0
71
5
72
5
7
iso_b_vert
0
POINT
5
17A
100
AcDbEntity
8
Defpoints
62
0
6
ByLayer
370
-1
48
1
60
0
100
AcDbPoint
10
43
20
0
30
0
39
0
210
0
220
0
230
1
50
360
0
POINT
5
17B
100
AcDbEntity
8
Defpoints
62
0
6
ByLayer
370
-1
48
1
60
0
100
AcDbPoint
10
42.4805
20
-1.8
30
0
39
0
210
0
220
0
230
1
50
360
0
POINT
5
17C
100
AcDbEntity
8
Defpoints
62
0
6
ByLayer
370
-1
48
1
60
0
100
AcDbPoint
10
42.4805
20
-14.602503
30
0
39
0
210
0
220
0
230
1
50
360
0
ENDBLK
5
171
100
AcDbEntity
8
0
100
AcDbBlockEnd
0
BLOCK
5
184
100
AcDbEntity
8
0
100
AcDbBlockBegin
2
_U3
70
0
10
0
20
0
30
0
3
_U3
0
MTEXT
5
17E
100
AcDbEntity
8
SK2
62
256
6
ByLayer
370
13
48
1
60
0
100
AcDbMText
10
49.15186
20
-13.56987
30
0
210
0
220
0
230
1
1
\W0.7150;0,52
40
3.5
41
0
44
1.084337
50
0
71
7
72
5
7
iso_b_vert
0
LINE
5
17F
100
AcDbEntity
8
SK2
62
256
6
ByLayer
370
13
48
1
60
0
100
AcDbLine
10
43
20
-1.5875
30
0
11
43
21
-16.602503
31
0
39
0
210
0
220
0
230
1
0
LINE
5
180
100
AcDbEntity
8
SK2
62
256
6
ByLayer
370
13
48
1
60
0
100
AcDbLine
10
42.4805
20
-3.3875
30
0
11
42.4805
21
-16.602503
31
0
39
0
210
0
220
0
230
1
0
LINE
5
181
100
AcDbEntity
8
SK2
62
256
6
ByLayer
370
13
48
1
60
0
100
AcDbLine
10
33.7305
20
-14.602503
30
0
11
56.996491
21
-14.602503
31
0
39
0
210
0
220
0
230
1
0
SOLID
5
182
100
AcDbEntity
8
SK2
62
256
6
ByLayer
370
18
48
1
60
0
100
AcDbTrace
10
43
20
-14.602503
30
0
11
46.499998
21
-14.141719
31
0
12
46.500002
22
-15.063287
32
0
13
46.500002
23
-15.063287
33
0
39
0
210
0
220
0
230
1
0
SOLID
5
183
100
AcDbEntity
8
SK2
62
256
6
ByLayer
370
18
48
1
60
0
100
AcDbTrace
10
42.4805
20
-14.602503
30
0
11
38.980502
21
-15.063287
31
0
12
38.980498
22
-14.141719
32
0
13
38.980498
23
-14.141719
33
0
39
0
210
0
220
0
230
1
0
ENDBLK
5
185
100
AcDbEntity
8
0
100
AcDbBlockEnd
0
BLOCK
5
18A
100
AcDbEntity
8
0
100
AcDbBlockBegin
2
*D9
70
1
10
0
20
0
30
0
3
*D9
0
LINE
5
18C
100
AcDbEntity
8
0
62
256
6
ByLayer
370
-2
48
1
60
0
100
AcDbLine
10
-36
20
-4.5875
30
0
11
-36
21
-23.343428
31
0
39
0
210
0
220
0
230
1
0
LINE
5
18D
100
AcDbEntity
8
0
62
256
6
ByLayer
370
-2
48
1
60
0
100
AcDbLine
10
42.4805
20
-3.3875
30
0
11
42.4805
21
-23.343428
31
0
39
0
210
0
220
0
230
1
0
LINE
5
18E
100
AcDbEntity
8
0
62
256
6
ByLayer
370
-2
48
1
60
0
100
AcDbLine
10
-32.5
20
-21.343428
30
0
11
38.9805
21
-21.343428
31
0
39
0
210
0
220
0
230
1
0
SOLID
5
18F
100
AcDbEntity
8
0
62
256
6
ByLayer
370
-1
48
1
60
0
100
AcDbTrace
10
-32.5
20
-20.760095
30
0
11
-32.5
21
-21.926762
31
0
12
-36
22
-21.343428
32
0
13
-36
23
-21.343428
33
0
39
0
210
0
220
0
230
1
0
SOLID
5
190
100
AcDbEntity
8
0
62
256
6
ByLayer
370
-1
48
1
60
0
100
AcDbTrace
10
38.9805
20
-21.926762
30
0
11
38.9805
21
-20.760095
31
0
12
42.4805
22
-21.343428
32
0
13
42.4805
23
-21.343428
33
0
39
0
210
0
220
0
230
1
0
MTEXT
5
191
100
AcDbEntity
8
0
62
256
6
ByLayer
370
18
48
1
60
0
100
AcDbMText
10
3.24025
20
-14.343428
30
0
210
0
220
0
230
1
1
\A1;78.48
40
3.5
41
0
44
1
50
0
71
5
72
5
7
iso_b_vert
0
POINT
5
192
100
AcDbEntity
8
Defpoints
62
0
6
ByLayer
370
-1
48
1
60
0
100
AcDbPoint
10
-36
20
-3
30
0
39
0
210
0
220
0
230
1
50
360
0
POINT
5
193
100
AcDbEntity
8
Defpoints
62
0
6
ByLayer
370
-1
48
1
60
0
100
AcDbPoint
10
42.4805
20
-1.8
30
0
39
0
210
0
220
0
230
1
50
360
0
POINT
5
194
100
AcDbEntity
8
Defpoints
62
0
6
ByLayer
370
-1
48
1
60
0
100
AcDbPoint
10
42.4805
20
-21.343428
30
0
39
0
210
0
220
0
230
1
50
360
0
ENDBLK
5
18B
100
AcDbEntity
8
0
100
AcDbBlockEnd
0
BLOCK
5
19C
100
AcDbEntity
8
0
100
AcDbBlockBegin
2
_U4
70
0
10
0
20
0
30
0
3
_U4
0
MTEXT
5
196
100
AcDbEntity
8
SK2
62
256
6
ByLayer
370
13
48
1
60
0
100
AcDbMText
10
-2.081315
20
-20.310795
30
0
210
0
220
0
230
1
1
\W0.7581;78,48
40
3.5
41
0
44
1.084337
50
0
71
7
72
5
7
iso_b_vert
0
LINE
5
197
100
AcDbEntity
8
SK2
62
256
6
ByLayer
370
13
48
1
60
0
100
AcDbLine
10
-36
20
-4.5875
30
0
11
-36
21
-23.343428
31
0
39
0
210
0
220
0
230
1
0
LINE
5
198
100
AcDbEntity
8
SK2
62
256
6
ByLayer
370
13
48
1
60
0
100
AcDbLine
10
42.4805
20
-3.3875
30
0
11
42.4805
21
-23.343428
31
0
39
0
210
0
220
0
230
1
0
LINE
5
199
100
AcDbEntity
8
SK2
62
256
6
ByLayer
370
13
48
1
60
0
100
AcDbLine
10
-36
20
-21.343428
30
0
11
42.4805
21
-21.343428
31
0
39
0
210
0
220
0
230
1
0
SOLID
5
19A
100
AcDbEntity
8
SK2
62
256
6
ByLayer
370
18
48
1
60
0
100
AcDbTrace
10
-36
20
-21.343428
30
0
11
-32.500002
21
-20.882645
31
0
12
-32.499998
22
-21.804212
32
0
13
-32.499998
23
-21.804212
33
0
39
0
210
0
220
0
230
1
0
SOLID
5
19B
100
AcDbEntity
8
SK2
62
256
6
ByLayer
370
18
48
1
60
0
100
AcDbTrace
10
42.4805
20
-21.343428
30
0
11
38.980502
21
-21.804212
31
0
12
38.980498
22
-20.882645
32
0
13
38.980498
23
-20.882645
33
0
39
0
210
0
220
0
230
1
0
ENDBLK
5
19D
100
AcDbEntity
8
0
100
AcDbBlockEnd
0
ENDSEC
0
SECTION
2
ENTITIES
0
ARC
5
B2
100
AcDbEntity
8
1
62
256
6
ByLayer
370
18
48
1
60
0
100
AcDbCircle
39
0
10
1.555566
20
2.574454
30
0
40
0.800000000000005
210
0
220
0
230
1
100
AcDbArc
50
193.534671
51
270.03581
0
ARC
5
B3
100
AcDbEntity
8
1
62
256
6
ByLayer
370
18
48
1
60
0
100
AcDbCircle
39
0
10
0
20
-2.2
30
0
40
0.799999999999998
210
0
220
0
230
1
100
AcDbArc
50
270
51
346.465329
0
ARC
5
B4
100
AcDbEntity
8
1
62
256
6
ByLayer
370
18
48
1
60
0
100
AcDbCircle
39
0
10
1.555566
20
-2.574454
30
0
40
0.800000000000005
210
0
220
0
230
1
100
AcDbArc
50
89.96419
51
166.465329
0
ARC
5
B5
100
AcDbEntity
8
1
62
256
6
ByLayer
370
18
48
1
60
0
100
AcDbCircle
39
0
10
0
20
2.2
30
0
40
0.799999999999998
210
0
220
0
230
1
100
AcDbArc
50
13.534671
51
90
0
ELLIPSE
5
B6
100
AcDbEntity
8
1
62
256
6
ByLayer
370
18
48
1
60
0
100
AcDbEllipse
10
8.25
20
1.928874
30
0
11
0.25
21
0
31
0
210
0
220
0
230
1
40
1
41
-2.41367808154315
42
-1.56184582768645
0
ELLIPSE
5
B7
100
AcDbEntity
8
1
62
256
6
ByLayer
370
18
48
1
60
0
100
AcDbEllipse
10
8.25
20
-1.928874
30
0
11
0.25
21
0
31
0
210
0
220
0
230
1
40
1
41
1.58247885088971
42
2.40995107010885
0
POINT
5
70
100
AcDbEntity
8
80
62
256
6
ByLayer
370
18
48
1
60
0
100
AcDbPoint
10
0
20
0
30
0
39
0
210
0
220
0
230
1
50
360
0
POINT
5
72
100
AcDbEntity
8
81
62
256
6
ByLayer
370
18
48
1
60
0
100
AcDbPoint
10
43
20
0
30
0
39
0
210
0
220
0
230
1
50
360
0
POINT
5
74
100
AcDbEntity
8
1
62
256
6
ByLayer
370
18
48
1
60
1
100
AcDbPoint
10
42.4805
20
-1.8
30
0
39
0
210
0
220
0
230
1
50
360
0
POINT
5
76
100
AcDbEntity
8
1
62
256
6
ByLayer
370
18
48
1
60
1
100
AcDbPoint
10
-36
20
-3
30
0
39
0
210
0
220
0
230
1
50
360
0
POINT
5
77
100
AcDbEntity
8
1
62
256
6
ByLayer
370
18
48
1
60
1
100
AcDbPoint
10
13.92
20
1.8
30
0
39
0
210
0
220
0
230
1
50
360
0
POINT
5
78
100
AcDbEntity
8
1
62
256
6
ByLayer
370
18
48
1
60
1
100
AcDbPoint
10
42.4805
20
-1.8
30
0
39
0
210
0
220
0
230
1
50
360
0
POINT
5
79
100
AcDbEntity
8
1
62
256
6
ByLayer
370
18
48
1
60
1
100
AcDbPoint
10
-36
20
-3
30
0
39
0
210
0
220
0
230
1
50
360
0
POINT
5
7A
100
AcDbEntity
8
1
62
256
6
ByLayer
370
18
48
1
60
1
100
AcDbPoint
10
42.4805
20
-1.8
30
0
39
0
210
0
220
0
230
1
50
360
0
SPLINE
5
B8
100
AcDbEntity
8
SK1
62
256
6
ByLayer
370
18
48
1
60
0
100
AcDbSpline
70
4
71
3
72
12
73
8
40
0
40
0
40
0
40
0
40
0.25
40
0.25
40
0.5
40
0.5
40
1
40
1
40
1
40
1
41
1
10
-35.65
20
2.34631957237684
30
0
41
1
10
-35.65
20
2.35048183771684
30
0
41
1
10
-35.6543403470551
20
2.35016190511723
30
0
41
1
10
-35.6670034572333
20
2.34432188340455
30
0
41
1
10
-35.6754069618005
20
2.33884720221363
30
0
41
1
10
-35.7033744297257
20
2.31831007996701
30
0
41
1
10
-35.7260009806424
20
2.29903295166946
30
0
41
1
10
-35.7500000000001
20
2.27691338350888
30
0
0
SPLINE
5
B9
100
AcDbEntity
8
SK1
62
256
6
ByLayer
370
18
48
1
60
0
100
AcDbSpline
70
4
71
3
72
12
73
8
40
0
40
0
40
0
40
0
40
0.5
40
0.5
40
0.75
40
0.75
40
1
40
1
40
1
40
1
41
1
10
-35.75
20
1.54259061501551
30
0
41
1
10
-35.7259913046562
20
1.56471910140024
30
0
41
1
10
-35.7033433879313
20
1.59205079694985
30
0
41
1
10
-35.6754686754417
20
1.63601806219725
30
0
41
1
10
-35.667025596347
20
1.65152997341497
30
0
41
1
10
-35.6543350076412
20
1.68206668252478
30
0
41
1
10
-35.65
20
1.69751187526433
30
0
41
1
10
-35.65
20
1.70990650634931
30
0
0
SPLINE
5
BA
100
AcDbEntity
8
SK1
62
256
6
ByLayer
370
18
48
1
60
0
100
AcDbSpline
70
4
71
3
72
8
73
4
40
0
40
0
40
0
40
0
40
1
40
1
40
1
40
1
41
1
10
-35.75
20
2.27691338350874
30
0
41
1
10
-35.8336562750464
20
2.19980853808286
30
0
41
1
10
-35.9170312614441
20
2.12248098011341
30
0
41
1
10
-36
20
2.04483177215712
30
0
0
SPLINE
5
BB
100
AcDbEntity
8
SK1
62
256
6
ByLayer
370
18
48
1
60
0
100
AcDbSpline
70
4
71
3
72
8
73
4
40
0
40
0
40
0
40
0
40
1
40
1
40
1
40
1
41
1
10
-36
20
1.31050900366384
30
0
41
1
10
-35.9170412990566
20
1.3881488175679
30
0
41
1
10
-35.8336651085168
20
1.46547762790061
30
0
41
1
10
-35.7499999999999
20
1.54259061501551
30
0
0
SPLINE
5
BC
100
AcDbEntity
8
1
62
256
6
ByLayer
370
18
48
1
60
0
100
AcDbSpline
70
4
71
3
72
8
73
4
40
0
40
0
40
0
40
0
40
1
40
1
40
1
40
1
41
1
10
42.9788421159374
20
0.122245408058575
30
0
41
1
10
42.982155792918
20
0.0978929144633582
30
0
41
1
10
42.9898838524345
20
0.0666441585427435
30
0
41
1
10
42.9999200770529
20
0.0337629892232769
30
0
0
SPLINE
5
BD
100
AcDbEntity
8
1
62
256
6
ByLayer
370
18
48
1
60
0
100
AcDbSpline
70
4
71
3
72
30
73
26
40
0
40
0
40
0
40
0
40
0.125000000000016
40
0.125000000000016
40
0.250000000000032
40
0.250000000000032
40
0.312500000000033
40
0.312500000000033
40
0.375000000000033
40
0.375000000000033
40
0.500000000000022
40
0.500000000000022
40
0.75
40
0.75
40
0.781250000000001
40
0.781250000000001
40
0.812500000000001
40
0.812500000000001
40
0.828125000000001
40
0.828125000000001
40
0.843750000000002
40
0.843750000000002
40
0.875000000000002
40
0.875000000000002
40
1
40
1
40
1
40
1
41
1
10
41.3355343289899
20
-0.653738692424014
30
0
41
1
10
41.4073364631185
20
-0.665259313608004
30
0
41
1
10
41.4787965553431
20
-0.671636891607932
30
0
41
1
10
41.6184383466788
20
-0.67096345612299
30
0
41
1
10
41.6869497114258
20
-0.664096355256589
30
0
41
1
10
41.7869464708718
20
-0.639980803072746
30
0
41
1
10
41.8199424235212
20
-0.6295957396988
30
0
41
1
10
41.8827230544679
20
-0.603603636956308
30
0
41
1
10
41.9126344084656
20
-0.587774278392317
30
0
41
1
10
41.9988077663798
20
-0.533464815773812
30
0
41
1
10
42.0518130617388
20
-0.487060017177754
30
0
41
1
10
42.1905376546132
20
-0.326606308259073
30
0
41
1
10
42.258072389109
20
-0.190334325711234
30
0
41
1
10
42.3150877189523
20
-0.0251433896828246
30
0
41
1
10
42.3211656753956
20
-0.0066168478292923
30
0
41
1
10
42.3328520403734
20
0.0307503757541099
30
0
41
1
10
42.3402062992264
20
0.0486465434541117
30
0
41
1
10
42.3436580058589
20
0.0793548955255119
30
0
41
1
10
42.3429466078681
20
0.0906611154304358
30
0
41
1
10
42.3394317218311
20
0.112579659999
30
0
41
1
10
42.3367882410851
20
0.123447822018704
30
0
41
1
10
42.3283904502666
20
0.15600425114809
30
0
41
1
10
42.3228318510718
20
0.17771264298753
30
0
41
1
10
42.2958449420179
20
0.286337491197656
30
0
41
1
10
42.2753560148971
20
0.373357120807867
30
0
41
1
10
42.2556696511137
20
0.460418023873075
30
0
0
SPLINE
5
BE
100
AcDbEntity
8
1
62
256
6
ByLayer
370
18
48
1
60
0
100
AcDbSpline
70
4
71
3
72
10
73
6
40
0
40
0
40
0
40
0
40
0.5
40
0.5
40
1
40
1
40
1
40
1
41
1
10
41.3355343289853
20
-0.653738692427822
30
0
41
1
10
41.4526775011537
20
-0.773111754517316
30
0
41
1
10
41.5778218423558
20
-0.879942148361181
30
0
41
1
10
41.8392048438212
20
-1.07404986495192
30
0
41
1
10
41.9732273765821
20
-1.15973518900492
30
0
41
1
10
42.1099997087788
20
-1.23603567713317
30
0
0
SPLINE
5
BF
100
AcDbEntity
8
1
62
256
6
ByLayer
370
18
48
1
60
0
100
AcDbSpline
70
4
71
3
72
8
73
4
40
0
40
0
40
0
40
0
40
1
40
1
40
1
40
1
41
1
10
42.9999200770509
20
0.0337629892194116
30
0
41
1
10
43.0000266409824
20
0.0112543297362038
30
0
41
1
10
43.0000266409824
20
-0.011254329747004
30
0
41
1
10
42.9999200770509
20
-0.0337629892302118
30
0
0
SPLINE
5
C0
100
AcDbEntity
8
1
62
256
6
ByLayer
370
18
48
1
60
0
100
AcDbSpline
70
4
71
3
72
8
73
4
40
0
40
0
40
0
40
0
40
1
40
1
40
1
40
1
41
1
10
42.9788421159374
20
-0.12224540805849
30
0
41
1
10
42.9821557929178
20
-0.0978929144650351
30
0
41
1
10
42.9898838524335
20
-0.0666441585470636
30
0
41
1
10
42.9999200770508
20
-0.0337629892303539
30
0
0
SPLINE
5
C1
100
AcDbEntity
8
1
62
256
6
ByLayer
370
18
48
1
60
0
100
AcDbSpline
70
4
71
3
72
12
73
8
40
0
40
0
40
0
40
0
40
0.499999999999966
40
0.499999999999966
40
0.749999999999983
40
0.749999999999983
40
1
40
1
40
1
40
1
41
1
10
42.3248740158056
20
0.536222879889749
30
0
41
1
10
42.4231252188681
20
0.538050119681031
30
0
41
1
10
42.5211564367234
20
0.540595594887293
30
0
41
1
10
42.6675481882099
20
0.546552580041208
30
0
41
1
10
42.7162350367015
20
0.548898696128333
30
0
41
1
10
42.813169128714
20
0.55502620598557
30
0
41
1
10
42.8614294760483
20
0.558764816775408
30
0
41
1
10
42.9096233435375
20
0.562720479337486
30
0
0
SPLINE
5
C2
100
AcDbEntity
8
1
62
256
6
ByLayer
370
18
48
1
60
0
100
AcDbSpline
70
4
71
3
72
10
73
6
40
0
40
0
40
0
40
0
40
0.5
40
0.5
40
1
40
1
40
1
40
1
41
1
10
8.05011360949561
20
-1.73714790199639
30
0
41
1
10
8.07500694105215
20
-1.70630534803479
30
0
41
1
10
8.10713124135805
20
-1.68412991920326
30
0
41
1
10
8.17640568050086
20
-1.65781160796763
30
0
41
1
10
8.21335867829734
20
-1.65354470032321
30
0
41
1
10
8.2495588607855
20
-1.65692004696413
30
0
0
SPLINE
5
C3
100
AcDbEntity
8
1
62
256
6
ByLayer
370
18
48
1
60
0
100
AcDbSpline
70
4
71
3
72
51
73
47
40
0
40
0
40
0
40
0
40
0.125000000000002
40
0.125000000000002
40
0.187500000000003
40
0.187500000000003
40
0.250000000000005
40
0.250000000000005
40
0.312500000000006
40
0.312500000000006
40
0.375000000000007
40
0.375000000000007
40
0.437500000000008
40
0.437500000000008
40
0.500000000000009
40
0.500000000000009
40
0.531250000000009
40
0.531250000000009
40
0.562500000000009
40
0.59375000000001
40
0.59375000000001
40
0.62500000000001
40
0.62500000000001
40
0.687500000000009
40
0.687500000000009
40
0.750000000000009
40
0.750000000000009
40
0.812500000000008
40
0.812500000000008
40
0.843750000000009
40
0.843750000000009
40
0.85156250000001
40
0.85156250000001
40
0.855468750000008
40
0.855468750000008
40
0.859375000000007
40
0.859375000000007
40
0.863281250000006
40
0.863281250000006
40
0.867187500000005
40
0.867187500000005
40
0.875000000000002
40
0.875000000000002
40
0.937500000000001
40
0.937500000000001
40
1
40
1
40
1
40
1
41
1
10
7.40953555642997
20
-1.60968324870714
30
0
41
1
10
7.24911112288896
20
-1.54664631662749
30
0
41
1
10
7.09646442186681
20
-1.46557660339994
30
0
41
1
10
6.87834280358823
20
-1.31229753632721
30
0
41
1
10
6.8074532947806
20
-1.2558891526707
30
0
41
1
10
6.66938870166445
20
-1.13081148516733
30
0
41
1
10
6.60251535083944
20
-1.06228647256589
30
0
41
1
10
6.4765489527916
20
-0.915417686091928
30
0
41
1
10
6.41697581676047
20
-0.836689153024111
30
0
41
1
10
6.30538679533919
20
-0.666953119950307
30
0
41
1
10
6.25344439517272
20
-0.575771765304779
30
0
41
1
10
6.16223454023338
20
-0.386066880811455
30
0
41
1
10
6.12236803191891
20
-0.286743863441302
30
0
41
1
10
6.05682908230386
20
-0.0777590553779817
30
0
41
1
10
6.03232332214043
20
0.0281982448351528
30
0
41
1
10
6.00958326320426
20
0.189630713218037
30
0
41
1
10
6.00435017268597
20
0.24428788644073
30
0
41
1
10
5.99925184359907
20
0.352146939780397
30
0
41
1
10
5.9994332107442
20
0.4583677680439
30
0
41
1
10
6.0102694723071
20
0.561388872542324
30
0
41
1
10
6.02664545821457
20
0.662807094594143
30
0
41
1
10
6.03769931230556
20
0.712894495208957
30
0
41
1
10
6.07826168354489
20
0.856412067110767
30
0
41
1
10
6.11535223950921
20
0.94480976822166
30
0
41
1
10
6.2078246290933
20
1.1078346720181
30
0
41
1
10
6.2616148030823
20
1.17983429967884
30
0
41
1
10
6.38170817160841
20
1.30908020620467
30
0
41
1
10
6.44842678489815
20
1.36652500061493
30
0
41
1
10
6.55513518028962
20
1.44215900608077
30
0
41
1
10
6.59183981676691
20
1.46565492960883
30
0
41
1
10
6.63887889427241
20
1.49301846704978
30
0
41
1
10
6.64834594036182
20
1.49839159720616
30
0
41
1
10
6.66262901919788
20
1.50630358351051
30
0
41
1
10
6.66745676756932
20
1.50888921981078
30
0
41
1
10
6.67686727628092
20
1.51415216260889
30
0
41
1
10
6.68144166835862
20
1.51684010095278
30
0
41
1
10
6.69201597042311
20
1.52141802650576
30
0
41
1
10
6.69838211511927
20
1.52299236375279
30
0
41
1
10
6.71196658343499
20
1.52393322326085
30
0
41
1
10
6.71892926017341
20
1.52360273974352
30
0
41
1
10
6.73958252272377
20
1.52316440036981
30
0
41
1
10
6.75335369676165
20
1.52289120620259
30
0
41
1
10
6.8771970234377
20
1.51938616575635
30
0
41
1
10
6.98677651985949
20
1.511747983931
30
0
41
1
10
7.20142797218386
20
1.48691792292408
30
0
41
1
10
7.30653734534286
20
1.46974139113863
30
0
41
1
10
7.40953555643017
20
1.44696028915024
30
0
0
SPLINE
5
C4
100
AcDbEntity
8
1
62
256
6
ByLayer
370
18
48
1
60
0
100
AcDbSpline
70
4
71
3
72
10
73
6
40
0
40
0
40
0
40
0
40
0.5
40
0.5
40
1
40
1
40
1
40
1
41
1
10
8.05011360949558
20
-1.73714790199639
30
0
41
1
10
7.94417074830849
20
-1.7227853398993
30
0
41
1
10
7.83820715176401
20
-1.70472458168098
30
0
41
1
10
7.62480342843807
20
-1.66207178130856
30
0
41
1
10
7.51748993320683
20
-1.63745327617926
30
0
41
1
10
7.40953555642994
20
-1.60968324870714
30
0
0
SPLINE
5
C5
100
AcDbEntity
8
1
62
256
6
ByLayer
370
18
48
1
60
0
100
AcDbSpline
70
4
71
3
72
78
73
74
40
0
40
0
40
0
40
0
40
0.0149384478620684
40
0.0149384478620684
40
0.0377101733315578
40
0.0377101733315578
40
0.0604818988010472
40
0.0604818988010472
40
0.106025349740027
40
0.106025349740027
40
0.151568800679007
40
0.151568800679007
40
0.174340526148497
40
0.174340526148497
40
0.197112251617987
40
0.197112251617987
40
0.219883977087477
40
0.219883977087477
40
0.242655702556967
40
0.242655702556967
40
0.265427428026457
40
0.265427428026457
40
0.288199153495947
40
0.288199153495947
40
0.333742604434927
40
0.333742604434927
40
0.379286055373907
40
0.379286055373907
40
0.402057780843397
40
0.402057780843397
40
0.424829506312887
40
0.424829506312887
40
0.470372957251868
40
0.470372957251868
40
0.493144682721358
40
0.493144682721358
40
0.515916408190849
40
0.515916408190849
40
0.53868813366034
40
0.53868813366034
40
0.56145985912983
40
0.56145985912983
40
0.607003310068813
40
0.607003310068813
40
0.629775035538304
40
0.629775035538304
40
0.652546761007795
40
0.652546761007795
40
0.698090211946777
40
0.698090211946777
40
0.720861937416268
40
0.720861937416268
40
0.743633662885759
40
0.743633662885759
40
0.766405388355249
40
0.766405388355249
40
0.78917711382474
40
0.78917711382474
40
0.834720564763722
40
0.834720564763722
40
0.857492290233214
40
0.857492290233214
40
0.880264015702705
40
0.880264015702705
40
0.925807466641686
40
0.925807466641686
40
0.948579192111176
40
0.948579192111176
40
0.971350917580666
40
0.971350917580666
40
0.994122643050156
40
0.994122643050156
40
1
40
1
40
1
40
1
41
1
10
11.6157569901536
20
0.880879297293461
30
0
41
1
10
11.6754733776809
20
0.912869220883664
30
0
41
1
10
11.7351466312921
20
0.944327410046157
30
0
41
1
10
11.8855838056532
20
1.0225367547352
30
0
41
1
10
11.9758939658133
20
1.06908534254515
30
0
41
1
10
12.1574524506165
20
1.15807507651959
30
0
41
1
10
12.2487560983944
20
1.20047671783067
30
0
41
1
10
12.5237300532629
20
1.32214766004978
30
0
41
1
10
12.7091509108325
20
1.39636914986056
30
0
41
1
10
13.073159986842
20
1.52816292281111
30
0
41
1
10
13.25569663613
20
1.58311999684372
30
0
41
1
10
13.5286801282574
20
1.65160558918853
30
0
41
1
10
13.6196102316748
20
1.67202901153857
30
0
41
1
10
13.8008122926826
20
1.7081937335638
30
0
41
1
10
13.8911461916434
20
1.7238407044452
30
0
41
1
10
14.0732954505781
20
1.74941953953046
30
0
41
1
10
14.164836518758
20
1.75951450937205
30
0
41
1
10
14.3483882264529
20
1.77447284895476
30
0
41
1
10
14.4406862278395
20
1.77932197679337
30
0
41
1
10
14.6244998134276
20
1.78352771178061
30
0
41
1
10
14.7154469425663
20
1.78285055191176
30
0
41
1
10
14.8976672836102
20
1.77600902716137
30
0
41
1
10
14.9888896764591
20
1.76990965239429
30
0
41
1
10
15.2623406127877
20
1.74386149174197
30
0
41
1
10
15.4441684621363
20
1.71619271196849
30
0
41
1
10
15.8059175231284
20
1.63873988002527
30
0
41
1
10
15.9888225713406
20
1.59069111721052
30
0
41
1
10
16.2644214442593
20
1.50372681249718
30
0
41
1
10
16.3568077585299
20
1.47220662689526
30
0
41
1
10
16.5397030555354
20
1.40415577805555
30
0
41
1
10
16.6306086701681
20
1.36778036134044
30
0
41
1
10
16.9042275483752
20
1.25451710677285
30
0
41
1
10
17.0866552871905
20
1.17239762368075
30
0
41
1
10
17.3588053550753
20
1.03754462385379
30
0
41
1
10
17.4489416553099
20
0.990152082926159
30
0
41
1
10
17.6304089492232
20
0.893608797547415
30
0
41
1
10
17.7216185983588
20
0.84433308912179
30
0
41
1
10
17.9045770204523
20
0.743249585979356
30
0
41
1
10
17.996294470174
20
0.691389355446177
30
0
41
1
10
18.1801768983377
20
0.584881175243652
30
0
41
1
10
18.272011592693
20
0.529851384014876
30
0
41
1
10
18.5455735459114
20
0.363144753157115
30
0
41
1
10
18.7283082856933
20
0.252397369810609
30
0
41
1
10
19.0012064650364
20
0.0840424688109067
30
0
41
1
10
19.0920591864367
20
0.0276936763609399
30
0
41
1
10
19.2729074520747
20
-0.0864979900682386
30
0
41
1
10
19.3632926184359
20
-0.143705265157223
30
0
41
1
10
19.6363138163897
20
-0.31241614001658
30
0
41
1
10
19.8197483374175
20
-0.422749450209921
30
0
41
1
10
20.0955639237127
20
-0.587456532079926
30
0
41
1
10
20.1866270712549
20
-0.642235775570299
30
0
41
1
10
20.3691626916264
20
-0.747613130384252
30
0
41
1
10
20.4604964350606
20
-0.798561699305139
30
0
41
1
10
20.6428649223719
20
-0.897765466668858
30
0
41
1
10
20.7338894186411
20
-0.946029212476702
30
0
41
1
10
20.9155578855857
20
-1.03994587126121
30
0
41
1
10
21.0058876113644
20
-1.08600575503843
30
0
41
1
10
21.277210826461
20
-1.21889142142623
30
0
41
1
10
21.4599120585134
20
-1.29887571157789
30
0
41
1
10
21.7348944663133
20
-1.40822659919485
30
0
41
1
10
21.8270447424434
20
-1.44287937476591
30
0
41
1
10
22.009947331664
20
-1.50836043103104
30
0
41
1
10
22.1011170695175
20
-1.53854422225115
30
0
41
1
10
22.3750729214719
20
-1.62079339326479
30
0
41
1
10
22.5575126208996
20
-1.66544916862827
30
0
41
1
10
22.8293301479215
20
-1.71815024593929
30
0
41
1
10
22.9193946269634
20
-1.73335251983818
30
0
41
1
10
23.1008336193111
20
-1.75800021499759
30
0
41
1
10
23.1919845675109
20
-1.7675954419733
30
0
41
1
10
23.3746838336926
20
-1.7815464851852
30
0
41
1
10
23.4662393746096
20
-1.78589189420717
30
0
41
1
10
23.5816386181943
20
-1.78794615514232
30
0
41
1
10
23.6053123856103
20
-1.78818356412833
30
0
41
1
10
23.6289792769827
20
-1.78823626424048
30
0
0
SPLINE
5
C6
100
AcDbEntity
8
1
62
256
6
ByLayer
370
18
48
1
60
0
100
AcDbSpline
70
4
71
3
72
76
73
72
40
0
40
0
40
0
40
0
40
0.0196925032133058
40
0.0196925032133058
40
0.0424322825057814
40
0.0424322825057814
40
0.065172061798257
40
0.065172061798257
40
0.110651620383208
40
0.110651620383208
40
0.133391399675684
40
0.133391399675684
40
0.156131178968161
40
0.156131178968161
40
0.178870958260638
40
0.178870958260638
40
0.201610737553115
40
0.201610737553115
40
0.247090296138068
40
0.247090296138068
40
0.269830075430543
40
0.269830075430543
40
0.292569854723019
40
0.292569854723019
40
0.33804941330797
40
0.33804941330797
40
0.360789192600447
40
0.360789192600447
40
0.383528971892923
40
0.383528971892923
40
0.4062687511854
40
0.4062687511854
40
0.429008530477877
40
0.429008530477877
40
0.47448808906283
40
0.47448808906283
40
0.497227868355307
40
0.497227868355307
40
0.519967647647784
40
0.519967647647784
40
0.565447206232734
40
0.565447206232734
40
0.588186985525209
40
0.588186985525209
40
0.610926764817683
40
0.610926764817683
40
0.633666544110157
40
0.633666544110157
40
0.656406323402631
40
0.656406323402631
40
0.701885881987582
40
0.701885881987582
40
0.724625661280058
40
0.724625661280058
40
0.747365440572533
40
0.747365440572533
40
0.792844999157482
40
0.792844999157482
40
0.83832455774243
40
0.83832455774243
40
0.861064337034903
40
0.861064337034903
40
0.883804116327376
40
0.883804116327376
40
0.929283674912324
40
0.929283674912324
40
0.952023454204797
40
0.952023454204797
40
0.97476323349727
40
0.97476323349727
40
1
40
1
40
1
40
1
41
1
10
29.6143949649495
20
0.884198238434806
30
0
41
1
10
29.6934154520527
20
0.926817720012195
30
0
41
1
10
29.772617535493
20
0.968464032570182
30
0
41
1
10
29.9434717763768
20
1.0563919892196
30
0
41
1
10
30.0353264842561
20
1.10259079294323
30
0
41
1
10
30.2180335532249
20
1.19197617170462
30
0
41
1
10
30.3094004216792
20
1.23419296886195
30
0
41
1
10
30.5833785810616
20
1.35411778954625
30
0
41
1
10
30.7656728289192
20
1.42547011512508
30
0
41
1
10
31.0368789591609
20
1.52108567564332
30
0
41
1
10
31.1269935839317
20
1.55089833713015
30
0
41
1
10
31.3085209143118
20
1.60492420972457
30
0
41
1
10
31.399661562877
20
1.62939843258263
30
0
41
1
10
31.5822419076538
20
1.67362651770793
30
0
41
1
10
31.6737397421082
20
1.69333868968999
30
0
41
1
10
31.8569363557822
20
1.7278995054659
30
0
41
1
10
31.9483852914457
20
1.74286701828669
30
0
41
1
10
32.223161341814
20
1.7788035476427
30
0
41
1
10
32.4071617216475
20
1.79156322186694
30
0
41
1
10
32.6826780902738
20
1.79461626819122
30
0
41
1
10
32.7744457664367
20
1.79287862475943
30
0
41
1
10
32.9571127707553
20
1.78372521886902
30
0
41
1
10
33.0484749597104
20
1.77642083908933
30
0
41
1
10
33.3223887834478
20
1.74680578969952
30
0
41
1
10
33.5046346024811
20
1.71691435445356
30
0
41
1
10
33.7756609001494
20
1.65564745040544
30
0
41
1
10
33.8658807572982
20
1.63256189268549
30
0
41
1
10
34.0475220712474
20
1.58214982555671
30
0
41
1
10
34.1386985420136
20
1.55469061803683
30
0
41
1
10
34.3213402103004
20
1.49494280917091
30
0
41
1
10
34.4128762558205
20
1.46271382731376
30
0
41
1
10
34.5960972679159
20
1.39305073607449
30
0
41
1
10
34.6874692136363
20
1.35523616078271
30
0
41
1
10
34.9613878451169
20
1.23801440738205
30
0
41
1
10
35.143984262906
20
1.15379423836802
30
0
41
1
10
35.4162875866611
20
1.01682468727901
30
0
41
1
10
35.5065508584449
20
0.969041470980073
30
0
41
1
10
35.6871228042816
20
0.870539887276834
30
0
41
1
10
35.7778302083758
20
0.820395524315273
30
0
41
1
10
36.050875068573
20
0.666965542165684
30
0
41
1
10
36.2340238762249
20
0.560603817463175
30
0
41
1
10
36.508648087205
20
0.391482408020664
30
0
41
1
10
36.5999899326744
20
0.334516552695021
30
0
41
1
10
36.7834245481818
20
0.221240219085019
30
0
41
1
10
36.8752967719383
20
0.164583917717692
30
0
41
1
10
37.0589453316699
20
0.0505954262814328
30
0
41
1
10
37.1508036497489
20
-0.0066056220584585
30
0
41
1
10
37.3342110457348
20
-0.122046042015398
30
0
41
1
10
37.4254398963271
20
-0.180596278707043
30
0
41
1
10
37.6993192464192
20
-0.351492883943394
30
0
41
1
10
37.8818504107639
20
-0.461429299293656
30
0
41
1
10
38.154021919088
20
-0.623023949109353
30
0
41
1
10
38.2441715164383
20
-0.67677322753741
30
0
41
1
10
38.4248360795857
20
-0.781689894068734
30
0
41
1
10
38.5155979576343
20
-0.832508004548913
30
0
41
1
10
38.7887645031002
20
-0.980744328496741
30
0
41
1
10
38.9723289594832
20
-1.07428666822915
30
0
41
1
10
39.3378232192806
20
-1.25223532399755
30
0
41
1
10
39.5203557212422
20
-1.33156969104252
30
0
41
1
10
39.7932319272363
20
-1.4380379843135
30
0
41
1
10
39.8840393338108
20
-1.4714173969968
30
0
41
1
10
40.0649321225199
20
-1.53424409139188
30
0
41
1
10
40.1548544821365
20
-1.5637758287883
30
0
41
1
10
40.4265970729545
20
-1.64382761183953
30
0
41
1
10
40.6092132875909
20
-1.68705921824133
30
0
41
1
10
40.8837822360525
20
-1.73743586647666
30
0
41
1
10
40.9753253502364
20
-1.75191126546875
30
0
41
1
10
41.1578467437029
20
-1.77498918091513
30
0
41
1
10
41.2491409002797
20
-1.78363484908971
30
0
41
1
10
41.4415339304525
20
-1.79619760149325
30
0
41
1
10
41.542594222626
20
-1.79954280015036
30
0
41
1
10
41.6433072055484
20
-1.79954809128324
30
0
0
SPLINE
5
C7
100
AcDbEntity
8
1
62
256
6
ByLayer
370
18
48
1
60
0
100
AcDbSpline
70
4
71
3
72
8
73
4
40
0
40
0
40
0
40
0
40
1
40
1
40
1
40
1
41
1
10
8.18145967040303
20
1.30517870349337
30
0
41
1
10
8.15680077776486
20
1.31554325333082
30
0
41
1
10
8.13195904771564
20
1.32560059744063
30
0
41
1
10
8.10927890471152
20
1.33759790937188
30
0
0
SPLINE
5
C8
100
AcDbEntity
8
1
62
256
6
ByLayer
370
18
48
1
60
0
100
AcDbSpline
70
4
71
3
72
14
73
10
40
0
40
0
40
0
40
0
40
0.25
40
0.25
40
0.5
40
0.5
40
0.75
40
0.75
40
1
40
1
40
1
40
1
41
1
10
42.7681875168141
20
-0.512604801040283
30
0
41
1
10
42.7697831568226
20
-0.531630945338406
30
0
41
1
10
42.7659010127909
20
-0.562030948016741
30
0
41
1
10
42.7474736182322
20
-0.637765255891139
30
0
41
1
10
42.7332106035007
20
-0.681875371239556
30
0
41
1
10
42.7009380849512
20
-0.766722441765722
30
0
41
1
10
42.6829303710977
20
-0.807699805013698
30
0
41
1
10
42.6484645465095
20
-0.87737264064495
30
0
41
1
10
42.6317115347599
20
-0.906788121538739
30
0
41
1
10
42.6168434016441
20
-0.928419340039369
30
0
0
SPLINE
5
C9
100
AcDbEntity
8
1
62
256
6
ByLayer
370
18
48
1
60
0
100
AcDbSpline
70
4
71
3
72
26
73
22
40
0
40
0
40
0
40
0
40
0.153845067932405
40
0.153845067932405
40
0.230767601898608
40
0.230767601898608
40
0.30769013586481
40
0.30769013586481
40
0.461535203797215
40
0.461535203797215
40
0.538457737763418
40
0.538457737763418
40
0.61538027172962
40
0.61538027172962
40
0.769225339662025
40
0.769225339662025
40
0.846147873628228
40
0.846147873628228
40
0.92307040759443
40
0.92307040759443
40
1
40
1
40
1
40
1
41
1
10
8.2495588608995
20
-1.65692004697473
30
0
41
1
10
8.42180193934774
20
-1.67298018966093
30
0
41
1
10
8.59413638696162
20
-1.68023387318499
30
0
41
1
10
8.85097585167651
20
-1.67779812415941
30
0
41
1
10
8.9364137517741
20
-1.67473073183197
30
0
41
1
10
9.10713234453971
20
-1.66395894215762
30
0
41
1
10
9.19234463834351
20
-1.65618542748777
30
0
41
1
10
9.44986060290765
20
-1.62668400150324
30
0
41
1
10
9.62171580117385
20
-1.59881332715767
30
0
41
1
10
9.88050442508899
20
-1.54305027901404
30
0
41
1
10
9.96716907538956
20
-1.52202579731861
30
0
41
1
10
10.1399485479013
20
-1.47588439391265
30
0
41
1
10
10.2264690327293
20
-1.45117234904595
30
0
41
1
10
10.4851688339472
20
-1.37141469741158
30
0
41
1
10
10.6564559727605
20
-1.31071613034635
30
0
41
1
10
10.9125910736806
20
-1.20889473488842
30
0
41
1
10
10.9977345620515
20
-1.17298656733613
30
0
41
1
10
11.1692244067938
20
-1.09948621022556
30
0
41
1
10
11.2550529063985
20
-1.06126506675281
30
0
41
1
10
11.4267285191958
20
-0.98171723422476
30
0
41
1
10
11.5125651805572
20
-0.940403639060776
30
0
41
1
10
11.5985514593979
20
-0.89764128349799
30
0
0
SPLINE
5
CA
100
AcDbEntity
8
1
62
256
6
ByLayer
370
18
48
1
60
0
100
AcDbSpline
70
4
71
3
72
80
73
76
40
0
40
0
40
0
40
0
40
0.031122401044042
40
0.031122401044042
40
0.052827578681511
40
0.052827578681511
40
0.0745327563189801
40
0.0745327563189801
40
0.096237933956449
40
0.096237933956449
40
0.117943111593918
40
0.117943111593918
40
0.161353466868856
40
0.161353466868856
40
0.183058644506325
40
0.183058644506325
40
0.204763822143794
40
0.204763822143794
40
0.226468999781263
40
0.226468999781263
40
0.248174177418732
40
0.248174177418732
40
0.269879355056201
40
0.269879355056201
40
0.29158453269367
40
0.29158453269367
40
0.334994887968608
40
0.334994887968608
40
0.356700065606078
40
0.356700065606078
40
0.378405243243548
40
0.378405243243548
40
0.421815598518486
40
0.421815598518486
40
0.465225953793424
40
0.465225953793424
40
0.486931131430893
40
0.486931131430893
40
0.508636309068362
40
0.508636309068362
40
0.5520466643433
40
0.5520466643433
40
0.595457019618238
40
0.595457019618238
40
0.617162197255707
40
0.617162197255707
40
0.638867374893176
40
0.638867374893176
40
0.660572552530645
40
0.660572552530645
40
0.682277730168114
40
0.682277730168114
40
0.703982907805583
40
0.703982907805583
40
0.725688085443052
40
0.725688085443052
40
0.76909844071799
40
0.76909844071799
40
0.790803618355458
40
0.790803618355458
40
0.812508795992926
40
0.812508795992926
40
0.834213973630394
40
0.834213973630394
40
0.855919151267861
40
0.855919151267861
40
0.899329506542797
40
0.899329506542797
40
0.942739861817733
40
0.942739861817733
40
0.9644450394552
40
0.9644450394552
40
0.986150217092668
40
0.986150217092668
40
1
40
1
40
1
40
1
41
1
10
17.6845280037925
20
1.68400620885677
30
0
41
1
10
17.8072396782879
20
1.68503204713878
30
0
41
1
10
17.9297466946249
20
1.68187661998883
30
0
41
1
10
18.1379084701318
20
1.66761820177976
30
0
41
1
10
18.2233704930421
20
1.65902412102062
30
0
41
1
10
18.3958177899047
20
1.63759626921353
30
0
41
1
10
18.4824601036481
20
1.62468614286183
30
0
41
1
10
18.6559896318823
20
1.59449541236995
30
0
41
1
10
18.7428354563187
20
1.57724802187826
30
0
41
1
10
18.9154214804316
20
1.53907533741787
30
0
41
1
10
19.0013146934267
20
1.51807812499752
30
0
41
1
10
19.2583822890927
20
1.44796332157867
30
0
41
1
10
19.4303343813061
20
1.39316667226939
30
0
41
1
10
19.6872149283784
20
1.30034523365518
30
0
41
1
10
19.7727564840239
20
1.26763517728736
30
0
41
1
10
19.9437286369563
20
1.19891759376574
30
0
41
1
10
20.0289654297582
20
1.16271518316415
30
0
41
1
10
20.2008146726453
20
1.08792315077156
30
0
41
1
10
20.2872391728458
20
1.04901311522408
30
0
41
1
10
20.4603411963282
20
0.96761031948779
30
0
41
1
10
20.5472637769706
20
0.925180373047084
30
0
41
1
10
20.7206964834187
20
0.83788391155565
30
0
41
1
10
20.8071627234835
20
0.792989309459642
30
0
41
1
10
20.9798171308093
20
0.701217997682363
30
0
41
1
10
21.0662709764032
20
0.654836634402812
30
0
41
1
10
21.3264524729365
20
0.51311738657148
30
0
41
1
10
21.5006706878554
20
0.414229016822134
30
0
41
1
10
21.7597684373859
20
0.263418287837396
30
0
41
1
10
21.845607244118
20
0.212418416329939
30
0
41
1
10
22.0178945904612
20
0.111842453472178
30
0
41
1
10
22.1040552733469
20
0.0617488426996715
30
0
41
1
10
22.3616718570955
20
-0.089462718060048
30
0
41
1
10
22.5326788120161
20
-0.190721118623912
30
0
41
1
10
22.8747719458016
20
-0.391590790862438
30
0
41
1
10
23.0475944396935
20
-0.488077475345136
30
0
41
1
10
23.3072109318974
20
-0.631108087416266
30
0
41
1
10
23.3941096647515
20
-0.678390458506982
30
0
41
1
10
23.5672614913214
20
-0.771480024645882
30
0
41
1
10
23.6532498958863
20
-0.817657941638629
30
0
41
1
10
23.9118484137264
20
-0.949564027697562
30
0
41
1
10
24.0838915524865
20
-1.03041033192011
30
0
41
1
10
24.4264259223363
20
-1.18221872428964
30
0
41
1
10
24.5969084548944
20
-1.25338321635422
30
0
41
1
10
24.8547842768622
20
-1.34881910920223
30
0
41
1
10
24.9408913537338
20
-1.3786619946024
30
0
41
1
10
25.1132945684824
20
-1.43511610772546
30
0
41
1
10
25.1995513358102
20
-1.46192340595044
30
0
41
1
10
25.3725876041593
20
-1.51141944785761
30
0
41
1
10
25.4591069845484
20
-1.53392564590229
30
0
41
1
10
25.6319359164149
20
-1.57360495245967
30
0
41
1
10
25.7184320887641
20
-1.59094675573388
30
0
41
1
10
25.8906755650488
20
-1.62153379476521
30
0
41
1
10
25.9765518693907
20
-1.63474634460749
30
0
41
1
10
26.1478881541066
20
-1.65774007209137
30
0
41
1
10
26.2333222733419
20
-1.66740452372147
30
0
41
1
10
26.4895397319266
20
-1.68866707643878
30
0
41
1
10
26.6614033982034
20
-1.69364814020975
30
0
41
1
10
26.9194337115162
20
-1.68725224613254
30
0
41
1
10
27.005591497807
20
-1.68257122101633
30
0
41
1
10
27.1783126057952
20
-1.66844589846625
30
0
41
1
10
27.2649527885559
20
-1.65891058192426
30
0
41
1
10
27.4382690774658
20
-1.635905285799
30
0
41
1
10
27.5250359908334
20
-1.62255268303087
30
0
41
1
10
27.6976611888333
20
-1.59141595732262
30
0
41
1
10
27.7836662561673
20
-1.5738300897506
30
0
41
1
10
28.0409932251452
20
-1.51495253637969
30
0
41
1
10
28.2115117985669
20
-1.46542028139993
30
0
41
1
10
28.5553513226588
20
-1.35365642150586
30
0
41
1
10
28.7271830926675
20
-1.2905986317794
30
0
41
1
10
28.9856010442399
20
-1.18475036049568
30
0
41
1
10
29.0718136549473
20
-1.14728614662201
30
0
41
1
10
29.2455095014241
20
-1.06949849963945
30
0
41
1
10
29.332672947784
20
-1.02972985839315
30
0
41
1
10
29.4749058087577
20
-0.961943056759964
30
0
41
1
10
29.5302333890076
20
-0.934980391593456
30
0
41
1
10
29.5855096993551
20
-0.907481849255873
30
0
0
SPLINE
5
CB
100
AcDbEntity
8
1
62
256
6
ByLayer
370
18
48
1
60
0
100
AcDbSpline
70
4
71
3
72
40
73
36
40
0
40
0
40
0
40
0
40
0.0825696592572741
40
0.0825696592572741
40
0.128441176294405
40
0.128441176294405
40
0.174312693331537
40
0.174312693331537
40
0.266055727405799
40
0.266055727405799
40
0.311927244442933
40
0.311927244442933
40
0.357798761480067
40
0.357798761480067
40
0.4036702785172
40
0.4036702785172
40
0.449541795554334
40
0.449541795554334
40
0.495413312591468
40
0.495413312591468
40
0.541284829628601
40
0.541284829628601
40
0.633027863702874
40
0.633027863702874
40
0.724770897777148
40
0.724770897777148
40
0.770642414814287
40
0.770642414814287
40
0.816513931851427
40
0.816513931851427
40
0.908256965925711
40
0.908256965925711
40
0.954128482962856
40
0.954128482962856
40
1
40
1
40
1
40
1
41
1
10
35.6745882630374
20
1.69568920765826
30
0
41
1
10
35.8306951705442
20
1.69687901992503
30
0
41
1
10
35.9875481693755
20
1.69068535119968
30
0
41
1
10
36.229915934732
20
1.66895424349846
30
0
41
1
10
36.3162189098703
20
1.65877940616454
30
0
41
1
10
36.4892971839245
20
1.63375187613974
30
0
41
1
10
36.5764147305148
20
1.61907945559827
30
0
41
1
10
36.8373157982891
20
1.56823172892047
30
0
41
1
10
37.0111683295061
20
1.52573930142651
30
0
41
1
10
37.2704441664894
20
1.45017169288516
30
0
41
1
10
37.3569371863816
20
1.42302381129036
30
0
41
1
10
37.530700504813
20
1.36483081967
30
0
41
1
10
37.6176574256529
20
1.33360027919699
30
0
41
1
10
37.7916745117062
20
1.26724402115514
30
0
41
1
10
37.8785983625176
20
1.23220670851086
30
0
41
1
10
38.0519202352068
20
1.15888609517864
30
0
41
1
10
38.1382721035731
20
1.12042430987725
30
0
41
1
10
38.3114922440904
20
1.04119057157169
30
0
41
1
10
38.3985752459096
20
1.00073744763435
30
0
41
1
10
38.5724208415218
20
0.916336864543808
30
0
41
1
10
38.6594717237183
20
0.872543497914705
30
0
41
1
10
38.9200640597555
20
0.737456604073628
30
0
41
1
10
39.0925816217401
20
0.641993233005309
30
0
41
1
10
39.4402815139995
20
0.448557897799588
30
0
41
1
10
39.6146429748522
20
0.348076564677172
30
0
41
1
10
39.8737478218349
20
0.195051069064022
30
0
41
1
10
39.9596162255425
20
0.143473976414697
30
0
41
1
10
40.1316752493187
20
0.0414677113712685
30
0
41
1
10
40.2179568204489
20
-0.0088097770858724
30
0
41
1
10
40.4758527596766
20
-0.160514095221202
30
0
41
1
10
40.6470451712144
20
-0.261939669894559
30
0
41
1
10
40.9038146983194
20
-0.4125407431425
30
0
41
1
10
40.9896615770924
20
-0.462021045861604
30
0
41
1
10
41.1623167311745
20
-0.558774046143725
30
0
41
1
10
41.2488378565729
20
-0.606539116955901
30
0
41
1
10
41.3355343289899
20
-0.653738692423985
30
0
0
SPLINE
5
CC
100
AcDbEntity
8
1
62
256
6
ByLayer
370
18
48
1
60
0
100
AcDbSpline
70
4
71
3
72
8
73
4
40
0
40
0
40
0
40
0
40
1
40
1
40
1
40
1
41
1
10
42.3399634033035
20
-1.68914088337539
30
0
41
1
10
42.3457629523254
20
-1.69534013020439
30
0
41
1
10
42.3524036387946
20
-1.69909111116806
30
0
41
1
10
42.3599181737811
20
-1.70043325573576
30
0
0
SPLINE
5
CD
100
AcDbEntity
8
1
62
256
6
ByLayer
370
18
48
1
60
0
100
AcDbSpline
70
4
71
3
72
8
73
4
40
0
40
0
40
0
40
0
40
1
40
1
40
1
40
1
41
1
10
42.4294684338601
20
-1.73210911363756
30
0
41
1
10
42.4047140337586
20
-1.75864394010813
30
0
41
1
10
42.3829795931401
20
-1.77754723405676
30
0
41
1
10
42.3640834478306
20
-1.78859003192363
30
0
0
SPLINE
5
CE
100
AcDbEntity
8
1
62
256
6
ByLayer
370
18
48
1
60
0
100
AcDbSpline
70
4
71
3
72
14
73
10
40
0
40
0
40
0
40
0
40
0.25
40
0.25
40
0.5
40
0.5
40
0.75
40
0.75
40
1
40
1
40
1
40
1
41
1
10
42.3810779031223
20
-1.69863351330073
30
0
41
1
10
42.3834936103657
20
-1.6979007059231
30
0
41
1
10
42.3853050959171
20
-1.69873926469862
30
0
41
1
10
42.3872957894582
20
-1.7046069491885
30
0
41
1
10
42.3874363520748
20
-1.70970786241003
30
0
41
1
10
42.3850390073302
20
-1.72546277646441
30
0
41
1
10
42.3824348497006
20
-1.73615412285824
30
0
41
1
10
42.3747518590561
20
-1.76078871523705
30
0
41
1
10
42.3697465554335
20
-1.77451909080631
30
0
41
1
10
42.364477932365
20
-1.78760990463132
30
0
0
SPLINE
5
CF
100
AcDbEntity
8
1
62
256
6
ByLayer
370
18
48
1
60
0
100
AcDbSpline
70
4
71
3
72
28
73
24
40
0
40
0
40
0
40
0
40
0.125000000000017
40
0.125000000000017
40
0.250000000000034
40
0.250000000000034
40
0.312500000000034
40
0.312500000000034
40
0.375000000000034
40
0.375000000000034
40
0.500000000000035
40
0.500000000000035
40
0.562500000000028
40
0.562500000000028
40
0.625000000000022
40
0.625000000000022
40
0.687500000000016
40
0.687500000000016
40
0.750000000000009
40
0.750000000000009
40
0.875000000000005
40
0.875000000000005
40
1
40
1
40
1
40
1
41
1
10
42.7681875168147
20
-0.512604801039004
30
0
41
1
10
42.7575769727891
20
-0.492810281416894
30
0
41
1
10
42.7411141024522
20
-0.484614568151642
30
0
41
1
10
42.7032016924989
20
-0.48717262263088
30
0
41
1
10
42.681384559898
20
-0.497782319689321
30
0
41
1
10
42.6473146236755
20
-0.525356741779376
30
0
41
1
10
42.6355111282317
20
-0.536700588407911
30
0
41
1
10
42.6120232615189
20
-0.562973143531508
30
0
41
1
10
42.6003487729424
20
-0.577833984475262
30
0
41
1
10
42.5655592096912
20
-0.628225146122588
30
0
41
1
10
42.5424386562252
20
-0.670387218342256
30
0
41
1
10
42.5153075730187
20
-0.738777362539849
30
0
41
1
10
42.5074423032079
20
-0.762699571611279
30
0
41
1
10
42.4958075010199
20
-0.808692598214378
30
0
41
1
10
42.4919122029837
20
-0.831303819281516
30
0
41
1
10
42.488664334186
20
-0.871636567829171
30
0
41
1
10
42.4892569434033
20
-0.88974549316066
30
0
41
1
10
42.4942286901811
20
-0.91966310688278
30
0
41
1
10
42.498624447407
20
-0.931800830658005
30
0
41
1
10
42.5158327174655
20
-0.959126192014878
30
0
41
1
10
42.5328047978549
20
-0.965864873436743
30
0
41
1
10
42.5717227721601
20
-0.960435625859105
30
0
41
1
10
42.5939079955904
20
-0.948325203485808
30
0
41
1
10
42.6168434016425
20
-0.928419340041756
30
0
0
SPLINE
5
D0
100
AcDbEntity
8
1
62
256
6
ByLayer
370
18
48
1
60
0
100
AcDbSpline
70
4
71
3
72
8
73
4
40
0
40
0
40
0
40
0
40
1
40
1
40
1
40
1
41
1
10
42.9096233435431
20
-0.562720479337941
30
0
41
1
10
42.9357836740918
20
-0.415885554049567
30
0
41
1
10
42.9588647858118
20
-0.269060504031586
30
0
41
1
10
42.9788421159374
20
-0.122245408058575
30
0
0
SPLINE
5
D1
100
AcDbEntity
8
1
62
256
6
ByLayer
370
18
48
1
60
0
100
AcDbSpline
70
4
71
3
72
10
73
6
40
0
40
0
40
0
40
0
40
0.5
40
0.5
40
1
40
1
40
1
40
1
41
1
10
42.4294684338651
20
-1.73210911362341
30
0
41
1
10
42.5113664656184
20
-1.53872290419116
30
0
41
1
10
42.5927995936891
20
-1.34477271470732
30
0
41
1
10
42.7533061413536
20
-0.955156975511017
30
0
41
1
10
42.8324662684782
20
-0.759545764768603
30
0
41
1
10
42.9096233435433
20
-0.562720479337429
30
0
0
SPLINE
5
D2
100
AcDbEntity
8
1
62
256
6
ByLayer
370
18
48
1
60
0
100
AcDbSpline
70
4
71
3
72
10
73
6
40
0
40
0
40
0
40
0
40
0.5
40
0.5
40
1
40
1
40
1
40
1
41
1
10
42.4294684338494
20
1.73210911366047
30
0
41
1
10
42.5107717387332
20
1.54012723559615
30
0
41
1
10
42.591943678186
20
1.34682654092649
30
0
41
1
10
42.752604179896
20
0.956884530577014
30
0
41
1
10
42.8322980999375
20
0.759974757456689
30
0
41
1
10
42.9096233435426
20
0.562720479338992
30
0
0
SPLINE
5
D3
100
AcDbEntity
8
1
62
256
6
ByLayer
370
18
48
1
60
0
100
AcDbSpline
70
4
71
3
72
24
73
20
40
0
40
0
40
0
40
0
40
0.124404409929688
40
0.124404409929688
40
0.243000305982199
40
0.243000305982199
40
0.361596202034711
40
0.361596202034711
40
0.480192098087223
40
0.480192098087223
40
0.539490046113477
40
0.539490046113477
40
0.598787994139731
40
0.598787994139731
40
0.835979786244751
40
0.835979786244751
40
0.954575682297261
40
0.954575682297261
40
1
40
1
40
1
40
1
41
1
10
17.2632078296535
20
1.2737762326079
30
0
41
1
10
17.4492699841698
20
1.19285230341305
30
0
41
1
10
17.6355804315047
20
1.10371453232924
30
0
41
1
10
18.0017845333059
20
0.915427816332198
30
0
41
1
10
18.1820215589673
20
0.816924234289189
30
0
41
1
10
18.5386985175041
20
0.6137259421576
30
0
41
1
10
18.7160541829576
20
0.508450831182529
30
0
41
1
10
19.0704351681376
20
0.293107397050676
30
0
41
1
10
19.2476492970361
20
0.18334105689155
30
0
41
1
10
19.514609907121
20
0.0173546711380084
30
0
41
1
10
19.6037743080679
20
-0.0382179530226097
30
0
41
1
10
19.7826687800164
20
-0.149523416597987
30
0
41
1
10
19.8726462403138
20
-0.205416736284377
30
0
41
1
10
20.3206542336691
20
-0.481979080726092
30
0
41
1
10
20.6740838865766
20
-0.693247718184637
30
0
41
1
10
21.2059047927391
20
-0.981821213530736
30
0
41
1
10
21.3838110629376
20
-1.07275983432663
30
0
41
1
10
21.631439193744
20
-1.19023110304434
30
0
41
1
10
21.7003182540742
20
-1.22192888939733
30
0
41
1
10
21.7690522482976
20
-1.25250213271173
30
0
0
SPLINE
5
D4
100
AcDbEntity
8
1
62
256
6
ByLayer
370
13
48
1
60
0
100
AcDbSpline
70
4
71
3
72
20
73
16
40
0
40
0
40
0
40
0
40
0.0200312171298022
40
0.0200312171298022
40
0.105647601851024
40
0.105647601851024
40
0.448113140735906
40
0.448113140735906
40
0.533729525457128
40
0.533729525457128
40
0.61934591017835
40
0.61934591017835
40
0.790578679620793
40
0.790578679620793
40
1
40
1
40
1
40
1
41
1
10
21.7690522482442
20
-1.25250213268799
30
0
41
1
10
21.7900451893725
20
-1.26183990367397
30
0
41
1
10
21.8110245982709
20
-1.2710727736926
30
0
41
1
10
21.9215348428374
20
-1.31917154057277
30
0
41
1
10
22.0107528005865
20
-1.35615639470205
30
0
41
1
10
22.4557158180454
20
-1.53063007459045
30
0
41
1
10
22.8084773613473
20
-1.63636459094573
30
0
41
1
10
23.2536331865347
20
-1.72041401359453
30
0
41
1
10
23.342870027426
20
-1.73482111080622
30
0
41
1
10
23.5219895239796
20
-1.75861756699459
30
0
41
1
10
23.6119675910554
20
-1.76797904950038
30
0
41
1
10
23.8802673126953
20
-1.78799431248194
30
0
41
1
10
24.0579563536768
20
-1.79076088960224
30
0
41
1
10
24.4520983569761
20
-1.77440018533602
30
0
41
1
10
24.6683674030224
20
-1.75018042666324
30
0
41
1
10
24.8856939694744
20
-1.71096060830064
30
0
0
SPLINE
5
D5
100
AcDbEntity
8
1
62
256
6
ByLayer
370
18
48
1
60
0
100
AcDbSpline
70
4
71
3
72
24
73
20
40
0
40
0
40
0
40
0
40
0.200688317678494
40
0.200688317678494
40
0.31549891138138
40
0.31549891138138
40
0.372904208232822
40
0.372904208232822
40
0.430309505084265
40
0.430309505084265
40
0.659930692490048
40
0.659930692490048
40
0.717335989341492
40
0.717335989341492
40
0.774741286192936
40
0.774741286192936
40
0.889551879895825
40
0.889551879895825
40
1
40
1
40
1
40
1
41
1
10
35.0461785593512
20
1.37296966966704
30
0
41
1
10
35.3584748415766
20
1.24725335670462
30
0
41
1
10
35.6670097358013
20
1.0984978817032
30
0
41
1
10
36.153515031276
20
0.838142356537787
30
0
41
1
10
36.3309212026645
20
0.737994012838584
30
0
41
1
10
36.5987293576381
20
0.58112413137107
30
0
41
1
10
36.6885179692979
20
0.527578602607576
30
0
41
1
10
36.8675898245048
20
0.419301400341254
30
0
41
1
10
36.9567548823169
20
0.364633159543246
30
0
41
1
10
37.4013377981839
20
0.0896358271882605
30
0
41
1
10
37.753646120335
20
-0.134656137679912
30
0
41
1
10
38.1976533173527
20
-0.407718943006614
30
0
41
1
10
38.2866445213408
20
-0.461952181585673
30
0
41
1
10
38.4652347125169
20
-0.569288702966674
30
0
41
1
10
38.555090783055
20
-0.622541245551702
30
0
41
1
10
38.8233717035405
20
-0.778549887325994
30
0
41
1
10
39.0008326656566
20
-0.877660923129099
30
0
41
1
10
39.3477396958881
20
-1.06076571188837
30
0
41
1
10
39.5172055537138
20
-1.14521045888836
30
0
41
1
10
39.6868537228114
20
-1.22331968977608
30
0
0
SPLINE
5
D6
100
AcDbEntity
8
1
62
256
6
ByLayer
370
13
48
1
60
0
100
AcDbSpline
70
4
71
3
72
16
73
12
40
0
40
0
40
0
40
0
40
0.206033689034546
40
0.206033689034546
40
0.305279477905226
40
0.305279477905226
40
0.404525266775906
40
0.404525266775906
40
0.603016844517274
40
0.603016844517274
40
1
40
1
40
1
40
1
41
1
10
39.6868537226285
20
-1.22331968969183
30
0
41
1
10
39.8699033993556
20
-1.30759922857692
30
0
41
1
10
40.0531653287217
20
-1.38450275607857
30
0
41
1
10
40.3265275690129
20
-1.48565844134814
30
0
41
1
10
40.4156726504445
20
-1.51655550114091
30
0
41
1
10
40.5947254991562
20
-1.57409135995388
30
0
41
1
10
40.6844394313889
20
-1.60065696113551
30
0
41
1
10
40.9517836196717
20
-1.6727469658249
30
0
41
1
10
41.1286892921439
20
-1.71094361780388
30
0
41
1
10
41.6581277892268
20
-1.79579044758512
30
0
41
1
10
42.0092217257301
20
-1.81271874391655
30
0
41
1
10
42.3644779323289
20
-1.78760990463388
30
0
0
SPLINE
5
D7
100
AcDbEntity
8
1
62
256
6
ByLayer
370
18
48
1
60
0
100
AcDbSpline
70
4
71
3
72
8
73
4
40
0
40
0
40
0
40
0
40
1
40
1
40
1
40
1
41
1
10
42.6168434016428
20
-0.928419340041273
30
0
41
1
10
42.5245500688632
20
-1.18199318781939
30
0
41
1
10
42.4322567360836
20
-1.43556703559761
30
0
41
1
10
42.3399634033038
20
-1.68914088337604
30
0
0
SPLINE
5
D8
100
AcDbEntity
8
1
62
256
6
ByLayer
370
18
48
1
60
0
100
AcDbSpline
70
4
71
3
72
10
73
6
40
0
40
0
40
0
40
0
40
0.493077202187645
40
0.493077202187645
40
1
40
1
40
1
40
1
41
1
10
8.05027089563134
20
-1.77851271811915
30
0
41
1
10
8.05023878743299
20
-1.77847203072244
30
0
41
1
10
8.05020938322238
20
-1.77512789785018
30
0
41
1
10
8.0501563687958
20
-1.76158030706964
30
0
41
1
10
8.05013284018673
20
-1.75110029021403
30
0
41
1
10
8.05011360949464
20
-1.73714790199639
30
0
0
SPLINE
5
D9
100
AcDbEntity
8
1
62
256
6
ByLayer
370
18
48
1
60
0
100
AcDbSpline
70
4
71
3
72
40
73
36
40
0
40
0
40
0
40
0
40
0.114436159159233
40
0.114436159159233
40
0.143045198949044
40
0.143045198949044
40
0.171654238738855
40
0.171654238738855
40
0.228872318318476
40
0.228872318318476
40
0.343308477477719
40
0.343308477477719
40
0.37191751726753
40
0.37191751726753
40
0.400526557057342
40
0.400526557057342
40
0.457744636636965
40
0.457744636636965
40
0.514962716216588
40
0.514962716216588
40
0.543571756006399
40
0.543571756006399
40
0.572180795796211
40
0.572180795796211
40
0.686616954955457
40
0.686616954955457
40
0.743835034535082
40
0.743835034535082
40
0.801053114114706
40
0.801053114114706
40
0.915489273273952
40
0.915489273273952
40
0.972707352853574
40
0.972707352853574
40
1
40
1
40
1
40
1
41
1
10
42.3640834478306
20
-1.78859003192363
30
0
41
1
10
42.0085674932723
20
-1.81356200574138
30
0
41
1
10
41.6561595632812
20
-1.79661151629611
30
0
41
1
10
41.2119859078095
20
-1.72502254140784
30
0
41
1
10
41.1229694641765
20
-1.70817104052011
30
0
41
1
10
40.9443633904357
20
-1.66941019113091
30
0
41
1
10
40.8545287776413
20
-1.64742569404532
30
0
41
1
10
40.5860792508254
20
-1.57458350323122
30
0
41
1
10
40.4083947493446
20
-1.51692798782182
30
0
41
1
10
39.8767316980184
20
-1.31949035190888
30
0
41
1
10
39.5243412249094
20
-1.15497314301805
30
0
41
1
10
39.0771339514505
20
-0.918243925238812
30
0
41
1
10
38.9872019726837
20
-0.869248046870098
30
0
41
1
10
38.8083928278101
20
-0.769426046650977
30
0
41
1
10
38.7193147601404
20
-0.718478887964807
30
0
41
1
10
38.4527231273374
20
-0.563063679280191
30
0
41
1
10
38.2758125809674
20
-0.456082681945162
30
0
41
1
10
37.9218762554973
20
-0.238165508091868
30
0
41
1
10
37.7448442221464
20
-0.127239629885878
30
0
41
1
10
37.4779126867393
20
0.0400545379811206
30
0
41
1
10
37.3887042913729
20
0.0959687339569371
30
0
41
1
10
37.2096928054868
20
0.207898853037847
30
0
41
1
10
37.1198815590503
20
0.263914495864526
30
0
41
1
10
36.6735415227767
20
0.539864031122022
30
0
41
1
10
36.3207692533664
20
0.74939815582357
30
0
41
1
10
35.7888400548412
20
1.03355514801302
30
0
41
1
10
35.6110144459692
20
1.12315502246648
30
0
41
1
10
35.25253181532
20
1.28944616349702
30
0
41
1
10
35.0736707836607
20
1.36521926142441
30
0
41
1
10
34.5407216613365
20
1.56615042640217
30
0
41
1
10
34.1884864848519
20
1.66623792831186
30
0
41
1
10
33.6536947775674
20
1.75707037159077
30
0
41
1
10
33.4736000243136
20
1.77750955014781
30
0
41
1
10
33.2102202736734
20
1.79194049414778
30
0
41
1
10
33.1253840277418
20
1.79421395639139
30
0
41
1
10
33.040682078616
20
1.79413368615496
30
0
0
SPLINE
5
DA
100
AcDbEntity
8
1
62
256
6
ByLayer
370
18
48
1
60
0
100
AcDbSpline
70
4
71
3
72
44
73
40
40
0
40
0
40
0
40
0
40
0.0134655281558991
40
0.0134655281558991
40
0.0406128823277245
40
0.0406128823277245
40
0.0677602364995495
40
0.0677602364995495
40
0.176349653186853
40
0.176349653186853
40
0.230644361530504
40
0.230644361530504
40
0.25779171570233
40
0.25779171570233
40
0.284939069874155
40
0.284939069874155
40
0.393528486561458
40
0.393528486561458
40
0.420675840733284
40
0.420675840733284
40
0.44782319490511
40
0.44782319490511
40
0.502117903248764
40
0.502117903248764
40
0.610707319936072
40
0.610707319936072
40
0.665002028279726
40
0.665002028279726
40
0.719296736623381
40
0.719296736623381
40
0.773591444967035
40
0.773591444967035
40
0.82788615331069
40
0.82788615331069
40
0.936475569997998
40
0.936475569997998
40
0.990770278341653
40
0.990770278341653
40
1
40
1
40
1
40
1
41
1
10
24.8884274078337
20
-1.71146105761088
30
0
41
1
10
24.8443783087998
20
-1.71945043027992
30
0
41
1
10
24.8002916152199
20
-1.72683909752877
30
0
41
1
10
24.6671696097035
20
-1.74728366639639
30
0
41
1
10
24.5779813876391
20
-1.7584708366264
30
0
41
1
10
24.3989613431275
20
-1.77572305863984
30
0
41
1
10
24.3089376775879
20
-1.78178470457456
30
0
41
1
10
23.8612837710033
20
-1.79880562962612
30
0
41
1
10
23.5081381670934
20
-1.77046275772489
30
0
41
1
10
22.9758239978137
20
-1.6687054358751
30
0
41
1
10
22.7979283861425
20
-1.62491089863229
30
0
41
1
10
22.5291019200357
20
-1.54480958132677
30
0
41
1
10
22.4390782712757
20
-1.51566416316004
30
0
41
1
10
22.2601542911599
20
-1.45334861671549
30
0
41
1
10
22.1710183050464
20
-1.42010526160942
30
0
41
1
10
21.7262656358679
20
-1.24429912729832
30
0
41
1
10
21.373012910744
20
-1.07361630253161
30
0
41
1
10
20.9276500564054
20
-0.831219961786616
30
0
41
1
10
20.8383380455279
20
-0.78134735194169
30
0
41
1
10
20.6589793158379
20
-0.679141971207542
30
0
41
1
10
20.5690162538215
20
-0.626837920047024
30
0
41
1
10
20.300686849705
20
-0.468441637367988
30
0
41
1
10
20.1229531256918
20
-0.360229008837905
30
0
41
1
10
19.5909813034756
20
-0.0313778270836451
30
0
41
1
10
19.2371740690461
20
0.192169935202543
30
0
41
1
10
18.698624467091
20
0.519183625902002
30
0
41
1
10
18.5196157722357
20
0.625238132979632
30
0
41
1
10
18.1637915272339
20
0.827458159325346
30
0
41
1
10
17.9865964314805
20
0.924022007487508
30
0
41
1
10
17.6320343251166
20
1.10581320285627
30
0
41
1
10
17.454495682588
20
1.19081246093967
30
0
41
1
10
17.0973778269407
20
1.3469247557851
30
0
41
1
10
16.9169491446609
20
1.41825901824748
30
0
41
1
10
16.3808440542708
20
1.60421428977395
30
0
41
1
10
16.0280058893731
20
1.6922990635899
30
0
41
1
10
15.4943607812435
20
1.76434150332778
30
0
41
1
10
15.3156948632795
20
1.77841531365928
30
0
41
1
10
15.1053932980911
20
1.78258787590403
30
0
41
1
10
15.0748767111248
20
1.7828879457403
30
0
41
1
10
15.0443950170672
20
1.78288446596562
30
0
0
SPLINE
5
DB
100
AcDbEntity
8
1
62
256
6
ByLayer
370
18
48
1
60
0
100
AcDbSpline
70
4
71
3
72
10
73
6
40
0
40
0
40
0
40
0
40
0.5
40
0.5
40
1
40
1
40
1
40
1
41
1
10
8.10927890471001
20
1.33759790937185
30
0
41
1
10
8.09265566899731
20
1.34639124652685
30
0
41
1
10
8.0783968730407
20
1.35687461683747
30
0
41
1
10
8.05756087571706
20
1.38036640535415
30
0
41
1
10
8.05095915308763
20
1.39340386835141
30
0
41
1
10
8.05094996902483
20
1.40651472575357
30
0
0
SPLINE
5
DC
100
AcDbEntity
8
1
62
256
6
ByLayer
370
18
48
1
60
0
100
AcDbSpline
70
4
71
3
72
82
73
78
40
0
40
0
40
0
40
0
40
0.0110927969312821
40
0.0110927969312821
40
0.0327584588762701
40
0.0327584588762701
40
0.0544241208212581
40
0.0544241208212581
40
0.0760897827662461
40
0.0760897827662461
40
0.0977554447112341
40
0.0977554447112341
40
0.119421106656222
40
0.119421106656222
40
0.162752430546198
40
0.162752430546198
40
0.184418092491186
40
0.184418092491186
40
0.206083754436174
40
0.206083754436174
40
0.24941507832615
40
0.24941507832615
40
0.292746402216126
40
0.292746402216126
40
0.314412064161116
40
0.314412064161116
40
0.336077726106105
40
0.336077726106105
40
0.357743388051094
40
0.357743388051094
40
0.379409049996083
40
0.379409049996083
40
0.422740373886062
40
0.422740373886062
40
0.466071697776041
40
0.466071697776041
40
0.48773735972103
40
0.48773735972103
40
0.509403021666019
40
0.509403021666019
40
0.531068683611009
40
0.531068683611009
40
0.552734345555998
40
0.552734345555998
40
0.574400007500987
40
0.574400007500987
40
0.596065669445976
40
0.596065669445976
40
0.617731331390966
40
0.617731331390966
40
0.639396993335955
40
0.639396993335955
40
0.661062655280944
40
0.661062655280944
40
0.682728317225934
40
0.682728317225934
40
0.726059641115912
40
0.726059641115912
40
0.769390965005891
40
0.769390965005891
40
0.79105662695088
40
0.79105662695088
40
0.812722288895869
40
0.812722288895869
40
0.856053612785848
40
0.856053612785848
40
0.877719274730836
40
0.877719274730836
40
0.899384936675824
40
0.899384936675824
40
0.942716260565797
40
0.942716260565797
40
0.964381922510784
40
0.964381922510784
40
0.98604758445577
40
0.98604758445577
40
1
40
1
40
1
40
1
41
1
10
38.630551822823
20
-0.886731536040486
30
0
41
1
10
38.5866415821089
20
-0.908877467241723
30
0
41
1
10
38.5427010662394
20
-0.930676434779485
30
0
41
1
10
38.4128118598503
20
-0.99396537853346
30
0
41
1
10
38.3266131021663
20
-1.03425596674495
30
0
41
1
10
38.1545163514003
20
-1.11300787254083
30
0
41
1
10
38.0686940984288
20
-1.15154010939324
30
0
41
1
10
37.8960243026741
20
-1.22503999892788
30
0
41
1
10
37.8091856321001
20
-1.26028466492349
30
0
41
1
10
37.6354529843044
20
-1.327044374862
30
0
41
1
10
37.5486326806019
20
-1.35850770438884
30
0
41
1
10
37.3751003058497
20
-1.41719882418414
30
0
41
1
10
37.2886255029633
20
-1.44455431121222
30
0
41
1
10
37.0296895234222
20
-1.52088619615645
30
0
41
1
10
36.8558794825873
20
-1.56393435500903
30
0
41
1
10
36.5958245508978
20
-1.61558301781793
30
0
41
1
10
36.5091807743756
20
-1.63052663354378
30
0
41
1
10
36.3370578237986
20
-1.65604098639579
30
0
41
1
10
36.2515769615729
20
-1.66654558931043
30
0
41
1
10
35.994714578212
20
-1.69081268817257
30
0
41
1
10
35.823464152567
20
-1.69758251943224
30
0
41
1
10
35.4797322373388
20
-1.6933408493789
30
0
41
1
10
35.3085429842235
20
-1.68234128627566
30
0
41
1
10
35.049358178156
20
-1.65248470203937
30
0
41
1
10
34.9623891853975
20
-1.64025171911109
30
0
41
1
10
34.7888531943888
20
-1.61099931049708
30
0
41
1
10
34.7022755744428
20
-1.5939681031044
30
0
41
1
10
34.5301090366191
20
-1.55541935674705
30
0
41
1
10
34.4445936948957
20
-1.53405087196003
30
0
41
1
10
34.2732664489249
20
-1.48792146812821
30
0
41
1
10
34.1876201071705
20
-1.46303707693926
30
0
41
1
10
33.9305757053991
20
-1.38287504193781
30
0
41
1
10
33.7587574032246
20
-1.32252774764626
30
0
41
1
10
33.4163812094791
20
-1.183296611625
30
0
41
1
10
33.2442971364559
20
-1.10746234360872
30
0
41
1
10
32.9837266680322
20
-0.985979814193115
30
0
41
1
10
32.8966752453334
20
-0.944395224676981
30
0
41
1
10
32.7238844004263
20
-0.858436831666495
30
0
41
1
10
32.6382136389421
20
-0.813699243117014
30
0
41
1
10
32.467041363797
20
-0.72196295135771
30
0
41
1
10
32.3815259390028
20
-0.675248372525346
30
0
41
1
10
32.2102665586359
20
-0.581209972287667
30
0
41
1
10
32.1245666610125
20
-0.533717057972638
30
0
41
1
10
31.9530466117584
20
-0.437653354988924
30
0
41
1
10
31.8673645037003
20
-0.388869722731329
30
0
41
1
10
31.6964401353885
20
-0.289151664069692
30
0
41
1
10
31.6108721258315
20
-0.238757189993009
30
0
41
1
10
31.4391503001122
20
-0.137418756818192
30
0
41
1
10
31.3530149529211
20
-0.0864752644843065
30
0
41
1
10
31.1799891809591
20
0.0153537653407909
30
0
41
1
10
31.0928175119985
20
0.0663195580366676
30
0
41
1
10
30.9194691514458
20
0.168071549651415
30
0
41
1
10
30.8335869044413
20
0.219519977908618
30
0
41
1
10
30.6616115058681
20
0.320484256500748
30
0
41
1
10
30.5757066294253
20
0.370318073371777
30
0
41
1
10
30.3181107813886
20
0.517577640796617
30
0
41
1
10
30.1461245216896
20
0.612186760771579
30
0
41
1
10
29.8042948968938
20
0.797300078225703
30
0
41
1
10
29.6328552326338
20
0.885653180328944
30
0
41
1
10
29.3735963746127
20
1.01057279798087
30
0
41
1
10
29.2867814223192
20
1.05087160265279
30
0
41
1
10
29.1128046511533
20
1.12902829947151
30
0
41
1
10
29.026576658141
20
1.167219967015
30
0
41
1
10
28.767409073209
20
1.27518894626303
30
0
41
1
10
28.5944833528682
20
1.33976212558179
30
0
41
1
10
28.3339064149502
20
1.42605258866644
30
0
41
1
10
28.2468239457001
20
1.45317039908809
30
0
41
1
10
28.0739958992402
20
1.50348304315068
30
0
41
1
10
27.9879086741489
20
1.52636178770905
30
0
41
1
10
27.7301482611756
20
1.58719993599027
30
0
41
1
10
27.5584877236826
20
1.61892209303485
30
0
41
1
10
27.3012244370768
20
1.65446739905838
30
0
41
1
10
27.2160336877636
20
1.66450981921616
30
0
41
1
10
27.0450446958893
20
1.67988196322693
30
0
41
1
10
26.9594083133135
20
1.68529118362085
30
0
41
1
10
26.8182748360103
20
1.69008179173687
30
0
41
1
10
26.7628929735231
20
1.69089000503757
30
0
41
1
10
26.7073927148095
20
1.69073364618077
30
0
0
SPLINE
5
DD
100
AcDbEntity
8
1
62
256
6
ByLayer
370
18
48
1
60
0
100
AcDbSpline
70
4
71
3
72
82
73
78
40
0
40
0
40
0
40
0
40
0.0401508927404893
40
0.0401508927404893
40
0.0618081844100889
40
0.0618081844100889
40
0.0834654760796886
40
0.0834654760796886
40
0.105122767749288
40
0.105122767749288
40
0.126780059418888
40
0.126780059418888
40
0.148437351088488
40
0.148437351088488
40
0.170094642758088
40
0.170094642758088
40
0.191751934427687
40
0.191751934427687
40
0.213409226097287
40
0.213409226097287
40
0.256723809436485
40
0.256723809436485
40
0.278381101106084
40
0.278381101106084
40
0.300038392775683
40
0.300038392775683
40
0.321695684445282
40
0.321695684445282
40
0.343352976114881
40
0.343352976114881
40
0.36501026778448
40
0.36501026778448
40
0.386667559454079
40
0.386667559454079
40
0.429982142793279
40
0.429982142793279
40
0.451639434462879
40
0.451639434462879
40
0.473296726132478
40
0.473296726132478
40
0.494954017802078
40
0.494954017802078
40
0.516611309471678
40
0.516611309471678
40
0.559925892810876
40
0.559925892810876
40
0.581583184480475
40
0.581583184480475
40
0.603240476150074
40
0.603240476150074
40
0.646555059489274
40
0.646555059489274
40
0.668212351158874
40
0.668212351158874
40
0.689869642828474
40
0.689869642828474
40
0.733184226167674
40
0.733184226167674
40
0.776498809506874
40
0.776498809506874
40
0.798156101176474
40
0.798156101176474
40
0.819813392846074
40
0.819813392846074
40
0.863127976185275
40
0.863127976185275
40
0.884785267854876
40
0.884785267854876
40
0.906442559524476
40
0.906442559524476
40
0.949757142863675
40
0.949757142863675
40
0.971414434533274
40
0.971414434533274
40
0.993071726202874
40
0.993071726202874
40
1
40
1
40
1
40
1
41
1
10
20.6405257203913
20
-0.878234605274855
30
0
41
1
10
20.4797058005968
20
-0.959302849170513
30
0
41
1
10
20.3187160996465
20
-1.03586905976036
30
0
41
1
10
20.0713034969758
20
-1.14457324314716
30
0
41
1
10
19.9851870288865
20
-1.18159703673828
30
0
41
1
10
19.8123085591059
20
-1.25214543587254
30
0
41
1
10
19.7255480523361
20
-1.28585330124375
30
0
41
1
10
19.5519331704768
20
-1.34964234908824
30
0
41
1
10
19.4651524661652
20
-1.37968135925834
30
0
41
1
10
19.2915701394275
20
-1.43578627556113
30
0
41
1
10
19.2047773433404
20
-1.46189925439251
30
0
41
1
10
19.0321006885467
20
-1.51015404735938
30
0
41
1
10
18.9457687110194
20
-1.53181805950891
30
0
41
1
10
18.7725079500683
20
-1.57106998575847
30
0
41
1
10
18.6856052234156
20
-1.58877908557324
30
0
41
1
10
18.5119685789803
20
-1.61995181467256
30
0
41
1
10
18.4251153144473
20
-1.63342041188849
30
0
41
1
10
18.2515310140112
20
-1.65590993734747
30
0
41
1
10
18.1653332994848
20
-1.66510450951128
30
0
41
1
10
17.9059691677453
20
-1.68452193953365
30
0
41
1
10
17.7321308457284
20
-1.68678126537748
30
0
41
1
10
17.4714487496889
20
-1.67888844675849
30
0
41
1
10
17.3845593154328
20
-1.67417994166755
30
0
41
1
10
17.211584601671
20
-1.66002516203036
30
0
41
1
10
17.125074966295
20
-1.65068397671092
30
0
41
1
10
16.9516104884274
20
-1.62708037418582
30
0
41
1
10
16.8645829211431
20
-1.61264939152565
30
0
41
1
10
16.6911832262466
20
-1.57966201616284
30
0
41
1
10
16.6045994434883
20
-1.56127161221153
30
0
41
1
10
16.4319240923151
20
-1.52029506918996
30
0
41
1
10
16.3463709937399
20
-1.49713791179045
30
0
41
1
10
16.1749621917235
20
-1.44735700397064
30
0
41
1
10
16.0892128404666
20
-1.42081006388372
30
0
41
1
10
15.8316963256771
20
-1.33640909337839
30
0
41
1
10
15.6592058065985
20
-1.27434154141957
30
0
41
1
10
15.4015351116217
20
-1.16706171334494
30
0
41
1
10
15.3155012364653
20
-1.12883207680869
30
0
41
1
10
15.1425931022794
20
-1.05014048788459
30
0
41
1
10
15.0555881841721
20
-1.00977231660096
30
0
41
1
10
14.8817362405716
20
-0.926826454426816
30
0
41
1
10
14.7949678317782
20
-0.884457218733303
30
0
41
1
10
14.6219407307697
20
-0.797615710791661
30
0
41
1
10
14.5361797602056
20
-0.752394181522362
30
0
41
1
10
14.2788474186566
20
-0.614485900205096
30
0
41
1
10
14.1077342506778
20
-0.518548288861098
30
0
41
1
10
13.8499997261034
20
-0.372965649170965
30
0
41
1
10
13.763997811698
20
-0.323854189111927
30
0
41
1
10
13.5925508926126
20
-0.223365625080277
30
0
41
1
10
13.506669929144
20
-0.172807945002262
30
0
41
1
10
13.248007527745
20
-0.0209742153173522
30
0
41
1
10
13.0733057862003
20
0.0810622768860298
30
0
41
1
10
12.8135445634329
20
0.231514546192102
30
0
41
1
10
12.7278656119423
20
0.282216108281006
30
0
41
1
10
12.5564271958965
20
0.381731030091885
30
0
41
1
10
12.4707577073574
20
0.430727089820095
30
0
41
1
10
12.2135763223233
20
0.575301395651621
30
0
41
1
10
12.0414425856137
20
0.667703284248233
30
0
41
1
10
11.6993384770453
20
0.848475716657475
30
0
41
1
10
11.5278404118665
20
0.934525118557872
30
0
41
1
10
11.2682899399985
20
1.05528214788973
30
0
41
1
10
11.1812019489843
20
1.09423097527582
30
0
41
1
10
11.0073338694028
20
1.16898016364721
30
0
41
1
10
10.9212198466923
20
1.2053437080034
30
0
41
1
10
10.663127605891
20
1.30828953598134
30
0
41
1
10
10.4916008219091
20
1.36921055396243
30
0
41
1
10
10.2340173881416
20
1.44894896342924
30
0
41
1
10
10.1480791415901
20
1.47356362260945
30
0
41
1
10
9.97708559912599
20
1.51951201647685
30
0
41
1
10
9.89157076781692
20
1.54044809459131
30
0
41
1
10
9.63425928721415
20
1.5965045461129
30
0
41
1
10
9.46172928255953
20
1.62498904870657
30
0
41
1
10
9.20091271105599
20
1.65535787917716
30
0
41
1
10
9.11430790006514
20
1.66339001981112
30
0
41
1
10
8.94147928341286
20
1.67451933471924
30
0
41
1
10
8.85512009166277
20
1.67769832977766
30
0
41
1
10
8.74106485643281
20
1.67885830577231
30
0
41
1
10
8.7134051426259
20
1.67890780814292
30
0
41
1
10
8.68573423035627
20
1.67872661691589
30
0
0
SPLINE
5
DE
100
AcDbEntity
8
1
62
256
6
ByLayer
370
18
48
1
60
0
100
AcDbSpline
70
4
71
3
72
8
73
4
40
0
40
0
40
0
40
0
40
1
40
1
40
1
40
1
41
1
10
42.8904172118052
20
-0.176781474064569
30
0
41
1
10
42.8496739801416
20
-0.288722583056057
30
0
41
1
10
42.8089307484779
20
-0.400663692047573
30
0
41
1
10
42.7681875168143
20
-0.51260480103906
30
0
0
SPLINE
5
DF
100
AcDbEntity
8
1
62
256
6
ByLayer
370
13
48
1
60
0
100
AcDbSpline
70
4
71
3
72
8
73
4
40
0
40
0
40
0
40
0
40
1
40
1
40
1
40
1
41
1
10
8.05094996902614
20
1.40651472575291
30
0
41
1
10
8.06888081501884
20
1.38000709721933
30
0
41
1
10
8.09081584174723
20
1.35711701277961
30
0
41
1
10
8.11713353225474
20
1.33860770030677
30
0
0
SPLINE
5
E0
100
AcDbEntity
8
1
62
256
6
ByLayer
370
18
48
1
60
0
100
AcDbSpline
70
4
71
3
72
8
73
4
40
0
40
0
40
0
40
0
40
1
40
1
40
1
40
1
41
1
10
42.364477932358
20
-1.78760990464878
30
0
41
1
10
42.3643464396685
20
-1.78793662119244
30
0
41
1
10
42.3642149448219
20
-1.78826333028874
30
0
41
1
10
42.3640834478306
20
-1.78859003192358
30
0
0
SPLINE
5
E1
100
AcDbEntity
8
1
62
256
6
ByLayer
370
18
48
1
60
0
100
AcDbSpline
70
4
71
3
72
14
73
10
40
0
40
0
40
0
40
0
40
0.25
40
0.25
40
0.5
40
0.5
40
0.75
40
0.75
40
1
40
1
40
1
40
1
41
1
10
42.3399634033039
20
-1.68914088337507
30
0
41
1
10
42.3084192773536
20
-1.6788738674017
30
0
41
1
10
42.2793840846257
20
-1.66193605584715
30
0
41
1
10
42.226741079388
20
-1.6136300191836
30
0
41
1
10
42.2032701953748
20
-1.58214268142226
30
0
41
1
10
42.1639311414169
20
-1.50635099223771
30
0
41
1
10
42.1477872707188
20
-1.46184922757678
30
0
41
1
10
42.1229587618935
20
-1.35886955020044
30
0
41
1
10
42.1143446439032
20
-1.30010911499951
30
0
41
1
10
42.1099997087788
20
-1.23603567713317
30
0
0
SPLINE
5
E2
100
AcDbEntity
8
1
62
256
6
ByLayer
370
18
48
1
60
0
100
AcDbSpline
70
4
71
3
72
22
73
18
40
0
40
0
40
0
40
0
40
0.0386419217165412
40
0.0386419217165412
40
0.416464387507381
40
0.416464387507381
40
0.510920003955091
40
0.510920003955091
40
0.534533908067019
40
0.534533908067019
40
0.558147812178946
40
0.558147812178946
40
0.605375620402801
40
0.605375620402801
40
0.794286853298222
40
0.794286853298222
40
1
40
1
40
1
40
1
41
1
10
7.40953555642994
20
1.44696028915044
30
0
41
1
10
7.40953555642994
20
1.41042379174547
30
0
41
1
10
7.40953555642994
20
1.37379927493529
30
0
41
1
10
7.40953555642994
20
0.978263462443181
30
0
41
1
10
7.40953555642994
20
0.610890660954027
30
0
41
1
10
7.40953555642994
20
0.142441470993902
30
0
41
1
10
7.40953555643028
20
0.0484779712085412
30
0
41
1
10
7.40953555643028
20
-0.0693133317555805
30
0
41
1
10
7.40953555652038
20
-0.0926834907179739
30
0
41
1
10
7.40953555652038
20
-0.14143729633264
30
0
41
1
10
7.40953555642994
20
-0.167127953830942
30
0
41
1
10
7.40953555642994
20
-0.243233745944679
30
0
41
1
10
7.40953555642994
20
-0.293947742388014
30
0
41
1
10
7.40953555642994
20
-0.547400600085069
30
0
41
1
10
7.40953555642994
20
-0.749788304560838
30
0
41
1
10
7.40953555642994
20
-1.17174797806663
30
0
41
1
10
7.40953555642994
20
-1.39107166444899
30
0
41
1
10
7.40953555642994
20
-1.60968324870714
30
0
0
SPLINE
5
E3
100
AcDbEntity
8
1
62
256
6
ByLayer
370
18
48
1
60
0
100
AcDbSpline
70
4
71
3
72
48
73
44
40
0
40
0
40
0
40
0
40
0.0758374422317378
40
0.0758374422317378
40
0.113756163347607
40
0.113756163347607
40
0.151674884463476
40
0.151674884463476
40
0.189593605579345
40
0.189593605579345
40
0.227512326695214
40
0.227512326695214
40
0.265431047811083
40
0.265431047811083
40
0.303349768926951
40
0.303349768926951
40
0.379187211158689
40
0.379187211158689
40
0.455024653390427
40
0.455024653390427
40
0.492943374506296
40
0.492943374506296
40
0.530862095622165
40
0.530862095622165
40
0.606699537853903
40
0.606699537853903
40
0.644618258969773
40
0.644618258969773
40
0.682536980085643
40
0.682536980085643
40
0.758374422317383
40
0.758374422317383
40
0.834211864549122
40
0.834211864549122
40
0.872130585664991
40
0.872130585664991
40
0.91004930678086
40
0.91004930678086
40
0.947968027896729
40
0.947968027896729
40
0.985886749012598
40
0.985886749012598
40
1
40
1
40
1
40
1
41
1
10
7.40953555642994
20
1.44696028915027
30
0
41
1
10
7.59226222435092
20
1.37902808822108
30
0
41
1
10
7.77586746992759
20
1.30455153206532
30
0
41
1
10
8.05080993202773
20
1.18240121995583
30
0
41
1
10
8.14230051735967
20
1.13982394168136
30
0
41
1
10
8.32450944002085
20
1.05024797415757
30
0
41
1
10
8.41517208822123
20
1.00313314558457
30
0
41
1
10
8.59785255643177
20
0.907240982331501
30
0
41
1
10
8.68964433599899
20
0.858194770416958
30
0
41
1
10
8.87370737857174
20
0.757338646831187
30
0
41
1
10
8.96621012943078
20
0.705414933594881
30
0
41
1
10
9.14996870247191
20
0.599510873245521
30
0
41
1
10
9.24097134620018
20
0.544885740620913
30
0
41
1
10
9.42296072746674
20
0.435049736241268
30
0
41
1
10
9.51411023995905
20
0.380104932005935
30
0
41
1
10
9.78759112539441
20
0.214537807378576
30
0
41
1
10
9.96990471674943
20
0.10311792400708
30
0
41
1
10
10.3321189201504
20
-0.125842658880202
30
0
41
1
10
10.5151920212501
20
-0.238163169652012
30
0
41
1
10
10.7916034429382
20
-0.405273485853599
30
0
41
1
10
10.8839215352783
20
-0.460593157187873
30
0
41
1
10
11.0667435524496
20
-0.570180979490175
30
0
41
1
10
11.1574269764496
20
-0.624651874357397
30
0
41
1
10
11.4306304580889
20
-0.781970007606503
30
0
41
1
10
11.6130541088387
20
-0.88085389551722
30
0
41
1
10
11.8855838056532
20
-1.02253675473517
30
0
41
1
10
11.9758939658133
20
-1.06908534254515
30
0
41
1
10
12.1574524506165
20
-1.15807507651959
30
0
41
1
10
12.2487560983944
20
-1.20047671783064
30
0
41
1
10
12.5237300532628
20
-1.32214766004981
30
0
41
1
10
12.7091509108325
20
-1.39636914986056
30
0
41
1
10
13.073159986842
20
-1.52816292281108
30
0
41
1
10
13.25569663613
20
-1.58311999684372
30
0
41
1
10
13.5286801282574
20
-1.65160558918853
30
0
41
1
10
13.6196102316748
20
-1.67202901153854
30
0
41
1
10
13.8008122926825
20
-1.7081937335638
30
0
41
1
10
13.8911461916433
20
-1.7238407044452
30
0
41
1
10
14.0732954505781
20
-1.74941953953044
30
0
41
1
10
14.164836518758
20
-1.75951450937205
30
0
41
1
10
14.3483882264529
20
-1.77447284895476
30
0
41
1
10
14.4406862278395
20
-1.77932197679337
30
0
41
1
10
14.5668004937755
20
-1.7822075261881
30
0
41
1
10
14.6008750238135
20
-1.78260508829791
30
0
41
1
10
14.6348744983846
20
-1.78261940871334
30
0
0
SPLINE
5
E4
100
AcDbEntity
8
1
62
256
6
ByLayer
370
18
48
1
60
0
100
AcDbSpline
70
4
71
3
72
78
73
74
40
0
40
0
40
0
40
0
40
0.0166295120490209
40
0.0166295120490209
40
0.0394095890455455
40
0.0394095890455455
40
0.0849697430385943
40
0.0849697430385943
40
0.107749820035119
40
0.107749820035119
40
0.130529897031643
40
0.130529897031643
40
0.176090051024692
40
0.176090051024692
40
0.198870128021217
40
0.198870128021217
40
0.221650205017741
40
0.221650205017741
40
0.244430282014266
40
0.244430282014266
40
0.26721035901079
40
0.26721035901079
40
0.312770513003839
40
0.312770513003839
40
0.335550590000363
40
0.335550590000363
40
0.358330666996886
40
0.358330666996886
40
0.403890820989933
40
0.403890820989933
40
0.426670897986456
40
0.426670897986456
40
0.449450974982979
40
0.449450974982979
40
0.472231051979503
40
0.472231051979503
40
0.495011128976026
40
0.495011128976026
40
0.540571282969072
40
0.540571282969072
40
0.563351359965594
40
0.563351359965594
40
0.586131436962116
40
0.586131436962116
40
0.631691590955157
40
0.631691590955157
40
0.654471667951678
40
0.654471667951678
40
0.677251744948199
40
0.677251744948199
40
0.700031821944719
40
0.700031821944719
40
0.72281189894124
40
0.72281189894124
40
0.768372052934279
40
0.768372052934279
40
0.791152129930797
40
0.791152129930797
40
0.813932206927315
40
0.813932206927315
40
0.859492360920352
40
0.859492360920352
40
0.88227243791687
40
0.88227243791687
40
0.905052514913389
40
0.905052514913389
40
0.927832591909907
40
0.927832591909907
40
0.950612668906426
40
0.950612668906426
40
0.996172822899464
40
0.996172822899464
40
1
40
1
40
1
40
1
41
1
10
20.6255037087709
20
0.888048742596823
30
0
41
1
10
20.6920038341885
20
0.923732489655322
30
0
41
1
10
20.7584144390136
20
0.958707846302076
30
0
41
1
10
20.9155578855856
20
1.03994587126118
30
0
41
1
10
21.0058876113643
20
1.0860057550384
30
0
41
1
10
21.2772108264608
20
1.21889142142623
30
0
41
1
10
21.4599120585133
20
1.29887571157786
30
0
41
1
10
21.7348944663132
20
1.40822659919482
30
0
41
1
10
21.8270447424433
20
1.44287937476588
30
0
41
1
10
22.0099473316639
20
1.50836043103104
30
0
41
1
10
22.1011170695174
20
1.53854422225112
30
0
41
1
10
22.3750729214718
20
1.62079339326476
30
0
41
1
10
22.5575126208996
20
1.66544916862827
30
0
41
1
10
22.8293301479214
20
1.71815024593926
30
0
41
1
10
22.9193946269633
20
1.73335251983818
30
0
41
1
10
23.100833619311
20
1.75800021499759
30
0
41
1
10
23.1919845675108
20
1.7675954419733
30
0
41
1
10
23.3746838336926
20
1.78154648518517
30
0
41
1
10
23.4662393746096
20
1.78589189420714
30
0
41
1
10
23.6496895707332
20
1.78915755314685
30
0
41
1
10
23.7414089927981
20
1.78802790593119
30
0
41
1
10
24.0154164260311
20
1.77623176736827
30
0
41
1
10
24.1982614074174
20
1.75768825962683
30
0
41
1
10
24.4710781732513
20
1.71441429903101
30
0
41
1
10
24.561840129073
20
1.69740775925385
30
0
41
1
10
24.7424075555813
20
1.65769067764245
30
0
41
1
10
24.83292343023
20
1.63535669601686
30
0
41
1
10
25.1058388782216
20
1.56167250423366
30
0
41
1
10
25.2890165951396
20
1.50344147074674
30
0
41
1
10
25.5641223408569
20
1.40023980281214
30
0
41
1
10
25.6554271118248
20
1.36305032352962
30
0
41
1
10
25.8381724082759
20
1.28621511184744
30
0
41
1
10
25.9295696324364
20
1.24625512079007
30
0
41
1
10
26.111951159441
20
1.16283057639433
30
0
41
1
10
26.2029636692485
20
1.1193949106268
30
0
41
1
10
26.384501203448
20
1.0288847603359
30
0
41
1
10
26.4746508812577
20
0.981291936120982
30
0
41
1
10
26.7460370479432
20
0.83514919310619
30
0
41
1
10
26.9286108612193
20
0.734008920171277
30
0
41
1
10
27.2031965219067
20
0.574251757370661
30
0
41
1
10
27.2949988239161
20
0.519598661623775
30
0
41
1
10
27.4779687198305
20
0.407187155016402
30
0
41
1
10
27.5695955615439
20
0.350865707460258
30
0
41
1
10
27.8451029190823
20
0.181928473926945
30
0
41
1
10
28.0292241515707
20
0.0687511760299913
30
0
41
1
10
28.3043727517874
20
-0.10465762518939
30
0
41
1
10
28.3956026791471
20
-0.162915876236639
30
0
41
1
10
28.5783626655239
20
-0.27637168205689
30
0
41
1
10
28.669748976219
20
-0.33212002887862
30
0
41
1
10
28.8520776855044
20
-0.442467644638327
30
0
41
1
10
28.9430692245739
20
-0.49698547432368
30
0
41
1
10
29.1245124431541
20
-0.604991641438033
30
0
41
1
10
29.2145880276405
20
-0.659041167633887
30
0
41
1
10
29.4861419017791
20
-0.816307478999818
30
0
41
1
10
29.6687855587531
20
-0.915028229616922
30
0
41
1
10
29.9434717763767
20
-1.05639198921958
30
0
41
1
10
30.035326484256
20
-1.10259079294318
30
0
41
1
10
30.2180335532248
20
-1.19197617170457
30
0
41
1
10
30.3094004216792
20
-1.23419296886189
30
0
41
1
10
30.5833785810615
20
-1.35411778954619
30
0
41
1
10
30.7656728289191
20
-1.42547011512505
30
0
41
1
10
31.0368789591608
20
-1.52108567564329
30
0
41
1
10
31.1269935839317
20
-1.55089833713012
30
0
41
1
10
31.3085209143118
20
-1.60492420972454
30
0
41
1
10
31.3996615628769
20
-1.6293984325826
30
0
41
1
10
31.5822419076537
20
-1.6736265177079
30
0
41
1
10
31.6737397421081
20
-1.69333868968997
30
0
41
1
10
31.8569363557821
20
-1.72789950546587
30
0
41
1
10
31.9483852914456
20
-1.74286701828669
30
0
41
1
10
32.2231613418139
20
-1.7788035476427
30
0
41
1
10
32.4071617216475
20
-1.79156322186694
30
0
41
1
10
32.6062687179513
20
-1.79376956222427
30
0
41
1
10
32.6216961279368
20
-1.79386276701118
30
0
41
1
10
32.6371198090205
20
-1.79387780336953
30
0
0
SPLINE
5
E5
100
AcDbEntity
8
1
62
256
6
ByLayer
370
18
48
1
60
0
100
AcDbSpline
70
4
71
3
72
24
73
20
40
0
40
0
40
0
40
0
40
0.136815370643928
40
0.136815370643928
40
0.280679475536607
40
0.280679475536607
40
0.352611527982947
40
0.352611527982947
40
0.424543580429286
40
0.424543580429286
40
0.568407685321964
40
0.568407685321964
40
0.640339737768303
40
0.640339737768303
40
0.712271790214642
40
0.712271790214642
40
0.856135895107321
40
0.856135895107321
40
1
40
1
40
1
40
1
41
1
10
38.6334316896808
20
0.896408066767805
30
0
41
1
10
38.8067503090288
20
0.989899722665427
30
0
41
1
10
38.981282797929
20
1.0786460349571
30
0
41
1
10
39.3378232192806
20
1.25223532399753
30
0
41
1
10
39.5203557212422
20
1.33156969104252
30
0
41
1
10
39.7932319272363
20
1.4380379843135
30
0
41
1
10
39.8840393338108
20
1.4714173969968
30
0
41
1
10
40.0649321225199
20
1.53424409139188
30
0
41
1
10
40.1548544821364
20
1.56377582878827
30
0
41
1
10
40.4265970729544
20
1.64382761183953
30
0
41
1
10
40.6092132875909
20
1.68705921824133
30
0
41
1
10
40.8837822360526
20
1.73743586647666
30
0
41
1
10
40.9753253502364
20
1.75191126546875
30
0
41
1
10
41.1578467437029
20
1.77498918091513
30
0
41
1
10
41.2491409002797
20
1.78363484908971
30
0
41
1
10
41.5227105146209
20
1.80149821621384
30
0
41
1
10
41.7046262813973
20
1.80280982870701
30
0
41
1
10
42.0651368269164
20
1.78333938803996
30
0
41
1
10
42.2469131308767
20
1.76295311788263
30
0
41
1
10
42.4294684338582
20
1.7321091136395
30
0
0
SPLINE
5
E6
100
AcDbEntity
8
1
62
256
6
ByLayer
370
18
48
1
60
0
100
AcDbSpline
70
4
71
3
72
8
73
4
40
0
40
0
40
0
40
0
40
1
40
1
40
1
40
1
41
1
10
42.9844881203394
20
-0.0009415244796855
30
0
41
1
10
42.9528603752844
20
-0.0593119984764598
30
0
41
1
10
42.9215030594503
20
-0.11792500443363
30
0
41
1
10
42.8904172117964
20
-0.176781474081622
30
0
0
SPLINE
5
E7
100
AcDbEntity
8
1
62
256
6
ByLayer
370
18
48
1
60
0
100
AcDbSpline
70
4
71
3
72
8
73
4
40
0
40
0
40
0
40
0
40
1
40
1
40
1
40
1
41
1
10
42.9999200770518
20
0.0337629892324856
30
0
41
1
10
42.9953214315186
20
0.0212879571871554
30
0
41
1
10
42.9898617555917
20
0.0089757692197452
30
0
41
1
10
42.9844881203394
20
-0.0009415244796855
30
0
0
SPLINE
5
E8
100
AcDbEntity
8
1
62
256
6
ByLayer
370
18
48
1
60
0
100
AcDbSpline
70
4
71
3
72
12
73
8
40
0
40
0
40
0
40
0
40
0.249999999999939
40
0.249999999999939
40
0.499999999999879
40
0.499999999999879
40
1
40
1
40
1
40
1
41
1
10
42.2556696511138
20
0.460418023873075
30
0
41
1
10
42.2534591399907
20
0.47019378016455
30
0
41
1
10
42.2530222385958
20
0.480437058158287
30
0
41
1
10
42.257427263357
20
0.499862019644496
30
0
41
1
10
42.2624214896189
20
0.509029767519479
30
0
41
1
10
42.284098716139
20
0.530514615635013
30
0
41
1
10
42.3048662149684
20
0.53585078215832
30
0
41
1
10
42.3248740158055
20
0.536222879890289
30
0
0
SPLINE
5
E9
100
AcDbEntity
8
1
62
256
6
ByLayer
370
18
48
1
60
0
100
AcDbSpline
70
4
71
3
72
18
73
14
40
0
40
0
40
0
40
0
40
0.0934683028228408
40
0.0934683028228408
40
0.384342825775987
40
0.384342825775987
40
0.52978008725256
40
0.52978008725256
40
0.675217348729133
40
0.675217348729133
40
0.966091871682284
40
0.966091871682284
40
1
40
1
40
1
40
1
41
1
10
8.92894310014222
20
0.949661849287679
30
0
41
1
10
9.04415834536005
20
0.889155597849197
30
0
41
1
10
9.15902014497846
20
0.826460273251882
30
0
41
1
10
9.629258885165
20
0.562246957610512
30
0
41
1
10
9.98272465543482
20
0.347053277845447
30
0
41
1
10
10.5180424581685
20
0.0150959874272871
30
0
41
1
10
10.6984632127207
20
-0.097336798401642
30
0
41
1
10
11.0562387028538
20
-0.317855290848882
30
0
41
1
10
11.2339476711578
20
-0.42630183657451
30
0
41
1
10
11.766116545566
20
-0.742273050953372
30
0
41
1
10
12.1201998549154
20
-0.939616753670606
30
0
41
1
10
12.5214845916876
20
-1.1345825977709
30
0
41
1
10
12.5633215056729
20
-1.15454997141776
30
0
41
1
10
12.6051042968621
20
-1.17411424562997
30
0
0
SPLINE
5
EA
100
AcDbEntity
8
1
62
256
6
ByLayer
370
13
48
1
60
0
100
AcDbSpline
70
4
71
3
72
18
73
14
40
0
40
0
40
0
40
0
40
0.124253932230165
40
0.124253932230165
40
0.286284705009181
40
0.286284705009181
40
0.448315477788198
40
0.448315477788198
40
0.610346250567214
40
0.610346250567214
40
0.934407796125252
40
0.934407796125252
40
1
40
1
40
1
40
1
41
1
10
12.6051042969044
20
-1.17411424564975
30
0
41
1
10
12.7425344268763
20
-1.23846420100759
30
0
41
1
10
12.8793790267256
20
-1.29845320536975
30
0
41
1
10
13.1936602533545
20
-1.42534723056204
30
0
41
1
10
13.3708674743083
20
-1.48912731958825
30
0
41
1
10
13.7256062313216
20
-1.59929116348908
30
0
41
1
10
13.9031754130421
20
-1.64560355137351
30
0
41
1
10
14.2603716843413
20
-1.71887048267627
30
0
41
1
10
14.4407871562407
20
-1.74586471486208
30
0
41
1
10
14.9767504524657
20
-1.79505276920267
30
0
41
1
10
15.3295410926242
20
-1.78674117516786
30
0
41
1
10
15.7573625898589
20
-1.7276943503316
30
0
41
1
10
15.8295384488202
20
-1.71608844032451
30
0
41
1
10
15.9018555126635
20
-1.70283265596675
30
0
0
SPLINE
5
EB
100
AcDbEntity
8
1
62
256
6
ByLayer
370
18
48
1
60
0
100
AcDbSpline
70
4
71
3
72
26
73
22
40
0
40
0
40
0
40
0
40
0.0791183648642387
40
0.0791183648642387
40
0.28224527722096
40
0.28224527722096
40
0.333027005310143
40
0.333027005310143
40
0.383808733399326
40
0.383808733399326
40
0.485372189577692
40
0.485372189577692
40
0.586935645756059
40
0.586935645756059
40
0.688499101934425
40
0.688499101934425
40
0.891626014291163
40
0.891626014291163
40
0.993189470469532
40
0.993189470469532
40
1
40
1
40
1
40
1
41
1
10
25.9585995509043
20
1.40304533732427
30
0
41
1
10
26.0975862321013
20
1.34934132690518
30
0
41
1
10
26.235944060407
20
1.2909619320022
30
0
41
1
10
26.7286223471684
20
1.06755441555791
30
0
41
1
10
27.0817494964898
20
0.879221959991014
30
0
41
1
10
27.5294495044528
20
0.619794100650466
30
0
41
1
10
27.6193107551565
20
0.566701013627039
30
0
41
1
10
27.7979935424583
20
0.459740327422423
30
0
41
1
10
27.8871053383822
20
0.405798632776595
30
0
41
1
10
28.1537923040038
20
0.242657508919905
30
0
41
1
10
28.3307725037041
20
0.132232034290098
30
0
41
1
10
28.6848199286414
20
-0.0891572915456322
30
0
41
1
10
28.8619840557728
20
-0.199963129148102
30
0
41
1
10
29.2182267270658
20
-0.419157619219476
30
0
41
1
10
29.3982253714812
20
-0.528169073946827
30
0
41
1
10
29.9336658244802
20
-0.841920187782847
30
0
41
1
10
30.2863020214285
20
-1.03324643920229
30
0
41
1
10
30.8185695208376
20
-1.28092621984985
30
0
41
1
10
30.9965208607933
20
-1.35693555706911
30
0
41
1
10
31.1879311947422
20
-1.42966163930851
30
0
41
1
10
31.1999553942833
20
-1.43419243031329
30
0
41
1
10
31.2119750810248
20
-1.43868345995284
30
0
0
SPLINE
5
EC
100
AcDbEntity
8
1
62
256
6
ByLayer
370
13
48
1
60
0
100
AcDbSpline
70
4
71
3
72
16
73
12
40
0
40
0
40
0
40
0
40
0.179207229869354
40
0.179207229869354
40
0.56338262761129
40
0.56338262761129
40
0.755470326482253
40
0.755470326482253
40
0.947558025353215
40
0.947558025353215
40
1
40
1
40
1
40
1
41
1
10
31.2119741439604
20
-1.43868310982853
30
0
41
1
10
31.3792008831699
20
-1.50116565112916
30
0
41
1
10
31.5455541054496
20
-1.55595181516927
30
0
41
1
10
32.0662677148615
20
-1.70197118445753
30
0
41
1
10
32.4184978906211
20
-1.76441417311372
30
0
41
1
10
32.953509562711
20
-1.79569436928964
30
0
41
1
10
33.1335645856159
20
-1.79569445162531
30
0
41
1
10
33.4898787781958
20
-1.77499930766908
30
0
41
1
10
33.6670889532418
20
-1.75434781557851
30
0
41
1
10
33.8924957791629
20
-1.7154985278375
30
0
41
1
10
33.9408222374766
20
-1.70643258697419
30
0
41
1
10
33.9891502252498
20
-1.69664042530721
30
0
0
SPLINE
5
ED
100
AcDbEntity
8
1
62
256
6
ByLayer
370
18
48
1
60
0
100
AcDbSpline
70
4
71
3
72
8
73
4
40
0
40
0
40
0
40
0
40
1
40
1
40
1
40
1
41
1
10
42.3640834478306
20
1.78859003192363
30
0
41
1
10
42.2568586611919
20
1.79612166174283
30
0
41
1
10
42.1498777206413
20
1.79984239774817
30
0
41
1
10
42.0429745088724
20
1.79978812058437
30
0
0
SPLINE
5
EE
100
AcDbEntity
8
1
62
256
6
ByLayer
370
18
48
1
60
0
100
AcDbSpline
70
4
71
3
72
50
73
46
40
0
40
0
40
0
40
0
40
0.0070426344868507
40
0.0070426344868507
40
0.0612137644104831
40
0.0612137644104831
40
0.115384894334116
40
0.115384894334116
40
0.169556024257748
40
0.169556024257748
40
0.196641589219563
40
0.196641589219563
40
0.223727154181377
40
0.223727154181377
40
0.332069414028636
40
0.332069414028636
40
0.386240543952266
40
0.386240543952266
40
0.41332610891408
40
0.41332610891408
40
0.440411673875895
40
0.440411673875895
40
0.548753933723154
40
0.548753933723154
40
0.575839498684968
40
0.575839498684968
40
0.602925063646782
40
0.602925063646782
40
0.65709619357041
40
0.65709619357041
40
0.765438453417663
40
0.765438453417663
40
0.792524018379475
40
0.792524018379475
40
0.819609583341287
40
0.819609583341287
40
0.873780713264911
40
0.873780713264911
40
0.927951843188537
40
0.927951843188537
40
0.95503740815035
40
0.95503740815035
40
0.982122973112163
40
0.982122973112163
40
1
40
1
40
1
40
1
41
1
10
33.9012473459433
20
-1.71451876327944
30
0
41
1
10
33.8780756941186
20
-1.71879222505825
30
0
41
1
10
33.8548861575384
20
-1.72290010423501
30
0
41
1
10
33.6531523434196
20
-1.75715194460812
30
0
41
1
10
33.4730852333167
20
-1.7775482780203
30
0
41
1
10
33.1169309528275
20
-1.79704140844905
30
0
41
1
10
32.9397229978941
20
-1.79633095123583
30
0
41
1
10
32.5854400456967
20
-1.77453590305805
30
0
41
1
10
32.4085349176037
20
-1.75340240951101
30
0
41
1
10
32.1420142628842
20
-1.70661059761531
30
0
41
1
10
32.0529780528069
20
-1.68850256398684
30
0
41
1
10
31.8743019857819
20
-1.64730503225792
30
0
41
1
10
31.784419216187
20
-1.62414493982615
30
0
41
1
10
31.3362609675924
20
-1.49688891633895
30
0
41
1
10
30.9834065683602
20
-1.3590053095281
30
0
41
1
10
30.4516254912504
20
-1.11054905509954
30
0
41
1
10
30.273992603842
20
-1.02075024278457
30
0
41
1
10
30.0057121187423
20
-0.876982594094017
30
0
41
1
10
29.9157456142368
20
-0.827396621721732
30
0
41
1
10
29.7367042951093
20
-0.726291973315
30
0
41
1
10
29.6475320915413
20
-0.67476099191768
30
0
41
1
10
29.2026956606582
20
-0.413357944940202
30
0
41
1
10
28.8499555112449
20
-0.192507289658352
30
0
41
1
10
28.4051828740124
20
0.0857458712203822
30
0
41
1
10
28.3160075971556
20
0.141460911430869
30
0
41
1
10
28.1369866151326
20
0.252651674489329
30
0
41
1
10
28.0469614629988
20
0.308237355072379
30
0
41
1
10
27.7783774911366
20
0.472383249456016
30
0
41
1
10
27.600693487214
20
0.579083137087764
30
0
41
1
10
27.0688575672639
20
0.886726507688365
30
0
41
1
10
26.7156382535091
20
1.07485226668456
30
0
41
1
10
26.2676454635607
20
1.27699113364815
30
0
41
1
10
26.1776435779592
20
1.31574954719699
30
0
41
1
10
25.998751376365
20
1.38884711154554
30
0
41
1
10
25.9096234283285
20
1.42330925588209
30
0
41
1
10
25.6427989801269
20
1.5201430236134
30
0
41
1
10
25.4656132409043
20
1.57593461386387
30
0
41
1
10
25.111213556119
20
1.66904604185879
30
0
41
1
10
24.9339612158641
20
1.70632466093244
30
0
41
1
10
24.6666827457167
20
1.74735129982
30
0
41
1
10
24.5773597855879
20
1.75854583042695
30
0
41
1
10
24.3980157041309
20
1.77579896794359
30
0
41
1
10
24.3081077858282
20
1.78182954365826
30
0
41
1
10
24.1597245827389
20
1.78744930800084
30
0
41
1
10
24.1008517505806
20
1.78854533329667
30
0
41
1
10
24.0420728710539
20
1.78851277294962
30
0
0
SPLINE
5
EF
100
AcDbEntity
8
1
62
256
6
ByLayer
370
18
48
1
60
0
100
AcDbSpline
70
4
71
3
72
38
73
34
40
0
40
0
40
0
40
0
40
0.0320148290143282
40
0.0320148290143282
40
0.0665857279781014
40
0.0665857279781014
40
0.101156626941875
40
0.101156626941875
40
0.170298424869423
40
0.170298424869423
40
0.308582020724518
40
0.308582020724518
40
0.343152919688292
40
0.343152919688292
40
0.377723818652066
40
0.377723818652066
40
0.446865616579613
40
0.446865616579613
40
0.51600741450716
40
0.51600741450716
40
0.550578313470934
40
0.550578313470934
40
0.585149212434708
40
0.585149212434708
40
0.723432808289805
40
0.723432808289805
40
0.792574606217353
40
0.792574606217353
40
0.827145505181129
40
0.827145505181129
40
0.861716404144904
40
0.861716404144904
40
1
40
1
40
1
40
1
41
1
10
15.9186200828411
20
-1.70064417293926
30
0
41
1
10
15.8364402329972
20
-1.71600631038933
30
0
41
1
10
15.7541743767328
20
-1.72927543429063
30
0
41
1
10
15.5827026061107
20
-1.7524055906793
30
0
41
1
10
15.4934775431631
20
-1.76192085200864
30
0
41
1
10
15.3144744048522
20
-1.77583977516957
30
0
41
1
10
15.224472282549
20
-1.78024812972043
30
0
41
1
10
14.9553704306152
20
-1.78551823933989
30
0
41
1
10
14.7772058132777
20
-1.77847913808648
30
0
41
1
10
14.2439550590302
20
-1.72719583759536
30
0
41
1
10
13.8907302836298
20
-1.65255656755781
30
0
41
1
10
13.4430310426487
20
-1.51224809801198
30
0
41
1
10
13.3529393676478
20
-1.4817413472835
30
0
41
1
10
13.1735192582472
20
-1.41675251465602
30
0
41
1
10
13.0841212224388
20
-1.38226901539497
30
0
41
1
10
12.8166003215366
20
-1.27322292176882
30
0
41
1
10
12.639258028203
20
-1.19293716162122
30
0
41
1
10
12.2846098274262
20
-1.0196615098358
30
0
41
1
10
12.1072063751335
20
-0.926809577651568
30
0
41
1
10
11.8398150131482
20
-0.779752075521486
30
0
41
1
10
11.7504662223161
20
-0.729442174339312
30
0
41
1
10
11.5712016663638
20
-0.626376333284298
30
0
41
1
10
11.4810955934687
20
-0.573479445790639
30
0
41
1
10
11.0329860628224
20
-0.306687474310252
30
0
41
1
10
10.6791974455405
20
-0.0847858444546148
30
0
41
1
10
10.1463472748583
20
0.245673420972963
30
0
41
1
10
9.96823186515988
20
0.355202956388979
30
0
41
1
10
9.69902856901061
20
0.516462414557765
30
0
41
1
10
9.60884699213079
20
0.569762286877932
30
0
41
1
10
9.42955112310682
20
0.674055626587148
30
0
41
1
10
9.34022988286526
20
0.725206898415962
30
0
41
1
10
8.89448005727391
20
0.974867760032737
30
0
41
1
10
8.54011896941881
20
1.15442813111767
30
0
41
1
10
8.18145967041659
20
1.30517870348663
30
0
0
SPLINE
5
F0
100
AcDbEntity
8
1
62
256
6
ByLayer
370
13
48
1
60
0
100
AcDbSpline
70
4
71
3
72
8
73
4
40
0
40
0
40
0
40
0
40
1
40
1
40
1
40
1
41
1
10
42.3810779124517
20
-1.69863351300819
30
0
41
1
10
42.3016294560292
20
-1.70112493073299
30
0
41
1
10
42.222375851777
20
-1.70162891079769
30
0
41
1
10
42.1432554107853
20
-1.70017664339937
30
0
0
SPLINE
5
F1
100
AcDbEntity
8
1
62
256
6
ByLayer
370
18
48
1
60
0
100
AcDbSpline
70
4
71
3
72
30
73
26
40
0
40
0
40
0
40
0
40
0.123098344653074
40
0.123098344653074
40
0.202362837644351
40
0.202362837644351
40
0.241995084139987
40
0.241995084139987
40
0.281627330635624
40
0.281627330635624
40
0.440156316618159
40
0.440156316618159
40
0.519420809609427
40
0.519420809609427
40
0.559053056105061
40
0.559053056105061
40
0.598685302600695
40
0.598685302600695
40
0.757214288583226
40
0.757214288583226
40
0.836478781574492
40
0.836478781574492
40
0.915743274565758
40
0.915743274565758
40
1
40
1
40
1
40
1
41
1
10
42.1432558774032
20
-1.70017665196417
30
0
41
1
10
41.8683645441768
20
-1.6951310076353
30
0
41
1
10
41.5950806314643
20
-1.66647142108013
30
0
41
1
10
41.1442153326925
20
-1.58268871588999
30
0
41
1
10
40.9672253203967
20
-1.54058684617385
30
0
41
1
10
40.6998391308529
20
-1.46389564907102
30
0
41
1
10
40.610148904491
20
-1.43601154516674
30
0
41
1
10
40.4315714125655
20
-1.37639392995564
30
0
41
1
10
40.3426241388251
20
-1.34465772874995
30
0
41
1
10
39.8990935249174
20
-1.17699117025168
30
0
41
1
10
39.5481651218612
20
-1.01402563961412
30
0
41
1
10
39.0178215548394
20
-0.739654569068364
30
0
41
1
10
38.8403960919324
20
-0.643191027213305
30
0
41
1
10
38.5722346464962
20
-0.492448169893947
30
0
41
1
10
38.4826467339047
20
-0.441282925890789
30
0
41
1
10
38.3044356760496
20
-0.338408431119632
30
0
41
1
10
38.215591154386
20
-0.286570238744417
30
0
41
1
10
37.7721852389546
20
-0.026210051472674
30
0
41
1
10
37.4200107924722
20
0.185708193072543
30
0
41
1
10
36.8866275613689
20
0.49367661765308
30
0
41
1
10
36.7070435528405
20
0.594956737809923
30
0
41
1
10
36.3507471178949
20
0.787622903215635
30
0
41
1
10
36.1735844558115
20
0.879294800263608
30
0
41
1
10
35.8086620681335
20
1.05696391484125
30
0
41
1
10
35.6208941584014
20
1.14215222361292
30
0
41
1
10
35.4324231197967
20
1.21967000747452
30
0
0
SPLINE
5
F2
100
AcDbEntity
8
1
62
256
6
ByLayer
370
18
48
1
60
0
100
AcDbSpline
70
4
71
3
72
10
73
6
40
0
40
0
40
0
40
0
40
0.861956407482705
40
0.861956407482705
40
1
40
1
40
1
40
1
41
1
10
35.1359569457762
20
1.33482788966677
30
0
41
1
10
35.0680449084118
20
1.3596076652405
30
0
41
1
10
34.999977565242
20
1.38331381661189
30
0
41
1
10
34.9207773051656
20
1.40950087544422
30
0
41
1
10
34.9098492032767
20
1.4130835531146
30
0
41
1
10
34.8989259101037
20
1.41663386054569
30
0
0
SPLINE
5
F3
100
AcDbEntity
8
1
62
256
6
ByLayer
370
18
48
1
60
0
100
AcDbSpline
70
4
71
3
72
14
73
10
40
0
40
0
40
0
40
0
40
0.297733461970273
40
0.297733461970273
40
0.455264250573713
40
0.455264250573713
40
0.612795039177155
40
0.612795039177155
40
1
40
1
40
1
40
1
41
1
10
24.2393298465096
20
-1.68947483676476
30
0
41
1
10
24.0718897770571
20
-1.68971135145591
30
0
41
1
10
23.9040847204276
20
-1.68132678567176
30
0
41
1
10
23.6458814134954
20
-1.6548968442533
30
0
41
1
10
23.5560496752991
20
-1.64322830824634
30
0
41
1
10
23.377291575172
20
-1.61526337219598
30
0
41
1
10
23.288207796072
20
-1.59897499474295
30
0
41
1
10
22.9808142930609
20
-1.53495355092119
30
0
41
1
10
22.763446971214
20
-1.47593382764708
30
0
41
1
10
22.5457895696315
20
-1.40464008513499
30
0
0
SPLINE
5
F4
100
AcDbEntity
8
1
62
256
6
ByLayer
370
13
48
1
60
0
100
AcDbSpline
70
4
71
3
72
28
73
24
40
0
40
0
40
0
40
0
40
0.0764592220964217
40
0.0764592220964217
40
0.126042620163963
40
0.126042620163963
40
0.175626018231505
40
0.175626018231505
40
0.274792814366591
40
0.274792814366591
40
0.473126406636761
40
0.473126406636761
40
0.522709804704306
40
0.522709804704306
40
0.572293202771851
40
0.572293202771851
40
0.67145999890694
40
0.67145999890694
40
0.770626795042028
40
0.770626795042028
40
0.869793591177118
40
0.869793591177118
40
1
40
1
40
1
40
1
41
1
10
22.5457886194428
20
-1.40463977390027
30
0
41
1
10
22.4092386634001
20
-1.3599127755285
30
0
41
1
10
22.272574536113
20
-1.31035493351081
30
0
41
1
10
22.046517466752
20
-1.22119958492218
30
0
41
1
10
21.9573835364822
20
-1.18423795351097
30
0
41
1
10
21.7784965882507
20
-1.10673371315826
30
0
41
1
10
21.6886767424052
20
-1.06615462956574
30
0
41
1
10
21.4206783013984
20
-0.940685776141038
30
0
41
1
10
21.2430905885628
20
-0.851652981683969
30
0
41
1
10
20.7116521752968
20
-0.571509274511868
30
0
41
1
10
20.3585216074069
20
-0.368358272267955
30
0
41
1
10
19.9110229366719
20
-0.105799167282811
30
0
41
1
10
19.8212541545481
20
-0.052926880731718
30
0
41
1
10
19.6426936403934
20
0.052211059245991
30
0
41
1
10
19.5536749596355
20
0.104607402305874
30
0
41
1
10
19.2871023368721
20
0.260775261248852
30
0
41
1
10
19.1100842279301
20
0.363608664424902
30
0
41
1
10
18.7559089300383
20
0.56412083764954
30
0
41
1
10
18.5786868505413
20
0.661707467092953
30
0
41
1
10
18.2224350847755
20
0.84898782162503
30
0
41
1
10
18.0425739413165
20
0.939118530872292
30
0
41
1
10
17.6298084494694
20
1.13213746370968
30
0
41
1
10
17.3972202537535
20
1.23054710161972
30
0
41
1
10
17.1646155687686
20
1.31589686354002
30
0
0
SPLINE
5
F5
100
AcDbEntity
8
1
62
256
6
ByLayer
370
18
48
1
60
0
100
AcDbSpline
70
4
71
3
72
8
73
4
40
0
40
0
40
0
40
0
40
1
40
1
40
1
40
1
41
1
10
17.1646155686082
20
1.31589686359885
30
0
41
1
10
17.1495579768268
20
1.32142195383349
30
0
41
1
10
17.1345003159458
20
1.32689231561471
30
0
41
1
10
17.1194421140808
20
1.3323074335083
30
0
0
SPLINE
5
F6
100
AcDbEntity
8
1
62
256
6
ByLayer
370
18
48
1
60
0
100
AcDbSpline
70
4
71
3
72
12
73
8
40
0
40
0
40
0
40
0
40
0.222121971255748
40
0.222121971255748
40
0.761215646491908
40
0.761215646491908
40
1
40
1
40
1
40
1
41
1
10
33.2401309936184
20
-1.69517778788196
30
0
41
1
10
33.0930117332669
20
-1.6954035045907
30
0
41
1
10
32.9452094501613
20
-1.68896168123837
30
0
41
1
10
32.4426055559546
20
-1.64406177216847
30
0
41
1
10
32.0904274797493
20
-1.57357732465496
30
0
41
1
10
31.5784279620966
20
-1.42250235940992
30
0
41
1
10
31.4204152236818
20
-1.36915957320281
30
0
41
1
10
31.2619999788138
20
-1.30963677250907
30
0
0
SPLINE
5
F7
100
AcDbEntity
8
1
62
256
6
ByLayer
370
13
48
1
60
0
100
AcDbSpline
70
4
71
3
72
28
73
24
40
0
40
0
40
0
40
0
40
0.0124238078070936
40
0.0124238078070936
40
0.121283615376879
40
0.121283615376879
40
0.339003230516443
40
0.339003230516443
40
0.393433134301333
40
0.393433134301333
40
0.447863038086224
40
0.447863038086224
40
0.556722845656
40
0.556722845656
40
0.665582653225775
40
0.665582653225775
40
0.720012557010663
40
0.720012557010663
40
0.774442460795551
40
0.774442460795551
40
0.992162075935083
40
0.992162075935083
40
1
40
1
40
1
40
1
41
1
10
31.2619999789052
20
-1.3096367725434
30
0
41
1
10
31.2415914119756
20
-1.30196847608141
30
0
41
1
10
31.2211761646237
20
-1.29419760956944
30
0
41
1
10
31.0218225872936
20
-1.21735203557137
30
0
41
1
10
30.8441367387302
20
-1.14133958640599
30
0
41
1
10
30.3125051406208
20
-0.895965857421828
30
0
41
1
10
29.9599454011749
20
-0.709106909567993
30
0
41
1
10
29.514070358226
20
-0.45735241238728
30
0
41
1
10
29.4243891294478
20
-0.405996409763816
30
0
41
1
10
29.2455837479847
20
-0.302623451155938
30
0
41
1
10
29.1564800687666
20
-0.250619822268334
30
0
41
1
10
28.8897722199935
20
-0.0941686651981968
30
0
41
1
10
28.7127657517145
20
0.0107043835240859
30
0
41
1
10
28.3589971458657
20
0.219344166322571
30
0
41
1
10
28.1821535976728
20
0.322958856206839
30
0
41
1
10
27.915664971386
20
0.475091629770645
30
0
41
1
10
27.8266170541361
20
0.525226408244151
30
0
41
1
10
27.6480701721537
20
0.624332865183504
30
0
41
1
10
27.5583363197066
20
0.673370267465714
30
0
41
1
10
27.111637852768
20
0.912152657091582
30
0
41
1
10
26.7588402068599
20
1.08348693468946
30
0
41
1
10
26.3917602413576
20
1.23230365550393
30
0
41
1
10
26.3790022688259
20
1.23743857267573
30
0
41
1
10
26.3662417794276
20
1.24253688551622
30
0
0
SPLINE
5
F8
100
AcDbEntity
8
1
62
256
6
ByLayer
370
18
48
1
60
0
100
AcDbSpline
70
4
71
3
72
14
73
10
40
0
40
0
40
0
40
0
40
0.323830648478112
40
0.323830648478112
40
0.622888692979057
40
0.622888692979057
40
0.92194673748
40
0.92194673748
40
1
40
1
40
1
40
1
41
1
10
15.2411163451843
20
-1.68410807224223
30
0
41
1
10
15.0492554272635
20
-1.68431653204667
30
0
41
1
10
14.85725849905
20
-1.67318369330783
30
0
41
1
10
14.4856838074526
20
-1.63011110510433
30
0
41
1
10
14.3056548809466
20
-1.59944590960896
30
0
41
1
10
13.9489720485976
20
-1.52041831084156
30
0
41
1
10
13.7715635948031
20
-1.47195525575933
30
0
41
1
10
13.5480659786714
20
-1.40079695508325
30
0
41
1
10
13.5018204041363
20
-1.38552712808507
30
0
41
1
10
13.4555732790884
20
-1.36972680534942
30
0
0
SPLINE
5
F9
100
AcDbEntity
8
1
62
256
6
ByLayer
370
13
48
1
60
0
100
AcDbSpline
70
4
71
3
72
22
73
18
40
0
40
0
40
0
40
0
40
0.0758807621037195
40
0.0758807621037195
40
0.178560677425527
40
0.178560677425527
40
0.383920508069144
40
0.383920508069144
40
0.486600423390954
40
0.486600423390954
40
0.589280338712764
40
0.589280338712764
40
0.794640169356383
40
0.794640169356383
40
0.897320084678192
40
0.897320084678192
40
1
40
1
40
1
40
1
41
1
10
13.4555732796157
20
-1.36972680552958
30
0
41
1
10
13.3246263406639
20
-1.32498880518878
30
0
41
1
10
13.1936669709828
20
-1.27599772907553
30
0
41
1
10
12.8846779415234
20
-1.15130426077533
30
0
41
1
10
12.7061704548209
20
-1.07204742671877
30
0
41
1
10
12.1680760096376
20
-0.815629268514158
30
0
41
1
10
11.8143087450538
20
-0.624545428632274
30
0
41
1
10
11.2825240422455
20
-0.322006627043777
30
0
41
1
10
11.10498402893
20
-0.218650646907832
30
0
41
1
10
10.7477161799899
20
-0.0095822802922214
30
0
41
1
10
10.5676759738264
20
0.0963980800680133
30
0
41
1
10
10.0330308634103
20
0.408221165734403
30
0
41
1
10
9.67972616627486
20
0.608601585536888
30
0
41
1
10
9.14641661521077
20
0.884926837774174
30
0
41
1
10
8.96751995142458
20
0.973026785004834
30
0
41
1
10
8.60858800073152
20
1.13674200140071
30
0
41
1
10
8.42953282708567
20
1.21192134164033
30
0
41
1
10
8.25024785565253
20
1.27970543947714
30
0
0
SPLINE
5
FA
100
AcDbEntity
8
1
62
256
6
ByLayer
370
18
48
1
60
0
100
AcDbSpline
70
4
71
3
72
8
73
4
40
0
40
0
40
0
40
0
40
1
40
1
40
1
40
1
41
1
10
42.429468433856
20
1.73210911364197
30
0
41
1
10
42.4047140337562
20
1.7586439401102
30
0
41
1
10
42.382979593139
20
1.77754723405735
30
0
41
1
10
42.3640834478306
20
1.78859003192363
30
0
0
SPLINE
5
FB
100
AcDbEntity
8
1
62
256
6
ByLayer
370
13
48
1
60
0
100
AcDbSpline
70
4
71
3
72
8
73
4
40
0
40
0
40
0
40
0
40
1
40
1
40
1
40
1
41
1
10
8.25024785565253
20
1.27970543947714
30
0
41
1
10
8.22864947454931
20
1.28459660607024
30
0
41
1
10
8.20745410705587
20
1.29140424672701
30
0
41
1
10
8.18669050754886
20
1.30016992486941
30
0
0
SPLINE
5
FC
100
AcDbEntity
8
1
62
256
6
ByLayer
370
13
48
1
60
0
100
AcDbSpline
70
4
71
3
72
8
73
4
40
0
40
0
40
0
40
0
40
1
40
1
40
1
40
1
41
1
10
8.14102814255926
20
1.32317928261779
30
0
41
1
10
8.13285430710397
20
1.32801833045642
30
0
41
1
10
8.12486603678678
20
1.33316940614719
30
0
41
1
10
8.11713353225474
20
1.33860770030674
30
0
0
SPLINE
5
FD
100
AcDbEntity
8
1
62
256
6
ByLayer
370
13
48
1
60
0
100
AcDbSpline
70
4
71
3
72
8
73
4
40
0
40
0
40
0
40
0
40
1
40
1
40
1
40
1
41
1
10
8.24963894858101
20
-1.67889043489811
30
0
41
1
10
8.24960379031978
20
-1.6788402307667
30
0
41
1
10
8.24957650014267
20
-1.67151009483899
30
0
41
1
10
8.24955886078186
20
-1.65692004700904
30
0
0
SPLINE
5
FE
100
AcDbEntity
8
1
62
256
6
ByLayer
370
13
48
1
60
0
100
AcDbSpline
70
4
71
3
72
17
73
13
40
0
40
0
40
0
40
0
40
0.307522849497896
40
0.307522849497896
40
0.461284274246843
40
0.461284274246843
40
0.615045698995791
40
0.768807123744739
40
0.768807123744739
40
0.922568548493686
40
0.922568548493686
40
1
40
1
40
1
40
1
41
1
10
8.25024785565253
20
1.27970543947714
30
0
41
1
10
8.25020462694033
20
1.35884606467616
30
0
41
1
10
8.25014500126588
20
1.42681302435261
30
0
41
1
10
8.25004434565491
20
1.51223226758535
30
0
41
1
10
8.25000886222426
20
1.53790970836286
30
0
41
1
10
8.24993788582327
20
1.58261580437107
30
0
41
1
10
8.24986654191457
20
1.62100797008296
30
0
41
1
10
8.24979864386526
20
1.64696386721559
30
0
41
1
10
8.24973444641557
20
1.66657776323038
30
0
41
1
10
8.24970410489132
20
1.67319679378309
30
0
41
1
10
8.24966361334464
20
1.67809095540687
30
0
41
1
10
8.24965087604346
20
1.67890361499406
30
0
41
1
10
8.24963903102955
20
1.67889053926956
30
0
0
SPLINE
5
FF
100
AcDbEntity
8
1
62
256
6
ByLayer
370
18
48
1
60
0
100
AcDbSpline
70
4
71
3
72
8
73
4
40
0
40
0
40
0
40
0
40
1
40
1
40
1
40
1
41
1
10
42.9096233435432
20
0.562720479337258
30
0
41
1
10
42.9357847778064
20
0.415879359026604
30
0
41
1
10
42.9588656308269
20
0.26905429394364
30
0
41
1
10
42.9788421159374
20
0.122245408058575
30
0
0
SPLINE
5
100
100
AcDbEntity
8
1
62
256
6
ByLayer
370
18
48
1
60
0
100
AcDbSpline
70
4
71
3
72
15
73
11
40
0
40
0
40
0
40
0
40
0.331935834285707
40
0.331935834285707
40
0.663871668571414
40
0.663871668571414
40
0.829839585714267
40
0.829839585714267
40
0.995807502857121
40
1
40
1
40
1
40
1
41
1
10
8.0509499690256
20
1.40651472575348
30
0
41
1
10
8.05089431864627
20
1.4859593257458
30
0
41
1
10
8.05082345082786
20
1.55357730017556
30
0
41
1
10
8.05066609135781
20
1.66475946440471
30
0
41
1
10
8.05058182000369
20
1.70676909616145
30
0
41
1
10
8.05045950642256
20
1.74942540903234
30
0
41
1
10
8.05041914059001
20
1.76027913555441
30
0
41
1
10
8.05034277908581
20
1.77471997398376
30
0
41
1
10
8.05030586270496
20
1.77845139419824
30
0
41
1
10
8.05027193304235
20
1.77851362619606
30
0
41
1
10
8.05027109888931
20
1.77851293152969
30
0
0
SPLINE
5
101
100
AcDbEntity
8
1
62
256
6
ByLayer
370
18
48
1
60
0
100
AcDbSpline
70
4
71
3
72
13
73
9
40
0
40
0
40
0
40
0
40
0.233010190471347
40
0.39192890673854
40
0.503421396492701
40
0.614813591361588
40
0.771330861687476
40
1
40
1
40
1
40
1
41
1
10
15.219800131188
20
-1.68401811346604
30
0
41
1
10
15.4150034032264
20
-1.68420651057244
30
0
41
1
10
15.7433740857578
20
-1.68449475609506
30
0
41
1
10
16.1655518776386
20
-1.68375600225741
30
0
41
1
10
16.4853618885306
20
-1.68451463564873
30
0
41
1
10
16.8034592476847
20
-1.68484398272028
30
0
41
1
10
17.2197905766723
20
-1.68504484694478
30
0
41
1
10
17.5427327793882
20
-1.68454625452796
30
0
41
1
10
17.7344496131065
20
-1.68406012571106
30
0
0
SPLINE
5
102
100
AcDbEntity
8
1
62
256
6
ByLayer
370
18
48
1
60
0
100
AcDbSpline
70
4
71
1
72
4
73
2
40
0
40
0
40
1
40
1
41
1
10
42.1294870543227
20
-1.70015284921837
30
0
41
1
10
42.362150330335
20
-1.70041417039727
30
0
0
SPLINE
5
103
100
AcDbEntity
8
1
62
256
6
ByLayer
370
18
48
1
60
0
100
AcDbSpline
70
4
71
3
72
13
73
9
40
0
40
0
40
0
40
0
40
0.262204106155849
40
0.43225673402631
40
0.543613742567423
40
0.654633309535114
40
0.800003909847007
40
1
40
1
40
1
40
1
41
1
10
24.2179542008092
20
-1.68947677056309
30
0
41
1
10
24.4378785690234
20
-1.68937858761046
30
0
41
1
10
24.8004717768556
20
-1.68939787189777
30
0
41
1
10
25.2566052207505
20
-1.69047729052909
30
0
41
1
10
25.5858551083181
20
-1.69062114076166
30
0
41
1
10
25.8943976237128
20
-1.68930823750753
30
0
41
1
10
26.2774008736221
20
-1.68992418383837
30
0
41
1
10
26.5671256205827
20
-1.6903474462176
30
0
41
1
10
26.7348837517895
20
-1.69080979634376
30
0
0
SPLINE
5
104
100
AcDbEntity
8
1
62
256
6
ByLayer
370
18
48
1
60
0
100
AcDbSpline
70
4
71
3
72
13
73
9
40
0
40
0
40
0
40
0
40
0.265246543308904
40
0.471158406829557
40
0.617316747261911
40
0.707685205191748
40
0.85629742251123
40
1
40
1
40
1
40
1
41
1
10
35.7365453392619
20
1.69588158856166
30
0
41
1
10
35.5733053222
20
1.69573847429939
30
0
41
1
10
35.2833324248634
20
1.69546496537558
30
0
41
1
10
34.9033546673722
20
1.69667457278416
30
0
41
1
10
34.631046673839
20
1.6955409893977
30
0
41
1
10
34.3939774298381
20
1.69527367828635
30
0
41
1
10
34.1584985970258
20
1.69558526089241
30
0
41
1
10
33.9785705410853
20
1.69560059480935
30
0
41
1
10
33.8901209649986
20
1.69558451760403
30
0
0
SPLINE
5
105
100
AcDbEntity
8
1
62
256
6
ByLayer
370
18
48
1
60
0
100
AcDbSpline
70
4
71
3
72
12
73
8
40
0
40
0
40
0
40
0
40
0.321887934928575
40
0.542003887645638
40
0.698472036437196
40
0.855077537932643
40
1
40
1
40
1
40
1
41
1
10
17.7361705382285
20
1.68406462699048
30
0
41
1
10
17.5440415742444
20
1.68454755876081
30
0
41
1
10
17.2205289288679
20
1.68504214023926
30
0
41
1
10
16.8036244124805
20
1.68484458146514
30
0
41
1
10
16.4853700627014
20
1.68451464235341
30
0
41
1
10
16.2122532191424
20
1.6838668044125
30
0
41
1
10
16.0322744105877
20
1.68402894045721
30
0
41
1
10
15.9457719339797
20
1.68411572288437
30
0
0
SPLINE
5
106
100
AcDbEntity
8
1
62
256
6
ByLayer
370
18
48
1
60
0
100
AcDbSpline
70
4
71
3
72
13
73
9
40
0
40
0
40
0
40
0
40
0.271461431431009
40
0.469001407426762
40
0.620057483730359
40
0.73265676816835
40
0.871623115849576
40
1
40
1
40
1
40
1
41
1
10
26.7331754458184
20
1.69080542002394
30
0
41
1
10
26.5658264513793
20
1.69034358047074
30
0
41
1
10
26.276671690641
20
1.6899145033349
30
0
41
1
10
25.8942257421267
20
1.68932142167313
30
0
41
1
10
25.6098578175325
20
1.69048573476576
30
0
41
1
10
25.3615460162634
20
1.69065943413591
30
0
41
1
10
25.1273403125234
20
1.68994585256127
30
0
41
1
10
24.9624495427783
20
1.68973094956655
30
0
41
1
10
24.8832725505854
20
1.68965935635038
30
0
0
SPLINE
5
107
100
AcDbEntity
8
1
62
256
6
ByLayer
370
18
48
1
60
0
100
AcDbSpline
70
4
71
2
72
6
73
3
40
0
40
0
40
0
40
1
40
1
40
1
41
1
10
8.7036191101123
20
1.67872877314127
30
0
41
1
10
8.47673008463752
20
1.67840548844771
30
0
41
1
10
8.24968075027013
20
1.67895790142177
30
0
0
SPLINE
5
108
100
AcDbEntity
8
1
62
256
6
ByLayer
370
18
48
1
60
0
100
AcDbSpline
70
4
71
3
72
13
73
9
40
0
40
0
40
0
40
0
40
0.222646300448712
40
0.382062415295956
40
0.482924845669531
40
0.604814048191732
40
0.777307141010109
40
1
40
1
40
1
40
1
41
1
10
33.2188777675846
20
-1.6951970595523
30
0
41
1
10
33.4055500139222
20
-1.69541465769868
30
0
41
1
10
33.7259119612713
20
-1.69558901360227
30
0
41
1
10
34.1309495430835
20
-1.69566213524513
30
0
41
1
10
34.4514728808959
20
-1.69511970284438
30
0
41
1
10
34.7829669735875
20
-1.69639769846378
30
0
41
1
10
35.2166639849604
20
-1.69574309488385
30
0
41
1
10
35.5480839329707
20
-1.69588634691675
30
0
41
1
10
35.7348366456819
20
-1.69587901709036
30
0
0
SPLINE
5
109
100
AcDbEntity
8
1
62
256
6
ByLayer
370
18
48
1
60
0
100
AcDbSpline
70
4
71
2
72
6
73
3
40
0
40
0
40
0
40
1
40
1
40
1
41
1
10
8.24968070072026
20
-1.67895764532301
30
0
41
1
10
8.47744506540027
20
-1.67840369894955
30
0
41
1
10
8.70504947185111
20
-1.67872796973811
30
0
0
LINE
5
7B
100
AcDbEntity
8
SK1
62
256
6
ByLayer
370
13
48
1
60
0
100
AcDbLine
10
-35.75
20
2.276913
30
0
11
-35.75
21
1.542554
31
0
39
0
210
0
220
0
230
1
0
LINE
5
7D
100
AcDbEntity
8
SK1
62
256
6
ByLayer
370
18
48
1
60
0
100
AcDbLine
10
-36
20
2.065
30
0
11
-36
21
2.044832
31
0
39
0
210
0
220
0
230
1
0
LINE
5
7E
100
AcDbEntity
8
SK1
62
256
6
ByLayer
370
18
48
1
60
0
100
AcDbLine
10
-35.65
20
1.709907
30
0
11
-35.65
21
2.34632
31
0
39
0
210
0
220
0
230
1
0
LINE
5
7F
100
AcDbEntity
8
SK1
62
256
6
ByLayer
370
18
48
1
60
0
100
AcDbLine
10
-36
20
1.310509
30
0
11
-36
21
-2.065
31
0
39
0
210
0
220
0
230
1
0
LINE
5
80
100
AcDbEntity
8
SK1
62
256
6
ByLayer
370
18
48
1
60
0
100
AcDbLine
10
-35.065
20
3
30
0
11
-35.065
21
-3
31
0
39
0
210
0
220
0
230
1
0
LINE
5
81
100
AcDbEntity
8
SK1
62
256
6
ByLayer
370
18
48
1
60
0
100
AcDbLine
10
-36
20
2.044832
30
0
11
-36
21
1.310484
31
0
39
0
210
0
220
0
230
1
0
LINE
5
82
100
AcDbEntity
8
SK1
62
256
6
ByLayer
370
18
48
1
60
0
100
AcDbLine
10
0
20
-3
30
0
11
0
21
3
31
0
39
0
210
0
220
0
230
1
0
LINE
5
83
100
AcDbEntity
8
1
62
256
6
ByLayer
370
13
48
1
60
0
100
AcDbLine
10
0.777783
20
2.387227
30
0
11
0.777783
21
-2.387227
31
0
39
0
210
0
220
0
230
1
0
LINE
5
84
100
AcDbEntity
8
1
62
256
6
ByLayer
370
18
48
1
60
0
100
AcDbLine
10
42.11
20
-1.236036
30
0
11
42.890417
21
-0.176781
31
0
39
0
210
0
220
0
230
1
0
LINE
5
85
100
AcDbEntity
8
1
62
256
6
ByLayer
370
18
48
1
60
0
100
AcDbLine
10
0
20
-3
30
0
11
0
21
3
31
0
39
0
210
0
220
0
230
1
0
LINE
5
86
100
AcDbEntity
8
1
62
256
6
ByLayer
370
13
48
1
60
0
100
AcDbLine
10
1.556066
20
1.774454
30
0
11
1.556066
21
-1.774454
31
0
39
0
210
0
220
0
230
1
0
LINE
5
87
100
AcDbEntity
8
1
62
256
6
ByLayer
370
13
48
1
60
0
100
AcDbLine
10
42.25567
20
0.460418
30
0
11
42.984488
21
-0.000942
31
0
39
0
210
0
220
0
230
1
0
LINE
5
88
100
AcDbEntity
8
1
62
256
6
ByLayer
370
13
48
1
60
0
100
AcDbLine
10
42.324874
20
0.536223
30
0
11
42.978842
21
0.122245
31
0
39
0
210
0
220
0
230
1
0
LINE
5
89
100
AcDbEntity
8
1
62
256
6
ByLayer
370
13
48
1
60
0
100
AcDbLine
10
8.244513
20
1.274165
30
0
11
8.250248
21
1.279705
31
0
39
0
210
0
220
0
230
1
0
LINE
5
8A
100
AcDbEntity
8
80
62
256
6
ByLayer
370
18
48
1
60
0
100
AcDbLine
10
0
20
0
30
0
11
-5
21
0
31
0
39
0
210
0
220
0
230
1
0
LINE
5
8B
100
AcDbEntity
8
4
62
256
6
ByLayer
370
18
48
0.05
60
0
100
AcDbLine
10
43
20
0
30
0
11
0
21
0
31
0
39
0
210
0
220
0
230
1
0
LINE
5
8D
100
AcDbEntity
8
SK4
62
256
6
ByLayer
370
18
48
0.05
60
0
100
AcDbLine
10
48
20
0
30
0
11
-41
21
0
31
0
39
0
210
0
220
0
230
1
0
LINE
5
8F
100
AcDbEntity
8
SK1
62
256
6
ByLayer
370
18
48
1
60
0
100
AcDbLine
10
-35.065
20
-3
30
0
11
0
21
-3
31
0
39
0
210
0
220
0
230
1
0
LINE
5
90
100
AcDbEntity
8
SK1
62
256
6
ByLayer
370
18
48
1
60
0
100
AcDbLine
10
0
20
3
30
0
11
-35.065
21
3
31
0
39
0
210
0
220
0
230
1
0
LINE
5
91
100
AcDbEntity
8
SK1
62
256
6
ByLayer
370
18
48
1
60
0
100
AcDbLine
10
-36
20
-2.065
30
0
11
-35.065
21
-3
31
0
39
0
210
0
220
0
230
1
0
LINE
5
92
100
AcDbEntity
8
SK1
62
256
6
ByLayer
370
18
48
1
60
0
100
AcDbLine
10
-35.065
20
3
30
0
11
-36
21
2.065
31
0
39
0
210
0
220
0
230
1
0
LINE
5
93
100
AcDbEntity
8
1
62
256
6
ByLayer
370
18
48
1
60
0
100
AcDbLine
10
1.556066
20
-1.774454
30
0
11
8.050277
21
-1.778513
31
0
39
0
210
0
220
0
230
1
0
LINE
5
94
100
AcDbEntity
8
1
62
256
6
ByLayer
370
18
48
1
60
0
100
AcDbLine
10
14.634181
20
-1.782628
30
0
11
15.042425
21
-1.782883
31
0
39
0
210
0
220
0
230
1
0
LINE
5
95
100
AcDbEntity
8
1
62
256
6
ByLayer
370
18
48
1
60
0
100
AcDbLine
10
23.636994
20
-1.788255
30
0
11
24.042333
21
-1.788508
31
0
39
0
210
0
220
0
230
1
0
LINE
5
96
100
AcDbEntity
8
1
62
256
6
ByLayer
370
18
48
1
60
0
100
AcDbLine
10
32.638862
20
-1.793881
30
0
11
33.041308
21
-1.794132
31
0
39
0
210
0
220
0
230
1
0
LINE
5
97
100
AcDbEntity
8
1
62
256
6
ByLayer
370
18
48
1
60
0
100
AcDbLine
10
41.641068
20
-1.799507
30
0
11
42.042432
21
-1.799758
31
0
39
0
210
0
220
0
230
1
0
LINE
5
98
100
AcDbEntity
8
1
62
256
6
ByLayer
370
18
48
1
60
0
100
AcDbLine
10
42.042422
20
1.799758
30
0
11
41.641068
21
1.799507
31
0
39
0
210
0
220
0
230
1
0
LINE
5
99
100
AcDbEntity
8
1
62
256
6
ByLayer
370
18
48
1
60
0
100
AcDbLine
10
33.041497
20
1.794133
30
0
11
32.638862
21
1.793881
31
0
39
0
210
0
220
0
230
1
0
LINE
5
9A
100
AcDbEntity
8
1
62
256
6
ByLayer
370
18
48
1
60
0
100
AcDbLine
10
24.042069
20
1.788508
30
0
11
23.636994
21
1.788255
31
0
39
0
210
0
220
0
230
1
0
LINE
5
9B
100
AcDbEntity
8
1
62
256
6
ByLayer
370
18
48
1
60
0
100
AcDbLine
10
15.042442
20
1.782883
30
0
11
14.634181
21
1.782628
31
0
39
0
210
0
220
0
230
1
0
LINE
5
9C
100
AcDbEntity
8
1
62
256
6
ByLayer
370
18
48
1
60
0
100
AcDbLine
10
8.050277
20
1.778513
30
0
11
1.556066
21
1.774454
31
0
39
0
210
0
220
0
230
1
0
LINE
5
9D
100
AcDbEntity
8
81
62
256
6
ByLayer
370
18
48
1
60
0
100
AcDbLine
10
43
20
0
30
0
11
48
21
0
31
0
39
0
210
0
220
0
230
1
0
LINE
5
9E
100
AcDbEntity
8
SK2
62
256
6
ByLayer
370
13
48
1
60
0
100
AcDbLine
10
-44.625163
20
32.117107
30
0
11
-44.625163
21
-11.75
31
0
39
0
210
0
220
0
230
1
0
LINE
5
A0
100
AcDbEntity
8
SK2
62
256
6
ByLayer
370
13
48
1
60
0
100
AcDbLine
10
-37.5875
20
3
30
0
11
-46.625163
21
3
31
0
39
0
210
0
220
0
230
1
0
LINE
5
A1
100
AcDbEntity
8
SK2
62
256
6
ByLayer
370
13
48
1
60
0
100
AcDbLine
10
-37.5875
20
-3
30
0
11
-46.625163
21
-3
31
0
39
0
210
0
220
0
230
1
0
LINE
5
A2
100
AcDbEntity
8
1
62
256
6
ByLayer
370
18
48
1
60
1
100
AcDbLine
10
-44.625163
20
3
30
0
11
-45.085946
21
6.499998
31
0
39
0
210
0
220
0
230
1
0
LINE
5
A3
100
AcDbEntity
8
1
62
256
6
ByLayer
370
18
48
1
60
1
100
AcDbLine
10
-45.085946
20
6.499998
30
0
11
-44.164379
21
6.500002
31
0
39
0
210
0
220
0
230
1
0
LINE
5
A4
100
AcDbEntity
8
1
62
256
6
ByLayer
370
18
48
1
60
1
100
AcDbLine
10
-44.164379
20
6.500002
30
0
11
-44.625163
21
3
31
0
39
0
210
0
220
0
230
1
0
LINE
5
A5
100
AcDbEntity
8
1
62
256
6
ByLayer
370
18
48
1
60
1
100
AcDbLine
10
-44.625163
20
-3
30
0
11
-44.164379
21
-6.499998
31
0
39
0
210
0
220
0
230
1
0
LINE
5
A6
100
AcDbEntity
8
1
62
256
6
ByLayer
370
18
48
1
60
1
100
AcDbLine
10
-44.164379
20
-6.499998
30
0
11
-45.085946
21
-6.500002
31
0
39
0
210
0
220
0
230
1
0
LINE
5
A7
100
AcDbEntity
8
1
62
256
6
ByLayer
370
18
48
1
60
1
100
AcDbLine
10
-45.085946
20
-6.500002
30
0
11
-44.625163
21
-3
31
0
39
0
210
0
220
0
230
1
0
LINE
5
A8
100
AcDbEntity
8
2
62
256
6
ByLayer
370
13
48
1
60
0
100
AcDbLine
10
55.083343
20
29.510193
30
0
11
55.083343
21
-10.55
31
0
39
0
210
0
220
0
230
1
0
LINE
5
AA
100
AcDbEntity
8
2
62
256
6
ByLayer
370
13
48
1
60
0
100
AcDbLine
10
44.068
20
1.8
30
0
11
57.083343
21
1.8
31
0
39
0
210
0
220
0
230
1
0
LINE
5
AB
100
AcDbEntity
8
2
62
256
6
ByLayer
370
13
48
1
60
0
100
AcDbLine
10
44.068
20
-1.8
30
0
11
57.083343
21
-1.8
31
0
39
0
210
0
220
0
230
1
0
LINE
5
AC
100
AcDbEntity
8
1
62
256
6
ByLayer
370
18
48
1
60
1
100
AcDbLine
10
55.083343
20
1.8
30
0
11
54.622559
21
5.299998
31
0
39
0
210
0
220
0
230
1
0
LINE
5
AD
100
AcDbEntity
8
1
62
256
6
ByLayer
370
18
48
1
60
1
100
AcDbLine
10
54.622559
20
5.299998
30
0
11
55.544126
21
5.300002
31
0
39
0
210
0
220
0
230
1
0
LINE
5
AE
100
AcDbEntity
8
1
62
256
6
ByLayer
370
18
48
1
60
1
100
AcDbLine
10
55.544126
20
5.300002
30
0
11
55.083343
21
1.8
31
0
39
0
210
0
220
0
230
1
0
LINE
5
AF
100
AcDbEntity
8
1
62
256
6
ByLayer
370
18
48
1
60
1
100
AcDbLine
10
55.083343
20
-1.8
30
0
11
55.544126
21
-5.299998
31
0
39
0
210
0
220
0
230
1
0
LINE
5
B0
100
AcDbEntity
8
1
62
256
6
ByLayer
370
18
48
1
60
1
100
AcDbLine
10
55.544126
20
-5.299998
30
0
11
54.622559
21
-5.300002
31
0
39
0
210
0
220
0
230
1
0
LINE
5
B1
100
AcDbEntity
8
1
62
256
6
ByLayer
370
18
48
1
60
1
100
AcDbLine
10
54.622559
20
-5.300002
30
0
11
55.083343
21
-1.8
31
0
39
0
210
0
220
0
230
1
0
LINE
5
110
100
AcDbEntity
8
1
62
256
6
ByLayer
370
18
48
1
60
1
100
AcDbLine
10
-44.625163
20
3
30
0
11
-45.085946
21
6.499998
31
0
39
0
210
0
220
0
230
1
0
LINE
5
111
100
AcDbEntity
8
1
62
256
6
ByLayer
370
18
48
1
60
1
100
AcDbLine
10
-45.085946
20
6.499998
30
0
11
-44.164379
21
6.500002
31
0
39
0
210
0
220
0
230
1
0
LINE
5
112
100
AcDbEntity
8
1
62
256
6
ByLayer
370
18
48
1
60
1
100
AcDbLine
10
-44.164379
20
6.500002
30
0
11
-44.625163
21
3
31
0
39
0
210
0
220
0
230
1
0
LINE
5
114
100
AcDbEntity
8
1
62
256
6
ByLayer
370
18
48
1
60
1
100
AcDbLine
10
-44.625163
20
-3
30
0
11
-44.164379
21
-6.499998
31
0
39
0
210
0
220
0
230
1
0
LINE
5
115
100
AcDbEntity
8
1
62
256
6
ByLayer
370
18
48
1
60
1
100
AcDbLine
10
-44.164379
20
-6.499998
30
0
11
-45.085946
21
-6.500002
31
0
39
0
210
0
220
0
230
1
0
LINE
5
116
100
AcDbEntity
8
1
62
256
6
ByLayer
370
18
48
1
60
1
100
AcDbLine
10
-45.085946
20
-6.500002
30
0
11
-44.625163
21
-3
31
0
39
0
210
0
220
0
230
1
0
LINE
5
11A
100
AcDbEntity
8
1
62
256
6
ByLayer
370
18
48
1
60
1
100
AcDbLine
10
55.083343
20
1.8
30
0
11
54.622559
21
5.299998
31
0
39
0
210
0
220
0
230
1
0
LINE
5
11B
100
AcDbEntity
8
1
62
256
6
ByLayer
370
18
48
1
60
1
100
AcDbLine
10
54.622559
20
5.299998
30
0
11
55.544126
21
5.300002
31
0
39
0
210
0
220
0
230
1
0
LINE
5
11C
100
AcDbEntity
8
1
62
256
6
ByLayer
370
18
48
1
60
1
100
AcDbLine
10
55.544126
20
5.300002
30
0
11
55.083343
21
1.8
31
0
39
0
210
0
220
0
230
1
0
LINE
5
11E
100
AcDbEntity
8
1
62
256
6
ByLayer
370
18
48
1
60
1
100
AcDbLine
10
55.083343
20
-1.8
30
0
11
55.544126
21
-5.299998
31
0
39
0
210
0
220
0
230
1
0
LINE
5
11F
100
AcDbEntity
8
1
62
256
6
ByLayer
370
18
48
1
60
1
100
AcDbLine
10
55.544126
20
-5.299998
30
0
11
54.622559
21
-5.300002
31
0
39
0
210
0
220
0
230
1
0
LINE
5
120
100
AcDbEntity
8
1
62
256
6
ByLayer
370
18
48
1
60
1
100
AcDbLine
10
54.622559
20
-5.300002
30
0
11
55.083343
21
-1.8
31
0
39
0
210
0
220
0
230
1
0
MTEXT
5
10A
100
AcDbEntity
8
SK6
62
256
6
ByLayer
370
13
48
1
60
0
100
AcDbMText
10
-25.645193
20
34.340328
30
0
210
0
220
0
230
1
1
\W0.7670;462.1-0360-027A1-XM X2BM
40
3.5
41
0
44
1.084337
50
0
71
7
72
5
7
iso_b_vert
0
MTEXT
5
10E
100
AcDbEntity
8
SK2
62
256
6
ByLayer
370
18
48
1
60
0
100
AcDbMText
10
-46.189796
20
16.409024
30
0
210
0
220
0
230
1
1
%%c
40
3.5
41
0
44
1.084337
50
90
71
7
72
5
7
iso_b_vert
0
MTEXT
5
10F
100
AcDbEntity
8
SK2
62
256
6
ByLayer
370
18
48
1
60
0
100
AcDbMText
10
-46.189796
20
21.63168
30
0
210
0
220
0
230
1
1
\W0.7317;6,000
40
3.5
41
0
44
1.084337
50
90
71
7
72
5
7
iso_b_vert
0
MTEXT
5
118
100
AcDbEntity
8
2
62
256
6
ByLayer
370
18
48
1
60
0
100
AcDbMText
10
53.518709
20
13.80211
30
0
210
0
220
0
230
1
1
%%c
40
3.5
41
0
44
1.084337
50
90
71
7
72
5
7
iso_b_vert
0
MTEXT
5
119
100
AcDbEntity
8
2
62
256
6
ByLayer
370
18
48
1
60
0
100
AcDbMText
10
53.518709
20
19.024766
30
0
210
0
220
0
230
1
1
\W0.7317;3,600
40
3.5
41
0
44
1.084337
50
90
71
7
72
5
7
iso_b_vert
0
HATCH
5
113
100
AcDbEntity
8
SK2
62
256
6
ByLayer
370
13
48
1
60
0
100
AcDbHatch
10
0
20
0
30
0
210
0
220
0
230
1
2
ANSI31
70
0
71
0
91
1
92
5
93
3
72
1
10
-44.6251625675374
20
3
11
-45.0859463090902
21
6.49999830744682
72
1
10
-45.0859463090902
20
6.49999830744682
11
-44.1643788259847
21
6.50000169255318
72
1
10
-44.1643788259847
20
6.50000169255318
11
-44.6251625675374
21
3
97
0
75
0
76
1
52
0
41
0.0062
77
0
78
1
53
45
43
0
44
0
45
-0.0139193969876572
46
0.0139193969876572
79
0
47
0
98
1
10
0
20
0
0
HATCH
5
117
100
AcDbEntity
8
SK2
62
256
6
ByLayer
370
13
48
1
60
0
100
AcDbHatch
10
0
20
0
30
0
210
0
220
0
230
1
2
ANSI31
70
0
71
0
91
1
92
5
93
3
72
1
10
-44.6251625675374
20
-3
11
-44.1643788259847
21
-6.49999830744682
72
1
10
-44.1643788259847
20
-6.49999830744682
11
-45.0859463090902
21
-6.50000169255318
72
1
10
-45.0859463090902
20
-6.50000169255318
11
-44.6251625675374
21
-3
97
0
75
0
76
1
52
0
41
0.0062
77
0
78
1
53
45
43
0
44
0
45
-0.0139193969876572
46
0.0139193969876572
79
0
47
0
98
1
10
0
20
0
0
HATCH
5
11D
100
AcDbEntity
8
2
62
256
6
ByLayer
370
13
48
1
60
0
100
AcDbHatch
10
0
20
0
30
0
210
0
220
0
230
1
2
ANSI31
70
0
71
0
91
1
92
5
93
3
72
1
10
55.083342615295
20
1.80000000000001
11
54.6225588737423
21
5.29999830744683
72
1
10
54.6225588737423
20
5.29999830744683
11
55.5441263568478
21
5.3000016925532
72
1
10
55.5441263568478
20
5.3000016925532
11
55.083342615295
21
1.80000000000001
97
0
75
0
76
1
52
0
41
0.0062
77
0
78
1
53
45
43
0
44
0
45
-0.0139193969876572
46
0.0139193969876572
79
0
47
0
98
1
10
0
20
0
0
HATCH
5
121
100
AcDbEntity
8
2
62
256
6
ByLayer
370
13
48
1
60
0
100
AcDbHatch
10
0
20
0
30
0
210
0
220
0
230
1
2
ANSI31
70
0
71
0
91
1
92
5
93
3
72
1
10
55.083342615295
20
-1.79999999999998
11
55.5441263568478
21
-5.2999983074468
72
1
10
55.5441263568478
20
-5.2999983074468
11
54.6225588737423
21
-5.30000169255317
72
1
10
54.6225588737423
20
-5.30000169255317
11
55.083342615295
21
-1.79999999999998
97
0
75
0
76
1
52
0
41
0.0062
77
0
78
1
53
45
43
0
44
0
45
-0.0139193969876572
46
0.0139193969876572
79
0
47
0
98
1
10
0
20
0
0
DIMENSION
5
123
100
AcDbEntity
8
SK2
62
256
6
ByLayer
370
13
48
1
60
0
100
AcDbDimension
2
_U0
10
42.4805
20
-12.013398
30
0
11
21.24025
21
-12.013398
31
0
70
32
71
1
72
1
41
1
210
0
220
0
230
1
3
Standard
100
AcDbAlignedDimension
13
0
23
0
33
0
14
42.4805
24
-1.8
34
0
50
0
100
AcDbRotatedDimension
1001
ACAD
1000
DSTYLE
1002
{
1070
   371
1070
    13
1070
   372
1070
    13
1070
   170
1070
     0
1070
   144
1040
1.0
1070
   277
1070
     2
1070
   278
1070
    44
1070
   146
1040
1.0
1070
   345
1005
16
1070
   347
1005
16
1070
   346
1005
16
1070
   344
1005
0
1070
   343
1005
0
1070
   172
1070
     1
1070
    76
1070
     0
1070
    75
1070
     0
1070
   282
1070
     0
1070
   281
1070
     0
1070
    71
1070
     0
1070
    74
1070
     0
1070
   279
1070
     0
1070
   173
1070
     1
1070
   340
1005
10B
1070
   271
1070
     2
1070
   272
1070
     2
1070
    77
1070
     1
1070
    73
1070
     1
1070
   171
1070
     3
1070
   274
1070
     4
1070
   177
1070
    35
1070
   176
1070
    35
1070
   178
1070
    35
1070
    48
1040
-0.1
1070
    41
1040
3.5
1070
   147
1040
1.75
1070
    42
1040
1.5875
1070
    44
1040
2.0
1070
   140
1040
3.5
1002
}
1001
ACAD_DSTYLE_DIM_LINETYPE
1070
   380
1005
16
1001
ACAD_DSTYLE_DIM_EXT1_LINETYPE
1070
   381
1005
16
1001
ACAD_DSTYLE_DIM_EXT2_LINETYPE
1070
   382
1005
16
0
DIMENSION
5
13C
100
AcDbEntity
8
SK2
62
256
6
ByLayer
370
13
48
1
60
0
100
AcDbDimension
2
_U1
10
43
20
-31.692985
30
0
11
3.5
21
-31.692985
31
0
70
32
71
1
72
1
41
1
210
0
220
0
230
1
3
Standard
100
AcDbAlignedDimension
13
-36
23
-3
33
0
14
43
24
0
34
0
50
0
100
AcDbRotatedDimension
1001
ACAD
1000
DSTYLE
1002
{
1070
   371
1070
    13
1070
   372
1070
    13
1070
   170
1070
     0
1070
   144
1040
1.0
1070
   277
1070
     2
1070
   278
1070
    44
1070
   146
1040
1.0
1070
   345
1005
16
1070
   347
1005
16
1070
   346
1005
16
1070
   344
1005
0
1070
   343
1005
0
1070
   172
1070
     1
1070
    76
1070
     0
1070
    75
1070
     0
1070
   282
1070
     0
1070
   281
1070
     0
1070
    71
1070
     0
1070
    74
1070
     0
1070
   279
1070
     0
1070
   173
1070
     1
1070
   340
1005
10B
1070
   271
1070
     2
1070
   272
1070
     2
1070
    77
1070
     1
1070
    73
1070
     1
1070
   171
1070
     3
1070
   274
1070
     4
1070
   177
1070
    35
1070
   176
1070
    35
1070
   178
1070
    35
1070
    48
1040
-0.1
1070
    41
1040
3.5
1070
   147
1040
1.75
1070
    42
1040
1.5875
1070
    44
1040
2.0
1070
   140
1040
3.5
1002
}
1001
ACAD_DSTYLE_DIM_LINETYPE
1070
   380
1005
16
1001
ACAD_DSTYLE_DIM_EXT1_LINETYPE
1070
   381
1005
16
1001
ACAD_DSTYLE_DIM_EXT2_LINETYPE
1070
   382
1005
16
0
DIMENSION
5
154
100
AcDbEntity
8
SK2
62
256
6
ByLayer
370
13
48
1
60
0
100
AcDbDimension
2
_U2
10
43
20
13.409119
30
0
11
28.46
21
13.409119
31
0
70
32
71
1
72
1
41
1
210
0
220
0
230
1
3
Standard
100
AcDbAlignedDimension
13
13.92
23
1.8
33
0
14
43
24
0
34
0
50
0
100
AcDbRotatedDimension
1001
ACAD
1000
DSTYLE
1002
{
1070
   371
1070
    13
1070
   372
1070
    13
1070
   170
1070
     0
1070
   144
1040
1.0
1070
   277
1070
     2
1070
   278
1070
    44
1070
   146
1040
1.0
1070
   345
1005
16
1070
   347
1005
16
1070
   346
1005
16
1070
   344
1005
0
1070
   343
1005
0
1070
   172
1070
     1
1070
    76
1070
     0
1070
    75
1070
     0
1070
   282
1070
     0
1070
   281
1070
     0
1070
    71
1070
     0
1070
    74
1070
     0
1070
   279
1070
     0
1070
   173
1070
     1
1070
   340
1005
10B
1070
   271
1070
     2
1070
   272
1070
     2
1070
    77
1070
     1
1070
    73
1070
     1
1070
   171
1070
     3
1070
   274
1070
     4
1070
   177
1070
    35
1070
   176
1070
    35
1070
   178
1070
    35
1070
    48
1040
-0.1
1070
    41
1040
3.5
1070
   147
1040
1.75
1070
    42
1040
1.5875
1070
    44
1040
2.0
1070
   140
1040
3.5
1002
}
1001
ACAD_DSTYLE_DIM_LINETYPE
1070
   380
1005
16
1001
ACAD_DSTYLE_DIM_EXT1_LINETYPE
1070
   381
1005
16
1001
ACAD_DSTYLE_DIM_EXT2_LINETYPE
1070
   382
1005
16
0
DIMENSION
5
16C
100
AcDbEntity
8
SK2
62
256
6
ByLayer
370
13
48
1
60
0
100
AcDbDimension
2
_U3
10
42.4805
20
-14.602503
30
0
11
60.583333
21
-14.602503
31
0
70
32
71
1
72
1
41
1
210
0
220
0
230
1
3
Standard
100
AcDbAlignedDimension
13
43
23
0
33
0
14
42.4805
24
-1.8
34
0
50
0
100
AcDbRotatedDimension
1001
ACAD
1000
DSTYLE
1002
{
1070
   371
1070
    13
1070
   372
1070
    13
1070
   170
1070
     0
1070
   144
1040
1.0
1070
   277
1070
     2
1070
   278
1070
    44
1070
   146
1040
1.0
1070
   345
1005
16
1070
   347
1005
16
1070
   346
1005
16
1070
   344
1005
0
1070
   343
1005
0
1070
   172
1070
     1
1070
    76
1070
     0
1070
    75
1070
     0
1070
   282
1070
     0
1070
   281
1070
     0
1070
    71
1070
     0
1070
    74
1070
     0
1070
   279
1070
     0
1070
   173
1070
     1
1070
   340
1005
10B
1070
   271
1070
     2
1070
   272
1070
     2
1070
    77
1070
     1
1070
    73
1070
     1
1070
   171
1070
     3
1070
   274
1070
     4
1070
   177
1070
    35
1070
   176
1070
    35
1070
   178
1070
    35
1070
    48
1040
-0.1
1070
    41
1040
3.5
1070
   147
1040
1.75
1070
    42
1040
1.5875
1070
    44
1040
2.0
1070
   140
1040
3.5
1002
}
1001
ACAD_DSTYLE_DIM_LINETYPE
1070
   380
1005
16
1001
ACAD_DSTYLE_DIM_EXT1_LINETYPE
1070
   381
1005
16
1001
ACAD_DSTYLE_DIM_EXT2_LINETYPE
1070
   382
1005
16
0
DIMENSION
5
186
100
AcDbEntity
8
SK2
62
256
6
ByLayer
370
13
48
1
60
0
100
AcDbDimension
2
_U4
10
42.4805
20
-21.343428
30
0
11
3.24025
21
-21.343428
31
0
70
32
71
1
72
1
41
1
210
0
220
0
230
1
3
Standard
100
AcDbAlignedDimension
13
-36
23
-3
33
0
14
42.4805
24
-1.8
34
0
50
0
100
AcDbRotatedDimension
1001
ACAD
1000
DSTYLE
1002
{
1070
   371
1070
    13
1070
   372
1070
    13
1070
   170
1070
     0
1070
   144
1040
1.0
1070
   277
1070
     2
1070
   278
1070
    44
1070
   146
1040
1.0
1070
   345
1005
16
1070
   347
1005
16
1070
   346
1005
16
1070
   344
1005
0
1070
   343
1005
0
1070
   172
1070
     1
1070
    76
1070
     0
1070
    75
1070
     0
1070
   282
1070
     0
1070
   281
1070
     0
1070
    71
1070
     0
1070
    74
1070
     0
1070
   279
1070
     0
1070
   173
1070
     1
1070
   340
1005
10B
1070
   271
1070
     2
1070
   272
1070
     2
1070
    77
1070
     1
1070
    73
1070
     1
1070
   171
1070
     3
1070
   274
1070
     4
1070
   177
1070
    35
1070
   176
1070
    35
1070
   178
1070
    35
1070
    48
1040
-0.1
1070
    41
1040
3.5
1070
   147
1040
1.75
1070
    42
1040
1.5875
1070
    44
1040
2.0
1070
   140
1040
3.5
1002
}
1001
ACAD_DSTYLE_DIM_LINETYPE
1070
   380
1005
16
1001
ACAD_DSTYLE_DIM_EXT1_LINETYPE
1070
   381
1005
16
1001
ACAD_DSTYLE_DIM_EXT2_LINETYPE
1070
   382
1005
16
0
ENDSEC
0
SECTION
2
OBJECTS
0
DICTIONARY
5
20e
330
0
100
AcDbDictionary
280
0
281
1
3
ACAD_GROUP
350
20f
3
ACAD_MLINESTYLE
350
210
0
DICTIONARY
5
20f
330
0
100
AcDbDictionary
280
0
281
1
0
DICTIONARY
5
210
330
0
100
AcDbDictionary
280
0
281
1
3
Standard
350
18
0
MLINESTYLE
5
18
330
210
100
AcDbMlineStyle
2
Standard
70
0
3

62
256
51
90
52
90
71
2
49
-0.5
62
256
6
ByLayer
49
0.5
62
256
6
ByLayer
0
RASTERVARIABLES
5
1fc
330

100
AcDbRasterVariables
90
0
70
1
71
1
72
1
0
ENDSEC
0
EOF
