0
SECTION
2
HEADER
9
$ACADVER
1
AC1015
9
$DWGCODEPAGE
3
ANSI_1252
9
$HANDSEED
5
222
9
$ANGBASE
50
0
9
$ANGDIR
70
0
9
$ATTMODE
70
1
9
$AUNITS
70
0
9
$AUPREC
70
0
9
$CECOLOR
62
256
9
$CELTSCALE
40
1
9
$CELTYPE
6
ByLayer
9
$CELWEIGHT
370
18
9
$CLAYER
8
0
9
$CMLJUST
70
0
9
$CMLSCALE
40
1
9
$CMLSTYLE
2
Standard
9
$DIMSTYLE
2
Standard
9
$TEXTSIZE
40
0.2
9
$TEXTSTYLE
7
Standard
9
$LUNITS
70
2
9
$LUPREC
70
4
9
$EXTNAMES
290
1
9
$INSUNITS
70
4
9
$LTSCALE
40
1
9
$LWDISPLAY
290
1
9
$PDMODE
70
0
9
$PDSIZE
40
0
9
$PLINEGEN
70
0
0
ENDSEC
0
SECTION
2
CLASSES
0
CLASS
1
RASTERVARIABLES
2
AcDbRasterVariables
3
ISM
90
0
280
0
281
0
0
ENDSEC
0
SECTION
2
TABLES
0
TABLE
2
VPORT
5
218
100
AcDbSymbolTable
0
VPORT
5
1
100
AcDbSymbolTableRecord
100
AcDbViewportTableRecord
2
*Active
70
0
10
0
20
0
11
1
21
1
12
-1
22
1
13
0
23
0
14
0.5
24
0.5
15
10
25
10
16
0
26
0
36
1
17
0
27
0
37
0
0
ENDTAB
0
TABLE
2
LTYPE
5
219
100
AcDbSymbolTable
0
LTYPE
5
14
100
AcDbSymbolTableRecord
100
AcDbLinetypeTableRecord
70
0
2
ByBlock
3

72
65
73
0
40
0
0
LTYPE
5
15
100
AcDbSymbolTableRecord
100
AcDbLinetypeTableRecord
70
0
2
ByLayer
3

72
65
73
0
40
0
0
LTYPE
5
16
100
AcDbSymbolTableRecord
100
AcDbLinetypeTableRecord
70
0
2
Continuous
3
Solid line
72
65
73
0
40
0
0
LTYPE
5
6E
100
AcDbSymbolTableRecord
100
AcDbLinetypeTableRecord
70
0
2
CENTER
3
____ _ ____ _ ____ _ ____
72
65
73
4
40
47.5
49
22
74
0
49
-8.5
74
0
49
8.5
74
0
49
-8.5
74
0
0
LTYPE
5
6F
100
AcDbSymbolTableRecord
100
AcDbLinetypeTableRecord
70
0
2
DASHED
3
__ __ __ __ __ __ __ __ __
72
65
73
2
40
25.72
49
12.86
74
0
49
-12.86
74
0
0
ENDTAB
0
TABLE
2
LAYER
5
21a
100
AcDbSymbolTable
0
LAYER
5
10
100
AcDbSymbolTableRecord
100
AcDbLayerTableRecord
2
0
70
0
62
7
6
Continuous
290
1
370
-3
390
0
0
LAYER
5
71
100
AcDbSymbolTableRecord
100
AcDbLayerTableRecord
2
80
70
0
62
-6
6
Continuous
290
1
370
-3
390
0
0
LAYER
5
73
100
AcDbSymbolTableRecord
100
AcDbLayerTableRecord
2
81
70
0
62
-3
6
Continuous
290
1
370
-3
390
0
0
LAYER
5
75
100
AcDbSymbolTableRecord
100
AcDbLayerTableRecord
2
1
70
0
62
4
6
Continuous
290
1
370
-3
390
0
0
LAYER
5
8D
100
AcDbSymbolTableRecord
100
AcDbLayerTableRecord
2
4
70
0
62
-2
6
CENTER
290
1
370
-3
390
0
0
LAYER
5
AC
100
AcDbSymbolTableRecord
100
AcDbLayerTableRecord
2
2
70
0
62
7
6
Continuous
290
1
370
-3
390
0
0
LAYER
5
12D
100
AcDbSymbolTableRecord
100
AcDbLayerTableRecord
2
Defpoints
70
0
62
7
6
Continuous
290
0
370
-3
390
0
0
LAYER
5
204
100
AcDbSymbolTableRecord
100
AcDbLayerTableRecord
2
SK1
70
0
62
4
6
Continuous
290
1
370
-3
390
0
0
LAYER
5
205
100
AcDbSymbolTableRecord
100
AcDbLayerTableRecord
2
SK4
70
0
62
2
6
CENTER
290
1
370
-3
390
0
0
LAYER
5
206
100
AcDbSymbolTableRecord
100
AcDbLayerTableRecord
2
SK2
70
0
62
7
6
Continuous
290
1
370
-3
390
0
0
LAYER
5
207
100
AcDbSymbolTableRecord
100
AcDbLayerTableRecord
2
SK6
70
0
62
5
6
Continuous
290
1
370
-3
390
0
0
ENDTAB
0
TABLE
2
STYLE
5
21b
100
AcDbSymbolTable
0
STYLE
5
11
100
AcDbSymbolTableRecord
100
AcDbTextStyleTableRecord
2
Standard
3
txt
70
0
71
0
40
0
41
1
42
0
50
0
0
STYLE
5
112
100
AcDbSymbolTableRecord
100
AcDbTextStyleTableRecord
2
iso_b_vert
3
simplex.shx
70
0
71
0
40
0
41
1
42
0
50
0
0
STYLE
5
113
100
AcDbSymbolTableRecord
100
AcDbTextStyleTableRecord
2
DWGDirectTextStyle
3
simplex
70
0
71
0
40
0
41
1
42
0
50
0
0
ENDTAB
0
TABLE
2
DIMSTYLE
5
21c
100
AcDbSymbolTable
100
AcDbDimStyleTable
0
DIMSTYLE
105
27
100
AcDbSymbolTableRecord
100
AcDbDimStyleTableRecord
2
Standard
70
0
3
<>
41
0.18
42
0.0625
44
0.18
140
0.18
147
0.09
73
0
74
0
77
1
271
2
275
0
278
52
280
0
340
11
0
ENDTAB
0
TABLE
2
VIEW
5
21d
100
AcDbSymbolTable
0
ENDTAB
0
TABLE
2
UCS
5
21e
100
AcDbSymbolTable
0
ENDTAB
0
TABLE
2
APPID
5
21f
100
AcDbSymbolTable
0
APPID
5
12
100
AcDbSymbolTableRecord
100
AcDbRegAppTableRecord
2
ACAD
70
0
0
APPID
5
129
100
AcDbSymbolTableRecord
100
AcDbRegAppTableRecord
2
ACAD_DSTYLE_DIMBREAK
70
0
0
APPID
5
1C3
100
AcDbSymbolTableRecord
100
AcDbRegAppTableRecord
2
ACAD_DSTYLE_DIM_LINETYPE
70
0
0
APPID
5
1C4
100
AcDbSymbolTableRecord
100
AcDbRegAppTableRecord
2
ACAD_DSTYLE_DIM_EXT1_LINETYPE
70
0
0
APPID
5
1C5
100
AcDbSymbolTableRecord
100
AcDbRegAppTableRecord
2
ACAD_DSTYLE_DIM_EXT2_LINETYPE
70
0
0
APPID
5
200
100
AcDbSymbolTableRecord
100
AcDbRegAppTableRecord
2
ACAD_MLEADERVER
70
0
0
ENDTAB
0
TABLE
2
BLOCK_RECORD
5
220
100
AcDbSymbolTable
0
BLOCK_RECORD
5
1F
100
AcDbSymbolTableRecord
100
AcDbBlockTableRecord
2
*Model_Space
340
0
70
0
0
BLOCK_RECORD
5
1B
100
AcDbSymbolTableRecord
100
AcDbBlockTableRecord
2
*Paper_Space
340
0
70
0
0
BLOCK_RECORD
5
23
100
AcDbSymbolTableRecord
100
AcDbBlockTableRecord
2
*Paper_Space0
340
0
70
0
0
BLOCK_RECORD
5
12E
100
AcDbSymbolTableRecord
100
AcDbBlockTableRecord
2
*D1
340
0
70
0
0
BLOCK_RECORD
5
13A
100
AcDbSymbolTableRecord
100
AcDbBlockTableRecord
2
_U0
340
0
70
0
0
BLOCK_RECORD
5
146
100
AcDbSymbolTableRecord
100
AcDbBlockTableRecord
2
*D3
340
0
70
0
0
BLOCK_RECORD
5
152
100
AcDbSymbolTableRecord
100
AcDbBlockTableRecord
2
_U1
340
0
70
0
0
BLOCK_RECORD
5
15E
100
AcDbSymbolTableRecord
100
AcDbBlockTableRecord
2
*D5
340
0
70
0
0
BLOCK_RECORD
5
16A
100
AcDbSymbolTableRecord
100
AcDbBlockTableRecord
2
_U2
340
0
70
0
0
BLOCK_RECORD
5
176
100
AcDbSymbolTableRecord
100
AcDbBlockTableRecord
2
*D7
340
0
70
0
0
BLOCK_RECORD
5
184
100
AcDbSymbolTableRecord
100
AcDbBlockTableRecord
2
_U3
340
0
70
0
0
BLOCK_RECORD
5
190
100
AcDbSymbolTableRecord
100
AcDbBlockTableRecord
2
*D9
340
0
70
0
0
BLOCK_RECORD
5
19C
100
AcDbSymbolTableRecord
100
AcDbBlockTableRecord
2
_U4
340
0
70
0
0
ENDTAB
0
ENDSEC
0
SECTION
2
BLOCKS
0
BLOCK
5
20
100
AcDbEntity
8
0
100
AcDbBlockBegin
2
*Model_Space
70
0
10
0
20
0
30
0
3
*Model_Space
0
ENDBLK
5
21
100
AcDbEntity
8
0
100
AcDbBlockEnd
0
BLOCK
5
1C
100
AcDbEntity
8
0
100
AcDbBlockBegin
2
*Paper_Space
70
0
10
0
20
0
30
0
3
*Paper_Space
0
ENDBLK
5
1D
100
AcDbEntity
8
0
100
AcDbBlockEnd
0
BLOCK
5
24
100
AcDbEntity
8
0
100
AcDbBlockBegin
2
*Paper_Space0
70
0
10
0
20
0
30
0
3
*Paper_Space0
0
ENDBLK
5
25
100
AcDbEntity
8
0
100
AcDbBlockEnd
0
BLOCK
5
12F
100
AcDbEntity
8
0
100
AcDbBlockBegin
2
*D1
70
1
10
0
20
0
30
0
3
*D1
0
LINE
5
131
100
AcDbEntity
8
0
62
256
6
ByLayer
370
-2
48
1
60
0
100
AcDbLine
10
0
20
-1.5875
30
0
11
0
21
-14.363398
31
0
39
0
210
0
220
0
230
1
0
LINE
5
132
100
AcDbEntity
8
0
62
256
6
ByLayer
370
-2
48
1
60
0
100
AcDbLine
10
53.375
20
-3.7375
30
0
11
53.375
21
-14.363398
31
0
39
0
210
0
220
0
230
1
0
LINE
5
133
100
AcDbEntity
8
0
62
256
6
ByLayer
370
-2
48
1
60
0
100
AcDbLine
10
3.5
20
-12.363398
30
0
11
49.875
21
-12.363398
31
0
39
0
210
0
220
0
230
1
0
SOLID
5
134
100
AcDbEntity
8
0
62
256
6
ByLayer
370
-1
48
1
60
0
100
AcDbTrace
10
3.5
20
-11.780065
30
0
11
3.5
21
-12.946732
31
0
12
0
22
-12.363398
32
0
13
0
23
-12.363398
33
0
39
0
210
0
220
0
230
1
0
SOLID
5
135
100
AcDbEntity
8
0
62
256
6
ByLayer
370
-1
48
1
60
0
100
AcDbTrace
10
49.875
20
-12.946732
30
0
11
49.875
21
-11.780065
31
0
12
53.375
22
-12.363398
32
0
13
53.375
23
-12.363398
33
0
39
0
210
0
220
0
230
1
0
MTEXT
5
136
100
AcDbEntity
8
0
62
256
6
ByLayer
370
18
48
1
60
0
100
AcDbMText
10
26.6875
20
-5.363398
30
0
210
0
220
0
230
1
1
\A1;53.38
40
3.5
41
0
44
1
50
0
71
5
72
5
7
iso_b_vert
0
POINT
5
137
100
AcDbEntity
8
Defpoints
62
0
6
ByLayer
370
-1
48
1
60
0
100
AcDbPoint
10
0
20
0
30
0
39
0
210
0
220
0
230
1
50
360
0
POINT
5
138
100
AcDbEntity
8
Defpoints
62
0
6
ByLayer
370
-1
48
1
60
0
100
AcDbPoint
10
53.375
20
-2.15
30
0
39
0
210
0
220
0
230
1
50
360
0
POINT
5
139
100
AcDbEntity
8
Defpoints
62
0
6
ByLayer
370
-1
48
1
60
0
100
AcDbPoint
10
53.375
20
-12.363398
30
0
39
0
210
0
220
0
230
1
50
360
0
ENDBLK
5
130
100
AcDbEntity
8
0
100
AcDbBlockEnd
0
BLOCK
5
141
100
AcDbEntity
8
0
100
AcDbBlockBegin
2
_U0
70
0
10
0
20
0
30
0
3
_U0
0
MTEXT
5
13B
100
AcDbEntity
8
SK2
62
256
6
ByLayer
370
13
48
1
60
0
100
AcDbMText
10
21.550201
20
-11.330765
30
0
210
0
220
0
230
1
1
\W0.7317;53,38
40
3.5
41
0
44
1.084337
50
0
71
7
72
5
7
iso_b_vert
0
LINE
5
13C
100
AcDbEntity
8
SK2
62
256
6
ByLayer
370
13
48
1
60
0
100
AcDbLine
10
0
20
-1.5875
30
0
11
0
21
-14.363398
31
0
39
0
210
0
220
0
230
1
0
LINE
5
13D
100
AcDbEntity
8
SK2
62
256
6
ByLayer
370
13
48
1
60
0
100
AcDbLine
10
53.375
20
-3.7375
30
0
11
53.375
21
-14.363398
31
0
39
0
210
0
220
0
230
1
0
LINE
5
13E
100
AcDbEntity
8
SK2
62
256
6
ByLayer
370
13
48
1
60
0
100
AcDbLine
10
0
20
-12.363398
30
0
11
53.375
21
-12.363398
31
0
39
0
210
0
220
0
230
1
0
SOLID
5
13F
100
AcDbEntity
8
SK2
62
256
6
ByLayer
370
18
48
1
60
0
100
AcDbTrace
10
0
20
-12.363398
30
0
11
3.499998
21
-11.902615
31
0
12
3.500002
22
-12.824182
32
0
13
3.500002
23
-12.824182
33
0
39
0
210
0
220
0
230
1
0
SOLID
5
140
100
AcDbEntity
8
SK2
62
256
6
ByLayer
370
18
48
1
60
0
100
AcDbTrace
10
53.375
20
-12.363398
30
0
11
49.875002
21
-12.824182
31
0
12
49.874998
22
-11.902615
32
0
13
49.874998
23
-11.902615
33
0
39
0
210
0
220
0
230
1
0
ENDBLK
5
142
100
AcDbEntity
8
0
100
AcDbBlockEnd
0
BLOCK
5
147
100
AcDbEntity
8
0
100
AcDbBlockBegin
2
*D3
70
1
10
0
20
0
30
0
3
*D3
0
LINE
5
149
100
AcDbEntity
8
0
62
256
6
ByLayer
370
-2
48
1
60
0
100
AcDbLine
10
-36
20
-4.5875
30
0
11
-36
21
-33.692985
31
0
39
0
210
0
220
0
230
1
0
LINE
5
14A
100
AcDbEntity
8
0
62
256
6
ByLayer
370
-2
48
1
60
0
100
AcDbLine
10
54
20
-1.5875
30
0
11
54
21
-33.692985
31
0
39
0
210
0
220
0
230
1
0
LINE
5
14B
100
AcDbEntity
8
0
62
256
6
ByLayer
370
-2
48
1
60
0
100
AcDbLine
10
-32.5
20
-31.692985
30
0
11
50.5
21
-31.692985
31
0
39
0
210
0
220
0
230
1
0
SOLID
5
14C
100
AcDbEntity
8
0
62
256
6
ByLayer
370
-1
48
1
60
0
100
AcDbTrace
10
-32.5
20
-31.109652
30
0
11
-32.5
21
-32.276319
31
0
12
-36
22
-31.692985
32
0
13
-36
23
-31.692985
33
0
39
0
210
0
220
0
230
1
0
SOLID
5
14D
100
AcDbEntity
8
0
62
256
6
ByLayer
370
-1
48
1
60
0
100
AcDbTrace
10
50.5
20
-32.276319
30
0
11
50.5
21
-31.109652
31
0
12
54
22
-31.692985
32
0
13
54
23
-31.692985
33
0
39
0
210
0
220
0
230
1
0
MTEXT
5
14E
100
AcDbEntity
8
0
62
256
6
ByLayer
370
18
48
1
60
0
100
AcDbMText
10
9
20
-24.692985
30
0
210
0
220
0
230
1
1
\A1;90.00
40
3.5
41
0
44
1
50
0
71
5
72
5
7
iso_b_vert
0
POINT
5
14F
100
AcDbEntity
8
Defpoints
62
0
6
ByLayer
370
-1
48
1
60
0
100
AcDbPoint
10
-36
20
-3
30
0
39
0
210
0
220
0
230
1
50
360
0
POINT
5
150
100
AcDbEntity
8
Defpoints
62
0
6
ByLayer
370
-1
48
1
60
0
100
AcDbPoint
10
54
20
0
30
0
39
0
210
0
220
0
230
1
50
360
0
POINT
5
151
100
AcDbEntity
8
Defpoints
62
0
6
ByLayer
370
-1
48
1
60
0
100
AcDbPoint
10
54
20
-31.692985
30
0
39
0
210
0
220
0
230
1
50
360
0
ENDBLK
5
148
100
AcDbEntity
8
0
100
AcDbBlockEnd
0
BLOCK
5
159
100
AcDbEntity
8
0
100
AcDbBlockBegin
2
_U1
70
0
10
0
20
0
30
0
3
_U1
0
MTEXT
5
153
100
AcDbEntity
8
SK2
62
256
6
ByLayer
370
13
48
1
60
0
100
AcDbMText
10
3.862701
20
-30.660352
30
0
210
0
220
0
230
1
1
\W0.7317;90,00
40
3.5
41
0
44
1.084337
50
0
71
7
72
5
7
iso_b_vert
0
LINE
5
154
100
AcDbEntity
8
SK2
62
256
6
ByLayer
370
13
48
1
60
0
100
AcDbLine
10
-36
20
-4.5875
30
0
11
-36
21
-33.692985
31
0
39
0
210
0
220
0
230
1
0
LINE
5
155
100
AcDbEntity
8
SK2
62
256
6
ByLayer
370
13
48
1
60
0
100
AcDbLine
10
54
20
-1.5875
30
0
11
54
21
-33.692985
31
0
39
0
210
0
220
0
230
1
0
LINE
5
156
100
AcDbEntity
8
SK2
62
256
6
ByLayer
370
13
48
1
60
0
100
AcDbLine
10
-36
20
-31.692985
30
0
11
54
21
-31.692985
31
0
39
0
210
0
220
0
230
1
0
SOLID
5
157
100
AcDbEntity
8
SK2
62
256
6
ByLayer
370
18
48
1
60
0
100
AcDbTrace
10
-36
20
-31.692985
30
0
11
-32.500002
21
-31.232202
31
0
12
-32.499998
22
-32.153769
32
0
13
-32.499998
23
-32.153769
33
0
39
0
210
0
220
0
230
1
0
SOLID
5
158
100
AcDbEntity
8
SK2
62
256
6
ByLayer
370
18
48
1
60
0
100
AcDbTrace
10
54
20
-31.692985
30
0
11
50.500002
21
-32.153769
31
0
12
50.499998
22
-31.232202
32
0
13
50.499998
23
-31.232202
33
0
39
0
210
0
220
0
230
1
0
ENDBLK
5
15A
100
AcDbEntity
8
0
100
AcDbBlockEnd
0
BLOCK
5
15F
100
AcDbEntity
8
0
100
AcDbBlockBegin
2
*D5
70
1
10
0
20
0
30
0
3
*D5
0
LINE
5
161
100
AcDbEntity
8
0
62
256
6
ByLayer
370
-2
48
1
60
0
100
AcDbLine
10
18.97
20
3.7375
30
0
11
18.97
21
15.759119
31
0
39
0
210
0
220
0
230
1
0
LINE
5
162
100
AcDbEntity
8
0
62
256
6
ByLayer
370
-2
48
1
60
0
100
AcDbLine
10
54
20
1.5875
30
0
11
54
21
15.759119
31
0
39
0
210
0
220
0
230
1
0
LINE
5
163
100
AcDbEntity
8
0
62
256
6
ByLayer
370
-2
48
1
60
0
100
AcDbLine
10
22.47
20
13.759119
30
0
11
50.5
21
13.759119
31
0
39
0
210
0
220
0
230
1
0
SOLID
5
164
100
AcDbEntity
8
0
62
256
6
ByLayer
370
-1
48
1
60
0
100
AcDbTrace
10
22.47
20
14.342453
30
0
11
22.47
21
13.175786
31
0
12
18.97
22
13.759119
32
0
13
18.97
23
13.759119
33
0
39
0
210
0
220
0
230
1
0
SOLID
5
165
100
AcDbEntity
8
0
62
256
6
ByLayer
370
-1
48
1
60
0
100
AcDbTrace
10
50.5
20
13.175786
30
0
11
50.5
21
14.342453
31
0
12
54
22
13.759119
32
0
13
54
23
13.759119
33
0
39
0
210
0
220
0
230
1
0
MTEXT
5
166
100
AcDbEntity
8
0
62
256
6
ByLayer
370
18
48
1
60
0
100
AcDbMText
10
36.485
20
20.759119
30
0
210
0
220
0
230
1
1
\A1;35.03
40
3.5
41
0
44
1
50
0
71
5
72
5
7
iso_b_vert
0
POINT
5
167
100
AcDbEntity
8
Defpoints
62
0
6
ByLayer
370
-1
48
1
60
0
100
AcDbPoint
10
18.97
20
2.15
30
0
39
0
210
0
220
0
230
1
50
360
0
POINT
5
168
100
AcDbEntity
8
Defpoints
62
0
6
ByLayer
370
-1
48
1
60
0
100
AcDbPoint
10
54
20
0
30
0
39
0
210
0
220
0
230
1
50
360
0
POINT
5
169
100
AcDbEntity
8
Defpoints
62
0
6
ByLayer
370
-1
48
1
60
0
100
AcDbPoint
10
54
20
13.759119
30
0
39
0
210
0
220
0
230
1
50
360
0
ENDBLK
5
160
100
AcDbEntity
8
0
100
AcDbBlockEnd
0
BLOCK
5
171
100
AcDbEntity
8
0
100
AcDbBlockBegin
2
_U2
70
0
10
0
20
0
30
0
3
_U2
0
MTEXT
5
16B
100
AcDbEntity
8
SK2
62
256
6
ByLayer
370
13
48
1
60
0
100
AcDbMText
10
31.347701
20
14.791753
30
0
210
0
220
0
230
1
1
\W0.7317;35,03
40
3.5
41
0
44
1.084337
50
0
71
7
72
5
7
iso_b_vert
0
LINE
5
16C
100
AcDbEntity
8
SK2
62
256
6
ByLayer
370
13
48
1
60
0
100
AcDbLine
10
18.97
20
3.7375
30
0
11
18.97
21
15.759119
31
0
39
0
210
0
220
0
230
1
0
LINE
5
16D
100
AcDbEntity
8
SK2
62
256
6
ByLayer
370
13
48
1
60
0
100
AcDbLine
10
54
20
1.5875
30
0
11
54
21
15.759119
31
0
39
0
210
0
220
0
230
1
0
LINE
5
16E
100
AcDbEntity
8
SK2
62
256
6
ByLayer
370
13
48
1
60
0
100
AcDbLine
10
18.97
20
13.759119
30
0
11
54
21
13.759119
31
0
39
0
210
0
220
0
230
1
0
SOLID
5
16F
100
AcDbEntity
8
SK2
62
256
6
ByLayer
370
18
48
1
60
0
100
AcDbTrace
10
18.97
20
13.759119
30
0
11
22.469998
21
14.219903
31
0
12
22.470002
22
13.298335
32
0
13
22.470002
23
13.298335
33
0
39
0
210
0
220
0
230
1
0
SOLID
5
170
100
AcDbEntity
8
SK2
62
256
6
ByLayer
370
18
48
1
60
0
100
AcDbTrace
10
54
20
13.759119
30
0
11
50.500002
21
13.298335
31
0
12
50.499998
22
14.219903
32
0
13
50.499998
23
14.219903
33
0
39
0
210
0
220
0
230
1
0
ENDBLK
5
172
100
AcDbEntity
8
0
100
AcDbBlockEnd
0
BLOCK
5
177
100
AcDbEntity
8
0
100
AcDbBlockBegin
2
*D7
70
1
10
0
20
0
30
0
3
*D7
0
LINE
5
179
100
AcDbEntity
8
0
62
256
6
ByLayer
370
-2
48
1
60
0
100
AcDbLine
10
54
20
-1.5875
30
0
11
54
21
-16.952503
31
0
39
0
210
0
220
0
230
1
0
LINE
5
17A
100
AcDbEntity
8
0
62
256
6
ByLayer
370
-2
48
1
60
0
100
AcDbLine
10
53.375
20
-3.7375
30
0
11
53.375
21
-16.952503
31
0
39
0
210
0
220
0
230
1
0
LINE
5
17B
100
AcDbEntity
8
0
62
256
6
ByLayer
370
-2
48
1
60
0
100
AcDbLine
10
54
20
-14.952503
30
0
11
82.166667
21
-14.952503
31
0
39
0
210
0
220
0
230
1
0
LINE
5
17C
100
AcDbEntity
8
0
62
256
6
ByLayer
370
-2
48
1
60
0
100
AcDbLine
10
57.5
20
-14.952503
30
0
11
61
21
-14.952503
31
0
39
0
210
0
220
0
230
1
0
LINE
5
17D
100
AcDbEntity
8
0
62
256
6
ByLayer
370
-2
48
1
60
0
100
AcDbLine
10
49.875
20
-14.952503
30
0
11
46.375
21
-14.952503
31
0
39
0
210
0
220
0
230
1
0
SOLID
5
17E
100
AcDbEntity
8
0
62
256
6
ByLayer
370
-1
48
1
60
0
100
AcDbTrace
10
57.5
20
-14.36917
30
0
11
57.5
21
-15.535837
31
0
12
54
22
-14.952503
32
0
13
54
23
-14.952503
33
0
39
0
210
0
220
0
230
1
0
SOLID
5
17F
100
AcDbEntity
8
0
62
256
6
ByLayer
370
-1
48
1
60
0
100
AcDbTrace
10
49.875
20
-15.535837
30
0
11
49.875
21
-14.36917
31
0
12
53.375
22
-14.952503
32
0
13
53.375
23
-14.952503
33
0
39
0
210
0
220
0
230
1
0
MTEXT
5
180
100
AcDbEntity
8
0
62
256
6
ByLayer
370
18
48
1
60
0
100
AcDbMText
10
71.583333
20
-7.952503
30
0
210
0
220
0
230
1
1
\A1;0.63
40
3.5
41
0
44
1
50
0
71
5
72
5
7
iso_b_vert
0
POINT
5
181
100
AcDbEntity
8
Defpoints
62
0
6
ByLayer
370
-1
48
1
60
0
100
AcDbPoint
10
54
20
0
30
0
39
0
210
0
220
0
230
1
50
360
0
POINT
5
182
100
AcDbEntity
8
Defpoints
62
0
6
ByLayer
370
-1
48
1
60
0
100
AcDbPoint
10
53.375
20
-2.15
30
0
39
0
210
0
220
0
230
1
50
360
0
POINT
5
183
100
AcDbEntity
8
Defpoints
62
0
6
ByLayer
370
-1
48
1
60
0
100
AcDbPoint
10
53.375
20
-14.952503
30
0
39
0
210
0
220
0
230
1
50
360
0
ENDBLK
5
178
100
AcDbEntity
8
0
100
AcDbBlockEnd
0
BLOCK
5
18B
100
AcDbEntity
8
0
100
AcDbBlockBegin
2
_U3
70
0
10
0
20
0
30
0
3
_U3
0
MTEXT
5
185
100
AcDbEntity
8
SK2
62
256
6
ByLayer
370
13
48
1
60
0
100
AcDbMText
10
60.15186
20
-13.91987
30
0
210
0
220
0
230
1
1
\W0.7150;0,62
40
3.5
41
0
44
1.084337
50
0
71
7
72
5
7
iso_b_vert
0
LINE
5
186
100
AcDbEntity
8
SK2
62
256
6
ByLayer
370
13
48
1
60
0
100
AcDbLine
10
54
20
-1.5875
30
0
11
54
21
-16.952503
31
0
39
0
210
0
220
0
230
1
0
LINE
5
187
100
AcDbEntity
8
SK2
62
256
6
ByLayer
370
13
48
1
60
0
100
AcDbLine
10
53.375
20
-3.7375
30
0
11
53.375
21
-16.952503
31
0
39
0
210
0
220
0
230
1
0
LINE
5
188
100
AcDbEntity
8
SK2
62
256
6
ByLayer
370
13
48
1
60
0
100
AcDbLine
10
44.625
20
-14.952503
30
0
11
67.996491
21
-14.952503
31
0
39
0
210
0
220
0
230
1
0
SOLID
5
189
100
AcDbEntity
8
SK2
62
256
6
ByLayer
370
18
48
1
60
0
100
AcDbTrace
10
54
20
-14.952503
30
0
11
57.499998
21
-14.491719
31
0
12
57.500002
22
-15.413287
32
0
13
57.500002
23
-15.413287
33
0
39
0
210
0
220
0
230
1
0
SOLID
5
18A
100
AcDbEntity
8
SK2
62
256
6
ByLayer
370
18
48
1
60
0
100
AcDbTrace
10
53.375
20
-14.952503
30
0
11
49.875002
21
-15.413287
31
0
12
49.874998
22
-14.491719
32
0
13
49.874998
23
-14.491719
33
0
39
0
210
0
220
0
230
1
0
ENDBLK
5
18C
100
AcDbEntity
8
0
100
AcDbBlockEnd
0
BLOCK
5
191
100
AcDbEntity
8
0
100
AcDbBlockBegin
2
*D9
70
1
10
0
20
0
30
0
3
*D9
0
LINE
5
193
100
AcDbEntity
8
0
62
256
6
ByLayer
370
-2
48
1
60
0
100
AcDbLine
10
-36
20
-4.5875
30
0
11
-36
21
-23.343428
31
0
39
0
210
0
220
0
230
1
0
LINE
5
194
100
AcDbEntity
8
0
62
256
6
ByLayer
370
-2
48
1
60
0
100
AcDbLine
10
53.375
20
-3.7375
30
0
11
53.375
21
-23.343428
31
0
39
0
210
0
220
0
230
1
0
LINE
5
195
100
AcDbEntity
8
0
62
256
6
ByLayer
370
-2
48
1
60
0
100
AcDbLine
10
-32.5
20
-21.343428
30
0
11
49.875
21
-21.343428
31
0
39
0
210
0
220
0
230
1
0
SOLID
5
196
100
AcDbEntity
8
0
62
256
6
ByLayer
370
-1
48
1
60
0
100
AcDbTrace
10
-32.5
20
-20.760095
30
0
11
-32.5
21
-21.926762
31
0
12
-36
22
-21.343428
32
0
13
-36
23
-21.343428
33
0
39
0
210
0
220
0
230
1
0
SOLID
5
197
100
AcDbEntity
8
0
62
256
6
ByLayer
370
-1
48
1
60
0
100
AcDbTrace
10
49.875
20
-21.926762
30
0
11
49.875
21
-20.760095
31
0
12
53.375
22
-21.343428
32
0
13
53.375
23
-21.343428
33
0
39
0
210
0
220
0
230
1
0
MTEXT
5
198
100
AcDbEntity
8
0
62
256
6
ByLayer
370
18
48
1
60
0
100
AcDbMText
10
8.6875
20
-14.343428
30
0
210
0
220
0
230
1
1
\A1;89.38
40
3.5
41
0
44
1
50
0
71
5
72
5
7
iso_b_vert
0
POINT
5
199
100
AcDbEntity
8
Defpoints
62
0
6
ByLayer
370
-1
48
1
60
0
100
AcDbPoint
10
-36
20
-3
30
0
39
0
210
0
220
0
230
1
50
360
0
POINT
5
19A
100
AcDbEntity
8
Defpoints
62
0
6
ByLayer
370
-1
48
1
60
0
100
AcDbPoint
10
53.375
20
-2.15
30
0
39
0
210
0
220
0
230
1
50
360
0
POINT
5
19B
100
AcDbEntity
8
Defpoints
62
0
6
ByLayer
370
-1
48
1
60
0
100
AcDbPoint
10
53.375
20
-21.343428
30
0
39
0
210
0
220
0
230
1
50
360
0
ENDBLK
5
192
100
AcDbEntity
8
0
100
AcDbBlockEnd
0
BLOCK
5
1A3
100
AcDbEntity
8
0
100
AcDbBlockBegin
2
_U4
70
0
10
0
20
0
30
0
3
_U4
0
MTEXT
5
19D
100
AcDbEntity
8
SK2
62
256
6
ByLayer
370
13
48
1
60
0
100
AcDbMText
10
3.550201
20
-20.310795
30
0
210
0
220
0
230
1
1
\W0.7317;89,38
40
3.5
41
0
44
1.084337
50
0
71
7
72
5
7
iso_b_vert
0
LINE
5
19E
100
AcDbEntity
8
SK2
62
256
6
ByLayer
370
13
48
1
60
0
100
AcDbLine
10
-36
20
-4.5875
30
0
11
-36
21
-23.343428
31
0
39
0
210
0
220
0
230
1
0
LINE
5
19F
100
AcDbEntity
8
SK2
62
256
6
ByLayer
370
13
48
1
60
0
100
AcDbLine
10
53.375
20
-3.7375
30
0
11
53.375
21
-23.343428
31
0
39
0
210
0
220
0
230
1
0
LINE
5
1A0
100
AcDbEntity
8
SK2
62
256
6
ByLayer
370
13
48
1
60
0
100
AcDbLine
10
-36
20
-21.343428
30
0
11
53.375
21
-21.343428
31
0
39
0
210
0
220
0
230
1
0
SOLID
5
1A1
100
AcDbEntity
8
SK2
62
256
6
ByLayer
370
18
48
1
60
0
100
AcDbTrace
10
-36
20
-21.343428
30
0
11
-32.500002
21
-20.882645
31
0
12
-32.499998
22
-21.804212
32
0
13
-32.499998
23
-21.804212
33
0
39
0
210
0
220
0
230
1
0
SOLID
5
1A2
100
AcDbEntity
8
SK2
62
256
6
ByLayer
370
18
48
1
60
0
100
AcDbTrace
10
53.375
20
-21.343428
30
0
11
49.875002
21
-21.804212
31
0
12
49.874998
22
-20.882645
32
0
13
49.874998
23
-20.882645
33
0
39
0
210
0
220
0
230
1
0
ENDBLK
5
1A4
100
AcDbEntity
8
0
100
AcDbBlockEnd
0
ENDSEC
0
SECTION
2
ENTITIES
0
ARC
5
B5
100
AcDbEntity
8
1
62
256
6
ByLayer
370
18
48
1
60
0
100
AcDbCircle
39
0
10
0
20
-2.2
30
0
40
0.800000000000004
210
0
220
0
230
1
100
AcDbArc
50
270
51
333.353824
0
ARC
5
B6
100
AcDbEntity
8
1
62
256
6
ByLayer
370
18
48
1
60
0
100
AcDbCircle
39
0
10
1.430069
20
2.917567
30
0
40
0.799999999999997
210
0
220
0
230
1
100
AcDbArc
50
206.646176
51
270.03581
0
ARC
5
B7
100
AcDbEntity
8
1
62
256
6
ByLayer
370
18
48
1
60
0
100
AcDbCircle
39
0
10
1.430069
20
-2.917567
30
0
40
0.799999999999997
210
0
220
0
230
1
100
AcDbArc
50
89.96419
51
153.353824
0
ARC
5
B8
100
AcDbEntity
8
1
62
256
6
ByLayer
370
18
48
1
60
0
100
AcDbCircle
39
0
10
0
20
2.2
30
0
40
0.800000000000004
210
0
220
0
230
1
100
AcDbArc
50
26.646176
51
90
0
ELLIPSE
5
B9
100
AcDbEntity
8
1
62
256
6
ByLayer
370
13
48
1
60
0
100
AcDbEllipse
10
8.173597
20
-2.122819
30
0
11
-0.0523651081581263
21
0.0851932828783334
31
0
210
0
220
0
230
1
40
0.420097
41
0.169358706191528
42
1.2255083360384
0
ELLIPSE
5
BA
100
AcDbEntity
8
1
62
256
6
ByLayer
370
13
48
1
60
0
100
AcDbEllipse
10
8.250135
20
-2.099656
30
0
11
-0.00353755490923503
21
0.0999374089381156
31
0
210
0
220
0
230
1
40
0.504988
41
-0.0717575168470308
42
1.46358555699442
0
ELLIPSE
5
BB
100
AcDbEntity
8
1
62
256
6
ByLayer
370
18
48
1
60
0
100
AcDbEllipse
10
8.25
20
-2.253562
30
0
11
-0.25
21
3.06151588455594E-17
31
0
210
0
220
0
230
1
40
0.999946
41
-1.56292370321484
42
-0.573059689633898
0
POINT
5
70
100
AcDbEntity
8
80
62
256
6
ByLayer
370
18
48
1
60
0
100
AcDbPoint
10
0
20
0
30
0
39
0
210
0
220
0
230
1
50
360
0
POINT
5
72
100
AcDbEntity
8
81
62
256
6
ByLayer
370
18
48
1
60
0
100
AcDbPoint
10
54
20
0
30
0
39
0
210
0
220
0
230
1
50
360
0
POINT
5
74
100
AcDbEntity
8
1
62
256
6
ByLayer
370
18
48
1
60
1
100
AcDbPoint
10
53.375
20
-2.15
30
0
39
0
210
0
220
0
230
1
50
360
0
POINT
5
76
100
AcDbEntity
8
1
62
256
6
ByLayer
370
18
48
1
60
1
100
AcDbPoint
10
-36
20
-3
30
0
39
0
210
0
220
0
230
1
50
360
0
POINT
5
77
100
AcDbEntity
8
1
62
256
6
ByLayer
370
18
48
1
60
1
100
AcDbPoint
10
18.97
20
2.15
30
0
39
0
210
0
220
0
230
1
50
360
0
POINT
5
78
100
AcDbEntity
8
1
62
256
6
ByLayer
370
18
48
1
60
1
100
AcDbPoint
10
53.375
20
-2.15
30
0
39
0
210
0
220
0
230
1
50
360
0
POINT
5
79
100
AcDbEntity
8
1
62
256
6
ByLayer
370
18
48
1
60
1
100
AcDbPoint
10
-36
20
-3
30
0
39
0
210
0
220
0
230
1
50
360
0
POINT
5
7A
100
AcDbEntity
8
1
62
256
6
ByLayer
370
18
48
1
60
1
100
AcDbPoint
10
53.375
20
-2.15
30
0
39
0
210
0
220
0
230
1
50
360
0
SPLINE
5
BC
100
AcDbEntity
8
SK1
62
256
6
ByLayer
370
18
48
1
60
0
100
AcDbSpline
70
4
71
3
72
8
73
4
40
0
40
0
40
0
40
0
40
1
40
1
40
1
40
1
41
1
10
-35.9999999999999
20
2.0427807937796
30
0
41
1
10
-35.9170318871705
20
2.12958788884802
30
0
41
1
10
-35.8336568338876
20
2.21603612959882
30
0
41
1
10
-35.7499999999999
20
2.30223588636193
30
0
0
SPLINE
5
BD
100
AcDbEntity
8
SK1
62
256
6
ByLayer
370
18
48
1
60
0
100
AcDbSpline
70
4
71
3
72
12
73
8
40
0
40
0
40
0
40
0
40
0.500000000000002
40
0.500000000000002
40
0.750000000000001
40
0.750000000000001
40
1
40
1
40
1
40
1
41
1
10
-35.75
20
2.30223588636201
30
0
41
1
10
-35.7259913046562
20
2.3269743757676
30
0
41
1
10
-35.7033433879313
20
2.35120163636355
30
0
41
1
10
-35.6754686754417
20
2.38187203923655
30
0
41
1
10
-35.667025596347
20
2.39134240602684
30
0
41
1
10
-35.6543350076412
20
2.40606391228957
30
0
41
1
10
-35.65
20
2.41142366929259
30
0
41
1
10
-35.65
20
2.41225958367286
30
0
0
SPLINE
5
BE
100
AcDbEntity
8
SK1
62
256
6
ByLayer
370
18
48
1
60
0
100
AcDbSpline
70
4
71
3
72
12
73
8
40
0
40
0
40
0
40
0
40
0.249999999999999
40
0.249999999999999
40
0.499999999999998
40
0.499999999999998
40
1
40
1
40
1
40
1
41
1
10
-35.65
20
-2.12238883875767
30
0
41
1
10
-35.65
20
-2.11400200480813
30
0
41
1
10
-35.6543403470552
20
-2.10175291298748
30
0
41
1
10
-35.6670034572333
20
-2.07584016504646
30
0
41
1
10
-35.6754069618006
20
-2.06186526290114
30
0
41
1
10
-35.7033744297257
20
-2.02034638661877
30
0
41
1
10
-35.7260009806424
20
-1.99249816152681
30
0
41
1
10
-35.7500000000001
20
-1.967769642229
30
0
0
SPLINE
5
BF
100
AcDbEntity
8
SK1
62
256
6
ByLayer
370
18
48
1
60
0
100
AcDbSpline
70
4
71
3
72
12
73
8
40
0
40
0
40
0
40
0
40
0.499999999999998
40
0.499999999999998
40
0.749999999999999
40
0.749999999999999
40
1
40
1
40
1
40
1
41
1
10
-35.75
20
-2.30223588636201
30
0
41
1
10
-35.7259913046562
20
-2.3269743757676
30
0
41
1
10
-35.7033433879313
20
-2.35120163636355
30
0
41
1
10
-35.6754686754417
20
-2.38187203923655
30
0
41
1
10
-35.667025596347
20
-2.39134240602684
30
0
41
1
10
-35.6543350076412
20
-2.40606391228957
30
0
41
1
10
-35.65
20
-2.41142366929259
30
0
41
1
10
-35.65
20
-2.41225958367286
30
0
0
SPLINE
5
C0
100
AcDbEntity
8
SK1
62
256
6
ByLayer
370
18
48
1
60
0
100
AcDbSpline
70
4
71
3
72
8
73
4
40
0
40
0
40
0
40
0
40
1
40
1
40
1
40
1
41
1
10
-35.9999999999999
20
-2.0427807937796
30
0
41
1
10
-35.9170318871705
20
-2.12958788884802
30
0
41
1
10
-35.8336568338876
20
-2.21603612959882
30
0
41
1
10
-35.7499999999999
20
-2.30223588636193
30
0
0
SPLINE
5
C1
100
AcDbEntity
8
SK1
62
256
6
ByLayer
370
18
48
1
60
0
100
AcDbSpline
70
4
71
3
72
8
73
4
40
0
40
0
40
0
40
0
40
1
40
1
40
1
40
1
41
1
10
-35.75
20
-1.96776964222894
30
0
41
1
10
-35.8336556017088
20
-1.88157115509932
30
0
41
1
10
-35.917030507494
20
-1.79512308823001
30
0
41
1
10
-36
20
-1.70831454964662
30
0
0
SPLINE
5
C2
100
AcDbEntity
8
1
62
256
6
ByLayer
370
18
48
1
60
0
100
AcDbSpline
70
4
71
3
72
8
73
4
40
0
40
0
40
0
40
0
40
1
40
1
40
1
40
1
41
1
10
53.8960987335952
20
0.659775104021662
30
0
41
1
10
53.9276389072302
20
0.480486480639286
30
0
41
1
10
53.9553326460712
20
0.301219371732145
30
0
41
1
10
53.9791497773965
20
0.121973946066987
30
0
0
SPLINE
5
C3
100
AcDbEntity
8
1
62
256
6
ByLayer
370
18
48
1
60
0
100
AcDbSpline
70
4
71
3
72
8
73
4
40
0
40
0
40
0
40
0
40
1
40
1
40
1
40
1
41
1
10
53.9999329886063
20
0.0338510440984123
30
0
41
1
10
53.995335186059
20
0.0213229749253117
30
0
41
1
10
53.9898674337639
20
0.008948200479864
30
0
41
1
10
53.9844807599293
20
-0.0010135700823355
30
0
0
SPLINE
5
C4
100
AcDbEntity
8
1
62
256
6
ByLayer
370
18
48
1
60
0
100
AcDbSpline
70
4
71
3
72
8
73
4
40
0
40
0
40
0
40
0
40
1
40
1
40
1
40
1
41
1
10
8.12459343446554
20
2.11456830648044
30
0
41
1
10
8.12379288116637
20
2.11460674380115
30
0
41
1
10
8.1229936191217
20
2.11464520404286
30
0
41
1
10
8.12219577647264
20
2.11468369669262
30
0
0
SPLINE
5
C5
100
AcDbEntity
8
1
62
256
6
ByLayer
370
18
48
1
60
0
100
AcDbSpline
70
4
71
3
72
8
73
4
40
0
40
0
40
0
40
0
40
1
40
1
40
1
40
1
41
1
10
8.12459343446554
20
-2.11456830648044
30
0
41
1
10
8.12379288116639
20
-2.11460674380112
30
0
41
1
10
8.12299361912176
20
-2.11464520404286
30
0
41
1
10
8.12219577647267
20
-2.11468369669262
30
0
0
SPLINE
5
C6
100
AcDbEntity
8
1
62
256
6
ByLayer
370
18
48
1
60
0
100
AcDbSpline
70
4
71
3
72
8
73
4
40
0
40
0
40
0
40
0
40
1
40
1
40
1
40
1
41
1
10
53.2447964518909
20
2.13554134661558
30
0
41
1
10
53.1063710631677
20
2.14509268940841
30
0
41
1
10
52.9681075380921
20
2.14980183545737
30
0
41
1
10
52.8297827752506
20
2.14969434564162
30
0
0
SPLINE
5
C7
100
AcDbEntity
8
1
62
256
6
ByLayer
370
18
48
1
60
0
100
AcDbSpline
70
4
71
3
72
45
73
41
40
0
40
0
40
0
40
0
40
0.0040898506531037
40
0.0040898506531037
40
0.060898245779951
40
0.060898245779951
40
0.174515036033646
40
0.174515036033646
40
0.202919233597068
40
0.202919233597068
40
0.23132343116049
40
0.288131826287338
40
0.288131826287338
40
0.344940221414185
40
0.344940221414185
40
0.401748616541032
40
0.401748616541032
40
0.515365406794727
40
0.515365406794727
40
0.543769604358152
40
0.543769604358152
40
0.572173801921577
40
0.572173801921577
40
0.628982197048429
40
0.628982197048429
40
0.742598987302133
40
0.742598987302133
40
0.771003184865561
40
0.771003184865561
40
0.799407382428988
40
0.799407382428988
40
0.85621577755584
40
0.85621577755584
40
0.913024172682693
40
0.913024172682693
40
0.94142837024612
40
0.94142837024612
40
0.969832567809547
40
0.969832567809547
40
1
40
1
40
1
40
1
41
1
10
42.7283340966449
20
-2.03412744345991
30
0
41
1
10
42.7113035817588
20
-2.03732523181009
30
0
41
1
10
42.6942807504184
20
-2.04045244600431
30
0
41
1
10
42.4409821145931
20
-2.08594888042549
30
0
41
1
10
42.2065894542733
20
-2.114834339146
30
0
41
1
10
41.5051603609791
20
-2.16040314909674
30
0
41
1
10
41.0395892411129
20
-2.1360802207663
30
0
41
1
10
40.4487553412853
20
-2.03704991727284
30
0
41
1
10
40.3301284534339
20
-2.01378371485504
30
0
41
1
10
40.0943433674548
20
-1.96107590774989
30
0
41
1
10
39.7418602690013
20
-1.87260130533482
30
0
41
1
10
39.391617839578
20
-1.75729178752414
30
0
41
1
10
38.9242345256886
20
-1.5821732734602
30
0
41
1
10
38.6903506269301
20
-1.48392989607694
30
0
41
1
10
38.219947995847
20
-1.26834946566075
30
0
41
1
10
37.9823041901979
20
-1.15029020766619
30
0
41
1
10
37.2759935781633
20
-0.779640046012503
30
0
41
1
10
36.8107917201046
20
-0.509206652522465
30
0
41
1
10
36.2248146577071
20
-0.16107930410007
30
0
41
1
10
36.1073852268623
20
-0.0909663920665764
30
0
41
1
10
35.871757793078
20
0.0497378604036385
30
0
41
1
10
35.7533019301977
20
0.120481048786076
30
0
41
1
10
35.3981697246238
20
0.331657605548514
30
0
41
1
10
35.1634344412219
20
0.470232640451542
30
0
41
1
10
34.4611221299414
20
0.872703343099602
30
0
41
1
10
33.9954242566703
20
1.12340549389353
30
0
41
1
10
33.405351866816
20
1.39736250242981
30
0
41
1
10
33.2866098279023
20
1.45027807674342
30
0
41
1
10
33.0502927619287
20
1.55062611158891
30
0
41
1
10
32.9325571588994
20
1.59814337400741
30
0
41
1
10
32.5802072722578
20
1.73241725083352
30
0
41
1
10
32.3464737248412
20
1.81091707111074
30
0
41
1
10
31.8789243402899
20
1.94388693689743
30
0
41
1
10
31.6450793095637
20
1.99834156588784
30
0
41
1
10
31.2925219158104
20
2.06059497387366
30
0
41
1
10
31.1746886793485
20
2.07810065249532
30
0
41
1
10
30.9381805318249
20
2.10639860807279
30
0
41
1
10
30.819513652423
20
2.11715568426374
30
0
41
1
10
30.5762784596222
20
2.1320386408226
30
0
41
1
10
30.4514349501446
20
2.13577669619116
30
0
41
1
10
30.3268558721643
20
2.13563697126207
30
0
0
SPLINE
5
C8
100
AcDbEntity
8
1
62
256
6
ByLayer
370
18
48
1
60
0
100
AcDbSpline
70
4
71
3
72
38
73
34
40
0
40
0
40
0
40
0
40
0.0699856536951577
40
0.0699856536951577
40
0.128111550339209
40
0.128111550339209
40
0.18623744698326
40
0.18623744698326
40
0.244363343627312
40
0.244363343627312
40
0.302489240271363
40
0.302489240271363
40
0.418741033559467
40
0.418741033559467
40
0.476866930203519
40
0.476866930203519
40
0.505929878525545
40
0.505929878525545
40
0.53499282684757
40
0.53499282684757
40
0.651244620135678
40
0.651244620135678
40
0.680307568457705
40
0.680307568457705
40
0.709370516779732
40
0.709370516779732
40
0.767496413423785
40
0.767496413423785
40
0.883748206711892
40
0.883748206711892
40
0.941874103355946
40
0.941874103355946
40
1
40
1
40
1
40
1
41
1
10
20.2714803163456
20
-2.01258549080001
30
0
41
1
10
19.9897162668893
20
-2.06713030687314
30
0
41
1
10
19.7080358078511
20
-2.10293106394229
30
0
41
1
10
19.1890917187727
20
-2.13227927519057
30
0
41
1
10
18.9510546599695
20
-2.13173329575162
30
0
41
1
10
18.4794010505605
20
-2.10292839558014
30
0
41
1
10
18.2450491159373
20
-2.07484109185879
30
0
41
1
10
17.7768391487745
20
-1.99273700389452
30
0
41
1
10
17.5430075651125
20
-1.93871087542152
30
0
41
1
10
17.0735481534555
20
-1.80610019982183
30
0
41
1
10
16.8375188498953
20
-1.72729216252725
30
0
41
1
10
16.126153782514
20
-1.45701941385786
30
0
41
1
10
15.6593479100258
20
-1.23712541382363
30
0
41
1
10
14.956655612219
20
-0.867769250573275
30
0
41
1
10
14.7219738610033
20
-0.738119223215051
30
0
41
1
10
14.3677093457379
20
-0.536044414520177
30
0
41
1
10
14.2488774257654
20
-0.46728073604902
30
0
41
1
10
14.0121826707808
20
-0.329070950648827
30
0
41
1
10
13.8942683604116
20
-0.259603157471446
30
0
41
1
10
13.3060465947195
20
0.0881622367022032
30
0
41
1
10
12.8399335791573
20
0.368008029040169
30
0
41
1
10
12.2518631904512
20
0.701063735269088
30
0
41
1
10
12.1339435963351
20
0.766779517041755
30
0
41
1
10
11.89719637953
20
0.895914745488795
30
0
41
1
10
11.7782397010002
20
0.959389658976278
30
0
41
1
10
11.4235459638756
20
1.14360738301519
30
0
41
1
10
11.1888344032155
20
1.25905003705259
30
0
41
1
10
10.485997537344
20
1.57824855650574
30
0
41
1
10
10.0189104243186
20
1.75468471275587
30
0
41
1
10
9.30738301271549
20
1.9486459322639
30
0
41
1
10
9.07054642417765
20
2.00077200297187
30
0
41
1
10
8.59807451344483
20
2.07797741834548
30
0
41
1
10
8.36184753020831
20
2.10317692032939
30
0
41
1
10
8.12459343446554
20
2.11456830648044
30
0
0
SPLINE
5
C9
100
AcDbEntity
8
1
62
256
6
ByLayer
370
18
48
1
60
0
100
AcDbSpline
70
4
71
3
72
86
73
82
40
0
40
0
40
0
40
0
40
0.0093374332553991
40
0.0093374332553991
40
0.0323365576201168
40
0.0323365576201168
40
0.0553356819848345
40
0.0553356819848345
40
0.101333930714268
40
0.101333930714268
40
0.124333055078983
40
0.124333055078983
40
0.147332179443699
40
0.147332179443699
40
0.170331303808414
40
0.170331303808414
40
0.19333042817313
40
0.19333042817313
40
0.216329552537846
40
0.216329552537846
40
0.239328676902561
40
0.239328676902561
40
0.262327801267277
40
0.262327801267277
40
0.285326925631993
40
0.285326925631993
40
0.331325174361426
40
0.331325174361426
40
0.354324298726141
40
0.354324298726141
40
0.377323423090857
40
0.377323423090857
40
0.400322547455573
40
0.400322547455573
40
0.423321671820288
40
0.423321671820288
40
0.446320796185004
40
0.446320796185004
40
0.469319920549719
40
0.469319920549719
40
0.492319044914435
40
0.492319044914435
40
0.515318169279151
40
0.515318169279151
40
0.561316418008582
40
0.561316418008582
40
0.584315542373297
40
0.584315542373297
40
0.607314666738013
40
0.607314666738013
40
0.653312915467442
40
0.653312915467442
40
0.676312039832155
40
0.676312039832155
40
0.699311164196869
40
0.699311164196869
40
0.722310288561582
40
0.722310288561582
40
0.733809850743939
40
0.733809850743939
40
0.745309412926296
40
0.745309412926296
40
0.791307661655729
40
0.791307661655729
40
0.814306786020445
40
0.814306786020445
40
0.837305910385162
40
0.837305910385162
40
0.860305034749879
40
0.860305034749879
40
0.883304159114595
40
0.883304159114595
40
0.906303283479312
40
0.906303283479312
40
0.929302407844028
40
0.929302407844028
40
0.952301532208745
40
0.952301532208745
40
0.975300656573461
40
0.975300656573461
40
1
40
1
40
1
40
1
41
1
10
48.639338294444
20
-1.09808529237424
30
0
41
1
10
48.5932657379775
20
-1.11996748949801
30
0
41
1
10
48.5471361937508
20
-1.14156465818218
30
0
41
1
10
48.3871602266036
20
-1.21531534291617
30
0
41
1
10
48.2727201598433
20
-1.26563847736602
30
0
41
1
10
48.0440415287039
20
-1.36439755216017
30
0
41
1
10
47.9300729372014
20
-1.41233481680891
30
0
41
1
10
47.5888490233085
20
-1.54752967381367
30
0
41
1
10
47.3623631288602
20
-1.62794545829476
30
0
41
1
10
47.0231242148758
20
-1.73088059445928
30
0
41
1
10
46.910523215574
20
-1.76314172727589
30
0
41
1
10
46.6852074908852
20
-1.82285845054074
30
0
41
1
10
46.5723645024168
20
-1.85011245726128
30
0
41
1
10
46.3462413877145
20
-1.89918263695611
30
0
41
1
10
46.2329779423587
20
-1.92100538966838
30
0
41
1
10
46.0057191651954
20
-1.95883940299183
30
0
41
1
10
45.8916028211927
20
-1.97444995560883
30
0
41
1
10
45.6638755476232
20
-1.99922636253297
30
0
41
1
10
45.5493594758336
20
-2.00862678527068
30
0
41
1
10
45.3211267972547
20
-2.02173237182581
30
0
41
1
10
45.2072790691707
20
-2.02526480270649
30
0
41
1
10
44.9799024197417
20
-2.02633079283208
30
0
41
1
10
44.8663178211723
20
-2.0238735002622
30
0
41
1
10
44.6394483759503
20
-2.0129262633813
30
0
41
1
10
44.526870000911
20
-2.00425398545113
30
0
41
1
10
44.1881679278998
20
-1.96954374793282
30
0
41
1
10
43.9619753390111
20
-1.93483427821516
30
0
41
1
10
43.6207963612808
20
-1.86397304392995
30
0
41
1
10
43.5069015586433
20
-1.83740233759428
30
0
41
1
10
43.2790958643
20
-1.77855966876135
30
0
41
1
10
43.1644512902887
20
-1.74660301663971
30
0
41
1
10
42.9358200202329
20
-1.67810799588006
30
0
41
1
10
42.8218385349185
20
-1.6415090563049
30
0
41
1
10
42.5942963739368
20
-1.5637026132369
30
0
41
1
10
42.4805331419224
20
-1.52264056741598
30
0
41
1
10
42.2545259605012
20
-1.43413047156298
30
0
41
1
10
42.1420139495906
20
-1.38739306536902
30
0
41
1
10
41.9163166451654
20
-1.29139883031206
30
0
41
1
10
41.8034051566656
20
-1.24148924990237
30
0
41
1
10
41.5772816117371
20
-1.13827973311871
30
0
41
1
10
41.4640071863727
20
-1.08513544409385
30
0
41
1
10
41.236972501029
20
-0.975559249996451
30
0
41
1
10
41.1236657194155
20
-0.91831894042906
30
0
41
1
10
40.7828115738268
20
-0.742134119740911
30
0
41
1
10
40.5529523169718
20
-0.61936925607705
30
0
41
1
10
40.2109940438608
20
-0.433185880918472
30
0
41
1
10
40.0970398663701
20
-0.37107102054452
30
0
41
1
10
39.8709205631208
20
-0.243618632914348
30
0
41
1
10
39.7580839520982
20
-0.179494332398434
30
0
41
1
10
39.4192870321126
20
0.0123476111792229
30
0
41
1
10
39.1931194231987
20
0.139680148613451
30
0
41
1
10
38.8527500903686
20
0.328634853607554
30
0
41
1
10
38.7398280149134
20
0.392580376088574
30
0
41
1
10
38.5128000287338
20
0.518325521608887
30
0
41
1
10
38.3988665129224
20
0.580436582069638
30
0
41
1
10
38.1700033699779
20
0.702849960637451
30
0
41
1
10
38.0552322269889
20
0.762911450371575
30
0
41
1
10
37.8836233201434
20
0.850657774303812
30
0
41
1
10
37.8264499549468
20
0.879524565169305
30
0
41
1
10
37.7123392819114
20
0.936721333183471
30
0
41
1
10
37.6556463963945
20
0.965443436840076
30
0
41
1
10
37.3720061501407
20
1.10629906083966
30
0
41
1
10
37.1456067685699
20
1.21210222526722
30
0
41
1
10
36.8055918779679
20
1.35703145497496
30
0
41
1
10
36.691893379066
20
1.40277047659083
30
0
41
1
10
36.4651361954499
20
1.4919404010061
30
0
41
1
10
36.3519996093046
20
1.53507556926206
30
0
41
1
10
36.1245367714208
20
1.61600907518104
30
0
41
1
10
36.0104351123316
20
1.65410961675889
30
0
41
1
10
35.7813324546952
20
1.72511235731864
30
0
41
1
10
35.6661789495031
20
1.75791502279998
30
0
41
1
10
35.4373375385714
20
1.81690990151179
30
0
41
1
10
35.3237647703234
20
1.84375158637511
30
0
41
1
10
35.096932994672
20
1.89219225386574
30
0
41
1
10
34.9835722927102
20
1.91365439319372
30
0
41
1
10
34.7569096049347
20
1.95108565565943
30
0
41
1
10
34.6436274951834
20
1.96703678783933
30
0
41
1
10
34.4169152726162
20
1.99268802304582
30
0
41
1
10
34.3033809679956
20
2.00239674799548
30
0
41
1
10
34.0691294496719
20
2.01550842925826
30
0
41
1
10
33.9475821545082
20
2.01890667023775
30
0
41
1
10
33.8256423076977
20
2.0188765782469
30
0
0
SPLINE
5
CA
100
AcDbEntity
8
1
62
256
6
ByLayer
370
18
48
1
60
0
100
AcDbSpline
70
4
71
3
72
84
73
80
40
0
40
0
40
0
40
0
40
0.0090353430426766
40
0.0090353430426766
40
0.0551331526657426
40
0.0551331526657426
40
0.0781820574772754
40
0.0781820574772754
40
0.101230962288808
40
0.101230962288808
40
0.147328771911874
40
0.147328771911874
40
0.170377676723407
40
0.170377676723407
40
0.193426581534939
40
0.193426581534939
40
0.216475486346472
40
0.216475486346472
40
0.239524391158004
40
0.239524391158004
40
0.262573295969537
40
0.262573295969537
40
0.285622200781069
40
0.285622200781069
40
0.308671105592602
40
0.308671105592602
40
0.331720010404134
40
0.331720010404134
40
0.354768915215667
40
0.354768915215667
40
0.377817820027199
40
0.377817820027199
40
0.389342272432965
40
0.389342272432965
40
0.400866724838731
40
0.400866724838731
40
0.423915629650262
40
0.423915629650262
40
0.446964534461794
40
0.446964534461794
40
0.470013439273325
40
0.470013439273325
40
0.516111248896388
40
0.516111248896388
40
0.53916015370792
40
0.53916015370792
40
0.562209058519452
40
0.562209058519452
40
0.608306868142515
40
0.608306868142515
40
0.631355772954047
40
0.631355772954047
40
0.654404677765579
40
0.654404677765579
40
0.700502487388643
40
0.700502487388643
40
0.723551392200174
40
0.723551392200174
40
0.746600297011705
40
0.746600297011705
40
0.769649201823237
40
0.769649201823237
40
0.781173654229003
40
0.781173654229003
40
0.79269810663477
40
0.79269810663477
40
0.838795916257836
40
0.838795916257836
40
0.861844821069369
40
0.861844821069369
40
0.884893725880902
40
0.884893725880902
40
0.930991535503968
40
0.930991535503968
40
0.954040440315502
40
0.954040440315502
40
0.977089345127035
40
0.977089345127035
40
1
40
1
40
1
40
1
41
1
10
26.1261872847799
20
-1.09794895406918
30
0
41
1
10
26.0818275830843
20
-1.11897280240763
30
0
41
1
10
26.0375776518527
20
-1.1399013166118
30
0
41
1
10
25.7672378010814
20
-1.26542227064618
30
0
41
1
10
25.5410508399247
20
-1.36302612125058
30
0
41
1
10
25.2003598548189
20
-1.49495579197458
30
0
41
1
10
25.0862496082985
20
-1.53574337336158
30
0
41
1
10
24.8588058517058
20
-1.6152512803086
30
0
41
1
10
24.7448806719033
20
-1.65313596861245
30
0
41
1
10
24.4012480519155
20
-1.75915117358554
30
0
41
1
10
24.1725599975935
20
-1.81950653326908
30
0
41
1
10
23.8318133434518
20
-1.88977771670048
30
0
41
1
10
23.7190741479785
20
-1.91021575034861
30
0
41
1
10
23.4933420570636
20
-1.94586201409032
30
0
41
1
10
23.3803551966762
20
-1.96108456153192
30
0
41
1
10
23.1541887404897
20
-1.98598998180424
30
0
41
1
10
23.0410030521077
20
-1.99566181147259
30
0
41
1
10
22.8141633732546
20
-2.00897503279742
30
0
41
1
10
22.7005141793992
20
-2.01265524603417
30
0
41
1
10
22.4738361396231
20
-2.01269808623803
30
0
41
1
10
22.3601666221451
20
-2.0089958970606
30
0
41
1
10
22.1317182408758
20
-1.99631885958442
30
0
41
1
10
22.0168241170107
20
-1.98734095107332
30
0
41
1
10
21.7879272033466
20
-1.96393527039646
30
0
41
1
10
21.673652003143
20
-1.94954380196935
30
0
41
1
10
21.4458413335784
20
-1.91490639610777
30
0
41
1
10
21.3329785697384
20
-1.89425145478751
30
0
41
1
10
21.1068066245455
20
-1.84686818660504
30
0
41
1
10
20.9937915990317
20
-1.81994690477526
30
0
41
1
10
20.7675444246326
20
-1.7615631106394
30
0
41
1
10
20.6542758656307
20
-1.73013914998449
30
0
41
1
10
20.4840961573652
20
-1.67945236979807
30
0
41
1
10
20.4272654933456
20
-1.66202307874167
30
0
41
1
10
20.3138873042302
20
-1.62554227464963
30
0
41
1
10
20.2573805393992
20
-1.60643375294632
30
0
41
1
10
20.087395668019
20
-1.54753404381432
30
0
41
1
10
19.9737440179812
20
-1.50592184545499
30
0
41
1
10
19.7455244137256
20
-1.41747403222476
30
0
41
1
10
19.6307196408059
20
-1.37034351756668
30
0
41
1
10
19.4013030459952
20
-1.2736450883134
30
0
41
1
10
19.286573840091
20
-1.22416860357734
30
0
41
1
10
18.9455820944343
20
-1.06723414328445
30
0
41
1
10
18.7192535022128
20
-0.956229447774831
30
0
41
1
10
18.3793072752678
20
-0.783544110206208
30
0
41
1
10
18.2659425977155
20
-0.724770340945867
30
0
41
1
10
18.0389866812621
20
-0.605317323371537
30
0
41
1
10
17.9259649790972
20
-0.543741700490642
30
0
41
1
10
17.5858986369293
20
-0.357257705401452
30
0
41
1
10
17.35793530089
20
-0.230156550821221
30
0
41
1
10
17.0129082807983
20
-0.0383258912928568
30
0
41
1
10
16.8984058866092
20
0.0254769840955476
30
0
41
1
10
16.6709395534812
20
0.154230439538225
30
0
41
1
10
16.5574178913901
20
0.218127298932927
30
0
41
1
10
16.2171346611451
20
0.407476716623251
30
0
41
1
10
15.9905419283043
20
0.530548919791528
30
0
41
1
10
15.6505472090919
20
0.70981491409492
30
0
41
1
10
15.5379700179374
20
0.769826923267516
30
0
41
1
10
15.3115782261804
20
0.886022086761926
30
0
41
1
10
15.1980778213857
20
0.94282494804807
30
0
41
1
10
14.9704375130294
20
1.05338819990789
30
0
41
1
10
14.856229595419
20
1.10700819057897
30
0
41
1
10
14.6841955732247
20
1.18497269260482
30
0
41
1
10
14.6266065383995
20
1.21046644499242
30
0
41
1
10
14.5119202844875
20
1.26122460099464
30
0
41
1
10
14.4547975377643
20
1.28631847104052
30
0
41
1
10
14.1689949360136
20
1.40843444101307
30
0
41
1
10
13.9405365221365
20
1.49674843402141
30
0
41
1
10
13.596534130417
20
1.61510158133339
30
0
41
1
10
13.4813787591562
20
1.65193844017742
30
0
41
1
10
13.2522845002777
20
1.72208380132443
30
0
41
1
10
13.1381897581124
20
1.75435009401855
30
0
41
1
10
12.7964572111584
20
1.84199083849256
30
0
41
1
10
12.5695004950288
20
1.88863916095994
30
0
41
1
10
12.2290690246266
20
1.94187705885088
30
0
41
1
10
12.1163022633
20
1.9571019052886
30
0
41
1
10
11.8902286627348
20
1.98120009232508
30
0
41
1
10
11.7770106794184
20
1.99014787024993
30
0
41
1
10
11.5508029111366
20
2.00165051396425
30
0
41
1
10
11.4377813879964
20
2.00429215499767
30
0
41
1
10
11.3243562534744
20
2.0041725659668
30
0
0
SPLINE
5
CB
100
AcDbEntity
8
1
62
256
6
ByLayer
370
18
48
1
60
0
100
AcDbSpline
70
4
71
3
72
8
73
4
40
0
40
0
40
0
40
0
40
1
40
1
40
1
40
1
41
1
10
53.9999329886052
20
0.0338510440828941
30
0
41
1
10
54.0000223371308
20
0.0112836813567299
30
0
41
1
10
54.0000223371308
20
-0.0112836813694344
30
0
41
1
10
53.9999329886052
20
-0.0338510440955986
30
0
0
SPLINE
5
CC
100
AcDbEntity
8
1
62
256
6
ByLayer
370
18
48
1
60
0
100
AcDbSpline
70
4
71
3
72
8
73
4
40
0
40
0
40
0
40
0
40
1
40
1
40
1
40
1
41
1
10
53.3225442266263
20
2.0676763078809
30
0
41
1
10
53.2931442593962
20
2.09937333408166
30
0
41
1
10
53.2673031547298
20
2.12207239135981
30
0
41
1
10
53.2447964518909
20
2.13554134661558
30
0
0
SPLINE
5
CD
100
AcDbEntity
8
1
62
256
6
ByLayer
370
18
48
1
60
0
100
AcDbSpline
70
4
71
3
72
18
73
14
40
0
40
0
40
0
40
0
40
0.249999999999997
40
0.249999999999997
40
0.374999999999996
40
0.374999999999996
40
0.499999999999995
40
0.499999999999995
40
0.75
40
0.75
40
0.875
40
0.875
40
1
40
1
40
1
40
1
41
1
10
53.2188737118769
20
-2.02183207629966
30
0
41
1
10
53.1794337769275
20
-2.01132259584759
30
0
41
1
10
53.1430646160853
20
-1.99245980908879
30
0
41
1
10
53.0935106280193
20
-1.95056499651625
30
0
41
1
10
53.0777751765081
20
-1.93422877295009
30
0
41
1
10
53.0486292561953
20
-1.89741607067094
30
0
41
1
10
53.0351546985128
20
-1.87691059582161
30
0
41
1
10
52.9980316151596
20
-1.80908651426421
30
0
41
1
10
52.9776586085746
20
-1.75550816221906
30
0
41
1
10
52.9541004826445
20
-1.66176050129638
30
0
41
1
10
52.9474005695515
20
-1.6280933818999
30
0
41
1
10
52.936654436105
20
-1.55713687197527
30
0
41
1
10
52.9325841967822
20
-1.51982747004828
30
0
41
1
10
52.9298184837558
20
-1.48068453332843
30
0
0
SPLINE
5
CE
100
AcDbEntity
8
1
62
256
6
ByLayer
370
18
48
1
60
0
100
AcDbSpline
70
4
71
3
72
14
73
10
40
0
40
0
40
0
40
0
40
0.25
40
0.25
40
0.5
40
0.5
40
0.75
40
0.75
40
1
40
1
40
1
40
1
41
1
10
53.2690071409142
20
-2.02704897542125
30
0
41
1
10
53.2714938678655
20
-2.02610674570596
30
0
41
1
10
53.2733575252658
20
-2.02679294850387
30
0
41
1
10
53.2754244612947
20
-2.03245759890203
30
0
41
1
10
53.2755845789242
20
-2.03751719880378
30
0
41
1
10
53.2732225531718
20
-2.05321931739991
30
0
41
1
10
53.2706429558214
20
-2.06387542187562
30
0
41
1
10
53.2630706316473
20
-2.08837706282355
30
0
41
1
10
53.2581394888682
20
-2.10204831785347
30
0
41
1
10
53.2529177911406
20
-2.1151609578495
30
0
0
SPLINE
5
CF
100
AcDbEntity
8
1
62
256
6
ByLayer
370
18
48
1
60
0
100
AcDbSpline
70
4
71
3
72
8
73
4
40
0
40
0
40
0
40
0
40
1
40
1
40
1
40
1
41
1
10
8.09234780752999
20
2.0583685191543
30
0
41
1
10
8.10176090103349
20
2.05057283562545
30
0
41
1
10
8.11184631997941
20
2.04337615000569
30
0
41
1
10
8.12266125968438
20
2.03683539571159
30
0
0
SPLINE
5
D0
100
AcDbEntity
8
1
62
256
6
ByLayer
370
13
48
1
60
0
100
AcDbSpline
70
4
71
3
72
8
73
4
40
0
40
0
40
0
40
0
40
1
40
1
40
1
40
1
41
1
10
8.12459343446557
20
-2.11456830648044
30
0
41
1
10
8.1480352984095
20
-2.10018186799812
30
0
41
1
10
8.17343615449619
20
-2.09229256168231
30
0
41
1
10
8.1995788031125
20
-2.09073812687828
30
0
0
SPLINE
5
D1
100
AcDbEntity
8
1
62
256
6
ByLayer
370
18
48
1
60
0
100
AcDbSpline
70
4
71
3
72
8
73
4
40
0
40
0
40
0
40
0
40
1
40
1
40
1
40
1
41
1
10
8.03719238122974
20
-1.31222638962703
30
0
41
1
10
7.90140972563611
20
-1.2492346492613
30
0
41
1
10
7.76475317631252
20
-1.18375617324958
30
0
41
1
10
7.62717832180462
20
-1.11590961651137
30
0
0
SPLINE
5
D2
100
AcDbEntity
8
1
62
256
6
ByLayer
370
13
48
1
60
0
100
AcDbSpline
70
4
71
3
72
17
73
13
40
0
40
0
40
0
40
0
40
0.206923993334409
40
0.206923993334409
40
0.339103327778675
40
0.339103327778675
40
0.47128266222294
40
0.603461996667205
40
0.603461996667205
40
0.73564133111147
40
0.73564133111147
40
1
40
1
40
1
40
1
41
1
10
8.25020238622898
20
-2.00357118960139
30
0
41
1
10
8.25017359309075
20
-2.0050002751785
30
0
41
1
10
8.2501375859371
20
-1.99547744294509
30
0
41
1
10
8.25007264217999
20
-1.96210941838618
30
0
41
1
10
8.25004584417883
20
-1.94457789311315
30
0
41
1
10
8.2499923928643
20
-1.90141238732318
30
0
41
1
10
8.24993878874699
20
-1.85001722047338
30
0
41
1
10
8.24988836055854
20
-1.78235136971028
30
0
41
1
10
8.24984117476635
20
-1.7063166380847
30
0
41
1
10
8.24981933067949
20
-1.66420479175326
30
0
41
1
10
8.24976231525483
20
-1.5285349069502
30
0
41
1
10
8.24973511171208
20
-1.42486724934599
30
0
41
1
10
8.24972212688419
20
-1.30767594833398
30
0
0
SPLINE
5
D3
100
AcDbEntity
8
1
62
256
6
ByLayer
370
18
48
1
60
0
100
AcDbSpline
70
4
71
3
72
12
73
8
40
0
40
0
40
0
40
0
40
0.25
40
0.25
40
0.5
40
0.5
40
1
40
1
40
1
40
1
41
1
10
51.8961053796836
20
-0.673254693470767
30
0
41
1
10
51.9718804000761
20
-0.758225908863125
30
0
41
1
10
52.0512834977812
20
-0.838178191348902
30
0
41
1
10
52.2162892511509
20
-0.98950654286989
30
0
41
1
10
52.3023361826875
20
-1.06115882286431
30
0
41
1
10
52.5646515936662
20
-1.26214460306915
30
0
41
1
10
52.7450540756501
20
-1.37841055685601
30
0
41
1
10
52.9298184837559
20
-1.48068453332843
30
0
0
SPLINE
5
D4
100
AcDbEntity
8
1
62
256
6
ByLayer
370
18
48
1
60
0
100
AcDbSpline
70
4
71
3
72
33
73
29
40
0
40
0
40
0
40
0
40
0.124999999999995
40
0.124999999999995
40
0.24999999999999
40
0.24999999999999
40
0.312499999999988
40
0.312499999999988
40
0.374999999999986
40
0.374999999999986
40
0.499999999999981
40
0.499999999999981
40
0.624999999999976
40
0.624999999999976
40
0.749999999999971
40
0.749999999999971
40
0.781249999999969
40
0.796874999999971
40
0.796874999999971
40
0.812499999999973
40
0.812499999999973
40
0.828124999999975
40
0.828124999999975
40
0.843749999999977
40
0.843749999999977
40
0.874999999999981
40
0.874999999999981
40
1
40
1
40
1
40
1
41
1
10
51.8961053796835
20
-0.673254693470739
30
0
41
1
10
51.9825797840787
20
-0.68819631590776
30
0
41
1
10
52.0689347027208
20
-0.697512443435528
30
0
41
1
10
52.2413301182581
20
-0.70134144464339
30
0
41
1
10
52.3261052959414
20
-0.695661995133065
30
0
41
1
10
52.4489443549955
20
-0.673337671168298
30
0
41
1
10
52.4892493712516
20
-0.663593271334918
30
0
41
1
10
52.5684275960134
20
-0.638963032658694
30
0
41
1
10
52.6075167799686
20
-0.623945577770598
30
0
41
1
10
52.7198397837126
20
-0.57129683089056
30
0
41
1
10
52.7886025625874
20
-0.52603163382193
30
0
41
1
10
52.9126482335165
20
-0.413106737418474
30
0
41
1
10
52.9690376345221
20
-0.346161877872021
30
0
41
1
10
53.0674532943788
20
-0.199824614673105
30
0
41
1
10
53.1102119864742
20
-0.119835462801774
30
0
41
1
10
53.1569047450035
20
-0.0142897290751591
30
0
41
1
10
53.1703987612737
20
0.0177721923090246
30
0
41
1
10
53.1831784597943
20
0.0503877064979008
30
0
41
1
10
53.1915452912485
20
0.0722499317433289
30
0
41
1
10
53.1958958823401
20
0.0832840720700005
30
0
41
1
10
53.1993787916866
20
0.107639830839986
30
0
41
1
10
53.1985925934965
20
0.120911737495874
30
0
41
1
10
53.1948399129451
20
0.146820968017892
30
0
41
1
10
53.1915836058467
20
0.159748051839983
30
0
41
1
10
53.1815957728713
20
0.198524935843665
30
0
41
1
10
53.1753154214441
20
0.224418584103376
30
0
41
1
10
53.1436999259547
20
0.353863182738053
30
0
41
1
10
53.1195261230795
20
0.45755918853763
30
0
41
1
10
53.0961704016518
20
0.56130816433722
30
0
0
SPLINE
5
D5
100
AcDbEntity
8
1
62
256
6
ByLayer
370
18
48
1
60
0
100
AcDbSpline
70
4
71
3
72
10
73
6
40
0
40
0
40
0
40
0
40
0.5
40
0.5
40
1
40
1
40
1
40
1
41
1
10
8.12219577647261
20
2.11468369669262
30
0
41
1
10
8.09856511673632
20
2.1158237795272
30
0
41
1
10
8.07797527885228
20
2.11719999482324
30
0
41
1
10
8.04749585447729
20
2.1196945583238
30
0
41
1
10
8.03769375107044
20
2.12077243044195
30
0
41
1
10
8.03768845997718
20
2.12130510240573
30
0
0
SPLINE
5
D6
100
AcDbEntity
8
1
62
256
6
ByLayer
370
18
48
1
60
0
100
AcDbSpline
70
4
71
3
72
42
73
38
40
0
40
0
40
0
40
0
40
0.120692732921579
40
0.120692732921579
40
0.150865916151973
40
0.150865916151973
40
0.181039099382367
40
0.181039099382367
40
0.241385465843155
40
0.241385465843155
40
0.301731832303943
40
0.301731832303943
40
0.362078198764731
40
0.362078198764731
40
0.482770931686308
40
0.482770931686308
40
0.5129441149167
40
0.5129441149167
40
0.543117298147093
40
0.543117298147093
40
0.603463664607878
40
0.603463664607878
40
0.663810031068664
40
0.663810031068664
40
0.693983214299057
40
0.693983214299057
40
0.724156397529449
40
0.724156397529449
40
0.844849130451023
40
0.844849130451023
40
0.90519549691181
40
0.90519549691181
40
0.935368680142203
40
0.935368680142203
40
0.965541863372597
40
0.965541863372597
40
1
40
1
40
1
40
1
41
1
10
53.2447964518909
20
-2.13554134661558
30
0
41
1
10
52.774631177674
20
-2.16798271986912
30
0
41
1
10
52.3076489141915
20
-2.14470651341577
30
0
41
1
10
51.7174423627656
20
-2.0471974999717
30
0
41
1
10
51.5988797984237
20
-2.0242319525891
30
0
41
1
10
51.3629506544951
20
-1.97199304304001
30
0
41
1
10
51.2453438362078
20
-1.94267687994423
30
0
41
1
10
50.8930480430682
20
-1.84562735636658
30
0
41
1
10
50.6588397006469
20
-1.76883591743194
30
0
41
1
10
50.189381919039
20
-1.5933895056254
30
0
41
1
10
49.9540838237191
20
-1.49468252017815
30
0
41
1
10
49.4806628418112
20
-1.27736011736118
30
0
41
1
10
49.2458839943202
20
-1.16062359268392
30
0
41
1
10
48.5436445569352
20
-0.792129712720794
30
0
41
1
10
48.0787232466453
20
-0.521416013618534
30
0
41
1
10
47.4896281050255
20
-0.170648630396755
30
0
41
1
10
47.3710990945015
20
-0.0996372072565066
30
0
41
1
10
47.1348738677796
20
0.0420240662078299
30
0
41
1
10
47.0171993239319
20
0.112592443670167
30
0
41
1
10
46.6651777792263
20
0.323019471845043
30
0
41
1
10
46.4316154119372
20
0.461221808694575
30
0
41
1
10
45.964389201376
20
0.729704747301128
30
0
41
1
10
45.7308791010036
20
0.860236070972348
30
0
41
1
10
45.3790030637463
20
1.04755733000059
30
0
41
1
10
45.2614179388226
20
1.10854695213732
30
0
41
1
10
45.0253400581499
20
1.22710461551108
30
0
41
1
10
44.9066842536875
20
1.28473445388022
30
0
41
1
10
44.3170248939419
20
1.56019159324524
30
0
41
1
10
43.8518671483182
20
1.74252610612325
30
0
41
1
10
43.1500507058092
20
1.94512808435306
30
0
41
1
10
42.9152703172755
20
2.00071123668965
30
0
41
1
10
42.560174574516
20
2.06456383692211
30
0
41
1
10
42.4417781769005
20
2.08251516995739
30
0
41
1
10
42.2063149160909
20
2.11146113716251
30
0
41
1
10
42.0889807592744
20
2.12249254763768
30
0
41
1
10
41.8381282287469
20
2.138751329396
30
0
41
1
10
41.704660807831
20
2.14293802122816
30
0
41
1
10
41.571256395141
20
2.14266025455967
30
0
0
SPLINE
5
D7
100
AcDbEntity
8
1
62
256
6
ByLayer
370
18
48
1
60
0
100
AcDbSpline
70
4
71
3
72
40
73
36
40
0
40
0
40
0
40
0
40
0.0540635462819525
40
0.0540635462819525
40
0.168847730720057
40
0.168847730720057
40
0.226239822939108
40
0.226239822939108
40
0.254935869048634
40
0.254935869048634
40
0.283631915158159
40
0.283631915158159
40
0.398416099596258
40
0.398416099596258
40
0.427112145705783
40
0.427112145705783
40
0.455808191815309
40
0.455808191815309
40
0.513200284034358
40
0.513200284034358
40
0.627984468472456
40
0.627984468472456
40
0.65668051458198
40
0.65668051458198
40
0.685376560691504
40
0.685376560691504
40
0.742768652910554
40
0.742768652910554
40
0.800160745129604
40
0.800160745129604
40
0.857552837348653
40
0.857552837348653
40
0.972337021786753
40
0.972337021786753
40
1
40
1
40
1
40
1
41
1
10
31.368829315806
20
-2.04698558856626
30
0
41
1
10
31.1478513695849
20
-2.08455373028346
30
0
41
1
10
30.9258168579792
20
-2.110611385261
30
0
41
1
10
30.2287741173186
20
-2.15338591863682
30
0
41
1
10
29.7624868048582
20
-2.12620151956463
30
0
41
1
10
29.0606006946844
20
-2.00643274832788
30
0
41
1
10
28.8261705105343
20
-1.95336340693652
30
0
41
1
10
28.4721292914143
20
-1.85465410879186
30
0
41
1
10
28.3533948230124
20
-1.81843496040412
30
0
41
1
10
28.1168898942402
20
-1.74043487452423
30
0
41
1
10
27.9990890368318
20
-1.69866965786085
30
0
41
1
10
27.4115151659552
20
-1.47710586285049
30
0
41
1
10
26.9458540140668
20
-1.25943376323687
30
0
41
1
10
26.35862679303
20
-0.950764398658578
30
0
41
1
10
26.240866454619
20
-0.887280954935676
30
0
41
1
10
26.0044150182101
20
-0.757226142720981
30
0
41
1
10
25.8855942079532
20
-0.690572232288332
30
0
41
1
10
25.5312521457474
20
-0.48892003224185
30
0
41
1
10
25.2966148795572
20
-0.351465095997327
30
0
41
1
10
24.5946993226215
20
0.0652110526182241
30
0
41
1
10
24.1279576964763
20
0.346247167092144
30
0
41
1
10
23.5358220801593
20
0.684148199584598
30
0
41
1
10
23.4173212853132
20
0.750678150933453
30
0
41
1
10
23.1815197487585
20
0.880313666788169
30
0
41
1
10
23.0639717744036
20
0.943561253279995
30
0
41
1
10
22.7119506966248
20
1.12801921825536
30
0
41
1
10
22.4782280957148
20
1.24413837165267
30
0
41
1
10
22.0103342454536
20
1.45936615727356
30
0
41
1
10
21.776026339862
20
1.55829715132941
30
0
41
1
10
21.3044046566209
20
1.73573653145999
30
0
41
1
10
21.0663361250438
20
1.81445424487987
30
0
41
1
10
20.3599245487301
20
2.01154937079789
30
0
41
1
10
19.8940185917008
20
2.0924195891042
30
0
41
1
10
19.3112956477662
20
2.12536661311219
30
0
41
1
10
19.1978961598599
20
2.12859583992142
30
0
41
1
10
19.084113685109
20
2.12859962420779
30
0
0
SPLINE
5
D8
100
AcDbEntity
8
1
62
256
6
ByLayer
370
18
48
1
60
0
100
AcDbSpline
70
4
71
3
72
10
73
6
40
0
40
0
40
0
40
0
40
0.12203711059996
40
0.12203711059996
40
1
40
1
40
1
40
1
41
1
10
8.93369735427046
20
-2.02234558963011
30
0
41
1
10
8.90079194067363
20
-2.02824382459554
30
0
41
1
10
8.86789490817361
20
-2.0338830855801
30
0
41
1
10
8.59836289814015
20
-2.07795644478136
30
0
41
1
10
8.3619064893436
20
-2.10317408949825
30
0
41
1
10
8.12459343446551
20
-2.11456830648044
30
0
0
SPLINE
5
D9
100
AcDbEntity
8
1
62
256
6
ByLayer
370
18
48
1
60
0
100
AcDbSpline
70
4
71
3
72
8
73
4
40
0
40
0
40
0
40
0
40
1
40
1
40
1
40
1
41
1
10
53.890352203133
20
-0.176960083923234
30
0
41
1
10
53.8186476313006
20
-0.373966775904506
30
0
41
1
10
53.7469430594681
20
-0.570973467885835
30
0
41
1
10
53.6752384876357
20
-0.767980159867136
30
0
0
SPLINE
5
DA
100
AcDbEntity
8
1
62
256
6
ByLayer
370
13
48
1
60
0
100
AcDbSpline
70
4
71
3
72
28
73
24
40
0
40
0
40
0
40
0
40
0.0786161597142963
40
0.0786161597142963
40
0.157232319428593
40
0.157232319428593
40
0.314464638857189
40
0.314464638857189
40
0.471696958285785
40
0.471696958285785
40
0.550313118000083
40
0.550313118000083
40
0.628929277714381
40
0.628929277714381
40
0.786161597142974
40
0.786161597142974
40
0.825469677000123
40
0.825469677000123
40
0.864777756857272
40
0.864777756857272
40
0.94339391657157
40
0.94339391657157
40
1
40
1
40
1
40
1
41
1
10
53.2690071409219
20
-2.02704897542097
30
0
41
1
10
53.0336301110519
20
-2.03610432728334
30
0
41
1
10
52.7985488485526
20
-2.03187591448827
30
0
41
1
10
52.3269643676882
20
-1.99705873662734
30
0
41
1
10
52.0913999909289
20
-1.96645976783137
30
0
41
1
10
51.3887231929548
20
-1.83830402719926
30
0
41
1
10
50.9230401024114
20
-1.70389782766429
30
0
41
1
10
49.9790826318085
20
-1.35109710149769
30
0
41
1
10
49.5138330961113
20
-1.13724293390652
30
0
41
1
10
48.8144829029313
20
-0.782129410404934
30
0
41
1
10
48.5809877810259
20
-0.657986396947621
30
0
41
1
10
48.1115467232627
20
-0.40107988536306
30
0
41
1
10
47.8748657632369
20
-0.268165365965359
30
0
41
1
10
47.1718251830366
20
0.129161787633649
30
0
41
1
10
46.7081040542652
20
0.394972762791639
30
0
41
1
10
46.1234037015334
20
0.708381095636639
30
0
41
1
10
46.0062105466275
20
0.770111628022846
30
0
41
1
10
45.7711433861515
20
0.891381644336917
30
0
41
1
10
45.6529370221366
20
0.95102227533269
30
0
41
1
10
45.2996941590199
20
1.12447018612494
30
0
41
1
10
45.0658266641364
20
1.23266998273397
30
0
41
1
10
44.6644560445029
20
1.40367143709335
30
0
41
1
10
44.4967200257081
20
1.47070829009013
30
0
41
1
10
44.328876174759
20
1.53272934578507
30
0
0
SPLINE
5
DB
100
AcDbEntity
8
1
62
256
6
ByLayer
370
18
48
1
60
0
100
AcDbSpline
70
4
71
3
72
14
73
10
40
0
40
0
40
0
40
0
40
0.219262248135066
40
0.219262248135066
40
0.55930469210608
40
0.55930469210608
40
0.899347136077092
40
0.899347136077092
40
1
40
1
40
1
40
1
41
1
10
30.5270063213861
20
-2.01750107697237
30
0
41
1
10
30.3750844672272
20
-2.01743731987628
30
0
41
1
10
30.2235369114437
20
-2.01190890589251
30
0
41
1
10
29.8378135973092
20
-1.98409454342178
30
0
41
1
10
29.6038992702231
20
-1.95431041023915
30
0
41
1
10
29.1350460712492
20
-1.87020612278431
30
0
41
1
10
28.8997329352357
20
-1.81568524206648
30
0
41
1
10
28.5935319313026
20
-1.7298877012104
30
0
41
1
10
28.5237352263208
20
-1.70931697339674
30
0
41
1
10
28.4540448598707
20
-1.68781255107206
30
0
0
SPLINE
5
DC
100
AcDbEntity
8
1
62
256
6
ByLayer
370
13
48
1
60
0
100
AcDbSpline
70
4
71
3
72
24
73
20
40
0
40
0
40
0
40
0
40
0.0821947145199141
40
0.0821947145199141
40
0.198948941231382
40
0.198948941231382
40
0.257326054587115
40
0.257326054587115
40
0.315703167942847
40
0.315703167942847
40
0.549211621365788
40
0.549211621365788
40
0.665965848077257
40
0.665965848077257
40
0.72434296143299
40
0.72434296143299
40
0.782720074788723
40
0.782720074788723
40
1
40
1
40
1
40
1
41
1
10
28.454043904604
20
-1.68781225630445
30
0
41
1
10
28.2882948675182
20
-1.63666689807377
30
0
41
1
10
28.123147345635
20
-1.58023999146837
30
0
41
1
10
27.7238312126172
20
-1.43222056626917
30
0
41
1
10
27.4898496655736
20
-1.33578541478872
30
0
41
1
10
27.1377950910398
20
-1.1788872771931
30
0
41
1
10
27.0202696109789
20
-1.12452940691691
30
0
41
1
10
26.7846001029288
20
-1.0120184110427
30
0
41
1
10
26.6662076208486
20
-0.953710841253042
30
0
41
1
10
26.077079805262
20
-0.656138625996931
30
0
41
1
10
25.6117152904926
20
-0.398873764899918
30
0
41
1
10
24.9108301942489
20
-0.0051314920148968
30
0
41
1
10
24.6766137069827
20
0.127219146568962
30
0
41
1
10
24.3227300716878
20
0.324377651089407
30
0
41
1
10
24.2042986811419
20
0.389888621135611
30
0
41
1
10
23.9688645443024
20
0.51882404705816
30
0
41
1
10
23.8515313513836
20
0.58234591584619
30
0
41
1
10
23.2986766171604
20
0.877011828560285
30
0
41
1
10
22.8659407711656
20
1.09287935554542
30
0
41
1
10
22.4297041572534
20
1.28177728072021
30
0
0
SPLINE
5
DD
100
AcDbEntity
8
1
62
256
6
ByLayer
370
13
48
1
60
0
100
AcDbSpline
70
4
71
3
72
8
73
4
40
0
40
0
40
0
40
0
40
1
40
1
40
1
40
1
41
1
10
8.4171282537298
20
-1.99203798574249
30
0
41
1
10
8.36154769069418
20
-1.99536602376224
30
0
41
1
10
8.3059180513103
20
-1.99797172980135
30
0
41
1
10
8.25022461790272
20
-1.99984751107985
30
0
0
SPLINE
5
DE
100
AcDbEntity
8
1
62
256
6
ByLayer
370
18
48
1
60
0
100
AcDbSpline
70
4
71
3
72
78
73
74
40
0
40
0
40
0
40
0
40
0.0410633630833014
40
0.0410633630833014
40
0.0649650740741419
40
0.0649650740741419
40
0.0888667850649823
40
0.0888667850649823
40
0.136670207046662
40
0.136670207046662
40
0.160571918037502
40
0.160571918037502
40
0.184473629028342
40
0.184473629028342
40
0.208375340019182
40
0.208375340019182
40
0.232277051010022
40
0.232277051010022
40
0.280080472991702
40
0.280080472991702
40
0.303982183982542
40
0.303982183982542
40
0.327883894973382
40
0.327883894973382
40
0.351785605964221
40
0.351785605964221
40
0.363736461459641
40
0.363736461459641
40
0.375687316955061
40
0.375687316955061
40
0.423490738936735
40
0.423490738936735
40
0.447392449927573
40
0.447392449927573
40
0.471294160918411
40
0.471294160918411
40
0.519097582900088
40
0.519097582900088
40
0.542999293890926
40
0.542999293890926
40
0.566901004881765
40
0.566901004881765
40
0.590802715872603
40
0.590802715872603
40
0.614704426863441
40
0.614704426863441
40
0.662507848845118
40
0.662507848845118
40
0.686409559835957
40
0.686409559835957
40
0.710311270826795
40
0.710311270826795
40
0.758114692808473
40
0.758114692808473
40
0.782016403799312
40
0.782016403799312
40
0.805918114790153
40
0.805918114790153
40
0.829819825780993
40
0.829819825780993
40
0.853721536771834
40
0.853721536771834
40
0.901524958753512
40
0.901524958753512
40
0.925426669744351
40
0.925426669744351
40
0.949328380735189
40
0.949328380735189
40
0.973230091726028
40
0.973230091726028
40
0.997131802716866
40
0.997131802716866
40
1
40
1
40
1
40
1
41
1
10
14.8713155445945
20
1.09023681112521
30
0
41
1
10
15.0769495676454
20
1.19515370138055
30
0
41
1
10
15.2822208771376
20
1.29263751995421
30
0
41
1
10
15.6050112321512
20
1.43770317668321
30
0
41
1
10
15.7230546173436
20
1.4894212295616
30
0
41
1
10
15.9590921346861
20
1.58764560129273
30
0
41
1
10
16.0775859897102
20
1.63359641362902
30
0
41
1
10
16.4340014316604
20
1.76287977613077
30
0
41
1
10
16.6727211457408
20
1.83798746854814
30
0
41
1
10
17.029996103168
20
1.93490700223961
30
0
41
1
10
17.1500252966705
20
1.96381706206677
30
0
41
1
10
17.3901347717149
20
2.01429455761101
30
0
41
1
10
17.5102421146409
20
2.03606725939847
30
0
41
1
10
17.7501134128814
20
2.07297986632923
30
0
41
1
10
17.8700081733545
20
2.08806684369066
30
0
41
1
10
18.109114874843
20
2.11144654419834
30
0
41
1
10
18.2284865889328
20
2.11964814686991
30
0
41
1
10
18.5884929222078
20
2.13302723625731
30
0
41
1
10
18.8288400764251
20
2.12779764229182
30
0
41
1
10
19.1878880862516
20
2.0985660593349
30
0
41
1
10
19.3069301885122
20
2.08499753302127
30
0
41
1
10
19.5467628057152
20
2.05115408391404
30
0
41
1
10
19.6669083630246
20
2.03097502204866
30
0
41
1
10
19.9069728833926
20
1.98404166120525
30
0
41
1
10
20.0268861731718
20
1.95726621904132
30
0
41
1
10
20.2065597564018
20
1.91205451338462
30
0
41
1
10
20.2664043719421
20
1.89613248242046
30
0
41
1
10
20.3858811965792
20
1.86244243385346
30
0
41
1
10
20.4454309557285
20
1.84459483818435
30
0
41
1
10
20.7445162945799
20
1.75222747366953
30
0
41
1
10
20.9853529588608
20
1.6678801001849
30
0
41
1
10
21.3448418243056
20
1.52455122466418
30
0
41
1
10
21.4644423218561
20
1.47386729758162
30
0
41
1
10
21.7030609307936
20
1.36622420266298
30
0
41
1
10
21.8232171969213
20
1.31045930134741
30
0
41
1
10
22.1824972267937
20
1.13898773911362
30
0
41
1
10
22.4210538106892
20
1.01829256240234
30
0
41
1
10
22.7753596927603
20
0.824425909332746
30
0
41
1
10
22.8931367590717
20
0.758033689163113
30
0
41
1
10
23.1301025572899
20
0.625073504152482
30
0
41
1
10
23.248929579376
20
0.557945789786771
30
0
41
1
10
23.4866777836953
20
0.421431753457938
30
0
41
1
10
23.6057146769902
20
0.352237801270604
30
0
41
1
10
23.8437579262893
20
0.211265189634531
30
0
41
1
10
23.96242053705
20
0.138851068709727
30
0
41
1
10
24.32206797571
20
-0.075861187217896
30
0
41
1
10
24.5616432566423
20
-0.215977308523293
30
0
41
1
10
24.9177166648914
20
-0.42471075021129
30
0
41
1
10
25.0354827144971
20
-0.494782225077131
30
0
41
1
10
25.2715990718595
20
-0.631788723851571
30
0
41
1
10
25.3900887694938
20
-0.698518699056706
30
0
41
1
10
25.7461307050269
20
-0.894695327694677
30
0
41
1
10
25.9839666544864
20
-1.02063329507089
30
0
41
1
10
26.3404307093847
20
-1.2032691980933
30
0
41
1
10
26.4604867440708
20
-1.2618130248631
30
0
41
1
10
26.7004342184555
20
-1.37349784556253
30
0
41
1
10
26.8200767137818
20
-1.42676070941272
30
0
41
1
10
27.0584356627559
20
-1.5285890376195
30
0
41
1
10
27.1772787595908
20
-1.57700763650846
30
0
41
1
10
27.4134622453389
20
-1.66964668738041
30
0
41
1
10
27.5312384269545
20
-1.71331708631084
30
0
41
1
10
27.8864644537875
20
-1.83376121143363
30
0
41
1
10
28.1242099012383
20
-1.90190221883069
30
0
41
1
10
28.4804101511233
20
-1.98685383163627
30
0
41
1
10
28.5987432625082
20
-2.01239463111568
30
0
41
1
10
28.8377629101234
20
-2.05587440635802
30
0
41
1
10
28.9583012086163
20
-2.07406506783511
30
0
41
1
10
29.1977656365364
20
-2.10343962282039
30
0
41
1
10
29.3170547831679
20
-2.11465986961514
30
0
41
1
10
29.5546625488886
20
-2.13018304626553
30
0
41
1
10
29.6724767406781
20
-2.13450557551141
30
0
41
1
10
29.804723417315
20
-2.13529314564053
30
0
41
1
10
29.8188975207028
20
-2.13532742661309
30
0
41
1
10
29.8330761439447
20
-2.1353116398725
30
0
0
SPLINE
5
DF
100
AcDbEntity
8
1
62
256
6
ByLayer
370
18
48
1
60
0
100
AcDbSpline
70
4
71
3
72
82
73
78
40
0
40
0
40
0
40
0
40
0.0170682039670232
40
0.0170682039670232
40
0.0409164106353855
40
0.0409164106353855
40
0.0647646173037482
40
0.0647646173037482
40
0.0886128239721105
40
0.0886128239721105
40
0.112461030640473
40
0.112461030640473
40
0.160157443977198
40
0.160157443977198
40
0.18400565064556
40
0.18400565064556
40
0.207853857313921
40
0.207853857313921
40
0.231702063982283
40
0.231702063982283
40
0.255550270650644
40
0.255550270650644
40
0.279398477319006
40
0.279398477319006
40
0.303246683987367
40
0.303246683987367
40
0.327094890655729
40
0.327094890655729
40
0.350943097324091
40
0.350943097324091
40
0.374791303992452
40
0.374791303992452
40
0.398639510660813
40
0.398639510660813
40
0.422487717329175
40
0.422487717329175
40
0.446335923997536
40
0.446335923997536
40
0.470184130665898
40
0.470184130665898
40
0.494032337334259
40
0.494032337334259
40
0.541728750670985
40
0.541728750670985
40
0.565576957339347
40
0.565576957339347
40
0.589425164007709
40
0.589425164007709
40
0.637121577344437
40
0.637121577344437
40
0.6609697840128
40
0.6609697840128
40
0.684817990681164
40
0.684817990681164
40
0.708666197349527
40
0.708666197349527
40
0.732514404017891
40
0.732514404017891
40
0.780210817354621
40
0.780210817354621
40
0.804059024022984
40
0.804059024022984
40
0.827907230691347
40
0.827907230691347
40
0.851755437359711
40
0.851755437359711
40
0.875603644028074
40
0.875603644028074
40
0.899451850696438
40
0.899451850696438
40
0.923300057364802
40
0.923300057364802
40
0.947148264033165
40
0.947148264033165
40
0.970996470701529
40
0.970996470701529
40
1
40
1
40
1
40
1
41
1
10
37.3868763993008
20
1.10080465581362
30
0
41
1
10
37.4727356037697
20
1.14451960996416
30
0
41
1
10
37.5584696395416
20
1.1873966543061
30
0
41
1
10
37.7632287499076
20
1.28819968837385
30
0
41
1
10
37.8818421122157
20
1.34571513956607
30
0
41
1
10
38.120807843849
20
1.45406181537487
30
0
41
1
10
38.24081665344
20
1.50539804050243
30
0
41
1
10
38.481144109114
20
1.60337259854754
30
0
41
1
10
38.6009157739539
20
1.64967155488779
30
0
41
1
10
38.8391002772194
20
1.73688732818789
30
0
41
1
10
38.95707773958
20
1.77829596196372
30
0
41
1
10
39.311845514238
20
1.8917408710391
30
0
41
1
10
39.5492483281731
20
1.95374502093713
30
0
41
1
10
39.9044630543504
20
2.02862004039423
30
0
41
1
10
40.0225311797883
20
2.05058927107768
30
0
41
1
10
40.2587841824444
20
2.08778576133989
30
0
41
1
10
40.3776640625388
20
2.10273010393573
30
0
41
1
10
40.6166633661633
20
2.12565034178843
30
0
41
1
10
40.7370051019138
20
2.13366605940209
30
0
41
1
10
40.9765767614063
20
2.14259632597859
30
0
41
1
10
41.0958837019201
20
2.14354253318945
30
0
41
1
10
41.3325094585355
20
2.13819343220882
30
0
41
1
10
41.4506162997588
20
2.13189080753512
30
0
41
1
10
41.687551218108
20
2.11260329016398
30
0
41
1
10
41.806120702235
20
2.09960132920782
30
0
41
1
10
42.0429526008168
20
2.06679980861478
30
0
41
1
10
42.1613382945835
20
2.04704855785692
30
0
41
1
10
42.3975843808434
20
2.00038633909926
30
0
41
1
10
42.515218180108
20
1.97324849561235
30
0
41
1
10
42.7525950701918
20
1.91334078238569
30
0
41
1
10
42.8720009133103
20
1.88043140477498
30
0
41
1
10
43.1115391138135
20
1.8081626309839
30
0
41
1
10
43.2318463666299
20
1.76878297592344
30
0
41
1
10
43.4704708689854
20
1.68426510342184
30
0
41
1
10
43.5886137549267
20
1.6384507034291
30
0
41
1
10
43.8253285800604
20
1.54275598276132
30
0
41
1
10
43.9439047992375
20
1.49294114371816
30
0
41
1
10
44.180957320785
20
1.38893782005121
30
0
41
1
10
44.2993609765341
20
1.33464722369675
30
0
41
1
10
44.5359400168352
20
1.2214666290204
30
0
41
1
10
44.6538460969595
20
1.16219632250451
30
0
41
1
10
45.0075267744503
20
0.977589020631228
30
0
41
1
10
45.2461905501168
20
0.849997984951841
30
0
41
1
10
45.6060635829487
20
0.64818148467333
30
0
41
1
10
45.725808648123
20
0.57980257477945
30
0
41
1
10
45.9629090719009
20
0.439673876272536
30
0
41
1
10
46.0811582320734
20
0.369097116353146
30
0
41
1
10
46.4368606674739
20
0.158989370081031
30
0
41
1
10
46.674034647451
20
0.0189821308412093
30
0
41
1
10
47.0280347131187
20
-0.194025866322932
30
0
41
1
10
47.1454769921037
20
-0.265977455712829
30
0
41
1
10
47.382350842021
20
-0.406498661110589
30
0
41
1
10
47.5014509039309
20
-0.475632013535403
30
0
41
1
10
47.7402657689094
20
-0.612854220185284
30
0
41
1
10
47.8603478740304
20
-0.681019856850554
30
0
41
1
10
48.0995850141562
20
-0.815397480100188
30
0
41
1
10
48.2179795844963
20
-0.882264517126771
30
0
41
1
10
48.5735733030128
20
-1.07531208845523
30
0
41
1
10
48.8110869923548
20
-1.19446261883169
30
0
41
1
10
49.1658254379551
20
-1.36266007980711
30
0
41
1
10
49.2836496233888
20
-1.41714309810533
30
0
41
1
10
49.5191002867787
20
-1.52189248318811
30
0
41
1
10
49.6374660477767
20
-1.57125450982053
30
0
41
1
10
49.8752308607892
20
-1.66443413716871
30
0
41
1
10
49.994513559011
20
-1.7083843617248
30
0
41
1
10
50.2336578864918
20
-1.79115256796385
30
0
41
1
10
50.3538588321409
20
-1.82990274605069
30
0
41
1
10
50.5915079919167
20
-1.90175760480568
30
0
41
1
10
50.7099171036907
20
-1.93433008724756
30
0
41
1
10
50.9473156359353
20
-1.99208614734746
30
0
41
1
10
51.0660141251848
20
-2.01752609340127
30
0
41
1
10
51.3028856429284
20
-2.06197966692159
30
0
41
1
10
51.4211806064577
20
-2.08092566329091
30
0
41
1
10
51.65704115352
20
-2.11226890338693
30
0
41
1
10
51.7743445446205
20
-2.12466579345681
30
0
41
1
10
52.0363853079443
20
-2.14388707644136
30
0
41
1
10
52.1809599295273
20
-2.14927451950715
30
0
41
1
10
52.3260181819321
20
-2.1494263353612
30
0
0
SPLINE
5
E0
100
AcDbEntity
8
1
62
256
6
ByLayer
370
18
48
1
60
0
100
AcDbSpline
70
4
71
3
72
10
73
6
40
0
40
0
40
0
40
0
40
0.5
40
0.5
40
1
40
1
40
1
40
1
41
1
10
53.1659836714004
20
0.636727568867911
30
0
41
1
10
53.2882070319648
20
0.638289304224628
30
0
41
1
10
53.4103139525967
20
0.640344842159038
30
0
41
1
10
53.6538241180462
20
0.647440091268038
30
0
41
1
10
53.775304952392
20
0.652150758030956
30
0
41
1
10
53.8960987335953
20
0.659775104021662
30
0
0
SPLINE
5
E1
100
AcDbEntity
8
1
62
256
6
ByLayer
370
18
48
1
60
0
100
AcDbSpline
70
4
71
3
72
8
73
4
40
0
40
0
40
0
40
0
40
1
40
1
40
1
40
1
41
1
10
53.2188737118754
20
-2.02183207629972
30
0
41
1
10
53.2250799398727
20
-2.02704258787557
30
0
41
1
10
53.2319961637454
20
-2.03018595535826
30
0
41
1
10
53.2396453949327
20
-2.03129096486069
30
0
0
SPLINE
5
E2
100
AcDbEntity
8
1
62
256
6
ByLayer
370
18
48
1
60
0
100
AcDbSpline
70
4
71
3
72
10
73
6
40
0
40
0
40
0
40
0
40
0.5
40
0.5
40
1
40
1
40
1
40
1
41
1
10
53.3225442266165
20
-2.06767630790657
30
0
41
1
10
53.4196982812973
20
-1.8360203240517
30
0
41
1
10
53.5166851297221
20
-1.60300426830943
30
0
41
1
10
53.708652350239
20
-1.13336694408298
30
0
41
1
10
53.803692961881
20
-0.896501603118111
30
0
41
1
10
53.8960987335952
20
-0.659775104021662
30
0
0
SPLINE
5
E3
100
AcDbEntity
8
1
62
256
6
ByLayer
370
18
48
1
60
0
100
AcDbSpline
70
4
71
3
72
10
73
6
40
0
40
0
40
0
40
0
40
0.5
40
0.5
40
1
40
1
40
1
40
1
41
1
10
8.03768845997109
20
-2.12130510241334
30
0
41
1
10
8.04787083117094
20
-2.104760082513
30
0
41
1
10
8.06035164662097
20
-2.08881237757205
30
0
41
1
10
8.08875007094744
20
-2.06037078181822
30
0
41
1
10
8.10469953163593
20
-2.04769844747767
30
0
41
1
10
8.12266125968441
20
-2.03683539571159
30
0
0
SPLINE
5
E4
100
AcDbEntity
8
1
62
256
6
ByLayer
370
18
48
1
60
0
100
AcDbSpline
70
4
71
3
72
40
73
36
40
0
40
0
40
0
40
0
40
0.103124607937932
40
0.103124607937932
40
0.206249215875863
40
0.206249215875863
40
0.257811519844829
40
0.257811519844829
40
0.309373823813794
40
0.309373823813794
40
0.36093612778276
40
0.36093612778276
40
0.412498431751726
40
0.412498431751726
40
0.464060735720692
40
0.464060735720692
40
0.515623039689658
40
0.515623039689658
40
0.567185343658623
40
0.567185343658623
40
0.618747647627589
40
0.618747647627589
40
0.72187225556552
40
0.72187225556552
40
0.773434559534486
40
0.773434559534486
40
0.824996863503452
40
0.824996863503452
40
0.928121471441383
40
0.928121471441383
40
0.953902623425868
40
0.953902623425868
40
0.979683775410352
40
0.979683775410352
40
1
40
1
40
1
40
1
41
1
10
8.24972212692035
20
-1.30767594828231
30
0
41
1
10
8.47767893026133
20
-1.40480340724446
30
0
41
1
10
8.70352750819967
20
-1.4944624368531
30
0
41
1
10
9.15733693328417
20
-1.65079178774945
30
0
41
1
10
9.38345941209485
20
-1.71997168921314
30
0
41
1
10
9.72286647519545
20
-1.80781275126253
30
0
41
1
10
9.83576243257755
20
-1.83465216873913
30
0
41
1
10
10.0630633674085
20
-1.88232829489502
30
0
41
1
10
10.1773094837948
20
-1.90332995286093
30
0
41
1
10
10.4060043212324
20
-1.93978278845091
30
0
41
1
10
10.5209433631313
20
-1.9551217565706
30
0
41
1
10
10.7497286768142
20
-1.97955321946543
30
0
41
1
10
10.8635940761859
20
-1.98869953278822
30
0
41
1
10
11.0906106499748
20
-2.00092484573278
30
0
41
1
10
11.2042716776273
20
-2.00393509827387
30
0
41
1
10
11.4313013778109
20
-2.00438996422307
30
0
41
1
10
11.544532248275
20
-2.00185732338588
30
0
41
1
10
11.7707383644956
20
-1.99057314213431
30
0
41
1
10
11.8837554093672
20
-1.98176683475685
30
0
41
1
10
12.1096998141209
20
-1.95792202807596
30
0
41
1
10
12.2225072219273
20
-1.94279599434421
30
0
41
1
10
12.5635120727718
20
-1.88978132980256
30
0
41
1
10
12.7913624991834
20
-1.84317142347405
30
0
41
1
10
13.1352700071667
20
-1.75516040540916
30
0
41
1
10
13.2493871256032
20
-1.72291479851444
30
0
41
1
10
13.4768558575547
20
-1.65337763712321
30
0
41
1
10
13.5910128768318
20
-1.61690440061804
30
0
41
1
10
13.9318996246238
20
-1.49990530149839
30
0
41
1
10
14.1579254481293
20
-1.41278901827957
30
0
41
1
10
14.4401004081842
20
-1.29267789842027
30
0
41
1
10
14.4964974881505
20
-1.26805654009408
30
0
41
1
10
14.6095019443511
20
-1.21803381025154
30
0
41
1
10
14.6663213186107
20
-1.19296365349052
30
0
41
1
10
14.7678013077086
20
-1.14714207851202
30
0
41
1
10
14.8125332098942
20
-1.12666594375745
30
0
41
1
10
14.8572829934052
20
-1.10589784442576
30
0
0
SPLINE
5
E5
100
AcDbEntity
8
1
62
256
6
ByLayer
370
18
48
1
60
0
100
AcDbSpline
70
4
71
3
72
88
73
84
40
0
40
0
40
0
40
0
40
0.000967584207597
40
0.000967584207597
40
0.0240058770008637
40
0.0240058770008637
40
0.0470441697941305
40
0.0470441697941305
40
0.0700824625873972
40
0.0700824625873972
40
0.0931207553806639
40
0.0931207553806639
40
0.139197340967196
40
0.139197340967196
40
0.162235633760462
40
0.162235633760462
40
0.185273926553729
40
0.185273926553729
40
0.208312219346995
40
0.208312219346995
40
0.231350512140261
40
0.231350512140261
40
0.242869658536894
40
0.242869658536894
40
0.254388804933527
40
0.254388804933527
40
0.277427097726794
40
0.277427097726794
40
0.300465390520061
40
0.300465390520061
40
0.323503683313329
40
0.323503683313329
40
0.346541976106596
40
0.346541976106596
40
0.369580268899863
40
0.369580268899863
40
0.39261856169313
40
0.39261856169313
40
0.415656854486398
40
0.415656854486398
40
0.438695147279665
40
0.438695147279665
40
0.461733440072932
40
0.461733440072932
40
0.484771732866199
40
0.484771732866199
40
0.507810025659466
40
0.507810025659466
40
0.530848318452734
40
0.530848318452734
40
0.553886611246001
40
0.553886611246001
40
0.576924904039269
40
0.576924904039269
40
0.599963196832536
40
0.599963196832536
40
0.64603978241907
40
0.64603978241907
40
0.669078075212336
40
0.669078075212336
40
0.692116368005602
40
0.692116368005602
40
0.715154660798868
40
0.715154660798868
40
0.738192953592134
40
0.738192953592134
40
0.784269539178669
40
0.784269539178669
40
0.807307831971936
40
0.807307831971936
40
0.830346124765204
40
0.830346124765204
40
0.853384417558471
40
0.853384417558471
40
0.876422710351738
40
0.876422710351738
40
0.922499295938275
40
0.922499295938275
40
0.945537588731542
40
0.945537588731542
40
0.96857588152481
40
0.96857588152481
40
1
40
1
40
1
40
1
41
1
10
22.5449926687935
20
2.01251511931247
30
0
41
1
10
22.5497554464009
20
2.0125522397974
30
0
41
1
10
22.5545187230096
20
2.01258305725318
30
0
41
1
10
22.6727092285699
20
2.01318915391926
30
0
41
1
10
22.7869887352605
20
2.01004963170644
30
0
41
1
10
23.0165034822156
20
1.99751487750643
30
0
41
1
10
23.1313651170116
20
1.98810762857838
30
0
41
1
10
23.3597171975264
20
1.96368420098767
30
0
41
1
10
23.4735000523805
20
1.94867004706563
30
0
41
1
10
23.7002690132261
20
1.91345960913935
30
0
41
1
10
23.8131541728435
20
1.89324970791049
30
0
41
1
10
24.1534237503781
20
1.82411848548173
30
0
41
1
10
24.3798419489332
20
1.76499872722863
30
0
41
1
10
24.7196725061778
20
1.6612343679185
30
0
41
1
10
24.8329170658047
20
1.62403842251217
30
0
41
1
10
25.0596882218744
20
1.54524254461211
30
0
41
1
10
25.1738784157988
20
1.50475818740927
30
0
41
1
10
25.4027625307587
20
1.41693875215842
30
0
41
1
10
25.5178348681648
20
1.37007560026308
30
0
41
1
10
25.746610379004
20
1.27262536443848
30
0
41
1
10
25.8605277712632
20
1.22188195214622
30
0
41
1
10
26.030835939601
20
1.1431178310014
30
0
41
1
10
26.0874730286463
20
1.11636260662888
30
0
41
1
10
26.2008807988529
20
1.06249813289068
30
0
41
1
10
26.2578002661834
20
1.03562551402411
30
0
41
1
10
26.4281270040492
20
0.95357538793013
30
0
41
1
10
26.5413714482524
20
0.897549872736363
30
0
41
1
10
26.7677113897128
20
0.782064814035039
30
0
41
1
10
26.880855038984
20
0.722856374005659
30
0
41
1
10
27.1070478944401
20
0.60203836938777
30
0
41
1
10
27.219801929481
20
0.539838956433812
30
0
41
1
10
27.4470775819677
20
0.416085188615682
30
0
41
1
10
27.5612026589638
20
0.353802346954439
30
0
41
1
10
27.7897341283249
20
0.227173747678819
30
0
41
1
10
27.9044135141404
20
0.162962737390302
30
0
41
1
10
28.1337187701018
20
0.0338525172167294
30
0
41
1
10
28.2478059370677
20
-0.0308631028291302
30
0
41
1
10
28.4751983109695
20
-0.160055872136582
30
0
41
1
10
28.5890385333389
20
-0.223696288888306
30
0
41
1
10
28.8162408306935
20
-0.349919230854198
30
0
41
1
10
28.9295973990087
20
-0.412297388974594
30
0
41
1
10
29.1560624897032
20
-0.535864049483905
30
0
41
1
10
29.2691919196918
20
-0.596968317839639
30
0
41
1
10
29.4952563301053
20
-0.717889268031087
30
0
41
1
10
29.6081488580074
20
-0.777737023930911
30
0
41
1
10
29.835420358923
20
-0.893381850482399
30
0
41
1
10
29.9491029479644
20
-0.95044546378054
30
0
41
1
10
30.176814217924
20
-1.06212921482447
30
0
41
1
10
30.2910350449183
20
-1.11628280395399
30
0
41
1
10
30.520165220312
20
-1.22167886074001
30
0
41
1
10
30.6347145935339
20
-1.27285676015643
30
0
41
1
10
30.862650478742
20
-1.37057506893842
30
0
41
1
10
30.9770513365308
20
-1.41621435223189
30
0
41
1
10
31.2046517821302
20
-1.50423942959807
30
0
41
1
10
31.3180901749426
20
-1.54647903727599
30
0
41
1
10
31.657898734255
20
-1.6657833198382
30
0
41
1
10
31.8832640307726
20
-1.73557164891327
30
0
41
1
10
32.224193724287
20
-1.82247245313073
30
0
41
1
10
32.3379386158491
20
-1.8487596680506
30
0
41
1
10
32.5655679107367
20
-1.89678372434645
30
0
41
1
10
32.6795035572883
20
-1.91842471291815
30
0
41
1
10
32.9080572432463
20
-1.95527808826088
30
0
41
1
10
33.0224902280038
20
-1.97061110239264
30
0
41
1
10
33.2521628345733
20
-1.99463149742732
30
0
41
1
10
33.3669716378226
20
-2.00366500697732
30
0
41
1
10
33.7107331752162
20
-2.02183915081488
30
0
41
1
10
33.939411900866
20
-2.02181828083232
30
0
41
1
10
34.2829389843972
20
-2.00395060698151
30
0
41
1
10
34.3975431999739
20
-1.99450771482768
30
0
41
1
10
34.6258917517588
20
-1.96935974757238
30
0
41
1
10
34.7396492567669
20
-1.9536363755814
30
0
41
1
10
34.9666420557963
20
-1.9167079915598
30
0
41
1
10
35.079874448904
20
-1.8955351115157
30
0
41
1
10
35.3058378116322
20
-1.84783691222302
30
0
41
1
10
35.4185900497605
20
-1.82137880921201
30
0
41
1
10
35.7585787218025
20
-1.73473474589693
30
0
41
1
10
35.9853707720503
20
-1.66473147772061
30
0
41
1
10
36.3267294527508
20
-1.54440127794808
30
0
41
1
10
36.4405961123763
20
-1.50155344668951
30
0
41
1
10
36.6692737290395
20
-1.41170034364873
30
0
41
1
10
36.7844293748116
20
-1.36574712556782
30
0
41
1
10
37.0543065866884
20
-1.2513750928899
30
0
41
1
10
37.2092056220671
20
-1.18132414160505
30
0
41
1
10
37.3636088421104
20
-1.1079883833294
30
0
0
SPLINE
5
E6
100
AcDbEntity
8
1
62
256
6
ByLayer
370
18
48
1
60
0
100
AcDbSpline
70
4
71
3
72
40
73
36
40
0
40
0
40
0
40
0
40
0.0030903226238717
40
0.0030903226238717
40
0.102781290361488
40
0.102781290361488
40
0.152626774230294
40
0.152626774230294
40
0.202472258099099
40
0.202472258099099
40
0.252317741967905
40
0.252317741967905
40
0.302163225836711
40
0.302163225836711
40
0.401854193574323
40
0.401854193574323
40
0.451699677443128
40
0.451699677443128
40
0.501545161311934
40
0.501545161311934
40
0.55139064518074
40
0.55139064518074
40
0.601236129049545
40
0.601236129049545
40
0.700927096787157
40
0.700927096787157
40
0.750772580655965
40
0.750772580655965
40
0.800618064524773
40
0.800618064524773
40
0.900309032262389
40
0.900309032262389
40
0.950154516131195
40
0.950154516131195
40
1
40
1
40
1
40
1
41
1
10
45.0547738211435
20
2.02586332278003
30
0
41
1
10
45.0617945183012
20
2.0258725007775
30
0
41
1
10
45.0688143635842
20
2.02587027002164
30
0
41
1
10
45.3022590992284
20
2.02541731093402
30
0
41
1
10
45.5280069984852
20
2.01306494820113
30
0
41
1
10
45.8667258775205
20
1.97755692233056
30
0
41
1
10
45.9804100945058
20
1.96255644359735
30
0
41
1
10
46.2083469962728
20
1.92550479902266
30
0
41
1
10
46.3225106372358
20
1.90392876376555
30
0
41
1
10
46.5514961171079
20
1.85497302200008
30
0
41
1
10
46.6662558160558
20
1.82758311741904
30
0
41
1
10
46.894203134355
20
1.76772255790161
30
0
41
1
10
47.0077439112755
20
1.73530813534268
30
0
41
1
10
47.3490616628835
20
1.6324164745426
30
0
41
1
10
47.575437099318
20
1.55241444845166
30
0
41
1
10
47.9145359307434
20
1.41868478135535
30
0
41
1
10
48.0273512862358
20
1.37161329446724
30
0
41
1
10
48.2535461811449
20
1.27391481965134
30
0
41
1
10
48.3674632955842
20
1.22414130058255
30
0
41
1
10
48.5949818459618
20
1.11972122386797
30
0
41
1
10
48.7089209143521
20
1.06534896831977
30
0
41
1
10
48.9375093584363
20
0.952860271980285
30
0
41
1
10
49.0523500517459
20
0.894554454342028
30
0
41
1
10
49.3947895345748
20
0.716171046047407
30
0
41
1
10
49.6228222269599
20
0.595275697189038
30
0
41
1
10
49.9628052218176
20
0.408079339634071
30
0
41
1
10
50.075945676239
20
0.344934811815563
30
0
41
1
10
50.3019588644544
20
0.217374247897027
30
0
41
1
10
50.414557330462
20
0.152474355209961
30
0
41
1
10
50.7549630821923
20
-0.0386332344389473
30
0
41
1
10
50.9821383839745
20
-0.167059522456725
30
0
41
1
10
51.324224234285
20
-0.359619744851187
30
0
41
1
10
51.4387286772724
20
-0.423961714710344
30
0
41
1
10
51.6674072424835
20
-0.551055324375824
30
0
41
1
10
51.7819786801472
20
-0.612532629563731
30
0
41
1
10
51.8961053796836
20
-0.673254693470795
30
0
0
SPLINE
5
E7
100
AcDbEntity
8
1
62
256
6
ByLayer
370
18
48
1
60
0
100
AcDbSpline
70
4
71
3
72
8
73
4
40
0
40
0
40
0
40
0
40
1
40
1
40
1
40
1
41
1
10
53.9791497773966
20
-0.121973946066817
30
0
41
1
10
53.9823715527662
20
-0.097727176393505
30
0
41
1
10
53.9899998857782
20
-0.0666035084450414
30
0
41
1
10
53.9999329886051
20
-0.0338510440957691
30
0
0
SPLINE
5
E8
100
AcDbEntity
8
1
62
256
6
ByLayer
370
18
48
1
60
0
100
AcDbSpline
70
4
71
3
72
12
73
8
40
0
40
0
40
0
40
0
40
0.25
40
0.25
40
0.5
40
0.5
40
1
40
1
40
1
40
1
41
1
10
53.0961704016518
20
0.56130816433722
30
0
41
1
10
53.0939640307137
20
0.571109134338371
30
0
41
1
10
53.0935373669721
20
0.581381382725283
30
0
41
1
10
53.0980189962368
20
0.600836718622958
30
0
41
1
10
53.1030818419127
20
0.60999660428314
30
0
41
1
10
53.1250406585238
20
0.631364329826454
30
0
41
1
10
53.1459051597317
20
0.636471011354246
30
0
41
1
10
53.1659836714003
20
0.636727568868594
30
0
0
SPLINE
5
E9
100
AcDbEntity
8
1
62
256
6
ByLayer
370
18
48
1
60
0
100
AcDbSpline
70
4
71
3
72
8
73
4
40
0
40
0
40
0
40
0
40
1
40
1
40
1
40
1
41
1
10
53.9791497773965
20
0.121973946066987
30
0
41
1
10
53.9823715527664
20
0.0977271763915724
30
0
41
1
10
53.9899998857793
20
0.0666035084400107
30
0
41
1
10
53.9999329886075
20
0.03385104408747
30
0
0
SPLINE
5
EA
100
AcDbEntity
8
1
62
256
6
ByLayer
370
18
48
1
60
0
100
AcDbSpline
70
4
71
3
72
8
73
4
40
0
40
0
40
0
40
0
40
1
40
1
40
1
40
1
41
1
10
53.3225442266251
20
-2.06767630788224
30
0
41
1
10
53.2931442593955
20
-2.09937333408229
30
0
41
1
10
53.2673031547295
20
-2.12207239136001
30
0
41
1
10
53.2447964518909
20
-2.13554134661558
30
0
0
SPLINE
5
EB
100
AcDbEntity
8
1
62
256
6
ByLayer
370
18
48
1
60
0
100
AcDbSpline
70
4
71
3
72
8
73
4
40
0
40
0
40
0
40
0
40
1
40
1
40
1
40
1
41
1
10
53.8960987335953
20
-0.659775104021662
30
0
41
1
10
53.9276377894026
20
-0.480492834877509
30
0
41
1
10
53.9553317996975
20
-0.301225741459092
30
0
41
1
10
53.9791497773965
20
-0.12197394606693
30
0
0
SPLINE
5
EC
100
AcDbEntity
8
1
62
256
6
ByLayer
370
18
48
1
60
0
100
AcDbSpline
70
4
71
3
72
25
73
21
40
0
40
0
40
0
40
0
40
0.147807495169952
40
0.147807495169952
40
0.318962310167801
40
0.318962310167801
40
0.490117125165649
40
0.490117125165649
40
0.500814301103016
40
0.500814301103016
40
0.511511477040381
40
0.511511477040381
40
0.522208652977747
40
0.522208652977747
40
0.532905828915112
40
0.575694532664574
40
0.575694532664574
40
0.661271940163499
40
0.661271940163499
40
1
40
1
40
1
40
1
41
1
10
7.62717832180462
20
2.11363957521689
30
0
41
1
10
7.62717832180462
20
1.92612884475488
30
0
41
1
10
7.62717832180465
20
1.73900971193282
30
0
41
1
10
7.62717832180465
20
1.33826601256433
30
0
41
1
10
7.62717832180462
20
1.12464766298632
30
0
41
1
10
7.62717832180462
20
0.700080210898392
30
0
41
1
10
7.62717832180462
20
0.489131978871939
30
0
41
1
10
7.62717832180462
20
0.266384781169876
30
0
41
1
10
7.62717832180459
20
0.253133744180161
30
0
41
1
10
7.62717832180459
20
0.227420911920319
30
0
41
1
10
7.62717832180462
20
0.215236082973377
30
0
41
1
10
7.62717832180462
20
0.192376742764822
30
0
41
1
10
7.62717832180462
20
0.182076505594551
30
0
41
1
10
7.62717832180462
20
0.16219516662008
30
0
41
1
10
7.62717832180462
20
0.112525146418278
30
0
41
1
10
7.62717832180462
20
0.0630222039170576
30
0
41
1
10
7.62717832180462
20
-0.0554604993683654
30
0
41
1
10
7.62717832180462
20
-0.134028760537262
30
0
41
1
10
7.62717832180462
20
-0.52115939942766
30
0
41
1
10
7.62717832180462
20
-0.822676957491183
30
0
41
1
10
7.62717832180462
20
-1.11590961651137
30
0
0
SPLINE
5
ED
100
AcDbEntity
8
1
62
256
6
ByLayer
370
18
48
1
60
0
100
AcDbSpline
70
4
71
3
72
14
73
10
40
0
40
0
40
0
40
0
40
0.206810017147578
40
0.206810017147578
40
0.367375687112237
40
0.367375687112237
40
0.527941357076895
40
0.527941357076895
40
1
40
1
40
1
40
1
41
1
10
41.775995325251
20
-2.02457170969689
30
0
41
1
10
41.6257820597478
20
-2.02449723825734
30
0
41
1
10
41.4753601400324
20
-2.0190729922038
30
0
41
1
10
41.2072846943892
20
-1.99984347954009
30
0
41
1
10
41.0898230119749
20
-1.98818226846282
30
0
41
1
10
40.8540498660084
20
-1.95835154174779
30
0
41
1
10
40.7359188470296
20
-1.94018506969323
30
0
41
1
10
40.2730207238528
20
-1.85679210362576
30
0
41
1
10
39.930637027887
20
-1.76833350296201
30
0
41
1
10
39.5879044651401
20
-1.65705160678112
30
0
0
SPLINE
5
EE
100
AcDbEntity
8
1
62
256
6
ByLayer
370
13
48
1
60
0
100
AcDbSpline
70
4
71
3
72
26
73
22
40
0
40
0
40
0
40
0
40
0.0607743438811176
40
0.0607743438811176
40
0.175439934857707
40
0.175439934857707
40
0.290105525834298
40
0.290105525834298
40
0.519436707787472
40
0.519436707787472
40
0.634102298764059
40
0.634102298764059
40
0.748767889740647
40
0.748767889740647
40
0.863433480717234
40
0.863433480717234
40
0.920766276205526
40
0.920766276205526
40
0.978099071693817
40
0.978099071693817
40
1
40
1
40
1
40
1
41
1
10
39.5879044651792
20
-1.65705160679374
30
0
41
1
10
39.4643298486577
20
-1.61692814278462
30
0
41
1
10
39.3407098789895
20
-1.57383761993032
30
0
41
1
10
38.9832630693982
20
-1.44134236638453
30
0
41
1
10
38.748908673162
20
-1.34479833501189
30
0
41
1
10
38.2765820670089
20
-1.13374108309296
30
0
41
1
10
38.0419429572912
20
-1.02078111827927
30
0
41
1
10
37.3408333027328
20
-0.666186527155219
30
0
41
1
10
36.876381230638
20
-0.408567459191659
30
0
41
1
10
36.1716716432084
20
-0.0116501146812595
30
0
41
1
10
35.9347940634953
20
0.122642954865938
30
0
41
1
10
35.4656885353609
20
0.385139647653205
30
0
41
1
10
35.2323861673935
20
0.514079158588572
30
0
41
1
10
34.7660799912913
20
0.763834802463805
30
0
41
1
10
34.5330211933074
20
0.884516378560761
30
0
41
1
10
34.1819209661673
20
1.05633343332821
30
0
41
1
10
34.064628050843
20
1.11204563761643
30
0
41
1
10
33.8294326824407
20
1.2202647503087
30
0
41
1
10
33.7111657136312
20
1.27280305390497
30
0
41
1
10
33.5482814071283
20
1.34216836024282
30
0
41
1
10
33.5033173475276
20
1.36099909236037
30
0
41
1
10
33.4584046878001
20
1.37948041872579
30
0
0
SPLINE
5
EF
100
AcDbEntity
8
1
62
256
6
ByLayer
370
18
48
1
60
0
100
AcDbSpline
70
4
71
3
72
12
73
8
40
0
40
0
40
0
40
0
40
0.518528314320082
40
0.518528314320082
40
0.830710153801226
40
0.830710153801226
40
1
40
1
40
1
40
1
41
1
10
19.2760658429689
20
-2.01039900914054
30
0
41
1
10
18.8849883190701
20
-2.01006835266063
30
0
41
1
10
18.4978288294787
20
-1.97381472616837
30
0
41
1
10
17.8761964140575
20
-1.86178874245277
30
0
41
1
10
17.642289371367
20
-1.80743785409138
30
0
41
1
10
17.27937025709
20
-1.70567621914861
30
0
41
1
10
17.1512007050833
20
-1.66636863170174
30
0
41
1
10
17.0231537194856
20
-1.62400860299491
30
0
0
SPLINE
5
F0
100
AcDbEntity
8
1
62
256
6
ByLayer
370
13
48
1
60
0
100
AcDbSpline
70
4
71
3
72
26
73
22
40
0
40
0
40
0
40
0
40
0.0525528225542593
40
0.0525528225542593
40
0.282181319314538
40
0.282181319314538
40
0.339588443504608
40
0.339588443504608
40
0.396995567694678
40
0.396995567694678
40
0.511809816074813
40
0.511809816074813
40
0.741438312835085
40
0.741438312835085
40
0.798845437025156
40
0.798845437025156
40
0.856252561215226
40
0.856252561215226
40
0.971066809595366
40
0.971066809595366
40
1
40
1
40
1
40
1
41
1
10
17.0231537196172
20
-1.62400860303848
30
0
41
1
10
16.9150734689457
20
-1.5882538955029
30
0
41
1
10
16.8070805406271
20
-1.55032447830627
30
0
41
1
10
16.2299000589221
20
-1.33651937199804
30
0
41
1
10
15.764773558252
20
-1.12553884486633
30
0
41
1
10
15.1788498090035
20
-0.83079169604008
30
0
41
1
10
15.0614286445184
20
-0.770298731728985
30
0
41
1
10
14.8258318116937
20
-0.646663343763521
30
0
41
1
10
14.7073630460617
20
-0.583333340279097
30
0
41
1
10
14.353362902962
20
-0.391278228577676
30
0
41
1
10
14.1190095555537
20
-0.260777212417594
30
0
41
1
10
13.4173987974725
20
0.131770277228043
30
0
41
1
10
12.9516560599348
20
0.3949727440733
30
0
41
1
10
12.3620795250782
20
0.707925740698244
30
0
41
1
10
12.2435403621864
20
0.769764622653099
30
0
41
1
10
12.0076930879085
20
0.890021984743385
30
0
41
1
10
11.8901466652891
20
0.948573329229959
30
0
41
1
10
11.5382375875138
20
1.11890146938762
30
0
41
1
10
11.3046708843053
20
1.22546314790864
30
0
41
1
10
11.0122626352773
20
1.34853639800116
30
0
41
1
10
10.9534004691347
20
1.37276811515642
30
0
41
1
10
10.8945143654413
20
1.39643558765744
30
0
0
SPLINE
5
F1
100
AcDbEntity
8
1
62
256
6
ByLayer
370
18
48
1
60
0
100
AcDbSpline
70
4
71
3
72
10
73
6
40
0
40
0
40
0
40
0
40
0.5
40
0.5
40
1
40
1
40
1
40
1
41
1
10
53.6752384876341
20
-0.767980159871797
30
0
41
1
10
53.6666976728563
20
-0.805776650675199
30
0
41
1
10
53.6530011051963
20
-0.849962600888773
30
0
41
1
10
53.6208278713043
20
-0.937155704445956
30
0
41
1
10
53.6028141527485
20
-0.979133820950437
30
0
41
1
10
53.5851463702974
20
-1.01550621792956
30
0
0
SPLINE
5
F2
100
AcDbEntity
8
1
62
256
6
ByLayer
370
18
48
1
60
0
100
AcDbSpline
70
4
71
3
72
8
73
4
40
0
40
0
40
0
40
0
40
1
40
1
40
1
40
1
41
1
10
53.2529177911405
20
-2.1151609578495
30
0
41
1
10
53.2502115930331
20
-2.12195671727321
30
0
41
1
10
53.2475044565061
20
-2.12875020736809
30
0
41
1
10
53.2447964518909
20
-2.13554134661558
30
0
0
SPLINE
5
F3
100
AcDbEntity
8
1
62
256
6
ByLayer
370
13
48
1
60
0
100
AcDbSpline
70
4
71
3
72
8
73
4
40
0
40
0
40
0
40
0
40
1
40
1
40
1
40
1
41
1
10
8.1995788031125
20
-2.09073812687828
30
0
41
1
10
8.44006669503807
20
-2.07643878197854
30
0
41
1
10
8.67921996456067
20
-2.04799351294551
30
0
41
1
10
8.91832249228852
20
-2.00610306058897
30
0
0
SPLINE
5
F4
100
AcDbEntity
8
1
62
256
6
ByLayer
370
13
48
1
60
0
100
AcDbSpline
70
4
71
3
72
10
73
6
40
0
40
0
40
0
40
0
40
0.350245047191773
40
0.350245047191773
40
1
40
1
40
1
40
1
41
1
10
20.731689181594
20
1.88916106615147
30
0
41
1
10
20.7816618613959
20
1.87608354272302
30
0
41
1
10
20.8316369533735
20
1.86245241889978
30
0
41
1
10
20.9743601677225
20
1.82197705244732
30
0
41
1
10
21.067173754541
20
1.79381408109268
30
0
41
1
10
21.1601267434849
20
1.76383438400748
30
0
0
SPLINE
5
F5
100
AcDbEntity
8
1
62
256
6
ByLayer
370
18
48
1
60
0
100
AcDbSpline
70
4
71
3
72
40
73
36
40
0
40
0
40
0
40
0
40
0.0415930855514237
40
0.0415930855514237
40
0.0760805111842574
40
0.0760805111842574
40
0.110567936817091
40
0.110567936817091
40
0.248517639348423
40
0.248517639348423
40
0.283005064981257
40
0.283005064981257
40
0.317492490614091
40
0.317492490614091
40
0.386467341879758
40
0.386467341879758
40
0.52441704441109
40
0.52441704441109
40
0.558904470043924
40
0.558904470043924
40
0.593391895676758
40
0.593391895676758
40
0.662366746942426
40
0.662366746942426
40
0.731341598208094
40
0.731341598208094
40
0.800316449473761
40
0.800316449473761
40
0.86929130073943
40
0.86929130073943
40
0.938266152005097
40
0.938266152005097
40
0.97275357763793
40
0.97275357763793
40
1
40
1
40
1
40
1
41
1
10
21.1601257916012
20
1.76383469101407
30
0
41
1
10
21.3013215210844
20
1.71829550459475
30
0
41
1
10
21.4428389017561
20
1.6685644673498
30
0
41
1
10
21.7026761636954
20
1.5702331889797
30
0
41
1
10
21.8211103889094
20
1.52276299955005
30
0
41
1
10
22.0575632308596
20
1.42309107934332
30
0
41
1
10
22.1753042979371
20
1.37101719562779
30
0
41
1
10
22.7623166880962
20
1.10051833704685
30
0
41
1
10
23.2272928152627
20
0.85300058925904
30
0
41
1
10
23.8130199591339
20
0.52073965027833
30
0
41
1
10
23.9304575340649
20
0.453248381527203
30
0
41
1
10
24.1661921211702
20
0.316602877960861
30
0
41
1
10
24.284838333314
20
0.247329831436218
30
0
41
1
10
24.6390765267123
20
0.0394525053056611
30
0
41
1
10
24.8734042057643
20
-0.0994531466436683
30
0
41
1
10
25.5743765179548
20
-0.511128920602175
30
0
41
1
10
26.0400301856677
20
-0.777215795875861
30
0
41
1
10
26.6298595215824
20
-1.08266639538465
30
0
41
1
10
26.7484185505721
20
-1.14227651138353
30
0
41
1
10
26.9843086015234
20
-1.25691565074112
30
0
41
1
10
27.1019282547849
20
-1.31211850519031
30
0
41
1
10
27.4542306467532
20
-1.47091058970588
30
0
41
1
10
27.6883635859601
20
-1.56771315772954
30
0
41
1
10
28.1574209257533
20
-1.74047289607941
30
0
41
1
10
28.3923407174191
20
-1.81645601030508
30
0
41
1
10
28.8655908565623
20
-1.94442779939516
30
0
41
1
10
29.101016344333
20
-1.99570631409901
30
0
41
1
10
29.570221610022
20
-2.07198538280704
30
0
41
1
10
29.8042532459702
20
-2.09707217647403
30
0
41
1
10
30.2736706591811
20
-2.11990500444111
30
0
41
1
10
30.5094117549524
20
-2.1176795765162
30
0
41
1
10
30.864265107192
20
-2.09352156077665
30
0
41
1
10
30.9824396993606
20
-2.08204512916987
30
0
41
1
10
31.1941322904919
20
-2.05548677769349
30
0
41
1
10
31.2877019705146
20
-2.04163893933355
30
0
41
1
10
31.3809999766758
20
-2.02576399677352
30
0
0
SPLINE
5
F6
100
AcDbEntity
8
1
62
256
6
ByLayer
370
18
48
1
60
0
100
AcDbSpline
70
4
71
3
72
32
73
28
40
0
40
0
40
0
40
0
40
0.109795961831493
40
0.109795961831493
40
0.183979631678866
40
0.183979631678866
40
0.221071466602553
40
0.221071466602553
40
0.258163301526239
40
0.258163301526239
40
0.406530641220988
40
0.406530641220988
40
0.480714311068364
40
0.480714311068364
40
0.55489798091574
40
0.55489798091574
40
0.629081650763117
40
0.629081650763117
40
0.703265320610492
40
0.703265320610492
40
0.851632660305245
40
0.851632660305245
40
0.888724495228934
40
0.888724495228934
40
0.925816330152622
40
0.925816330152622
40
1
40
1
40
1
40
1
41
1
10
43.773471862298
20
1.73796365676759
30
0
41
1
10
44.1199288743761
20
1.61993819536482
30
0
41
1
10
44.4641313166309
20
1.47833289084824
30
0
41
1
10
45.0432396106349
20
1.20907836934884
30
0
41
1
10
45.2773459216369
20
1.09174728397497
30
0
41
1
10
45.6311855229487
20
0.90466780490604
30
0
41
1
10
45.7494470545535
20
0.840571133068636
30
0
41
1
10
45.9845974195428
20
0.710690752959209
30
0
41
1
10
46.1018489099433
20
0.644813695597037
30
0
41
1
10
46.6867702569527
20
0.311228007697991
30
0
41
1
10
47.1504213342251
20
0.0309333150682107
30
0
41
1
10
47.8544155596853
20
-0.3842072049531
30
0
41
1
10
48.0915123633967
20
-0.522477272757897
30
0
41
1
10
48.5610884402829
20
-0.788054800789354
30
0
41
1
10
48.7946182247852
20
-0.91560991936376
30
0
41
1
10
49.2609879731213
20
-1.15749480874945
30
0
41
1
10
49.493835987744
20
-1.27182741173434
30
0
41
1
10
49.9612022607825
20
-1.48385640215878
30
0
41
1
10
50.1964080641144
20
-1.58156983658165
30
0
41
1
10
50.904847528396
20
-1.8430985578369
30
0
41
1
10
51.3705881001576
20
-1.97178570197005
30
0
41
1
10
51.9567375211577
20
-2.06733588576139
30
0
41
1
10
52.074151238229
20
-2.08319535212161
30
0
41
1
10
52.3097305321395
20
-2.10819161891089
30
0
41
1
10
52.4280729023881
20
-2.11732602042818
30
0
41
1
10
52.7820814628401
20
-2.13424093599437
30
0
41
1
10
53.0173288331267
20
-2.131644606707
30
0
41
1
10
53.2529177911406
20
-2.1151609578495
30
0
0
SPLINE
5
F7
100
AcDbEntity
8
1
62
256
6
ByLayer
370
18
48
1
60
0
100
AcDbSpline
70
4
71
3
72
30
73
26
40
0
40
0
40
0
40
0
40
0.0624999999999992
40
0.0624999999999992
40
0.124999999999998
40
0.124999999999998
40
0.249999999999989
40
0.249999999999989
40
0.374999999999979
40
0.374999999999979
40
0.437499999999981
40
0.437499999999981
40
0.499999999999982
40
0.499999999999982
40
0.562499999999984
40
0.562499999999984
40
0.624999999999986
40
0.624999999999986
40
0.749999999999991
40
0.749999999999991
40
0.874999999999996
40
0.874999999999996
40
0.937499999999998
40
0.937499999999998
40
1
40
1
40
1
40
1
41
1
10
53.6752384876364
20
-0.767980159866681
30
0
41
1
10
53.6769451368504
20
-0.743364123253428
30
0
41
1
10
53.6752468398663
20
-0.722248549739533
30
0
41
1
10
53.6663044338533
20
-0.689417050115821
30
0
41
1
10
53.6592061159707
20
-0.677770368149453
30
0
41
1
10
53.6326952490604
20
-0.655435637901576
30
0
41
1
10
53.608513831664
20
-0.657140204680047
30
0
41
1
10
53.5549193538426
20
-0.686011326509941
30
0
41
1
10
53.5253508874107
20
-0.713360580328896
30
0
41
1
10
53.4816970223998
20
-0.77153917802687
30
0
41
1
10
53.4672541627448
20
-0.793842330778972
30
0
41
1
10
53.4399498044908
20
-0.843668530133669
30
0
41
1
10
53.4271576151303
20
-0.871143929908783
30
0
41
1
10
53.4057289772094
20
-0.928165842422317
30
0
41
1
10
53.3971063412205
20
-0.957919966628623
30
0
41
1
10
53.386575471766
20
-1.01301356370416
30
0
41
1
10
53.384586695602
20
-1.03862816920719
30
0
41
1
10
53.3884250770292
20
-1.10264863035286
30
0
41
1
10
53.4034645711087
20
-1.12667680430599
30
0
41
1
10
53.4443639830807
20
-1.14199397257772
30
0
41
1
10
53.470358778412
20
-1.13412144768023
30
0
41
1
10
53.5124495664654
20
-1.10326393036618
30
0
41
1
10
53.5267441889183
20
-1.09001414475119
30
0
41
1
10
53.5558853759454
20
-1.05732631373419
30
0
41
1
10
53.5707312328553
20
-1.03781539906535
30
0
41
1
10
53.5851463702932
20
-1.01550621793694
30
0
0
SPLINE
5
F8
100
AcDbEntity
8
1
62
256
6
ByLayer
370
18
48
1
60
0
100
AcDbSpline
70
4
71
3
72
10
73
6
40
0
40
0
40
0
40
0
40
0.5
40
0.5
40
1
40
1
40
1
40
1
41
1
10
8.12219577647261
20
-2.11468369669262
30
0
41
1
10
8.09856511673632
20
-2.1158237795272
30
0
41
1
10
8.07797527885225
20
-2.11719999482324
30
0
41
1
10
8.04749585447729
20
-2.1196945583238
30
0
41
1
10
8.03769375107044
20
-2.12077243044195
30
0
41
1
10
8.03768845997718
20
-2.12130510240573
30
0
0
SPLINE
5
F9
100
AcDbEntity
8
1
62
256
6
ByLayer
370
18
48
1
60
0
100
AcDbSpline
70
4
71
3
72
10
73
6
40
0
40
0
40
0
40
0
40
0.5
40
0.5
40
1
40
1
40
1
40
1
41
1
10
53.3225442266214
20
2.06767630789477
30
0
41
1
10
53.4196808077575
20
1.83606198829352
30
0
41
1
10
53.5166368406068
20
1.60311967073164
30
0
41
1
10
53.7085161452403
20
1.13370289381052
30
0
41
1
10
53.8035316349766
20
0.896914892814067
30
0
41
1
10
53.8960987335953
20
0.659775104021662
30
0
0
SPLINE
5
FA
100
AcDbEntity
8
1
62
256
6
ByLayer
370
18
48
1
60
0
100
AcDbSpline
70
4
71
3
72
26
73
22
40
0
40
0
40
0
40
0
40
0.0228201056685336
40
0.0228201056685336
40
0.142925616245132
40
0.142925616245132
40
0.263031126821731
40
0.263031126821731
40
0.323083882110032
40
0.323083882110032
40
0.383136637398332
40
0.383136637398332
40
0.623347658551535
40
0.623347658551535
40
0.743453169128135
40
0.743453169128135
40
0.803505924416435
40
0.803505924416435
40
0.863558679704735
40
0.863558679704735
40
1
40
1
40
1
40
1
41
1
10
10.1870991723562
20
1.66391731525545
30
0
41
1
10
10.2318505972342
20
1.64788468208417
30
0
41
1
10
10.2765505606765
20
1.63147921995218
30
0
41
1
10
10.556229668327
20
1.52644799330363
30
0
41
1
10
10.7900030874267
20
1.4281213398059
30
0
41
1
10
11.2573045732322
20
1.21442257379749
30
0
41
1
10
11.4909456946059
20
1.09925303142313
30
0
41
1
10
11.843142179025
20
0.916242821067726
30
0
41
1
10
11.9608068080664
20
0.853497565522105
30
0
41
1
10
12.1969500566926
20
0.724917894776894
30
0
41
1
10
12.3156749660402
20
0.658939095016819
30
0
41
1
10
12.90586149161
20
0.325923852086135
30
0
41
1
10
13.3716848047455
20
0.0485359644125651
30
0
41
1
10
14.0736523623789
20
-0.361962237123123
30
0
41
1
10
14.3081648550921
20
-0.497891150781641
30
0
41
1
10
14.6626153543993
20
-0.697141474148225
30
0
41
1
10
14.781234895856
20
-0.762700344659805
30
0
41
1
10
15.0170385130287
20
-0.890310398381018
30
0
41
1
10
15.1345466625158
20
-0.952559396590431
30
0
41
1
10
15.5182042175481
20
-1.15051784788395
30
0
41
1
10
15.7833626410528
20
-1.27889321770081
30
0
41
1
10
16.0488911229934
20
-1.39596458019105
30
0
0
SPLINE
5
FB
100
AcDbEntity
8
1
62
256
6
ByLayer
370
13
48
1
60
0
100
AcDbSpline
70
4
71
3
72
16
73
12
40
0
40
0
40
0
40
0
40
0.153733722379671
40
0.153733722379671
40
0.331668775350939
40
0.331668775350939
40
0.509603828322208
40
0.509603828322208
40
0.865473934264749
40
0.865473934264749
40
1
40
1
40
1
40
1
41
1
10
16.0488911229841
20
-1.39596458018693
30
0
41
1
10
16.2508373595129
20
-1.48500256544361
30
0
41
1
10
16.4529976482003
20
-1.56750199642113
30
0
41
1
10
16.8911379255054
20
-1.72927363915733
30
0
41
1
10
17.1287541589734
20
-1.80620112933153
30
0
41
1
10
17.5997680259802
20
-1.93421692700807
30
0
41
1
10
17.833785784994
20
-1.98572990566942
30
0
41
1
10
18.5348609825323
20
-2.10122074585274
30
0
41
1
10
19.0012100056845
20
-2.12638532699532
30
0
41
1
10
19.6538078949929
20
-2.08453368816748
30
0
41
1
10
19.8317556607337
20
-2.06526459588727
30
0
41
1
10
20.0090970006115
20
-2.03857887025774
30
0
0
SPLINE
5
FC
100
AcDbEntity
8
1
62
256
6
ByLayer
370
13
48
1
60
0
100
AcDbSpline
70
4
71
3
72
16
73
12
40
0
40
0
40
0
40
0
40
0.0462181814159671
40
0.0462181814159671
40
0.213548925846995
40
0.213548925846995
40
0.380879670278023
40
0.380879670278023
40
0.715541159140077
40
0.715541159140077
40
1
40
1
40
1
40
1
41
1
10
30.6480150329874
20
2.10745332399114
30
0
41
1
10
30.6806540929888
20
2.10575793754933
30
0
41
1
10
30.7133094804347
20
2.10379844948054
30
0
41
1
10
30.8642651071918
20
2.09352156077665
30
0
41
1
10
30.9824396993603
20
2.08204512916987
30
0
41
1
10
31.2189625383147
20
2.05237164529609
30
0
41
1
10
31.3374458686732
20
2.03412837047679
30
0
41
1
10
31.6910661245743
20
1.96978200201954
30
0
41
1
10
31.9251585344451
20
1.91412943024011
30
0
41
1
10
32.3572215362698
20
1.78949769869871
30
0
41
1
10
32.5553828908217
20
1.72383100249229
30
0
41
1
10
32.7538840791672
20
1.65042636661937
30
0
0
SPLINE
5
FD
100
AcDbEntity
8
1
62
256
6
ByLayer
370
18
48
1
60
0
100
AcDbSpline
70
4
71
3
72
24
73
20
40
0
40
0
40
0
40
0
40
0.139276830971006
40
0.139276830971006
40
0.199831436050671
40
0.199831436050671
40
0.260386041130337
40
0.260386041130337
40
0.381495251289667
40
0.381495251289667
40
0.502604461448998
40
0.502604461448998
40
0.623713671608328
40
0.623713671608328
40
0.865932091926996
40
0.865932091926996
40
0.987041302086332
40
0.987041302086332
40
1
40
1
40
1
40
1
41
1
10
32.7538840794702
20
1.65042636650736
30
0
41
1
10
33.022450133735
20
1.55111213273611
30
0
41
1
10
33.2916382627577
20
1.43763339552288
30
0
41
1
10
33.6812173926881
20
1.25685982726142
30
0
41
1
10
33.7995847180505
20
1.1997627307581
30
0
41
1
10
34.0349002490164
20
1.08254769055301
30
0
41
1
10
34.1522342798038
20
1.0223819755812
30
0
41
1
10
34.5034761101083
20
0.837533731525184
30
0
41
1
10
34.7366286461943
20
0.708555105885125
30
0
41
1
10
35.2031204529406
20
0.442799074326103
30
0
41
1
10
35.436507656017
20
0.3060974739887
30
0
41
1
10
35.9061738813169
20
0.0291927748192222
30
0
41
1
10
36.1434794142915
20
-0.111832107332873
30
0
41
1
10
36.8485490795051
20
-0.526383294669557
30
0
41
1
10
37.3129529736776
20
-0.792714609798196
30
0
41
1
10
38.0145886458469
20
-1.15569891382543
30
0
41
1
10
38.2496985134662
20
-1.27082612850822
30
0
41
1
10
38.5113372832087
20
-1.38873590092268
30
0
41
1
10
38.5366049863768
20
-1.40001947783688
30
0
41
1
10
38.5618523903397
20
-1.4111885737417
30
0
0
SPLINE
5
FE
100
AcDbEntity
8
1
62
256
6
ByLayer
370
13
48
1
60
0
100
AcDbSpline
70
4
71
3
72
18
73
14
40
0
40
0
40
0
40
0
40
0.159408151483859
40
0.159408151483859
40
0.516424812494665
40
0.516424812494665
40
0.605678977747363
40
0.605678977747363
40
0.694933143000062
40
0.694933143000062
40
0.873441473505456
40
0.873441473505456
40
1
40
1
40
1
40
1
41
1
10
38.5618514756683
20
-1.41118816910392
30
0
41
1
10
38.7725612008016
20
-1.50440320493308
30
0
41
1
10
38.9818570376937
20
-1.5896443720126
30
0
41
1
10
39.657963061915
20
-1.83776193732356
30
0
41
1
10
40.1223528312719
20
-1.9658217228951
30
0
41
1
10
40.7106490952767
20
-2.06104920383106
30
0
41
1
10
40.8290329858754
20
-2.07688214755652
30
0
41
1
10
41.0649512052719
20
-2.10162605809629
30
0
41
1
10
41.1824621070473
20
-2.11055718601742
30
0
41
1
10
41.5340989966577
20
-2.1270829380037
30
0
41
1
10
41.7673022496504
20
-2.1244330147201
30
0
41
1
10
42.1656691983205
20
-2.09695675473449
30
0
41
1
10
42.3309366109627
20
-2.0788637781327
30
0
41
1
10
42.4966366260524
20
-2.05413257509136
30
0
0
SPLINE
5
FF
100
AcDbEntity
8
1
62
256
6
ByLayer
370
18
48
1
60
0
100
AcDbSpline
70
4
71
3
72
19
73
15
40
0
40
0
40
0
40
0
40
0.107332135046012
40
0.107332135046012
40
0.234856115753725
40
0.234856115753725
40
0.48990407716915
40
0.48990407716915
40
0.617428057876862
40
0.617428057876862
40
0.744952038584575
40
0.872476019292287
40
0.872476019292287
40
1
40
1
40
1
40
1
41
1
10
8.03768082021017
20
-2.12169690194043
30
0
41
1
10
8.03766690771201
20
-2.12176096237107
30
0
41
1
10
8.03765102440707
20
-2.11847568547662
30
0
41
1
10
8.03761289330495
20
-2.1039703277776
30
0
41
1
10
8.03758987407753
20
-2.09125614007968
30
0
41
1
10
8.03751784915539
20
-2.03958487849852
30
0
41
1
10
8.03746577493311
20
-1.98739233612957
30
0
41
1
10
8.0373905082771
20
-1.88256866486029
30
0
41
1
10
8.03736577643738
20
-1.84290241284097
30
0
41
1
10
8.03731977622959
20
-1.75642546133784
30
0
41
1
10
8.03727697085708
20
-1.66253660511839
30
0
41
1
10
8.03724258272416
20
-1.55409603529651
30
0
41
1
10
8.03721332639458
20
-1.43822341814564
30
0
41
1
10
8.03720127196391
20
-1.37631852081444
30
0
41
1
10
8.03719238122974
20
-1.31222638962703
30
0
0
SPLINE
5
100
100
AcDbEntity
8
1
62
256
6
ByLayer
370
18
48
1
60
0
100
AcDbSpline
70
4
71
3
72
8
73
4
40
0
40
0
40
0
40
0
40
1
40
1
40
1
40
1
41
1
10
53.9844807599293
20
-0.0010135700823923
30
0
41
1
10
53.95287738089
20
-0.0594588408842185
30
0
41
1
10
53.9215009527367
20
-0.118107461532901
30
0
41
1
10
53.8903522031215
20
-0.176960083945318
30
0
0
SPLINE
5
101
100
AcDbEntity
8
1
62
256
6
ByLayer
370
18
48
1
60
0
100
AcDbSpline
70
4
71
3
72
10
73
6
40
0
40
0
40
0
40
0
40
0.5
40
0.5
40
1
40
1
40
1
40
1
41
1
10
8.12266125968441
20
-2.03683539571159
30
0
41
1
10
8.14216354135846
20
-2.02504063438298
30
0
41
1
10
8.16319163337133
20
-2.01592639453054
30
0
41
1
10
8.20602924064977
20
-2.00361128930305
30
0
41
1
10
8.22790758100516
20
-2.00029036245209
30
0
41
1
10
8.25022461790275
20
-1.99984751107985
30
0
0
SPLINE
5
102
100
AcDbEntity
8
1
62
256
6
ByLayer
370
18
48
1
60
0
100
AcDbSpline
70
4
71
3
72
54
73
50
40
0
40
0
40
0
40
0
40
0.125000000000001
40
0.125000000000001
40
0.1875
40
0.1875
40
0.218749999999999
40
0.218749999999999
40
0.249999999999998
40
0.249999999999998
40
0.312499999999995
40
0.312499999999995
40
0.374999999999992
40
0.374999999999992
40
0.437499999999989
40
0.437499999999989
40
0.468749999999988
40
0.468749999999988
40
0.499999999999987
40
0.499999999999987
40
0.562499999999984
40
0.562499999999984
40
0.593749999999982
40
0.593749999999982
40
0.62499999999998
40
0.62499999999998
40
0.687499999999978
40
0.687499999999978
40
0.718749999999976
40
0.718749999999976
40
0.749999999999975
40
0.749999999999975
40
0.812499999999971
40
0.812499999999971
40
0.843749999999969
40
0.843749999999969
40
0.847656249999969
40
0.847656249999969
40
0.851562499999969
40
0.851562499999969
40
0.855468749999969
40
0.855468749999969
40
0.85937499999997
40
0.85937499999997
40
0.874999999999971
40
0.874999999999971
40
0.937499999999985
40
0.937499999999985
40
1
40
1
40
1
40
1
41
1
10
7.62717832180462
20
-1.11590961651137
30
0
41
1
10
7.44275356633699
20
-0.964283042637049
30
0
41
1
10
7.26782668795789
20
-0.797694933654043
30
0
41
1
10
7.01817955898352
20
-0.524265302227263
30
0
41
1
10
6.93709983739421
20
-0.429172786551362
30
0
41
1
10
6.81868583639886
20
-0.280052994435636
30
0
41
1
10
6.77962806239074
20
-0.229088116889869
30
0
41
1
10
6.70364385863411
20
-0.126259188473313
30
0
41
1
10
6.66662609770515
20
-0.074292038283545
30
0
41
1
10
6.55851863494422
20
0.0832687154784821
30
0
41
1
10
6.49034521018174
20
0.190504720035619
30
0
41
1
10
6.36248591201769
20
0.409701914856441
30
0
41
1
10
6.3026886776243
20
0.522093095983593
30
0
41
1
10
6.19724949744676
20
0.743748150896749
30
0
41
1
10
6.1509709665483
20
0.853957438119295
30
0
41
1
10
6.0931611012241
20
1.01822472146998
30
0
41
1
10
6.07600549373859
20
1.07241875280727
30
0
41
1
10
6.04673124919665
20
1.17791198879647
30
0
41
1
10
6.03451787248468
20
1.2294712708823
30
0
41
1
10
6.00569572039711
20
1.38046632455595
30
0
41
1
10
5.99709706666206
20
1.47708842806637
30
0
41
1
10
6.00280909443796
20
1.60618473648799
30
0
41
1
10
6.00771988482316
20
1.6469070440591
30
0
41
1
10
6.02376079135806
20
1.72379351714221
30
0
41
1
10
6.03499347826212
20
1.76017768372708
30
0
41
1
10
6.07784153559408
20
1.86077634472719
30
0
41
1
10
6.11799727547512
20
1.91586842433296
30
0
41
1
10
6.19437191895565
20
1.98335685237731
30
0
41
1
10
6.22258339753051
20
2.00327539063889
30
0
41
1
10
6.28278637732944
20
2.03762769492079
30
0
41
1
10
6.31492996349817
20
2.05221271053171
30
0
41
1
10
6.4169801016601
20
2.08918797785716
30
0
41
1
10
6.4927128290293
20
2.10486853724379
30
0
41
1
10
6.61544067465999
20
2.11748716947946
30
0
41
1
10
6.65767853293369
20
2.11985502077226
30
0
41
1
10
6.70657458415104
20
2.12070668437562
30
0
41
1
10
6.71202544411116
20
2.12077605132592
30
0
41
1
10
6.72296273033598
20
2.12086509807492
30
0
41
1
10
6.72815438823039
20
2.12088262521709
30
0
41
1
10
6.7407255258349
20
2.12087947540647
30
0
41
1
10
6.74862123699975
20
2.12086752725722
30
0
41
1
10
6.76478151097368
20
2.12087116916069
30
0
41
1
10
6.77287622520691
20
2.12088186304155
30
0
41
1
10
6.8132408205293
20
2.12091886353048
30
0
41
1
10
6.84549920962178
20
2.12094835699836
30
0
41
1
10
7.00638172884678
20
2.12106239108937
30
0
41
1
10
7.13421919714355
20
2.12109350540848
30
0
41
1
10
7.38426596492428
20
2.11939079523074
30
0
41
1
10
7.50689294308637
20
2.11765831921889
30
0
41
1
10
7.62717832180462
20
2.11363957521689
30
0
0
SPLINE
5
103
100
AcDbEntity
8
1
62
256
6
ByLayer
370
18
48
1
60
0
100
AcDbSpline
70
4
71
3
72
56
73
52
40
0
40
0
40
0
40
0
40
0.0653378314488405
40
0.0653378314488405
40
0.0980067471732608
40
0.0980067471732608
40
0.130675662897681
40
0.130675662897681
40
0.196013494346522
40
0.196013494346522
40
0.228682410070942
40
0.228682410070942
40
0.261351325795362
40
0.261351325795362
40
0.294020241519783
40
0.294020241519783
40
0.326689157244203
40
0.326689157244203
40
0.392026988693043
40
0.392026988693043
40
0.424695904417463
40
0.424695904417463
40
0.457364820141883
40
0.457364820141883
40
0.522702651590722
40
0.522702651590722
40
0.55537156731514
40
0.55537156731514
40
0.588040483039559
40
0.588040483039559
40
0.620709398763978
40
0.620709398763978
40
0.653378314488397
40
0.653378314488397
40
0.718716145937236
40
0.718716145937236
40
0.751385061661656
40
0.751385061661656
40
0.784053977386076
40
0.784053977386076
40
0.849391808834915
40
0.849391808834915
40
0.882060724559334
40
0.882060724559334
40
0.914729640283754
40
0.914729640283754
40
0.947398556008173
40
0.947398556008173
40
0.980067471732593
40
0.980067471732593
40
1
40
1
40
1
40
1
41
1
10
7.62717832180462
20
2.11363957521689
30
0
41
1
10
7.86569314369913
20
2.10129789358609
30
0
41
1
10
8.10485032038548
20
2.0748777665109
30
0
41
1
10
8.46230239962088
20
2.01606963297243
30
0
41
1
10
8.58117313539307
20
1.99317851928728
30
0
41
1
10
8.81786142919415
20
1.9403123227969
30
0
41
1
10
8.93555280554415
20
1.9101638331814
30
0
41
1
10
9.29120815022375
20
1.81195352826987
30
0
41
1
10
9.53000831915566
20
1.73527569437189
30
0
41
1
10
9.88881487460128
20
1.60112954049447
30
0
41
1
10
10.008414542984
20
1.55244464331167
30
0
41
1
10
10.2475392277873
20
1.45157903764183
30
0
41
1
10
10.3671338073648
20
1.39940616846283
30
0
41
1
10
10.6058401220024
20
1.2910627324901
30
0
41
1
10
10.7248907032735
20
1.2348003264683
30
0
41
1
10
10.9624089748498
20
1.11811808467152
30
0
41
1
10
11.0805391109624
20
1.05719895739043
30
0
41
1
10
11.4347075151503
20
0.868968571406583
30
0
41
1
10
11.6729262856655
20
0.74002879620312
30
0
41
1
10
12.0309517318334
20
0.537803382204118
30
0
41
1
10
12.1505850364253
20
0.469201951662001
30
0
41
1
10
12.3893967575074
20
0.327559459203627
30
0
41
1
10
12.509213930229
20
0.256368660921254
30
0
41
1
10
12.8679641915536
20
0.0454261767124819
30
0
41
1
10
13.1064574671534
20
-0.0940962500043838
30
0
41
1
10
13.4613369705153
20
-0.304916259724479
30
0
41
1
10
13.578990811315
20
-0.375699891979849
30
0
41
1
10
13.8159630606906
20
-0.513319317690161
30
0
41
1
10
13.9349147252363
20
-0.580787941234632
30
0
41
1
10
14.1730451367566
20
-0.714231491126554
30
0
41
1
10
14.292304435273
20
-0.780071083467561
30
0
41
1
10
14.5310363407672
20
-0.910229978364157
30
0
41
1
10
14.6502843017082
20
-0.975451286723001
30
0
41
1
10
15.0095304885756
20
-1.16299610543859
30
0
41
1
10
15.2487317133735
20
-1.27758710887687
30
0
41
1
10
15.6050112321512
20
-1.43770317668321
30
0
41
1
10
15.7230546173436
20
-1.48942122956163
30
0
41
1
10
15.9590921346861
20
-1.58764560129273
30
0
41
1
10
16.0775859897102
20
-1.63359641362902
30
0
41
1
10
16.4340014316604
20
-1.76287977613077
30
0
41
1
10
16.6727211457407
20
-1.83798746854819
30
0
41
1
10
17.029996103168
20
-1.93490700223958
30
0
41
1
10
17.1500252966705
20
-1.96381706206679
30
0
41
1
10
17.3901347717149
20
-2.01429455761101
30
0
41
1
10
17.5102421146409
20
-2.03606725939847
30
0
41
1
10
17.7501134128815
20
-2.07297986632923
30
0
41
1
10
17.8700081733546
20
-2.08806684369068
30
0
41
1
10
18.1091148748431
20
-2.11144654419834
30
0
41
1
10
18.2284865889328
20
-2.11964814686991
30
0
41
1
10
18.4217064796307
20
-2.12682887106871
30
0
41
1
10
18.4949561748653
20
-2.12823309616348
30
0
41
1
10
18.5682001737866
20
-2.12831741990337
30
0
0
SPLINE
5
104
100
AcDbEntity
8
1
62
256
6
ByLayer
370
18
48
1
60
0
100
AcDbSpline
70
4
71
3
72
80
73
76
40
0
40
0
40
0
40
0
40
0.0055386292131802
40
0.0055386292131802
40
0.0294152831825599
40
0.0294152831825599
40
0.0532919371519408
40
0.0532919371519408
40
0.0771685911213217
40
0.0771685911213217
40
0.101045245090703
40
0.101045245090703
40
0.148798553029464
40
0.148798553029464
40
0.172675206998846
40
0.172675206998846
40
0.196551860968228
40
0.196551860968228
40
0.22042851493761
40
0.22042851493761
40
0.244305168906992
40
0.244305168906992
40
0.292058476845756
40
0.292058476845756
40
0.315935130815138
40
0.315935130815138
40
0.339811784784521
40
0.339811784784521
40
0.387565092723289
40
0.387565092723289
40
0.411441746692674
40
0.411441746692674
40
0.435318400662059
40
0.435318400662059
40
0.459195054631444
40
0.459195054631444
40
0.483071708600829
40
0.483071708600829
40
0.506948362570214
40
0.506948362570214
40
0.530825016539599
40
0.530825016539599
40
0.554701670508984
40
0.554701670508984
40
0.578578324478369
40
0.578578324478369
40
0.626331632417139
40
0.626331632417139
40
0.650208286386524
40
0.650208286386524
40
0.674084940355908
40
0.674084940355908
40
0.697961594325293
40
0.697961594325293
40
0.721838248294678
40
0.721838248294678
40
0.769591556233448
40
0.769591556233448
40
0.793468210202831
40
0.793468210202831
40
0.817344864172216
40
0.817344864172216
40
0.841221518141599
40
0.841221518141599
40
0.865098172110983
40
0.865098172110983
40
0.912851480049751
40
0.912851480049751
40
0.936728134019136
40
0.936728134019136
40
0.96060478798852
40
0.96060478798852
40
0.984481441957905
40
0.984481441957905
40
1
40
1
40
1
40
1
41
1
10
26.1389142046285
20
1.09985504636748
30
0
41
1
10
26.1664811605456
20
1.11409048481806
30
0
41
1
10
26.1940465589551
20
1.1282686443642
30
0
41
1
10
26.3404307093848
20
1.20326919809332
30
0
41
1
10
26.4604867440709
20
1.26181302486313
30
0
41
1
10
26.7004342184555
20
1.37349784556255
30
0
41
1
10
26.8200767137818
20
1.42676070941272
30
0
41
1
10
27.058435662756
20
1.52858903761953
30
0
41
1
10
27.1772787595908
20
1.57700763650848
30
0
41
1
10
27.413462245339
20
1.66964668738041
30
0
41
1
10
27.5312384269546
20
1.71331708631087
30
0
41
1
10
27.8864644537875
20
1.83376121143363
30
0
41
1
10
28.1242099012383
20
1.90190221883071
30
0
41
1
10
28.4804101511233
20
1.98685383163627
30
0
41
1
10
28.5987432625082
20
2.01239463111568
30
0
41
1
10
28.8377629101235
20
2.05587440635802
30
0
41
1
10
28.9583012086163
20
2.07406506783511
30
0
41
1
10
29.1977656365365
20
2.10343962282039
30
0
41
1
10
29.3170547831679
20
2.11465986961517
30
0
41
1
10
29.5546625488886
20
2.13018304626553
30
0
41
1
10
29.6724767406782
20
2.13450557551141
30
0
41
1
10
30.0267090165744
20
2.13661513899046
30
0
41
1
10
30.264211666274
20
2.12410440049055
30
0
41
1
10
30.6201804076563
20
2.08469607546766
30
0
41
1
10
30.73871098047
20
2.06802169539688
30
0
41
1
10
30.9757181364411
20
2.02722106701006
30
0
41
1
10
31.0950696201052
20
2.00354143196108
30
0
41
1
10
31.455346446673
20
1.92285721908678
30
0
41
1
10
31.6949547940699
20
1.85689297452046
30
0
41
1
10
32.0494719876963
20
1.73814753439035
30
0
41
1
10
32.1673064679115
20
1.69551605205501
30
0
41
1
10
32.4040906191853
20
1.60622039557353
30
0
41
1
10
32.5227055318428
20
1.55924173401738
30
0
41
1
10
32.759812790466
20
1.46002455298216
30
0
41
1
10
32.8784236483306
20
1.40792644693309
30
0
41
1
10
33.115367598358
20
1.29806022321066
30
0
41
1
10
33.2333839940785
20
1.23979078991349
30
0
41
1
10
33.4716586638975
20
1.12093682339452
30
0
41
1
10
33.5919006312078
20
1.05985675202743
30
0
41
1
10
33.831993789742
20
0.934334113712907
30
0
41
1
10
33.9515338992642
20
0.870135846128761
30
0
41
1
10
34.1895144236514
20
0.738728784815578
30
0
41
1
10
34.3074492843462
20
0.670688458676153
30
0
41
1
10
34.5437490352416
20
0.534071170464273
30
0
41
1
10
34.6622116349563
20
0.465670402219416
30
0
41
1
10
35.0177957608126
20
0.259042253621715
30
0
41
1
10
35.2548101402717
20
0.118899375422473
30
0
41
1
10
35.6094323439884
20
-0.0965928428543634
30
0
41
1
10
35.7284252026098
20
-0.167686214643169
30
0
41
1
10
35.9677657370506
20
-0.308730338905178
30
0
41
1
10
36.0882039100048
20
-0.379003926542822
30
0
41
1
10
36.3280491111433
20
-0.518175074700764
30
0
41
1
10
36.4477690761169
20
-0.586961719995912
30
0
41
1
10
36.6858939028422
20
-0.724324181578737
30
0
41
1
10
36.8048555080154
20
-0.791984855377734
30
0
41
1
10
37.164015294543
20
-0.987973518219377
30
0
41
1
10
37.405196055538
20
-1.1119399760544
30
0
41
1
10
37.7632287499077
20
-1.28819968837388
30
0
41
1
10
37.8818421122157
20
-1.34571513956607
30
0
41
1
10
38.120807843849
20
-1.4540618153749
30
0
41
1
10
38.2408166534401
20
-1.50539804050246
30
0
41
1
10
38.481144109114
20
-1.60337259854757
30
0
41
1
10
38.6009157739539
20
-1.64967155488782
30
0
41
1
10
38.8391002772195
20
-1.73688732818792
30
0
41
1
10
38.95707773958
20
-1.77829596196372
30
0
41
1
10
39.311845514238
20
-1.8917408710391
30
0
41
1
10
39.5492483281731
20
-1.95374502093716
30
0
41
1
10
39.9044630543504
20
-2.02862004039423
30
0
41
1
10
40.0225311797883
20
-2.05058927107768
30
0
41
1
10
40.2587841824444
20
-2.08778576133989
30
0
41
1
10
40.3776640625388
20
-2.10273010393573
30
0
41
1
10
40.6166633661634
20
-2.12565034178843
30
0
41
1
10
40.7370051019138
20
-2.13366605940209
30
0
41
1
10
40.9346453644429
20
-2.14103329238102
30
0
41
1
10
41.0122974995602
20
-2.14244888854998
30
0
41
1
10
41.0896058922824
20
-2.14235002253616
30
0
0
SPLINE
5
105
100
AcDbEntity
8
1
62
256
6
ByLayer
370
18
48
1
60
0
100
AcDbSpline
70
4
71
3
72
30
73
26
40
0
40
0
40
0
40
0
40
0.0885620593049121
40
0.0885620593049121
40
0.164515221029503
40
0.164515221029503
40
0.240468382754094
40
0.240468382754094
40
0.316421544478685
40
0.316421544478685
40
0.392374706203275
40
0.392374706203275
40
0.468327867927867
40
0.468327867927867
40
0.544281029652457
40
0.544281029652457
40
0.620234191377049
40
0.620234191377049
40
0.69618735310164
40
0.69618735310164
40
0.848093676550823
40
0.848093676550823
40
0.924046838275413
40
0.924046838275413
40
1
40
1
40
1
40
1
41
1
10
48.6332014346766
20
1.10281635289002
30
0
41
1
10
48.7714800111036
20
1.17346209365476
30
0
41
1
10
48.9097032328992
20
1.24122101639546
30
0
41
1
10
49.1658254379551
20
1.36266007980714
30
0
41
1
10
49.2836496233888
20
1.41714309810533
30
0
41
1
10
49.5191002867787
20
1.52189248318814
30
0
41
1
10
49.6374660477766
20
1.57125450982056
30
0
41
1
10
49.8752308607892
20
1.66443413716871
30
0
41
1
10
49.994513559011
20
1.7083843617248
30
0
41
1
10
50.2336578864918
20
1.79115256796385
30
0
41
1
10
50.3538588321408
20
1.82990274605072
30
0
41
1
10
50.5915079919167
20
1.90175760480568
30
0
41
1
10
50.7099171036907
20
1.93433008724756
30
0
41
1
10
50.9473156359353
20
1.99208614734746
30
0
41
1
10
51.0660141251848
20
2.01752609340127
30
0
41
1
10
51.3028856429284
20
2.06197966692159
30
0
41
1
10
51.4211806064577
20
2.08092566329091
30
0
41
1
10
51.65704115352
20
2.11226890338693
30
0
41
1
10
51.7743445446205
20
2.12466579345681
30
0
41
1
10
52.1290652835875
20
2.15068536238832
30
0
41
1
10
52.3676392589779
20
2.15407531696931
30
0
41
1
10
52.7267026736878
20
2.13772543494537
30
0
41
1
10
52.8456668769907
20
2.12851054137212
30
0
41
1
10
53.0837714989632
20
2.10313083155654
30
0
41
1
10
53.2031369275101
20
2.08706500388817
30
0
41
1
10
53.322544226628
20
2.06767630787911
30
0
0
SPLINE
5
106
100
AcDbEntity
8
1
62
256
6
ByLayer
370
18
48
1
60
0
100
AcDbSpline
70
4
71
3
72
8
73
4
40
0
40
0
40
0
40
0
40
1
40
1
40
1
40
1
41
1
10
53.5851463702933
20
-1.01550621793754
30
0
41
1
10
53.4630554841546
20
-1.35094817072493
30
0
41
1
10
53.3409645980158
20
-1.68639012351233
30
0
41
1
10
53.2188737118771
20
-2.02183207629966
30
0
0
SPLINE
5
107
100
AcDbEntity
8
1
62
256
6
ByLayer
370
18
48
1
60
0
100
AcDbSpline
70
4
71
3
72
10
73
6
40
0
40
0
40
0
40
0
40
0.5
40
0.5
40
1
40
1
40
1
40
1
41
1
10
8.03719238122972
20
-1.31222638962697
30
0
41
1
10
8.06092458195562
20
-1.29194724313769
30
0
41
1
10
8.09469685816418
20
-1.28183985975946
30
0
41
1
10
8.16930177912246
20
-1.28138791984603
30
0
41
1
10
8.21002207999538
20
-1.29076061773745
30
0
41
1
10
8.24972212688422
20
-1.30767594826719
30
0
0
SPLINE
5
108
100
AcDbEntity
8
1
62
256
6
ByLayer
370
18
48
1
60
0
100
AcDbSpline
70
4
71
3
72
14
73
10
40
0
40
0
40
0
40
0
40
0.180972848891446
40
0.317686853539478
40
0.426189454452804
40
0.507348672034814
40
0.610438221287187
40
0.774400055814022
40
1
40
1
40
1
40
1
41
1
10
41.7598983755985
20
-2.02456740820861
30
0
41
1
10
41.9616359725343
20
-2.02464262512149
30
0
41
1
10
42.3157870380887
20
-2.02471562134801
30
0
41
1
10
42.7908809843463
20
-2.02551785968333
30
0
41
1
10
43.154786611203
20
-2.02489161197048
30
0
41
1
10
43.4809481717396
20
-2.02468014052056
30
0
41
1
10
43.8691093584694
20
-2.02596193235533
30
0
41
1
10
44.4183246981906
20
-2.0259215458849
30
0
41
1
10
44.8525789929575
20
-2.02600231568209
30
0
41
1
10
45.1040573672939
20
-2.02586325479473
30
0
0
SPLINE
5
109
100
AcDbEntity
8
1
62
256
6
ByLayer
370
18
48
1
60
0
100
AcDbSpline
70
4
71
3
72
13
73
9
40
0
40
0
40
0
40
0
40
0.27279082696309
40
0.483149037662096
40
0.631456807366906
40
0.722323362881225
40
0.873619243027937
40
1
40
1
40
1
40
1
41
1
10
22.6011761126997
20
2.01274448249242
30
0
41
1
10
22.383777451408
20
2.01144501563923
30
0
41
1
10
21.9987292051205
20
2.00993013982463
30
0
41
1
10
21.4954516429434
20
2.01203458261566
30
0
41
1
10
21.1371868615726
20
2.01174776527495
30
0
41
1
10
20.8259667362343
20
2.01074064801182
30
0
41
1
10
20.5323251088939
20
2.01085642606785
30
0
41
1
10
20.3110171718804
20
2.01092060518676
30
0
41
1
10
20.210292569953
20
2.01093371250528
30
0
0
SPLINE
5
10A
100
AcDbEntity
8
1
62
256
6
ByLayer
370
18
48
1
60
0
100
AcDbSpline
70
4
71
3
72
13
73
9
40
0
40
0
40
0
40
0
40
0.255087318530141
40
0.465057095392201
40
0.62838833187069
40
0.743773508722307
40
0.958536066213212
40
1
40
1
40
1
40
1
41
1
10
11.3550973714121
20
2.00420936395136
30
0
41
1
10
11.1545710194542
20
2.00427534582607
30
0
41
1
10
10.788976809172
20
2.0043221785306
30
0
41
1
10
10.2948996551399
20
2.00453567784234
30
0
41
1
10
9.91073713793099
20
2.0041308431374
30
0
41
1
10
9.5236240525557
20
2.00383861663485
30
0
41
1
10
9.23161428033879
20
2.00481450801323
30
0
41
1
10
9.03387526746229
20
2.00333571768309
30
0
41
1
10
9.00196638847612
20
2.00304297066191
30
0
0
SPLINE
5
10B
100
AcDbEntity
8
1
62
256
6
ByLayer
370
18
48
1
60
0
100
AcDbSpline
70
4
71
3
72
13
73
9
40
0
40
0
40
0
40
0
40
0.317214677933665
40
0.547855407487685
40
0.692997298581001
40
0.807335232182736
40
0.96019384629115
40
1
40
1
40
1
40
1
41
1
10
45.1015722405018
20
2.02586350641815
30
0
41
1
10
44.8505752659788
20
2.02600272366834
30
0
41
1
10
44.4170769116428
20
2.02592266027287
30
0
41
1
10
43.868687597908
20
2.02595971612061
30
0
41
1
10
43.4808705088714
20
2.0246800269727
30
0
41
1
10
43.1547786714556
20
2.02489168688217
30
0
41
1
10
42.9118005243046
20
2.02530971147729
30
0
41
1
10
42.7593338326944
20
2.02528214438553
30
0
41
1
10
42.7278335443328
20
2.02526749001572
30
0
0
SPLINE
5
10C
100
AcDbEntity
8
1
62
256
6
ByLayer
370
18
48
1
60
0
100
AcDbSpline
70
4
71
3
72
14
73
10
40
0
40
0
40
0
40
0
40
0.241525516995662
40
0.434001595217716
40
0.577472700810347
40
0.672163170043453
40
0.769880286830796
40
0.916136676354075
40
1
40
1
40
1
40
1
41
1
10
33.8538585280094
20
2.01880564390282
30
0
41
1
10
33.6549269056889
20
2.01868996554359
30
0
41
1
10
33.2974659851209
20
2.01841730836782
30
0
41
1
10
32.8218328022578
20
2.01909600268564
30
0
41
1
10
32.4671578184639
20
2.01795547447085
30
0
41
1
10
32.1904813985699
20
2.01825321192035
30
0
41
1
10
31.9117101407696
20
2.01833927261112
30
0
41
1
10
31.6417860836439
20
2.0182102489911
30
0
41
1
10
31.4522487291085
20
2.01799025933454
30
0
41
1
10
31.3831734327742
20
2.01790858538533
30
0
0
SPLINE
5
10D
100
AcDbEntity
8
1
62
256
6
ByLayer
370
18
48
1
60
0
100
AcDbSpline
70
4
71
3
72
13
73
9
40
0
40
0
40
0
40
0
40
0.241583113316264
40
0.411492644393082
40
0.502764151107715
40
0.631990256825486
40
0.798135648041562
40
1
40
1
40
1
40
1
41
1
10
8.40337876583089
20
-1.99172866027419
30
0
41
1
10
8.63079975345013
20
-1.99802323150641
30
0
41
1
10
9.02416377514402
20
-2.00551652052027
30
0
41
1
10
9.52298766356179
20
-2.00383216560274
30
0
41
1
10
9.90963742743503
20
-2.00413195194855
30
0
41
1
10
10.293387756196
20
-2.00453304032791
30
0
41
1
10
10.7869945219969
20
-2.00432593946294
30
0
41
1
10
11.1522573815652
20
-2.00427508315772
30
0
41
1
10
11.3526102017942
20
-2.00420603132872
30
0
0
SPLINE
5
10E
100
AcDbEntity
8
1
62
256
6
ByLayer
370
18
48
1
60
0
100
AcDbSpline
70
4
71
3
72
14
73
10
40
0
40
0
40
0
40
0
40
0.189173279025152
40
0.332604343192415
40
0.430303487033268
40
0.50115974188808
40
0.62750621407836
40
0.793747803641868
40
1
40
1
40
1
40
1
41
1
10
30.5086139040924
20
-2.01749721920765
30
0
41
1
10
30.7193185041379
20
-2.01744241015649
30
0
41
1
10
31.0898238455935
20
-2.01746738085848
30
0
41
1
10
31.5693837665476
20
-2.01817076023417
30
0
41
1
10
31.9169890903672
20
-2.01834425070115
30
0
41
1
10
32.245623988909
20
-2.01813759282979
30
0
41
1
10
32.6506215989928
20
-2.01842882483132
30
0
41
1
10
33.2065100261025
20
-2.01870282298961
30
0
41
1
10
33.6215705374658
20
-2.01879096315929
30
0
41
1
10
33.8513866947089
20
-2.01880377164841
30
0
0
SPLINE
5
10F
100
AcDbEntity
8
1
62
256
6
ByLayer
370
18
48
1
60
0
100
AcDbSpline
70
4
71
3
72
14
73
10
40
0
40
0
40
0
40
0
40
0.172982384900724
40
0.31037601952636
40
0.412625229451332
40
0.484227570851291
40
0.606481020277064
40
0.778294178741792
40
1
40
1
40
1
40
1
41
1
10
19.2594380648523
20
-2.01041013231691
30
0
41
1
10
19.4521707293985
20
-2.01061459230073
30
0
41
1
10
19.7980365510394
20
-2.01085750935869
30
0
41
1
10
20.258120362494
20
-2.01101016179382
30
0
41
1
10
20.6050372716929
20
-2.01078821480621
30
0
41
1
10
20.9351586653404
20
-2.01090197728149
30
0
41
1
10
21.3428093978993
20
-2.012570977748
30
0
41
1
10
21.917820459634
20
-2.0098999777837
30
0
41
1
10
22.3565017891007
20
-2.01152258239856
30
0
41
1
10
22.6036463743676
20
-2.01275058090195
30
0
0
SPLINE
5
110
100
AcDbEntity
8
1
62
256
6
ByLayer
370
18
48
1
60
0
100
AcDbSpline
70
4
71
1
72
4
73
2
40
0
40
0
40
1
40
1
41
1
10
52.9153951503745
20
-2.03094770439051
30
0
41
1
10
53.2421750893189
20
-2.03127071112894
30
0
0
LINE
5
7B
100
AcDbEntity
8
SK1
62
256
6
ByLayer
370
18
48
1
60
0
100
AcDbLine
10
-35.65
20
2.415
30
0
11
-35.65
21
2.41226
31
0
39
0
210
0
220
0
230
1
0
LINE
5
7D
100
AcDbEntity
8
SK1
62
256
6
ByLayer
370
18
48
1
60
0
100
AcDbLine
10
-36
20
2.042781
30
0
11
-36
21
-1.708315
31
0
39
0
210
0
220
0
230
1
0
LINE
5
7E
100
AcDbEntity
8
SK1
62
256
6
ByLayer
370
18
48
1
60
0
100
AcDbLine
10
-35.065
20
3
30
0
11
-35.065
21
-3
31
0
39
0
210
0
220
0
230
1
0
LINE
5
7F
100
AcDbEntity
8
SK1
62
256
6
ByLayer
370
13
48
1
60
0
100
AcDbLine
10
-35.75
20
-1.967708
30
0
11
-35.75
21
-2.302236
31
0
39
0
210
0
220
0
230
1
0
LINE
5
80
100
AcDbEntity
8
SK1
62
256
6
ByLayer
370
18
48
1
60
0
100
AcDbLine
10
-36
20
-1.708289
30
0
11
-36
21
-2.042781
31
0
39
0
210
0
220
0
230
1
0
LINE
5
81
100
AcDbEntity
8
SK1
62
256
6
ByLayer
370
18
48
1
60
0
100
AcDbLine
10
-35.65
20
-2.415
30
0
11
-35.65
21
-2.122389
31
0
39
0
210
0
220
0
230
1
0
LINE
5
82
100
AcDbEntity
8
SK1
62
256
6
ByLayer
370
18
48
1
60
0
100
AcDbLine
10
0
20
-3
30
0
11
0
21
3
31
0
39
0
210
0
220
0
230
1
0
LINE
5
83
100
AcDbEntity
8
1
62
256
6
ByLayer
370
13
48
1
60
0
100
AcDbLine
10
53.165984
20
0.636728
30
0
11
53.97915
21
0.121974
31
0
39
0
210
0
220
0
230
1
0
LINE
5
84
100
AcDbEntity
8
1
62
256
6
ByLayer
370
18
48
1
60
0
100
AcDbLine
10
8.250225
20
-1.999848
30
0
11
8.250202
21
-2.003572
31
0
39
0
210
0
220
0
230
1
0
LINE
5
85
100
AcDbEntity
8
1
62
256
6
ByLayer
370
13
48
1
60
0
100
AcDbLine
10
53.09617
20
0.561308
30
0
11
53.984481
21
-0.001014
31
0
39
0
210
0
220
0
230
1
0
LINE
5
86
100
AcDbEntity
8
1
62
256
6
ByLayer
370
18
48
1
60
0
100
AcDbLine
10
52.929818
20
-1.480685
30
0
11
53.890352
21
-0.17696
31
0
39
0
210
0
220
0
230
1
0
LINE
5
87
100
AcDbEntity
8
1
62
256
6
ByLayer
370
13
48
1
60
0
100
AcDbLine
10
1.430569
20
2.117567
30
0
11
1.430569
21
-2.117567
31
0
39
0
210
0
220
0
230
1
0
LINE
5
88
100
AcDbEntity
8
1
62
256
6
ByLayer
370
13
48
1
60
0
100
AcDbLine
10
0.715034
20
2.558784
30
0
11
0.715034
21
-2.558784
31
0
39
0
210
0
220
0
230
1
0
LINE
5
89
100
AcDbEntity
8
1
62
256
6
ByLayer
370
18
48
1
60
0
100
AcDbLine
10
0
20
-3
30
0
11
0
21
3
31
0
39
0
210
0
220
0
230
1
0
LINE
5
8A
100
AcDbEntity
8
1
62
256
6
ByLayer
370
18
48
1
60
0
100
AcDbLine
10
8.037688
20
2.121305
30
0
11
8.037681
21
2.121697
31
0
39
0
210
0
220
0
230
1
0
LINE
5
8B
100
AcDbEntity
8
80
62
256
6
ByLayer
370
18
48
1
60
0
100
AcDbLine
10
0
20
0
30
0
11
-5
21
0
31
0
39
0
210
0
220
0
230
1
0
LINE
5
8C
100
AcDbEntity
8
4
62
256
6
ByLayer
370
18
48
0.05
60
0
100
AcDbLine
10
54
20
0
30
0
11
0
21
0
31
0
39
0
210
0
220
0
230
1
0
LINE
5
8E
100
AcDbEntity
8
SK4
62
256
6
ByLayer
370
18
48
0.05
60
0
100
AcDbLine
10
59
20
0
30
0
11
-41
21
0
31
0
39
0
210
0
220
0
230
1
0
LINE
5
90
100
AcDbEntity
8
SK1
62
256
6
ByLayer
370
18
48
1
60
0
100
AcDbLine
10
-35.065
20
-3
30
0
11
0
21
-3
31
0
39
0
210
0
220
0
230
1
0
LINE
5
91
100
AcDbEntity
8
SK1
62
256
6
ByLayer
370
18
48
1
60
0
100
AcDbLine
10
0
20
3
30
0
11
-35.065
21
3
31
0
39
0
210
0
220
0
230
1
0
LINE
5
92
100
AcDbEntity
8
SK1
62
256
6
ByLayer
370
18
48
1
60
0
100
AcDbLine
10
-35.65
20
-2.415
30
0
11
-35.065
21
-3
31
0
39
0
210
0
220
0
230
1
0
LINE
5
93
100
AcDbEntity
8
SK1
62
256
6
ByLayer
370
18
48
1
60
0
100
AcDbLine
10
-35.065
20
3
30
0
11
-35.65
21
2.415
31
0
39
0
210
0
220
0
230
1
0
LINE
5
94
100
AcDbEntity
8
1
62
256
6
ByLayer
370
18
48
1
60
0
100
AcDbLine
10
1.430569
20
-2.117567
30
0
11
6.875938
21
-2.120971
31
0
39
0
210
0
220
0
230
1
0
LINE
5
95
100
AcDbEntity
8
1
62
256
6
ByLayer
370
18
48
1
60
0
100
AcDbLine
10
6.875938
20
-2.120971
30
0
11
8.037677
21
-2.121697
31
0
39
0
210
0
220
0
230
1
0
LINE
5
96
100
AcDbEntity
8
1
62
256
6
ByLayer
370
18
48
1
60
0
100
AcDbLine
10
18.568287
20
-2.128279
30
0
11
19.079731
21
-2.128598
31
0
39
0
210
0
220
0
230
1
0
LINE
5
97
100
AcDbEntity
8
1
62
256
6
ByLayer
370
18
48
1
60
0
100
AcDbLine
10
29.822986
20
-2.135313
30
0
11
30.330558
21
-2.13563
31
0
39
0
210
0
220
0
230
1
0
LINE
5
98
100
AcDbEntity
8
1
62
256
6
ByLayer
370
18
48
1
60
0
100
AcDbLine
10
41.07605
20
-2.142346
30
0
11
41.580683
21
-2.142661
31
0
39
0
210
0
220
0
230
1
0
LINE
5
99
100
AcDbEntity
8
1
62
256
6
ByLayer
370
18
48
1
60
0
100
AcDbLine
10
52.331977
20
-2.149381
30
0
11
52.830125
21
-2.149692
31
0
39
0
210
0
220
0
230
1
0
LINE
5
9A
100
AcDbEntity
8
1
62
256
6
ByLayer
370
18
48
1
60
0
100
AcDbLine
10
52.830188
20
2.149692
30
0
11
52.331977
21
2.149381
31
0
39
0
210
0
220
0
230
1
0
LINE
5
9B
100
AcDbEntity
8
1
62
256
6
ByLayer
370
18
48
1
60
0
100
AcDbLine
10
41.579283
20
2.14266
30
0
11
41.07605
21
2.142346
31
0
39
0
210
0
220
0
230
1
0
LINE
5
9C
100
AcDbEntity
8
1
62
256
6
ByLayer
370
18
48
1
60
0
100
AcDbLine
10
30.329571
20
2.135629
30
0
11
29.822986
21
2.135313
31
0
39
0
210
0
220
0
230
1
0
LINE
5
9D
100
AcDbEntity
8
1
62
256
6
ByLayer
370
18
48
1
60
0
100
AcDbLine
10
19.078905
20
2.128598
30
0
11
18.568287
21
2.128279
31
0
39
0
210
0
220
0
230
1
0
LINE
5
9E
100
AcDbEntity
8
1
62
256
6
ByLayer
370
18
48
1
60
0
100
AcDbLine
10
8.037677
20
2.121697
30
0
11
6.875938
21
2.120971
31
0
39
0
210
0
220
0
230
1
0
LINE
5
9F
100
AcDbEntity
8
1
62
256
6
ByLayer
370
18
48
1
60
0
100
AcDbLine
10
6.875938
20
2.120971
30
0
11
1.430569
21
2.117567
31
0
39
0
210
0
220
0
230
1
0
LINE
5
A0
100
AcDbEntity
8
81
62
256
6
ByLayer
370
18
48
1
60
0
100
AcDbLine
10
54
20
0
30
0
11
59
21
0
31
0
39
0
210
0
220
0
230
1
0
LINE
5
A1
100
AcDbEntity
8
SK2
62
256
6
ByLayer
370
13
48
1
60
0
100
AcDbLine
10
-44.625163
20
32.117107
30
0
11
-44.625163
21
-11.75
31
0
39
0
210
0
220
0
230
1
0
LINE
5
A3
100
AcDbEntity
8
SK2
62
256
6
ByLayer
370
13
48
1
60
0
100
AcDbLine
10
-37.5875
20
3
30
0
11
-46.625163
21
3
31
0
39
0
210
0
220
0
230
1
0
LINE
5
A4
100
AcDbEntity
8
SK2
62
256
6
ByLayer
370
13
48
1
60
0
100
AcDbLine
10
-37.5875
20
-3
30
0
11
-46.625163
21
-3
31
0
39
0
210
0
220
0
230
1
0
LINE
5
A5
100
AcDbEntity
8
1
62
256
6
ByLayer
370
18
48
1
60
1
100
AcDbLine
10
-44.625163
20
3
30
0
11
-45.085946
21
6.499998
31
0
39
0
210
0
220
0
230
1
0
LINE
5
A6
100
AcDbEntity
8
1
62
256
6
ByLayer
370
18
48
1
60
1
100
AcDbLine
10
-45.085946
20
6.499998
30
0
11
-44.164379
21
6.500002
31
0
39
0
210
0
220
0
230
1
0
LINE
5
A7
100
AcDbEntity
8
1
62
256
6
ByLayer
370
18
48
1
60
1
100
AcDbLine
10
-44.164379
20
6.500002
30
0
11
-44.625163
21
3
31
0
39
0
210
0
220
0
230
1
0
LINE
5
A8
100
AcDbEntity
8
1
62
256
6
ByLayer
370
18
48
1
60
1
100
AcDbLine
10
-44.625163
20
-3
30
0
11
-44.164379
21
-6.499998
31
0
39
0
210
0
220
0
230
1
0
LINE
5
A9
100
AcDbEntity
8
1
62
256
6
ByLayer
370
18
48
1
60
1
100
AcDbLine
10
-44.164379
20
-6.499998
30
0
11
-45.085946
21
-6.500002
31
0
39
0
210
0
220
0
230
1
0
LINE
5
AA
100
AcDbEntity
8
1
62
256
6
ByLayer
370
18
48
1
60
1
100
AcDbLine
10
-45.085946
20
-6.500002
30
0
11
-44.625163
21
-3
31
0
39
0
210
0
220
0
230
1
0
LINE
5
AB
100
AcDbEntity
8
2
62
256
6
ByLayer
370
13
48
1
60
0
100
AcDbLine
10
66.083343
20
30.228727
30
0
11
66.083343
21
-10.9
31
0
39
0
210
0
220
0
230
1
0
LINE
5
AD
100
AcDbEntity
8
2
62
256
6
ByLayer
370
13
48
1
60
0
100
AcDbLine
10
54.9625
20
2.15
30
0
11
68.083343
21
2.15
31
0
39
0
210
0
220
0
230
1
0
LINE
5
AE
100
AcDbEntity
8
2
62
256
6
ByLayer
370
13
48
1
60
0
100
AcDbLine
10
54.9625
20
-2.15
30
0
11
68.083343
21
-2.15
31
0
39
0
210
0
220
0
230
1
0
LINE
5
AF
100
AcDbEntity
8
1
62
256
6
ByLayer
370
18
48
1
60
1
100
AcDbLine
10
66.083343
20
2.15
30
0
11
65.622559
21
5.649998
31
0
39
0
210
0
220
0
230
1
0
LINE
5
B0
100
AcDbEntity
8
1
62
256
6
ByLayer
370
18
48
1
60
1
100
AcDbLine
10
65.622559
20
5.649998
30
0
11
66.544126
21
5.650002
31
0
39
0
210
0
220
0
230
1
0
LINE
5
B1
100
AcDbEntity
8
1
62
256
6
ByLayer
370
18
48
1
60
1
100
AcDbLine
10
66.544126
20
5.650002
30
0
11
66.083343
21
2.15
31
0
39
0
210
0
220
0
230
1
0
LINE
5
B2
100
AcDbEntity
8
1
62
256
6
ByLayer
370
18
48
1
60
1
100
AcDbLine
10
66.083343
20
-2.15
30
0
11
66.544126
21
-5.649998
31
0
39
0
210
0
220
0
230
1
0
LINE
5
B3
100
AcDbEntity
8
1
62
256
6
ByLayer
370
18
48
1
60
1
100
AcDbLine
10
66.544126
20
-5.649998
30
0
11
65.622559
21
-5.650002
31
0
39
0
210
0
220
0
230
1
0
LINE
5
B4
100
AcDbEntity
8
1
62
256
6
ByLayer
370
18
48
1
60
1
100
AcDbLine
10
65.622559
20
-5.650002
30
0
11
66.083343
21
-2.15
31
0
39
0
210
0
220
0
230
1
0
LINE
5
117
100
AcDbEntity
8
1
62
256
6
ByLayer
370
18
48
1
60
1
100
AcDbLine
10
-44.625163
20
3
30
0
11
-45.085946
21
6.499998
31
0
39
0
210
0
220
0
230
1
0
LINE
5
118
100
AcDbEntity
8
1
62
256
6
ByLayer
370
18
48
1
60
1
100
AcDbLine
10
-45.085946
20
6.499998
30
0
11
-44.164379
21
6.500002
31
0
39
0
210
0
220
0
230
1
0
LINE
5
119
100
AcDbEntity
8
1
62
256
6
ByLayer
370
18
48
1
60
1
100
AcDbLine
10
-44.164379
20
6.500002
30
0
11
-44.625163
21
3
31
0
39
0
210
0
220
0
230
1
0
LINE
5
11B
100
AcDbEntity
8
1
62
256
6
ByLayer
370
18
48
1
60
1
100
AcDbLine
10
-44.625163
20
-3
30
0
11
-44.164379
21
-6.499998
31
0
39
0
210
0
220
0
230
1
0
LINE
5
11C
100
AcDbEntity
8
1
62
256
6
ByLayer
370
18
48
1
60
1
100
AcDbLine
10
-44.164379
20
-6.499998
30
0
11
-45.085946
21
-6.500002
31
0
39
0
210
0
220
0
230
1
0
LINE
5
11D
100
AcDbEntity
8
1
62
256
6
ByLayer
370
18
48
1
60
1
100
AcDbLine
10
-45.085946
20
-6.500002
30
0
11
-44.625163
21
-3
31
0
39
0
210
0
220
0
230
1
0
LINE
5
121
100
AcDbEntity
8
1
62
256
6
ByLayer
370
18
48
1
60
1
100
AcDbLine
10
66.083343
20
2.15
30
0
11
65.622559
21
5.649998
31
0
39
0
210
0
220
0
230
1
0
LINE
5
122
100
AcDbEntity
8
1
62
256
6
ByLayer
370
18
48
1
60
1
100
AcDbLine
10
65.622559
20
5.649998
30
0
11
66.544126
21
5.650002
31
0
39
0
210
0
220
0
230
1
0
LINE
5
123
100
AcDbEntity
8
1
62
256
6
ByLayer
370
18
48
1
60
1
100
AcDbLine
10
66.544126
20
5.650002
30
0
11
66.083343
21
2.15
31
0
39
0
210
0
220
0
230
1
0
LINE
5
125
100
AcDbEntity
8
1
62
256
6
ByLayer
370
18
48
1
60
1
100
AcDbLine
10
66.083343
20
-2.15
30
0
11
66.544126
21
-5.649998
31
0
39
0
210
0
220
0
230
1
0
LINE
5
126
100
AcDbEntity
8
1
62
256
6
ByLayer
370
18
48
1
60
1
100
AcDbLine
10
66.544126
20
-5.649998
30
0
11
65.622559
21
-5.650002
31
0
39
0
210
0
220
0
230
1
0
LINE
5
127
100
AcDbEntity
8
1
62
256
6
ByLayer
370
18
48
1
60
1
100
AcDbLine
10
65.622559
20
-5.650002
30
0
11
66.083343
21
-2.15
31
0
39
0
210
0
220
0
230
1
0
MTEXT
5
111
100
AcDbEntity
8
SK6
62
256
6
ByLayer
370
13
48
1
60
0
100
AcDbMText
10
-20.32946
20
34.690328
30
0
210
0
220
0
230
1
1
\W0.7716;462.1-0430-032A1-XM X2BM
40
3.5
41
0
44
1.084337
50
0
71
7
72
5
7
iso_b_vert
0
MTEXT
5
115
100
AcDbEntity
8
SK2
62
256
6
ByLayer
370
18
48
1
60
0
100
AcDbMText
10
-46.189796
20
16.409024
30
0
210
0
220
0
230
1
1
%%c
40
3.5
41
0
44
1.084337
50
90
71
7
72
5
7
iso_b_vert
0
MTEXT
5
116
100
AcDbEntity
8
SK2
62
256
6
ByLayer
370
18
48
1
60
0
100
AcDbMText
10
-46.189796
20
21.63168
30
0
210
0
220
0
230
1
1
\W0.7317;6,000
40
3.5
41
0
44
1.084337
50
90
71
7
72
5
7
iso_b_vert
0
MTEXT
5
11F
100
AcDbEntity
8
2
62
256
6
ByLayer
370
18
48
1
60
0
100
AcDbMText
10
64.518709
20
14.15211
30
0
210
0
220
0
230
1
1
%%c
40
3.5
41
0
44
1.084337
50
90
71
7
72
5
7
iso_b_vert
0
MTEXT
5
120
100
AcDbEntity
8
2
62
256
6
ByLayer
370
18
48
1
60
0
100
AcDbMText
10
64.518709
20
19.374766
30
0
210
0
220
0
230
1
1
\W0.7581;4,300
40
3.5
41
0
44
1.084337
50
90
71
7
72
5
7
iso_b_vert
0
HATCH
5
11A
100
AcDbEntity
8
SK2
62
256
6
ByLayer
370
13
48
1
60
0
100
AcDbHatch
10
0
20
0
30
0
210
0
220
0
230
1
2
ANSI31
70
0
71
0
91
1
92
5
93
3
72
1
10
-44.6251625675374
20
3
11
-45.0859463090902
21
6.49999830744682
72
1
10
-45.0859463090902
20
6.49999830744682
11
-44.1643788259847
21
6.50000169255318
72
1
10
-44.1643788259847
20
6.50000169255318
11
-44.6251625675374
21
3
97
0
75
0
76
1
52
0
41
0.0062
77
0
78
1
53
45
43
0
44
0
45
-0.0139193969876572
46
0.0139193969876572
79
0
47
0
98
1
10
0
20
0
0
HATCH
5
11E
100
AcDbEntity
8
SK2
62
256
6
ByLayer
370
13
48
1
60
0
100
AcDbHatch
10
0
20
0
30
0
210
0
220
0
230
1
2
ANSI31
70
0
71
0
91
1
92
5
93
3
72
1
10
-44.6251625675374
20
-3
11
-44.1643788259847
21
-6.49999830744682
72
1
10
-44.1643788259847
20
-6.49999830744682
11
-45.0859463090902
21
-6.50000169255318
72
1
10
-45.0859463090902
20
-6.50000169255318
11
-44.6251625675374
21
-3
97
0
75
0
76
1
52
0
41
0.0062
77
0
78
1
53
45
43
0
44
0
45
-0.0139193969876572
46
0.0139193969876572
79
0
47
0
98
1
10
0
20
0
0
HATCH
5
124
100
AcDbEntity
8
2
62
256
6
ByLayer
370
13
48
1
60
0
100
AcDbHatch
10
0
20
0
30
0
210
0
220
0
230
1
2
ANSI31
70
0
71
0
91
1
92
5
93
3
72
1
10
66.083342615295
20
2.15000000000001
11
65.6225588737423
21
5.64999830744682
72
1
10
65.6225588737423
20
5.64999830744682
11
66.5441263568478
21
5.65000169255319
72
1
10
66.5441263568478
20
5.65000169255319
11
66.083342615295
21
2.15000000000001
97
0
75
0
76
1
52
0
41
0.0062
77
0
78
1
53
45
43
0
44
0
45
-0.0139193969876572
46
0.0139193969876572
79
0
47
0
98
1
10
0
20
0
0
HATCH
5
128
100
AcDbEntity
8
2
62
256
6
ByLayer
370
13
48
1
60
0
100
AcDbHatch
10
0
20
0
30
0
210
0
220
0
230
1
2
ANSI31
70
0
71
0
91
1
92
5
93
3
72
1
10
66.083342615295
20
-2.14999999999998
11
66.5441263568478
21
-5.64999830744679
72
1
10
66.5441263568478
20
-5.64999830744679
11
65.6225588737423
21
-5.65000169255316
72
1
10
65.6225588737423
20
-5.65000169255316
11
66.083342615295
21
-2.14999999999998
97
0
75
0
76
1
52
0
41
0.0062
77
0
78
1
53
45
43
0
44
0
45
-0.0139193969876572
46
0.0139193969876572
79
0
47
0
98
1
10
0
20
0
0
DIMENSION
5
12A
100
AcDbEntity
8
SK2
62
256
6
ByLayer
370
13
48
1
60
0
100
AcDbDimension
2
_U0
10
53.375
20
-12.363398
30
0
11
26.6875
21
-12.363398
31
0
70
32
71
1
72
1
41
1
210
0
220
0
230
1
3
Standard
100
AcDbAlignedDimension
13
0
23
0
33
0
14
53.375
24
-2.15
34
0
50
0
100
AcDbRotatedDimension
1001
ACAD
1000
DSTYLE
1002
{
1070
   371
1070
    13
1070
   372
1070
    13
1070
   170
1070
     0
1070
   144
1040
1.0
1070
   277
1070
     2
1070
   278
1070
    44
1070
   146
1040
1.0
1070
   345
1005
16
1070
   347
1005
16
1070
   346
1005
16
1070
   344
1005
0
1070
   343
1005
0
1070
   172
1070
     1
1070
    76
1070
     0
1070
    75
1070
     0
1070
   282
1070
     0
1070
   281
1070
     0
1070
    71
1070
     0
1070
    74
1070
     0
1070
   279
1070
     0
1070
   173
1070
     1
1070
   340
1005
112
1070
   271
1070
     2
1070
   272
1070
     2
1070
    77
1070
     1
1070
    73
1070
     1
1070
   171
1070
     3
1070
   274
1070
     4
1070
   177
1070
    35
1070
   176
1070
    35
1070
   178
1070
    35
1070
    48
1040
-0.1
1070
    41
1040
3.5
1070
   147
1040
1.75
1070
    42
1040
1.5875
1070
    44
1040
2.0
1070
   140
1040
3.5
1002
}
1001
ACAD_DSTYLE_DIM_LINETYPE
1070
   380
1005
16
1001
ACAD_DSTYLE_DIM_EXT1_LINETYPE
1070
   381
1005
16
1001
ACAD_DSTYLE_DIM_EXT2_LINETYPE
1070
   382
1005
16
0
DIMENSION
5
143
100
AcDbEntity
8
SK2
62
256
6
ByLayer
370
13
48
1
60
0
100
AcDbDimension
2
_U1
10
54
20
-31.692985
30
0
11
9
21
-31.692985
31
0
70
32
71
1
72
1
41
1
210
0
220
0
230
1
3
Standard
100
AcDbAlignedDimension
13
-36
23
-3
33
0
14
54
24
0
34
0
50
0
100
AcDbRotatedDimension
1001
ACAD
1000
DSTYLE
1002
{
1070
   371
1070
    13
1070
   372
1070
    13
1070
   170
1070
     0
1070
   144
1040
1.0
1070
   277
1070
     2
1070
   278
1070
    44
1070
   146
1040
1.0
1070
   345
1005
16
1070
   347
1005
16
1070
   346
1005
16
1070
   344
1005
0
1070
   343
1005
0
1070
   172
1070
     1
1070
    76
1070
     0
1070
    75
1070
     0
1070
   282
1070
     0
1070
   281
1070
     0
1070
    71
1070
     0
1070
    74
1070
     0
1070
   279
1070
     0
1070
   173
1070
     1
1070
   340
1005
112
1070
   271
1070
     2
1070
   272
1070
     2
1070
    77
1070
     1
1070
    73
1070
     1
1070
   171
1070
     3
1070
   274
1070
     4
1070
   177
1070
    35
1070
   176
1070
    35
1070
   178
1070
    35
1070
    48
1040
-0.1
1070
    41
1040
3.5
1070
   147
1040
1.75
1070
    42
1040
1.5875
1070
    44
1040
2.0
1070
   140
1040
3.5
1002
}
1001
ACAD_DSTYLE_DIM_LINETYPE
1070
   380
1005
16
1001
ACAD_DSTYLE_DIM_EXT1_LINETYPE
1070
   381
1005
16
1001
ACAD_DSTYLE_DIM_EXT2_LINETYPE
1070
   382
1005
16
0
DIMENSION
5
15B
100
AcDbEntity
8
SK2
62
256
6
ByLayer
370
13
48
1
60
0
100
AcDbDimension
2
_U2
10
54
20
13.759119
30
0
11
36.485
21
13.759119
31
0
70
32
71
1
72
1
41
1
210
0
220
0
230
1
3
Standard
100
AcDbAlignedDimension
13
18.97
23
2.15
33
0
14
54
24
0
34
0
50
0
100
AcDbRotatedDimension
1001
ACAD
1000
DSTYLE
1002
{
1070
   371
1070
    13
1070
   372
1070
    13
1070
   170
1070
     0
1070
   144
1040
1.0
1070
   277
1070
     2
1070
   278
1070
    44
1070
   146
1040
1.0
1070
   345
1005
16
1070
   347
1005
16
1070
   346
1005
16
1070
   344
1005
0
1070
   343
1005
0
1070
   172
1070
     1
1070
    76
1070
     0
1070
    75
1070
     0
1070
   282
1070
     0
1070
   281
1070
     0
1070
    71
1070
     0
1070
    74
1070
     0
1070
   279
1070
     0
1070
   173
1070
     1
1070
   340
1005
112
1070
   271
1070
     2
1070
   272
1070
     2
1070
    77
1070
     1
1070
    73
1070
     1
1070
   171
1070
     3
1070
   274
1070
     4
1070
   177
1070
    35
1070
   176
1070
    35
1070
   178
1070
    35
1070
    48
1040
-0.1
1070
    41
1040
3.5
1070
   147
1040
1.75
1070
    42
1040
1.5875
1070
    44
1040
2.0
1070
   140
1040
3.5
1002
}
1001
ACAD_DSTYLE_DIM_LINETYPE
1070
   380
1005
16
1001
ACAD_DSTYLE_DIM_EXT1_LINETYPE
1070
   381
1005
16
1001
ACAD_DSTYLE_DIM_EXT2_LINETYPE
1070
   382
1005
16
0
DIMENSION
5
173
100
AcDbEntity
8
SK2
62
256
6
ByLayer
370
13
48
1
60
0
100
AcDbDimension
2
_U3
10
53.375
20
-14.952503
30
0
11
71.583333
21
-14.952503
31
0
70
32
71
1
72
1
41
1
210
0
220
0
230
1
3
Standard
100
AcDbAlignedDimension
13
54
23
0
33
0
14
53.375
24
-2.15
34
0
50
0
100
AcDbRotatedDimension
1001
ACAD
1000
DSTYLE
1002
{
1070
   371
1070
    13
1070
   372
1070
    13
1070
   170
1070
     0
1070
   144
1040
1.0
1070
   277
1070
     2
1070
   278
1070
    44
1070
   146
1040
1.0
1070
   345
1005
16
1070
   347
1005
16
1070
   346
1005
16
1070
   344
1005
0
1070
   343
1005
0
1070
   172
1070
     1
1070
    76
1070
     0
1070
    75
1070
     0
1070
   282
1070
     0
1070
   281
1070
     0
1070
    71
1070
     0
1070
    74
1070
     0
1070
   279
1070
     0
1070
   173
1070
     1
1070
   340
1005
112
1070
   271
1070
     2
1070
   272
1070
     2
1070
    77
1070
     1
1070
    73
1070
     1
1070
   171
1070
     3
1070
   274
1070
     4
1070
   177
1070
    35
1070
   176
1070
    35
1070
   178
1070
    35
1070
    48
1040
-0.1
1070
    41
1040
3.5
1070
   147
1040
1.75
1070
    42
1040
1.5875
1070
    44
1040
2.0
1070
   140
1040
3.5
1002
}
1001
ACAD_DSTYLE_DIM_LINETYPE
1070
   380
1005
16
1001
ACAD_DSTYLE_DIM_EXT1_LINETYPE
1070
   381
1005
16
1001
ACAD_DSTYLE_DIM_EXT2_LINETYPE
1070
   382
1005
16
0
DIMENSION
5
18D
100
AcDbEntity
8
SK2
62
256
6
ByLayer
370
13
48
1
60
0
100
AcDbDimension
2
_U4
10
53.375
20
-21.343428
30
0
11
8.6875
21
-21.343428
31
0
70
32
71
1
72
1
41
1
210
0
220
0
230
1
3
Standard
100
AcDbAlignedDimension
13
-36
23
-3
33
0
14
53.375
24
-2.15
34
0
50
0
100
AcDbRotatedDimension
1001
ACAD
1000
DSTYLE
1002
{
1070
   371
1070
    13
1070
   372
1070
    13
1070
   170
1070
     0
1070
   144
1040
1.0
1070
   277
1070
     2
1070
   278
1070
    44
1070
   146
1040
1.0
1070
   345
1005
16
1070
   347
1005
16
1070
   346
1005
16
1070
   344
1005
0
1070
   343
1005
0
1070
   172
1070
     1
1070
    76
1070
     0
1070
    75
1070
     0
1070
   282
1070
     0
1070
   281
1070
     0
1070
    71
1070
     0
1070
    74
1070
     0
1070
   279
1070
     0
1070
   173
1070
     1
1070
   340
1005
112
1070
   271
1070
     2
1070
   272
1070
     2
1070
    77
1070
     1
1070
    73
1070
     1
1070
   171
1070
     3
1070
   274
1070
     4
1070
   177
1070
    35
1070
   176
1070
    35
1070
   178
1070
    35
1070
    48
1040
-0.1
1070
    41
1040
3.5
1070
   147
1040
1.75
1070
    42
1040
1.5875
1070
    44
1040
2.0
1070
   140
1040
3.5
1002
}
1001
ACAD_DSTYLE_DIM_LINETYPE
1070
   380
1005
16
1001
ACAD_DSTYLE_DIM_EXT1_LINETYPE
1070
   381
1005
16
1001
ACAD_DSTYLE_DIM_EXT2_LINETYPE
1070
   382
1005
16
0
ENDSEC
0
SECTION
2
OBJECTS
0
DICTIONARY
5
215
330
0
100
AcDbDictionary
280
0
281
1
3
ACAD_GROUP
350
216
3
ACAD_MLINESTYLE
350
217
0
DICTIONARY
5
216
330
0
100
AcDbDictionary
280
0
281
1
0
DICTIONARY
5
217
330
0
100
AcDbDictionary
280
0
281
1
3
Standard
350
18
0
MLINESTYLE
5
18
330
217
100
AcDbMlineStyle
2
Standard
70
0
3

62
256
51
90
52
90
71
2
49
-0.5
62
256
6
ByLayer
49
0.5
62
256
6
ByLayer
0
RASTERVARIABLES
5
203
330

100
AcDbRasterVariables
90
0
70
1
71
1
72
1
0
ENDSEC
0
EOF
