0
SECTION
2
HEADER
9
$ACADVER
1
AC1015
9
$DWGCODEPAGE
3
ANSI_1252
9
$HANDSEED
5
226
9
$ANGBASE
50
0
9
$ANGDIR
70
0
9
$ATTMODE
70
1
9
$AUNITS
70
0
9
$AUPREC
70
0
9
$CECOLOR
62
256
9
$CELTSCALE
40
1
9
$CELTYPE
6
ByLayer
9
$CELWEIGHT
370
18
9
$CLAYER
8
0
9
$CMLJUST
70
0
9
$CMLSCALE
40
1
9
$CMLSTYLE
2
Standard
9
$DIMSTYLE
2
Standard
9
$TEXTSIZE
40
0.2
9
$TEXTSTYLE
7
Standard
9
$LUNITS
70
2
9
$LUPREC
70
4
9
$EXTNAMES
290
1
9
$INSUNITS
70
4
9
$LTSCALE
40
1
9
$LWDISPLAY
290
1
9
$PDMODE
70
0
9
$PDSIZE
40
0
9
$PLINEGEN
70
0
0
ENDSEC
0
SECTION
2
CLASSES
0
CLASS
1
RASTERVARIABLES
2
AcDbRasterVariables
3
ISM
90
0
280
0
281
0
0
ENDSEC
0
SECTION
2
TABLES
0
TABLE
2
VPORT
5
21c
100
AcDbSymbolTable
0
VPORT
5
1
100
AcDbSymbolTableRecord
100
AcDbViewportTableRecord
2
*Active
70
0
10
0
20
0
11
1
21
1
12
-1
22
1
13
0
23
0
14
0.5
24
0.5
15
10
25
10
16
0
26
0
36
1
17
0
27
0
37
0
0
ENDTAB
0
TABLE
2
LTYPE
5
21d
100
AcDbSymbolTable
0
LTYPE
5
14
100
AcDbSymbolTableRecord
100
AcDbLinetypeTableRecord
70
0
2
ByBlock
3

72
65
73
0
40
0
0
LTYPE
5
15
100
AcDbSymbolTableRecord
100
AcDbLinetypeTableRecord
70
0
2
ByLayer
3

72
65
73
0
40
0
0
LTYPE
5
16
100
AcDbSymbolTableRecord
100
AcDbLinetypeTableRecord
70
0
2
Continuous
3
Solid line
72
65
73
0
40
0
0
LTYPE
5
6E
100
AcDbSymbolTableRecord
100
AcDbLinetypeTableRecord
70
0
2
CENTER
3
____ _ ____ _ ____ _ ____
72
65
73
4
40
47.5
49
22
74
0
49
-8.5
74
0
49
8.5
74
0
49
-8.5
74
0
0
LTYPE
5
6F
100
AcDbSymbolTableRecord
100
AcDbLinetypeTableRecord
70
0
2
DASHED
3
__ __ __ __ __ __ __ __ __
72
65
73
2
40
25.72
49
12.86
74
0
49
-12.86
74
0
0
ENDTAB
0
TABLE
2
LAYER
5
21e
100
AcDbSymbolTable
0
LAYER
5
10
100
AcDbSymbolTableRecord
100
AcDbLayerTableRecord
2
0
70
0
62
7
6
Continuous
290
1
370
-3
390
0
0
LAYER
5
71
100
AcDbSymbolTableRecord
100
AcDbLayerTableRecord
2
80
70
0
62
-6
6
Continuous
290
1
370
-3
390
0
0
LAYER
5
73
100
AcDbSymbolTableRecord
100
AcDbLayerTableRecord
2
81
70
0
62
-3
6
Continuous
290
1
370
-3
390
0
0
LAYER
5
75
100
AcDbSymbolTableRecord
100
AcDbLayerTableRecord
2
1
70
0
62
4
6
Continuous
290
1
370
-3
390
0
0
LAYER
5
8B
100
AcDbSymbolTableRecord
100
AcDbLayerTableRecord
2
4
70
0
62
-2
6
CENTER
290
1
370
-3
390
0
0
LAYER
5
AA
100
AcDbSymbolTableRecord
100
AcDbLayerTableRecord
2
2
70
0
62
7
6
Continuous
290
1
370
-3
390
0
0
LAYER
5
131
100
AcDbSymbolTableRecord
100
AcDbLayerTableRecord
2
Defpoints
70
0
62
7
6
Continuous
290
0
370
-3
390
0
0
LAYER
5
208
100
AcDbSymbolTableRecord
100
AcDbLayerTableRecord
2
SK1
70
0
62
4
6
Continuous
290
1
370
-3
390
0
0
LAYER
5
209
100
AcDbSymbolTableRecord
100
AcDbLayerTableRecord
2
SK4
70
0
62
2
6
CENTER
290
1
370
-3
390
0
0
LAYER
5
20a
100
AcDbSymbolTableRecord
100
AcDbLayerTableRecord
2
SK2
70
0
62
7
6
Continuous
290
1
370
-3
390
0
0
LAYER
5
20b
100
AcDbSymbolTableRecord
100
AcDbLayerTableRecord
2
SK6
70
0
62
5
6
Continuous
290
1
370
-3
390
0
0
ENDTAB
0
TABLE
2
STYLE
5
21f
100
AcDbSymbolTable
0
STYLE
5
11
100
AcDbSymbolTableRecord
100
AcDbTextStyleTableRecord
2
Standard
3
txt
70
0
71
0
40
0
41
1
42
0
50
0
0
STYLE
5
116
100
AcDbSymbolTableRecord
100
AcDbTextStyleTableRecord
2
iso_b_vert
3
simplex.shx
70
0
71
0
40
0
41
1
42
0
50
0
0
STYLE
5
117
100
AcDbSymbolTableRecord
100
AcDbTextStyleTableRecord
2
DWGDirectTextStyle
3
simplex
70
0
71
0
40
0
41
1
42
0
50
0
0
ENDTAB
0
TABLE
2
DIMSTYLE
5
220
100
AcDbSymbolTable
100
AcDbDimStyleTable
0
DIMSTYLE
105
27
100
AcDbSymbolTableRecord
100
AcDbDimStyleTableRecord
2
Standard
70
0
3
<>
41
0.18
42
0.0625
44
0.18
140
0.18
147
0.09
73
0
74
0
77
1
271
2
275
0
278
52
280
0
340
11
0
ENDTAB
0
TABLE
2
VIEW
5
221
100
AcDbSymbolTable
0
ENDTAB
0
TABLE
2
UCS
5
222
100
AcDbSymbolTable
0
ENDTAB
0
TABLE
2
APPID
5
223
100
AcDbSymbolTable
0
APPID
5
12
100
AcDbSymbolTableRecord
100
AcDbRegAppTableRecord
2
ACAD
70
0
0
APPID
5
12D
100
AcDbSymbolTableRecord
100
AcDbRegAppTableRecord
2
ACAD_DSTYLE_DIMBREAK
70
0
0
APPID
5
1C7
100
AcDbSymbolTableRecord
100
AcDbRegAppTableRecord
2
ACAD_DSTYLE_DIM_LINETYPE
70
0
0
APPID
5
1C8
100
AcDbSymbolTableRecord
100
AcDbRegAppTableRecord
2
ACAD_DSTYLE_DIM_EXT1_LINETYPE
70
0
0
APPID
5
1C9
100
AcDbSymbolTableRecord
100
AcDbRegAppTableRecord
2
ACAD_DSTYLE_DIM_EXT2_LINETYPE
70
0
0
APPID
5
204
100
AcDbSymbolTableRecord
100
AcDbRegAppTableRecord
2
ACAD_MLEADERVER
70
0
0
ENDTAB
0
TABLE
2
BLOCK_RECORD
5
224
100
AcDbSymbolTable
0
BLOCK_RECORD
5
1F
100
AcDbSymbolTableRecord
100
AcDbBlockTableRecord
2
*Model_Space
340
0
70
0
0
BLOCK_RECORD
5
1B
100
AcDbSymbolTableRecord
100
AcDbBlockTableRecord
2
*Paper_Space
340
0
70
0
0
BLOCK_RECORD
5
23
100
AcDbSymbolTableRecord
100
AcDbBlockTableRecord
2
*Paper_Space0
340
0
70
0
0
BLOCK_RECORD
5
132
100
AcDbSymbolTableRecord
100
AcDbBlockTableRecord
2
*D1
340
0
70
0
0
BLOCK_RECORD
5
13E
100
AcDbSymbolTableRecord
100
AcDbBlockTableRecord
2
_U0
340
0
70
0
0
BLOCK_RECORD
5
14A
100
AcDbSymbolTableRecord
100
AcDbBlockTableRecord
2
*D3
340
0
70
0
0
BLOCK_RECORD
5
156
100
AcDbSymbolTableRecord
100
AcDbBlockTableRecord
2
_U1
340
0
70
0
0
BLOCK_RECORD
5
162
100
AcDbSymbolTableRecord
100
AcDbBlockTableRecord
2
*D5
340
0
70
0
0
BLOCK_RECORD
5
16E
100
AcDbSymbolTableRecord
100
AcDbBlockTableRecord
2
_U2
340
0
70
0
0
BLOCK_RECORD
5
17A
100
AcDbSymbolTableRecord
100
AcDbBlockTableRecord
2
*D7
340
0
70
0
0
BLOCK_RECORD
5
188
100
AcDbSymbolTableRecord
100
AcDbBlockTableRecord
2
_U3
340
0
70
0
0
BLOCK_RECORD
5
194
100
AcDbSymbolTableRecord
100
AcDbBlockTableRecord
2
*D9
340
0
70
0
0
BLOCK_RECORD
5
1A0
100
AcDbSymbolTableRecord
100
AcDbBlockTableRecord
2
_U4
340
0
70
0
0
ENDTAB
0
ENDSEC
0
SECTION
2
BLOCKS
0
BLOCK
5
20
100
AcDbEntity
8
0
100
AcDbBlockBegin
2
*Model_Space
70
0
10
0
20
0
30
0
3
*Model_Space
0
ENDBLK
5
21
100
AcDbEntity
8
0
100
AcDbBlockEnd
0
BLOCK
5
1C
100
AcDbEntity
8
0
100
AcDbBlockBegin
2
*Paper_Space
70
0
10
0
20
0
30
0
3
*Paper_Space
0
ENDBLK
5
1D
100
AcDbEntity
8
0
100
AcDbBlockEnd
0
BLOCK
5
24
100
AcDbEntity
8
0
100
AcDbBlockBegin
2
*Paper_Space0
70
0
10
0
20
0
30
0
3
*Paper_Space0
0
ENDBLK
5
25
100
AcDbEntity
8
0
100
AcDbBlockEnd
0
BLOCK
5
133
100
AcDbEntity
8
0
100
AcDbBlockBegin
2
*D1
70
1
10
0
20
0
30
0
3
*D1
0
LINE
5
135
100
AcDbEntity
8
0
62
256
6
ByLayer
370
-2
48
1
60
0
100
AcDbLine
10
0
20
-1.5875
30
0
11
0
21
-16.363398
31
0
39
0
210
0
220
0
230
1
0
LINE
5
136
100
AcDbEntity
8
0
62
256
6
ByLayer
370
-2
48
1
60
0
100
AcDbLine
10
110.7722
20
-5.7375
30
0
11
110.7722
21
-16.363398
31
0
39
0
210
0
220
0
230
1
0
LINE
5
137
100
AcDbEntity
8
0
62
256
6
ByLayer
370
-2
48
1
60
0
100
AcDbLine
10
3.5
20
-14.363398
30
0
11
107.2722
21
-14.363398
31
0
39
0
210
0
220
0
230
1
0
SOLID
5
138
100
AcDbEntity
8
0
62
256
6
ByLayer
370
-1
48
1
60
0
100
AcDbTrace
10
3.5
20
-13.780065
30
0
11
3.5
21
-14.946732
31
0
12
0
22
-14.363398
32
0
13
0
23
-14.363398
33
0
39
0
210
0
220
0
230
1
0
SOLID
5
139
100
AcDbEntity
8
0
62
256
6
ByLayer
370
-1
48
1
60
0
100
AcDbTrace
10
107.2722
20
-14.946732
30
0
11
107.2722
21
-13.780065
31
0
12
110.7722
22
-14.363398
32
0
13
110.7722
23
-14.363398
33
0
39
0
210
0
220
0
230
1
0
MTEXT
5
13A
100
AcDbEntity
8
0
62
256
6
ByLayer
370
18
48
1
60
0
100
AcDbMText
10
55.3861
20
-7.363398
30
0
210
0
220
0
230
1
1
\A1;110.77
40
3.5
41
0
44
1
50
0
71
5
72
5
7
iso_b_vert
0
POINT
5
13B
100
AcDbEntity
8
Defpoints
62
0
6
ByLayer
370
-1
48
1
60
0
100
AcDbPoint
10
0
20
0
30
0
39
0
210
0
220
0
230
1
50
360
0
POINT
5
13C
100
AcDbEntity
8
Defpoints
62
0
6
ByLayer
370
-1
48
1
60
0
100
AcDbPoint
10
110.7722
20
-4.15
30
0
39
0
210
0
220
0
230
1
50
360
0
POINT
5
13D
100
AcDbEntity
8
Defpoints
62
0
6
ByLayer
370
-1
48
1
60
0
100
AcDbPoint
10
110.7722
20
-14.363398
30
0
39
0
210
0
220
0
230
1
50
360
0
ENDBLK
5
134
100
AcDbEntity
8
0
100
AcDbBlockEnd
0
BLOCK
5
145
100
AcDbEntity
8
0
100
AcDbBlockBegin
2
_U0
70
0
10
0
20
0
30
0
3
_U0
0
MTEXT
5
13F
100
AcDbEntity
8
SK2
62
256
6
ByLayer
370
13
48
1
60
0
100
AcDbMText
10
49.815935
20
-13.330765
30
0
210
0
220
0
230
1
1
\W0.6440;110,77
40
3.5
41
0
44
1.084337
50
0
71
7
72
5
7
iso_b_vert
0
LINE
5
140
100
AcDbEntity
8
SK2
62
256
6
ByLayer
370
13
48
1
60
0
100
AcDbLine
10
0
20
-1.5875
30
0
11
0
21
-16.363398
31
0
39
0
210
0
220
0
230
1
0
LINE
5
141
100
AcDbEntity
8
SK2
62
256
6
ByLayer
370
13
48
1
60
0
100
AcDbLine
10
110.7722
20
-5.7375
30
0
11
110.7722
21
-16.363398
31
0
39
0
210
0
220
0
230
1
0
LINE
5
142
100
AcDbEntity
8
SK2
62
256
6
ByLayer
370
13
48
1
60
0
100
AcDbLine
10
0
20
-14.363398
30
0
11
110.7722
21
-14.363398
31
0
39
0
210
0
220
0
230
1
0
SOLID
5
143
100
AcDbEntity
8
SK2
62
256
6
ByLayer
370
18
48
1
60
0
100
AcDbTrace
10
0
20
-14.363398
30
0
11
3.499998
21
-13.902615
31
0
12
3.500002
22
-14.824182
32
0
13
3.500002
23
-14.824182
33
0
39
0
210
0
220
0
230
1
0
SOLID
5
144
100
AcDbEntity
8
SK2
62
256
6
ByLayer
370
18
48
1
60
0
100
AcDbTrace
10
110.7722
20
-14.363398
30
0
11
107.272202
21
-14.824182
31
0
12
107.272198
22
-13.902615
32
0
13
107.272198
23
-13.902615
33
0
39
0
210
0
220
0
230
1
0
ENDBLK
5
146
100
AcDbEntity
8
0
100
AcDbBlockEnd
0
BLOCK
5
14B
100
AcDbEntity
8
0
100
AcDbBlockBegin
2
*D3
70
1
10
0
20
0
30
0
3
*D3
0
LINE
5
14D
100
AcDbEntity
8
0
62
256
6
ByLayer
370
-2
48
1
60
0
100
AcDbLine
10
-40
20
-6.5875
30
0
11
-40
21
-35.692985
31
0
39
0
210
0
220
0
230
1
0
LINE
5
14E
100
AcDbEntity
8
0
62
256
6
ByLayer
370
-2
48
1
60
0
100
AcDbLine
10
112
20
-1.5875
30
0
11
112
21
-35.692985
31
0
39
0
210
0
220
0
230
1
0
LINE
5
14F
100
AcDbEntity
8
0
62
256
6
ByLayer
370
-2
48
1
60
0
100
AcDbLine
10
-36.5
20
-33.692985
30
0
11
108.5
21
-33.692985
31
0
39
0
210
0
220
0
230
1
0
SOLID
5
150
100
AcDbEntity
8
0
62
256
6
ByLayer
370
-1
48
1
60
0
100
AcDbTrace
10
-36.5
20
-33.109652
30
0
11
-36.5
21
-34.276319
31
0
12
-40
22
-33.692985
32
0
13
-40
23
-33.692985
33
0
39
0
210
0
220
0
230
1
0
SOLID
5
151
100
AcDbEntity
8
0
62
256
6
ByLayer
370
-1
48
1
60
0
100
AcDbTrace
10
108.5
20
-34.276319
30
0
11
108.5
21
-33.109652
31
0
12
112
22
-33.692985
32
0
13
112
23
-33.692985
33
0
39
0
210
0
220
0
230
1
0
MTEXT
5
152
100
AcDbEntity
8
0
62
256
6
ByLayer
370
18
48
1
60
0
100
AcDbMText
10
36
20
-26.692985
30
0
210
0
220
0
230
1
1
\A1;152.00
40
3.5
41
0
44
1
50
0
71
5
72
5
7
iso_b_vert
0
POINT
5
153
100
AcDbEntity
8
Defpoints
62
0
6
ByLayer
370
-1
48
1
60
0
100
AcDbPoint
10
-40
20
-5
30
0
39
0
210
0
220
0
230
1
50
360
0
POINT
5
154
100
AcDbEntity
8
Defpoints
62
0
6
ByLayer
370
-1
48
1
60
0
100
AcDbPoint
10
112
20
0
30
0
39
0
210
0
220
0
230
1
50
360
0
POINT
5
155
100
AcDbEntity
8
Defpoints
62
0
6
ByLayer
370
-1
48
1
60
0
100
AcDbPoint
10
112
20
-33.692985
30
0
39
0
210
0
220
0
230
1
50
360
0
ENDBLK
5
14C
100
AcDbEntity
8
0
100
AcDbBlockEnd
0
BLOCK
5
15D
100
AcDbEntity
8
0
100
AcDbBlockBegin
2
_U1
70
0
10
0
20
0
30
0
3
_U1
0
MTEXT
5
157
100
AcDbEntity
8
SK2
62
256
6
ByLayer
370
13
48
1
60
0
100
AcDbMText
10
29.992401
20
-32.660352
30
0
210
0
220
0
230
1
1
\W0.6930;152,00
40
3.5
41
0
44
1.084337
50
0
71
7
72
5
7
iso_b_vert
0
LINE
5
158
100
AcDbEntity
8
SK2
62
256
6
ByLayer
370
13
48
1
60
0
100
AcDbLine
10
-40
20
-6.5875
30
0
11
-40
21
-35.692985
31
0
39
0
210
0
220
0
230
1
0
LINE
5
159
100
AcDbEntity
8
SK2
62
256
6
ByLayer
370
13
48
1
60
0
100
AcDbLine
10
112
20
-1.5875
30
0
11
112
21
-35.692985
31
0
39
0
210
0
220
0
230
1
0
LINE
5
15A
100
AcDbEntity
8
SK2
62
256
6
ByLayer
370
13
48
1
60
0
100
AcDbLine
10
-40
20
-33.692985
30
0
11
112
21
-33.692985
31
0
39
0
210
0
220
0
230
1
0
SOLID
5
15B
100
AcDbEntity
8
SK2
62
256
6
ByLayer
370
18
48
1
60
0
100
AcDbTrace
10
-40
20
-33.692985
30
0
11
-36.500002
21
-33.232202
31
0
12
-36.499998
22
-34.153769
32
0
13
-36.499998
23
-34.153769
33
0
39
0
210
0
220
0
230
1
0
SOLID
5
15C
100
AcDbEntity
8
SK2
62
256
6
ByLayer
370
18
48
1
60
0
100
AcDbTrace
10
112
20
-33.692985
30
0
11
108.500002
21
-34.153769
31
0
12
108.499998
22
-33.232202
32
0
13
108.499998
23
-33.232202
33
0
39
0
210
0
220
0
230
1
0
ENDBLK
5
15E
100
AcDbEntity
8
0
100
AcDbBlockEnd
0
BLOCK
5
163
100
AcDbEntity
8
0
100
AcDbBlockBegin
2
*D5
70
1
10
0
20
0
30
0
3
*D5
0
LINE
5
165
100
AcDbEntity
8
0
62
256
6
ByLayer
370
-2
48
1
60
0
100
AcDbLine
10
44.37
20
5.7375
30
0
11
44.37
21
17.759119
31
0
39
0
210
0
220
0
230
1
0
LINE
5
166
100
AcDbEntity
8
0
62
256
6
ByLayer
370
-2
48
1
60
0
100
AcDbLine
10
112
20
1.5875
30
0
11
112
21
17.759119
31
0
39
0
210
0
220
0
230
1
0
LINE
5
167
100
AcDbEntity
8
0
62
256
6
ByLayer
370
-2
48
1
60
0
100
AcDbLine
10
47.87
20
15.759119
30
0
11
108.5
21
15.759119
31
0
39
0
210
0
220
0
230
1
0
SOLID
5
168
100
AcDbEntity
8
0
62
256
6
ByLayer
370
-1
48
1
60
0
100
AcDbTrace
10
47.87
20
16.342453
30
0
11
47.87
21
15.175786
31
0
12
44.37
22
15.759119
32
0
13
44.37
23
15.759119
33
0
39
0
210
0
220
0
230
1
0
SOLID
5
169
100
AcDbEntity
8
0
62
256
6
ByLayer
370
-1
48
1
60
0
100
AcDbTrace
10
108.5
20
15.175786
30
0
11
108.5
21
16.342453
31
0
12
112
22
15.759119
32
0
13
112
23
15.759119
33
0
39
0
210
0
220
0
230
1
0
MTEXT
5
16A
100
AcDbEntity
8
0
62
256
6
ByLayer
370
18
48
1
60
0
100
AcDbMText
10
78.185
20
22.759119
30
0
210
0
220
0
230
1
1
\A1;67.63
40
3.5
41
0
44
1
50
0
71
5
72
5
7
iso_b_vert
0
POINT
5
16B
100
AcDbEntity
8
Defpoints
62
0
6
ByLayer
370
-1
48
1
60
0
100
AcDbPoint
10
44.37
20
4.15
30
0
39
0
210
0
220
0
230
1
50
360
0
POINT
5
16C
100
AcDbEntity
8
Defpoints
62
0
6
ByLayer
370
-1
48
1
60
0
100
AcDbPoint
10
112
20
0
30
0
39
0
210
0
220
0
230
1
50
360
0
POINT
5
16D
100
AcDbEntity
8
Defpoints
62
0
6
ByLayer
370
-1
48
1
60
0
100
AcDbPoint
10
112
20
15.759119
30
0
39
0
210
0
220
0
230
1
50
360
0
ENDBLK
5
164
100
AcDbEntity
8
0
100
AcDbBlockEnd
0
BLOCK
5
175
100
AcDbEntity
8
0
100
AcDbBlockBegin
2
_U2
70
0
10
0
20
0
30
0
3
_U2
0
MTEXT
5
16F
100
AcDbEntity
8
SK2
62
256
6
ByLayer
370
13
48
1
60
0
100
AcDbMText
10
73.047701
20
16.791753
30
0
210
0
220
0
230
1
1
\W0.7317;67,63
40
3.5
41
0
44
1.084337
50
0
71
7
72
5
7
iso_b_vert
0
LINE
5
170
100
AcDbEntity
8
SK2
62
256
6
ByLayer
370
13
48
1
60
0
100
AcDbLine
10
44.37
20
5.7375
30
0
11
44.37
21
17.759119
31
0
39
0
210
0
220
0
230
1
0
LINE
5
171
100
AcDbEntity
8
SK2
62
256
6
ByLayer
370
13
48
1
60
0
100
AcDbLine
10
112
20
1.5875
30
0
11
112
21
17.759119
31
0
39
0
210
0
220
0
230
1
0
LINE
5
172
100
AcDbEntity
8
SK2
62
256
6
ByLayer
370
13
48
1
60
0
100
AcDbLine
10
44.37
20
15.759119
30
0
11
112
21
15.759119
31
0
39
0
210
0
220
0
230
1
0
SOLID
5
173
100
AcDbEntity
8
SK2
62
256
6
ByLayer
370
18
48
1
60
0
100
AcDbTrace
10
44.37
20
15.759119
30
0
11
47.869998
21
16.219903
31
0
12
47.870002
22
15.298335
32
0
13
47.870002
23
15.298335
33
0
39
0
210
0
220
0
230
1
0
SOLID
5
174
100
AcDbEntity
8
SK2
62
256
6
ByLayer
370
18
48
1
60
0
100
AcDbTrace
10
112
20
15.759119
30
0
11
108.500002
21
15.298335
31
0
12
108.499998
22
16.219903
32
0
13
108.499998
23
16.219903
33
0
39
0
210
0
220
0
230
1
0
ENDBLK
5
176
100
AcDbEntity
8
0
100
AcDbBlockEnd
0
BLOCK
5
17B
100
AcDbEntity
8
0
100
AcDbBlockBegin
2
*D7
70
1
10
0
20
0
30
0
3
*D7
0
LINE
5
17D
100
AcDbEntity
8
0
62
256
6
ByLayer
370
-2
48
1
60
0
100
AcDbLine
10
112
20
-1.5875
30
0
11
112
21
-18.952503
31
0
39
0
210
0
220
0
230
1
0
LINE
5
17E
100
AcDbEntity
8
0
62
256
6
ByLayer
370
-2
48
1
60
0
100
AcDbLine
10
110.7722
20
-5.7375
30
0
11
110.7722
21
-18.952503
31
0
39
0
210
0
220
0
230
1
0
LINE
5
17F
100
AcDbEntity
8
0
62
256
6
ByLayer
370
-2
48
1
60
0
100
AcDbLine
10
112
20
-16.952503
30
0
11
139.666667
21
-16.952503
31
0
39
0
210
0
220
0
230
1
0
LINE
5
180
100
AcDbEntity
8
0
62
256
6
ByLayer
370
-2
48
1
60
0
100
AcDbLine
10
115.5
20
-16.952503
30
0
11
119
21
-16.952503
31
0
39
0
210
0
220
0
230
1
0
LINE
5
181
100
AcDbEntity
8
0
62
256
6
ByLayer
370
-2
48
1
60
0
100
AcDbLine
10
107.2722
20
-16.952503
30
0
11
103.7722
21
-16.952503
31
0
39
0
210
0
220
0
230
1
0
SOLID
5
182
100
AcDbEntity
8
0
62
256
6
ByLayer
370
-1
48
1
60
0
100
AcDbTrace
10
115.5
20
-16.36917
30
0
11
115.5
21
-17.535837
31
0
12
112
22
-16.952503
32
0
13
112
23
-16.952503
33
0
39
0
210
0
220
0
230
1
0
SOLID
5
183
100
AcDbEntity
8
0
62
256
6
ByLayer
370
-1
48
1
60
0
100
AcDbTrace
10
107.2722
20
-17.535837
30
0
11
107.2722
21
-16.36917
31
0
12
110.7722
22
-16.952503
32
0
13
110.7722
23
-16.952503
33
0
39
0
210
0
220
0
230
1
0
MTEXT
5
184
100
AcDbEntity
8
0
62
256
6
ByLayer
370
18
48
1
60
0
100
AcDbMText
10
129.333333
20
-9.952503
30
0
210
0
220
0
230
1
1
\A1;1.23
40
3.5
41
0
44
1
50
0
71
5
72
5
7
iso_b_vert
0
POINT
5
185
100
AcDbEntity
8
Defpoints
62
0
6
ByLayer
370
-1
48
1
60
0
100
AcDbPoint
10
112
20
0
30
0
39
0
210
0
220
0
230
1
50
360
0
POINT
5
186
100
AcDbEntity
8
Defpoints
62
0
6
ByLayer
370
-1
48
1
60
0
100
AcDbPoint
10
110.7722
20
-4.15
30
0
39
0
210
0
220
0
230
1
50
360
0
POINT
5
187
100
AcDbEntity
8
Defpoints
62
0
6
ByLayer
370
-1
48
1
60
0
100
AcDbPoint
10
110.7722
20
-16.952503
30
0
39
0
210
0
220
0
230
1
50
360
0
ENDBLK
5
17C
100
AcDbEntity
8
0
100
AcDbBlockEnd
0
BLOCK
5
18F
100
AcDbEntity
8
0
100
AcDbBlockBegin
2
_U3
70
0
10
0
20
0
30
0
3
_U3
0
MTEXT
5
189
100
AcDbEntity
8
SK2
62
256
6
ByLayer
370
13
48
1
60
0
100
AcDbMText
10
118.589293
20
-15.91987
30
0
210
0
220
0
230
1
1
\W0.6367;1,23
40
3.5
41
0
44
1.084337
50
0
71
7
72
5
7
iso_b_vert
0
LINE
5
18A
100
AcDbEntity
8
SK2
62
256
6
ByLayer
370
13
48
1
60
0
100
AcDbLine
10
112
20
-1.5875
30
0
11
112
21
-18.952503
31
0
39
0
210
0
220
0
230
1
0
LINE
5
18B
100
AcDbEntity
8
SK2
62
256
6
ByLayer
370
13
48
1
60
0
100
AcDbLine
10
110.7722
20
-5.7375
30
0
11
110.7722
21
-18.952503
31
0
39
0
210
0
220
0
230
1
0
LINE
5
18C
100
AcDbEntity
8
SK2
62
256
6
ByLayer
370
13
48
1
60
0
100
AcDbLine
10
102.0222
20
-16.952503
30
0
11
125.559058
21
-16.952503
31
0
39
0
210
0
220
0
230
1
0
SOLID
5
18D
100
AcDbEntity
8
SK2
62
256
6
ByLayer
370
18
48
1
60
0
100
AcDbTrace
10
112
20
-16.952503
30
0
11
115.499998
21
-16.491719
31
0
12
115.500002
22
-17.413287
32
0
13
115.500002
23
-17.413287
33
0
39
0
210
0
220
0
230
1
0
SOLID
5
18E
100
AcDbEntity
8
SK2
62
256
6
ByLayer
370
18
48
1
60
0
100
AcDbTrace
10
110.7722
20
-16.952503
30
0
11
107.272202
21
-17.413287
31
0
12
107.272198
22
-16.491719
32
0
13
107.272198
23
-16.491719
33
0
39
0
210
0
220
0
230
1
0
ENDBLK
5
190
100
AcDbEntity
8
0
100
AcDbBlockEnd
0
BLOCK
5
195
100
AcDbEntity
8
0
100
AcDbBlockBegin
2
*D9
70
1
10
0
20
0
30
0
3
*D9
0
LINE
5
197
100
AcDbEntity
8
0
62
256
6
ByLayer
370
-2
48
1
60
0
100
AcDbLine
10
-40
20
-6.5875
30
0
11
-40
21
-25.343428
31
0
39
0
210
0
220
0
230
1
0
LINE
5
198
100
AcDbEntity
8
0
62
256
6
ByLayer
370
-2
48
1
60
0
100
AcDbLine
10
110.7722
20
-5.7375
30
0
11
110.7722
21
-25.343428
31
0
39
0
210
0
220
0
230
1
0
LINE
5
199
100
AcDbEntity
8
0
62
256
6
ByLayer
370
-2
48
1
60
0
100
AcDbLine
10
-36.5
20
-23.343428
30
0
11
107.2722
21
-23.343428
31
0
39
0
210
0
220
0
230
1
0
SOLID
5
19A
100
AcDbEntity
8
0
62
256
6
ByLayer
370
-1
48
1
60
0
100
AcDbTrace
10
-36.5
20
-22.760095
30
0
11
-36.5
21
-23.926762
31
0
12
-40
22
-23.343428
32
0
13
-40
23
-23.343428
33
0
39
0
210
0
220
0
230
1
0
SOLID
5
19B
100
AcDbEntity
8
0
62
256
6
ByLayer
370
-1
48
1
60
0
100
AcDbTrace
10
107.2722
20
-23.926762
30
0
11
107.2722
21
-22.760095
31
0
12
110.7722
22
-23.343428
32
0
13
110.7722
23
-23.343428
33
0
39
0
210
0
220
0
230
1
0
MTEXT
5
19C
100
AcDbEntity
8
0
62
256
6
ByLayer
370
18
48
1
60
0
100
AcDbMText
10
35.3861
20
-16.343428
30
0
210
0
220
0
230
1
1
\A1;150.77
40
3.5
41
0
44
1
50
0
71
5
72
5
7
iso_b_vert
0
POINT
5
19D
100
AcDbEntity
8
Defpoints
62
0
6
ByLayer
370
-1
48
1
60
0
100
AcDbPoint
10
-40
20
-5
30
0
39
0
210
0
220
0
230
1
50
360
0
POINT
5
19E
100
AcDbEntity
8
Defpoints
62
0
6
ByLayer
370
-1
48
1
60
0
100
AcDbPoint
10
110.7722
20
-4.15
30
0
39
0
210
0
220
0
230
1
50
360
0
POINT
5
19F
100
AcDbEntity
8
Defpoints
62
0
6
ByLayer
370
-1
48
1
60
0
100
AcDbPoint
10
110.7722
20
-23.343428
30
0
39
0
210
0
220
0
230
1
50
360
0
ENDBLK
5
196
100
AcDbEntity
8
0
100
AcDbBlockEnd
0
BLOCK
5
1A7
100
AcDbEntity
8
0
100
AcDbBlockBegin
2
_U4
70
0
10
0
20
0
30
0
3
_U4
0
MTEXT
5
1A1
100
AcDbEntity
8
SK2
62
256
6
ByLayer
370
13
48
1
60
0
100
AcDbMText
10
29.378501
20
-22.310795
30
0
210
0
220
0
230
1
1
\W0.6930;150,77
40
3.5
41
0
44
1.084337
50
0
71
7
72
5
7
iso_b_vert
0
LINE
5
1A2
100
AcDbEntity
8
SK2
62
256
6
ByLayer
370
13
48
1
60
0
100
AcDbLine
10
-40
20
-6.5875
30
0
11
-40
21
-25.343428
31
0
39
0
210
0
220
0
230
1
0
LINE
5
1A3
100
AcDbEntity
8
SK2
62
256
6
ByLayer
370
13
48
1
60
0
100
AcDbLine
10
110.7722
20
-5.7375
30
0
11
110.7722
21
-25.343428
31
0
39
0
210
0
220
0
230
1
0
LINE
5
1A4
100
AcDbEntity
8
SK2
62
256
6
ByLayer
370
13
48
1
60
0
100
AcDbLine
10
-40
20
-23.343428
30
0
11
110.7722
21
-23.343428
31
0
39
0
210
0
220
0
230
1
0
SOLID
5
1A5
100
AcDbEntity
8
SK2
62
256
6
ByLayer
370
18
48
1
60
0
100
AcDbTrace
10
-40
20
-23.343428
30
0
11
-36.500002
21
-22.882645
31
0
12
-36.499998
22
-23.804212
32
0
13
-36.499998
23
-23.804212
33
0
39
0
210
0
220
0
230
1
0
SOLID
5
1A6
100
AcDbEntity
8
SK2
62
256
6
ByLayer
370
18
48
1
60
0
100
AcDbTrace
10
110.7722
20
-23.343428
30
0
11
107.272202
21
-23.804212
31
0
12
107.272198
22
-22.882645
32
0
13
107.272198
23
-22.882645
33
0
39
0
210
0
220
0
230
1
0
ENDBLK
5
1A8
100
AcDbEntity
8
0
100
AcDbBlockEnd
0
ENDSEC
0
SECTION
2
ENTITIES
0
ARC
5
B3
100
AcDbEntity
8
1
62
256
6
ByLayer
370
18
48
1
60
0
100
AcDbCircle
39
0
10
1.447489
20
-4.881745
30
0
40
0.800000000000001
210
0
220
0
230
1
100
AcDbArc
50
89.96419
51
154.780287
0
ARC
5
B4
100
AcDbEntity
8
1
62
256
6
ByLayer
370
18
48
1
60
0
100
AcDbCircle
39
0
10
1.447489
20
4.881745
30
0
40
0.800000000000001
210
0
220
0
230
1
100
AcDbArc
50
205.219713
51
270.03581
0
ARC
5
B5
100
AcDbEntity
8
1
62
256
6
ByLayer
370
18
48
1
60
0
100
AcDbCircle
39
0
10
0
20
-4.2
30
0
40
0.800000000000001
210
0
220
0
230
1
100
AcDbArc
50
270
51
334.780287
0
ARC
5
B6
100
AcDbEntity
8
1
62
256
6
ByLayer
370
18
48
1
60
0
100
AcDbCircle
39
0
10
0
20
4.2
30
0
40
0.800000000000001
210
0
220
0
230
1
100
AcDbArc
50
25.219713
51
90
0
ELLIPSE
5
B7
100
AcDbEntity
8
1
62
256
6
ByLayer
370
13
48
1
60
0
100
AcDbEllipse
10
8.250171
20
-0.834694
30
0
11
0.0467432322214863
21
0.0884028859341606
31
0
210
0
220
0
230
1
40
0.099382
41
1.38261615120529
42
2.93428198515216
0
ELLIPSE
5
B8
100
AcDbEntity
8
1
62
256
6
ByLayer
370
13
48
1
60
0
100
AcDbEllipse
10
8.178407
20
-0.800784
30
0
11
0.0380065533468801
21
0.0924959561423674
31
0
210
0
220
0
230
1
40
0.508856
41
1.58840755238989
42
2.91177583863827
0
POINT
5
70
100
AcDbEntity
8
80
62
256
6
ByLayer
370
18
48
1
60
0
100
AcDbPoint
10
0
20
0
30
0
39
0
210
0
220
0
230
1
50
360
0
POINT
5
72
100
AcDbEntity
8
81
62
256
6
ByLayer
370
18
48
1
60
0
100
AcDbPoint
10
112
20
0
30
0
39
0
210
0
220
0
230
1
50
360
0
POINT
5
74
100
AcDbEntity
8
1
62
256
6
ByLayer
370
18
48
1
60
1
100
AcDbPoint
10
110.7722
20
-4.15
30
0
39
0
210
0
220
0
230
1
50
360
0
POINT
5
76
100
AcDbEntity
8
1
62
256
6
ByLayer
370
18
48
1
60
1
100
AcDbPoint
10
-40
20
-5
30
0
39
0
210
0
220
0
230
1
50
360
0
POINT
5
77
100
AcDbEntity
8
1
62
256
6
ByLayer
370
18
48
1
60
1
100
AcDbPoint
10
44.37
20
4.15
30
0
39
0
210
0
220
0
230
1
50
360
0
POINT
5
78
100
AcDbEntity
8
1
62
256
6
ByLayer
370
18
48
1
60
1
100
AcDbPoint
10
110.7722
20
-4.15
30
0
39
0
210
0
220
0
230
1
50
360
0
POINT
5
79
100
AcDbEntity
8
1
62
256
6
ByLayer
370
18
48
1
60
1
100
AcDbPoint
10
-40
20
-5
30
0
39
0
210
0
220
0
230
1
50
360
0
POINT
5
7A
100
AcDbEntity
8
1
62
256
6
ByLayer
370
18
48
1
60
1
100
AcDbPoint
10
110.7722
20
-4.15
30
0
39
0
210
0
220
0
230
1
50
360
0
SPLINE
5
B9
100
AcDbEntity
8
SK1
62
256
6
ByLayer
370
18
48
1
60
0
100
AcDbSpline
70
4
71
3
72
12
73
8
40
0
40
0
40
0
40
0
40
0.499999999999996
40
0.499999999999996
40
0.749999999999998
40
0.749999999999998
40
1
40
1
40
1
40
1
41
1
10
-39.35
20
1.1242134504553
30
0
41
1
10
-39.3264103729719
20
1.13579852409398
30
0
41
1
10
-39.3036886178189
20
1.15490579632325
30
0
41
1
10
-39.275599229617
20
1.19242868459756
30
0
41
1
10
-39.2670477807072
20
1.2067900840556
30
0
41
1
10
-39.2542670006876
20
1.23804343616374
30
0
41
1
10
-39.25
20
1.25540189819648
30
0
41
1
10
-39.25
20
1.27168351459429
30
0
0
SPLINE
5
BA
100
AcDbEntity
8
SK1
62
256
6
ByLayer
370
18
48
1
60
0
100
AcDbSpline
70
4
71
3
72
8
73
4
40
0
40
0
40
0
40
0
40
1
40
1
40
1
40
1
41
1
10
-39.35
20
2.88125176577753
30
0
41
1
10
-39.5672415048354
20
2.7745625490339
30
0
41
1
10
-39.7840138771994
20
2.66766030217005
30
0
41
1
10
-40
20
2.56040102429853
30
0
0
SPLINE
5
BB
100
AcDbEntity
8
SK1
62
256
6
ByLayer
370
18
48
1
60
0
100
AcDbSpline
70
4
71
3
72
8
73
4
40
0
40
0
40
0
40
0
40
1
40
1
40
1
40
1
41
1
10
-40
20
0.803362708976323
30
0
41
1
10
-39.7840102549894
20
0.910623785646862
30
0
41
1
10
-39.5672384275583
20
1.01752574498963
30
0
41
1
10
-39.35
20
1.12421345045533
30
0
0
SPLINE
5
BC
100
AcDbEntity
8
SK1
62
256
6
ByLayer
370
18
48
1
60
0
100
AcDbSpline
70
4
71
3
72
12
73
8
40
0
40
0
40
0
40
0
40
0.249999999999999
40
0.249999999999999
40
0.499999999999998
40
0.499999999999998
40
1
40
1
40
1
40
1
41
1
10
-39.25
20
2.85301799838427
30
0
41
1
10
-39.25
20
2.86599785847008
30
0
41
1
10
-39.254235624227
20
2.87592519678228
30
0
41
1
10
-39.2670201311554
20
2.88937119740919
30
0
41
1
10
-39.2754786511826
20
2.89311335462227
30
0
41
1
10
-39.3037388067419
20
2.89790787982705
30
0
41
1
10
-39.3264172660865
20
2.892833454147
30
0
41
1
10
-39.35
20
2.88125176577756
30
0
0
SPLINE
5
BD
100
AcDbEntity
8
1
62
256
6
ByLayer
370
18
48
1
60
0
100
AcDbSpline
70
4
71
3
72
30
73
26
40
0
40
0
40
0
40
0
40
0.103648506924949
40
0.103648506924949
40
0.155472760387424
40
0.155472760387424
40
0.207297013849899
40
0.207297013849899
40
0.310945520774848
40
0.310945520774848
40
0.414594027699797
40
0.414594027699797
40
0.466418281162273
40
0.466418281162273
40
0.518242534624749
40
0.518242534624749
40
0.621891041549702
40
0.621891041549702
40
0.725539548474655
40
0.725539548474655
40
0.829188055399609
40
0.829188055399609
40
0.932836562324562
40
0.932836562324562
40
1
40
1
40
1
40
1
41
1
10
9.29069204522477
20
-2.05005329339212
30
0
41
1
10
9.5547306322529
20
-2.17911744903424
30
0
41
1
10
9.81900328572604
20
-2.30287348190194
30
0
41
1
10
10.2159830683899
20
-2.48053924099813
30
0
41
1
10
10.3483588966698
20
-2.53850310607595
30
0
41
1
10
10.6126871212421
20
-2.65262002243799
30
0
41
1
10
10.7445248481654
20
-2.70891281788957
30
0
41
1
10
11.1412284672147
20
-2.87252825156079
30
0
41
1
10
11.40646299737
20
-2.97551196693152
30
0
41
1
10
11.9349245077769
20
-3.17067168748738
30
0
41
1
10
12.1988451378032
20
-3.26235319090159
30
0
41
1
10
12.5957444219209
20
-3.38946743600698
30
0
41
1
10
12.7281574133363
20
-3.43017393879515
30
0
41
1
10
12.9930323104705
20
-3.5084176977652
30
0
41
1
10
13.1250226342723
20
-3.54613929262931
30
0
41
1
10
13.5212743484801
20
-3.6535171820982
30
0
41
1
10
13.7859532428657
20
-3.71742409464491
30
0
41
1
10
14.31454304298
20
-3.83140908283554
30
0
41
1
10
14.578869260447
20
-3.88129130201085
30
0
41
1
10
15.1081648392967
20
-3.96507017383064
30
0
41
1
10
15.3728374817461
20
-3.99914898566911
30
0
41
1
10
15.9005258045902
20
-4.05214319228875
30
0
41
1
10
16.1652070936143
20
-4.07051979888956
30
0
41
1
10
16.6016018066144
20
-4.08785756048917
30
0
41
1
10
16.7728083861935
20
-4.09131960693742
30
0
41
1
10
16.9439808766744
20
-4.09141993188635
30
0
0
SPLINE
5
BE
100
AcDbEntity
8
1
62
256
6
ByLayer
370
18
48
1
60
0
100
AcDbSpline
70
4
71
3
72
102
73
98
40
0
40
0
40
0
40
0
40
0.0056526971510745
40
0.0056526971510745
40
0.0184995539788095
40
0.0184995539788095
40
0.0313464108065445
40
0.0313464108065445
40
0.0570401244620154
40
0.0570401244620154
40
0.0827338381174863
40
0.0827338381174863
40
0.108427551772957
40
0.108427551772957
40
0.134121265428428
40
0.134121265428428
40
0.159814979083899
40
0.159814979083899
40
0.18550869273937
40
0.18550869273937
40
0.198355549567106
40
0.198355549567106
40
0.211202406394842
40
0.211202406394842
40
0.236896120050315
40
0.236896120050315
40
0.262589833705788
40
0.262589833705788
40
0.275436690533525
40
0.275436690533525
40
0.288283547361261
40
0.288283547361261
40
0.313977261016735
40
0.313977261016735
40
0.339670974672209
40
0.339670974672209
40
0.365364688327683
40
0.365364688327683
40
0.391058401983158
40
0.391058401983158
40
0.416752115638632
40
0.416752115638632
40
0.429598972466369
40
0.429598972466369
40
0.442445829294106
40
0.442445829294106
40
0.468139542949579
40
0.468139542949579
40
0.493833256605052
40
0.493833256605052
40
0.506680113432788
40
0.506680113432788
40
0.519526970260525
40
0.519526970260525
40
0.545220683915998
40
0.545220683915998
40
0.570914397571471
40
0.570914397571471
40
0.583761254399208
40
0.583761254399208
40
0.596608111226945
40
0.596608111226945
40
0.622301824882419
40
0.622301824882419
40
0.647995538537893
40
0.647995538537893
40
0.673689252193367
40
0.673689252193367
40
0.699382965848841
40
0.699382965848841
40
0.725076679504315
40
0.725076679504315
40
0.750770393159789
40
0.750770393159789
40
0.776464106815264
40
0.776464106815264
40
0.802157820470738
40
0.802157820470738
40
0.827851534126212
40
0.827851534126212
40
0.840698390953949
40
0.840698390953949
40
0.853545247781687
40
0.853545247781687
40
0.879238961437162
40
0.879238961437162
40
0.904932675092637
40
0.904932675092637
40
0.930626388748112
40
0.930626388748112
40
0.956320102403587
40
0.956320102403587
40
0.982013816059063
40
0.982013816059063
40
0.9948606728868
40
0.9948606728868
40
1
40
1
40
1
40
1
41
1
10
32.1140992849308
20
1.97020620566278
30
0
41
1
10
32.1722257146743
20
1.99878469292992
30
0
41
1
10
32.2303782657684
20
2.02715898170351
30
0
41
1
10
32.4208174156495
20
2.11929084375981
30
0
41
1
10
32.5532777894082
20
2.18223082304442
30
0
41
1
10
32.8178374635721
20
2.30601132958216
30
0
41
1
10
32.9497557999547
20
2.36718250530561
30
0
41
1
10
33.3454937591126
20
2.54690906542348
30
0
41
1
10
33.6099458185016
20
2.66081454465575
30
0
41
1
10
34.1384069721862
20
2.87926341081189
30
0
41
1
10
34.402653814499
20
2.98379899639755
30
0
41
1
10
34.9312436995372
20
3.17933011643225
30
0
41
1
10
35.1958665870153
20
3.27041057099658
30
0
41
1
10
35.7231266962726
20
3.44189104002891
30
0
41
1
10
35.9878709514901
20
3.52038725762756
30
0
41
1
10
36.5169124806442
20
3.66364579506438
30
0
41
1
10
36.7805124885423
20
3.72864019611558
30
0
41
1
10
37.3085686177056
20
3.84320982111888
30
0
41
1
10
37.5732295253676
20
3.89278325118315
30
0
41
1
10
37.9696685521336
20
3.95635948786261
30
0
41
1
10
38.1015433123218
20
3.97571472650347
30
0
41
1
10
38.3656759945224
20
4.0102245006475
30
0
41
1
10
38.497820127217
20
4.02546616385499
30
0
41
1
10
38.8942160526111
20
4.06532237495907
30
0
41
1
10
39.1578866185383
20
4.08417834391085
30
0
41
1
10
39.6862306341352
20
4.10573523594368
30
0
41
1
10
39.9511135630807
20
4.10847127858864
30
0
41
1
10
40.3473928140788
20
4.10062458503552
30
0
41
1
10
40.4790542587961
20
4.09596763743877
30
0
41
1
10
40.7428623738132
20
4.08268265586025
30
0
41
1
10
40.8749137219873
20
4.07406172820009
30
0
41
1
10
41.2714265838443
20
4.04232780513581
30
0
41
1
10
41.5359332930166
20
4.01313239584172
30
0
41
1
10
42.0639274241339
20
3.93910228081609
30
0
41
1
10
42.3280840431773
20
3.89454034997442
30
0
41
1
10
42.856506080884
20
3.79042112530462
30
0
41
1
10
43.1202104258385
20
3.73017321162126
30
0
41
1
10
43.6490782457001
20
3.59650352560823
30
0
41
1
10
43.9132119817589
20
3.522672964452
30
0
41
1
10
44.4407792982281
20
3.36081653106942
30
0
41
1
10
44.7048522486036
20
3.27339906003272
30
0
41
1
10
45.1017678987262
20
3.13303433628911
30
0
41
1
10
45.234096457402
20
3.08476852911528
30
0
41
1
10
45.4977805001429
20
2.9844089035978
30
0
41
1
10
45.6296495953782
20
2.93286359944267
30
0
41
1
10
46.0256428367586
20
2.77458775226691
30
0
41
1
10
46.2899164810394
20
2.66396032996741
30
0
41
1
10
46.8179635138265
20
2.43095726754328
30
0
41
1
10
47.0823080455766
20
2.30940123705014
30
0
41
1
10
47.4786586863794
20
2.12172548323662
30
0
41
1
10
47.6107882583863
20
2.05820873178183
30
0
41
1
10
47.8746729596137
20
1.92862519820707
30
0
41
1
10
48.0062844936761
20
1.86231983922312
30
0
41
1
10
48.4022130321883
20
1.6621637075157
30
0
41
1
10
48.6672072671556
20
1.52593818417898
30
0
41
1
10
49.1951843973105
20
1.2464675112619
30
0
41
1
10
49.4587581161433
20
1.10386708347664
30
0
41
1
10
49.8549620958087
20
0.888215766373065
30
0
41
1
10
49.9871134974163
20
0.815944699474272
30
0
41
1
10
50.2514051704038
20
0.670312045392421
30
0
41
1
10
50.3833387462098
20
0.596419936501349
30
0
41
1
10
50.7793293156118
20
0.375010800827795
30
0
41
1
10
51.0437152330211
20
0.22788730857286
30
0
41
1
10
51.5714841396281
20
-0.0685728693976273
30
0
41
1
10
51.8350329450315
20
-0.217617407322876
30
0
41
1
10
52.3638631980654
20
-0.513041599680065
30
0
41
1
10
52.6283990793939
20
-0.659317315921811
30
0
41
1
10
53.1553844326951
20
-0.951600029536507
30
0
41
1
10
53.4195999526966
20
-1.09474790813204
30
0
41
1
10
53.94805635685
20
-1.37756864645911
30
0
41
1
10
54.2120256120005
20
-1.51761647345882
30
0
41
1
10
54.7399587251105
20
-1.7893217302917
30
0
41
1
10
55.0044427298842
20
-1.92081167115413
30
0
41
1
10
55.5316566223396
20
-2.17939827502792
30
0
41
1
10
55.7960926659992
20
-2.3043139115083
30
0
41
1
10
56.324590315418
20
-2.54378336772277
30
0
41
1
10
56.5880025409802
20
-2.6595049888339
30
0
41
1
10
57.1156420797636
20
-2.87939147289842
30
0
41
1
10
57.3802779429151
20
-2.98345201251183
30
0
41
1
10
57.7766058749359
20
-3.13126927142625
30
0
41
1
10
57.9082305328322
20
-3.17945935420261
30
0
41
1
10
58.1720011607839
20
-3.2719525224596
30
0
41
1
10
58.3039837596727
20
-3.31645740082163
30
0
41
1
10
58.7000817768561
20
-3.44496742364649
30
0
41
1
10
58.963759143025
20
-3.52454152396732
30
0
41
1
10
59.4919344686608
20
-3.66973171652424
30
0
41
1
10
59.7562693955835
20
-3.73486598396673
30
0
41
1
10
60.2842591568017
20
-3.85060326944404
30
0
41
1
10
60.5473321544138
20
-3.90158747003542
30
0
41
1
10
61.0757645779373
20
-3.98725415235313
30
0
41
1
10
61.3401833505579
20
-4.02251173649367
30
0
41
1
10
61.8675701403202
20
-4.07724952299034
30
0
41
1
10
62.1314227494869
20
-4.09658740523608
30
0
41
1
10
62.5275989293318
20
-4.11367608534289
30
0
41
1
10
62.6596661147829
20
-4.11739789592383
30
0
41
1
10
62.8442850193127
20
-4.11979182027014
30
0
41
1
10
62.8970649637289
20
-4.12014954536744
30
0
41
1
10
62.9498603804645
20
-4.12018375223838
30
0
0
SPLINE
5
BF
100
AcDbEntity
8
1
62
256
6
ByLayer
370
18
48
1
60
0
100
AcDbSpline
70
4
71
3
72
102
73
98
40
0
40
0
40
0
40
0
40
0.0035395645879126
40
0.0035395645879126
40
0.0291884847355515
40
0.0291884847355515
40
0.0548374048831903
40
0.0548374048831903
40
0.0804863250308291
40
0.0804863250308291
40
0.106135245178468
40
0.106135245178468
40
0.131784165326107
40
0.131784165326107
40
0.144608625399926
40
0.144608625399926
40
0.157433085473746
40
0.157433085473746
40
0.183082005621384
40
0.183082005621384
40
0.208730925769023
40
0.208730925769023
40
0.221555385842843
40
0.221555385842843
40
0.234379845916663
40
0.234379845916663
40
0.260028766064305
40
0.260028766064305
40
0.285677686211947
40
0.285677686211947
40
0.298502146285767
40
0.298502146285767
40
0.311326606359587
40
0.311326606359587
40
0.336975526507227
40
0.336975526507227
40
0.362624446654867
40
0.362624446654867
40
0.388273366802507
40
0.388273366802507
40
0.413922286950147
40
0.413922286950147
40
0.439571207097787
40
0.439571207097787
40
0.465220127245427
40
0.465220127245427
40
0.478044587319246
40
0.478044587319246
40
0.490869047393065
40
0.490869047393065
40
0.516517967540703
40
0.516517967540703
40
0.542166887688341
40
0.542166887688341
40
0.55499134776216
40
0.55499134776216
40
0.567815807835979
40
0.567815807835979
40
0.593464727983617
40
0.593464727983617
40
0.619113648131255
40
0.619113648131255
40
0.644762568278892
40
0.644762568278892
40
0.67041148842653
40
0.67041148842653
40
0.696060408574168
40
0.696060408574168
40
0.708884868647986
40
0.708884868647986
40
0.721709328721804
40
0.721709328721804
40
0.74735824886944
40
0.74735824886944
40
0.773007169017076
40
0.773007169017076
40
0.785831629090895
40
0.785831629090895
40
0.798656089164714
40
0.798656089164714
40
0.824305009312352
40
0.824305009312352
40
0.84995392945999
40
0.84995392945999
40
0.862778389533808
40
0.862778389533808
40
0.875602849607626
40
0.875602849607626
40
0.901251769755262
40
0.901251769755262
40
0.926900689902898
40
0.926900689902898
40
0.952549610050534
40
0.952549610050534
40
0.97819853019817
40
0.97819853019817
40
1
40
1
40
1
40
1
41
1
10
78.1185078074475
20
1.98264690812755
30
0
41
1
10
78.1549052630909
20
2.00063587634475
30
0
41
1
10
78.1913109201724
20
2.01854079799503
30
0
41
1
10
78.491588927369
20
2.16550581928843
30
0
41
1
10
78.7555486131961
20
2.29113880178772
30
0
41
1
10
79.2831805605455
20
2.53358219446557
30
0
41
1
10
79.5469993069907
20
2.64939635475722
30
0
41
1
10
80.0746591328842
20
2.87037493006196
30
0
41
1
10
80.3376465104499
20
2.97658432391233
30
0
41
1
10
80.8658437416562
20
3.17544111693579
30
0
41
1
10
81.1299877839504
20
3.2686861622887
30
0
41
1
10
81.6568760947896
20
3.44290336119732
30
0
41
1
10
81.9204261339574
20
3.52322978790841
30
0
41
1
10
82.3164956171094
20
3.63311001515675
30
0
41
1
10
82.4487404526647
20
3.66797147081158
30
0
41
1
10
82.7123648415276
20
3.73463873188146
30
0
41
1
10
82.8440277973958
20
3.76616774953635
30
0
41
1
10
83.2395275163518
20
3.85470773504772
30
0
41
1
10
83.5034579519653
20
3.90605911012673
30
0
41
1
10
84.0305177449122
20
3.99414759305469
30
0
41
1
10
84.2944819192894
20
4.03052598480522
30
0
41
1
10
84.6904798829952
20
4.07297927436031
30
0
41
1
10
84.8224493522839
20
4.08514989209553
30
0
41
1
10
85.0861126429446
20
4.10557921364207
30
0
41
1
10
85.2175180443621
20
4.11388058652403
30
0
41
1
10
85.6126795108892
20
4.13256562162184
30
0
41
1
10
85.8770477559292
20
4.13696888397467
30
0
41
1
10
86.4047642727331
20
4.12971612763101
30
0
41
1
10
86.6680025293996
20
4.11796750766763
30
0
41
1
10
87.0635682384981
20
4.08853969904553
30
0
41
1
10
87.1954935101185
20
4.07676724248992
30
0
41
1
10
87.4593080634039
20
4.04924334241107
30
0
41
1
10
87.5909828750932
20
4.03340659546603
30
0
41
1
10
87.9863931490266
20
3.97995867910109
30
0
41
1
10
88.2506942629427
20
3.93684973432417
30
0
41
1
10
88.7778949550537
20
3.83522973598554
30
0
41
1
10
89.0409606377709
20
3.77656634217806
30
0
41
1
10
89.5685803063425
20
3.64530045441791
30
0
41
1
10
89.8333216977326
20
3.57290126832908
30
0
41
1
10
90.3596289345545
20
3.41263608864364
30
0
41
1
10
90.623334218508
20
3.32644029334745
30
0
41
1
10
91.1508891771155
20
3.14122851852463
30
0
41
1
10
91.4145402029418
20
3.04147520944639
30
0
41
1
10
91.9419477560009
20
2.8316459556502
30
0
41
1
10
92.2059526406928
20
2.72190472086928
30
0
41
1
10
92.6010401930926
20
2.54823083166428
30
0
41
1
10
92.7324881120926
20
2.4886735576807
30
0
41
1
10
92.9961192364213
20
2.3679626501586
30
0
41
1
10
93.1282064114995
20
2.30656413721809
30
0
41
1
10
93.5243663444062
20
2.11921992834184
30
0
41
1
10
93.7875854283673
20
1.98935588934506
30
0
41
1
10
94.3143475023379
20
1.72287290835843
30
0
41
1
10
94.5781903687556
20
1.58676954674044
30
0
41
1
10
94.9741372924773
20
1.37751085311351
30
0
41
1
10
95.1058075242048
20
1.30638245936703
30
0
41
1
10
95.3692787096462
20
1.1637469326059
30
0
41
1
10
95.5010846020483
20
1.09210243189398
30
0
41
1
10
95.8966460039235
20
0.876097214577641
30
0
41
1
10
96.1600086140805
20
0.729739852562801
30
0
41
1
10
96.6869941397869
20
0.433912656465111
30
0
41
1
10
96.9512409672462
20
0.28534561991313
30
0
41
1
10
97.4787467620225
20
-0.0119212523898966
30
0
41
1
10
97.7414531842793
20
-0.162236107175545
30
0
41
1
10
98.2687626171856
20
-0.459153943611284
30
0
41
1
10
98.5329794025553
20
-0.607094126657188
30
0
41
1
10
99.0599206394395
20
-0.901158952516454
30
0
41
1
10
99.3233315211681
20
-1.04616964278762
30
0
41
1
10
99.7188536050722
20
-1.25985389449815
30
0
41
1
10
99.8507908308488
20
-1.33039803041743
30
0
41
1
10
100.114024014028
20
-1.47149762879042
30
0
41
1
10
100.245780136524
20
-1.54141064934669
30
0
41
1
10
100.641504712529
20
-1.74783098805955
30
0
41
1
10
100.905349512787
20
-1.88147856982596
30
0
41
1
10
101.431869002306
20
-2.14278699052483
30
0
41
1
10
101.69512566848
20
-2.26950450356415
30
0
41
1
10
102.091101422923
20
-2.45208377324062
30
0
41
1
10
102.223209152719
20
-2.51176426247622
30
0
41
1
10
102.486870282101
20
-2.62889062433931
30
0
41
1
10
102.618237261135
20
-2.68670498745581
30
0
41
1
10
103.013179449225
20
-2.85484988479891
30
0
41
1
10
103.27700999119
20
-2.96077450937875
30
0
41
1
10
103.804014736457
20
-3.16245537298485
30
0
41
1
10
104.067669056653
20
-3.25769286612962
30
0
41
1
10
104.463152401849
20
-3.38979892126528
30
0
41
1
10
104.594996567398
20
-3.43213624384145
30
0
41
1
10
104.858541202991
20
-3.51359547348267
30
0
41
1
10
104.990006836484
20
-3.55293072165298
30
0
41
1
10
105.384759491638
20
-3.6654834987792
30
0
41
1
10
105.649153708201
20
-3.73299509478764
30
0
41
1
10
106.176393790857
20
-3.85390634560287
30
0
41
1
10
106.439303320208
20
-3.90717583497255
30
0
41
1
10
106.966226039827
20
-3.99782378892439
30
0
41
1
10
107.230440437238
20
-4.03533390623821
30
0
41
1
10
107.757024396174
20
-4.09534971722806
30
0
41
1
10
108.020701823464
20
-4.11710246803938
30
0
41
1
10
108.508188919611
20
-4.14272970361552
30
0
41
1
10
108.731739063819
20
-4.14875817073639
30
0
41
1
10
108.955695535198
20
-4.14893423103609
30
0
0
SPLINE
5
C0
100
AcDbEntity
8
1
62
256
6
ByLayer
370
18
48
1
60
0
100
AcDbSpline
70
4
71
3
72
10
73
6
40
0
40
0
40
0
40
0
40
0.5
40
0.5
40
1
40
1
40
1
40
1
41
1
10
111.974811842144
20
-0.160570851926479
30
0
41
1
10
111.976834611857
20
-0.144714982242874
30
0
41
1
10
111.980180080039
20
-0.126921421836471
30
0
41
1
10
111.988748477146
20
-0.0885785101279737
30
0
41
1
10
111.993989284987
20
-0.0680819771565666
30
0
41
1
10
111.999933263373
20
-0.0470933707390202
30
0
0
SPLINE
5
C1
100
AcDbEntity
8
1
62
256
6
ByLayer
370
18
48
1
60
0
100
AcDbSpline
70
4
71
3
72
78
73
74
40
0
40
0
40
0
40
0
40
0.0339190139638376
40
0.0339190139638376
40
0.0508785209457564
40
0.0508785209457564
40
0.0678380279276752
40
0.0678380279276752
40
0.101757041891513
40
0.101757041891513
40
0.13567605585535
40
0.13567605585535
40
0.169595069819188
40
0.169595069819188
40
0.203514083783026
40
0.203514083783026
40
0.237433097746863
40
0.237433097746863
40
0.271352111710701
40
0.271352111710701
40
0.28831161869262
40
0.28831161869262
40
0.305271125674539
40
0.305271125674539
40
0.339190139638378
40
0.339190139638378
40
0.373109153602216
40
0.373109153602216
40
0.407028167566054
40
0.407028167566054
40
0.440947181529892
40
0.440947181529892
40
0.474866195493731
40
0.474866195493731
40
0.49182570247565
40
0.49182570247565
40
0.508785209457569
40
0.508785209457569
40
0.542704223421408
40
0.542704223421408
40
0.576623237385246
40
0.576623237385246
40
0.593582744367165
40
0.593582744367165
40
0.610542251349084
40
0.610542251349084
40
0.644461265312924
40
0.644461265312924
40
0.678380279276764
40
0.678380279276764
40
0.695339786258685
40
0.695339786258685
40
0.712299293240605
40
0.712299293240605
40
0.746218307204448
40
0.746218307204448
40
0.78013732116829
40
0.78013732116829
40
0.814056335132133
40
0.814056335132133
40
0.831015842114054
40
0.831015842114054
40
0.847975349095974
40
0.847975349095974
40
0.881894363059816
40
0.881894363059816
40
0.915813377023657
40
0.915813377023657
40
0.949732390987498
40
0.949732390987498
40
0.983651404951339
40
0.983651404951339
40
1
40
1
40
1
40
1
41
1
10
9.29069204522477
20
1.88603963012937
30
0
41
1
10
9.54961782930602
20
1.7679465993061
30
0
41
1
10
9.80815883352733
20
1.64641330036372
30
0
41
1
10
10.1950019579705
20
1.45828431487456
30
0
41
1
10
10.3238253644627
20
1.39466253004622
30
0
41
1
10
10.5816357710453
20
1.26633587000722
30
0
41
1
10
10.7110058097336
20
1.20232640355965
30
0
41
1
10
11.0987736503339
20
1.00769156278901
30
0
41
1
10
11.3569552898094
20
0.875145995255764
30
0
41
1
10
11.8730209702422
20
0.607872508678327
30
0
41
1
10
12.1311580439532
20
0.473215661074733
30
0
41
1
10
12.6476533251549
20
0.202123522419185
30
0
41
1
10
12.9055630393949
20
0.064559901160635
30
0
41
1
10
13.4223301896996
20
-0.206673580501217
30
0
41
1
10
13.680286709514
20
-0.342579501892771
30
0
41
1
10
14.1962507147584
20
-0.613352553382214
30
0
41
1
10
14.454702705686
20
-0.74790593148586
30
0
41
1
10
14.9712938542807
20
-1.01268355902079
30
0
41
1
10
15.2289545307534
20
-1.14404777055347
30
0
41
1
10
15.6158368433674
20
-1.33738113383367
30
0
41
1
10
15.7451248046956
20
-1.40076080058341
30
0
41
1
10
16.0034378821384
20
-1.52681631121069
30
0
41
1
10
16.1326666953458
20
-1.58923579781504
30
0
41
1
10
16.5199729903463
20
-1.77420908953661
30
0
41
1
10
16.7779208493577
20
-1.89421409657965
30
0
41
1
10
17.294086565238
20
-2.12695918777746
30
0
41
1
10
17.5521727731423
20
-2.23987780188429
30
0
41
1
10
18.0684164516225
20
-2.45712242648287
30
0
41
1
10
18.3270404904431
20
-2.56005082800448
30
0
41
1
10
18.8430955725096
20
-2.75825872757716
30
0
41
1
10
19.1008455407378
20
-2.85308183852933
30
0
41
1
10
19.6174707168895
20
-3.02969093747055
30
0
41
1
10
19.876124556719
20
-3.11223364242255
30
0
41
1
10
20.2630033127928
20
-3.22841035733975
30
0
41
1
10
20.3916874187912
20
-3.26606488892952
30
0
41
1
10
20.6499065705328
20
-3.33733688188849
30
0
41
1
10
20.7790993057378
20
-3.37117611845395
30
0
41
1
10
21.1665736944992
20
-3.46780409008787
30
0
41
1
10
21.4249245134176
20
-3.52610136191748
30
0
41
1
10
21.9412025167559
20
-3.63003646588626
30
0
41
1
10
22.1993220744526
20
-3.67591619852718
30
0
41
1
10
22.58647567946
20
-3.73276050994761
30
0
41
1
10
22.7155011639089
20
-3.74994365141353
30
0
41
1
10
22.9735449925346
20
-3.78107126239249
30
0
41
1
10
23.1029891394073
20
-3.79480542761186
30
0
41
1
10
23.4906445034534
20
-3.83129514811708
30
0
41
1
10
23.7484088977901
20
-3.84961942366027
30
0
41
1
10
24.2645132710619
20
-3.86828472551716
30
0
41
1
10
24.5230095479012
20
-3.87011857419753
30
0
41
1
10
24.9106315227602
20
-3.86340324993449
30
0
41
1
10
25.0396927550261
20
-3.8595981201932
30
0
41
1
10
25.2975661453194
20
-3.84852201567824
30
0
41
1
10
25.426355954716
20
-3.84106107577483
30
0
41
1
10
25.8138579137647
20
-3.8125596100972
30
0
41
1
10
26.0719987939127
20
-3.78588301788292
30
0
41
1
10
26.5885710598523
20
-3.71974071481401
30
0
41
1
10
26.846681959311
20
-3.68026464761286
30
0
41
1
10
27.3629680475575
20
-3.58626595248745
30
0
41
1
10
27.6208117093925
20
-3.53200108468013
30
0
41
1
10
28.0078508773114
20
-3.44142398733229
30
0
41
1
10
28.1373441898863
20
-3.41017879488464
30
0
41
1
10
28.3956850763045
20
-3.3442022539343
30
0
41
1
10
28.5247235232289
20
-3.30938361802555
30
0
41
1
10
28.911611687238
20
-3.19981651003579
30
0
41
1
10
29.1694776047665
20
-3.1202234381033
30
0
41
1
10
29.6857795802555
20
-2.95136352069355
30
0
41
1
10
29.9442499255865
20
-2.86185333291914
30
0
41
1
10
30.4597175868373
20
-2.67020547271756
30
0
41
1
10
30.7179826925334
20
-2.56986018258038
30
0
41
1
10
31.2339467324134
20
-2.35948062604419
30
0
41
1
10
31.4920166380127
20
-2.24964476368854
30
0
41
1
10
31.8744566745803
20
-2.08098464568406
30
0
41
1
10
31.9988374728722
20
-2.02526518703019
30
0
41
1
10
32.1231841648094
20
-1.9686683663291
30
0
0
SPLINE
5
C2
100
AcDbEntity
8
1
62
256
6
ByLayer
370
18
48
1
60
0
100
AcDbSpline
70
4
71
3
72
108
73
104
40
0
40
0
40
0
40
0
40
0.0160553431797037
40
0.0160553431797037
40
0.0413002289212802
40
0.0413002289212802
40
0.0665451146628568
40
0.0665451146628568
40
0.0791675575336455
40
0.0791675575336455
40
0.0917900004044342
40
0.0917900004044342
40
0.117034886146012
40
0.117034886146012
40
0.14227977188759
40
0.14227977188759
40
0.167524657629167
40
0.167524657629167
40
0.180147100499956
40
0.180147100499956
40
0.192769543370744
40
0.192769543370744
40
0.218014429112321
40
0.218014429112321
40
0.243259314853897
40
0.243259314853897
40
0.255881757724685
40
0.255881757724685
40
0.268504200595473
40
0.268504200595473
40
0.293749086337048
40
0.293749086337048
40
0.318993972078624
40
0.318993972078624
40
0.331616414949412
40
0.331616414949412
40
0.344238857820199
40
0.344238857820199
40
0.369483743561776
40
0.369483743561776
40
0.394728629303353
40
0.394728629303353
40
0.41997351504493
40
0.41997351504493
40
0.445218400786506
40
0.445218400786506
40
0.470463286528083
40
0.470463286528083
40
0.483085729398871
40
0.483085729398871
40
0.495708172269659
40
0.495708172269659
40
0.508330615140447
40
0.508330615140447
40
0.520953058011234
40
0.520953058011234
40
0.54619794375281
40
0.54619794375281
40
0.571442829494386
40
0.571442829494386
40
0.596687715235961
40
0.596687715235961
40
0.621932600977537
40
0.621932600977537
40
0.647177486719113
40
0.647177486719113
40
0.659799929589901
40
0.659799929589901
40
0.672422372460688
40
0.672422372460688
40
0.697667258202264
40
0.697667258202264
40
0.722912143943839
40
0.722912143943839
40
0.735534586814627
40
0.735534586814627
40
0.748157029685415
40
0.748157029685415
40
0.773401915426992
40
0.773401915426992
40
0.798646801168569
40
0.798646801168569
40
0.811269244039358
40
0.811269244039358
40
0.823891686910147
40
0.823891686910147
40
0.849136572651724
40
0.849136572651724
40
0.874381458393302
40
0.874381458393302
40
0.89962634413488
40
0.89962634413488
40
0.912248787005668
40
0.912248787005668
40
0.924871229876456
40
0.924871229876456
40
0.950116115618034
40
0.950116115618034
40
0.975361001359611
40
0.975361001359611
40
0.9879834442304
40
0.9879834442304
40
1
40
1
40
1
40
1
41
1
10
47.5071568858844
20
3.88247200213567
30
0
41
1
10
47.6709359758822
20
3.88245463051783
30
0
41
1
10
47.8346695411805
20
3.87954415648093
30
0
41
1
10
48.2566316863212
20
3.86543247527757
30
0
41
1
10
48.5144614138313
20
3.85074918800649
30
0
41
1
10
49.0299542992809
20
3.8039872752754
30
0
41
1
10
49.2876065926993
20
3.77315863528912
30
0
41
1
10
49.6741603396983
20
3.71764385998534
30
0
41
1
10
49.8029613356281
20
3.6975765882851
30
0
41
1
10
50.0604712217724
20
3.6540710016998
30
0
41
1
10
50.1890802761568
20
3.63034725143646
30
0
41
1
10
50.5762574426356
20
3.55387096629187
30
0
41
1
10
50.8341277631487
20
3.49584653432234
30
0
41
1
10
51.349130877006
20
3.36788690620565
30
0
41
1
10
51.6065604005424
20
3.2985445660029
30
0
41
1
10
52.1224982584376
20
3.1459448169048
30
0
41
1
10
52.3804480948657
20
3.06325815002043
30
0
41
1
10
52.766405498048
20
2.93080371137691
30
0
41
1
10
52.8953756168659
20
2.88572323444734
30
0
41
1
10
53.153169218891
20
2.79301857498948
30
0
41
1
10
53.282012816828
20
2.74536273336182
30
0
41
1
10
53.6685966090287
20
2.59756957292893
30
0
41
1
10
53.9265752304115
20
2.4932649909143
30
0
41
1
10
54.4420607042892
20
2.27743288908863
30
0
41
1
10
54.6997726600082
20
2.16579119268477
30
0
41
1
10
55.086011772796
20
1.9911065771837
30
0
41
1
10
55.2146761404557
20
1.93153116020935
30
0
41
1
10
55.4729618941341
20
1.81185060102851
30
0
41
1
10
55.6020500647074
20
1.75109597600562
30
0
41
1
10
55.9888545040064
20
1.56638041233
30
0
41
1
10
56.246194682778
20
1.43988763223083
30
0
41
1
10
56.761504276485
20
1.18231328384033
30
0
41
1
10
57.0197693885984
20
1.0511681984859
30
0
41
1
10
57.4065156121341
20
0.851296703365591
30
0
41
1
10
57.5352444976461
20
0.784092426846627
30
0
41
1
10
57.7926538678493
20
0.649068223422319
30
0
41
1
10
57.9217461943576
20
0.582007811050829
30
0
41
1
10
58.3084827569668
20
0.378975041921478
30
0
41
1
10
58.5660914056251
20
0.241948921642347
30
0
41
1
10
59.0821096126357
20
-0.0322428327172304
30
0
41
1
10
59.3399254351352
20
-0.169181877249429
30
0
41
1
10
59.855327505617
20
-0.44214704137633
30
0
41
1
10
60.1124623995195
20
-0.579029767870708
30
0
41
1
10
60.6289168365852
20
-0.847516127766681
30
0
41
1
10
60.886797554716
20
-0.981376813299647
30
0
41
1
10
61.4019617272382
20
-1.24442645028728
30
0
41
1
10
61.6595932703698
20
-1.37344173557861
30
0
41
1
10
62.0465502497988
20
-1.56263512027468
30
0
41
1
10
62.1756068578988
20
-1.62514795167516
30
0
41
1
10
62.4334262631143
20
-1.74917385155032
30
0
41
1
10
62.5620406556622
20
-1.81080376454187
30
0
41
1
10
62.8197092524442
20
-1.93120527722198
30
0
41
1
10
62.9487756208369
20
-1.99001001469753
30
0
41
1
10
63.206559553374
20
-2.10623166349899
30
0
41
1
10
63.3353883150819
20
-2.16345902470678
30
0
41
1
10
63.7218724860724
20
-2.33229622242035
30
0
41
1
10
63.9798688948634
20
-2.44144253067552
30
0
41
1
10
64.4954745309376
20
-2.64926995201708
30
0
41
1
10
64.75310651495
20
-2.74788301566548
30
0
41
1
10
65.2678092003989
20
-2.93561216004605
30
0
41
1
10
65.5262086908173
20
-3.02388488194617
30
0
41
1
10
66.0417263499762
20
-3.19008535841743
30
0
41
1
10
66.299059887092
20
-3.26682064701313
30
0
41
1
10
66.8142070263638
20
-3.40768922699763
30
0
41
1
10
67.0719828365391
20
-3.47234258389381
30
0
41
1
10
67.4585056891034
20
-3.56027067508097
30
0
41
1
10
67.5870285723349
20
-3.58787494603703
30
0
41
1
10
67.8448291106256
20
-3.6389224332714
30
0
41
1
10
67.9737308734574
20
-3.66267303767569
30
0
41
1
10
68.360108875608
20
-3.72917731833789
30
0
41
1
10
68.6173159563006
20
-3.76727062051688
30
0
41
1
10
69.1327106898777
20
-3.82873364977917
30
0
41
1
10
69.3907316344385
20
-3.85180391842022
30
0
41
1
10
69.7769404064794
20
-3.87609816671579
30
0
41
1
10
69.9055763051923
20
-3.88252226961345
30
0
41
1
10
70.1627197992773
20
-3.89190858981746
30
0
41
1
10
70.2916677218357
20
-3.89481329197093
30
0
41
1
10
70.6783704826908
20
-3.89803613681261
30
0
41
1
10
70.9361642281157
20
-3.89251057190413
30
0
41
1
10
71.4511688025904
20
-3.86727541962898
30
0
41
1
10
71.7086444511286
20
-3.84792589641722
30
0
41
1
10
72.0950182832727
20
-3.80812401355942
30
0
41
1
10
72.2237885259759
20
-3.79299109607837
30
0
41
1
10
72.4813551969462
20
-3.7589308007106
30
0
41
1
10
72.6100562297539
20
-3.74000467000744
30
0
41
1
10
72.9969234635241
20
-3.67895115917384
30
0
41
1
10
73.2542927116008
20
-3.63207569104733
30
0
41
1
10
73.7690423842906
20
-3.52313626276754
30
0
41
1
10
74.0268345954112
20
-3.46151513130732
30
0
41
1
10
74.5425460831151
20
-3.32674632344819
30
0
41
1
10
74.799815689187
20
-3.25380178647436
30
0
41
1
10
75.1856153407946
20
-3.13401857812957
30
0
41
1
10
75.3146562182474
20
-3.09288821941217
30
0
41
1
10
75.5724281707672
20
-3.00740232375708
30
0
41
1
10
75.7013004691355
20
-2.96317752361739
30
0
41
1
10
76.0879546506895
20
-2.82634715080459
30
0
41
1
10
76.3453669975244
20
-2.73047455683988
30
0
41
1
10
76.8603878467714
20
-2.5283136211786
30
0
41
1
10
77.1180343933036
20
-2.42196754535297
30
0
41
1
10
77.5042302532889
20
-2.25550950053412
30
0
41
1
10
77.6330944198854
20
-2.19900528187557
30
0
41
1
10
77.8848172285729
20
-2.08764899501347
30
0
41
1
10
78.0074704226128
20
-2.0324685997908
30
0
41
1
10
78.1300404263586
20
-1.97627720015314
30
0
0
SPLINE
5
C3
100
AcDbEntity
8
1
62
256
6
ByLayer
370
18
48
1
60
0
100
AcDbSpline
70
4
71
3
72
52
73
48
40
0
40
0
40
0
40
0
40
0.0405126257103509
40
0.0405126257103509
40
0.0938174798375628
40
0.0938174798375628
40
0.147122333964775
40
0.147122333964775
40
0.200427188091988
40
0.200427188091988
40
0.2537320422192
40
0.2537320422192
40
0.280384469282803
40
0.280384469282803
40
0.307036896346408
40
0.307036896346408
40
0.360341750473611
40
0.360341750473611
40
0.413646604600815
40
0.413646604600815
40
0.466951458728019
40
0.466951458728019
40
0.520256312855222
40
0.520256312855222
40
0.573561166982426
40
0.573561166982426
40
0.600213594046027
40
0.600213594046027
40
0.62686602110963
40
0.62686602110963
40
0.680170875236829
40
0.680170875236829
40
0.733475729364028
40
0.733475729364028
40
0.760128156427625
40
0.760128156427625
40
0.786780583491222
40
0.786780583491222
40
0.840085437618417
40
0.840085437618417
40
0.893390291745612
40
0.893390291745612
40
0.920042718809209
40
0.920042718809209
40
0.946695145872806
40
0.946695145872806
40
1
40
1
40
1
40
1
41
1
10
93.7756231300332
20
3.90930387058501
30
0
41
1
10
93.9711118557199
20
3.9058689312684
30
0
41
1
10
94.166691591506
20
3.89785669860421
30
0
41
1
10
94.6198957074342
20
3.86929546578926
30
0
41
1
10
94.8770082786726
20
3.84611587220013
30
0
41
1
10
95.3920710443095
20
3.78706885716662
30
0
41
1
10
95.6491961026225
20
3.7498182031116
30
0
41
1
10
96.1637581885107
20
3.66109999257699
30
0
41
1
10
96.4215095166589
20
3.6101585836096
30
0
41
1
10
96.9363592331081
20
3.49631322638956
30
0
41
1
10
97.1931542451771
20
3.43185831884327
30
0
41
1
10
97.5789462504586
20
3.32582033961006
30
0
41
1
10
97.7079053516786
20
3.28917085820376
30
0
41
1
10
97.9655362913105
20
3.21271852409228
30
0
41
1
10
98.0943540823072
20
3.17310651709013
30
0
41
1
10
98.4803025772047
20
3.0497521065241
30
0
41
1
10
98.7373640686083
20
2.96126557670851
30
0
41
1
10
99.2519574035439
20
2.77404552201776
30
0
41
1
10
99.5094543385246
20
2.67540162395329
30
0
41
1
10
100.023740076943
20
2.46806584080082
30
0
41
1
10
100.281262908013
20
2.36040896259797
30
0
41
1
10
100.795492758931
20
2.13489552973192
30
0
41
1
10
101.052451151446
20
2.01764553815826
30
0
41
1
10
101.567371515298
20
1.77665829682334
30
0
41
1
10
101.824992098156
20
1.65312633622636
30
0
41
1
10
102.210501538922
20
1.46292523887851
30
0
41
1
10
102.338739841598
20
1.39843325936405
30
0
41
1
10
102.596014555488
20
1.26956732251901
30
0
41
1
10
102.72477080069
20
1.20470325447241
30
0
41
1
10
103.110842593831
20
1.00769855592677
30
0
41
1
10
103.368159262707
20
0.87340504965124
30
0
41
1
10
103.882415132416
20
0.603137184535512
30
0
41
1
10
104.139612536757
20
0.467102434547712
30
0
41
1
10
104.525339898141
20
0.261346011483994
30
0
41
1
10
104.653891912714
20
0.192449679561491
30
0
41
1
10
104.911030701761
20
0.0541762905534995
30
0
41
1
10
105.039867423548
20
-0.0144337866895512
30
0
41
1
10
105.426044099072
20
-0.22021858187864
30
0
41
1
10
105.682945196174
20
-0.357815216213737
30
0
41
1
10
106.197065177587
20
-0.631147065567092
30
0
41
1
10
106.454594105905
20
-0.766816256041068
30
0
41
1
10
106.840683116678
20
-0.967696751540927
30
0
41
1
10
106.969254302036
20
-1.0343119034014
30
0
41
1
10
107.226181613589
20
-1.16679470736889
30
0
41
1
10
107.354425517394
20
-1.23285943479485
30
0
41
1
10
107.74043848827
20
-1.42706738209478
30
0
41
1
10
107.997686947697
20
-1.5545454219577
30
0
41
1
10
108.255025047008
20
-1.67923484042635
30
0
0
SPLINE
5
C4
100
AcDbEntity
8
1
62
256
6
ByLayer
370
13
48
1
60
0
100
AcDbSpline
70
4
71
3
72
8
73
4
40
0
40
0
40
0
40
0
40
1
40
1
40
1
40
1
41
1
10
8.13067761420183
20
-0.886442393126742
30
0
41
1
10
8.15320204869948
20
-0.895650599920117
30
0
41
1
10
8.17766508307423
20
-0.907123003217151
30
0
41
1
10
8.20262041369602
20
-0.920247761917665
30
0
0
SPLINE
5
C5
100
AcDbEntity
8
1
62
256
6
ByLayer
370
18
48
1
60
0
100
AcDbSpline
70
4
71
3
72
8
73
4
40
0
40
0
40
0
40
0
40
1
40
1
40
1
40
1
41
1
10
111.971862129618
20
-0.0193746873927694
30
0
41
1
10
111.934674159055
20
-0.088471059406686
30
0
41
1
10
111.89765039227
20
-0.157714309370761
30
0
41
1
10
111.860791148703
20
-0.227104722934456
30
0
0
SPLINE
5
C6
100
AcDbEntity
8
1
62
256
6
ByLayer
370
18
48
1
60
0
100
AcDbSpline
70
4
71
3
72
8
73
4
40
0
40
0
40
0
40
0
40
1
40
1
40
1
40
1
41
1
10
110.519884864968
20
4.13882729991587
30
0
41
1
10
110.340034700546
20
4.14617646483964
30
0
41
1
10
110.160137873833
20
4.14976058782557
30
0
41
1
10
109.980093326263
20
4.1495771700724
30
0
0
SPLINE
5
C7
100
AcDbEntity
8
1
62
256
6
ByLayer
370
18
48
1
60
0
100
AcDbSpline
70
4
71
3
72
46
73
42
40
0
40
0
40
0
40
0
40
0.0471478795554971
40
0.0471478795554971
40
0.173211521614428
40
0.173211521614428
40
0.20472743212916
40
0.20472743212916
40
0.236243342643892
40
0.236243342643892
40
0.299275163673356
40
0.299275163673356
40
0.36230698470282
40
0.36230698470282
40
0.393822895217552
40
0.393822895217552
40
0.425338805732284
40
0.425338805732284
40
0.551402447791209
40
0.551402447791209
40
0.58291835830594
40
0.58291835830594
40
0.61443426882067
40
0.61443426882067
40
0.67746608985013
40
0.67746608985013
40
0.74049791087959
40
0.74049791087959
40
0.77201382139432
40
0.77201382139432
40
0.787771776651684
40
0.787771776651684
40
0.803529731909048
40
0.803529731909048
40
0.929593373967956
40
0.929593373967956
40
0.961109284482684
40
0.961109284482684
40
0.992625194997411
40
0.992625194997411
40
1
40
1
40
1
40
1
41
1
10
89.3452566114914
20
-3.92345205057845
30
0
41
1
10
88.9456098467095
20
-3.99477059633088
30
0
41
1
10
88.5480428189403
20
-4.04817492250456
30
0
41
1
10
87.0904443974708
20
-4.1779882593932
30
0
41
1
10
86.0353210944673
20
-4.14316252719837
30
0
41
1
10
84.693494942591
20
-3.93570077596039
30
0
41
1
10
84.425154301488
20
-3.88616425813237
30
0
41
1
10
83.8913417935838
20
-3.77234146106954
30
0
41
1
10
83.625298246616
20
-3.70798839913041
30
0
41
1
10
82.8285348105815
20
-3.4939087377127
30
0
41
1
10
82.2994299884454
20
-3.32292271203008
30
0
41
1
10
81.2389186367217
20
-2.93134761346181
30
0
41
1
10
80.7077679597886
20
-2.71045947106614
30
0
41
1
10
79.9048303110022
20
-2.34688512349109
30
0
41
1
10
79.6355762241989
20
-2.21996549897
30
0
41
1
10
79.1002993739116
20
-1.95928712293861
30
0
41
1
10
78.8336369820187
20
-1.8253214802352
30
0
41
1
10
77.5036049448241
20
-1.1401945250602
30
0
41
1
10
76.4495717293768
20
-0.543931871777062
30
0
41
1
10
75.1144212595706
20
0.208587063662407
30
0
41
1
10
74.8459993782405
20
0.359830026220806
30
0
41
1
10
74.3091076429242
20
0.660226784350016
30
0
41
1
10
74.041780066459
20
0.808673124110925
30
0
41
1
10
73.242071128928
20
1.24701302676289
30
0
41
1
10
72.7120610385096
20
1.53006905649815
30
0
41
1
10
71.6519962219423
20
2.06751097110049
30
0
41
1
10
71.1219802628107
20
2.32197073315413
30
0
41
1
10
70.3225357621512
20
2.67507915435337
30
0
41
1
10
70.0553272323641
20
2.78803133933104
30
0
41
1
10
69.6527860100114
20
2.94932189002267
30
0
41
1
10
69.518219641608
20
3.00176214213485
30
0
41
1
10
69.250002908077
20
3.10320260169621
30
0
41
1
10
69.1161666334264
20
3.1522797173366
30
0
41
1
10
67.9136867982085
20
3.57888784161628
30
0
41
1
10
66.8592797593464
20
3.85054150287152
30
0
41
1
10
65.5289969072002
20
4.03304960166517
30
0
41
1
10
65.2623600292958
20
4.06172398034536
30
0
41
1
10
64.7271141550344
20
4.10284686994643
30
0
41
1
10
64.4579235691557
20
4.1152807359627
30
0
41
1
10
64.1266302763223
20
4.1202937101321
30
0
41
1
10
64.0638322666014
20
4.12078883423601
30
0
41
1
10
64.0010538518732
20
4.12082938326091
30
0
0
SPLINE
5
C8
100
AcDbEntity
8
1
62
256
6
ByLayer
370
18
48
1
60
0
100
AcDbSpline
70
4
71
3
72
46
73
42
40
0
40
0
40
0
40
0
40
0.0003153656265719
40
0.0003153656265719
40
0.12645854852539
40
0.12645854852539
40
0.157994344250096
40
0.157994344250096
40
0.173762242112449
40
0.173762242112449
40
0.189530139974801
40
0.189530139974801
40
0.252601731424214
40
0.252601731424214
40
0.315673322873627
40
0.315673322873627
40
0.347209118598333
40
0.347209118598333
40
0.37874491432304
40
0.37874491432304
40
0.504888097221866
40
0.504888097221866
40
0.567959688671278
40
0.567959688671278
40
0.631031280120691
40
0.631031280120691
40
0.757174463019517
40
0.757174463019517
40
0.788710258744223
40
0.788710258744223
40
0.820246054468929
40
0.820246054468929
40
0.883317645918344
40
0.883317645918344
40
0.946389237367759
40
0.946389237367759
40
0.962157135230112
40
0.962157135230112
40
0.977925033092465
40
0.977925033092465
40
1
40
1
40
1
40
1
41
1
10
43.3754198506367
20
-3.89082390181107
30
0
41
1
10
43.3727515664332
20
-3.89130278082101
30
0
41
1
10
43.3700833575219
20
-3.8917808692504
30
0
41
1
10
42.30018755706
20
-4.0831726111127
30
0
41
1
10
41.2448872173951
20
-4.14752492928469
30
0
41
1
10
39.9110191489688
20
-4.06441465929194
30
0
41
1
10
39.643497962188
20
-4.03962396851722
30
0
41
1
10
39.2405474902243
20
-3.99009021088691
30
0
41
1
10
39.1058477232411
20
-3.97149952829895
30
0
41
1
10
38.8373603431186
20
-3.93045720186973
30
0
41
1
10
38.7033888903835
20
-3.90798668381524
30
0
41
1
10
38.034640123144
20
-3.78613403752749
30
0
41
1
10
37.5032446915402
20
-3.65820719109036
30
0
41
1
10
36.4415058871247
20
-3.34762297761122
30
0
41
1
10
35.9112360362898
20
-3.16490516845016
30
0
41
1
10
35.1122996270149
20
-2.8542174459341
30
0
41
1
10
34.8453702463507
20
-2.74459195113212
30
0
41
1
10
34.3095716963958
20
-2.51394496897581
30
0
41
1
10
34.0399581455068
20
-2.39250827275461
30
0
41
1
10
32.6985854247057
20
-1.76564438732731
30
0
41
1
10
31.641892566031
20
-1.19967205265519
30
0
41
1
10
30.0462395679478
20
-0.315556833099294
30
0
41
1
10
29.5121638828126
20
-0.0152186204357747
30
0
41
1
10
28.4355085902376
20
0.586260376837743
30
0
41
1
10
27.9018658332686
20
0.881748358700946
30
0
41
1
10
26.3062007600529
20
1.73775534659128
30
0
41
1
10
25.2493422010461
20
2.26754813796583
30
0
41
1
10
23.9068887894815
20
2.82891936599657
30
0
41
1
10
23.6372303036753
20
2.9361792028497
30
0
41
1
10
23.1014553482428
20
3.13709799202286
30
0
41
1
10
22.8345099275033
20
3.23106922935767
30
0
41
1
10
22.0352847355898
20
3.49251703420225
30
0
41
1
10
21.5048799138466
20
3.63978341505347
30
0
41
1
10
20.4424500933389
20
3.87498633789204
30
0
41
1
10
19.9107030393466
20
3.96312320713466
30
0
41
1
10
19.2412655978899
20
4.0333600259053
30
0
41
1
10
19.1071489848451
20
4.04541644569565
30
0
41
1
10
18.838382614277
20
4.06547708155136
30
0
41
1
10
18.7035834385258
20
4.07348062132357
30
0
41
1
10
18.3811019519535
20
4.08766924679551
30
0
41
1
10
18.1935225593022
20
4.09187824894724
30
0
41
1
10
18.0063413925341
20
4.09207548018344
30
0
0
SPLINE
5
C9
100
AcDbEntity
8
1
62
256
6
ByLayer
370
18
48
1
60
0
100
AcDbSpline
70
4
71
3
72
12
73
8
40
0
40
0
40
0
40
0
40
0.250000000000018
40
0.250000000000018
40
0.500000000000036
40
0.500000000000036
40
1
40
1
40
1
40
1
41
1
10
111.28354122913
20
-1.81308584235572
30
0
41
1
10
111.274785211723
20
-1.84388071577186
30
0
41
1
10
111.265156687751
20
-1.87515382421338
30
0
41
1
10
111.244349149629
20
-1.93857214818982
30
0
41
1
10
111.233055789623
20
-1.97102075178603
30
0
41
1
10
111.197752440385
20
-2.06738613817546
30
0
41
1
10
111.172481112432
20
-2.13004629472513
30
0
41
1
10
111.146585617532
20
-2.1893682926966
30
0
0
SPLINE
5
CA
100
AcDbEntity
8
1
62
256
6
ByLayer
370
13
48
1
60
0
100
AcDbSpline
70
4
71
3
72
12
73
8
40
0
40
0
40
0
40
0
40
0.499999999999976
40
0.499999999999976
40
0.749999999999988
40
0.749999999999988
40
1
40
1
40
1
40
1
41
1
10
8.00255523062913
20
-0.730812490003046
30
0
41
1
10
8.00790134236394
20
-0.762260066575806
30
0
41
1
10
8.02158409174791
20
-0.792584134492927
30
0
41
1
10
8.05380488990102
20
-0.832767876291399
30
0
41
1
10
8.06677744196304
20
-0.845540368638979
30
0
41
1
10
8.09606220564498
20
-0.868124235375149
30
0
41
1
10
8.11239206608201
20
-0.87806210495944
30
0
41
1
10
8.13067761420183
20
-0.886442393126742
30
0
0
SPLINE
5
CB
100
AcDbEntity
8
1
62
256
6
ByLayer
370
18
48
1
60
0
100
AcDbSpline
70
4
71
3
72
10
73
6
40
0
40
0
40
0
40
0
40
0.5
40
0.5
40
1
40
1
40
1
40
1
41
1
10
110.655919676203
20
-4.03890611516729
30
0
41
1
10
110.857839036684
20
-3.54222098609
30
0
41
1
10
111.059326455277
20
-3.04371522462057
30
0
41
1
10
111.458071182146
20
-2.04139554157444
30
0
41
1
10
111.655202221358
20
-1.53766549759928
30
0
41
1
10
111.84756881792
20
-1.03373950145368
30
0
0
SPLINE
5
CC
100
AcDbEntity
8
1
62
256
6
ByLayer
370
18
48
1
60
0
100
AcDbSpline
70
4
71
3
72
8
73
4
40
0
40
0
40
0
40
0
40
1
40
1
40
1
40
1
41
1
10
110.518980032027
20
-3.91370046718427
30
0
41
1
10
110.530461915848
20
-3.91932381834428
30
0
41
1
10
110.542974219347
20
-3.92197313042726
30
0
41
1
10
110.556545569839
20
-3.92168517267839
30
0
0
SPLINE
5
CD
100
AcDbEntity
8
1
62
256
6
ByLayer
370
18
48
1
60
0
100
AcDbSpline
70
4
71
3
72
10
73
6
40
0
40
0
40
0
40
0
40
0.5
40
0.5
40
1
40
1
40
1
40
1
41
1
10
110.655919676204
20
4.03890611516732
30
0
41
1
10
110.857793971668
20
3.54233183788142
30
0
41
1
10
111.059226143154
20
3.04396294950982
30
0
41
1
10
111.457841502853
20
2.04197730835656
30
0
41
1
10
111.654965978967
20
1.53828436118815
30
0
41
1
10
111.84756881792
20
1.03373950145362
30
0
0
SPLINE
5
CE
100
AcDbEntity
8
1
62
256
6
ByLayer
370
18
48
1
60
0
100
AcDbSpline
70
4
71
3
72
12
73
8
40
0
40
0
40
0
40
0
40
0.499999999999986
40
0.499999999999986
40
0.749999999999993
40
0.749999999999993
40
1
40
1
40
1
40
1
41
1
10
108.255025047016
20
-1.67923484043001
30
0
41
1
10
108.50974862294
20
-1.92138502125607
30
0
41
1
10
108.777783835853
20
-2.13937980041411
30
0
41
1
10
109.195470896898
20
-2.43800195066299
30
0
41
1
10
109.336782736508
20
-2.53232287187657
30
0
41
1
10
109.621624942674
20
-2.7106180687299
30
0
41
1
10
109.765399878613
20
-2.79477648230667
30
0
41
1
10
109.910428074742
20
-2.87431634438596
30
0
0
SPLINE
5
CF
100
AcDbEntity
8
1
62
256
6
ByLayer
370
18
48
1
60
0
100
AcDbSpline
70
4
71
3
72
8
73
4
40
0
40
0
40
0
40
0
40
1
40
1
40
1
40
1
41
1
10
111.999933263373
20
0.0470933707388497
30
0
41
1
10
112.000022245541
20
0.0156977902465769
30
0
41
1
10
112.000022245541
20
-0.0156977902458095
30
0
41
1
10
111.999933263373
20
-0.0470933707380823
30
0
0
SPLINE
5
D0
100
AcDbEntity
8
1
62
256
6
ByLayer
370
18
48
1
60
0
100
AcDbSpline
70
4
71
3
72
18
73
14
40
0
40
0
40
0
40
0
40
0.377809534366758
40
0.377809534366758
40
0.566714301550135
40
0.566714301550135
40
0.755619068733513
40
0.755619068733513
40
0.850071452325201
40
0.850071452325201
40
0.94452383591689
40
0.94452383591689
40
1
40
1
40
1
40
1
41
1
10
8.00099444416685
20
3.09210247217024
30
0
41
1
10
7.7412577393242
20
3.30920348904462
30
0
41
1
10
7.49767391407082
20
3.50082342095226
30
0
41
1
10
7.15308406585845
20
3.73785468775694
30
0
41
1
10
7.04131306721246
20
3.80855166824594
30
0
41
1
10
6.83104109461766
20
3.92673546005966
30
0
41
1
10
6.73178398052156
20
3.97480826587255
30
0
41
1
10
6.59235491897778
20
4.02870926118305
30
0
41
1
10
6.54746535023963
20
4.04363116295806
30
0
41
1
10
6.46113183246959
20
4.06693069598165
30
0
41
1
10
6.41954691701591
20
4.07530945772717
30
0
41
1
10
6.35756302541455
20
4.08285723761455
30
0
41
1
10
6.33545155518254
20
4.08442610708289
30
0
41
1
10
6.31420700139913
20
4.08473883551449
30
0
0
SPLINE
5
D1
100
AcDbEntity
8
1
62
256
6
ByLayer
370
18
48
1
60
0
100
AcDbSpline
70
4
71
3
72
8
73
4
40
0
40
0
40
0
40
0
40
1
40
1
40
1
40
1
41
1
10
9.13160886825526
20
2.01628763450839
30
0
41
1
10
9.18474261839114
20
2.02689968430232
30
0
41
1
10
9.23777012088638
20
2.03815841411941
30
0
41
1
10
9.29069204522477
20
2.05005329339215
30
0
0
SPLINE
5
D2
100
AcDbEntity
8
1
62
256
6
ByLayer
370
18
48
1
60
0
100
AcDbSpline
70
4
71
3
72
16
73
12
40
0
40
0
40
0
40
0
40
0.116059385946018
40
0.116059385946018
40
0.453441334281495
40
0.453441334281495
40
0.790823282616971
40
0.790823282616971
40
0.95951425678471
40
0.95951425678471
40
1
40
1
40
1
40
1
41
1
10
87.1923342381612
20
-3.90713269988672
30
0
41
1
10
87.0088048576727
20
-3.90701518955135
30
0
41
1
10
86.8256567322895
20
-3.90321514067588
30
0
41
1
10
86.1111370305192
20
-3.87412380831932
30
0
41
1
10
85.5817510811821
20
-3.82173849667055
30
0
41
1
10
84.5220519363207
20
-3.65808083182839
30
0
41
1
10
83.9917619444286
20
-3.5468327289272
30
0
41
1
10
83.1913825121225
20
-3.33797027043042
30
0
41
1
10
82.9234219337822
20
-3.26123121307609
30
0
41
1
10
82.5906531364435
20
-3.1579693700738
30
0
41
1
10
82.526310327767
20
-3.13763386770381
30
0
41
1
10
82.4620259487353
20
-3.11695696538845
30
0
0
SPLINE
5
D3
100
AcDbEntity
8
1
62
256
6
ByLayer
370
13
48
1
60
0
100
AcDbSpline
70
4
71
3
72
22
73
18
40
0
40
0
40
0
40
0
40
0.059440054053757
40
0.059440054053757
40
0.372282222689885
40
0.372282222689885
40
0.450492764848919
40
0.450492764848919
40
0.528703307007953
40
0.528703307007953
40
0.68512439132602
40
0.68512439132602
40
0.841545475644088
40
0.841545475644088
40
0.997966559962155
40
0.997966559962155
40
1
40
1
40
1
40
1
41
1
10
82.4620259488875
20
-3.11695696543734
30
0
41
1
10
82.2584581492642
20
-3.05147991532576
30
0
41
1
10
82.0554762725852
20
-2.98257936226938
30
0
41
1
10
80.7867434552485
20
-2.53118882883325
30
0
41
1
10
79.7324643327156
20
-2.06365634020517
30
0
41
1
10
78.4020837711838
20
-1.41190929439716
30
0
41
1
10
78.1353787945894
20
-1.27821834555161
30
0
41
1
10
77.5999693937487
20
-1.00535975483515
30
0
41
1
10
77.3309258849503
20
-0.865896536890034
30
0
41
1
10
76.5285979624354
20
-0.445800797037805
30
0
41
1
10
75.9974429122682
20
-0.161870343003642
30
0
41
1
10
74.9368475103033
20
0.402695477269418
30
0
41
1
10
74.4075437566169
20
0.683610408770846
30
0
41
1
10
73.3451941829672
20
1.231755078069
30
0
41
1
10
72.8118527912176
20
1.49950605107332
30
0
41
1
10
72.2678220538737
20
1.75807559395608
30
0
41
1
10
72.2608412738224
20
1.76139101817569
30
0
41
1
10
72.2538612305086
20
1.76470364678039
30
0
0
SPLINE
5
D4
100
AcDbEntity
8
1
62
256
6
ByLayer
370
18
48
1
60
0
100
AcDbSpline
70
4
71
3
72
16
73
12
40
0
40
0
40
0
40
0
40
0.210700381257813
40
0.210700381257813
40
0.577134857752834
40
0.577134857752834
40
0.760352096000344
40
0.760352096000344
40
0.943569334247853
40
0.943569334247853
40
1
40
1
40
1
40
1
41
1
10
41.1812478292935
20
-3.87838773829324
30
0
41
1
10
40.8749061181829
20
-3.87791319451159
30
0
41
1
10
40.5693676118348
20
-3.8672548491208
30
0
41
1
10
39.733217916273
20
-3.81063923467585
30
0
41
1
10
39.2031873513215
20
-3.7443999540653
30
0
41
1
10
38.4053520524789
20
-3.60121423507616
30
0
41
1
10
38.1389475592104
20
-3.54619735310027
30
0
41
1
10
37.6045144508248
20
-3.42183871175919
30
0
41
1
10
37.3361306585353
20
-3.35240563537147
30
0
41
1
10
36.9845382037708
20
-3.25277490068388
30
0
41
1
10
36.9018504644598
20
-3.22871686751049
30
0
41
1
10
36.819255640849
20
-3.20407613295174
30
0
0
SPLINE
5
D5
100
AcDbEntity
8
1
62
256
6
ByLayer
370
13
48
1
60
0
100
AcDbSpline
70
4
71
3
72
20
73
16
40
0
40
0
40
0
40
0
40
0.282306255616568
40
0.282306255616568
40
0.435234833026541
40
0.435234833026541
40
0.511699121731529
40
0.511699121731529
40
0.588163410436516
40
0.588163410436516
40
0.894020565256466
40
0.894020565256466
40
0.970484853961453
40
0.970484853961453
40
1
40
1
40
1
40
1
41
1
10
36.8192556412853
20
-3.20407613308188
30
0
41
1
10
35.8291857868577
20
-2.90870594632068
30
0
41
1
10
34.8524669730757
20
-2.52960749970166
30
0
41
1
10
33.3407949331927
20
-1.85579073231097
30
0
41
1
10
32.8084358040017
20
-1.60217377691515
30
0
41
1
10
32.0042419206393
20
-1.20253736280759
30
0
41
1
10
31.7347555425938
20
-1.06595738598398
30
0
41
1
10
31.1988707387208
20
-0.79087729183243
30
0
41
1
10
30.9318931494169
20
-0.651905037969811
30
0
41
1
10
29.6000876779706
20
0.0467782990048704
30
0
41
1
10
28.5435853536349
20
0.616059577057371
30
0
41
1
10
27.2078595129524
20
1.2899596475369
30
0
41
1
10
26.939884189387
20
1.42271202283652
30
0
41
1
10
26.5669114246187
20
1.6030960914083
30
0
41
1
10
26.4632120333961
20
1.65279414467659
30
0
41
1
10
26.359662706786
20
1.70191637730809
30
0
0
SPLINE
5
D6
100
AcDbEntity
8
1
62
256
6
ByLayer
370
18
48
1
60
0
100
AcDbSpline
70
4
71
3
72
14
73
10
40
0
40
0
40
0
40
0
40
0.387594758203041
40
0.387594758203041
40
0.581392137304561
40
0.581392137304561
40
0.775189516406082
40
0.775189516406082
40
1
40
1
40
1
40
1
41
1
10
8.20262041369602
20
-0.920247761917665
30
0
41
1
10
8.74089178409474
20
-1.20334085969895
30
0
41
1
10
9.27705601678502
20
-1.47740731008702
30
0
41
1
10
10.0819650501402
20
-1.86859462767939
30
0
41
1
10
10.3503911571666
20
-1.99565092735136
30
0
41
1
10
10.8883503944427
20
-2.24164258000755
30
0
41
1
10
11.1579514597609
20
-2.3605386240998
30
0
41
1
10
11.7369721721143
20
-2.60510113261387
30
0
41
1
10
12.0466473120652
20
-2.7292307320553
30
0
41
1
10
12.3556075145267
20
-2.84553204546194
30
0
0
SPLINE
5
D7
100
AcDbEntity
8
1
62
256
6
ByLayer
370
13
48
1
60
0
100
AcDbSpline
70
4
71
3
72
16
73
12
40
0
40
0
40
0
40
0
40
0.317741608987221
40
0.317741608987221
40
0.429623599678134
40
0.429623599678134
40
0.541505590369046
40
0.541505590369046
40
0.765269571750868
40
0.765269571750868
40
1
40
1
40
1
40
1
41
1
10
12.3556079114961
20
-2.84553219489246
30
0
41
1
10
13.1120014061638
20
-3.13025997304513
30
0
41
1
10
13.8641098259795
20
-3.36806783905357
30
0
41
1
10
14.8865436576998
20
-3.6139237522124
30
0
41
1
10
15.1532520897837
20
-3.67103224958984
30
0
41
1
10
15.6883363070212
20
-3.77067973044109
30
0
41
1
10
15.95714228825
20
-3.81326790602901
30
0
41
1
10
16.7645718682087
20
-3.91767691302084
30
0
41
1
10
17.2981553818901
20
-3.95545005949097
30
0
41
1
10
18.3883864109423
20
-3.96860331182404
30
0
41
1
10
18.9446244447985
20
-3.94065618131145
30
0
41
1
10
19.5022916958087
20
-3.87882171220849
30
0
0
SPLINE
5
D8
100
AcDbEntity
8
1
62
256
6
ByLayer
370
18
48
1
60
0
100
AcDbSpline
70
4
71
3
72
16
73
12
40
0
40
0
40
0
40
0
40
0.0902629684777575
40
0.0902629684777575
40
0.613411511708547
40
0.613411511708547
40
0.744198647516245
40
0.744198647516245
40
0.874985783323943
40
0.874985783323943
40
1
40
1
40
1
40
1
41
1
10
52.4685563907991
20
0.0086175467295675
30
0
41
1
10
52.6537990825266
20
-0.0921966661909437
30
0
41
1
10
52.8394499010777
20
-0.193248165818517
30
0
41
1
10
54.0981259833432
20
-0.876496088802895
30
0
41
1
10
55.1574491259018
20
-1.44218217821242
30
0
41
1
10
56.4929540680677
20
-2.07679420694373
30
0
41
1
10
56.7605984628307
20
-2.20012850594884
30
0
41
1
10
57.2977106351567
20
-2.43835679495157
30
0
41
1
10
57.5667515021072
20
-2.55296222302928
30
0
41
1
10
58.0917235183724
20
-2.76603652023115
30
0
41
1
10
58.3481345781464
20
-2.86525185427334
30
0
41
1
10
58.6046413115387
20
-2.95907379563658
30
0
0
SPLINE
5
D9
100
AcDbEntity
8
1
62
256
6
ByLayer
370
13
48
1
60
0
100
AcDbSpline
70
4
71
3
72
14
73
10
40
0
40
0
40
0
40
0
40
0.120014311284236
40
0.120014311284236
40
0.34989574320704
40
0.34989574320704
40
0.579777175129845
40
0.579777175129845
40
1
40
1
40
1
40
1
41
1
10
58.6046403720873
20
-2.95907345201536
30
0
41
1
10
58.8848374060895
20
-3.06156056048391
30
0
41
1
10
59.1651486017739
20
-3.1576120322037
30
0
41
1
10
59.9836527964359
20
-3.4170740216907
30
0
41
1
10
60.5191777495743
20
-3.56070740940282
30
0
41
1
10
61.5919779029127
20
-3.78893961912814
30
0
41
1
10
62.130762853663
20
-3.8737505849312
30
0
41
1
10
63.6404080397953
20
-4.02217797319321
30
0
41
1
10
64.6054331389419
20
-4.01239417588471
30
0
41
1
10
65.5771873995583
20
-3.89863294029982
30
0
0
SPLINE
5
DA
100
AcDbEntity
8
1
62
256
6
ByLayer
370
18
48
1
60
0
100
AcDbSpline
70
4
71
3
72
18
73
14
40
0
40
0
40
0
40
0
40
0.0207259280171889
40
0.0207259280171889
40
0.168781712508514
40
0.168781712508514
40
0.464893281491156
40
0.464893281491156
40
0.7610048504738
40
0.7610048504738
40
0.909060634965121
40
0.909060634965121
40
1
40
1
40
1
40
1
41
1
10
98.4879774762762
20
-0.0017560486882076
30
0
41
1
10
98.5254890938062
20
-0.0223187214229199
30
0
41
1
10
98.5629808812666
20
-0.0428725983704794
30
0
41
1
10
98.8680624011463
20
-0.210127201899439
30
0
41
1
10
99.1345762872787
20
-0.356213402708875
30
0
41
1
10
99.9320636577636
20
-0.790294637001949
30
0
41
1
10
100.461069358052
20
-1.07394594369052
30
0
41
1
10
101.519119115936
20
-1.62044191068719
30
0
41
1
10
102.048135755324
20
-1.88332307800309
30
0
41
1
10
102.845885081769
20
-2.25458327280796
30
0
41
1
10
103.112512971024
20
-2.37448993561591
30
0
41
1
10
103.544678687789
20
-2.56076803106188
30
0
41
1
10
103.709541254819
20
-2.62993220626575
30
0
41
1
10
103.874150703302
20
-2.6969553215767
30
0
0
SPLINE
5
DB
100
AcDbEntity
8
1
62
256
6
ByLayer
370
13
48
1
60
0
100
AcDbSpline
70
4
71
3
72
16
73
12
40
0
40
0
40
0
40
0
40
0.0460036530294953
40
0.0460036530294953
40
0.523001826514753
40
0.523001826514753
40
0.761500913257377
40
0.761500913257377
40
0.880750456628688
40
0.880750456628688
40
1
40
1
40
1
40
1
41
1
10
103.874150703321
20
-2.69695532158482
30
0
41
1
10
103.977537199387
20
-2.73905062723881
30
0
41
1
10
104.080823846829
20
-2.78030134095818
30
0
41
1
10
105.252026681833
20
-3.23846916822896
30
0
41
1
10
106.304864607339
20
-3.55986248082371
30
0
41
1
10
107.894856484862
20
-3.86646572847385
30
0
41
1
10
108.426609062144
20
-3.93944508883828
30
0
41
1
10
109.231446678304
20
-4.00144210165607
30
0
41
1
10
109.499837959917
20
-4.01408287116783
30
0
41
1
10
110.035850399589
20
-4.0231113207561
30
0
41
1
10
110.303728498301
20
-4.01952364414731
30
0
41
1
10
110.571794719444
20
-4.00784322293728
30
0
0
SPLINE
5
DC
100
AcDbEntity
8
1
62
256
6
ByLayer
370
18
48
1
60
0
100
AcDbSpline
70
4
71
3
72
10
73
6
40
0
40
0
40
0
40
0
40
0.5
40
0.5
40
1
40
1
40
1
40
1
41
1
10
110.592259257828
20
1.03575975397501
30
0
41
1
10
110.801802459679
20
1.03308839636674
30
0
41
1
10
111.011223468785
20
1.03132866512152
30
0
41
1
10
111.42967195215
20
1.03074519315123
30
0
41
1
10
111.638756196803
20
1.03167386984035
30
0
41
1
10
111.84756881792
20
1.03373950145362
30
0
0
SPLINE
5
DD
100
AcDbEntity
8
1
62
256
6
ByLayer
370
18
48
1
60
0
100
AcDbSpline
70
4
71
3
72
8
73
4
40
0
40
0
40
0
40
0
40
1
40
1
40
1
40
1
41
1
10
9.12856024928249
20
-2.02558070677443
30
0
41
1
10
8.82069844094735
20
-2.2910916765334
30
0
41
1
10
8.52942452001199
20
-2.5447523646906
30
0
41
1
10
8.25051858418024
20
-2.77795916963174
30
0
0
SPLINE
5
DE
100
AcDbEntity
8
1
62
256
6
ByLayer
370
18
48
1
60
0
100
AcDbSpline
70
4
71
3
72
8
73
4
40
0
40
0
40
0
40
0
40
1
40
1
40
1
40
1
41
1
10
111.999933263373
20
0.0470933707389349
30
0
41
1
10
111.992032494284
20
0.0234020744410941
30
0
41
1
10
111.981904588083
20
-0.0007154963820142
30
0
41
1
10
111.971862129618
20
-0.0193746873927978
30
0
0
SPLINE
5
DF
100
AcDbEntity
8
1
62
256
6
ByLayer
370
18
48
1
60
0
100
AcDbSpline
70
4
71
3
72
10
73
6
40
0
40
0
40
0
40
0
40
0.5
40
0.5
40
1
40
1
40
1
40
1
41
1
10
8.25051858514766
20
2.77795916882283
30
0
41
1
10
8.41411800061138
20
2.64116574827179
30
0
41
1
10
8.58324014329196
20
2.49623321024734
30
0
41
1
10
8.92996327535661
20
2.19728017929765
30
0
41
1
10
9.10771308639414
20
2.04313321535821
30
0
41
1
10
9.29069204522477
20
1.88603963012937
30
0
0
SPLINE
5
E0
100
AcDbEntity
8
1
62
256
6
ByLayer
370
18
48
1
60
0
100
AcDbSpline
70
4
71
3
72
16
73
12
40
0
40
0
40
0
40
0
40
0.124999999999992
40
0.124999999999992
40
0.249999999999985
40
0.249999999999985
40
0.49999999999999
40
0.49999999999999
40
0.749999999999995
40
0.749999999999995
40
1
40
1
40
1
40
1
41
1
10
8.00099444416563
20
3.09210247217396
30
0
41
1
10
8.00260506581867
20
3.08210151800881
30
0
41
1
10
8.00635157692633
20
3.06996367344183
30
0
41
1
10
8.01797208874518
20
3.04318365888719
30
0
41
1
10
8.02599402279526
20
3.02820601828537
30
0
41
1
10
8.05406637870465
20
2.98274027729207
30
0
41
1
10
8.07800519108517
20
2.9515712553063
30
0
41
1
10
8.12682951488995
20
2.89465988071532
30
0
41
1
10
8.15184141393868
20
2.86858202437711
30
0
41
1
10
8.20177767784364
20
2.82014776454042
30
0
41
1
10
8.22632037433681
20
2.79819246866734
30
0
41
1
10
8.25051858350702
20
2.77795917019463
30
0
0
SPLINE
5
E1
100
AcDbEntity
8
1
62
256
6
ByLayer
370
18
48
1
60
0
100
AcDbSpline
70
4
71
3
72
42
73
38
40
0
40
0
40
0
40
0
40
0.0339373853406919
40
0.0339373853406919
40
0.0678747706813838
40
0.0678747706813838
40
0.135749541362765
40
0.135749541362765
40
0.203624312044146
40
0.203624312044146
40
0.237561697384837
40
0.237561697384837
40
0.271499082725527
40
0.271499082725527
40
0.407248624088292
40
0.407248624088292
40
0.441186009428985
40
0.441186009428985
40
0.475123394769678
40
0.475123394769678
40
0.542998165451063
40
0.542998165451063
40
0.610872936132448
40
0.610872936132448
40
0.644810321473139
40
0.644810321473139
40
0.678747706813831
40
0.678747706813831
40
0.814497248176596
40
0.814497248176596
40
0.88237201885798
40
0.88237201885798
40
0.91630940419867
40
0.91630940419867
40
0.950246789539361
40
0.950246789539361
40
1
40
1
40
1
40
1
41
1
10
110.519884864968
20
-4.13882729991587
30
0
41
1
10
110.252100548208
20
-4.14976969251356
30
0
41
1
10
109.984357077998
20
-4.15235943489552
30
0
41
1
10
109.448285129092
20
-4.1408709858334
30
0
41
1
10
109.179437996122
20
-4.12673979615772
30
0
41
1
10
108.375473992832
20
-4.05969753087351
30
0
41
1
10
107.843256980424
20
-3.98231253056966
30
0
41
1
10
106.779956137926
20
-3.76656723953852
30
0
41
1
10
106.24892625002
20
-3.62818198552253
30
0
41
1
10
105.448702824404
20
-3.37819784737101
30
0
41
1
10
105.181338382637
20
-3.28781565808973
30
0
41
1
10
104.644634804947
20
-3.09346632915907
30
0
41
1
10
104.37646609817
20
-2.98988746887565
30
0
41
1
10
103.042440169619
20
-2.44590754609115
30
0
41
1
10
101.989010406727
20
-1.92470265547712
30
0
41
1
10
100.659017241323
20
-1.21351087079916
30
0
41
1
10
100.392365013024
20
-1.06828384920433
30
0
41
1
10
99.8570812468671
20
-0.772886869361514
30
0
41
1
10
99.5879113817305
20
-0.622498647481819
30
0
41
1
10
98.7855766626285
20
-0.171153317185627
30
0
41
1
10
98.2545643369566
20
0.13101274174474
30
0
41
1
10
97.1944194823905
20
0.7274549005312
30
0
41
1
10
96.6652811153415
20
1.02171791137832
30
0
41
1
10
95.868498160443
20
1.44922731707942
30
0
41
1
10
95.602402995217
20
1.58943630298552
30
0
41
1
10
95.068379717228
20
1.86379761925204
30
0
41
1
10
94.7997713253437
20
1.99825761384977
30
0
41
1
10
93.4584302088926
20
2.64829323623749
30
0
41
1
10
92.4034073943847
20
3.09057295597657
30
0
41
1
10
90.8113581144947
20
3.59421092286038
30
0
41
1
10
90.2791881163969
20
3.7355825040284
30
0
41
1
10
89.473960580103
20
3.90247892780678
30
0
41
1
10
89.2055183628207
20
3.95031976848978
30
0
41
1
10
88.6715091508384
20
4.02956757747253
30
0
41
1
10
88.405399243721
20
4.06110691815766
30
0
41
1
10
87.7503702527725
20
4.11886843179983
30
0
41
1
10
87.3620154936032
20
4.13575504102883
30
0
41
1
10
86.97353379613
20
4.13518005918789
30
0
0
SPLINE
5
E2
100
AcDbEntity
8
1
62
256
6
ByLayer
370
18
48
1
60
0
100
AcDbSpline
70
4
71
3
72
48
73
44
40
0
40
0
40
0
40
0
40
0.0230845215102018
40
0.0230845215102018
40
0.0546203038305129
40
0.0546203038305129
40
0.086156086150824
40
0.086156086150824
40
0.149227650791448
40
0.149227650791448
40
0.180763433111759
40
0.180763433111759
40
0.212299215432071
40
0.212299215432071
40
0.275370780072693
40
0.275370780072693
40
0.338442344713315
40
0.338442344713315
40
0.369978127033626
40
0.369978127033626
40
0.401513909353936
40
0.401513909353936
40
0.527657038635178
40
0.527657038635178
40
0.559192820955489
40
0.559192820955489
40
0.574960712115645
40
0.574960712115645
40
0.590728603275801
40
0.590728603275801
40
0.653800167916424
40
0.653800167916424
40
0.779943297197669
40
0.779943297197669
40
0.811479079517979
40
0.811479079517979
40
0.84301486183829
40
0.84301486183829
40
0.906086426478912
40
0.906086426478912
40
0.969157991119533
40
0.969157991119533
40
1
40
1
40
1
40
1
41
1
10
66.3582620858822
20
-3.90750346230368
30
0
41
1
10
66.1640747270708
20
-3.94223229230184
30
0
41
1
10
65.9697767408257
20
-3.97285000846205
30
0
41
1
10
65.5094328273144
20
-4.03532579326512
30
0
41
1
10
65.2431998493773
20
-4.06356230384765
30
0
41
1
10
64.7090243988695
20
-4.10384399430953
30
0
41
1
10
64.4408197599757
20
-4.11589057022363
30
0
41
1
10
63.6340346311819
20
-4.12700983587135
30
0
41
1
10
63.0985350082221
20
-4.10102963023283
30
0
41
1
10
62.293945650196
20
-4.01314115931376
30
0
41
1
10
62.0255479186806
20
-3.97569109408064
30
0
41
1
10
61.4876000431995
20
-3.88465915419829
30
0
41
1
10
61.2195691686585
20
-3.83134384631774
30
0
41
1
10
60.418222018999
20
-3.64954869789972
30
0
41
1
10
59.8873913282023
20
-3.498920718374
30
0
41
1
10
58.8260761863648
20
-3.14574302902113
30
0
41
1
10
58.2957676624565
20
-2.94301217805417
30
0
41
1
10
57.4961175943776
20
-2.60499275961695
30
0
41
1
10
57.2289114186387
20
-2.48661218511523
30
0
41
1
10
56.6923920033933
20
-2.23932884168784
30
0
41
1
10
56.4229534099268
20
-2.11040951077112
30
0
41
1
10
55.0844897493487
20
-1.45028462797515
30
0
41
1
10
54.0289194003188
20
-0.866510538080519
30
0
41
1
10
52.6983753161232
20
-0.120399828316749
30
0
41
1
10
52.4317172883836
20
0.0296486568699379
30
0
41
1
10
52.0303340532318
20
0.254943304286513
30
0
41
1
10
51.8963059957308
20
0.330076649718535
30
0
41
1
10
51.6277018967776
20
0.480272323231532
30
0
41
1
10
51.4930204708776
20
0.555387379766131
30
0
41
1
10
50.821860330607
20
0.927996424173557
30
0
41
1
10
50.2892201105594
20
1.21832690642168
30
0
41
1
10
48.6954665606172
20
2.05193172229653
30
0
41
1
10
47.6381762186078
20
2.55718166471635
30
0
41
1
10
46.2933767218113
20
3.0778120896135
30
0
41
1
10
46.024854073322
20
3.17566307214341
30
0
41
1
10
45.490225706805
20
3.35743308084611
30
0
41
1
10
45.2238033871005
20
3.44153546849438
30
0
41
1
10
44.4258856800719
20
3.67243706123838
30
0
41
1
10
43.8957341067062
20
3.79785759158091
30
0
41
1
10
42.8334230231612
20
3.98767304584024
30
0
41
1
10
42.301162630622
20
4.0519874283967
30
0
41
1
10
41.5024556169321
20
4.0991379017571
30
0
41
1
10
41.2386925663421
20
4.10677290023619
30
0
41
1
10
40.9764908209261
20
4.10644773520323
30
0
0
SPLINE
5
E3
100
AcDbEntity
8
1
62
256
6
ByLayer
370
18
48
1
60
0
100
AcDbSpline
70
4
71
3
72
24
73
20
40
0
40
0
40
0
40
0
40
0.214043815111194
40
0.214043815111194
40
0.345036512592661
40
0.345036512592661
40
0.410532861333395
40
0.410532861333395
40
0.476029210074129
40
0.476029210074129
40
0.541525558814862
40
0.541525558814862
40
0.607021907555596
40
0.607021907555596
40
0.738014605037064
40
0.738014605037064
40
0.869007302518532
40
0.869007302518532
40
1
40
1
40
1
40
1
41
1
10
20.3634807793482
20
-3.87926118915183
30
0
41
1
10
19.4882084474177
20
-4.03494734062818
30
0
41
1
10
18.6227463464692
20
-4.10574025149023
30
0
41
1
10
17.2218763981406
20
-4.08021679945486
30
0
41
1
10
16.6889272449631
20
-4.03810165596622
30
0
41
1
10
15.8829047091471
20
-3.92607888158639
30
0
41
1
10
15.6131070839178
20
-3.88051170378421
30
0
41
1
10
15.0754208557924
20
-3.774172818328
30
0
41
1
10
14.8069131089664
20
-3.71334425336752
30
0
41
1
10
14.2697868664383
20
-3.57701432351033
30
0
41
1
10
14.0012235432311
20
-3.50146751468134
30
0
41
1
10
13.4632975430825
20
-3.3362334492584
30
0
41
1
10
13.1934821594331
20
-3.24638178293594
30
0
41
1
10
12.3885868803984
20
-2.95944326981245
30
0
41
1
10
11.8561352251117
20
-2.74438522592465
30
0
41
1
10
10.7935383346159
20
-2.27591658500913
30
0
41
1
10
10.2636203689995
20
-2.02215239708184
30
0
41
1
10
9.20005708457597
20
-1.48554912116697
30
0
41
1
10
8.66634489453298
20
-1.20287743137172
30
0
41
1
10
8.12810960897599
20
-0.909778125797175
30
0
0
SPLINE
5
E4
100
AcDbEntity
8
1
62
256
6
ByLayer
370
18
48
1
60
0
100
AcDbSpline
70
4
71
3
72
31
73
27
40
0
40
0
40
0
40
0
40
0.0246308875473838
40
0.0246308875473838
40
0.144024270262555
40
0.144024270262555
40
0.263417652977727
40
0.263417652977727
40
0.50220441840807
40
0.50220441840807
40
0.532052764086863
40
0.532052764086863
40
0.539514850506562
40
0.539514850506562
40
0.54697693692626
40
0.54697693692626
40
0.554439023345958
40
0.554439023345958
40
0.561901109765656
40
0.621597801123242
40
0.621597801123242
40
0.740991183838414
40
0.740991183838414
40
0.979777949268758
40
0.979777949268758
40
1
40
1
40
1
40
1
41
1
10
9.29069204522477
20
2.0500532934002
30
0
41
1
10
9.29069204522477
20
2.02839368761823
30
0
41
1
10
9.29069204522477
20
2.0070049045577
30
0
41
1
10
9.29069204522477
20
1.88350600931488
30
0
41
1
10
9.29069204522477
20
1.78747142572681
30
0
41
1
10
9.29069204522477
20
1.60791818866642
30
0
41
1
10
9.29069204522477
20
1.52435783246941
30
0
41
1
10
9.29069204522477
20
1.29425506122334
30
0
41
1
10
9.29069204522477
20
1.16742340336629
30
0
41
1
10
9.29069204522477
20
1.05448640325952
30
0
41
1
10
9.2906920452248
20
1.0423535337886
30
0
41
1
10
9.2906920452248
20
1.0277094573355
30
0
41
1
10
9.29069204522477
20
1.02443751629536
30
0
41
1
10
9.29069204522477
20
1.02060154715295
30
0
41
1
10
9.29069204522611
20
1.01987692507564
30
0
41
1
10
9.29069204522611
20
1.02170041934318
30
0
41
1
10
9.29069204522477
20
1.02500059016478
30
0
41
1
10
9.29069204522477
20
1.03181191562945
30
0
41
1
10
9.29069204522477
20
1.06264982522319
30
0
41
1
10
9.29069204522477
20
1.09517468562552
30
0
41
1
10
9.29069204522477
20
1.18601391132202
30
0
41
1
10
9.29069204522477
20
1.25204293846201
30
0
41
1
10
9.29069204522477
20
1.46757544244588
30
0
41
1
10
9.29069204522477
20
1.63379306313723
30
0
41
1
10
9.29069204522474
20
1.84200075708281
30
0
41
1
10
9.29069204522477
20
1.85844719211119
30
0
41
1
10
9.29069204522477
20
1.87508471391698
30
0
0
SPLINE
5
E5
100
AcDbEntity
8
1
62
256
6
ByLayer
370
18
48
1
60
0
100
AcDbSpline
70
4
71
3
72
14
73
10
40
0
40
0
40
0
40
0
40
0.155183632249067
40
0.155183632249067
40
0.310367264498135
40
0.310367264498135
40
0.620734528996256
40
0.620734528996256
40
1
40
1
40
1
40
1
41
1
10
110.589340501283
20
-3.91595364615424
30
0
41
1
10
110.32139800558
20
-3.9236249553004
30
0
41
1
10
110.053628127853
20
-3.92339746003376
30
0
41
1
10
109.517844318473
20
-3.90715490918438
30
0
41
1
10
109.249507484863
20
-3.89110587356416
30
0
41
1
10
108.445390861637
20
-3.81966504444486
30
0
41
1
10
107.913872017413
20
-3.74139973724547
30
0
41
1
10
106.736474731262
20
-3.50479023117418
30
0
41
1
10
106.091460361112
20
-3.33249546407288
30
0
41
1
10
105.444005310859
20
-3.12286041970629
30
0
0
SPLINE
5
E6
100
AcDbEntity
8
1
62
256
6
ByLayer
370
13
48
1
60
0
100
AcDbSpline
70
4
71
3
72
22
73
18
40
0
40
0
40
0
40
0
40
0.122040694346188
40
0.122040694346188
40
0.20047194956283
40
0.20047194956283
40
0.278903204779473
40
0.278903204779473
40
0.435765715212757
40
0.435765715212757
40
0.592628225646042
40
0.592628225646042
40
0.671059480862681
40
0.671059480862681
40
0.74949073607932
40
0.74949073607932
40
1
40
1
40
1
40
1
41
1
10
105.444005109514
20
-3.12286035451405
30
0
41
1
10
105.03178636645
20
-2.98939086102436
30
0
41
1
10
104.618578279726
20
-2.84078527563975
30
0
41
1
10
103.936096801264
20
-2.57386039489123
30
0
41
1
10
103.667364109887
20
-2.46335786441529
30
0
41
1
10
103.132323565297
20
-2.23393252123142
30
0
41
1
10
102.86583668563
20
-2.11498558530036
30
0
41
1
10
102.068390380181
20
-1.74737352410853
30
0
41
1
10
101.539443293139
20
-1.48790987995363
30
0
41
1
10
100.481451605195
20
-0.950155054804611
30
0
41
1
10
99.9523972338048
20
-0.671890159993552
30
0
41
1
10
99.1549341272979
20
-0.247314561164586
30
0
41
1
10
98.8884514215382
20
-0.104620208125851
30
0
41
1
10
98.3533242430533
20
0.181535049498876
30
0
41
1
10
98.0844618977164
20
0.325066785944699
30
0
41
1
10
96.9640102613737
20
0.919713599423261
30
0
41
1
10
96.1199535714791
20
1.35782521827963
30
0
41
1
10
95.2738745333153
20
1.76132973650891
30
0
0
SPLINE
5
E7
100
AcDbEntity
8
1
62
256
6
ByLayer
370
18
48
1
60
0
100
AcDbSpline
70
4
71
3
72
14
73
10
40
0
40
0
40
0
40
0
40
0.308282743051127
40
0.308282743051127
40
0.63075577163356
40
0.63075577163356
40
0.953228800215995
40
0.953228800215995
40
1
40
1
40
1
40
1
41
1
10
64.2187005817313
20
-3.89277892616326
30
0
41
1
10
63.7118065775099
20
-3.8933878117027
30
0
41
1
10
63.2044536767709
20
-3.86603741240029
30
0
41
1
10
62.1605214666769
20
-3.75258594564929
30
0
41
1
10
61.622094580851
20
-3.66318107684666
30
0
41
1
10
60.5498868077823
20
-3.42799095000069
30
0
41
1
10
60.0146078281838
20
-3.28193452286629
30
0
41
1
10
59.3991821658823
20
-3.08527692559522
30
0
41
1
10
59.3212633647104
20
-3.05984671607976
30
0
41
1
10
59.2433726341938
20
-3.03390950901092
30
0
0
SPLINE
5
E8
100
AcDbEntity
8
1
62
256
6
ByLayer
370
13
48
1
60
0
100
AcDbSpline
70
4
71
3
72
22
73
18
40
0
40
0
40
0
40
0
40
0.136641539427008
40
0.136641539427008
40
0.216552527367262
40
0.216552527367262
40
0.296463515307517
40
0.296463515307517
40
0.616107467068538
40
0.616107467068538
40
0.696018455008794
40
0.696018455008794
40
0.77592944294905
40
0.77592944294905
40
0.93575141882956
40
0.93575141882956
40
1
40
1
40
1
40
1
41
1
10
59.2433726347176
20
-3.03390950918538
30
0
41
1
10
58.7842307491717
20
-2.88101765569607
30
0
41
1
10
58.3260642458243
20
-2.71050895707998
30
0
41
1
10
57.5990677129529
20
-2.41661875444015
30
0
41
1
10
57.330161989098
20
-2.30279096145506
30
0
41
1
10
56.7934346944404
20
-2.06669727957771
30
0
41
1
10
56.5259361611452
20
-1.94468905952377
30
0
41
1
10
55.1910083932173
20
-1.31796067903235
30
0
41
1
10
54.1317285598692
20
-0.762461132531172
30
0
41
1
10
52.7904603907997
20
-0.0514774799664508
30
0
41
1
10
52.5213966339126
20
0.0915397557586175
30
0
41
1
10
51.9864352238924
20
0.374933454358711
30
0
41
1
10
51.7198375160726
20
0.51567979610914
30
0
41
1
10
50.9216460754677
20
0.933159288512371
30
0
41
1
10
50.3915851913541
20
1.20491814780658
30
0
41
1
10
49.6477190205867
20
1.57029825466427
30
0
41
1
10
49.4343197042032
20
1.67320180282485
30
0
41
1
10
49.2206456849057
20
1.77394888874497
30
0
0
SPLINE
5
E9
100
AcDbEntity
8
1
62
256
6
ByLayer
370
18
48
1
60
0
100
AcDbSpline
70
4
71
3
72
16
73
12
40
0
40
0
40
0
40
0
40
0.0766040913957525
40
0.0766040913957525
40
0.452121289828841
40
0.452121289828841
40
0.639879889045387
40
0.639879889045387
40
0.827638488261935
40
0.827638488261935
40
1
40
1
40
1
40
1
41
1
10
18.1994285440218
20
-3.86397935208623
30
0
41
1
10
18.0910208873144
20
-3.86395166051196
30
0
41
1
10
17.9825675092867
20
-3.8626496084851
30
0
41
1
10
17.3420616856066
20
-3.84741404000715
30
0
41
1
10
16.8085979505038
20
-3.8042352076441
30
0
41
1
10
16.0016547950138
20
-3.6931165861063
30
0
41
1
10
15.7330108205774
20
-3.64856097659285
30
0
41
1
10
15.1981382102191
20
-3.54548023119858
30
0
41
1
10
14.9315099926428
20
-3.48690027914913
30
0
41
1
10
14.4209368165019
20
-3.36175218613906
30
0
41
1
10
14.1769701833126
20
-3.29622168685523
30
0
41
1
10
13.9331384096417
20
-3.22536900807475
30
0
0
SPLINE
5
EA
100
AcDbEntity
8
1
62
256
6
ByLayer
370
13
48
1
60
0
100
AcDbSpline
70
4
71
3
72
14
73
10
40
0
40
0
40
0
40
0
40
0.435188078460768
40
0.435188078460768
40
0.576391058845578
40
0.576391058845578
40
0.717594039230385
40
0.717594039230385
40
1
40
1
40
1
40
1
41
1
10
13.9331374466429
20
-3.22536872824637
30
0
41
1
10
13.1145162881267
20
-2.98749360364749
30
0
41
1
10
12.2974152073377
20
-2.68962903724744
30
0
41
1
10
11.2036641914622
20
-2.23118425999172
30
0
41
1
10
10.9342300004442
20
-2.11351484464495
30
0
41
1
10
10.3966032322986
20
-1.87048558388295
30
0
41
1
10
10.1283338087047
20
-1.74516217661349
30
0
41
1
10
9.32391332880098
20
-1.35990237318637
30
0
41
1
10
8.78809501317252
20
-1.09076637939782
30
0
41
1
10
8.2502848876498
20
-0.813592833681753
30
0
0
SPLINE
5
EB
100
AcDbEntity
8
1
62
256
6
ByLayer
370
18
48
1
60
0
100
AcDbSpline
70
4
71
3
72
8
73
4
40
0
40
0
40
0
40
0
40
1
40
1
40
1
40
1
41
1
10
111.146585617523
20
-2.18936829271701
30
0
41
1
10
110.937383755692
20
-2.76414568420555
30
0
41
1
10
110.728181893861
20
-3.33892307569388
30
0
41
1
10
110.51898003203
20
-3.9137004671818
30
0
0
SPLINE
5
EC
100
AcDbEntity
8
1
62
256
6
ByLayer
370
18
48
1
60
0
100
AcDbSpline
70
4
71
3
72
14
73
10
40
0
40
0
40
0
40
0
40
0.250000000000001
40
0.250000000000001
40
0.500000000000001
40
0.500000000000001
40
0.75
40
0.75
40
1
40
1
40
1
40
1
41
1
10
110.485789483862
20
0.921344893154554
30
0
41
1
10
110.48185377826
20
0.936407877027335
30
0
41
1
10
110.480537194475
20
0.952289113208906
30
0
41
1
10
110.486498921272
20
0.982547978784908
30
0
41
1
10
110.494168027087
20
0.996935890727116
30
0
41
1
10
110.516946441994
20
1.01864987789517
30
0
41
1
10
110.531286117895
20
1.02579609378122
30
0
41
1
10
110.561034690247
20
1.03436866909178
30
0
41
1
10
110.57669889389
20
1.03595812499313
30
0
41
1
10
110.592259257826
20
1.03575975398289
30
0
0
SPLINE
5
ED
100
AcDbEntity
8
1
62
256
6
ByLayer
370
18
48
1
60
0
100
AcDbSpline
70
4
71
3
72
8
73
4
40
0
40
0
40
0
40
0
40
1
40
1
40
1
40
1
41
1
10
8.00255523063115
20
-0.730812490000659
30
0
41
1
10
8.00150795860839
20
-0.723653082489506
30
0
41
1
10
8.00097522637648
20
-0.716398410484629
30
0
41
1
10
8.00097529481701
20
-0.709158377565927
30
0
0
SPLINE
5
EE
100
AcDbEntity
8
1
62
256
6
ByLayer
370
18
48
1
60
0
100
AcDbSpline
70
4
71
3
72
8
73
4
40
0
40
0
40
0
40
0
40
1
40
1
40
1
40
1
41
1
10
111.84756881792
20
1.03373950145362
30
0
41
1
10
111.895261132041
20
0.742640693929161
30
0
41
1
10
111.937686576993
20
0.451584387819253
30
0
41
1
10
111.974811842144
20
0.160570851926678
30
0
0
SPLINE
5
EF
100
AcDbEntity
8
1
62
256
6
ByLayer
370
18
48
1
60
0
100
AcDbSpline
70
4
71
3
72
104
73
100
40
0
40
0
40
0
40
0
40
0.0193764588936289
40
0.0193764588936289
40
0.0448049821110979
40
0.0448049821110979
40
0.070233505328567
40
0.070233505328567
40
0.0956620285460361
40
0.0956620285460361
40
0.108376290154771
40
0.108376290154771
40
0.121090551763505
40
0.121090551763505
40
0.146519074980976
40
0.146519074980976
40
0.171947598198447
40
0.171947598198447
40
0.197376121415919
40
0.197376121415919
40
0.22280464463339
40
0.22280464463339
40
0.248233167850861
40
0.248233167850861
40
0.273661691068332
40
0.273661691068332
40
0.286375952677069
40
0.286375952677069
40
0.299090214285806
40
0.299090214285806
40
0.324518737503277
40
0.324518737503277
40
0.349947260720748
40
0.349947260720748
40
0.362661522329485
40
0.362661522329485
40
0.375375783938221
40
0.375375783938221
40
0.400804307155692
40
0.400804307155692
40
0.426232830373164
40
0.426232830373164
40
0.451661353590635
40
0.451661353590635
40
0.477089876808106
40
0.477089876808106
40
0.502518400025577
40
0.502518400025577
40
0.527946923243048
40
0.527946923243048
40
0.540661184851784
40
0.540661184851784
40
0.55337544646052
40
0.55337544646052
40
0.578803969677991
40
0.578803969677991
40
0.604232492895462
40
0.604232492895462
40
0.616946754504198
40
0.616946754504198
40
0.629661016112933
40
0.629661016112933
40
0.655089539330404
40
0.655089539330404
40
0.680518062547876
40
0.680518062547876
40
0.693232324156611
40
0.693232324156611
40
0.705946585765347
40
0.705946585765347
40
0.731375108982819
40
0.731375108982819
40
0.756803632200292
40
0.756803632200292
40
0.769517893809028
40
0.769517893809028
40
0.782232155417764
40
0.782232155417764
40
0.807660678635237
40
0.807660678635237
40
0.83308920185271
40
0.83308920185271
40
0.845803463461447
40
0.845803463461447
40
0.858517725070184
40
0.858517725070184
40
0.883946248287657
40
0.883946248287657
40
0.909374771505131
40
0.909374771505131
40
0.934803294722604
40
0.934803294722604
40
0.947517556331341
40
0.947517556331341
40
0.960231817940078
40
0.960231817940078
40
0.985660341157551
40
0.985660341157551
40
1
40
1
40
1
40
1
41
1
10
101.126016053758
20
-1.98268335697844
30
0
41
1
10
100.929977122757
20
-2.07327173078957
30
0
41
1
10
100.734140825499
20
-2.16180271871761
30
0
41
1
10
100.281095455806
20
-2.36048036860009
30
0
41
1
10
100.023571915087
20
-2.46813596888705
30
0
41
1
10
99.5092922408873
20
-2.6754646394389
30
0
41
1
10
99.2517736292948
20
-2.77411484121143
30
0
41
1
10
98.7371682777911
20
-2.96133434958588
30
0
41
1
10
98.4801044154698
20
-3.04981859886251
30
0
41
1
10
98.0941579968044
20
-3.17316760831329
30
0
41
1
10
97.9653398966576
20
-3.21277830217491
30
0
41
1
10
97.7076994673164
20
-3.28923045462997
30
0
41
1
10
97.5787362232596
20
-3.32587914399284
30
0
41
1
10
97.1929370321746
20
-3.43191586538657
30
0
41
1
10
96.9361385601421
20
-3.49636595526349
30
0
41
1
10
96.4212920476397
20
-3.61020273486486
30
0
41
1
10
96.163538808095
20
-3.66114184771982
30
0
41
1
10
95.6489665236918
20
-3.74985375176678
30
0
41
1
10
95.3918396555811
20
-3.787099843726
30
0
41
1
10
94.8767811514091
20
-3.84613744613807
30
0
41
1
10
94.619676102962
20
-3.86931363311797
30
0
41
1
10
94.1046649726002
20
-3.90176132698281
30
0
41
1
10
93.8473792596917
20
-3.9105033085423
30
0
41
1
10
93.3330940106197
20
-3.91185896576891
30
0
41
1
10
93.0758669500528
20
-3.90561105333623
30
0
41
1
10
92.6892670041498
20
-3.88653077012938
30
0
41
1
10
92.5602955466904
20
-3.87842867472583
30
0
41
1
10
92.3033174135924
20
-3.85800907733358
30
0
41
1
10
92.1748897786005
20
-3.84576971603948
30
0
41
1
10
91.7892751083071
20
-3.80372939830977
30
0
41
1
10
91.531861344115
20
-3.76900586976109
30
0
41
1
10
91.0168647383027
20
-3.6866386420898
30
0
41
1
10
90.7596921385006
20
-3.63816994375733
30
0
41
1
10
90.3738698862954
20
-3.55497715540156
30
0
41
1
10
90.2452103987894
20
-3.52560575929186
30
0
41
1
10
89.9877433093234
20
-3.46407524269523
30
0
41
1
10
89.8593618689304
20
-3.43159093809101
30
0
41
1
10
89.4736081600092
20
-3.32982049522593
30
0
41
1
10
89.2158173206058
20
-3.25590038744073
30
0
41
1
10
88.7014143610669
20
-3.09493558633068
30
0
41
1
10
88.4444945331503
20
-3.00847294438839
30
0
41
1
10
87.9300651686087
20
-2.82579930442412
30
0
41
1
10
87.6718083143804
20
-2.72979872225838
30
0
41
1
10
87.1579768364703
20
-2.52488075762238
30
0
41
1
10
86.9008521513192
20
-2.41824775372132
30
0
41
1
10
86.3862310310454
20
-2.19736838698881
30
0
41
1
10
86.1287451232781
20
-2.08213911891761
30
0
41
1
10
85.6142187427396
20
-1.8436131155639
30
0
41
1
10
85.3568986897437
20
-1.72140683845439
30
0
41
1
10
84.9707427784958
20
-1.53438528416311
30
0
41
1
10
84.8424295134224
20
-1.47063853959836
30
0
41
1
10
84.5852619253872
20
-1.34238167242947
30
0
41
1
10
84.4565318190639
20
-1.27752713865954
30
0
41
1
10
84.0700929443221
20
-1.08129534248872
30
0
41
1
10
83.8127531929059
20
-0.948573254871604
30
0
41
1
10
83.29830418814
20
-0.680058921612044
30
0
41
1
10
83.0411322166841
20
-0.544361723150132
30
0
41
1
10
82.6544865844393
20
-0.33982420249373
30
0
41
1
10
82.5255881862855
20
-0.271312130860736
30
0
41
1
10
82.2683706916322
20
-0.133581856391714
30
0
41
1
10
82.1397287900477
20
-0.0648289595524147
30
0
41
1
10
81.7536447474542
20
0.140978442709184
30
0
41
1
10
81.4961498082426
20
0.277788301401415
30
0
41
1
10
80.9812174991765
20
0.550985662056235
30
0
41
1
10
80.7236054745574
20
0.687199430820897
30
0
41
1
10
80.3371459022985
20
0.888096970234443
30
0
41
1
10
80.2081777613174
20
0.954358877963529
30
0
41
1
10
79.9507583697276
20
1.08688173059542
30
0
41
1
10
79.8223301060042
20
1.15314949510869
30
0
41
1
10
79.4363241317655
20
1.3488797590575
30
0
41
1
10
79.1782266711376
20
1.47653200944242
30
0
41
1
10
78.662982161259
20
1.72695905343309
30
0
41
1
10
78.4057607849131
20
1.84964794455811
30
0
41
1
10
78.0195403840381
20
2.02703711518814
30
0
41
1
10
77.890711076778
20
2.08504324365543
30
0
41
1
10
77.6328041703853
20
2.19913212861715
30
0
41
1
10
77.5039420363571
20
2.25563549603854
30
0
41
1
10
77.1177388376384
20
2.42209139306172
30
0
41
1
10
76.8600904527163
20
2.5284344835859
30
0
41
1
10
76.3450743729752
20
2.73058528947848
30
0
41
1
10
76.0876811736134
20
2.82644781730451
30
0
41
1
10
75.7010191132434
20
2.96327514375815
30
0
41
1
10
75.572144933349
20
3.00749842308372
30
0
41
1
10
75.3143710137157
20
3.09298062987094
30
0
41
1
10
75.1853302241229
20
3.13410898819618
30
0
41
1
10
74.7995345255988
20
3.25388530210233
30
0
41
1
10
74.5422693196361
20
3.32682273857793
30
0
41
1
10
74.0265749178079
20
3.46157889791098
30
0
41
1
10
73.7687735895524
20
3.52319813131194
30
0
41
1
10
73.2540260159382
20
3.63212714622577
30
0
41
1
10
72.99666128515
20
3.67899688665179
30
0
41
1
10
72.6098057802988
20
3.74004201562636
30
0
41
1
10
72.481112888585
20
3.75896519582727
30
0
41
1
10
72.22354175005
20
3.79302137238707
30
0
41
1
10
72.0947702062524
20
3.80815193131929
30
0
41
1
10
71.708395292986
20
3.84794683158526
30
0
41
1
10
71.450922752545
20
3.86729180916461
30
0
41
1
10
71.0482196072703
20
3.88701742727568
30
0
41
1
10
70.90291971366
20
3.89187482693583
30
0
41
1
10
70.7575763165515
20
3.89437257169325
30
0
0
SPLINE
5
F0
100
AcDbEntity
8
1
62
256
6
ByLayer
370
18
48
1
60
0
100
AcDbSpline
70
4
71
3
72
106
73
102
40
0
40
0
40
0
40
0
40
0.0057186225908909
40
0.0057186225908909
40
0.0312483662398517
40
0.0312483662398517
40
0.0567781098888129
40
0.0567781098888129
40
0.0695429817132939
40
0.0695429817132939
40
0.0823078535377749
40
0.0823078535377749
40
0.107837597186737
40
0.107837597186737
40
0.133367340835699
40
0.133367340835699
40
0.158897084484661
40
0.158897084484661
40
0.171661956309142
40
0.171661956309142
40
0.184426828133622
40
0.184426828133622
40
0.209956571782583
40
0.209956571782583
40
0.235486315431544
40
0.235486315431544
40
0.261016059080506
40
0.261016059080506
40
0.286545802729467
40
0.286545802729467
40
0.312075546378428
40
0.312075546378428
40
0.324840418202908
40
0.324840418202908
40
0.337605290027389
40
0.337605290027389
40
0.36313503367635
40
0.36313503367635
40
0.388664777325311
40
0.388664777325311
40
0.401429649149792
40
0.401429649149792
40
0.414194520974272
40
0.414194520974272
40
0.439724264623234
40
0.439724264623234
40
0.465254008272197
40
0.465254008272197
40
0.478018880096678
40
0.478018880096678
40
0.49078375192116
40
0.49078375192116
40
0.516313495570124
40
0.516313495570124
40
0.541843239219088
40
0.541843239219088
40
0.567372982868052
40
0.567372982868052
40
0.580137854692534
40
0.580137854692534
40
0.592902726517016
40
0.592902726517016
40
0.618432470165981
40
0.618432470165981
40
0.643962213814946
40
0.643962213814946
40
0.656727085639428
40
0.656727085639428
40
0.669491957463911
40
0.669491957463911
40
0.695021701112875
40
0.695021701112875
40
0.720551444761839
40
0.720551444761839
40
0.733316316586321
40
0.733316316586321
40
0.746081188410803
40
0.746081188410803
40
0.771610932059767
40
0.771610932059767
40
0.797140675708731
40
0.797140675708731
40
0.822670419357695
40
0.822670419357695
40
0.848200163006659
40
0.848200163006659
40
0.873729906655623
40
0.873729906655623
40
0.886494778480105
40
0.886494778480105
40
0.899259650304587
40
0.899259650304587
40
0.924789393953552
40
0.924789393953552
40
0.950319137602517
40
0.950319137602517
40
0.975848881251483
40
0.975848881251483
40
0.988613753075965
40
0.988613753075965
40
1
40
1
40
1
40
1
41
1
10
55.1302547207623
20
-1.97038367428092
30
0
41
1
10
55.0725595370185
20
-1.99691299872188
30
0
41
1
10
55.014898480747
20
-2.0232691561859
30
0
41
1
10
54.6997312659493
20
-2.16580936009265
30
0
41
1
10
54.4420259559695
20
-2.27744769579053
30
0
41
1
10
53.9265601056012
20
-2.49327106590596
30
0
41
1
10
53.668593936145
20
-2.59757062537454
30
0
41
1
10
53.2820112837428
20
-2.74536330417539
30
0
41
1
10
53.1531691732565
20
-2.79301857589385
30
0
41
1
10
52.8953802340245
20
-2.88572158958601
30
0
41
1
10
52.7664132287644
20
-2.93080096825307
30
0
41
1
10
52.3804679165542
20
-3.06325152765052
30
0
41
1
10
52.122540099298
20
-3.14593176103628
30
0
41
1
10
51.6065977604204
20
-3.2985341964407
30
0
41
1
10
51.3491704034761
20
-3.36787639358505
30
0
41
1
10
50.8341779115903
20
-3.49583476585386
30
0
41
1
10
50.5763165025303
20
-3.55385812013361
30
0
41
1
10
50.1891580083557
20
-3.63033248756031
30
0
41
1
10
50.0605409012304
20
-3.65405859971662
30
0
41
1
10
49.8030284526697
20
-3.69756587854206
30
0
41
1
10
49.6742271002114
20
-3.71763371276074
30
0
41
1
10
49.2876747312561
20
-3.77314996803375
30
0
41
1
10
49.0300266820454
20
-3.80397907272163
30
0
41
1
10
48.5145504526978
20
-3.85074274700577
30
0
41
1
10
48.2567110801126
20
-3.86542854500405
30
0
41
1
10
47.7408532385413
20
-3.88268293008434
30
0
41
1
10
47.4836764803264
20
-3.88494259672049
30
0
41
1
10
46.9681197587757
20
-3.87425834349037
30
0
41
1
10
46.7098770769235
20
-3.86017994821995
30
0
41
1
10
46.1943119357729
20
-3.81966646722549
30
0
41
1
10
45.9368255837979
20
-3.79291463503651
30
0
41
1
10
45.5499379654208
20
-3.742121723238
30
0
41
1
10
45.4207539087428
20
-3.72340342234912
30
0
41
1
10
45.1628915967929
20
-3.68169945949254
30
0
41
1
10
45.0340573015506
20
-3.65890448608218
30
0
41
1
10
44.6472846268085
20
-3.58654138165187
30
0
41
1
10
44.389286760415
20
-3.53244255658001
30
0
41
1
10
43.8736857778679
20
-3.41049636094607
30
0
41
1
10
43.6159554096631
20
-3.34195243674273
30
0
41
1
10
43.2287258289675
20
-3.23096508641731
30
0
41
1
10
43.0996446695586
20
-3.19266387158294
30
0
41
1
10
42.8414734333461
20
-3.11328976944577
30
0
41
1
10
42.712698154655
20
-3.07185672650388
30
0
41
1
10
42.3263324751802
20
-2.94310024768637
30
0
41
1
10
42.0683472620377
20
-2.85189338871527
30
0
41
1
10
41.5519590279501
20
-2.65941332652844
30
0
41
1
10
41.2940230224031
20
-2.55808698205254
30
0
41
1
10
40.9073811751296
20
-2.39898642955075
30
0
41
1
10
40.7784544634711
20
-2.34485719091379
30
0
41
1
10
40.5204287092793
20
-2.23467365174875
30
0
41
1
10
40.3912136094784
20
-2.17880899135776
30
0
41
1
10
40.0046295923555
20
-2.00638536747576
30
0
41
1
10
39.7464067514219
20
-1.88800940584062
30
0
41
1
10
39.2304616305497
20
-1.64504626386395
30
0
41
1
10
38.9727620680818
20
-1.5199453923357
30
0
41
1
10
38.457102451549
20
-1.26448411038496
30
0
41
1
10
38.1987085621065
20
-1.13446361312
30
0
41
1
10
37.8113959285218
20
-0.93726546789506
30
0
41
1
10
37.6827643176302
20
-0.870295414624735
30
0
41
1
10
37.425138394364
20
-0.736315505802452
30
0
41
1
10
37.2962542122896
20
-0.669106184829872
30
0
41
1
10
36.909323241105
20
-0.467006257135495
30
0
41
1
10
36.6509972703709
20
-0.33109367864401
30
0
41
1
10
36.1350907525797
20
-0.0579411730085724
30
0
41
1
10
35.8774986087033
20
0.0790198117073828
30
0
41
1
10
35.4904105964154
20
0.282779994721437
30
0
41
1
10
35.3613490542593
20
0.350575133227863
30
0
41
1
10
35.1036875021217
20
0.48689582720084
30
0
41
1
10
34.9746921388507
20
0.554776531332351
30
0
41
1
10
34.5875080144915
20
0.757134173151115
30
0
41
1
10
34.3295563427519
20
0.890183850528587
30
0
41
1
10
33.8139080206635
20
1.15349150889978
30
0
41
1
10
33.5562806901228
20
1.28363973609413
30
0
41
1
10
33.1689118592292
20
1.47406586095966
30
0
41
1
10
33.0395997020548
20
1.53660570720623
30
0
41
1
10
32.781524319083
20
1.6605874904505
30
0
41
1
10
32.6528804363455
20
1.72242407391445
30
0
41
1
10
32.2662434197986
20
1.90447287774995
30
0
41
1
10
32.0081870230571
20
2.02200756877096
30
0
41
1
10
31.4920761865695
20
2.24961907490851
30
0
41
1
10
31.2339972340162
20
2.35945948856067
30
0
41
1
10
30.7180210330253
20
2.56984509542909
30
0
41
1
10
30.459752851363
20
2.67019180521927
30
0
41
1
10
29.9442867081868
20
2.86184021364002
30
0
41
1
10
29.6858152481087
20
2.95135153054648
30
0
41
1
10
29.1694971680388
20
3.12021736451729
30
0
41
1
10
28.9116260073452
20
3.19981224219973
30
0
41
1
10
28.5247353027932
20
3.3093803882175
30
0
41
1
10
28.3956968968246
20
3.34419912139182
30
0
41
1
10
28.1373579434635
20
3.41017539615999
30
0
41
1
10
28.0078631893639
20
3.44142105638878
30
0
41
1
10
27.6208126211704
20
3.53200097051058
30
0
41
1
10
27.3629643223694
20
3.58626672540817
30
0
41
1
10
26.8466754230867
20
3.68026574295587
30
0
41
1
10
26.5885770933507
20
3.7197399622913
30
0
41
1
10
26.0719903076974
20
3.78588408445364
30
0
41
1
10
25.8138449410064
20
3.81256085603499
30
0
41
1
10
25.4263411897942
20
3.84106201586542
30
0
41
1
10
25.297551736256
20
3.84852276009229
30
0
41
1
10
25.053605830097
20
3.8590004177741
30
0
41
1
10
24.9384969878752
20
3.86256139422582
30
0
41
1
10
24.823274296128
20
3.86486156533655
30
0
0
SPLINE
5
F1
100
AcDbEntity
8
1
62
256
6
ByLayer
370
18
48
1
60
0
100
AcDbSpline
70
4
71
3
72
8
73
4
40
0
40
0
40
0
40
0
40
1
40
1
40
1
40
1
41
1
10
110.655919676203
20
-4.03890611516732
30
0
41
1
10
110.60425684815
20
-4.08913095773508
30
0
41
1
10
110.559023813133
20
-4.1226673897917
30
0
41
1
10
110.519884864968
20
-4.13882729991587
30
0
0
SPLINE
5
F2
100
AcDbEntity
8
1
62
256
6
ByLayer
370
13
48
1
60
0
100
AcDbSpline
70
4
71
3
72
12
73
8
40
0
40
0
40
0
40
0
40
0.500000000000017
40
0.500000000000017
40
0.750000000000008
40
0.750000000000008
40
1
40
1
40
1
40
1
41
1
10
8.0009752948171
20
-0.709158377565814
30
0
41
1
10
8.00447411978297
20
-0.724450267004215
30
0
41
1
10
8.0174638709463
20
-0.739130196536337
30
0
41
1
10
8.0500811922166
20
-0.758173286774536
30
0
41
1
10
8.06344047025476
20
-0.764172660661671
30
0
41
1
10
8.09407957906228
20
-0.774709204378865
30
0
41
1
10
8.11128667138223
20
-0.779278105103259
30
0
41
1
10
8.13067761420183
20
-0.783075947135245
30
0
0
SPLINE
5
F3
100
AcDbEntity
8
1
62
256
6
ByLayer
370
18
48
1
60
0
100
AcDbSpline
70
4
71
3
72
54
73
50
40
0
40
0
40
0
40
0
40
0.0312500000000013
40
0.0312500000000013
40
0.0625000000000026
40
0.0625000000000026
40
0.0937500000000039
40
0.0937500000000039
40
0.125000000000005
40
0.125000000000005
40
0.187500000000008
40
0.187500000000008
40
0.250000000000011
40
0.250000000000011
40
0.312500000000013
40
0.312500000000013
40
0.375000000000016
40
0.375000000000016
40
0.437500000000019
40
0.437500000000019
40
0.46875000000002
40
0.46875000000002
40
0.500000000000022
40
0.500000000000022
40
0.531250000000024
40
0.531250000000024
40
0.562500000000026
40
0.562500000000026
40
0.593750000000027
40
0.593750000000027
40
0.625000000000029
40
0.625000000000029
40
0.656250000000031
40
0.656250000000031
40
0.687500000000033
40
0.687500000000033
40
0.750000000000031
40
0.750000000000031
40
0.812500000000029
40
0.812500000000029
40
0.843750000000027
40
0.843750000000027
40
0.875000000000026
40
0.875000000000026
40
0.937500000000013
40
0.937500000000013
40
0.968750000000007
40
0.968750000000007
40
1
40
1
40
1
40
1
41
1
10
111.283541229137
20
-1.81308584234066
30
0
41
1
10
111.289863284424
20
-1.77907227616504
30
0
41
1
10
111.294046125491
20
-1.74583764299379
30
0
41
1
10
111.297646653747
20
-1.68518853316238
30
0
41
1
10
111.297158980179
20
-1.65733145983501
30
0
41
1
10
111.291955430529
20
-1.60725865115728
30
0
41
1
10
111.287327638802
20
-1.58555056031813
30
0
41
1
10
111.274569434587
20
-1.54788843722935
30
0
41
1
10
111.266438233087
20
-1.53211161623995
30
0
41
1
10
111.238342188659
20
-1.49403938358077
30
0
41
1
10
111.214046814847
20
-1.48010782307045
30
0
41
1
10
111.159635583701
20
-1.47225902905274
30
0
41
1
10
111.129120202439
20
-1.47808144716706
30
0
41
1
10
111.063977159846
20
-1.50705380737705
30
0
41
1
10
111.029903206642
20
-1.52980282691306
30
0
41
1
10
110.958712563131
20
-1.59203483440737
30
0
41
1
10
110.922583697762
20
-1.63073518527705
30
0
41
1
10
110.850629776116
20
-1.72312479999025
30
0
41
1
10
110.814106809336
20
-1.77797222028715
30
0
41
1
10
110.763199808739
20
-1.86939299460309
30
0
41
1
10
110.746598590093
20
-1.90188217550593
30
0
41
1
10
110.715417748745
20
-1.96932535530396
30
0
41
1
10
110.700967898423
20
-2.00393017922224
30
0
41
1
10
110.674648730667
20
-2.07513813819554
30
0
41
1
10
110.662872157157
20
-2.11166052796364
30
0
41
1
10
110.643558954534
20
-2.18265663372148
30
0
41
1
10
110.635752387122
20
-2.21807120587363
30
0
41
1
10
110.624720188761
20
-2.28572877541521
30
0
41
1
10
110.621535340179
20
-2.31738805895822
30
0
41
1
10
110.619597647003
20
-2.37658212818789
30
0
41
1
10
110.620904259564
20
-2.40354950846134
30
0
41
1
10
110.627470198076
20
-2.45126623427069
30
0
41
1
10
110.632798590499
20
-2.47237232491094
30
0
41
1
10
110.646602458321
20
-2.50799514818607
30
0
41
1
10
110.655104171847
20
-2.52276937041663
30
0
41
1
10
110.684799171794
20
-2.55871668563492
30
0
41
1
10
110.709138444968
20
-2.57075162441706
30
0
41
1
10
110.765118470381
20
-2.57564612503816
30
0
41
1
10
110.796026099391
20
-2.56823752709929
30
0
41
1
10
110.845504617237
20
-2.54404922263294
30
0
41
1
10
110.862608166841
20
-2.53371169966797
30
0
41
1
10
110.897111244701
20
-2.50912260077274
30
0
41
1
10
110.914612977907
20
-2.49483096597547
30
0
41
1
10
110.967876630815
20
-2.44590198246183
30
0
41
1
10
111.004827544971
20
-2.40465428155198
30
0
41
1
10
111.058947461927
20
-2.3323206614443
30
0
41
1
10
111.076860847434
20
-2.30638995529495
30
0
41
1
10
111.112400434713
20
-2.25040069869644
30
0
41
1
10
111.129889284764
20
-2.22051675783987
30
0
41
1
10
111.146585617523
20
-2.18936829271624
30
0
0
SPLINE
5
F4
100
AcDbEntity
8
1
62
256
6
ByLayer
370
13
48
1
60
0
100
AcDbSpline
70
4
71
3
72
20
73
16
40
0
40
0
40
0
40
0
40
0.125
40
0.125
40
0.1875
40
0.1875
40
0.25
40
0.25
40
0.5
40
0.5
40
0.625
40
0.625
40
0.75
40
0.75
40
1
40
1
40
1
40
1
41
1
10
8.25028488764985
20
-0.813592833681753
30
0
41
1
10
8.25030310106379
20
-0.652692159357002
30
0
41
1
10
8.25031853523365
20
-0.490765496440389
30
0
41
1
10
8.25033864394703
20
-0.246366774533215
30
0
41
1
10
8.25034483834258
20
-0.16464829998236
30
0
41
1
10
8.25035638586823
20
-0.0007026485383221
30
0
41
1
10
8.25036175289844
20
0.0817699349400982
30
0
41
1
10
8.25038667568907
20
0.491343603615547
30
0
41
1
10
8.25040075762763
20
0.811279561731482
30
0
41
1
10
8.25042148686563
20
1.27975754317683
30
0
41
1
10
8.25042833380755
20
1.43450427255604
30
0
41
1
10
8.25044271788278
20
1.73369014008239
30
0
41
1
10
8.25045032618681
20
1.87952778097085
30
0
41
1
10
8.25047531056606
20
2.2984335246052
30
0
41
1
10
8.25049483275274
20
2.551277100731
30
0
41
1
10
8.25051858350659
20
2.77795916578606
30
0
0
SPLINE
5
F5
100
AcDbEntity
8
1
62
256
6
ByLayer
370
18
48
1
60
0
100
AcDbSpline
70
4
71
3
72
41
73
37
40
0
40
0
40
0
40
0
40
0.0625000000000035
40
0.0625000000000035
40
0.125000000000007
40
0.125000000000007
40
0.250000000000027
40
0.250000000000027
40
0.312500000000031
40
0.312500000000031
40
0.375000000000035
40
0.375000000000035
40
0.437500000000039
40
0.437500000000039
40
0.500000000000043
40
0.500000000000043
40
0.625000000000041
40
0.625000000000041
40
0.687500000000044
40
0.687500000000044
40
0.750000000000047
40
0.750000000000047
40
0.812500000000049
40
0.812500000000049
40
0.82031250000005
40
0.82031250000005
40
0.82812500000005
40
0.82812500000005
40
0.83593750000005
40
0.83593750000005
40
0.843750000000051
40
0.843750000000051
40
0.859375000000047
40
0.859375000000047
40
0.875000000000044
40
1
40
1
40
1
40
1
41
1
10
108.255025047016
20
-1.67923484042998
30
0
41
1
10
108.340537294877
20
-1.69221372747893
30
0
41
1
10
108.42626579281
20
-1.70222384873381
30
0
41
1
10
108.595886937319
20
-1.71523351888231
30
0
41
1
10
108.679947590053
20
-1.7182880599905
30
0
41
1
10
108.929621924775
20
-1.71591439443725
30
0
41
1
10
109.092711638799
20
-1.69887369978053
30
0
41
1
10
109.331044228644
20
-1.64431796295699
30
0
41
1
10
109.409897578262
20
-1.62111588508506
30
0
41
1
10
109.56264082725
20
-1.56436238155805
30
0
41
1
10
109.636368151647
20
-1.53094264269086
30
0
41
1
10
109.77821065547
20
-1.45340015332363
30
0
41
1
10
109.846389658594
20
-1.40939912201935
30
0
41
1
10
109.975965203471
20
-1.30846211860808
30
0
41
1
10
110.037958288388
20
-1.2515437806529
30
0
41
1
10
110.211178482746
20
-1.06799231102835
30
0
41
1
10
110.310165543544
20
-0.927883489615368
30
0
41
1
10
110.437930805506
20
-0.695437304209236
30
0
41
1
10
110.477127301992
20
-0.614042665591711
30
0
41
1
10
110.548488082895
20
-0.446570701922752
30
0
41
1
10
110.580805821729
20
-0.3602269081575
30
0
41
1
10
110.639530878777
20
-0.183501660724517
30
0
41
1
10
110.665870132097
20
-0.0933508163850547
30
0
41
1
10
110.692653057208
20
0.0097538662095644
30
0
41
1
10
110.695619592353
20
0.0212154697265703
30
0
41
1
10
110.701343362281
20
0.0442624746951878
30
0
41
1
10
110.703946170661
20
0.0559392169804482
30
0
41
1
10
110.705702350808
20
0.081332990070166
30
0
41
1
10
110.704764787665
20
0.095024791003425
30
0
41
1
10
110.701206715808
20
0.121300790745323
30
0
41
1
10
110.698423394113
20
0.134300183599407
30
0
41
1
10
110.688324907888
20
0.173057039117197
30
0
41
1
10
110.680648212729
20
0.198764604945126
30
0
41
1
10
110.666299553444
20
0.250318405071368
30
0
41
1
10
110.601975844948
20
0.482344396615588
30
0
41
1
10
110.539791421663
20
0.714665227434239
30
0
41
1
10
110.485789483862
20
0.921344893154554
30
0
0
SPLINE
5
F6
100
AcDbEntity
8
1
62
256
6
ByLayer
370
18
48
1
60
0
100
AcDbSpline
70
4
71
3
72
52
73
48
40
0
40
0
40
0
40
0
40
0.12499999999999
40
0.12499999999999
40
0.187499999999985
40
0.187499999999985
40
0.24999999999998
40
0.24999999999998
40
0.281249999999978
40
0.281249999999978
40
0.312499999999976
40
0.312499999999976
40
0.374999999999972
40
0.374999999999972
40
0.406249999999969
40
0.406249999999969
40
0.437499999999967
40
0.437499999999967
40
0.499999999999963
40
0.499999999999963
40
0.531249999999961
40
0.531249999999961
40
0.562499999999959
40
0.562499999999959
40
0.593749999999957
40
0.593749999999957
40
0.624999999999955
40
0.624999999999955
40
0.687499999999951
40
0.687499999999951
40
0.749999999999946
40
0.749999999999946
40
0.781249999999944
40
0.781249999999944
40
0.796874999999942
40
0.796874999999942
40
0.800781249999942
40
0.800781249999942
40
0.804687499999942
40
0.804687499999942
40
0.808593749999942
40
0.808593749999942
40
0.812499999999941
40
0.812499999999941
40
0.87499999999996
40
0.87499999999996
40
1
40
1
40
1
40
1
41
1
10
8.00099444416435
20
-3.09210247217237
30
0
41
1
10
7.74125773939517
20
-3.30920348898522
30
0
41
1
10
7.49767391421986
20
-3.50082342083354
30
0
41
1
10
7.15308406612928
20
-3.73785468757879
30
0
41
1
10
7.04131306751071
20
-3.80855166806273
30
0
41
1
10
6.83104109495443
20
-3.92673545988597
30
0
41
1
10
6.73178398087731
20
-3.97480826570902
30
0
41
1
10
6.59235491935823
20
-4.02870926104899
30
0
41
1
10
6.54746535062765
20
-4.04363116283622
30
0
41
1
10
6.46113183287068
20
-4.06693069589059
30
0
41
1
10
6.41954691741861
20
-4.07530945765592
30
0
41
1
10
6.30240058876439
20
-4.08957436882216
30
0
41
1
10
6.23385325105966
20
-4.08489265166503
30
0
41
1
10
6.14792028330263
20
-4.05467550479858
30
0
41
1
10
6.12211270531037
20
-4.04071894814132
30
0
41
1
10
6.07695710986826
20
-4.00442125154211
30
0
41
1
10
6.0577584939509
20
-3.98211581382051
30
0
41
1
10
6.01212635142394
20
-3.90362052116583
30
0
41
1
10
5.99705803245638
20
-3.8356095750263
30
0
41
1
10
6.00218452343699
20
-3.70873640766558
30
0
41
1
10
6.00863297348349
20
-3.66240075803034
30
0
41
1
10
6.03102590618977
20
-3.56407323363601
30
0
41
1
10
6.04697040438589
20
-3.51181284061505
30
0
41
1
10
6.08855473775475
20
-3.40148631430571
30
0
41
1
10
6.11419454304666
20
-3.34341929762556
30
0
41
1
10
6.17553314788199
20
-3.22177367386394
30
0
41
1
10
6.21125033687477
20
-3.15827860828645
30
0
41
1
10
6.33058462693719
20
-2.96517577209872
30
0
41
1
10
6.42702660665481
20
-2.83139374379437
30
0
41
1
10
6.651128084882
20
-2.55738869742061
30
0
41
1
10
6.77720618758462
20
-2.41915731293506
30
0
41
1
10
6.98215943273354
20
-2.21418429388291
30
0
41
1
10
7.05300075807139
20
-2.14635864025948
30
0
41
1
10
7.16275413091779
20
-2.04545212255553
30
0
41
1
10
7.19991698444648
20
-2.01196023319395
30
0
41
1
10
7.24699884186273
20
-1.97034129193986
30
0
41
1
10
7.25644753781711
20
-1.96202895851206
30
0
41
1
10
7.27540894728236
20
-1.94542729760883
30
0
41
1
10
7.28445155946258
20
-1.93660076008908
30
0
41
1
10
7.30574254789346
20
-1.92255168961611
30
0
41
1
10
7.31869515959224
20
-1.91823463292013
30
0
41
1
10
7.34512784640279
20
-1.91440226915515
30
0
41
1
10
7.35869208402303
20
-1.91375218669623
30
0
41
1
10
7.58683059803798
20
-1.89435396302281
30
0
41
1
10
7.80257500777213
20
-1.88774039036736
30
0
41
1
10
8.44907038542988
20
-1.90196125507671
30
0
41
1
10
8.87316699103394
20
-1.95620919805668
30
0
41
1
10
9.29069204522477
20
-2.05005329339215
30
0
0
SPLINE
5
F7
100
AcDbEntity
8
1
62
256
6
ByLayer
370
13
48
1
60
0
100
AcDbSpline
70
4
71
3
72
8
73
4
40
0
40
0
40
0
40
0
40
1
40
1
40
1
40
1
41
1
10
8.13067761420183
20
-0.783075947135245
30
0
41
1
10
8.16778619278281
20
-0.790343903148312
30
0
41
1
10
8.20854851576314
20
-0.8006823966426
30
0
41
1
10
8.25028488764985
20
-0.813592833681753
30
0
0
SPLINE
5
F8
100
AcDbEntity
8
1
62
256
6
ByLayer
370
13
48
1
60
0
100
AcDbSpline
70
4
71
3
72
8
73
4
40
0
40
0
40
0
40
0
40
1
40
1
40
1
40
1
41
1
10
8.12810960897571
20
-0.909778125796521
30
0
41
1
10
8.12895735185458
20
-0.902007779471887
30
0
41
1
10
8.12981334178423
20
-0.894229317827808
30
0
41
1
10
8.1306776142018
20
-0.886442393126714
30
0
0
SPLINE
5
F9
100
AcDbEntity
8
1
62
256
6
ByLayer
370
18
48
1
60
0
100
AcDbSpline
70
4
71
3
72
8
73
4
40
0
40
0
40
0
40
0
40
1
40
1
40
1
40
1
41
1
10
110.571794720542
20
-4.00784322346843
30
0
41
1
10
110.55450534157
20
-4.05155484438711
30
0
41
1
10
110.53720057474
20
-4.09521784185938
30
0
41
1
10
110.519884864968
20
-4.13882729991587
30
0
0
SPLINE
5
FA
100
AcDbEntity
8
1
62
256
6
ByLayer
370
18
48
1
60
0
100
AcDbSpline
70
4
71
3
72
24
73
20
40
0
40
0
40
0
40
0
40
0.125
40
0.125
40
0.25
40
0.25
40
0.375
40
0.375
40
0.4375
40
0.4375
40
0.5
40
0.5
40
0.624999999999999
40
0.624999999999999
40
0.687499999999999
40
0.687499999999999
40
0.749999999999999
40
0.749999999999999
40
1
40
1
40
1
40
1
41
1
10
8.00097529481704
20
-0.709158377561209
30
0
41
1
10
8.00097694395637
20
-0.534703031907554
30
0
41
1
10
8.00097832039205
20
-0.357589123327273
30
0
41
1
10
8.00098061934591
20
-0.0058794793461345
30
0
41
1
10
8.00098154887726
20
0.169219498785225
30
0
41
1
10
8.00098312523855
20
0.51793272676332
30
0
41
1
10
8.00098377169965
20
0.691547063610926
30
0
41
1
10
8.00098463727673
20
0.950818980687103
30
0
41
1
10
8.00098490831155
20
1.03705058682661
30
0
41
1
10
8.00098542596533
20
1.20661110510593
30
0
41
1
10
8.00098567368718
20
1.29026253006432
30
0
41
1
10
8.00098640943355
20
1.53789112921868
30
0
41
1
10
8.00098689069321
20
1.69855611925556
30
0
41
1
10
8.00098768753136
20
1.93291429503751
30
0
41
1
10
8.00098796545603
20
2.00992376717605
30
0
41
1
10
8.00098855890298
20
2.16167940668862
30
0
41
1
10
8.00098887564579
20
2.23666456141623
30
0
41
1
10
8.00099056041327
20
2.60104270689246
30
0
41
1
10
8.00099225675604
20
2.86180531491422
30
0
41
1
10
8.00099444416617
20
3.0921024721701
30
0
0
SPLINE
5
FB
100
AcDbEntity
8
1
62
256
6
ByLayer
370
18
48
1
60
0
100
AcDbSpline
70
4
71
3
72
18
73
14
40
0
40
0
40
0
40
0
40
0.250000000000004
40
0.250000000000004
40
0.375000000000001
40
0.375000000000001
40
0.499999999999998
40
0.499999999999998
40
0.749999999999999
40
0.749999999999999
40
0.874999999999999
40
0.874999999999999
40
1
40
1
40
1
40
1
41
1
10
110.518980032029
20
-3.91370046718384
30
0
41
1
10
110.436723083445
20
-3.90000686020289
30
0
41
1
10
110.360628453336
20
-3.86885182658708
30
0
41
1
10
110.256583846723
20
-3.79350765262208
30
0
41
1
10
110.223526513149
20
-3.76345194903885
30
0
41
1
10
110.162278603416
20
-3.69460941866541
30
0
41
1
10
110.133911142914
20
-3.65573123085934
30
0
41
1
10
110.055614052832
20
-3.52565517264253
30
0
41
1
10
110.012431236626
20
-3.42113131055294
30
0
41
1
10
109.962273219269
20
-3.23547626590312
30
0
41
1
10
109.948001692101
20
-3.16852337762092
30
0
41
1
10
109.925111027812
20
-3.02731576905538
30
0
41
1
10
109.916396787809
20
-2.95278827210981
30
0
41
1
10
109.910428074742
20
-2.87431634438596
30
0
0
SPLINE
5
FC
100
AcDbEntity
8
1
62
256
6
ByLayer
370
18
48
1
60
0
100
AcDbSpline
70
4
71
3
72
8
73
4
40
0
40
0
40
0
40
0
40
1
40
1
40
1
40
1
41
1
10
111.84756881792
20
-1.03373950145368
30
0
41
1
10
111.895260236592
20
-0.742646159463675
30
0
41
1
10
111.937685878454
20
-0.451589863453307
30
0
41
1
10
111.974811842144
20
-0.160570851926593
30
0
0
SPLINE
5
FD
100
AcDbEntity
8
1
62
256
6
ByLayer
370
18
48
1
60
0
100
AcDbSpline
70
4
71
3
72
12
73
8
40
0
40
0
40
0
40
0
40
0.249999999999987
40
0.249999999999987
40
0.499999999999974
40
0.499999999999974
40
1
40
1
40
1
40
1
41
1
10
8.12810960897559
20
-0.909778125796976
30
0
41
1
10
8.11123451373172
20
-0.900588689819415
30
0
41
1
10
8.09576652645217
20
-0.889688892749035
30
0
41
1
10
8.06754191752356
20
-0.86457503633045
30
0
41
1
10
8.0547248041384
20
-0.850194238872973
30
0
41
1
10
8.0223320607133
20
-0.804014808295534
30
0
41
1
10
8.00799957145287
20
-0.76803133451179
30
0
41
1
10
8.00255523063083
20
-0.730812490000744
30
0
0
SPLINE
5
FE
100
AcDbEntity
8
1
62
256
6
ByLayer
370
18
48
1
60
0
100
AcDbSpline
70
4
71
3
72
16
73
12
40
0
40
0
40
0
40
0
40
0.217100383352094
40
0.217100383352094
40
0.368706869181606
40
0.368706869181606
40
0.520313355011119
40
0.520313355011119
40
0.823526326670147
40
0.823526326670147
40
1
40
1
40
1
40
1
41
1
10
29.4829620889831
20
0.0008599613043714
30
0
41
1
10
29.8631014679036
20
-0.205256501078196
30
0
41
1
10
30.2434380973343
20
-0.411552298201912
30
0
41
1
10
30.8914227184558
20
-0.758987407081008
30
0
41
1
10
31.1584973115913
20
-0.900920116440744
30
0
41
1
10
31.6946797682411
20
-1.18149255043639
30
0
41
1
10
31.9643656268984
20
-1.32063039469554
30
0
41
1
10
32.7689103982036
20
-1.72702924227158
30
0
41
1
10
33.3013410065339
20
-1.98409478214526
30
0
41
1
10
34.14173041251
20
-2.36240735885389
30
0
41
1
10
34.4505139546453
20
-2.4954733027626
30
0
41
1
10
34.7594681475448
20
-2.62161650127263
30
0
0
SPLINE
5
FF
100
AcDbEntity
8
1
62
256
6
ByLayer
370
13
48
1
60
0
100
AcDbSpline
70
4
71
3
72
18
73
14
40
0
40
0
40
0
40
0
40
0.291467752945241
40
0.291467752945241
40
0.394242886012644
40
0.394242886012644
40
0.497018019080047
40
0.497018019080047
40
0.702568285214856
40
0.702568285214856
40
0.908118551349666
40
0.908118551349666
40
1
40
1
40
1
40
1
41
1
10
34.7594681477502
20
-2.62161650135647
30
0
41
1
10
35.5121898089534
20
-2.92894593760241
30
0
41
1
10
36.2659244221865
20
-3.1951832109977
30
0
41
1
10
37.2977798810839
20
-3.48387484418569
30
0
41
1
10
37.5662395030781
20
-3.55209209390671
30
0
41
1
10
38.1008355723714
20
-3.67350867814571
30
0
41
1
10
38.3672988896838
20
-3.72679941914268
30
0
41
1
10
39.1652447006122
20
-3.86405852894339
30
0
41
1
10
39.6952946135124
20
-3.92535683942535
30
0
41
1
10
40.7572091492419
20
-3.98565092246776
30
0
41
1
10
41.2890573198725
20
-3.9846374687923
30
0
41
1
10
42.0640980805946
20
-3.93689073707947
30
0
41
1
10
42.3048854331353
20
-3.915661474351
30
0
41
1
10
42.544913768715
20
-3.88821419927675
30
0
0
SPLINE
5
100
100
AcDbEntity
8
1
62
256
6
ByLayer
370
18
48
1
60
0
100
AcDbSpline
70
4
71
3
72
18
73
14
40
0
40
0
40
0
40
0
40
0.214205488982121
40
0.214205488982121
40
0.325192807602774
40
0.325192807602774
40
0.436180126223426
40
0.436180126223426
40
0.880129400706038
40
0.880129400706038
40
0.991116719326694
40
0.991116719326694
40
1
40
1
40
1
40
1
41
1
10
75.4962219748075
20
-0.006356511771628
30
0
41
1
10
76.0081146314484
20
-0.285889777112317
30
0
41
1
10
76.5209408883625
20
-0.566173128484792
30
0
41
1
10
77.3050729578982
20
-0.985007714638272
30
0
41
1
10
77.574326116769
20
-1.12718853472342
30
0
41
1
10
78.1098682496897
20
-1.4048418343063
30
0
41
1
10
78.3766102829639
20
-1.54065147942177
30
0
41
1
10
79.7071738271577
20
-2.20154107315597
30
0
41
1
10
80.7612695955513
20
-2.67222029103101
30
0
41
1
10
82.0946491614533
20
-3.14478954182206
30
0
41
1
10
82.3620706322226
20
-3.23355771982509
30
0
41
1
10
82.6521460035411
20
-3.32259403881983
30
0
41
1
10
82.6736385715749
20
-3.32914793340282
30
0
41
1
10
82.6951267878503
20
-3.33565726147057
30
0
0
SPLINE
5
101
100
AcDbEntity
8
1
62
256
6
ByLayer
370
13
48
1
60
0
100
AcDbSpline
70
4
71
3
72
18
73
14
40
0
40
0
40
0
40
0
40
0.126403821901598
40
0.126403821901598
40
0.401206298223054
40
0.401206298223054
40
0.676008774544506
40
0.676008774544506
40
0.813410012705237
40
0.813410012705237
40
0.95081125086597
40
0.95081125086597
40
1
40
1
40
1
40
1
41
1
10
82.6951267867366
20
-3.33565726113323
30
0
41
1
10
82.9421114013176
20
-3.41047519221507
30
0
41
1
10
83.1885211006108
20
-3.47940539520331
30
0
41
1
10
83.9676873201926
20
-3.67842194543283
30
0
41
1
10
84.4979482458043
20
-3.78571995809264
30
0
41
1
10
85.5577225885369
20
-3.93947012904468
30
0
41
1
10
86.0871318373967
20
-3.98597296235906
30
0
41
1
10
86.8848752098622
20
-4.00827150401508
30
0
41
1
10
87.1513749146787
20
-4.00778800551484
30
0
41
1
10
87.68630364527
20
-3.99076264931873
30
0
41
1
10
87.9554556239726
20
-3.97413398228062
30
0
41
1
10
88.3189993980887
20
-3.94084139319523
30
0
41
1
10
88.4147075193802
20
-3.93106140691313
30
0
41
1
10
88.5103028908687
20
-3.9202915523914
30
0
0
SPLINE
5
102
100
AcDbEntity
8
1
62
256
6
ByLayer
370
18
48
1
60
0
100
AcDbSpline
70
4
71
3
72
98
73
94
40
0
40
0
40
0
40
0
40
0.025865161957894
40
0.025865161957894
40
0.0387977429368409
40
0.0387977429368409
40
0.0517303239157879
40
0.0517303239157879
40
0.0775954858736819
40
0.0775954858736819
40
0.103460647831576
40
0.103460647831576
40
0.116393228810523
40
0.116393228810523
40
0.12932580978947
40
0.12932580978947
40
0.155190971747364
40
0.155190971747364
40
0.181056133705258
40
0.181056133705258
40
0.206921295663152
40
0.206921295663152
40
0.232786457621046
40
0.232786457621046
40
0.25865161957894
40
0.25865161957894
40
0.284516781536834
40
0.284516781536834
40
0.310381943494728
40
0.310381943494728
40
0.336247105452622
40
0.336247105452622
40
0.362112267410516
40
0.362112267410516
40
0.375044848389463
40
0.375044848389463
40
0.38797742936841
40
0.38797742936841
40
0.413842591326304
40
0.413842591326304
40
0.439707753284197
40
0.439707753284197
40
0.465572915242091
40
0.465572915242091
40
0.491438077199984
40
0.491438077199984
40
0.517303239157878
40
0.517303239157878
40
0.543168401115771
40
0.543168401115771
40
0.569033563073665
40
0.569033563073665
40
0.594898725031558
40
0.594898725031558
40
0.607831306010505
40
0.607831306010505
40
0.620763886989452
40
0.620763886989452
40
0.646629048947344
40
0.646629048947344
40
0.672494210905237
40
0.672494210905237
40
0.685426791884184
40
0.685426791884184
40
0.69835937286313
40
0.69835937286313
40
0.724224534821024
40
0.724224534821024
40
0.750089696778917
40
0.750089696778917
40
0.763022277757865
40
0.763022277757865
40
0.775954858736812
40
0.775954858736812
40
0.801820020694705
40
0.801820020694705
40
0.827685182652599
40
0.827685182652599
40
0.853550344610492
40
0.853550344610492
40
0.879415506568386
40
0.879415506568386
40
0.90528066852628
40
0.90528066852628
40
0.931145830484173
40
0.931145830484173
40
0.944078411463121
40
0.944078411463121
40
0.957010992442068
40
0.957010992442068
40
0.982876154399962
40
0.982876154399962
40
1
40
1
40
1
40
1
41
1
10
9.29069204522477
20
2.05005329339215
30
0
41
1
10
9.5547306322529
20
2.17911744903427
30
0
41
1
10
9.81900328572607
20
2.30287348190194
30
0
41
1
10
10.2159830683899
20
2.48053924099816
30
0
41
1
10
10.3483588966698
20
2.53850310607595
30
0
41
1
10
10.612687121242
20
2.65262002243799
30
0
41
1
10
10.7445248481654
20
2.70891281788957
30
0
41
1
10
11.1412284672147
20
2.87252825156079
30
0
41
1
10
11.40646299737
20
2.97551196693152
30
0
41
1
10
11.9349245077769
20
3.17067168748738
30
0
41
1
10
12.1988451378032
20
3.26235319090162
30
0
41
1
10
12.5957444219208
20
3.38946743600698
30
0
41
1
10
12.7281574133363
20
3.43017393879515
30
0
41
1
10
12.9930323104705
20
3.50841769776522
30
0
41
1
10
13.1250226342723
20
3.54613929262931
30
0
41
1
10
13.5212743484801
20
3.6535171820982
30
0
41
1
10
13.7859532428657
20
3.71742409464491
30
0
41
1
10
14.31454304298
20
3.83140908283554
30
0
41
1
10
14.5788692604471
20
3.88129130201085
30
0
41
1
10
15.1081648392967
20
3.96507017383064
30
0
41
1
10
15.3728374817462
20
3.99914898566911
30
0
41
1
10
15.9005258045902
20
4.05214319228875
30
0
41
1
10
16.1652070936144
20
4.07051979888956
30
0
41
1
10
16.6948147921652
20
4.09156086961121
30
0
41
1
10
16.9587034483465
20
4.09409086617896
30
0
41
1
10
17.4872245040489
20
4.08312169650856
30
0
41
1
10
17.7521186436104
20
4.06981820277511
30
0
41
1
10
18.2803537662701
20
4.02681781307618
30
0
41
1
10
18.5450621746729
20
3.9974046929089
30
0
41
1
10
19.0740222432441
20
3.92344524938727
30
0
41
1
10
19.3377782628995
20
3.87846620101578
30
0
41
1
10
19.8663504948785
20
3.77371222774244
30
0
41
1
10
20.1315808763844
20
3.71410566167003
30
0
41
1
10
20.5281508004867
20
3.61369440409229
30
0
41
1
10
20.6598922930683
20
3.5781193264975
30
0
41
1
10
20.9239643780408
20
3.50402108299517
30
0
41
1
10
21.056126407568
20
3.46536827723733
30
0
41
1
10
21.4528348383415
20
3.34451747038253
30
0
41
1
10
21.7172670127462
20
3.2567202837665
30
0
41
1
10
22.2459526398106
20
3.06880912189698
30
0
41
1
10
22.5104142468222
20
2.96929885615364
30
0
41
1
10
23.0390858872755
20
2.75873074931528
30
0
41
1
10
23.3026206241843
20
2.64670158572764
30
0
41
1
10
23.832219773076
20
2.41468313070988
30
0
41
1
10
24.0965464609579
20
2.29371010306909
30
0
41
1
10
24.6245228680114
20
2.04258349519628
30
0
41
1
10
24.8888011016286
20
1.91332188675582
30
0
41
1
10
25.4180656190407
20
1.64769535472936
30
0
41
1
10
25.6820714492992
20
1.50990486372078
30
0
41
1
10
26.2106515800425
20
1.23168992329315
30
0
41
1
10
26.4749928173693
20
1.09032852678649
30
0
41
1
10
27.0031617862412
20
0.801989042305564
30
0
41
1
10
27.2678654247897
20
0.655998611394551
30
0
41
1
10
27.6646434265091
20
0.43649868437771
30
0
41
1
10
27.7969284531622
20
0.363269066220738
30
0
41
1
10
28.0607704545845
20
0.215288369771059
30
0
41
1
10
28.1925707197961
20
0.140970941223571
30
0
41
1
10
28.5887788758409
20
-0.0808651088042041
30
0
41
1
10
28.8537566864811
20
-0.228264689207805
30
0
41
1
10
29.3823029731622
20
-0.523606451674226
30
0
41
1
10
29.6461946993564
20
-0.670435889533735
30
0
41
1
10
30.0426749093809
20
-0.887301876357242
30
0
41
1
10
30.1748829688742
20
-0.959133404351888
30
0
41
1
10
30.4391928517769
20
-1.10223018274553
30
0
41
1
10
30.5709972221832
20
-1.17400653338942
30
0
41
1
10
30.9675651344351
20
-1.38619642545203
30
0
41
1
10
31.2322924443425
20
-1.52393095425774
30
0
41
1
10
31.76035341878
20
-1.7947906957794
30
0
41
1
10
32.0240709055897
20
-1.92735029603651
30
0
41
1
10
32.4208174156495
20
-2.11929084375981
30
0
41
1
10
32.5532777894082
20
-2.18223082304445
30
0
41
1
10
32.8178374635721
20
-2.30601132958219
30
0
41
1
10
32.9497557999546
20
-2.36718250530563
30
0
41
1
10
33.3454937591126
20
-2.54690906542351
30
0
41
1
10
33.6099458185016
20
-2.66081454465575
30
0
41
1
10
34.1384069721863
20
-2.87926341081192
30
0
41
1
10
34.402653814499
20
-2.98379899639758
30
0
41
1
10
34.9312436995373
20
-3.17933011643225
30
0
41
1
10
35.1958665870154
20
-3.27041057099658
30
0
41
1
10
35.7231266962726
20
-3.44189104002893
30
0
41
1
10
35.9878709514901
20
-3.52038725762756
30
0
41
1
10
36.5169124806442
20
-3.66364579506438
30
0
41
1
10
36.7805124885422
20
-3.72864019611558
30
0
41
1
10
37.3085686177056
20
-3.84320982111888
30
0
41
1
10
37.5732295253676
20
-3.89278325118317
30
0
41
1
10
37.9696685521336
20
-3.95635948786261
30
0
41
1
10
38.1015433123218
20
-3.97571472650347
30
0
41
1
10
38.3656759945223
20
-4.0102245006475
30
0
41
1
10
38.4978201272169
20
-4.02546616385499
30
0
41
1
10
38.8942160526111
20
-4.06532237495904
30
0
41
1
10
39.1578866185383
20
-4.08417834391085
30
0
41
1
10
39.5969518159003
20
-4.10209258307228
30
0
41
1
10
39.7721566027275
20
-4.10570338488108
30
0
41
1
10
39.9472645140626
20
-4.10581102562475
30
0
0
SPLINE
5
103
100
AcDbEntity
8
1
62
256
6
ByLayer
370
18
48
1
60
0
100
AcDbSpline
70
4
71
3
72
102
73
98
40
0
40
0
40
0
40
0
40
0.0047246369013558
40
0.0047246369013558
40
0.030399919709035
40
0.030399919709035
40
0.0560752025167145
40
0.0560752025167145
40
0.0817504853243937
40
0.0817504853243937
40
0.0945881267282333
40
0.0945881267282333
40
0.107425768132073
40
0.107425768132073
40
0.133101050939752
40
0.133101050939752
40
0.158776333747431
40
0.158776333747431
40
0.18445161655511
40
0.18445161655511
40
0.210126899362789
40
0.210126899362789
40
0.235802182170469
40
0.235802182170469
40
0.248639823574309
40
0.248639823574309
40
0.261477464978149
40
0.261477464978149
40
0.287152747785831
40
0.287152747785831
40
0.312828030593512
40
0.312828030593512
40
0.325665671997353
40
0.325665671997353
40
0.338503313401194
40
0.338503313401194
40
0.364178596208876
40
0.364178596208876
40
0.389853879016559
40
0.389853879016559
40
0.4026915204204
40
0.4026915204204
40
0.41552916182424
40
0.41552916182424
40
0.441204444631923
40
0.441204444631923
40
0.466879727439605
40
0.466879727439605
40
0.492555010247287
40
0.492555010247287
40
0.51823029305497
40
0.51823029305497
40
0.543905575862652
40
0.543905575862652
40
0.569580858670335
40
0.569580858670335
40
0.595256141478017
40
0.595256141478017
40
0.620931424285699
40
0.620931424285699
40
0.646606707093382
40
0.646606707093382
40
0.659444348497223
40
0.659444348497223
40
0.672281989901064
40
0.672281989901064
40
0.697957272708747
40
0.697957272708747
40
0.723632555516429
40
0.723632555516429
40
0.736470196920269
40
0.736470196920269
40
0.74930783832411
40
0.74930783832411
40
0.774983121131792
40
0.774983121131792
40
0.800658403939475
40
0.800658403939475
40
0.826333686747157
40
0.826333686747157
40
0.85200896955484
40
0.85200896955484
40
0.877684252362522
40
0.877684252362522
40
0.890521893766363
40
0.890521893766363
40
0.903359535170204
40
0.903359535170204
40
0.929034817977887
40
0.929034817977887
40
0.954710100785569
40
0.954710100785569
40
0.967547742189411
40
0.967547742189411
40
0.980385383593254
40
0.980385383593254
40
1
40
1
40
1
40
1
41
1
10
55.1224463812401
20
1.97849261493727
30
0
41
1
10
55.1710047185906
20
2.00244678031802
30
0
41
1
10
55.2195420466174
20
2.02631306746707
30
0
41
1
10
55.5316566223396
20
2.17939827502795
30
0
41
1
10
55.7960926659992
20
2.3043139115083
30
0
41
1
10
56.3245903154181
20
2.5437833677228
30
0
41
1
10
56.5880025409802
20
2.6595049888339
30
0
41
1
10
57.1156420797636
20
2.87939147289848
30
0
41
1
10
57.3802779429152
20
2.98345201251186
30
0
41
1
10
57.776605874936
20
3.13126927142628
30
0
41
1
10
57.9082305328323
20
3.17945935420261
30
0
41
1
10
58.1720011607839
20
3.2719525224596
30
0
41
1
10
58.3039837596727
20
3.31645740082166
30
0
41
1
10
58.7000817768561
20
3.44496742364649
30
0
41
1
10
58.963759143025
20
3.52454152396732
30
0
41
1
10
59.4919344686609
20
3.66973171652424
30
0
41
1
10
59.7562693955834
20
3.73486598396676
30
0
41
1
10
60.2842591568018
20
3.85060326944404
30
0
41
1
10
60.5473321544139
20
3.90158747003545
30
0
41
1
10
61.0757645779374
20
3.98725415235316
30
0
41
1
10
61.3401833505579
20
4.02251173649367
30
0
41
1
10
61.8675701403202
20
4.07724952299034
30
0
41
1
10
62.1314227494869
20
4.09658740523608
30
0
41
1
10
62.5275989293318
20
4.11367608534289
30
0
41
1
10
62.659666114783
20
4.11739789592383
30
0
41
1
10
62.9233988378527
20
4.12081767673271
30
0
41
1
10
63.0554364193255
20
4.12048860063112
30
0
41
1
10
63.4515038376386
20
4.11351523841731
30
0
41
1
10
63.7155250862825
20
4.10091758532047
30
0
41
1
10
64.2427784042451
20
4.05958813993672
30
0
41
1
10
64.5068564116639
20
4.03093214623942
30
0
41
1
10
64.9033727034242
20
3.97645823143472
30
0
41
1
10
65.0355317744782
20
3.95641865241615
30
0
41
1
10
65.2991644069293
20
3.91220570424744
30
0
41
1
10
65.4307467518675
20
3.88806488273696
30
0
41
1
10
65.8263184348912
20
3.8104590490953
30
0
41
1
10
66.0905524044945
20
3.75157177368655
30
0
41
1
10
66.6185873390183
20
3.61832809600483
30
0
41
1
10
66.882351670829
20
3.54442702546819
30
0
41
1
10
67.2783030494134
20
3.42415025775921
30
0
41
1
10
67.4103090755804
20
3.38242981477015
30
0
41
1
10
67.6741856737244
20
3.29553898457169
30
0
41
1
10
67.8057519062571
20
3.25002973189422
30
0
41
1
10
68.2014166909723
20
3.10950478090607
30
0
41
1
10
68.466198219813
20
3.01026397133848
30
0
41
1
10
68.9937227151112
20
2.79944877010345
30
0
41
1
10
69.2570175858277
20
2.68803687020048
30
0
41
1
10
69.7849498213074
20
2.45630289567845
30
0
41
1
10
70.0495427832246
20
2.33547923162277
30
0
41
1
10
70.5766601373455
20
2.08352831945217
30
0
41
1
10
70.8407405772207
20
1.95456049880499
30
0
41
1
10
71.3683439221419
20
1.68828139594322
30
0
41
1
10
71.6319628439911
20
1.55064480187565
30
0
41
1
10
72.1601724005212
20
1.27130762907402
30
0
41
1
10
72.4245661941798
20
1.13019505300011
30
0
41
1
10
72.9510583476599
20
0.840125923672645
30
0
41
1
10
73.2149440641984
20
0.694241097732004
30
0
41
1
10
73.7434716626632
20
0.399925471765243
30
0
41
1
10
74.0070040634731
20
0.250722396327291
30
0
41
1
10
74.5343262797522
20
-0.0465713876177176
30
0
41
1
10
74.7984425202889
20
-0.194418938967374
30
0
41
1
10
75.1942032419354
20
-0.416940160317921
30
0
41
1
10
75.3259258705946
20
-0.491628283896915
30
0
41
1
10
75.5898519688893
20
-0.639264689658603
30
0
41
1
10
75.7218630115827
20
-0.712512006021967
30
0
41
1
10
76.1178399960178
20
-0.930915062985918
30
0
41
1
10
76.3811715436584
20
-1.07573011966261
30
0
41
1
10
76.9084382367214
20
-1.36044086858331
30
0
41
1
10
77.172993659289
20
-1.49989620062712
30
0
41
1
10
77.5689733709746
20
-1.70456559629429
30
0
41
1
10
77.700545646059
20
-1.77253154976768
30
0
41
1
10
77.9639620988109
20
-1.90612864547853
30
0
41
1
10
78.0957920900997
20
-1.97179103091551
30
0
41
1
10
78.4915889273691
20
-2.16550581928845
30
0
41
1
10
78.7555486131962
20
-2.29113880178772
30
0
41
1
10
79.2831805605455
20
-2.53358219446568
30
0
41
1
10
79.5469993069908
20
-2.64939635475724
30
0
41
1
10
80.0746591328843
20
-2.87037493006201
30
0
41
1
10
80.33764651045
20
-2.97658432391239
30
0
41
1
10
80.8658437416563
20
-3.17544111693582
30
0
41
1
10
81.1299877839504
20
-3.26868616228873
30
0
41
1
10
81.6568760947897
20
-3.44290336119735
30
0
41
1
10
81.9204261339574
20
-3.52322978790843
30
0
41
1
10
82.3164956171095
20
-3.63311001515677
30
0
41
1
10
82.4487404526648
20
-3.66797147081158
30
0
41
1
10
82.7123648415277
20
-3.73463873188149
30
0
41
1
10
82.8440277973959
20
-3.76616774953638
30
0
41
1
10
83.2395275163518
20
-3.85470773504775
30
0
41
1
10
83.5034579519654
20
-3.90605911012673
30
0
41
1
10
84.0305177449123
20
-3.99414759305472
30
0
41
1
10
84.2944819192895
20
-4.03052598480522
30
0
41
1
10
84.6904798829952
20
-4.07297927436031
30
0
41
1
10
84.822449352284
20
-4.08514989209556
30
0
41
1
10
85.0861126429447
20
-4.10557921364207
30
0
41
1
10
85.2175180443622
20
-4.11388058652403
30
0
41
1
10
85.5504941050247
20
-4.12962521222067
30
0
41
1
10
85.752290847373
20
-4.13444136222171
30
0
41
1
10
85.9539879532103
20
-4.13456798719901
30
0
0
SPLINE
5
104
100
AcDbEntity
8
1
62
256
6
ByLayer
370
18
48
1
60
0
100
AcDbSpline
70
4
71
3
72
38
73
34
40
0
40
0
40
0
40
0
40
0.0048100121695218
40
0.0048100121695218
40
0.0877425111553931
40
0.0877425111553931
40
0.129208760648329
40
0.129208760648329
40
0.170675010141264
40
0.170675010141264
40
0.253607509127143
40
0.253607509127143
40
0.336540008113022
40
0.336540008113022
40
0.378006257605958
40
0.378006257605958
40
0.419472507098894
40
0.419472507098894
40
0.502405006084765
40
0.502405006084765
40
0.585337505070636
40
0.585337505070636
40
0.668270004056508
40
0.668270004056508
40
0.751202503042379
40
0.751202503042379
40
0.834135002028251
40
0.834135002028251
40
0.917067501014123
40
0.917067501014123
40
0.958533750507061
40
0.958533750507061
40
1
40
1
40
1
40
1
41
1
10
101.122796970463
20
1.98936889356545
30
0
41
1
10
101.138069621098
20
1.99696705167119
30
0
41
1
10
101.153340423356
20
2.0045549506217
30
0
41
1
10
101.431869002306
20
2.14278699052488
30
0
41
1
10
101.69512566848
20
2.26950450356421
30
0
41
1
10
102.091101422923
20
2.45208377324067
30
0
41
1
10
102.223209152719
20
2.51176426247625
30
0
41
1
10
102.486870282101
20
2.62889062433942
30
0
41
1
10
102.618237261136
20
2.68670498745584
30
0
41
1
10
103.013179449225
20
2.85484988479894
30
0
41
1
10
103.27700999119
20
2.96077450937881
30
0
41
1
10
103.804014736458
20
3.16245537298485
30
0
41
1
10
104.067669056653
20
3.25769286612964
30
0
41
1
10
104.463152401849
20
3.38979892126534
30
0
41
1
10
104.594996567398
20
3.43213624384151
30
0
41
1
10
104.858541202991
20
3.51359547348272
30
0
41
1
10
104.990006836484
20
3.55293072165304
30
0
41
1
10
105.384759491638
20
3.66548349877922
30
0
41
1
10
105.649153708201
20
3.7329950947877
30
0
41
1
10
106.176393790857
20
3.85390634560289
30
0
41
1
10
106.439303320208
20
3.90717583497258
30
0
41
1
10
106.966226039827
20
3.99782378892439
30
0
41
1
10
107.230440437238
20
4.03533390623824
30
0
41
1
10
107.757024396174
20
4.09534971722809
30
0
41
1
10
108.020701823465
20
4.11710246803938
30
0
41
1
10
108.547716147916
20
4.14480765316418
30
0
41
1
10
108.810628439355
20
4.15070697914817
30
0
41
1
10
109.337986276173
20
4.14625313396073
30
0
41
1
10
109.602289562565
20
4.13604689215688
30
0
41
1
10
109.997211085713
20
4.10857159959926
30
0
41
1
10
110.128611044172
20
4.09734019394429
30
0
41
1
10
110.392049752938
20
4.07104439515962
30
0
41
1
10
110.523942780918
20
4.05595475669156
30
0
41
1
10
110.655919676204
20
4.03890611516729
30
0
0
SPLINE
5
105
100
AcDbEntity
8
1
62
256
6
ByLayer
370
18
48
1
60
0
100
AcDbSpline
70
4
71
3
72
8
73
4
40
0
40
0
40
0
40
0
40
1
40
1
40
1
40
1
41
1
10
111.860791148719
20
-0.227104722905835
30
0
41
1
10
111.668374508858
20
-0.755765096050908
30
0
41
1
10
111.475957868997
20
-1.28442546919601
30
0
41
1
10
111.283541229136
20
-1.81308584234097
30
0
0
SPLINE
5
106
100
AcDbEntity
8
1
62
256
6
ByLayer
370
18
48
1
60
0
100
AcDbSpline
70
4
71
3
72
14
73
10
40
0
40
0
40
0
40
0
40
0.25
40
0.25
40
0.5
40
0.5
40
0.75
40
0.75
40
1
40
1
40
1
40
1
41
1
10
110.589340501283
20
-3.91595364615424
30
0
41
1
10
110.591757115195
20
-3.91520121729951
30
0
41
1
10
110.593500123185
20
-3.91620190456399
30
0
41
1
10
110.595234755835
20
-3.92273604834259
30
0
41
1
10
110.595170691287
20
-3.92838421439038
30
0
41
1
10
110.592370136056
20
-3.94514239405785
30
0
41
1
10
110.589602164953
20
-3.95621291074505
30
0
41
1
10
110.581883364574
20
-3.98106992922101
30
0
41
1
10
110.576978140788
20
-3.99473831662098
30
0
41
1
10
110.571794720775
20
-4.00784322287927
30
0
0
SPLINE
5
107
100
AcDbEntity
8
1
62
256
6
ByLayer
370
18
48
1
60
0
100
AcDbSpline
70
4
71
3
72
16
73
12
40
0
40
0
40
0
40
0
40
0.25
40
0.25
40
0.5
40
0.5
40
0.75
40
0.75
40
0.875
40
0.875
40
1
40
1
40
1
40
1
41
1
10
8.2505185835071
20
-2.77795917019463
30
0
41
1
10
8.22632343874801
20
-2.79818990636426
30
0
41
1
10
8.20192199890906
20
-2.82003191054005
30
0
41
1
10
8.15264872295489
20
-2.86777533349456
30
0
41
1
10
8.12732741931143
20
-2.89411619055025
30
0
41
1
10
8.07833700881662
20
-2.95114840829243
30
0
41
1
10
8.05459742939581
20
-2.98195855853132
30
0
41
1
10
8.02615830995936
20
-3.02790164036145
30
0
41
1
10
8.01820620416612
20
-3.04268113681204
30
0
41
1
10
8.00630489233876
20
-3.07003483171559
30
0
41
1
10
8.00262944173394
20
-3.08195015880725
30
0
41
1
10
8.00099444416617
20
-3.09210247217081
30
0
0
SPLINE
5
108
100
AcDbEntity
8
1
62
256
6
ByLayer
370
18
48
1
60
0
100
AcDbSpline
70
4
71
3
72
8
73
4
40
0
40
0
40
0
40
0
40
1
40
1
40
1
40
1
41
1
10
110.655919676203
20
4.03890611516732
30
0
41
1
10
110.60425684815
20
4.08913095773508
30
0
41
1
10
110.559023813133
20
4.12266738979167
30
0
41
1
10
110.519884864968
20
4.13882729991587
30
0
0
SPLINE
5
109
100
AcDbEntity
8
1
62
256
6
ByLayer
370
18
48
1
60
0
100
AcDbSpline
70
4
71
3
72
10
73
6
40
0
40
0
40
0
40
0
40
0.5
40
0.5
40
1
40
1
40
1
40
1
41
1
10
111.974811842144
20
0.16057085192665
30
0
41
1
10
111.976834611856
20
0.144714982243016
30
0
41
1
10
111.980180080039
20
0.126921421836585
30
0
41
1
10
111.988748477146
20
0.0885785101279453
30
0
41
1
10
111.993989284987
20
0.0680819771564529
30
0
41
1
10
111.999933263373
20
0.0470933707388497
30
0
0
SPLINE
5
10A
100
AcDbEntity
8
1
62
256
6
ByLayer
370
18
48
1
60
0
100
AcDbSpline
70
4
71
3
72
18
73
14
40
0
40
0
40
0
40
0
40
0.147156155583358
40
0.261524996925393
40
0.347228878214011
40
0.42463471956579
40
0.496693595414146
40
0.563257421878768
40
0.624180634281551
40
0.68498249553796
40
0.765364351958372
40
0.869079824927579
40
1
40
1
40
1
40
1
41
1
10
41.154186973004
20
-3.87839184663147
30
0
41
1
10
41.4667524918765
20
-3.87851636596864
30
0
41
1
10
42.0222427295413
20
-3.87877308407317
30
0
41
1
10
42.7607401090042
20
-3.8792073967218
30
0
41
1
10
43.3495400563026
20
-3.8795917507197
30
0
41
1
10
43.8491428743985
20
-3.88032578082092
30
0
41
1
10
44.3084033465124
20
-3.88050881210631
30
0
41
1
10
44.7325239233757
20
-3.88040423633561
30
0
41
1
10
45.1327669480627
20
-3.88081002910326
30
0
41
1
10
45.5623502756691
20
-3.88177734554344
30
0
41
1
10
46.0829178638933
20
-3.88111029601438
30
0
41
1
10
46.7525185643806
20
-3.8821288946458
30
0
41
1
10
47.2512637364842
20
-3.88225443522487
30
0
41
1
10
47.5295493620159
20
-3.88235780225719
30
0
0
SPLINE
5
10B
100
AcDbEntity
8
1
62
256
6
ByLayer
370
18
48
1
60
0
100
AcDbSpline
70
4
71
3
72
20
73
16
40
0
40
0
40
0
40
0
40
0.0097893828463715
40
0.108029436638422
40
0.198801393879614
40
0.271509956515894
40
0.338447895232155
40
0.409176825493017
40
0.491530267494023
40
0.585494523562604
40
0.721335910421323
40
0.834629023922614
40
0.920800188710786
40
0.962430432327337
40
1
40
1
40
1
40
1
41
1
10
47.4969374694924
20
3.88248168952569
30
0
41
1
10
47.4834186949046
20
3.88248851567351
30
0
41
1
10
47.3342343299535
20
3.88255431288906
30
0
41
1
10
47.0596570325563
20
3.88314905700807
30
0
41
1
10
46.698308010012
20
3.88179612920462
30
0
41
1
10
46.3802160911755
20
3.88131557866404
30
0
41
1
10
46.0897040062511
20
3.88134647168491
30
0
41
1
10
45.7858675489507
20
3.88151258353969
30
0
41
1
10
45.4447029653479
20
3.88157625632732
30
0
41
1
10
45.0136119347758
20
3.88049509442399
30
0
41
1
10
44.5397867499287
20
3.88043157430093
30
0
41
1
10
44.076716603796
20
3.88046766588442
30
0
41
1
10
43.743836309037
20
3.88006100556942
30
0
41
1
10
43.5157757840973
20
3.87965888487216
30
0
41
1
10
43.4064486438814
20
3.8795290199638
30
0
41
1
10
43.3545775544132
20
3.87947745119249
30
0
0
SPLINE
5
10C
100
AcDbEntity
8
1
62
256
6
ByLayer
370
18
48
1
60
0
100
AcDbSpline
70
4
71
1
72
4
73
2
40
0
40
0
40
1
40
1
41
1
10
110.155995880918
20
-3.92152654919354
30
0
41
1
10
110.558950676735
20
-3.92179175734262
30
0
0
SPLINE
5
10D
100
AcDbEntity
8
1
62
256
6
ByLayer
370
18
48
1
60
0
100
AcDbSpline
70
4
71
3
72
18
73
14
40
0
40
0
40
0
40
0
40
0.0377094395320391
40
0.171444281735497
40
0.294865135177563
40
0.398661507842118
40
0.482876934594153
40
0.573025772771914
40
0.67734760117526
40
0.801033972149856
40
0.904628157836343
40
0.982239250011143
40
1
40
1
40
1
40
1
41
1
10
93.7719844668567
20
3.90913778528821
30
0
41
1
10
93.7167972209251
20
3.90888648425295
30
0
41
1
10
93.4660235529597
20
3.90796635643082
30
0
41
1
10
93.0302160715479
20
3.9079873051007
30
0
41
1
10
92.5116829320351
20
3.9115251528907
30
0
41
1
10
92.0562602962247
20
3.91016110730445
30
0
41
1
10
91.646943759623
20
3.90936030652966
30
0
41
1
10
91.2387506819234
20
3.90972317701147
30
0
41
1
10
90.7712380404475
20
3.90981648832306
30
0
41
1
10
90.2841606475745
20
3.90879617187852
30
0
41
1
10
89.836240339816
20
3.90867071850511
30
0
41
1
10
89.5439466919731
20
3.90870939710669
30
0
41
1
10
89.4038410371233
20
3.90865648425816
30
0
41
1
10
89.3777498937045
20
3.90864426993235
30
0
0
SPLINE
5
10E
100
AcDbEntity
8
1
62
256
6
ByLayer
370
18
48
1
60
0
100
AcDbSpline
70
4
71
3
72
16
73
12
40
0
40
0
40
0
40
0
40
0.0188993032571095
40
0.2154579386482
40
0.382766495576372
40
0.527055057302067
40
0.64859811318552
40
0.774873019247783
40
0.876840325437662
40
0.951483050750192
40
1
40
1
40
1
40
1
41
1
10
70.7479248895456
20
3.89441369357732
30
0
41
1
10
70.7204648673742
20
3.89434164076934
30
0
41
1
10
70.4072960028558
20
3.89357957477156
30
0
41
1
10
69.8416683429284
20
3.89254018725495
30
0
41
1
10
69.1024960565459
20
3.89603737687142
30
0
41
1
10
68.4681672404797
20
3.89532988871534
30
0
41
1
10
67.8936159514151
20
3.89530301093129
30
0
41
1
10
67.3797985232453
20
3.89521777125836
30
0
41
1
10
66.9393337849101
20
3.8936922520231
30
0
41
1
10
66.6098992311113
20
3.89309888670456
30
0
41
1
10
66.4293853699983
20
3.89296242467816
30
0
41
1
10
66.3582513554512
20
3.89292640847719
30
0
0
SPLINE
5
10F
100
AcDbEntity
8
1
62
256
6
ByLayer
370
18
48
1
60
0
100
AcDbSpline
70
4
71
3
72
19
73
15
40
0
40
0
40
0
40
0
40
0.116214587848981
40
0.209073136490744
40
0.278564288085038
40
0.325284052835336
40
0.368149980265699
40
0.467421901403138
40
0.58420603632218
40
0.665946364297759
40
0.736445083364566
40
0.799808292976577
40
0.890658863080334
40
1
40
1
40
1
40
1
41
1
10
64.1542914130094
20
-3.89282469304337
30
0
41
1
10
64.4017898196718
20
-3.89297559042347
30
0
41
1
10
64.8470418004255
20
-3.89328204570717
30
0
41
1
10
65.4402790798719
20
-3.89348993269354
30
0
41
1
10
65.8855075358547
20
-3.89406787306095
30
0
41
1
10
66.2242881320121
20
-3.89421616844552
30
0
41
1
10
66.6263113295944
20
-3.89421781097482
30
0
41
1
10
67.1777289621126
20
-3.89453771870058
30
0
41
1
10
67.8119498597675
20
-3.89539293987187
30
0
41
1
10
68.3848703498911
20
-3.89529453559743
30
0
41
1
10
68.8440432768201
20
-3.89593146580711
30
0
41
1
10
69.3225916084858
20
-3.89590254337239
30
0
41
1
10
69.8838902711785
20
-3.89543656679461
30
0
41
1
10
70.3102272664206
20
-3.89591643606946
30
0
41
1
10
70.5430845951251
20
-3.89630995454789
30
0
0
SPLINE
5
110
100
AcDbEntity
8
1
62
256
6
ByLayer
370
18
48
1
60
0
100
AcDbSpline
70
4
71
3
72
17
73
13
40
0
40
0
40
0
40
0
40
0.0509923187813716
40
0.187812912751219
40
0.313310312379834
40
0.413501308648167
40
0.490198346221129
40
0.577648922097213
40
0.706211373770065
40
0.848867807560235
40
0.959251503341437
40
1
40
1
40
1
40
1
41
1
10
24.8172785937993
20
3.86516469312747
30
0
41
1
10
24.741902371506
20
3.86459541199324
30
0
41
1
10
24.4645668485661
20
3.86297815536545
30
0
41
1
10
23.997215660235
20
3.86731502073499
30
0
41
1
10
23.4736673388397
20
3.86802415255227
30
0
41
1
10
23.0265153231161
20
3.86686174222089
30
0
41
1
10
22.63372650264
20
3.86718217802604
30
0
41
1
10
22.2002177344852
20
3.86743826532552
30
0
41
1
10
21.6676741878743
20
3.86596674538083
30
0
41
1
10
21.101309273456
20
3.86620846094721
30
0
41
1
10
20.6652084130031
20
3.86598711242735
30
0
41
1
10
20.4408946159934
20
3.86565131925693
30
0
41
1
10
20.3804164085642
20
3.86556544788152
30
0
0
SPLINE
5
111
100
AcDbEntity
8
1
62
256
6
ByLayer
370
18
48
1
60
0
100
AcDbSpline
70
4
71
2
72
6
73
3
40
0
40
0
40
0
40
1
40
1
40
1
41
1
10
98.4835826499917
20
0.0006554624187345
30
0
41
1
10
98.4835700904375
20
0.000662137648618
30
0
41
1
10
98.4835575309501
20
0.0006690348838276
30
0
0
SPLINE
5
112
100
AcDbEntity
8
1
62
256
6
ByLayer
370
18
48
1
60
0
100
AcDbSpline
70
4
71
3
72
18
73
14
40
0
40
0
40
0
40
0
40
0.132743352447184
40
0.251460519386197
40
0.354286130949758
40
0.433288282422343
40
0.492483651858835
40
0.557313165422884
40
0.631693610835446
40
0.708013113421881
40
0.783268302585163
40
0.876278445802672
40
1
40
1
40
1
40
1
41
1
10
18.1528144914535
20
-3.86394596526469
30
0
41
1
10
18.4359012771096
20
-3.86382119758838
30
0
41
1
10
18.9727264049303
20
-3.86385539923256
30
0
41
1
10
19.7347904060821
20
-3.86404905914037
30
0
41
1
10
20.3757023894968
20
-3.8656658571303
30
0
41
1
10
20.8923337366944
20
-3.86618626986507
30
0
41
1
10
21.3279288010586
20
-3.86612921888559
30
0
41
1
10
21.7535172553895
20
-3.86621847638898
30
0
41
1
10
22.215858527757
20
-3.86741236361254
30
0
41
1
10
22.7005549377159
20
-3.86719345216582
30
0
41
1
10
23.2248969214012
20
-3.86684757203315
30
0
41
1
10
23.8512721581886
20
-3.86913844935205
30
0
41
1
10
24.316135652309
20
-3.86848173060991
30
0
41
1
10
24.581525488166
20
-3.86782231947049
30
0
0
SPLINE
5
113
100
AcDbEntity
8
1
62
256
6
ByLayer
370
18
48
1
60
0
100
AcDbSpline
70
4
71
3
72
18
73
14
40
0
40
0
40
0
40
0
40
0.131228710222135
40
0.252902678070332
40
0.362092646570101
40
0.447852612241604
40
0.522709126486605
40
0.589769354208781
40
0.664330789370933
40
0.735263980559949
40
0.803734283269318
40
0.895298137617426
40
1
40
1
40
1
40
1
41
1
10
87.1552499130927
20
-3.90711106381869
30
0
41
1
10
87.4334367253016
20
-3.90672613676671
30
0
41
1
10
87.9704155945591
20
-3.90645993468505
30
0
41
1
10
88.7483522653059
20
-3.9067268847719
30
0
41
1
10
89.4193035441728
20
-3.90911002276906
30
0
41
1
10
89.9967449860427
20
-3.90848957138579
30
0
41
1
10
90.4836827195573
20
-3.90926436557245
30
0
41
1
10
90.9468326389072
20
-3.90991354048981
30
0
41
1
10
91.4015267481659
20
-3.9094693514057
30
0
41
1
10
91.8592373757459
20
-3.9097194225171
30
0
41
1
10
92.3531003035247
20
-3.91101590882767
30
0
41
1
10
92.9195304126332
20
-3.91001815978231
30
0
41
1
10
93.3393480415708
20
-3.91084099219691
30
0
41
1
10
93.5633159456933
20
-3.91137871805964
30
0
0
SPLINE
5
114
100
AcDbEntity
8
1
62
256
6
ByLayer
370
18
48
1
60
0
100
AcDbSpline
70
4
71
1
72
4
73
2
40
0
40
0
40
1
40
1
41
1
10
52.482190531483
20
0.0011915567764333
30
0
41
1
10
52.4822009629495
20
0.0011866276767591
30
0
0
LINE
5
7B
100
AcDbEntity
8
SK1
62
256
6
ByLayer
370
18
48
1
60
0
100
AcDbLine
10
0
20
-5
30
0
11
0
21
5
31
0
39
0
210
0
220
0
230
1
0
LINE
5
7D
100
AcDbEntity
8
SK1
62
256
6
ByLayer
370
18
48
1
60
0
100
AcDbLine
10
-40
20
0.803363
30
0
11
-40
21
-3.66
31
0
39
0
210
0
220
0
230
1
0
LINE
5
7E
100
AcDbEntity
8
SK1
62
256
6
ByLayer
370
18
48
1
60
0
100
AcDbLine
10
-40
20
2.560401
30
0
11
-40
21
0.803413
31
0
39
0
210
0
220
0
230
1
0
LINE
5
7F
100
AcDbEntity
8
SK1
62
256
6
ByLayer
370
18
48
1
60
0
100
AcDbLine
10
-39.25
20
1.271684
30
0
11
-39.25
21
2.853018
31
0
39
0
210
0
220
0
230
1
0
LINE
5
80
100
AcDbEntity
8
SK1
62
256
6
ByLayer
370
13
48
1
60
0
100
AcDbLine
10
-39.35
20
2.881252
30
0
11
-39.35
21
1.124167
31
0
39
0
210
0
220
0
230
1
0
LINE
5
81
100
AcDbEntity
8
SK1
62
256
6
ByLayer
370
18
48
1
60
0
100
AcDbLine
10
-40
20
3.66
30
0
11
-40
21
2.560401
31
0
39
0
210
0
220
0
230
1
0
LINE
5
82
100
AcDbEntity
8
SK1
62
256
6
ByLayer
370
18
48
1
60
0
100
AcDbLine
10
-38.66
20
5
30
0
11
-38.66
21
-5
31
0
39
0
210
0
220
0
230
1
0
LINE
5
83
100
AcDbEntity
8
1
62
256
6
ByLayer
370
13
48
1
60
0
100
AcDbLine
10
110.592259
20
1.03576
30
0
11
111.974812
21
0.160571
31
0
39
0
210
0
220
0
230
1
0
LINE
5
84
100
AcDbEntity
8
1
62
256
6
ByLayer
370
18
48
1
60
0
100
AcDbLine
10
0
20
-5
30
0
11
0
21
5
31
0
39
0
210
0
220
0
230
1
0
LINE
5
85
100
AcDbEntity
8
1
62
256
6
ByLayer
370
18
48
1
60
0
100
AcDbLine
10
109.910428
20
-2.874316
30
0
11
111.860791
21
-0.227105
31
0
39
0
210
0
220
0
230
1
0
LINE
5
86
100
AcDbEntity
8
1
62
256
6
ByLayer
370
13
48
1
60
0
100
AcDbLine
10
0.723744
20
4.540872
30
0
11
0.723744
21
-4.540872
31
0
39
0
210
0
220
0
230
1
0
LINE
5
87
100
AcDbEntity
8
1
62
256
6
ByLayer
370
13
48
1
60
0
100
AcDbLine
10
1.447989
20
4.081745
30
0
11
1.447989
21
-4.081745
31
0
39
0
210
0
220
0
230
1
0
LINE
5
88
100
AcDbEntity
8
1
62
256
6
ByLayer
370
13
48
1
60
0
100
AcDbLine
10
110.485789
20
0.921345
30
0
11
111.971862
21
-0.019375
31
0
39
0
210
0
220
0
230
1
0
LINE
5
89
100
AcDbEntity
8
80
62
256
6
ByLayer
370
18
48
1
60
0
100
AcDbLine
10
0
20
0
30
0
11
-5
21
0
31
0
39
0
210
0
220
0
230
1
0
LINE
5
8A
100
AcDbEntity
8
4
62
256
6
ByLayer
370
18
48
0.05
60
0
100
AcDbLine
10
112
20
0
30
0
11
0
21
0
31
0
39
0
210
0
220
0
230
1
0
LINE
5
8C
100
AcDbEntity
8
SK4
62
256
6
ByLayer
370
18
48
0.05
60
0
100
AcDbLine
10
117
20
0
30
0
11
-45
21
0
31
0
39
0
210
0
220
0
230
1
0
LINE
5
8E
100
AcDbEntity
8
SK1
62
256
6
ByLayer
370
18
48
1
60
0
100
AcDbLine
10
-40
20
-3.66
30
0
11
-38.66
21
-5
31
0
39
0
210
0
220
0
230
1
0
LINE
5
8F
100
AcDbEntity
8
SK1
62
256
6
ByLayer
370
18
48
1
60
0
100
AcDbLine
10
-38.66
20
5
30
0
11
-40
21
3.66
31
0
39
0
210
0
220
0
230
1
0
LINE
5
90
100
AcDbEntity
8
SK1
62
256
6
ByLayer
370
18
48
1
60
0
100
AcDbLine
10
-38.66
20
-5
30
0
11
0
21
-5
31
0
39
0
210
0
220
0
230
1
0
LINE
5
91
100
AcDbEntity
8
SK1
62
256
6
ByLayer
370
18
48
1
60
0
100
AcDbLine
10
0
20
5
30
0
11
-38.66
21
5
31
0
39
0
210
0
220
0
230
1
0
LINE
5
92
100
AcDbEntity
8
1
62
256
6
ByLayer
370
18
48
1
60
0
100
AcDbLine
10
1.447989
20
-4.081745
30
0
11
6.312397
21
-4.084785
31
0
39
0
210
0
220
0
230
1
0
LINE
5
93
100
AcDbEntity
8
1
62
256
6
ByLayer
370
18
48
1
60
0
100
AcDbLine
10
16.942679
20
-4.091429
30
0
11
17.984467
21
-4.09208
31
0
39
0
210
0
220
0
230
1
0
LINE
5
94
100
AcDbEntity
8
1
62
256
6
ByLayer
370
18
48
1
60
0
100
AcDbLine
10
39.945698
20
-4.105806
30
0
11
40.984449
21
-4.106455
31
0
39
0
210
0
220
0
230
1
0
LINE
5
95
100
AcDbEntity
8
1
62
256
6
ByLayer
370
18
48
1
60
0
100
AcDbLine
10
62.95014
20
-4.120184
30
0
11
63.984719
21
-4.120831
31
0
39
0
210
0
220
0
230
1
0
LINE
5
96
100
AcDbEntity
8
1
62
256
6
ByLayer
370
18
48
1
60
0
100
AcDbLine
10
85.955103
20
-4.134562
30
0
11
86.984548
21
-4.135205
31
0
39
0
210
0
220
0
230
1
0
LINE
5
97
100
AcDbEntity
8
1
62
256
6
ByLayer
370
18
48
1
60
0
100
AcDbLine
10
108.958078
20
-4.148939
30
0
11
109.984869
21
-4.149581
31
0
39
0
210
0
220
0
230
1
0
LINE
5
98
100
AcDbEntity
8
1
62
256
6
ByLayer
370
18
48
1
60
0
100
AcDbLine
10
109.984797
20
4.149581
30
0
11
108.958078
21
4.148939
31
0
39
0
210
0
220
0
230
1
0
LINE
5
99
100
AcDbEntity
8
1
62
256
6
ByLayer
370
18
48
1
60
0
100
AcDbLine
10
86.984609
20
4.135205
30
0
11
85.955103
21
4.134562
31
0
39
0
210
0
220
0
230
1
0
LINE
5
9A
100
AcDbEntity
8
1
62
256
6
ByLayer
370
18
48
1
60
0
100
AcDbLine
10
63.984528
20
4.12083
30
0
11
62.95014
21
4.120184
31
0
39
0
210
0
220
0
230
1
0
LINE
5
9B
100
AcDbEntity
8
1
62
256
6
ByLayer
370
18
48
1
60
0
100
AcDbLine
10
40.984861
20
4.106456
30
0
11
39.945698
21
4.105806
31
0
39
0
210
0
220
0
230
1
0
LINE
5
9C
100
AcDbEntity
8
1
62
256
6
ByLayer
370
18
48
1
60
0
100
AcDbLine
10
17.984002
20
4.09208
30
0
11
16.942679
21
4.091429
31
0
39
0
210
0
220
0
230
1
0
LINE
5
9D
100
AcDbEntity
8
1
62
256
6
ByLayer
370
18
48
1
60
0
100
AcDbLine
10
6.312397
20
4.084785
30
0
11
1.447989
21
4.081745
31
0
39
0
210
0
220
0
230
1
0
LINE
5
9E
100
AcDbEntity
8
81
62
256
6
ByLayer
370
18
48
1
60
0
100
AcDbLine
10
112
20
0
30
0
11
117
21
0
31
0
39
0
210
0
220
0
230
1
0
LINE
5
9F
100
AcDbEntity
8
SK2
62
256
6
ByLayer
370
13
48
1
60
0
100
AcDbLine
10
-48.625163
20
-5
30
0
11
-48.625163
21
35.857173
31
0
39
0
210
0
220
0
230
1
0
LINE
5
A1
100
AcDbEntity
8
SK2
62
256
6
ByLayer
370
13
48
1
60
0
100
AcDbLine
10
-41.5875
20
5
30
0
11
-50.625163
21
5
31
0
39
0
210
0
220
0
230
1
0
LINE
5
A2
100
AcDbEntity
8
SK2
62
256
6
ByLayer
370
13
48
1
60
0
100
AcDbLine
10
-41.5875
20
-5
30
0
11
-50.625163
21
-5
31
0
39
0
210
0
220
0
230
1
0
LINE
5
A3
100
AcDbEntity
8
1
62
256
6
ByLayer
370
18
48
1
60
1
100
AcDbLine
10
-48.625163
20
5
30
0
11
-48.164379
21
1.500002
31
0
39
0
210
0
220
0
230
1
0
LINE
5
A4
100
AcDbEntity
8
1
62
256
6
ByLayer
370
18
48
1
60
1
100
AcDbLine
10
-48.164379
20
1.500002
30
0
11
-49.085946
21
1.499998
31
0
39
0
210
0
220
0
230
1
0
LINE
5
A5
100
AcDbEntity
8
1
62
256
6
ByLayer
370
18
48
1
60
1
100
AcDbLine
10
-49.085946
20
1.499998
30
0
11
-48.625163
21
5
31
0
39
0
210
0
220
0
230
1
0
LINE
5
A6
100
AcDbEntity
8
1
62
256
6
ByLayer
370
18
48
1
60
1
100
AcDbLine
10
-48.625163
20
-5
30
0
11
-49.085946
21
-1.500002
31
0
39
0
210
0
220
0
230
1
0
LINE
5
A7
100
AcDbEntity
8
1
62
256
6
ByLayer
370
18
48
1
60
1
100
AcDbLine
10
-49.085946
20
-1.500002
30
0
11
-48.164379
21
-1.499998
31
0
39
0
210
0
220
0
230
1
0
LINE
5
A8
100
AcDbEntity
8
1
62
256
6
ByLayer
370
18
48
1
60
1
100
AcDbLine
10
-48.164379
20
-1.499998
30
0
11
-48.625163
21
-5
31
0
39
0
210
0
220
0
230
1
0
LINE
5
A9
100
AcDbEntity
8
2
62
256
6
ByLayer
370
13
48
1
60
0
100
AcDbLine
10
124.083343
20
-4.15
30
0
11
124.083343
21
31.860193
31
0
39
0
210
0
220
0
230
1
0
LINE
5
AB
100
AcDbEntity
8
2
62
256
6
ByLayer
370
13
48
1
60
0
100
AcDbLine
10
112.3597
20
4.15
30
0
11
126.083343
21
4.15
31
0
39
0
210
0
220
0
230
1
0
LINE
5
AC
100
AcDbEntity
8
2
62
256
6
ByLayer
370
13
48
1
60
0
100
AcDbLine
10
112.3597
20
-4.15
30
0
11
126.083343
21
-4.15
31
0
39
0
210
0
220
0
230
1
0
LINE
5
AD
100
AcDbEntity
8
1
62
256
6
ByLayer
370
18
48
1
60
1
100
AcDbLine
10
124.083343
20
4.15
30
0
11
124.544126
21
0.650002
31
0
39
0
210
0
220
0
230
1
0
LINE
5
AE
100
AcDbEntity
8
1
62
256
6
ByLayer
370
18
48
1
60
1
100
AcDbLine
10
124.544126
20
0.650002
30
0
11
123.622559
21
0.649998
31
0
39
0
210
0
220
0
230
1
0
LINE
5
AF
100
AcDbEntity
8
1
62
256
6
ByLayer
370
18
48
1
60
1
100
AcDbLine
10
123.622559
20
0.649998
30
0
11
124.083343
21
4.15
31
0
39
0
210
0
220
0
230
1
0
LINE
5
B0
100
AcDbEntity
8
1
62
256
6
ByLayer
370
18
48
1
60
1
100
AcDbLine
10
124.083343
20
-4.15
30
0
11
123.622559
21
-0.650002
31
0
39
0
210
0
220
0
230
1
0
LINE
5
B1
100
AcDbEntity
8
1
62
256
6
ByLayer
370
18
48
1
60
1
100
AcDbLine
10
123.622559
20
-0.650002
30
0
11
124.544126
21
-0.649998
31
0
39
0
210
0
220
0
230
1
0
LINE
5
B2
100
AcDbEntity
8
1
62
256
6
ByLayer
370
18
48
1
60
1
100
AcDbLine
10
124.544126
20
-0.649998
30
0
11
124.083343
21
-4.15
31
0
39
0
210
0
220
0
230
1
0
LINE
5
11B
100
AcDbEntity
8
1
62
256
6
ByLayer
370
18
48
1
60
1
100
AcDbLine
10
-48.625163
20
5
30
0
11
-48.164379
21
1.500002
31
0
39
0
210
0
220
0
230
1
0
LINE
5
11C
100
AcDbEntity
8
1
62
256
6
ByLayer
370
18
48
1
60
1
100
AcDbLine
10
-48.164379
20
1.500002
30
0
11
-49.085946
21
1.499998
31
0
39
0
210
0
220
0
230
1
0
LINE
5
11D
100
AcDbEntity
8
1
62
256
6
ByLayer
370
18
48
1
60
1
100
AcDbLine
10
-49.085946
20
1.499998
30
0
11
-48.625163
21
5
31
0
39
0
210
0
220
0
230
1
0
LINE
5
11F
100
AcDbEntity
8
1
62
256
6
ByLayer
370
18
48
1
60
1
100
AcDbLine
10
-48.625163
20
-5
30
0
11
-49.085946
21
-1.500002
31
0
39
0
210
0
220
0
230
1
0
LINE
5
120
100
AcDbEntity
8
1
62
256
6
ByLayer
370
18
48
1
60
1
100
AcDbLine
10
-49.085946
20
-1.500002
30
0
11
-48.164379
21
-1.499998
31
0
39
0
210
0
220
0
230
1
0
LINE
5
121
100
AcDbEntity
8
1
62
256
6
ByLayer
370
18
48
1
60
1
100
AcDbLine
10
-48.164379
20
-1.499998
30
0
11
-48.625163
21
-5
31
0
39
0
210
0
220
0
230
1
0
LINE
5
125
100
AcDbEntity
8
1
62
256
6
ByLayer
370
18
48
1
60
1
100
AcDbLine
10
124.083343
20
4.15
30
0
11
124.544126
21
0.650002
31
0
39
0
210
0
220
0
230
1
0
LINE
5
126
100
AcDbEntity
8
1
62
256
6
ByLayer
370
18
48
1
60
1
100
AcDbLine
10
124.544126
20
0.650002
30
0
11
123.622559
21
0.649998
31
0
39
0
210
0
220
0
230
1
0
LINE
5
127
100
AcDbEntity
8
1
62
256
6
ByLayer
370
18
48
1
60
1
100
AcDbLine
10
123.622559
20
0.649998
30
0
11
124.083343
21
4.15
31
0
39
0
210
0
220
0
230
1
0
LINE
5
129
100
AcDbEntity
8
1
62
256
6
ByLayer
370
18
48
1
60
1
100
AcDbLine
10
124.083343
20
-4.15
30
0
11
123.622559
21
-0.650002
31
0
39
0
210
0
220
0
230
1
0
LINE
5
12A
100
AcDbEntity
8
1
62
256
6
ByLayer
370
18
48
1
60
1
100
AcDbLine
10
123.622559
20
-0.650002
30
0
11
124.544126
21
-0.649998
31
0
39
0
210
0
220
0
230
1
0
LINE
5
12B
100
AcDbEntity
8
1
62
256
6
ByLayer
370
18
48
1
60
1
100
AcDbLine
10
124.544126
20
-0.649998
30
0
11
124.083343
21
-4.15
31
0
39
0
210
0
220
0
230
1
0
MTEXT
5
115
100
AcDbEntity
8
SK6
62
256
6
ByLayer
370
13
48
1
60
0
100
AcDbMText
10
6.854807
20
36.690328
30
0
210
0
220
0
230
1
1
\W0.7670;462.1-0830-062A1-XM X2BM
40
3.5
41
0
44
1.084337
50
0
71
7
72
5
7
iso_b_vert
0
MTEXT
5
119
100
AcDbEntity
8
SK2
62
256
6
ByLayer
370
18
48
1
60
0
100
AcDbMText
10
-50.189796
20
18.409024
30
0
210
0
220
0
230
1
1
%%c
40
3.5
41
0
44
1.084337
50
90
71
7
72
5
7
iso_b_vert
0
MTEXT
5
11A
100
AcDbEntity
8
SK2
62
256
6
ByLayer
370
18
48
1
60
0
100
AcDbMText
10
-50.189796
20
23.63168
30
0
210
0
220
0
230
1
1
\W0.6930;10,000
40
3.5
41
0
44
1.084337
50
90
71
7
72
5
7
iso_b_vert
0
MTEXT
5
123
100
AcDbEntity
8
2
62
256
6
ByLayer
370
18
48
1
60
0
100
AcDbMText
10
122.518709
20
16.15211
30
0
210
0
220
0
230
1
1
%%c
40
3.5
41
0
44
1.084337
50
90
71
7
72
5
7
iso_b_vert
0
MTEXT
5
124
100
AcDbEntity
8
2
62
256
6
ByLayer
370
18
48
1
60
0
100
AcDbMText
10
122.518709
20
21.374766
30
0
210
0
220
0
230
1
1
\W0.7317;8,300
40
3.5
41
0
44
1.084337
50
90
71
7
72
5
7
iso_b_vert
0
HATCH
5
11E
100
AcDbEntity
8
SK2
62
256
6
ByLayer
370
13
48
1
60
0
100
AcDbHatch
10
0
20
0
30
0
210
0
220
0
230
1
2
ANSI31
70
0
71
0
91
1
92
5
93
3
72
1
10
-48.6251625675374
20
5
11
-48.1643788259847
21
1.50000169255318
72
1
10
-48.1643788259847
20
1.50000169255318
11
-49.0859463090902
21
1.49999830744682
72
1
10
-49.0859463090902
20
1.49999830744682
11
-48.6251625675374
21
5
97
0
75
0
76
1
52
0
41
0.0062
77
0
78
1
53
45
43
0
44
0
45
-0.0139193969876572
46
0.0139193969876572
79
0
47
0
98
1
10
0
20
0
0
HATCH
5
122
100
AcDbEntity
8
SK2
62
256
6
ByLayer
370
13
48
1
60
0
100
AcDbHatch
10
0
20
0
30
0
210
0
220
0
230
1
2
ANSI31
70
0
71
0
91
1
92
5
93
3
72
1
10
-48.6251625675374
20
-5
11
-49.0859463090902
21
-1.50000169255318
72
1
10
-49.0859463090902
20
-1.50000169255318
11
-48.1643788259847
21
-1.49999830744682
72
1
10
-48.1643788259847
20
-1.49999830744682
11
-48.6251625675374
21
-5
97
0
75
0
76
1
52
0
41
0.0062
77
0
78
1
53
45
43
0
44
0
45
-0.0139193969876572
46
0.0139193969876572
79
0
47
0
98
1
10
0
20
0
0
HATCH
5
128
100
AcDbEntity
8
2
62
256
6
ByLayer
370
13
48
1
60
0
100
AcDbHatch
10
0
20
0
30
0
210
0
220
0
230
1
2
ANSI31
70
0
71
0
91
1
92
5
93
3
72
1
10
124.083342615295
20
4.15000000000001
11
124.544126356848
21
0.65000169255319
72
1
10
124.544126356848
20
0.65000169255319
11
123.622558873742
21
0.649998307446822
72
1
10
123.622558873742
20
0.649998307446822
11
124.083342615295
21
4.15000000000001
97
0
75
0
76
1
52
0
41
0.0062
77
0
78
1
53
45
43
0
44
0
45
-0.0139193969876572
46
0.0139193969876572
79
0
47
0
98
1
10
0
20
0
0
HATCH
5
12C
100
AcDbEntity
8
2
62
256
6
ByLayer
370
13
48
1
60
0
100
AcDbHatch
10
0
20
0
30
0
210
0
220
0
230
1
2
ANSI31
70
0
71
0
91
1
92
5
93
3
72
1
10
124.083342615295
20
-4.15000000000001
11
123.622558873742
21
-0.65000169255319
72
1
10
123.622558873742
20
-0.65000169255319
11
124.544126356848
21
-0.649998307446822
72
1
10
124.544126356848
20
-0.649998307446822
11
124.083342615295
21
-4.15000000000001
97
0
75
0
76
1
52
0
41
0.0062
77
0
78
1
53
45
43
0
44
0
45
-0.0139193969876572
46
0.0139193969876572
79
0
47
0
98
1
10
0
20
0
0
DIMENSION
5
12E
100
AcDbEntity
8
SK2
62
256
6
ByLayer
370
13
48
1
60
0
100
AcDbDimension
2
_U0
10
110.7722
20
-14.363398
30
0
11
55.3861
21
-14.363398
31
0
70
32
71
1
72
1
41
1
210
0
220
0
230
1
3
Standard
100
AcDbAlignedDimension
13
0
23
0
33
0
14
110.7722
24
-4.15
34
0
50
0
100
AcDbRotatedDimension
1001
ACAD
1000
DSTYLE
1002
{
1070
   371
1070
    13
1070
   372
1070
    13
1070
   170
1070
     0
1070
   144
1040
1.0
1070
   277
1070
     2
1070
   278
1070
    44
1070
   146
1040
1.0
1070
   345
1005
16
1070
   347
1005
16
1070
   346
1005
16
1070
   344
1005
0
1070
   343
1005
0
1070
   172
1070
     1
1070
    76
1070
     0
1070
    75
1070
     0
1070
   282
1070
     0
1070
   281
1070
     0
1070
    71
1070
     0
1070
    74
1070
     0
1070
   279
1070
     0
1070
   173
1070
     1
1070
   340
1005
116
1070
   271
1070
     2
1070
   272
1070
     2
1070
    77
1070
     1
1070
    73
1070
     1
1070
   171
1070
     3
1070
   274
1070
     4
1070
   177
1070
    35
1070
   176
1070
    35
1070
   178
1070
    35
1070
    48
1040
-0.1
1070
    41
1040
3.5
1070
   147
1040
1.75
1070
    42
1040
1.5875
1070
    44
1040
2.0
1070
   140
1040
3.5
1002
}
1001
ACAD_DSTYLE_DIM_LINETYPE
1070
   380
1005
16
1001
ACAD_DSTYLE_DIM_EXT1_LINETYPE
1070
   381
1005
16
1001
ACAD_DSTYLE_DIM_EXT2_LINETYPE
1070
   382
1005
16
0
DIMENSION
5
147
100
AcDbEntity
8
SK2
62
256
6
ByLayer
370
13
48
1
60
0
100
AcDbDimension
2
_U1
10
112
20
-33.692985
30
0
11
36
21
-33.692985
31
0
70
32
71
1
72
1
41
1
210
0
220
0
230
1
3
Standard
100
AcDbAlignedDimension
13
-40
23
-5
33
0
14
112
24
0
34
0
50
0
100
AcDbRotatedDimension
1001
ACAD
1000
DSTYLE
1002
{
1070
   371
1070
    13
1070
   372
1070
    13
1070
   170
1070
     0
1070
   144
1040
1.0
1070
   277
1070
     2
1070
   278
1070
    44
1070
   146
1040
1.0
1070
   345
1005
16
1070
   347
1005
16
1070
   346
1005
16
1070
   344
1005
0
1070
   343
1005
0
1070
   172
1070
     1
1070
    76
1070
     0
1070
    75
1070
     0
1070
   282
1070
     0
1070
   281
1070
     0
1070
    71
1070
     0
1070
    74
1070
     0
1070
   279
1070
     0
1070
   173
1070
     1
1070
   340
1005
116
1070
   271
1070
     2
1070
   272
1070
     2
1070
    77
1070
     1
1070
    73
1070
     1
1070
   171
1070
     3
1070
   274
1070
     4
1070
   177
1070
    35
1070
   176
1070
    35
1070
   178
1070
    35
1070
    48
1040
-0.1
1070
    41
1040
3.5
1070
   147
1040
1.75
1070
    42
1040
1.5875
1070
    44
1040
2.0
1070
   140
1040
3.5
1002
}
1001
ACAD_DSTYLE_DIM_LINETYPE
1070
   380
1005
16
1001
ACAD_DSTYLE_DIM_EXT1_LINETYPE
1070
   381
1005
16
1001
ACAD_DSTYLE_DIM_EXT2_LINETYPE
1070
   382
1005
16
0
DIMENSION
5
15F
100
AcDbEntity
8
SK2
62
256
6
ByLayer
370
13
48
1
60
0
100
AcDbDimension
2
_U2
10
112
20
15.759119
30
0
11
78.185
21
15.759119
31
0
70
32
71
1
72
1
41
1
210
0
220
0
230
1
3
Standard
100
AcDbAlignedDimension
13
44.37
23
4.15
33
0
14
112
24
0
34
0
50
0
100
AcDbRotatedDimension
1001
ACAD
1000
DSTYLE
1002
{
1070
   371
1070
    13
1070
   372
1070
    13
1070
   170
1070
     0
1070
   144
1040
1.0
1070
   277
1070
     2
1070
   278
1070
    44
1070
   146
1040
1.0
1070
   345
1005
16
1070
   347
1005
16
1070
   346
1005
16
1070
   344
1005
0
1070
   343
1005
0
1070
   172
1070
     1
1070
    76
1070
     0
1070
    75
1070
     0
1070
   282
1070
     0
1070
   281
1070
     0
1070
    71
1070
     0
1070
    74
1070
     0
1070
   279
1070
     0
1070
   173
1070
     1
1070
   340
1005
116
1070
   271
1070
     2
1070
   272
1070
     2
1070
    77
1070
     1
1070
    73
1070
     1
1070
   171
1070
     3
1070
   274
1070
     4
1070
   177
1070
    35
1070
   176
1070
    35
1070
   178
1070
    35
1070
    48
1040
-0.1
1070
    41
1040
3.5
1070
   147
1040
1.75
1070
    42
1040
1.5875
1070
    44
1040
2.0
1070
   140
1040
3.5
1002
}
1001
ACAD_DSTYLE_DIM_LINETYPE
1070
   380
1005
16
1001
ACAD_DSTYLE_DIM_EXT1_LINETYPE
1070
   381
1005
16
1001
ACAD_DSTYLE_DIM_EXT2_LINETYPE
1070
   382
1005
16
0
DIMENSION
5
177
100
AcDbEntity
8
SK2
62
256
6
ByLayer
370
13
48
1
60
0
100
AcDbDimension
2
_U3
10
110.7722
20
-16.952503
30
0
11
129.333333
21
-16.952503
31
0
70
32
71
1
72
1
41
1
210
0
220
0
230
1
3
Standard
100
AcDbAlignedDimension
13
112
23
0
33
0
14
110.7722
24
-4.15
34
0
50
0
100
AcDbRotatedDimension
1001
ACAD
1000
DSTYLE
1002
{
1070
   371
1070
    13
1070
   372
1070
    13
1070
   170
1070
     0
1070
   144
1040
1.0
1070
   277
1070
     2
1070
   278
1070
    44
1070
   146
1040
1.0
1070
   345
1005
16
1070
   347
1005
16
1070
   346
1005
16
1070
   344
1005
0
1070
   343
1005
0
1070
   172
1070
     1
1070
    76
1070
     0
1070
    75
1070
     0
1070
   282
1070
     0
1070
   281
1070
     0
1070
    71
1070
     0
1070
    74
1070
     0
1070
   279
1070
     0
1070
   173
1070
     1
1070
   340
1005
116
1070
   271
1070
     2
1070
   272
1070
     2
1070
    77
1070
     1
1070
    73
1070
     1
1070
   171
1070
     3
1070
   274
1070
     4
1070
   177
1070
    35
1070
   176
1070
    35
1070
   178
1070
    35
1070
    48
1040
-0.1
1070
    41
1040
3.5
1070
   147
1040
1.75
1070
    42
1040
1.5875
1070
    44
1040
2.0
1070
   140
1040
3.5
1002
}
1001
ACAD_DSTYLE_DIM_LINETYPE
1070
   380
1005
16
1001
ACAD_DSTYLE_DIM_EXT1_LINETYPE
1070
   381
1005
16
1001
ACAD_DSTYLE_DIM_EXT2_LINETYPE
1070
   382
1005
16
0
DIMENSION
5
191
100
AcDbEntity
8
SK2
62
256
6
ByLayer
370
13
48
1
60
0
100
AcDbDimension
2
_U4
10
110.7722
20
-23.343428
30
0
11
35.3861
21
-23.343428
31
0
70
32
71
1
72
1
41
1
210
0
220
0
230
1
3
Standard
100
AcDbAlignedDimension
13
-40
23
-5
33
0
14
110.7722
24
-4.15
34
0
50
0
100
AcDbRotatedDimension
1001
ACAD
1000
DSTYLE
1002
{
1070
   371
1070
    13
1070
   372
1070
    13
1070
   170
1070
     0
1070
   144
1040
1.0
1070
   277
1070
     2
1070
   278
1070
    44
1070
   146
1040
1.0
1070
   345
1005
16
1070
   347
1005
16
1070
   346
1005
16
1070
   344
1005
0
1070
   343
1005
0
1070
   172
1070
     1
1070
    76
1070
     0
1070
    75
1070
     0
1070
   282
1070
     0
1070
   281
1070
     0
1070
    71
1070
     0
1070
    74
1070
     0
1070
   279
1070
     0
1070
   173
1070
     1
1070
   340
1005
116
1070
   271
1070
     2
1070
   272
1070
     2
1070
    77
1070
     1
1070
    73
1070
     1
1070
   171
1070
     3
1070
   274
1070
     4
1070
   177
1070
    35
1070
   176
1070
    35
1070
   178
1070
    35
1070
    48
1040
-0.1
1070
    41
1040
3.5
1070
   147
1040
1.75
1070
    42
1040
1.5875
1070
    44
1040
2.0
1070
   140
1040
3.5
1002
}
1001
ACAD_DSTYLE_DIM_LINETYPE
1070
   380
1005
16
1001
ACAD_DSTYLE_DIM_EXT1_LINETYPE
1070
   381
1005
16
1001
ACAD_DSTYLE_DIM_EXT2_LINETYPE
1070
   382
1005
16
0
ENDSEC
0
SECTION
2
OBJECTS
0
DICTIONARY
5
219
330
0
100
AcDbDictionary
280
0
281
1
3
ACAD_GROUP
350
21a
3
ACAD_MLINESTYLE
350
21b
0
DICTIONARY
5
21a
330
0
100
AcDbDictionary
280
0
281
1
0
DICTIONARY
5
21b
330
0
100
AcDbDictionary
280
0
281
1
3
Standard
350
18
0
MLINESTYLE
5
18
330
21b
100
AcDbMlineStyle
2
Standard
70
0
3

62
256
51
90
52
90
71
2
49
-0.5
62
256
6
ByLayer
49
0.5
62
256
6
ByLayer
0
RASTERVARIABLES
5
207
330

100
AcDbRasterVariables
90
0
70
1
71
1
72
1
0
ENDSEC
0
EOF
